  0
SECTION
  2
HEADER
  9
$ACADVER
  1
AC1027
  9
$ACADMAINTVER
 70
   125
  9
$DWGCODEPAGE
  3
ANSI_1252
  9
$LASTSAVEDBY
  1
fleminab
  9
$REQUIREDVERSIONS
160
                 0
  9
$INSBASE
 10
0.0
 20
0.0
 30
0.0
  9
$EXTMIN
 10
854.432255192307
 20
468.6302950164265
 30
-0.0015258207003583
  9
$EXTMAX
 10
1117.227099737485
 20
585.2367181578387
 30
0.0000000349246037
  9
$LIMMIN
 10
0.0
 20
0.0
  9
$LIMMAX
 10
420.0
 20
297.0
  9
$ORTHOMODE
 70
     0
  9
$REGENMODE
 70
     1
  9
$FILLMODE
 70
     1
  9
$QTEXTMODE
 70
     0
  9
$MIRRTEXT
 70
     0
  9
$LTSCALE
 40
1.0
  9
$ATTMODE
 70
     1
  9
$TEXTSIZE
 40
2.5
  9
$TRACEWID
 40
1.0
  9
$TEXTSTYLE
  7
Standard
  9
$CLAYER
  8
Defpoints
  9
$CELTYPE
  6
ByLayer
  9
$CECOLOR
 62
   256
  9
$CELTSCALE
 40
1.0
  9
$DISPSILH
 70
     0
  9
$DIMSCALE
 40
1.0
  9
$DIMASZ
 40
2.5
  9
$DIMEXO
 40
0.625
  9
$DIMDLI
 40
3.75
  9
$DIMRND
 40
0.0
  9
$DIMDLE
 40
0.0
  9
$DIMEXE
 40
1.25
  9
$DIMTP
 40
0.0
  9
$DIMTM
 40
0.0
  9
$DIMTXT
 40
2.5
  9
$DIMCEN
 40
2.5
  9
$DIMTSZ
 40
0.0
  9
$DIMTOL
 70
     0
  9
$DIMLIM
 70
     0
  9
$DIMTIH
 70
     0
  9
$DIMTOH
 70
     0
  9
$DIMSE1
 70
     0
  9
$DIMSE2
 70
     0
  9
$DIMTAD
 70
     1
  9
$DIMZIN
 70
     8
  9
$DIMBLK
  1

  9
$DIMASO
 70
     1
  9
$DIMSHO
 70
     1
  9
$DIMPOST
  1

  9
$DIMAPOST
  1

  9
$DIMALT
 70
     0
  9
$DIMALTD
 70
     3
  9
$DIMALTF
 40
0.03937007874016
  9
$DIMLFAC
 40
1.0
  9
$DIMTOFL
 70
     1
  9
$DIMTVP
 40
0.0
  9
$DIMTIX
 70
     0
  9
$DIMSOXD
 70
     0
  9
$DIMSAH
 70
     0
  9
$DIMBLK1
  1

  9
$DIMBLK2
  1

  9
$DIMSTYLE
  2
ISO-25
  9
$DIMCLRD
 70
     0
  9
$DIMCLRE
 70
     0
  9
$DIMCLRT
 70
     0
  9
$DIMTFAC
 40
1.0
  9
$DIMGAP
 40
0.625
  9
$DIMJUST
 70
     0
  9
$DIMSD1
 70
     0
  9
$DIMSD2
 70
     0
  9
$DIMTOLJ
 70
     0
  9
$DIMTZIN
 70
     8
  9
$DIMALTZ
 70
     0
  9
$DIMALTTZ
 70
     0
  9
$DIMUPT
 70
     0
  9
$DIMDEC
 70
     2
  9
$DIMTDEC
 70
     2
  9
$DIMALTU
 70
     2
  9
$DIMALTTD
 70
     3
  9
$DIMTXSTY
  7
Standard
  9
$DIMAUNIT
 70
     0
  9
$DIMADEC
 70
     0
  9
$DIMALTRND
 40
0.0
  9
$DIMAZIN
 70
     0
  9
$DIMDSEP
 70
    44
  9
$DIMATFIT
 70
     3
  9
$DIMFRAC
 70
     0
  9
$DIMLDRBLK
  1

  9
$DIMLUNIT
 70
     2
  9
$DIMLWD
 70
    -2
  9
$DIMLWE
 70
    -2
  9
$DIMTMOVE
 70
     0
  9
$DIMFXL
 40
1.25
  9
$DIMFXLON
 70
     0
  9
$DIMJOGANG
 40
1.570796326794896
  9
$DIMTFILL
 70
     0
  9
$DIMTFILLCLR
 70
     0
  9
$DIMARCSYM
 70
     0
  9
$DIMLTYPE
  6

  9
$DIMLTEX1
  6

  9
$DIMLTEX2
  6

  9
$DIMTXTDIRECTION
 70
     0
  9
$LUNITS
 70
     2
  9
$LUPREC
 70
     4
  9
$SKETCHINC
 40
1.0
  9
$FILLETRAD
 40
0.0
  9
$AUNITS
 70
     0
  9
$AUPREC
 70
     0
  9
$MENU
  1
.
  9
$ELEVATION
 40
0.0
  9
$PELEVATION
 40
0.0
  9
$THICKNESS
 40
0.0
  9
$LIMCHECK
 70
     0
  9
$CHAMFERA
 40
0.0
  9
$CHAMFERB
 40
0.0
  9
$CHAMFERC
 40
0.0
  9
$CHAMFERD
 40
0.0
  9
$SKPOLY
 70
     0
  9
$TDCREATE
 40
2454831.723194445
  9
$TDUCREATE
 40
2454831.264867072
  9
$TDUPDATE
 40
2458015.597893518
  9
$TDUUPDATE
 40
2458015.181226852
  9
$TDINDWG
 40
0.0388290394
  9
$TDUSRTIMER
 40
0.0388290394
  9
$USRTIMER
 70
     1
  9
$ANGBASE
 50
0.0
  9
$ANGDIR
 70
     0
  9
$PDMODE
 70
     0
  9
$PDSIZE
 40
0.0
  9
$PLINEWID
 40
0.0
  9
$SPLFRAME
 70
     0
  9
$SPLINETYPE
 70
     6
  9
$SPLINESEGS
 70
     8
  9
$HANDSEED
  5
B68
  9
$SURFTAB1
 70
     6
  9
$SURFTAB2
 70
     6
  9
$SURFTYPE
 70
     6
  9
$SURFU
 70
     6
  9
$SURFV
 70
     6
  9
$UCSBASE
  2

  9
$UCSNAME
  2

  9
$UCSORG
 10
0.0
 20
0.0
 30
0.0
  9
$UCSXDIR
 10
1.0
 20
0.0
 30
0.0
  9
$UCSYDIR
 10
0.0
 20
1.0
 30
0.0
  9
$UCSORTHOREF
  2

  9
$UCSORTHOVIEW
 70
     0
  9
$UCSORGTOP
 10
0.0
 20
0.0
 30
0.0
  9
$UCSORGBOTTOM
 10
0.0
 20
0.0
 30
0.0
  9
$UCSORGLEFT
 10
0.0
 20
0.0
 30
0.0
  9
$UCSORGRIGHT
 10
0.0
 20
0.0
 30
0.0
  9
$UCSORGFRONT
 10
0.0
 20
0.0
 30
0.0
  9
$UCSORGBACK
 10
0.0
 20
0.0
 30
0.0
  9
$PUCSBASE
  2

  9
$PUCSNAME
  2

  9
$PUCSORG
 10
0.0
 20
0.0
 30
0.0
  9
$PUCSXDIR
 10
1.0
 20
0.0
 30
0.0
  9
$PUCSYDIR
 10
0.0
 20
1.0
 30
0.0
  9
$PUCSORTHOREF
  2

  9
$PUCSORTHOVIEW
 70
     0
  9
$PUCSORGTOP
 10
0.0
 20
0.0
 30
0.0
  9
$PUCSORGBOTTOM
 10
0.0
 20
0.0
 30
0.0
  9
$PUCSORGLEFT
 10
0.0
 20
0.0
 30
0.0
  9
$PUCSORGRIGHT
 10
0.0
 20
0.0
 30
0.0
  9
$PUCSORGFRONT
 10
0.0
 20
0.0
 30
0.0
  9
$PUCSORGBACK
 10
0.0
 20
0.0
 30
0.0
  9
$USERI1
 70
     0
  9
$USERI2
 70
     0
  9
$USERI3
 70
     0
  9
$USERI4
 70
     0
  9
$USERI5
 70
     0
  9
$USERR1
 40
0.0
  9
$USERR2
 40
0.0
  9
$USERR3
 40
0.0
  9
$USERR4
 40
0.0
  9
$USERR5
 40
0.0
  9
$WORLDVIEW
 70
     1
  9
$SHADEDGE
 70
     3
  9
$SHADEDIF
 70
    70
  9
$TILEMODE
 70
     1
  9
$MAXACTVP
 70
    64
  9
$PINSBASE
 10
0.0
 20
0.0
 30
0.0
  9
$PLIMCHECK
 70
     0
  9
$PEXTMIN
 10
0.0
 20
0.0
 30
0.0
  9
$PEXTMAX
 10
0.0
 20
0.0
 30
0.0
  9
$PLIMMIN
 10
0.0
 20
0.0
  9
$PLIMMAX
 10
12.0
 20
9.0
  9
$UNITMODE
 70
     0
  9
$VISRETAIN
 70
     1
  9
$PLINEGEN
 70
     0
  9
$PSLTSCALE
 70
     1
  9
$TREEDEPTH
 70
  3020
  9
$CMLSTYLE
  2
Standard
  9
$CMLJUST
 70
     0
  9
$CMLSCALE
 40
20.0
  9
$PROXYGRAPHICS
 70
     1
  9
$MEASUREMENT
 70
     1
  9
$CELWEIGHT
370
    -1
  9
$ENDCAPS
280
     0
  9
$JOINSTYLE
280
     0
  9
$LWDISPLAY
290
     0
  9
$INSUNITS
 70
     4
  9
$HYPERLINKBASE
  1

  9
$STYLESHEET
  1

  9
$XEDIT
290
     1
  9
$CEPSNTYPE
380
     0
  9
$PSTYLEMODE
290
     1
  9
$FINGERPRINTGUID
  2
{D9BF8786-A59F-4122-9411-29D7553F28A0}
  9
$VERSIONGUID
  2
{9022F024-D53C-3D45-9DBB-0542255E238F}
  9
$EXTNAMES
290
     1
  9
$PSVPSCALE
 40
0.0
  9
$OLESTARTUP
290
     0
  9
$SORTENTS
280
   127
  9
$INDEXCTL
280
     0
  9
$HIDETEXT
280
     1
  9
$XCLIPFRAME
280
     0
  9
$HALOGAP
280
     0
  9
$OBSCOLOR
 70
   257
  9
$OBSLTYPE
280
     0
  9
$INTERSECTIONDISPLAY
280
     0
  9
$INTERSECTIONCOLOR
 70
   257
  9
$DIMASSOC
280
     2
  9
$PROJECTNAME
  1

  9
$CAMERADISPLAY
290
     0
  9
$LENSLENGTH
 40
50.0
  9
$CAMERAHEIGHT
 40
0.0
  9
$STEPSPERSEC
 40
2.0
  9
$STEPSIZE
 40
6.0
  9
$3DDWFPREC
 40
2.0
  9
$PSOLWIDTH
 40
0.25
  9
$PSOLHEIGHT
 40
4.0
  9
$LOFTANG1
 40
1.570796326794896
  9
$LOFTANG2
 40
1.570796326794896
  9
$LOFTMAG1
 40
0.0
  9
$LOFTMAG2
 40
0.0
  9
$LOFTPARAM
 70
     7
  9
$LOFTNORMALS
280
     1
  9
$LATITUDE
 40
37.795
  9
$LONGITUDE
 40
-122.394
  9
$NORTHDIRECTION
 40
0.0
  9
$TIMEZONE
 70
 -8000
  9
$LIGHTGLYPHDISPLAY
280
     1
  9
$TILEMODELIGHTSYNCH
280
     1
  9
$CMATERIAL
347
AEC
  9
$SOLIDHIST
280
     0
  9
$SHOWHIST
280
     1
  9
$DWFFRAME
280
     2
  9
$DGNFRAME
280
     0
  9
$REALWORLDSCALE
290
     1
  9
$INTERFERECOLOR
 62
     1
  9
$INTERFEREOBJVS
345
B0E
  9
$INTERFEREVPVS
346
B0B
  9
$CSHADOW
280
     0
  9
$SHADOWPLANELOCATION
 40
0.0
  0
ENDSEC
  0
SECTION
  2
CLASSES
  0
CLASS
  1
ACDBDICTIONARYWDFLT
  2
AcDbDictionaryWithDefault
  3
ObjectDBX Classes
 90
        0
 91
        1
280
     0
281
     0
  0
CLASS
  1
DICTIONARYVAR
  2
AcDbDictionaryVar
  3
ObjectDBX Classes
 90
        0
 91
       20
280
     0
281
     0
  0
CLASS
  1
TABLESTYLE
  2
AcDbTableStyle
  3
ObjectDBX Classes
 90
     4095
 91
        1
280
     0
281
     0
  0
CLASS
  1
SORTENTSTABLE
  2
AcDbSortentsTable
  3
ObjectDBX Classes
 90
        0
 91
        1
280
     0
281
     0
  0
CLASS
  1
DIMASSOC
  2
AcDbDimAssoc
  3
"AcDbDimAssoc|Product Desc:     AcDim ARX App For Dimension|Company:          Autodesk, Inc.|WEB Address:      www.autodesk.com"
 90
        0
 91
        5
280
     0
281
     0
  0
CLASS
  1
MATERIAL
  2
AcDbMaterial
  3
ObjectDBX Classes
 90
     1153
 91
        3
280
     0
281
     0
  0
CLASS
  1
VISUALSTYLE
  2
AcDbVisualStyle
  3
ObjectDBX Classes
 90
     4095
 91
       24
280
     0
281
     0
  0
CLASS
  1
SCALE
  2
AcDbScale
  3
ObjectDBX Classes
 90
     1153
 91
       17
280
     0
281
     0
  0
CLASS
  1
MLEADERSTYLE
  2
AcDbMLeaderStyle
  3
ACDB_MLEADERSTYLE_CLASS
 90
     4095
 91
        1
280
     0
281
     0
  0
CLASS
  1
ACDBSECTIONVIEWSTYLE
  2
AcDbSectionViewStyle
  3
ObjectDBX Classes
 90
     1025
 91
        1
280
     0
281
     0
  0
CLASS
  1
ACDBDETAILVIEWSTYLE
  2
AcDbDetailViewStyle
  3
ObjectDBX Classes
 90
     1025
 91
        1
280
     0
281
     0
  0
CLASS
  1
CELLSTYLEMAP
  2
AcDbCellStyleMap
  3
ObjectDBX Classes
 90
     1152
 91
        1
280
     0
281
     0
  0
ENDSEC
  0
SECTION
  2
TABLES
  0
TABLE
  2
VPORT
  5
8
330
0
100
AcDbSymbolTable
 70
     1
1001
ACAD
1000
DbSaveVer
1071
        5
  0
VPORT
  5
AEA
330
8
100
AcDbSymbolTableRecord
100
AcDbViewportTableRecord
  2
*Active
 70
     0
 10
0.0
 20
0.0
 11
1.0
 21
1.0
 12
985.8296774648961
 22
526.9335065871326
 13
0.0
 23
0.0
 14
10.0
 24
10.0
 15
10.0
 25
10.0
 16
0.0
 26
0.0
 36
1.0
 17
0.0
 27
0.0
 37
0.0
 40
117.4413139992267
 41
2.292712066905615
 42
50.0
 43
0.0
 44
0.0
 50
0.0
 51
0.0
 71
     0
 72
 20000
 73
     1
 74
     3
 75
     0
 76
     0
 77
     0
 78
     0
281
     0
 65
     1
110
0.0
120
0.0
130
0.0
111
1.0
121
0.0
131
0.0
112
0.0
122
1.0
132
0.0
 79
     0
146
0.0
348
B0A
 60
     3
 61
     5
292
     1
282
     1
141
0.0
142
0.0
 63
   250
421
  3355443
1001
ACAD_NAV_VCDISPLAY
1070
     3
  0
ENDTAB
  0
TABLE
  2
LTYPE
  5
5
330
0
100
AcDbSymbolTable
 70
     3
  0
LTYPE
  5
14
330
5
100
AcDbSymbolTableRecord
100
AcDbLinetypeTableRecord
  2
ByBlock
 70
     0
  3

 72
    65
 73
     0
 40
0.0
  0
LTYPE
  5
15
330
5
100
AcDbSymbolTableRecord
100
AcDbLinetypeTableRecord
  2
ByLayer
 70
     0
  3

 72
    65
 73
     0
 40
0.0
  0
LTYPE
  5
16
330
5
100
AcDbSymbolTableRecord
100
AcDbLinetypeTableRecord
  2
Continuous
 70
     0
  3
Solid line
 72
    65
 73
     0
 40
0.0
  0
LTYPE
  5
182
330
5
100
AcDbSymbolTableRecord
100
AcDbLinetypeTableRecord
  2
CENTER
 70
     0
  3
Center ____ _ ____ _ ____ _ ____ _ ____ _ ____
 72
    65
 73
     4
 40
50.8
 49
31.75
 74
     0
 49
-6.349999999999999
 74
     0
 49
6.349999999999999
 74
     0
 49
-6.349999999999999
 74
     0
  0
LTYPE
  5
183
330
5
100
AcDbSymbolTableRecord
100
AcDbLinetypeTableRecord
  2
DASHED2
 70
     0
  3
Dashed (.5x) _ _ _ _ _ _ _ _ _ _ _ _ _ _ _ _ _
 72
    65
 73
     2
 40
9.524999999999998
 49
6.349999999999999
 74
     0
 49
-3.174999999999999
 74
     0
  0
ENDTAB
  0
TABLE
  2
LAYER
  5
2
102
{ACAD_XDICTIONARY
360
808
102
}
330
0
100
AcDbSymbolTable
 70
     6
  0
LAYER
  5
10
102
{ACAD_XDICTIONARY
360
B41
102
}
330
2
100
AcDbSymbolTableRecord
100
AcDbLayerTableRecord
  2
0
 70
     0
 62
     7
  6
Continuous
370
    40
390
F
347
AFC
348
0
  0
LAYER
  5
184
102
{ACAD_XDICTIONARY
360
B43
102
}
330
2
100
AcDbSymbolTableRecord
100
AcDbLayerTableRecord
  2
图层1
 70
     0
 62
     1
  6
CENTER
370
     9
390
F
347
AFC
348
0
1001
AcadStringInfo
1000
MIFCodePage
1070
     5
  0
LAYER
  5
185
102
{ACAD_XDICTIONARY
360
B45
102
}
330
2
100
AcDbSymbolTableRecord
100
AcDbLayerTableRecord
  2
图层2
 70
     0
 62
     3
  6
DASHED2
370
    15
390
F
347
AFC
348
0
1001
AcadStringInfo
1000
MIFCodePage
1070
     5
  0
LAYER
  5
186
102
{ACAD_XDICTIONARY
360
B47
102
}
330
2
100
AcDbSymbolTableRecord
100
AcDbLayerTableRecord
  2
图层3
 70
     0
 62
     5
  6
Continuous
370
    15
390
F
347
AFC
348
0
1001
AcadStringInfo
1000
MIFCodePage
1070
     5
  0
LAYER
  5
187
102
{ACAD_XDICTIONARY
360
B49
102
}
330
2
100
AcDbSymbolTableRecord
100
AcDbLayerTableRecord
  2
图层7
 70
     0
 62
     7
  6
Continuous
370
    15
390
F
347
AFC
348
0
1001
AcadStringInfo
1000
MIFCodePage
1070
     5
  0
LAYER
  5
68A
330
2
100
AcDbSymbolTableRecord
100
AcDbLayerTableRecord
  2
Defpoints
 70
     0
 62
     7
  6
Continuous
290
     0
370
    -3
390
F
347
AFC
348
0
  0
ENDTAB
  0
TABLE
  2
STYLE
  5
3
330
0
100
AcDbSymbolTable
 70
     5
  0
STYLE
  5
11
330
3
100
AcDbSymbolTableRecord
100
AcDbTextStyleTableRecord
  2
Standard
 70
     0
 40
0.0
 41
1.0
 50
0.0
 71
     0
 42
2.5
  3
txt
  4
gbcbig.shx
  0
STYLE
  5
188
330
3
100
AcDbSymbolTableRecord
100
AcDbTextStyleTableRecord
  2
样式 1
 70
     0
 40
2.5
 41
1.0
 50
0.0
 71
     0
 42
2.5
  3
SimSun.ttf
  4

1001
ACAD
1000
SimSun
1071
    34306
1001
AcadStringInfo
1000
MIFCodePage
1070
     5
  0
STYLE
  5
189
330
3
100
AcDbSymbolTableRecord
100
AcDbTextStyleTableRecord
  2
样式 2
 70
     0
 40
3.2
 41
1.0
 50
0.0
 71
     0
 42
3.2
  3
SimSun.ttf
  4

1001
ACAD
1000
SimSun
1071
    34306
1001
AcadStringInfo
1000
MIFCodePage
1070
     5
  0
STYLE
  5
9B1
330
3
100
AcDbSymbolTableRecord
100
AcDbTextStyleTableRecord
  2
GN3
 70
     0
 40
0.156
 41
1.0
 50
0.0
 71
     0
 42
0.2
  3
ARIAL.TTF
  4

1001
ACAD
1000
Arial
1071
       34
  0
STYLE
  5
9B2
330
3
100
AcDbSymbolTableRecord
100
AcDbTextStyleTableRecord
  2
GN4
 70
     0
 40
0.188
 41
1.0
 50
0.0
 71
     0
 42
0.2
  3
ROMAND
  4

  0
ENDTAB
  0
TABLE
  2
VIEW
  5
6
330
0
100
AcDbSymbolTable
 70
     0
  0
ENDTAB
  0
TABLE
  2
UCS
  5
7
330
0
100
AcDbSymbolTable
 70
     0
  0
ENDTAB
  0
TABLE
  2
APPID
  5
9
330
0
100
AcDbSymbolTable
 70
     9
  0
APPID
  5
12
330
9
100
AcDbSymbolTableRecord
100
AcDbRegAppTableRecord
  2
ACAD
 70
     0
  0
APPID
  5
9E
330
9
100
AcDbSymbolTableRecord
100
AcDbRegAppTableRecord
  2
ACAD_PSEXT
 70
     0
  0
APPID
  5
18A
330
9
100
AcDbSymbolTableRecord
100
AcDbRegAppTableRecord
  2
ACAD_DSTYLE_DIMEXT_LENGTH
 70
     0
  0
APPID
  5
18B
330
9
100
AcDbSymbolTableRecord
100
AcDbRegAppTableRecord
  2
ACAD_DSTYLE_DIMEXT_ENABLED
 70
     0
  0
APPID
  5
18C
330
9
100
AcDbSymbolTableRecord
100
AcDbRegAppTableRecord
  2
ACAD_DSTYLE_DIMJOGGED_JOGANGLE_SYMBOL
 70
     0
  0
APPID
  5
18D
330
9
100
AcDbSymbolTableRecord
100
AcDbRegAppTableRecord
  2
ACAD_DSTYLE_DIMARC_LENGTH_SYMBOL
 70
     0
  0
APPID
  5
9B4
330
9
100
AcDbSymbolTableRecord
100
AcDbRegAppTableRecord
  2
PSP
 70
     0
  0
APPID
  5
B32
330
9
100
AcDbSymbolTableRecord
100
AcDbRegAppTableRecord
  2
AcadStringInfo
 70
     0
  0
APPID
  5
B4B
330
9
100
AcDbSymbolTableRecord
100
AcDbRegAppTableRecord
  2
ACAD_NAV_VCDISPLAY
 70
     0
  0
ENDTAB
  0
TABLE
  2
DIMSTYLE
  5
A
330
0
100
AcDbSymbolTable
 70
     2
100
AcDbDimStyleTable
 71
     1
340
27
  0
DIMSTYLE
105
27
102
{ACAD_REACTORS
330
879
330
8B5
330
8D6
330
93A
330
950
102
}
330
A
100
AcDbSymbolTableRecord
100
AcDbDimStyleTableRecord
  2
ISO-25
 70
     0
 41
2.5
 42
0.625
 43
3.75
 44
1.25
 73
     0
 74
     0
 77
     1
 78
     8
140
2.5
141
2.5
143
0.03937007874016
147
0.625
171
     3
172
     1
271
     2
272
     2
274
     3
278
    44
283
     0
284
     8
340
11
  0
DIMSTYLE
105
9B3
330
A
100
AcDbSymbolTableRecord
100
AcDbDimStyleTableRecord
  2
线性标注
 70
     0
 41
2.5
 42
0.625
 43
3.75
 44
1.25
 49
1.25
 50
90.0
 73
     0
 74
     0
 77
     1
 78
     8
140
2.5
141
2.5
143
0.03937007874016
147
0.625
171
     3
172
     1
271
     1
272
     1
274
     3
283
     0
284
     8
340
11
341
9AC
342
9A6
1001
ACAD_DSTYLE_DIMJOGGED_JOGANGLE_SYMBOL
1070
   384
1040
1.570796326794896
1001
AcadStringInfo
1000
MIFCodePage
1070
     5
  0
ENDTAB
  0
TABLE
  2
BLOCK_RECORD
  5
1
330
0
100
AcDbSymbolTable
 70
     9
  0
BLOCK_RECORD
  5
1F
102
{ACAD_XDICTIONARY
360
687
102
}
330
1
100
AcDbSymbolTableRecord
100
AcDbBlockTableRecord
  2
*Model_Space
340
22
 70
     0
280
     1
281
     0
  0
BLOCK_RECORD
  5
D2
330
1
100
AcDbSymbolTableRecord
100
AcDbBlockTableRecord
  2
*Paper_Space
340
D3
 70
     0
280
     1
281
     0
  0
BLOCK_RECORD
  5
D6
330
1
100
AcDbSymbolTableRecord
100
AcDbBlockTableRecord
  2
*Paper_Space0
340
D7
 70
     0
280
     1
281
     0
  0
BLOCK_RECORD
  5
F1
330
1
100
AcDbSymbolTableRecord
100
AcDbBlockTableRecord
  2
f
340
0
310
2800000020000000200000000100080000000000000400000000000000000000000000000000000000000000000080000080000000808000800000008000800080800000C0C0C000C0DCC000F0CAA6000020400000206000002080000020A0000020C0000020E00000400000004020000040400000406000004080000040A0
310
000040C0000040E00000600000006020000060400000606000006080000060A0000060C0000060E00000800000008020000080400000806000008080000080A0000080C0000080E00000A0000000A0200000A0400000A0600000A0800000A0A00000A0C00000A0E00000C0000000C0200000C0400000C0600000C0800000C0
310
A00000C0C00000C0E00000E0000000E0200000E0400000E0600000E0800000E0A00000E0C00000E0E00040000000400020004000400040006000400080004000A0004000C0004000E00040200000402020004020400040206000402080004020A0004020C0004020E000404000004040200040404000404060004040800040
310
40A0004040C0004040E00040600000406020004060400040606000406080004060A0004060C0004060E00040800000408020004080400040806000408080004080A0004080C0004080E00040A0000040A0200040A0400040A0600040A0800040A0A00040A0C00040A0E00040C0000040C0200040C0400040C0600040C08000
310
40C0A00040C0C00040C0E00040E0000040E0200040E0400040E0600040E0800040E0A00040E0C00040E0E00080000000800020008000400080006000800080008000A0008000C0008000E00080200000802020008020400080206000802080008020A0008020C0008020E00080400000804020008040400080406000804080
310
008040A0008040C0008040E00080600000806020008060400080606000806080008060A0008060C0008060E00080800000808020008080400080806000808080008080A0008080C0008080E00080A0000080A0200080A0400080A0600080A0800080A0A00080A0C00080A0E00080C0000080C0200080C0400080C0600080C0
310
800080C0A00080C0C00080C0E00080E0000080E0200080E0400080E0600080E0800080E0A00080E0C00080E0E000C0000000C0002000C0004000C0006000C0008000C000A000C000C000C000E000C0200000C0202000C0204000C0206000C0208000C020A000C020C000C020E000C0400000C0402000C0404000C0406000C0
310
408000C040A000C040C000C040E000C0600000C0602000C0604000C0606000C0608000C060A000C060C000C060E000C0800000C0802000C0804000C0806000C0808000C080A000C080C000C080E000C0A00000C0A02000C0A04000C0A06000C0A08000C0A0A000C0A0C000C0A0E000C0C00000C0C02000C0C04000C0C06000
310
C0C08000C0C0A000F0FBFF00A4A0A000808080000000FF0000FF000000FFFF00FF000000FF00FF00FFFF0000FFFFFF0000000000000000000000000000000000000000000000000000000000000000000000000000000000000000000000000000000000000000000000000000000000000000000000000000000000000000
310
000000000000000000000000000000000000000000000000000000000000000000000000000000000000000000000000000000000000000000000000000000000000000000000000000000000000000000000000000000000000000000000000000000000000000000000000000000000000FFFFFFFFFFFFFFFFFFFFFFFFFF
310
FFFFFFFFFFFFFFFFFFFFFCFFFFFFFFFFFF0000FFFFFFFFFFFFFCFCFCFCFCFCFF000000FFFFFFFFFFFFFFFFFCFFFFFFFFFF0000FFFFFFFFFFFCFCFCFCFCFCFCFF000000FFFFFFFFFFFFFFFFFFFFFFFFFFFF0000FFFFFFFFFFFCFCFCFCFCFCFCFF000000FFFFFFFFFFFFFFFFFFFFFFFFFFFF0000FFFFFF000000000000000000
310
00000000000000000000000000000000FFFF0000FFFFFF00000000000000000000000000000000000000000000000000FFFF0000FFFFFF00000000000000000000000000000000000000000000000000FFFF0000FF00FF00000000000000000000000000000000000000000000000000FFFF0000FF00FF0000000000000000
310
0000000000000000000000000000000000FFFF0000FF00FF00000000000000000000000000000000000000000000000000FFFF0000FF00FF00000000000000000000000000000000000000000000000000FFFF0000FF00FF00000000000000000000000000000000000000000000000000FFFF0000FF00FF00000000000000
310
000000000000000000000000000000000000FFFF0000FF00FF00000000000000000000000000000000000000000000000000FFFF0000FF00FF00000000000000000000000000000000000000000000000000FFFF0000FF00FF00000000000000000000000000000000000000000000000000FFFF0000FF00FF000000000000
310
00000000000000000000000000000000000000FFFF0000FF00FF00000000000000000000000000000000000000000000000000FFFF0000FF00FFFFFFFFFF000000000000000000000000000000000000000000FFFF0000FFFFFFFFFFFFFFFFFFFFFFFFFFFFFFFFFFFFFFFFFFFFFFFFFFFFFFFFFFFF00000000000000000000
310
00000000000000000000000000000000000000000000000000000000000000000000000000000000000000000000000000000000000000000000000000000000000000000000000000000000000000000000000000000000000000000000000000000000000000000000000000000000000000000000000000000000000000
310
0000000000000000000000000000000000000000000000000000000000000000000000000000000000000000000000000000000000000000
 70
     4
280
     1
281
     0
  0
BLOCK_RECORD
  5
87A
330
1
100
AcDbSymbolTableRecord
100
AcDbBlockTableRecord
  2
*D2
340
0
 70
     0
280
     1
281
     0
  0
BLOCK_RECORD
  5
8B6
330
1
100
AcDbSymbolTableRecord
100
AcDbBlockTableRecord
  2
*D3
340
0
 70
     0
280
     1
281
     0
  0
BLOCK_RECORD
  5
8D7
330
1
100
AcDbSymbolTableRecord
100
AcDbBlockTableRecord
  2
*D4
340
0
 70
     0
280
     1
281
     0
  0
BLOCK_RECORD
  5
93B
330
1
100
AcDbSymbolTableRecord
100
AcDbBlockTableRecord
  2
*D5
340
0
 70
     0
280
     1
281
     0
  0
BLOCK_RECORD
  5
951
330
1
100
AcDbSymbolTableRecord
100
AcDbBlockTableRecord
  2
*D6
340
0
 70
     0
280
     1
281
     0
  0
BLOCK_RECORD
  5
9A6
330
1
100
AcDbSymbolTableRecord
100
AcDbBlockTableRecord
  2
_ClosedBlank
340
0
 70
     0
280
     1
281
     0
  0
BLOCK_RECORD
  5
9AC
330
1
100
AcDbSymbolTableRecord
100
AcDbBlockTableRecord
  2
_Dot
340
0
 70
     0
280
     1
281
     0
  0
ENDTAB
  0
ENDSEC
  0
SECTION
  2
BLOCKS
  0
BLOCK
  5
20
330
1F
100
AcDbEntity
  8
0
100
AcDbBlockBegin
  2
*Model_Space
 70
     0
 10
0.0
 20
0.0
 30
0.0
  3
*Model_Space
  1

  0
ENDBLK
  5
21
330
1F
100
AcDbEntity
  8
0
100
AcDbBlockEnd
  0
BLOCK
  5
D4
330
D2
100
AcDbEntity
 67
     1
  8
0
100
AcDbBlockBegin
  2
*Paper_Space
 70
     0
 10
0.0
 20
0.0
 30
0.0
  3
*Paper_Space
  1

  0
ENDBLK
  5
D5
330
D2
100
AcDbEntity
 67
     1
  8
0
100
AcDbBlockEnd
  0
BLOCK
  5
D8
330
D6
100
AcDbEntity
 67
     1
  8
0
100
AcDbBlockBegin
  2
*Paper_Space0
 70
     0
 10
0.0
 20
0.0
 30
0.0
  3
*Paper_Space0
  1

  0
ENDBLK
  5
D9
330
D6
100
AcDbEntity
 67
     1
  8
0
100
AcDbBlockEnd
  0
BLOCK
  5
F2
330
F1
100
AcDbEntity
  8
0
100
AcDbBlockBegin
  2
f
 70
     0
 10
0.0
 20
0.0
 30
0.0
  3
f
  1

  0
LWPOLYLINE
  5
F3
330
F1
100
AcDbEntity
  8
图层7
100
AcDbPolyline
 90
        4
 70
     1
 43
0.0
 10
0.0
 20
0.0
 10
420.0
 20
0.0
 10
420.0
 20
290.0
 10
0.0
 20
290.0
  0
LWPOLYLINE
  5
F4
330
F1
100
AcDbEntity
  8
0
100
AcDbPolyline
 90
        4
 70
     1
 43
0.0
 10
20.0
 20
5.0
 10
415.0
 20
5.0
 10
415.0
 20
285.0
 10
20.0
 20
285.0
  0
LINE
  5
F5
330
F1
100
AcDbEntity
  8
0
100
AcDbLine
 10
415.0
 20
5.0
 30
0.0
 11
360.0
 21
5.000000000000006
 31
0.0
  0
LINE
  5
F6
330
F1
100
AcDbEntity
  8
0
100
AcDbLine
 10
415.0
 20
5.0
 30
0.0
 11
355.0
 21
5.000000000000007
 31
0.0
  0
LINE
  5
F7
330
F1
100
AcDbEntity
  8
0
100
AcDbLine
 10
355.0
 20
5.000000000000007
 30
0.0
 11
355.0
 21
50.0
 31
0.0
  0
LINE
  5
F8
330
F1
100
AcDbEntity
  8
0
100
AcDbLine
 10
295.0
 20
5.000000000000007
 30
0.0
 11
295.0
 21
50.0
 31
0.0
  0
LINE
  5
F9
330
F1
100
AcDbEntity
  8
0
100
AcDbLine
 10
235.0
 20
5.000000000000007
 30
0.0
 11
235.0
 21
50.0
 31
0.0
  0
LINE
  5
FA
330
F1
100
AcDbEntity
  8
0
100
AcDbLine
 10
235.0
 20
50.0
 30
0.0
 11
415.0
 21
50.0
 31
0.0
  0
LINE
  5
FB
330
F1
100
AcDbEntity
  8
图层7
100
AcDbLine
 10
235.0
 20
5.000000000000007
 30
0.0
 11
235.0
 21
10.0
 31
0.0
  0
LINE
  5
FC
330
F1
100
AcDbEntity
  8
图层7
100
AcDbLine
 10
235.0
 20
10.0
 30
0.0
 11
295.0
 21
10.00000000000001
 31
0.0
  0
LINE
  5
FD
330
F1
100
AcDbEntity
  8
图层7
100
AcDbLine
 10
235.0
 20
15.00000000000001
 30
0.0
 11
295.0
 21
15.00000000000001
 31
0.0
  0
LINE
  5
FE
330
F1
100
AcDbEntity
  8
图层7
100
AcDbLine
 10
235.0
 20
20.00000000000001
 30
0.0
 11
295.0
 21
20.00000000000001
 31
0.0
  0
LINE
  5
FF
330
F1
100
AcDbEntity
  8
图层7
100
AcDbLine
 10
235.0
 20
25.00000000000001
 30
0.0
 11
295.0
 21
25.00000000000001
 31
0.0
  0
LINE
  5
100
330
F1
100
AcDbEntity
  8
图层7
100
AcDbLine
 10
235.0
 20
30.00000000000001
 30
0.0
 11
295.0
 21
30.00000000000001
 31
0.0
  0
LINE
  5
101
330
F1
100
AcDbEntity
  8
图层7
100
AcDbLine
 10
235.0
 20
35.00000000000001
 30
0.0
 11
295.0
 21
35.00000000000001
 31
0.0
  0
LINE
  5
102
330
F1
100
AcDbEntity
  8
图层7
100
AcDbLine
 10
235.0
 20
40.0
 30
0.0
 11
295.0
 21
40.0
 31
0.0
  0
LINE
  5
103
330
F1
100
AcDbEntity
  8
图层7
100
AcDbLine
 10
235.0
 20
45.0
 30
0.0
 11
295.0
 21
45.0
 31
0.0
  0
LINE
  5
104
330
F1
100
AcDbEntity
  8
0
100
AcDbLine
 10
243.0
 20
25.00000000000001
 30
0.0
 11
243.0
 21
50.0
 31
0.0
  0
LINE
  5
105
330
F1
100
AcDbEntity
  8
0
100
AcDbLine
 10
251.0
 20
5.000000000000007
 30
0.0
 11
251.0
 21
50.0
 31
0.0
  0
LINE
  5
106
330
F1
100
AcDbEntity
  8
0
100
AcDbLine
 10
267.0
 20
25.00000000000001
 30
0.0
 11
267.0
 21
50.0
 31
0.0
  0
LINE
  5
107
330
F1
100
AcDbEntity
  8
0
100
AcDbLine
 10
283.0
 20
25.00000000000001
 30
0.0
 11
283.0
 21
50.0
 31
0.0
  0
LINE
  5
108
330
F1
100
AcDbEntity
  8
0
100
AcDbLine
 10
266.0
 20
5.000000000000007
 30
0.0
 11
266.0
 21
25.00000000000001
 31
0.0
  0
LINE
  5
109
330
F1
100
AcDbEntity
  8
0
100
AcDbLine
 10
281.0
 20
5.000000000000007
 30
0.0
 11
281.0
 21
25.00000000000001
 31
0.0
  0
LINE
  5
10A
330
F1
100
AcDbEntity
  8
图层7
100
AcDbLine
 10
295.3066632272305
 20
24.42023621049691
 30
0.0
 11
355.0
 21
24.42023621049691
 31
0.0
  0
LINE
  5
10B
330
F1
100
AcDbEntity
  8
图层7
100
AcDbLine
 10
295.3066632272305
 20
18.42023621049691
 30
0.0
 11
355.0
 21
18.42023621049691
 31
0.0
  0
LINE
  5
10C
330
F1
100
AcDbEntity
  8
图层7
100
AcDbLine
 10
295.3066632272305
 20
11.00023621049691
 30
0.0
 11
355.0
 21
11.00023621049691
 31
0.0
  0
LINE
  5
10D
330
F1
100
AcDbEntity
  8
0
100
AcDbLine
 10
318.9999999999999
 20
11.00023621049691
 30
0.0
 11
318.9999999999999
 21
24.42023621049691
 31
0.0
  0
LINE
  5
10E
330
F1
100
AcDbEntity
  8
0
100
AcDbLine
 10
310.9999999999999
 20
11.00023621049694
 30
0.0
 11
310.9999999999999
 21
18.42023621049691
 31
0.0
  0
LINE
  5
10F
330
F1
100
AcDbEntity
  8
0
100
AcDbLine
 10
302.9999999999999
 20
11.00023621049698
 30
0.0
 11
302.9999999999999
 21
18.42023621049691
 31
0.0
  0
LINE
  5
110
330
F1
100
AcDbEntity
  8
0
100
AcDbLine
 10
330.1999999999999
 20
11.00023621049686
 30
0.0
 11
330.2
 21
24.42023621049686
 31
0.0
  0
LINE
  5
111
330
F1
100
AcDbEntity
  8
0
100
AcDbLine
 10
341.3999999999999
 20
11.00023621049681
 30
0.0
 11
341.3999999999999
 21
24.42023621049682
 31
0.0
  0
LINE
  5
112
330
F1
100
AcDbEntity
  8
图层7
100
AcDbLine
 10
324.4644958523841
 20
11.00023621049691
 30
0.0
 11
324.4644958523841
 21
5.243181879159692
 31
0.0
  0
LINE
  5
113
330
F1
100
AcDbEntity
  8
图层7
100
AcDbLine
 10
355.0
 20
5.0
 30
0.0
 11
355.0
 21
20.0
 31
0.0
  0
LINE
  5
114
330
F1
100
AcDbEntity
  8
图层7
100
AcDbLine
 10
355.0
 20
20.0
 30
0.0
 11
415.0
 21
20.0
 31
0.0
  0
LINE
  5
115
330
F1
100
AcDbEntity
  8
图层7
100
AcDbLine
 10
355.0
 20
35.0
 30
0.0
 11
415.0
 21
35.0
 31
0.0
  0
TEXT
  5
116
330
F1
100
AcDbEntity
  8
图层7
100
AcDbText
 10
235.3623858600327
 20
26.15820922692399
 30
0.0
 40
2.5
  1
标记
  7
样式 1
 72
     1
 11
238.9179414155883
 21
26.15820922692399
 31
0.0
100
AcDbText
  0
TEXT
  5
117
330
F1
100
AcDbEntity
  8
图层7
100
AcDbText
 10
243.2606737203977
 20
26.10263234392551
 30
0.0
 40
2.5
  1
处数
  7
样式 1
 72
     1
 11
246.8162292759532
 21
26.10263234392551
 31
0.0
100
AcDbText
  0
TEXT
  5
118
330
F1
100
AcDbEntity
  8
图层7
100
AcDbText
 10
251.1394863474653
 20
26.32682631559089
 30
0.0
 40
2.2
  1
更改文件号
  7
样式 1
 72
     1
 11
258.9617085696875
 21
26.32682631559089
 31
0.0
100
AcDbText
  0
TEXT
  5
119
330
F1
100
AcDbEntity
  8
图层7
100
AcDbText
 10
271.8384430743128
 20
26.24204632676435
 30
0.0
 40
2.5
  1
签字
  7
样式 1
 72
     1
 11
275.3939986298683
 21
26.24204632676435
 31
0.0
100
AcDbText
  0
TEXT
  5
11A
330
F1
100
AcDbEntity
  8
图层7
100
AcDbText
 10
284.9950254223466
 20
26.24204632676435
 30
0.0
 40
2.5
  1
日期
  7
样式 1
 72
     1
 11
288.5505809779022
 21
26.24204632676435
 31
0.0
100
AcDbText
  0
TEXT
  5
11B
330
F1
100
AcDbEntity
  8
图层7
100
AcDbText
 10
239.8359445435229
 20
20.86892929012913
 30
0.0
 40
2.5
  1
设计
  7
样式 1
 72
     1
 11
243.3915000990785
 21
20.86892929012913
 31
0.0
100
AcDbText
  0
TEXT
  5
11C
330
F1
100
AcDbEntity
  8
图层7
100
AcDbText
 10
239.8944220679581
 20
15.89710091688471
 30
0.0
 40
2.5
  1
校对
  7
样式 1
 72
     1
 11
243.4499776235136
 21
15.89710091688471
 31
0.0
100
AcDbText
  0
TEXT
  5
11D
330
F1
100
AcDbEntity
  8
图层7
100
AcDbText
 10
239.8359445435229
 20
10.92527182978779
 30
0.0
 40
2.5
  1
审核
  7
样式 1
 72
     1
 11
243.3915000990785
 21
10.92527182978779
 31
0.0
100
AcDbText
  0
TEXT
  5
11E
330
F1
100
AcDbEntity
  8
图层7
100
AcDbText
 10
239.818023259099
 20
6.349079121285512
 30
0.0
 40
2.5
  1
工艺
  7
样式 1
 72
     1
 11
243.3735788146546
 21
6.349079121285512
 31
0.0
100
AcDbText
  0
TEXT
  5
11F
330
F1
100
AcDbEntity
  8
图层7
100
AcDbText
 10
268.282747872651
 20
20.86892929012913
 30
0.0
 40
2.5
  1
标准化
  7
样式 1
 72
     1
 11
273.6160812059843
 21
20.86892929012913
 31
0.0
100
AcDbText
  0
TEXT
  5
120
330
F1
100
AcDbEntity
  8
图层7
100
AcDbText
 10
269.7049427147109
 20
15.54196996186954
 30
0.0
 40
2.5
  1
审定
  7
样式 1
 72
     1
 11
273.2604982702664
 21
15.54196996186954
 31
0.0
100
AcDbText
  0
TEXT
  5
121
330
F1
100
AcDbEntity
  8
图层7
100
AcDbText
 10
270.0605256504287
 20
6.308573697706037
 30
0.0
 40
2.5
  1
日期
  7
样式 1
 72
     1
 11
273.6160812059843
 21
6.308573697706037
 31
0.0
100
AcDbText
  0
TEXT
  5
122
330
F1
100
AcDbEntity
  8
图层7
100
AcDbText
 10
299.5742188054642
 20
19.09327665661101
 30
0.0
 40
2.5
  1
图样标记
  7
样式 1
 72
     1
 11
306.6853299165753
 21
19.09327665661101
 31
0.0
100
AcDbText
  0
TEXT
  5
123
330
F1
100
AcDbEntity
  8
图层7
100
AcDbText
 10
320.9089403639749
 20
19.09327665661101
 30
0.0
 40
2.5
  1
材料
  7
样式 1
 72
     1
 11
324.4644959195305
 21
19.09327665661101
 31
0.0
100
AcDbText
  0
TEXT
  5
124
330
F1
100
AcDbEntity
  8
图层7
100
AcDbText
 10
332.6431895964898
 20
19.09327665661101
 30
0.0
 40
2.5
  1
数量
  7
样式 1
 72
     1
 11
336.1987451520454
 21
19.09327665661101
 31
0.0
100
AcDbText
  0
TEXT
  5
125
330
F1
100
AcDbEntity
  8
图层7
100
AcDbText
 10
345.088606073088
 20
19.09327665661101
 30
0.0
 40
2.5
  1
比例
  7
样式 1
 72
     1
 11
348.6441616286436
 21
19.09327665661101
 31
0.0
100
AcDbText
  0
TEXT
  5
126
330
F1
100
AcDbEntity
  8
图层7
100
AcDbText
 10
298.8633294809459
 20
6.308573697706037
 30
0.0
 40
2.5
  1
共　　　　页
  7
样式 1
 72
     1
 11
309.5299961476126
 21
6.308573697706037
 31
0.0
100
AcDbText
  0
TEXT
  5
127
330
F1
100
AcDbEntity
  8
图层7
100
AcDbText
 10
329.4434948962171
 20
6.308573697706037
 30
0.0
 40
2.5
  1
第　　　　页
  7
样式 1
 72
     1
 11
340.1101615628838
 21
6.308573697706037
 31
0.0
100
AcDbText
  0
LINE
  5
128
330
F1
100
AcDbEntity
  8
图层7
100
AcDbLine
 10
20.0
 20
5.0
 30
0.0
 11
0.0
 21
5.0
 31
0.0
  0
LINE
  5
129
330
F1
100
AcDbEntity
  8
图层7
100
AcDbLine
 10
20.0
 20
13.0
 30
0.0
 11
0.0
 21
13.0
 31
0.0
  0
LINE
  5
12A
330
F1
100
AcDbEntity
  8
图层7
100
AcDbLine
 10
20.0
 20
18.0
 30
0.0
 11
0.0
 21
18.0
 31
0.0
  0
LINE
  5
12B
330
F1
100
AcDbEntity
  8
图层7
100
AcDbLine
 10
20.0
 20
26.0
 30
0.0
 11
0.0
 21
26.0
 31
0.0
  0
LINE
  5
12C
330
F1
100
AcDbEntity
  8
图层7
100
AcDbLine
 10
20.0
 20
31.0
 30
0.0
 11
0.0
 21
31.0
 31
0.0
  0
LINE
  5
12D
330
F1
100
AcDbEntity
  8
图层7
100
AcDbLine
 10
20.0
 20
44.0
 30
0.0
 11
0.0
 21
44.0
 31
0.0
  0
LINE
  5
12E
330
F1
100
AcDbEntity
  8
图层7
100
AcDbLine
 10
20.0
 20
39.0
 30
0.0
 11
0.0
 21
39.0
 31
0.0
  0
LINE
  5
12F
330
F1
100
AcDbEntity
  8
图层7
100
AcDbLine
 10
20.0
 20
57.0
 30
0.0
 11
0.0
 21
57.0
 31
0.0
  0
LINE
  5
130
330
F1
100
AcDbEntity
  8
图层7
100
AcDbLine
 10
20.0
 20
52.0
 30
0.0
 11
0.0
 21
52.0
 31
0.0
  0
LINE
  5
131
330
F1
100
AcDbEntity
  8
图层7
100
AcDbLine
 10
20.0
 20
70.0
 30
0.0
 11
0.0
 21
70.0
 31
0.0
  0
LINE
  5
132
330
F1
100
AcDbEntity
  8
图层7
100
AcDbLine
 10
20.0
 20
65.0
 30
0.0
 11
0.0
 21
65.0
 31
0.0
  0
LINE
  5
133
330
F1
100
AcDbEntity
  8
图层7
100
AcDbLine
 10
20.0
 20
78.0
 30
0.0
 11
0.0
 21
78.0
 31
0.0
  0
LINE
  5
134
330
F1
100
AcDbEntity
  8
图层7
100
AcDbLine
 10
20.0
 20
83.0
 30
0.0
 11
0.0
 21
83.0
 31
0.0
  0
LINE
  5
135
330
F1
100
AcDbEntity
  8
图层7
100
AcDbLine
 10
20.0
 20
88.0
 30
0.0
 11
0.0
 21
88.0
 31
0.0
  0
TEXT
  5
136
330
F1
100
AcDbEntity
  8
图层7
100
AcDbText
 10
0.7868364156109032
 20
13.70816404107779
 30
0.0
 40
2.5
  1
日　　　期
  7
样式 1
 72
     1
 11
9.675725304499792
 21
13.70816404107779
 31
0.0
100
AcDbText
  0
TEXT
  5
137
330
F1
100
AcDbEntity
  8
图层7
100
AcDbText
 10
0.7868364156109032
 20
26.63536696756182
 30
0.0
 40
2.5
  1
签　　　字
  7
样式 1
 72
     1
 11
9.675725304499792
 21
26.63536696756182
 31
0.0
100
AcDbText
  0
TEXT
  5
138
330
F1
100
AcDbEntity
  8
图层7
100
AcDbText
 10
2.56461419338868
 20
39.81116977186128
 30
0.0
 40
2.5
  1
底图总号
  7
样式 1
 72
     1
 11
9.675725304499792
 21
39.81116977186128
 31
0.0
100
AcDbText
  0
TEXT
  5
139
330
F1
100
AcDbEntity
  8
图层7
100
AcDbText
 10
1.03575366735097
 20
66.41137525827549
 30
0.0
 40
2.5
  1
描　　　校
  7
样式 1
 72
     1
 11
9.924642556239859
 21
66.41137525827549
 31
0.0
100
AcDbText
  0
TEXT
  5
13A
330
F1
100
AcDbEntity
  8
图层7
100
AcDbText
 10
1.284670919091038
 20
79.33857747090712
 30
0.0
 40
2.5
  1
描　　　图
  7
样式 1
 72
     1
 11
10.17355980797993
 21
79.33857747090712
 31
0.0
100
AcDbText
  0
TEXT
  5
13B
330
F1
100
AcDbEntity
  8
图层7
100
AcDbText
 10
1.284672291738413
 20
52.98697257616083
 30
0.0
 40
2.5
  1
旧底图总号
  7
样式 1
 72
     1
 11
10.1735611806273
 21
52.98697257616083
 31
0.0
100
AcDbText
  0
TEXT
  5
13C
330
F1
100
AcDbEntity
  8
图层7
100
AcDbText
 10
0.2180042524243717
 20
84.31057788262535
 30
0.0
 40
2.0
  1
借(通)用件登记
  7
样式 1
 72
     1
 11
10.17355980797993
 21
84.31057788262535
 31
0.0
100
AcDbText
  0
LINE
  5
13D
330
F1
100
AcDbEntity
  8
图层7
100
AcDbLine
 10
20.0
 20
273.0
 30
0.0
 11
80.0
 21
273.0
 31
0.0
  0
LINE
  5
13E
330
F1
100
AcDbEntity
  8
图层7
100
AcDbLine
 10
20.0
 20
285.0
 30
0.0
 11
20.0
 21
273.0
 31
0.0
  0
LINE
  5
13F
330
F1
100
AcDbEntity
  8
图层7
100
AcDbLine
 10
80.0
 20
285.0
 30
0.0
 11
80.0
 21
273.0
 31
0.0
  0
MTEXT
  5
140
330
F1
100
AcDbEntity
  8
图层7
100
AcDbMText
 10
357.5215489819762
 20
14.77840352824228
 30
0.0
 40
3.2
 41
56.8777
 46
0.0
 71
     1
 72
     5
  1
浙江金鑫五金制造有限公司
  7
样式 1
 73
     1
 44
1.0
1001
ACAD
1000
ACAD_MTEXT_DEFINED_HEIGHT_BEGIN
1070
    46
1040
0.0
1000
ACAD_MTEXT_DEFINED_HEIGHT_END
  0
MTEXT
  5
141
330
F1
100
AcDbEntity
  8
图层7
100
AcDbMText
 10
336.8206662086511
 20
34.99584219663097
 30
0.0
 40
2.5
 41
15.23
 46
0.0
 71
     1
 72
     5
  1
装配图
  7
样式 1
 73
     1
 44
1.0
  0
MTEXT
  5
142
330
F1
100
AcDbEntity
  8
图层7
100
AcDbMText
 10
399.3919163289393
 20
41.65816273055646
 30
0.0
 40
2.0
 41
15.23
 46
0.0
 71
     1
 72
     5
  1
{\f宋体|b0|i0|c0|p2;1500}系列
  7
样式 1
 73
     1
 44
1.0
  0
MTEXT
  5
143
330
F1
100
AcDbEntity
  8
图层7
100
AcDbMText
 10
377.8689594698476
 20
29.37252823909182
 30
0.0
 40
5.0
 41
33.0523
 46
0.0
 71
     1
 72
     5
  1
{\fSimSun|b0|i0|c0|p2;1580}
  7
样式 1
 73
     1
 44
1.0
1001
ACAD
1000
ACAD_MTEXT_DEFINED_HEIGHT_BEGIN
1070
    46
1040
0.0
1000
ACAD_MTEXT_DEFINED_HEIGHT_END
  0
LINE
  5
144
330
F1
100
AcDbEntity
  8
图层7
100
AcDbLine
 10
168.0
 20
5.0
 30
0.0
 11
168.0
 21
52.99999999999999
 31
0.0
  0
LINE
  5
145
330
F1
100
AcDbEntity
  8
图层7
100
AcDbLine
 10
20.0
 20
11.0
 30
0.0
 11
168.0
 21
11.0
 31
0.0
  0
LINE
  5
146
330
F1
100
AcDbEntity
  8
图层7
100
AcDbLine
 10
20.0
 20
17.0
 30
0.0
 11
168.0
 21
17.0
 31
0.0
  0
LINE
  5
147
330
F1
100
AcDbEntity
  8
图层7
100
AcDbLine
 10
20.0
 20
22.99999999999999
 30
0.0
 11
168.0
 21
22.99999999999999
 31
0.0
  0
LINE
  5
148
330
F1
100
AcDbEntity
  8
图层7
100
AcDbLine
 10
20.0
 20
29.0
 30
0.0
 11
168.0
 21
29.0
 31
0.0
  0
LINE
  5
149
330
F1
100
AcDbEntity
  8
图层7
100
AcDbLine
 10
20.0
 20
35.0
 30
0.0
 11
168.0
 21
35.0
 31
0.0
  0
LINE
  5
14A
330
F1
100
AcDbEntity
  8
图层7
100
AcDbLine
 10
20.0
 20
40.99999999999999
 30
0.0
 11
168.0
 21
40.99999999999999
 31
0.0
  0
LINE
  5
14B
330
F1
100
AcDbEntity
  8
图层7
100
AcDbLine
 10
20.0
 20
46.99999999999999
 30
0.0
 11
168.0
 21
46.99999999999999
 31
0.0
  0
LINE
  5
14C
330
F1
100
AcDbEntity
  8
图层7
100
AcDbLine
 10
20.0
 20
52.99999999999999
 30
0.0
 11
168.0
 21
52.99999999999999
 31
0.0
  0
LINE
  5
14D
330
F1
100
AcDbEntity
  8
图层7
100
AcDbLine
 10
35.0
 20
5.0
 30
0.0
 11
35.0
 21
52.99999999999999
 31
0.0
  0
LINE
  5
14E
330
F1
100
AcDbEntity
  8
图层7
100
AcDbLine
 10
168.0
 20
5.0
 30
0.0
 11
168.0
 21
52.99999999999999
 31
0.0
  0
LINE
  5
14F
330
F1
100
AcDbEntity
  8
图层7
100
AcDbLine
 10
65.0
 20
5.0
 30
0.0
 11
65.0
 21
52.99999999999999
 31
0.0
  0
LINE
  5
150
330
F1
100
AcDbEntity
  8
图层7
100
AcDbLine
 10
85.0
 20
5.0
 30
0.0
 11
85.0
 21
52.99999999999999
 31
0.0
  0
LINE
  5
151
330
F1
100
AcDbEntity
  8
图层7
100
AcDbLine
 10
115.0
 20
5.0
 30
0.0
 11
115.0
 21
52.99999999999999
 31
0.0
  0
LINE
  5
152
330
F1
100
AcDbEntity
  8
图层7
100
AcDbLine
 10
130.0
 20
5.0
 30
0.0
 11
130.0
 21
52.99999999999999
 31
0.0
  0
TEXT
  5
153
330
F1
100
AcDbEntity
  8
图层7
100
AcDbText
 10
23.26335645966858
 20
5.743995023187146
 30
0.0
 40
3.2
  1
序号
  7
样式 2
 72
     1
 11
27.8144675707797
 21
5.743995023187146
 31
0.0
100
AcDbText
  0
TEXT
  5
154
330
F1
100
AcDbEntity
  8
图层7
100
AcDbText
 10
38.44899474080417
 20
5.743995023187146
 30
0.0
 40
3.2
  1
名　　　称
  7
样式 2
 72
     1
 11
49.82677251858195
 21
5.743995023187146
 31
0.0
100
AcDbText
  0
TEXT
  5
155
330
F1
100
AcDbEntity
  8
图层7
100
AcDbText
 10
70.78198269623093
 20
5.743995023187146
 30
0.0
 40
3.2
  1
材料
  7
样式 2
 72
     1
 11
75.33309380734204
 21
5.743995023187146
 31
0.0
100
AcDbText
  0
TEXT
  5
156
330
F1
100
AcDbEntity
  8
图层7
100
AcDbText
 10
88.41343291597896
 20
5.743995023187146
 30
0.0
 40
3.2
  1
规　　　格
  7
样式 2
 72
     1
 11
99.79121069375674
 21
5.743995023187146
 31
0.0
100
AcDbText
  0
TEXT
  5
157
330
F1
100
AcDbEntity
  8
图层7
100
AcDbText
 10
118.6500120667149
 20
5.743995023187146
 30
0.0
 40
3.2
  1
件数
  7
样式 2
 72
     1
 11
123.201123177826
 21
5.743995023187146
 31
0.0
100
AcDbText
  0
TEXT
  5
158
330
F1
100
AcDbEntity
  8
图层7
100
AcDbText
 10
136.1023167854531
 20
5.743995023187146
 30
0.0
 40
3.2
  1
备　　　　注
  7
样式 2
 72
     1
 11
149.7556501187864
 21
5.743995023187146
 31
0.0
100
AcDbText
  0
TEXT
  5
159
330
F1
100
AcDbEntity
  8
图层7
100
AcDbText
 10
26.67668979300192
 20
11.67657999245124
 30
0.0
 40
3.2
  1
1
  7
样式 2
 72
     1
 11
27.8144675707797
 21
11.67657999245124
 31
0.0
100
AcDbText
  0
TEXT
  5
15A
330
F1
100
AcDbEntity
  8
图层7
100
AcDbText
 10
27.02609167706869
 20
17.60916428650648
 30
0.0
 40
3.2
  1
2
  7
样式 2
 72
     1
 11
28.16386945484646
 21
17.60916428650648
 31
0.0
100
AcDbText
  0
TEXT
  5
15B
330
F1
100
AcDbEntity
  8
图层7
100
AcDbText
 10
27.02609167706869
 20
24.23969983285257
 30
0.0
 40
3.2
  1
3
  7
样式 2
 72
     1
 11
28.16386945484646
 21
24.23969983285257
 31
0.0
100
AcDbText
  0
TEXT
  5
15C
330
F1
100
AcDbEntity
  8
图层7
100
AcDbText
 10
26.76603190750161
 20
30.1722841269078
 30
0.0
 40
3.2
  1
4
  7
样式 2
 72
     1
 11
27.90380968527939
 21
30.1722841269078
 31
0.0
100
AcDbText
  0
TEXT
  5
15D
330
F1
100
AcDbEntity
  8
图层7
100
AcDbText
 10
26.85537277214685
 20
36.10486842096304
 30
0.0
 40
3.2
  1
5
  7
样式 2
 72
     1
 11
27.99315054992462
 21
36.10486842096304
 31
0.0
100
AcDbText
  0
TEXT
  5
15E
330
F1
100
AcDbEntity
  8
图层7
100
AcDbText
 10
26.83787001871537
 20
42.0454151453872
 30
0.0
 40
3.2
  1
6
  7
样式 2
 72
     1
 11
27.97564779649315
 21
42.0454151453872
 31
0.0
100
AcDbText
  0
TEXT
  5
15F
330
F1
100
AcDbEntity
  8
图层7
100
AcDbText
 10
27.02609167706869
 20
47.62106205813676
 30
0.0
 40
3.2
  1
7
  7
样式 2
 72
     1
 11
28.16386945484646
 21
47.62106205813676
 31
0.0
100
AcDbText
  0
TEXT
  5
160
330
F1
100
AcDbEntity
  8
图层7
100
AcDbText
 10
42.21195996928229
 20
12.19606543862823
 30
0.0
 40
3.2
  1
底座盖
  7
样式 2
 72
     1
 11
49.03862663594896
 21
12.19606543862823
 31
0.0
100
AcDbText
  0
TEXT
  5
161
330
F1
100
AcDbEntity
  8
图层7
100
AcDbText
 10
35.87365888065092
 20
17.95813991265196
 30
0.0
 40
2.5
  1
带肥皂盆化妆台板
  7
样式 2
 72
     1
 11
50.09588110287314
 21
17.95813991265196
 31
0.0
100
AcDbText
  0
TEXT
  5
162
330
F1
100
AcDbEntity
  8
图层7
100
AcDbText
 10
44.22745575527076
 20
24.23969983285257
 30
0.0
 40
3.2
  1
方管
  7
样式 2
 72
     1
 11
48.77856686638188
 21
24.23969983285257
 31
0.0
100
AcDbText
  0
TEXT
  5
163
330
F1
100
AcDbEntity
  8
图层7
100
AcDbText
 10
44.22745575527076
 20
30.1722841269078
 30
0.0
 40
3.2
  1
底座
  7
样式 2
 72
     1
 11
48.77856686638188
 21
30.1722841269078
 31
0.0
100
AcDbText
  0
TEXT
  5
164
330
F1
100
AcDbEntity
  8
图层7
100
AcDbText
 10
44.22745575527076
 20
36.10486842096304
 30
0.0
 40
3.2
  1
垫子
  7
样式 2
 72
     1
 11
48.77856686638188
 21
36.10486842096304
 31
0.0
100
AcDbText
  0
TEXT
  5
165
330
F1
100
AcDbEntity
  8
图层7
100
AcDbText
 10
39.67634464415965
 20
41.68847776408164
 30
0.0
 40
3.2
  1
紧固螺钉
  7
样式 2
 72
     1
 11
48.77856686638188
 21
41.68847776408164
 31
0.0
100
AcDbText
  0
TEXT
  5
166
330
F1
100
AcDbEntity
  8
图层7
100
AcDbText
 10
44.22745575527076
 20
47.97003768428225
 30
0.0
 40
3.2
  1
立柱
  7
样式 2
 72
     1
 11
48.77856686638188
 21
47.97003768428225
 31
0.0
100
AcDbText
  0
TEXT
  5
167
330
F1
100
AcDbEntity
  8
图层3
100
AcDbText
 10
70.0831801779523
 20
11.67657999245124
 30
0.0
 40
3.2
  1
铜板
  7
样式 2
 72
     1
 11
74.63429128906341
 21
11.67657999245124
 31
0.0
100
AcDbText
  0
TEXT
  5
168
330
F1
100
AcDbEntity
  8
图层3
100
AcDbText
 10
67.80762462239675
 20
24.23969983285257
 30
0.0
 40
3.2
  1
铜方管
  7
样式 2
 72
     1
 11
74.63429128906341
 21
24.23969983285257
 31
0.0
100
AcDbText
  0
TEXT
  5
169
330
F1
100
AcDbEntity
  8
图层3
100
AcDbText
 10
72.00933384944109
 20
30.1722841269078
 30
0.0
 40
3.2
  1
锌
  7
样式 2
 72
     1
 11
74.28488940499665
 21
30.1722841269078
 31
0.0
100
AcDbText
  0
TEXT
  5
16A
330
F1
100
AcDbEntity
  8
图层3
100
AcDbText
 10
69.73377829388553
 20
35.75589279481755
 30
0.0
 40
3.2
  1
塑料
  7
样式 2
 72
     1
 11
74.28488940499665
 21
35.75589279481755
 31
0.0
100
AcDbText
  0
TEXT
  5
16B
330
F1
100
AcDbEntity
  8
图层3
100
AcDbText
 10
67.80762462239675
 20
41.68847776408164
 30
0.0
 40
3.2
  1
不锈钢
  7
样式 2
 72
     1
 11
74.63429128906341
 21
41.68847776408164
 31
0.0
100
AcDbText
  0
TEXT
  5
16C
330
F1
100
AcDbEntity
  8
图层3
100
AcDbText
 10
72.00933384944109
 20
47.62106205813676
 30
0.0
 40
3.2
  1
铜
  7
样式 2
 72
     1
 11
74.28488940499665
 21
47.62106205813676
 31
0.0
100
AcDbText
  0
TEXT
  5
16D
330
F1
100
AcDbEntity
  8
图层3
100
AcDbText
 10
87.01582662956679
 20
23.89072420670709
 30
0.0
 40
3.2
  1
8×8内6×6
  7
样式 2
 72
     1
 11
98.39360440734459
 21
23.89072420670709
 31
0.0
100
AcDbText
  0
TEXT
  5
16E
330
F1
100
AcDbEntity
  8
图层3
100
AcDbText
 10
93.05411740252246
 20
42.03745339022701
 30
0.0
 40
3.2
  1
M5×4
  7
样式 2
 72
     1
 11
98.74300629141135
 21
42.03745339022701
 31
0.0
100
AcDbText
  0
TEXT
  5
16F
330
F1
100
AcDbEntity
  8
图层3
100
AcDbText
 10
88.15360440734458
 20
47.62106205813676
 30
0.0
 40
3.2
  1
    ×100
  7
样式 2
 72
     1
 11
98.39360440734459
 21
47.62106205813676
 31
0.0
100
AcDbText
  0
TEXT
  5
170
330
F1
100
AcDbEntity
  8
图层3
100
AcDbText
 10
121.3645416319147
 20
11.67657999245124
 30
0.0
 40
3.2
  1
2
  7
样式 2
 72
     1
 11
122.5023194096925
 21
11.67657999245124
 31
0.0
100
AcDbText
  0
TEXT
  5
171
330
F1
100
AcDbEntity
  8
图层3
100
AcDbText
 10
121.3645416319147
 20
17.95813991265196
 30
0.0
 40
3.2
  1
1
  7
样式 2
 72
     1
 11
122.5023194096925
 21
17.95813991265196
 31
0.0
100
AcDbText
  0
TEXT
  5
172
330
F1
100
AcDbEntity
  8
图层3
100
AcDbText
 10
121.0151384979931
 20
24.58867478378908
 30
0.0
 40
3.2
  1
1
  7
样式 2
 72
     1
 11
122.1529162757708
 21
24.58867478378908
 31
0.0
100
AcDbText
  0
TEXT
  5
173
330
F1
100
AcDbEntity
  8
图层3
100
AcDbText
 10
121.015139747848
 20
29.82330850076232
 30
0.0
 40
3.2
  1
2
  7
样式 2
 72
     1
 11
122.1529175256257
 21
29.82330850076232
 31
0.0
100
AcDbText
  0
TEXT
  5
174
330
F1
100
AcDbEntity
  8
图层3
100
AcDbText
 10
121.015139747848
 20
36.10486842096304
 30
0.0
 40
3.2
  1
1
  7
样式 2
 72
     1
 11
122.1529175256257
 21
36.10486842096304
 31
0.0
100
AcDbText
  0
TEXT
  5
175
330
F1
100
AcDbEntity
  8
图层3
100
AcDbText
 10
121.015139747848
 20
41.68847776408164
 30
0.0
 40
3.2
  1
6
  7
样式 2
 72
     1
 11
122.1529175256257
 21
41.68847776408164
 31
0.0
100
AcDbText
  0
TEXT
  5
176
330
F1
100
AcDbEntity
  8
图层3
100
AcDbText
 10
120.6657378637812
 20
48.31901331042774
 30
0.0
 40
3.2
  1
2
  7
样式 2
 72
     1
 11
121.803515641559
 21
48.31901331042774
 31
0.0
100
AcDbText
  0
MTEXT
  5
177
330
F1
100
AcDbEntity
  8
图层3
100
AcDbMText
 10
87.91155413461614
 20
51.45979327052804
 30
0.0
 40
3.2
 41
10.1326
 46
0.0
 71
     1
 72
     5
  1
%%c20
 73
     1
 44
1.0
  0
MTEXT
  5
178
330
F1
100
AcDbEntity
  8
图层3
100
AcDbMText
 10
134.7313778528999
 20
45.87618392740943
 30
0.0
 40
2.799999999999999
 41
32.4944
 46
0.0
 71
     1
 72
     5
  1
2.5的内六角螺钉
  7
样式 2
 73
     1
 44
1.0
  0
MTEXT
  5
179
330
F1
100
AcDbEntity
  8
图层3
100
AcDbMText
 10
87.8432415177042
 20
39.21992287776993
 30
0.0
 40
3.2
 41
28.6509
 46
0.0
 71
     1
 72
     5
  1
δ=6.5,L=91
  7
样式 2
 73
     1
 44
1.0
  0
MTEXT
  5
17A
330
F1
100
AcDbEntity
  8
图层3
100
AcDbMText
 10
141.2882586539376
 20
27.38830962543874
 30
0.0
 40
3.2
 41
18.4578
 46
0.0
 71
     1
 72
     5
  1
L=342
  7
样式 2
 73
     1
 44
1.0
1001
ACAD
1000
ACAD_MTEXT_DEFINED_HEIGHT_BEGIN
1070
    46
1040
0.0
1000
ACAD_MTEXT_DEFINED_HEIGHT_END
  0
MTEXT
  5
17B
330
F1
100
AcDbEntity
  8
图层3
100
AcDbMText
 10
337.9408220849959
 20
9.006742669735672
 30
0.0
 40
3.2
 41
5.2679
 46
0.0
 71
     1
 72
     5
  1
1
  7
样式 2
 73
     1
 44
1.0
  0
MTEXT
  5
17C
330
F1
100
AcDbEntity
  8
图层3
100
AcDbMText
 10
345.4248898537546
 20
15.91243170429538
 30
0.0
 40
2.5
 41
12.182
 46
0.0
 71
     1
 72
     5
  1
1:2
  7
样式 2
 73
     1
 44
1.0
1001
ACAD
1000
ACAD_MTEXT_DEFINED_HEIGHT_BEGIN
1070
    46
1040
0.0
1000
ACAD_MTEXT_DEFINED_HEIGHT_END
  0
MTEXT
  5
17D
330
F1
100
AcDbEntity
  8
图层3
100
AcDbMText
 10
68.15367024244415
 20
21.62770790417732
 30
0.0
 40
2.5
 41
14.4867
 46
0.0
 71
     1
 72
     5
  1
不锈钢板
  7
样式 2
 73
     1
 44
1.0
  0
MTEXT
  5
17E
330
F1
100
AcDbEntity
  8
图层3
100
AcDbMText
 10
138.3519400945047
 20
34.05016308712458
 30
0.0
 40
3.2
 41
20.7424
 46
0.0
 71
     1
 72
     5
  1
左右不同
  7
样式 2
 73
     1
 44
1.0
  0
TEXT
  5
17F
330
F1
100
AcDbEntity
  8
图层7
100
AcDbText
 10
364.5453462507276
 20
40.10012818755228
 30
0.0
 40
4.0
  1
带皂盒化妆台
  7
样式 1
100
AcDbText
  0
TEXT
  5
180
330
F1
100
AcDbEntity
  8
图层7
100
AcDbText
 10
302.3860832554042
 20
35.4987608087389
 30
0.0
 40
4.0
  1
带皂盒化妆台
  7
样式 1
100
AcDbText
  0
ENDBLK
  5
181
330
F1
100
AcDbEntity
  8
0
100
AcDbBlockEnd
  0
BLOCK
  5
884
330
87A
100
AcDbEntity
  8
0
100
AcDbBlockBegin
  2
*D2
 70
     1
 10
0.0
 20
0.0
 30
0.0
  3
*D2
  1

  0
LINE
  5
ACF
330
87A
100
AcDbEntity
  8
图层7
 62
     0
440
 16777216
370
    -2
100
AcDbLine
 10
868.8785336195801
 20
529.6993642822014
 30
0.0
 11
868.8785336195801
 21
533.8019597323252
 31
0.0
  0
LINE
  5
AD0
330
87A
100
AcDbEntity
  8
图层7
 62
     0
440
 16777216
370
    -2
100
AcDbLine
 10
1033.37853361958
 20
528.4065802429479
 30
0.0
 11
1033.37853361958
 21
533.8019597323252
 31
0.0
  0
LINE
  5
AD1
330
87A
100
AcDbEntity
  8
图层7
 62
     0
440
 16777216
370
    -2
100
AcDbLine
 10
871.3785336195801
 20
532.5519597323252
 30
0.0
 11
1030.87853361958
 21
532.5519597323252
 31
0.0
  0
SOLID
  5
AD2
330
87A
100
AcDbEntity
  8
图层7
 62
     0
440
 16777216
100
AcDbTrace
 10
871.3785336195801
 20
532.9686263989919
 30
0.0
 11
871.3785336195801
 21
532.1352930656586
 31
0.0
 12
868.8785336195801
 22
532.5519597323252
 32
0.0
 13
868.8785336195801
 23
532.5519597323252
 33
0.0
  0
SOLID
  5
AD3
330
87A
100
AcDbEntity
  8
图层7
 62
     0
440
 16777216
100
AcDbTrace
 10
1030.87853361958
 20
532.9686263989919
 30
0.0
 11
1030.87853361958
 21
532.1352930656586
 31
0.0
 12
1033.37853361958
 22
532.5519597323252
 32
0.0
 13
1033.37853361958
 23
532.5519597323252
 33
0.0
  0
MTEXT
  5
AD4
330
87A
100
AcDbEntity
  8
图层7
 62
     0
440
 16777216
100
AcDbMText
 10
951.12853361958
 20
534.4269597323252
 30
0.0
 40
2.5
 41
0.0
 46
0.0
 71
     5
 72
     1
  1
329
 73
     1
 44
1.0
  0
POINT
  5
AD5
330
87A
100
AcDbEntity
  8
Defpoints
 62
     0
440
 16777216
100
AcDbPoint
 10
868.8785336195801
 20
529.0743642822015
 30
0.0
  0
POINT
  5
AD6
330
87A
100
AcDbEntity
  8
Defpoints
 62
     0
440
 16777216
100
AcDbPoint
 10
1033.37853361958
 20
527.7815802429479
 30
0.0
  0
POINT
  5
AD7
330
87A
100
AcDbEntity
  8
Defpoints
 62
     0
440
 16777216
100
AcDbPoint
 10
1033.37853361958
 20
532.5519597323252
 30
0.0
  0
ENDBLK
  5
885
330
87A
100
AcDbEntity
  8
0
100
AcDbBlockEnd
  0
BLOCK
  5
8C0
330
8B6
100
AcDbEntity
  8
0
100
AcDbBlockBegin
  2
*D3
 70
     1
 10
0.0
 20
0.0
 30
0.0
  3
*D3
  1

  0
LINE
  5
AC6
330
8B6
100
AcDbEntity
  8
图层7
 62
     0
440
 16777216
370
    -2
100
AcDbLine
 10
858.8785336195801
 20
525.86604644882
 30
0.0
 11
858.8785336195801
 21
541.9462418034945
 31
0.0
  0
LINE
  5
AC7
330
8B6
100
AcDbEntity
  8
图层7
 62
     0
440
 16777216
370
    -2
100
AcDbLine
 10
1043.37853361958
 20
525.86604644882
 30
0.0
 11
1043.37853361958
 21
541.9462418034945
 31
0.0
  0
LINE
  5
AC8
330
8B6
100
AcDbEntity
  8
图层7
 62
     0
440
 16777216
370
    -2
100
AcDbLine
 10
861.3785336195801
 20
540.6962418034945
 30
0.0
 11
1040.87853361958
 21
540.6962418034945
 31
0.0
  0
SOLID
  5
AC9
330
8B6
100
AcDbEntity
  8
图层7
 62
     0
440
 16777216
100
AcDbTrace
 10
861.3785336195801
 20
541.1129084701611
 30
0.0
 11
861.3785336195801
 21
540.2795751368279
 31
0.0
 12
858.8785336195801
 22
540.6962418034945
 32
0.0
 13
858.8785336195801
 23
540.6962418034945
 33
0.0
  0
SOLID
  5
ACA
330
8B6
100
AcDbEntity
  8
图层7
 62
     0
440
 16777216
100
AcDbTrace
 10
1040.87853361958
 20
541.1129084701611
 30
0.0
 11
1040.87853361958
 21
540.2795751368279
 31
0.0
 12
1043.37853361958
 22
540.6962418034945
 32
0.0
 13
1043.37853361958
 23
540.6962418034945
 33
0.0
  0
MTEXT
  5
ACB
330
8B6
100
AcDbEntity
  8
图层7
 62
     0
440
 16777216
100
AcDbMText
 10
951.12853361958
 20
542.5712418034946
 30
0.0
 40
2.5
 41
0.0
 46
0.0
 71
     5
 72
     1
  1
369
 73
     1
 44
1.0
  0
POINT
  5
ACC
330
8B6
100
AcDbEntity
  8
Defpoints
 62
     0
440
 16777216
100
AcDbPoint
 10
858.8785336195801
 20
525.24104644882
 30
0.0
  0
POINT
  5
ACD
330
8B6
100
AcDbEntity
  8
Defpoints
 62
     0
440
 16777216
100
AcDbPoint
 10
1043.37853361958
 20
525.24104644882
 30
0.0
  0
POINT
  5
ACE
330
8B6
100
AcDbEntity
  8
Defpoints
 62
     0
440
 16777216
100
AcDbPoint
 10
1043.37853361958
 20
540.6962418034945
 30
0.0
  0
ENDBLK
  5
8C1
330
8B6
100
AcDbEntity
  8
0
100
AcDbBlockEnd
  0
BLOCK
  5
8E1
330
8D7
100
AcDbEntity
  8
0
100
AcDbBlockBegin
  2
*D4
 70
     1
 10
0.0
 20
0.0
 30
0.0
  3
*D4
  1

  0
LINE
  5
ABD
330
8D7
100
AcDbEntity
  8
图层7
 62
     0
440
 16777216
370
    -2
100
AcDbLine
 10
1062.237821995317
 20
555.5012428099386
 30
0.0
 11
1062.237821995317
 21
547.6970469642727
 31
0.0
  0
LINE
  5
ABE
330
8D7
100
AcDbEntity
  8
图层7
 62
     0
440
 16777216
370
    -2
100
AcDbLine
 10
1115.587821995318
 20
560.0012428099386
 30
0.0
 11
1115.587821995318
 21
547.6970469642727
 31
0.0
  0
LINE
  5
ABF
330
8D7
100
AcDbEntity
  8
图层7
 62
     0
440
 16777216
370
    -2
100
AcDbLine
 10
1064.737821995318
 20
548.9470469642726
 30
0.0
 11
1113.087821995318
 21
548.9470469642726
 31
0.0
  0
SOLID
  5
AC0
330
8D7
100
AcDbEntity
  8
图层7
 62
     0
440
 16777216
100
AcDbTrace
 10
1064.737821995318
 20
549.3637136309392
 30
0.0
 11
1064.737821995318
 21
548.530380297606
 31
0.0
 12
1062.237821995317
 22
548.9470469642726
 32
0.0
 13
1062.237821995317
 23
548.9470469642726
 33
0.0
  0
SOLID
  5
AC1
330
8D7
100
AcDbEntity
  8
图层7
 62
     0
440
 16777216
100
AcDbTrace
 10
1113.087821995318
 20
549.3637136309392
 30
0.0
 11
1113.087821995318
 21
548.530380297606
 31
0.0
 12
1115.587821995318
 22
548.9470469642726
 32
0.0
 13
1115.587821995318
 23
548.9470469642726
 33
0.0
  0
MTEXT
  5
AC2
330
8D7
100
AcDbEntity
  8
图层7
 62
     0
440
 16777216
100
AcDbMText
 10
1088.912821995317
 20
550.8220469642727
 30
0.0
 40
2.5
 41
0.0
 46
0.0
 71
     5
 72
     1
  1
107
 73
     1
 44
1.0
  0
POINT
  5
AC3
330
8D7
100
AcDbEntity
  8
Defpoints
 62
     0
440
 16777216
100
AcDbPoint
 10
1062.237821995317
 20
556.1262428099386
 30
0.0
  0
POINT
  5
AC4
330
8D7
100
AcDbEntity
  8
Defpoints
 62
     0
440
 16777216
100
AcDbPoint
 10
1115.587821995318
 20
560.6262428099386
 30
0.0
  0
POINT
  5
AC5
330
8D7
100
AcDbEntity
  8
Defpoints
 62
     0
440
 16777216
100
AcDbPoint
 10
1115.587821995318
 20
548.9470469642726
 30
0.0
  0
ENDBLK
  5
8E2
330
8D7
100
AcDbEntity
  8
0
100
AcDbBlockEnd
  0
BLOCK
  5
944
330
93B
100
AcDbEntity
  8
0
100
AcDbBlockBegin
  2
*D5
 70
     1
 10
0.0
 20
0.0
 30
0.0
  3
*D5
  1

  0
LINE
  5
AB5
330
93B
100
AcDbEntity
  8
图层7
 62
     0
440
 16777216
370
    -2
100
AcDbLine
 10
1046.948955379888
 20
584.0732106108614
 30
0.0
 11
1040.917656819751
 21
576.096780477118
 31
0.0
  0
LINE
  5
AB6
330
93B
100
AcDbEntity
  8
图层7
 62
     0
440
 16777216
370
    -2
100
AcDbLine
 10
1025.839410419409
 20
556.1557051427591
 30
0.0
 11
1024.331585779375
 21
554.1615976093233
 31
0.0
  0
MTEXT
  5
AB7
330
93B
100
AcDbEntity
  8
图层7
 62
     0
440
 16777216
100
AcDbMText
 10
1043.191637769759
 20
582.2129177907334
 30
0.0
 40
2.5
 41
0.0
 46
0.0
 71
     5
 72
     1
  1
%%C40
 11
0.6031298560136773
 21
0.7976430133743547
 31
0.0
 73
     1
 44
1.0
  0
LINE
  5
AB8
330
93B
100
AcDbEntity
  8
图层7
 62
     0
440
 16777216
370
    -2
100
AcDbLine
 10
1027.347235059443
 20
558.1498126761951
 30
0.0
 11
1039.409832179717
 21
574.1026729436821
 31
0.0
  0
SOLID
  5
AB9
330
93B
100
AcDbEntity
  8
图层7
 62
     0
440
 16777216
100
AcDbTrace
 10
1025.507059163836
 20
556.4070092494314
 30
0.0
 11
1026.171761674982
 21
555.9044010360866
 31
0.0
 12
1027.347235059443
 22
558.1498126761951
 32
0.0
 13
1027.347235059443
 23
558.1498126761951
 33
0.0
  0
SOLID
  5
ABA
330
93B
100
AcDbEntity
  8
图层7
 62
     0
440
 16777216
100
AcDbTrace
 10
1040.585305564178
 20
576.3480845837903
 30
0.0
 11
1041.250008075323
 21
575.8454763704455
 31
0.0
 12
1039.409832179717
 22
574.1026729436821
 32
0.0
 13
1039.409832179717
 23
574.1026729436821
 33
0.0
  0
POINT
  5
ABB
330
93B
100
AcDbEntity
  8
Defpoints
 62
     0
440
 16777216
100
AcDbPoint
 10
1039.409832179717
 20
574.1026729436821
 30
0.0
  0
POINT
  5
ABC
330
93B
100
AcDbEntity
  8
Defpoints
 62
     0
440
 16777216
100
AcDbPoint
 10
1027.347235059443
 20
558.1498126761951
 30
0.0
  0
ENDBLK
  5
945
330
93B
100
AcDbEntity
  8
0
100
AcDbBlockEnd
  0
BLOCK
  5
95A
330
951
100
AcDbEntity
  8
0
100
AcDbBlockBegin
  2
*D6
 70
     1
 10
0.0
 20
0.0
 30
0.0
  3
*D6
  1

  0
LINE
  5
AAD
330
951
100
AcDbEntity
  8
图层7
 62
     0
440
 16777216
370
    -2
100
AcDbLine
 10
854.477061281131
 20
583.41345179476
 30
0.0
 11
860.8777156537753
 21
575.7302478015062
 31
0.0
  0
LINE
  5
AAE
330
951
100
AcDbEntity
  8
图层7
 62
     0
440
 16777216
370
    -2
100
AcDbLine
 10
876.8793515853859
 20
556.5222378183717
 30
0.0
 11
878.479515178547
 21
554.6014368200583
 31
0.0
  0
MTEXT
  5
AAF
330
951
100
AcDbEntity
  8
图层7
 62
     0
440
 16777216
100
AcDbMText
 10
858.3179074196078
 20
581.7323729921604
 30
0.0
 40
2.5
 41
0.0
 46
0.0
 71
     5
 72
     1
  1
%%C40
 11
0.6400654372644227
 21
-0.7683203993253748
 31
0.0
 73
     1
 44
1.0
  0
LINE
  5
AB0
330
951
100
AcDbEntity
  8
图层7
 62
     0
440
 16777216
370
    -2
100
AcDbLine
 10
875.2791879922249
 20
558.4430388166851
 30
0.0
 11
862.4778792469362
 21
573.8094468031928
 31
0.0
  0
SOLID
  5
AB1
330
951
100
AcDbEntity
  8
图层7
 62
     0
440
 16777216
100
AcDbTrace
 10
877.1994850851049
 20
556.7889317505652
 30
0.0
 11
876.5592180856669
 21
556.2555438861782
 31
0.0
 12
875.2791879922249
 22
558.4430388166851
 32
0.0
 13
875.2791879922249
 23
558.4430388166851
 33
0.0
  0
SOLID
  5
AB2
330
951
100
AcDbEntity
  8
图层7
 62
     0
440
 16777216
100
AcDbTrace
 10
861.1978491534941
 20
575.9969417336998
 30
0.0
 11
860.5575821540563
 21
575.4635538693126
 31
0.0
 12
862.4778792469362
 22
573.8094468031928
 32
0.0
 13
862.4778792469362
 23
573.8094468031928
 33
0.0
  0
POINT
  5
AB3
330
951
100
AcDbEntity
  8
Defpoints
 62
     0
440
 16777216
100
AcDbPoint
 10
862.4778792469362
 20
573.8094468031928
 30
0.0
  0
POINT
  5
AB4
330
951
100
AcDbEntity
  8
Defpoints
 62
     0
440
 16777216
100
AcDbPoint
 10
875.2791879922249
 20
558.4430388166851
 30
0.0
  0
ENDBLK
  5
95B
330
951
100
AcDbEntity
  8
0
100
AcDbBlockEnd
  0
BLOCK
  5
9A7
330
9A6
100
AcDbEntity
  8
0
 48
0.2
370
    35
100
AcDbBlockBegin
  2
_ClosedBlank
 70
     0
 10
0.0
 20
0.0
 30
0.0
  3
_ClosedBlank
  1

  0
LINE
  5
9A8
330
9A6
100
AcDbEntity
  8
0
  6
ByBlock
 62
     0
370
    -2
100
AcDbLine
 10
-1.0
 20
0.1666666666666666
 30
0.0
 11
0.0
 21
0.0
 31
0.0
  0
LINE
  5
9A9
330
9A6
100
AcDbEntity
  8
0
  6
ByBlock
 62
     0
370
    -2
100
AcDbLine
 10
0.0
 20
0.0
 30
0.0
 11
-1.0
 21
-0.1666666666666666
 31
0.0
  0
LINE
  5
9AA
330
9A6
100
AcDbEntity
  8
0
  6
ByBlock
 62
     0
370
    -2
100
AcDbLine
 10
-1.0
 20
0.1666666666666666
 30
0.0
 11
-1.0
 21
-0.1666666666666666
 31
0.0
  0
ENDBLK
  5
9AB
330
9A6
100
AcDbEntity
  8
0
 48
0.2
370
    35
100
AcDbBlockEnd
  0
BLOCK
  5
9AD
330
9AC
100
AcDbEntity
  8
0
 48
0.5
100
AcDbBlockBegin
  2
_Dot
 70
     0
 10
0.0
 20
0.0
 30
0.0
  3
_Dot
  1

  0
LWPOLYLINE
  5
9AE
330
9AC
100
AcDbEntity
  8
0
  6
ByBlock
 62
     0
100
AcDbPolyline
 90
        2
 70
     1
 43
0.5
 10
-0.25
 20
0.0
 42
1.0
 10
0.25
 20
0.0
 42
1.0
  0
LINE
  5
9AF
330
9AC
100
AcDbEntity
  8
0
  6
ByBlock
 62
     0
370
    -2
100
AcDbLine
 10
-0.5
 20
0.0
 30
0.0
 11
-1.0
 21
0.0
 31
0.0
  0
ENDBLK
  5
9B0
330
9AC
100
AcDbEntity
  8
0
 48
0.5
100
AcDbBlockEnd
  0
ENDSEC
  0
SECTION
  2
ENTITIES
  0
HATCH
  5
3C7
330
1F
100
AcDbEntity
  8
图层7
100
AcDbHatch
 10
0.0
 20
0.0
 30
0.0
210
0.0
220
0.0
230
1.0
  2
ANSI31
 70
     0
 71
     0
 91
        8
 92
        7
 72
     1
 73
     1
 93
       12
 10
877.3622076870775
 20
567.5262428099387
 42
-0.109877900232033
 10
877.6024658887894
 20
567.3063395682112
 42
0.0
 10
880.1320927222159
 20
563.6925869490304
 42
0.2447353468315594
 10
882.1801725235134
 20
562.6262428099386
 42
0.0
 10
891.8785336195801
 20
562.6262428099387
 42
0.0
 10
891.8785336195801
 20
563.1262428099386
 42
0.0
 10
882.1801725235136
 20
563.1262428099386
 42
-0.2447353468315679
 10
880.5417086824755
 20
563.979318121212
 42
0.0
 10
878.0120818490489
 20
567.5930707403928
 42
0.2447353468315486
 10
876.9880419484001
 20
568.1262428099386
 42
0.0
 10
868.8785336195801
 20
568.1262428099387
 42
0.0
 10
868.8785336195801
 20
567.5262428099387
 42
0.0
 97
        0
 92
        7
 72
     0
 73
     1
 93
        5
 10
868.8785336195801
 20
567.5262428099386
 10
868.8785336195801
 20
568.1262428099386
 10
867.8785336195801
 20
568.1262428099386
 10
865.8785336195803
 20
568.1262428099386
 10
865.8785336195803
 20
567.5262428099387
 97
        0
 92
        7
 72
     0
 73
     1
 93
        4
 10
897.3785336195801
 20
562.6262428099386
 10
897.3785336195801
 20
563.1262428099387
 10
891.8785336195801
 20
563.1262428099386
 10
891.8785336195801
 20
562.6262428099386
 97
        0
 92
        7
 72
     0
 73
     1
 93
        4
 10
902.8785336195801
 20
562.6262428099387
 10
902.8785336195801
 20
563.1262428099386
 10
897.3785336195801
 20
563.1262428099386
 10
897.3785336195801
 20
562.6262428099386
 97
        0
 92
        7
 72
     0
 73
     1
 93
        4
 10
908.37853361958
 20
562.6262428099387
 10
908.37853361958
 20
563.1262428099386
 10
902.8785336195801
 20
563.1262428099386
 10
902.8785336195801
 20
562.6262428099386
 97
        0
 92
        7
 72
     0
 73
     1
 93
        4
 10
913.8785336195802
 20
562.6262428099387
 10
913.8785336195802
 20
563.1262428099386
 10
908.37853361958
 20
563.1262428099386
 10
908.37853361958
 20
562.6262428099386
 97
        0
 92
        7
 72
     1
 73
     1
 93
        8
 10
923.5768947156467
 20
562.6262428099386
 42
0.2447353468315547
 10
925.6249745169442
 20
563.6925869490302
 42
0.0
 10
927.3285336195801
 20
566.1262428099385
 42
0.0
 10
926.7182058387934
 20
566.1262428099385
 42
0.0
 10
925.2153585566848
 20
563.979318121212
 42
-0.244735346831551
 10
923.5768947156467
 20
563.1262428099386
 42
0.0
 10
913.8785336195802
 20
563.1262428099386
 42
0.0
 10
913.8785336195802
 20
562.6262428099386
 42
0.0
 97
        0
 92
        7
 72
     1
 73
     1
 93
        8
 10
984.9842138687366
 20
567.5262428099387
 42
0.0
 10
984.9842138687366
 20
568.1262428099386
 42
0.0
 10
928.7690252907601
 20
568.1262428099386
 42
0.244735346831546
 10
927.7449853901114
 20
567.5930707403928
 42
0.0
 10
926.7182058387936
 20
566.1262428099385
 42
0.0
 10
927.3285336195801
 20
566.1262428099385
 42
0.0
 10
928.1546013503708
 20
567.3063395682112
 42
-0.1098779002320788
 10
928.3948595520827
 20
567.5262428099387
 42
0.0
 97
        0
 75
     0
 76
     1
 52
90.0
 41
9.0
 77
     0
 78
     1
 53
135.0
 43
754.2258121765257
 44
366.6729453183215
 45
-0.7954951288348661
 46
-0.795495128834866
 79
     0
 47
0.1471609857200613
 98
        8
 10
876.3080700386748
 20
567.6460588282272
 10
867.1780963427321
 20
567.7932190534505
 10
894.8625342949785
 20
562.7897460757895
 10
899.4275211429496
 20
562.7897460757895
 10
904.5815392017564
 20
562.7897460757895
 10
911.0608749669411
 20
562.7897460757895
 10
917.2456963857092
 20
562.7897460757895
 10
929.9098535696616
 20
567.7932190534505
1001
ACAD
1010
0.0
1020
0.0
1030
0.0
  0
LINE
  5
3C8
330
1F
100
AcDbEntity
  8
图层1
100
AcDbLine
 10
886.7827575873755
 20
566.1262428099385
 30
0.0
 11
1046.552704454726
 21
566.1262428099385
 31
0.0
  0
HATCH
  5
3C9
330
1F
100
AcDbEntity
  8
图层7
100
AcDbHatch
 10
0.0
 20
0.0
 30
0.0
210
0.0
220
0.0
230
1.0
  2
ANSI31
 70
     0
 71
     0
 91
        2
 92
        7
 72
     1
 73
     1
 93
        8
 10
868.8785336195801
 20
567.5262428099387
 42
0.0
 10
866.0910336195801
 20
567.5262428099387
 42
0.4142135623730673
 10
865.9410336195801
 20
567.3762428099386
 42
0.0
 10
865.9410336195801
 20
564.6262428099387
 42
0.0
 10
865.9410336195801
 20
564.2762428099387
 42
0.4142135623730673
 10
866.0910336195801
 20
564.1262428099386
 42
0.0
 10
867.7285336195801
 20
564.1262428099386
 42
0.0
 10
868.8785336195801
 20
565.2762428099387
 42
0.0
 97
        0
 92
        7
 72
     1
 73
     1
 93
        7
 10
870.9410336195801
 20
567.3762428099387
 42
0.4142135623729841
 10
870.7910336195801
 20
567.5262428099387
 42
0.0
 10
868.8785336195801
 20
567.5262428099386
 42
0.0
 10
868.8785336195801
 20
565.2762428099387
 42
0.0
 10
870.0285336195801
 20
564.1262428099386
 42
0.0
 10
870.7910336195801
 20
564.1262428099386
 42
0.4142135623730675
 10
870.9410336195801
 20
564.2762428099387
 42
0.0
 97
        0
 75
     0
 76
     1
 52
0.0
 41
10.0
 77
     0
 78
     1
 53
45.0
 43
754.2258121765257
 44
366.6729453183215
 45
-0.8838834764831842
 46
0.8838834764831844
 79
     0
 47
0.0127400852028136
 98
        2
 10
867.8702850663302
 20
566.2543991465103
 10
869.4765904114856
 20
566.1906986072605
1001
ACAD
1010
0.0
1020
0.0
1030
0.0
  0
LINE
  5
3CA
330
1F
100
AcDbEntity
  8
图层1
100
AcDbLine
 10
868.8785336195801
 20
578.7588234390542
 30
0.0
 11
868.8785336195801
 21
554.5358824515748
 31
0.0
  0
ARC
  5
3CB
102
{ACAD_REACTORS
330
965
102
}
330
1F
100
AcDbEntity
  8
0
100
AcDbCircle
 10
868.8785336195801
 20
566.1262428099385
 30
0.0
 40
10.0
100
AcDbArc
 50
11.53695903281494
 51
356.469782244421
  0
ARC
  5
3CC
102
{ACAD_REACTORS
330
94F
102
}
330
1F
100
AcDbEntity
  8
0
100
AcDbCircle
 10
1033.37853361958
 20
566.1262428099385
 30
0.0
 40
10.0
100
AcDbArc
 50
196.7998351097458
 51
168.463040967185
  0
LINE
  5
3CD
330
1F
100
AcDbEntity
  8
图层1
100
AcDbLine
 10
1033.37853361958
 20
578.7588234390542
 30
0.0
 11
1033.37853361958
 21
553.3905030306037
 31
0.0
  0
ARC
  5
3CE
330
1F
100
AcDbEntity
  8
0
100
AcDbCircle
 10
868.8785336195801
 20
566.1262428099385
 30
0.0
 40
5.0
100
AcDbArc
 50
23.57817847820118
 51
335.1654125102986
  0
ARC
  5
3CF
330
1F
100
AcDbEntity
  8
0
100
AcDbCircle
 10
1033.37853361958
 20
566.1262428099385
 30
0.0
 40
5.0
100
AcDbArc
 50
203.5781784782011
 51
156.4218215217988
  0
LINE
  5
3D0
330
1F
100
AcDbEntity
  8
0
100
AcDbLine
 10
865.8785336195801
 20
568.1262428099386
 30
0.0
 11
868.4160336195802
 21
568.1262428099386
 31
0.0
  0
LINE
  5
3D1
330
1F
100
AcDbEntity
  8
0
100
AcDbLine
 10
984.518389746448
 20
564.1262428099386
 30
0.0
 11
1036.37853361958
 21
564.1262428099386
 31
0.0
  0
LINE
  5
3D2
330
1F
100
AcDbEntity
  8
0
100
AcDbLine
 10
865.8785336195801
 20
564.0262428099386
 30
0.0
 11
865.8785336195801
 21
568.1262428099386
 31
0.0
  0
LINE
  5
3D3
330
1F
100
AcDbEntity
  8
0
100
AcDbLine
 10
1036.37853361958
 20
568.1262428099386
 30
0.0
 11
1036.37853361958
 21
564.1262428099386
 31
0.0
  0
LINE
  5
3D4
330
1F
100
AcDbEntity
  8
0
100
AcDbLine
 10
868.4160336195802
 20
569.0762428099386
 30
0.0
 11
868.4160336195802
 21
568.1262428099386
 31
0.0
  0
LINE
  5
3D5
330
1F
100
AcDbEntity
  8
0
100
AcDbLine
 10
868.4160336195802
 20
569.0762428099386
 30
0.0
 11
869.3285336195801
 21
569.0762428099386
 31
0.0
  0
HATCH
  5
3D6
330
1F
100
AcDbEntity
  8
图层7
100
AcDbHatch
 10
0.0
 20
0.0
 30
0.0
210
0.0
220
0.0
230
1.0
  2
ANSI37
 70
     0
 71
     0
 91
        1
 92
        7
 72
     1
 73
     1
 93
        5
 10
873.3785336195801
 20
567.5262428099386
 42
0.0
 10
870.7910336195801
 20
567.5262428099386
 42
-0.4142135623730951
 10
870.9410336195801
 20
567.3762428099386
 42
0.0
 10
870.9410336195801
 20
564.0262428099386
 42
0.0
 10
873.3785336195801
 20
564.0262428099386
 42
0.0
 97
        0
 75
     0
 76
     1
 52
0.0
 41
8.0
 77
     0
 78
     2
 53
45.0
 43
754.2258121765257
 44
366.6729453183215
 45
-0.7071067811865475
 46
0.7071067811865476
 79
     0
 53
135.0
 43
754.2258121765257
 44
366.6729453183215
 45
-0.7071067811865476
 46
-0.7071067811865475
 79
     0
 47
0.0127400852028136
 98
        1
 10
872.3322440786505
 20
565.5282141068154
1001
ACAD
1010
0.0
1020
0.0
1030
0.0
  0
LINE
  5
3D7
330
1F
100
AcDbEntity
  8
0
100
AcDbLine
 10
873.3785336195801
 20
564.0262428099386
 30
0.0
 11
873.3785336195801
 21
567.5262428099386
 31
0.0
  0
LINE
  5
3D8
330
1F
100
AcDbEntity
  8
0
100
AcDbLine
 10
866.0910336195801
 20
564.1262428099386
 30
0.0
 11
867.7285336195801
 21
564.1262428099387
 31
0.0
  0
LINE
  5
3D9
330
1F
100
AcDbEntity
  8
0
100
AcDbLine
 10
869.3285336195801
 20
569.0762428099386
 30
0.0
 11
868.4160336195802
 21
569.0762428099386
 31
0.0
  0
LINE
  5
3DA
330
1F
100
AcDbEntity
  8
0
100
AcDbLine
 10
869.3285336195801
 20
569.0762428099386
 30
0.0
 11
869.3285336195801
 21
568.1262428099386
 31
0.0
  0
LINE
  5
3DB
330
1F
100
AcDbEntity
  8
0
100
AcDbLine
 10
865.8785336195801
 20
564.0262428099386
 30
0.0
 11
867.6285336195801
 21
564.0262428099386
 31
0.0
  0
LINE
  5
3DC
330
1F
100
AcDbEntity
  8
0
100
AcDbLine
 10
870.1285336195802
 20
564.0262428099386
 30
0.0
 11
873.4161541413955
 21
564.0262428099386
 31
0.0
  0
LINE
  5
3DD
330
1F
100
AcDbEntity
  8
图层2
100
AcDbLine
 10
867.6285336195801
 20
564.0262428099386
 30
0.0
 11
867.6285336195801
 21
564.1262428099386
 31
0.0
  0
LINE
  5
3DE
330
1F
100
AcDbEntity
  8
图层2
100
AcDbLine
 10
870.1285336195802
 20
564.0262428099386
 30
0.0
 11
870.1285336195802
 21
564.1262428099386
 31
0.0
  0
LINE
  5
3DF
330
1F
100
AcDbEntity
  8
0
100
AcDbLine
 10
867.8785336195801
 20
561.2272633243723
 30
0.0
 11
867.8785336195801
 21
562.0262428099387
 31
0.0
  0
LINE
  5
3E0
330
1F
100
AcDbEntity
  8
0
100
AcDbLine
 10
869.87853361958
 20
561.2272633243723
 30
0.0
 11
869.87853361958
 21
562.0262428099387
 31
0.0
  0
LINE
  5
3E1
330
1F
100
AcDbEntity
  8
0
100
AcDbLine
 10
867.6285336195801
 20
564.0262428099386
 30
0.0
 11
868.8785336195801
 21
565.2762428099387
 31
0.0
  0
LINE
  5
3E2
330
1F
100
AcDbEntity
  8
0
100
AcDbLine
 10
870.1285336195802
 20
564.0262428099386
 30
0.0
 11
868.8785336195801
 21
565.2762428099387
 31
0.0
  0
LINE
  5
3E3
330
1F
100
AcDbEntity
  8
0
100
AcDbLine
 10
867.6285336195801
 20
564.0262428099386
 30
0.0
 11
867.6285336195801
 21
562.0262428099387
 31
0.0
  0
LINE
  5
3E4
330
1F
100
AcDbEntity
  8
0
100
AcDbLine
 10
870.1285336195802
 20
564.0262428099386
 30
0.0
 11
870.1285336195802
 21
562.0262428099387
 31
0.0
  0
LINE
  5
3E5
330
1F
100
AcDbEntity
  8
0
100
AcDbLine
 10
867.6285336195801
 20
562.0262428099387
 30
0.0
 11
870.1285336195802
 21
562.0262428099387
 31
0.0
  0
LINE
  5
3E6
330
1F
100
AcDbEntity
  8
图层2
100
AcDbLine
 10
867.8785336195801
 20
564.1262428099386
 30
0.0
 11
867.8785336195801
 21
562.0262428099387
 31
0.0
  0
LINE
  5
3E7
330
1F
100
AcDbEntity
  8
图层2
100
AcDbLine
 10
869.87853361958
 20
564.1262428099386
 30
0.0
 11
869.87853361958
 21
562.0262428099387
 31
0.0
  0
LINE
  5
3E8
330
1F
100
AcDbEntity
  8
图层2
100
AcDbLine
 10
867.6285336195801
 20
562.0262428099387
 30
0.0
 11
867.6285336195801
 21
561.2850136271794
 31
0.0
  0
LINE
  5
3E9
330
1F
100
AcDbEntity
  8
图层2
100
AcDbLine
 10
870.1285336195802
 20
562.0262428099387
 30
0.0
 11
870.1285336195802
 21
561.2850136271794
 31
0.0
  0
LINE
  5
3EA
330
1F
100
AcDbEntity
  8
图层2
100
AcDbLine
 10
868.2535336195801
 20
562.0262428099387
 30
0.0
 11
868.2535336195801
 21
563.5262428099387
 31
0.0
  0
LINE
  5
3EB
330
1F
100
AcDbEntity
  8
图层2
100
AcDbLine
 10
868.2535336195801
 20
563.5262428099387
 30
0.0
 11
869.50353361958
 21
563.5262428099387
 31
0.0
  0
LINE
  5
3EC
330
1F
100
AcDbEntity
  8
图层2
100
AcDbLine
 10
869.50353361958
 20
563.5262428099387
 30
0.0
 11
869.50353361958
 21
562.0262428099387
 31
0.0
  0
LINE
  5
3ED
330
1F
100
AcDbEntity
  8
图层2
100
AcDbLine
 10
868.8785336195801
 20
562.0262428099387
 30
0.0
 11
868.8785336195801
 21
563.5262428099387
 31
0.0
  0
LINE
  5
3EE
330
1F
100
AcDbEntity
  8
图层2
100
AcDbLine
 10
1032.12853361958
 20
563.6510419927507
 30
0.0
 11
1032.12853361958
 21
562.1510419927507
 31
0.0
  0
LINE
  5
3EF
330
1F
100
AcDbEntity
  8
图层2
100
AcDbLine
 10
1034.62853361958
 20
563.6510419927507
 30
0.0
 11
1034.62853361958
 21
562.1510419927507
 31
0.0
  0
LINE
  5
3F0
330
1F
100
AcDbEntity
  8
图层2
100
AcDbLine
 10
1032.37853361958
 20
563.6510419927507
 30
0.0
 11
1032.37853361958
 21
562.1510419927507
 31
0.0
  0
LINE
  5
3F1
330
1F
100
AcDbEntity
  8
图层2
100
AcDbLine
 10
1034.37853361958
 20
563.6510419927507
 30
0.0
 11
1034.37853361958
 21
562.1510419927507
 31
0.0
  0
LINE
  5
3F2
330
1F
100
AcDbEntity
  8
图层2
100
AcDbLine
 10
1033.37853361958
 20
564.1262428099386
 30
0.0
 11
1032.37853361958
 21
563.6510419927507
 31
0.0
  0
LINE
  5
3F3
330
1F
100
AcDbEntity
  8
图层2
100
AcDbLine
 10
1032.12853361958
 20
563.6510419927507
 30
0.0
 11
1034.62853361958
 21
563.6510419927507
 31
0.0
  0
LINE
  5
3F4
330
1F
100
AcDbEntity
  8
图层2
100
AcDbLine
 10
1033.37853361958
 20
564.1262428099386
 30
0.0
 11
1034.37853361958
 21
563.6510419927507
 31
0.0
  0
LINE
  5
3F5
330
1F
100
AcDbEntity
  8
图层2
100
AcDbLine
 10
1034.37853361958
 20
563.6510419927507
 30
0.0
 11
1034.37853361958
 21
564.1262428099386
 31
0.0
  0
LINE
  5
3F6
330
1F
100
AcDbEntity
  8
图层2
100
AcDbLine
 10
1034.62853361958
 20
563.6510419927507
 30
0.0
 11
1034.62853361958
 21
564.1262428099386
 31
0.0
  0
LINE
  5
3F7
330
1F
100
AcDbEntity
  8
图层2
100
AcDbLine
 10
1032.37853361958
 20
563.6510419927507
 30
0.0
 11
1032.37853361958
 21
564.1262428099386
 31
0.0
  0
LINE
  5
3F8
330
1F
100
AcDbEntity
  8
图层2
100
AcDbLine
 10
1032.12853361958
 20
563.6510419927507
 30
0.0
 11
1032.12853361958
 21
564.1262428099386
 31
0.0
  0
LINE
  5
3F9
330
1F
100
AcDbEntity
  8
图层2
100
AcDbLine
 10
1032.12853361958
 20
562.1510419927507
 30
0.0
 11
1034.62853361958
 21
562.1510419927507
 31
0.0
  0
LINE
  5
3FA
330
1F
100
AcDbEntity
  8
图层2
100
AcDbLine
 10
1032.37853361958
 20
562.1510419927507
 30
0.0
 11
1032.37853361958
 21
561.2272633243723
 31
0.0
  0
LINE
  5
3FB
330
1F
100
AcDbEntity
  8
图层2
100
AcDbLine
 10
1034.37853361958
 20
562.1510419927507
 30
0.0
 11
1034.37853361958
 21
561.2272633243723
 31
0.0
  0
LINE
  5
3FC
330
1F
100
AcDbEntity
  8
图层2
100
AcDbLine
 10
1032.12853361958
 20
562.1510419927507
 30
0.0
 11
1032.12853361958
 21
561.2850136271794
 31
0.0
  0
LINE
  5
3FD
330
1F
100
AcDbEntity
  8
图层2
100
AcDbLine
 10
1034.62853361958
 20
562.1510419927507
 30
0.0
 11
1034.62853361958
 21
561.2850136271794
 31
0.0
  0
LINE
  5
3FE
330
1F
100
AcDbEntity
  8
图层2
100
AcDbLine
 10
1032.75353361958
 20
562.1510419927507
 30
0.0
 11
1032.75353361958
 21
563.1305050506238
 31
0.0
  0
LINE
  5
3FF
330
1F
100
AcDbEntity
  8
图层2
100
AcDbLine
 10
1032.75353361958
 20
563.1305050506238
 30
0.0
 11
1034.00353361958
 21
563.1305050506238
 31
0.0
  0
LINE
  5
400
330
1F
100
AcDbEntity
  8
图层2
100
AcDbLine
 10
1034.00353361958
 20
562.1510419927507
 30
0.0
 11
1034.00353361958
 21
563.1305050506238
 31
0.0
  0
LINE
  5
401
330
1F
100
AcDbEntity
  8
图层2
100
AcDbLine
 10
1033.37853361958
 20
563.1305050506238
 30
0.0
 11
1033.37853361958
 21
562.1510419927507
 31
0.0
  0
LINE
  5
402
330
1F
100
AcDbEntity
  8
图层2
100
AcDbLine
 10
870.9285336195801
 20
511.74104644882
 30
0.0
 11
865.92853361958
 21
511.74104644882
 31
0.0
  0
LINE
  5
403
330
1F
100
AcDbEntity
  8
图层2
100
AcDbLine
 10
870.9285336195801
 20
511.74104644882
 30
0.0
 11
870.42853361958
 21
511.24104644882
 31
0.0
  0
LINE
  5
404
330
1F
100
AcDbEntity
  8
0
100
AcDbLine
 10
872.4285336195801
 20
521.89104644882
 30
0.0
 11
865.3285336195802
 21
521.89104644882
 31
0.0
  0
LINE
  5
405
330
1F
100
AcDbEntity
  8
0
100
AcDbLine
 10
860.67853361958
 20
523.24104644882
 30
0.0
 11
877.0785336195801
 21
523.24104644882
 31
0.0
  0
LINE
  5
406
330
1F
100
AcDbEntity
  8
0
100
AcDbLine
 10
878.3285336195801
 20
525.24104644882
 30
0.0
 11
859.4285336195801
 21
525.24104644882
 31
0.0
  0
LINE
  5
407
330
1F
100
AcDbEntity
  8
图层1
100
AcDbLine
 10
874.8785336195801
 20
519.2707974316176
 30
0.0
 11
874.8785336195801
 21
528.7377689556467
 31
0.0
  0
LINE
  5
408
330
1F
100
AcDbEntity
  8
图层2
100
AcDbLine
 10
870.9285336195801
 20
511.24104644882
 30
0.0
 11
870.9285336195801
 21
521.74104644882
 31
0.0
  0
LINE
  5
409
330
1F
100
AcDbEntity
  8
图层2
100
AcDbLine
 10
876.9285336195801
 20
524.24104644882
 30
0.0
 11
872.8285336195801
 21
524.24104644882
 31
0.0
  0
ARC
  5
40A
330
1F
100
AcDbEntity
  8
0
100
AcDbCircle
 10
877.0785336195801
 20
524.4910464488198
 30
0.0
 40
1.25
100
AcDbArc
 50
270.0
 51
0.0
  0
LINE
  5
40B
330
1F
100
AcDbEntity
  8
0
100
AcDbLine
 10
878.3285336195801
 20
524.49104644882
 30
0.0
 11
878.3285336195801
 21
525.24104644882
 31
0.0
  0
LINE
  5
40C
330
1F
100
AcDbEntity
  8
图层2
100
AcDbLine
 10
875.92853361958
 20
525.24104644882
 30
0.0
 11
875.92853361958
 21
524.24104644882
 31
0.0
  0
LINE
  5
40D
330
1F
100
AcDbEntity
  8
图层2
100
AcDbLine
 10
876.9285336195801
 20
524.24104644882
 30
0.0
 11
876.9285336195801
 21
523.24104644882
 31
0.0
  0
LINE
  5
40E
330
1F
100
AcDbEntity
  8
图层2
100
AcDbLine
 10
873.8285336195801
 20
524.24104644882
 30
0.0
 11
873.8285336195801
 21
525.24104644882
 31
0.0
  0
LINE
  5
40F
330
1F
100
AcDbEntity
  8
图层2
100
AcDbLine
 10
872.8285336195801
 20
523.24104644882
 30
0.0
 11
872.8285336195801
 21
524.24104644882
 31
0.0
  0
LINE
  5
410
330
1F
100
AcDbEntity
  8
0
100
AcDbLine
 10
872.4285336195801
 20
523.24104644882
 30
0.0
 11
872.4285336195801
 21
521.89104644882
 31
0.0
  0
LINE
  5
411
330
1F
100
AcDbEntity
  8
图层1
100
AcDbLine
 10
862.8785336195802
 20
518.2742738823062
 30
0.0
 11
862.8785336195802
 21
528.7377689556467
 31
0.0
  0
LINE
  5
412
330
1F
100
AcDbEntity
  8
0
100
AcDbLine
 10
868.4160336195802
 20
521.89104644882
 30
0.0
 11
868.4160336195802
 21
517.74104644882
 31
0.0
  0
LINE
  5
413
330
1F
100
AcDbEntity
  8
0
100
AcDbLine
 10
869.3410336195801
 20
521.89104644882
 30
0.0
 11
869.3410336195801
 21
517.74104644882
 31
0.0
  0
LINE
  5
414
102
{ACAD_REACTORS
330
890
102
}
330
1F
100
AcDbEntity
  8
图层1
100
AcDbLine
 10
868.8785336195801
 20
509.3882438463057
 30
0.0
 11
868.8785336195801
 21
529.0743642822015
 31
0.0
  0
LINE
  5
415
330
1F
100
AcDbEntity
  8
图层2
100
AcDbLine
 10
865.92853361958
 20
521.74104644882
 30
0.0
 11
865.92853361958
 21
511.74104644882
 31
0.0
  0
LINE
  5
416
330
1F
100
AcDbEntity
  8
图层2
100
AcDbLine
 10
864.92853361958
 20
524.24104644882
 30
0.0
 11
860.8285336195802
 21
524.24104644882
 31
0.0
  0
LINE
  5
417
330
1F
100
AcDbEntity
  8
图层2
100
AcDbLine
 10
864.92853361958
 20
524.24104644882
 30
0.0
 11
864.92853361958
 21
523.24104644882
 31
0.0
  0
LINE
  5
418
330
1F
100
AcDbEntity
  8
0
100
AcDbLine
 10
865.3285336195802
 20
521.89104644882
 30
0.0
 11
865.3285336195802
 21
523.24104644882
 31
0.0
  0
LINE
  5
419
330
1F
100
AcDbEntity
  8
图层2
100
AcDbLine
 10
863.9285336195801
 20
525.24104644882
 30
0.0
 11
863.9285336195801
 21
524.24104644882
 31
0.0
  0
ARC
  5
41A
330
1F
100
AcDbEntity
  8
0
100
AcDbCircle
 10
860.67853361958
 20
524.49104644882
 30
0.0
 40
1.25
100
AcDbArc
 50
180.0
 51
270.0
  0
LINE
  5
41B
330
1F
100
AcDbEntity
  8
图层2
100
AcDbLine
 10
861.8285336195802
 20
524.24104644882
 30
0.0
 11
861.8285336195802
 21
525.24104644882
 31
0.0
  0
LINE
  5
41C
330
1F
100
AcDbEntity
  8
图层2
100
AcDbLine
 10
860.8285336195802
 20
523.24104644882
 30
0.0
 11
860.8285336195802
 21
524.24104644882
 31
0.0
  0
LINE
  5
41D
330
1F
100
AcDbEntity
  8
0
100
AcDbLine
 10
859.4285336195801
 20
525.24104644882
 30
0.0
 11
859.4285336195801
 21
524.49104644882
 31
0.0
  0
LINE
  5
41E
330
1F
100
AcDbEntity
  8
图层2
100
AcDbLine
 10
866.4285336195801
 20
511.24104644882
 30
0.0
 11
870.42853361958
 21
511.24104644882
 31
0.0
  0
LINE
  5
41F
330
1F
100
AcDbEntity
  8
0
100
AcDbLine
 10
869.3410336195801
 20
517.99104644882
 30
0.0
 11
868.4160336195802
 21
517.9910464488199
 31
0.0
  0
LINE
  5
420
330
1F
100
AcDbEntity
  8
0
100
AcDbLine
 10
869.3410336195801
 20
517.74104644882
 30
0.0
 11
868.4160336195802
 21
517.7410464488199
 31
0.0
  0
LINE
  5
421
330
1F
100
AcDbEntity
  8
图层1
100
AcDbLine
 10
870.545064987705
 20
513.8410464488199
 30
0.0
 11
867.2064731645113
 21
513.8410464488199
 31
0.0
  0
LINE
  5
422
330
1F
100
AcDbEntity
  8
图层2
100
AcDbLine
 10
866.4285336195801
 20
511.24104644882
 30
0.0
 11
865.92853361958
 21
511.74104644882
 31
0.0
  0
LINE
  5
423
330
1F
100
AcDbEntity
  8
0
100
AcDbLine
 10
858.8785336195801
 20
525.24104644882
 30
0.0
 11
878.87853361958
 21
525.24104644882
 31
0.0
  0
LINE
  5
424
330
1F
100
AcDbEntity
  8
0
100
AcDbLine
 10
878.87853361958
 20
525.24104644882
 30
0.0
 11
878.87853361958
 21
522.74104644882
 31
0.0
  0
LINE
  5
425
330
1F
100
AcDbEntity
  8
0
100
AcDbLine
 10
877.8785336195801
 20
521.74104644882
 30
0.0
 11
870.9285336195801
 21
521.74104644882
 31
0.0
  0
LINE
  5
426
102
{ACAD_REACTORS
330
8CC
102
}
330
1F
100
AcDbEntity
  8
0
100
AcDbLine
 10
858.8785336195801
 20
525.24104644882
 30
0.0
 11
858.8785336195801
 21
522.74104644882
 31
0.0
  0
LINE
  5
427
102
{ACAD_REACTORS
330
524
102
}
330
1F
100
AcDbEntity
  8
0
100
AcDbLine
 10
865.92853361958
 20
521.74104644882
 30
0.0
 11
859.8785336195801
 21
521.74104644882
 31
0.0
  0
LINE
  5
428
330
1F
100
AcDbEntity
  8
0
100
AcDbLine
 10
859.3785336195802
 20
525.24104644882
 30
0.0
 11
859.3785336195802
 21
522.74104644882
 31
0.0
  0
LINE
  5
429
330
1F
100
AcDbEntity
  8
0
100
AcDbLine
 10
865.3285336195802
 20
522.24104644882
 30
0.0
 11
859.8785336195801
 21
522.24104644882
 31
0.0
  0
LINE
  5
42A
330
1F
100
AcDbEntity
  8
0
100
AcDbLine
 10
877.8785336195801
 20
522.24104644882
 30
0.0
 11
872.4285336195801
 21
522.24104644882
 31
0.0
  0
LINE
  5
42B
330
1F
100
AcDbEntity
  8
0
100
AcDbLine
 10
878.3785336195801
 20
525.24104644882
 30
0.0
 11
878.3785336195801
 21
522.74104644882
 31
0.0
  0
ARC
  5
42C
330
1F
100
AcDbEntity
  8
0
100
AcDbCircle
 10
859.8785336195801
 20
522.74104644882
 30
0.0
 40
0.5
100
AcDbArc
 50
180.0
 51
270.0
  0
ARC
  5
42D
330
1F
100
AcDbEntity
  8
0
100
AcDbCircle
 10
877.8785336195801
 20
522.74104644882
 30
0.0
 40
0.5
100
AcDbArc
 50
270.0
 51
0.0
  0
ARC
  5
42E
330
1F
100
AcDbEntity
  8
0
100
AcDbCircle
 10
859.8785336195801
 20
522.74104644882
 30
0.0
 40
1.0
100
AcDbArc
 50
180.0
 51
270.0
  0
ARC
  5
42F
330
1F
100
AcDbEntity
  8
0
100
AcDbCircle
 10
877.8785336195801
 20
522.74104644882
 30
0.0
 40
1.0
100
AcDbArc
 50
270.0
 51
0.0
  0
LINE
  5
430
330
1F
100
AcDbEntity
  8
0
100
AcDbLine
 10
865.22853361958
 20
521.74104644882
 30
0.0
 11
865.22853361958
 21
522.24104644882
 31
0.0
  0
LINE
  5
431
330
1F
100
AcDbEntity
  8
0
100
AcDbLine
 10
872.5285336195801
 20
521.74104644882
 30
0.0
 11
872.5285336195801
 21
522.24104644882
 31
0.0
  0
HATCH
  5
432
330
1F
100
AcDbEntity
  8
图层7
100
AcDbHatch
 10
0.0
 20
0.0
 30
0.0
210
0.0
220
0.0
230
1.0
  2
ANSI31
 70
     0
 71
     0
 91
        4
 92
        7
 72
     1
 73
     1
 93
        8
 10
859.3785336195802
 20
525.24104644882
 42
0.0
 10
858.8785336195801
 20
525.24104644882
 42
0.0
 10
858.8785336195801
 20
522.74104644882
 42
0.4142135623730962
 10
859.8785336195801
 20
521.74104644882
 42
0.0
 10
862.8785336195802
 20
521.74104644882
 42
0.0
 10
862.8785336195802
 20
522.24104644882
 42
0.0
 10
859.8785336195801
 20
522.24104644882
 42
-0.4142135623730972
 10
859.3785336195802
 20
522.74104644882
 42
0.0
 97
        0
 92
        7
 72
     0
 73
     1
 93
        4
 10
865.22853361958
 20
522.24104644882
 10
862.8785336195802
 20
522.24104644882
 10
862.8785336195802
 20
521.74104644882
 10
865.22853361958
 20
521.74104644882
 97
        0
 92
        7
 72
     0
 73
     1
 93
        4
 10
874.8785336195801
 20
522.24104644882
 10
872.5285336195801
 20
522.24104644882
 10
872.5285336195801
 20
521.74104644882
 10
874.8785336195801
 20
521.74104644882
 97
        0
 92
        7
 72
     1
 73
     1
 93
        8
 10
878.87853361958
 20
522.74104644882
 42
0.0
 10
878.87853361958
 20
525.24104644882
 42
0.0
 10
878.3785336195801
 20
525.24104644882
 42
0.0
 10
878.3785336195801
 20
522.74104644882
 42
-0.4142135623730951
 10
877.8785336195801
 20
522.24104644882
 42
0.0
 10
874.8785336195801
 20
522.24104644882
 42
0.0
 10
874.8785336195801
 20
521.74104644882
 42
0.0
 10
877.8785336195801
 20
521.74104644882
 42
0.4142135623730951
 97
        0
 75
     0
 76
     1
 52
0.0
 41
4.0
 77
     0
 78
     1
 53
45.0
 43
839.362995273799
 44
437.8634090232635
 45
-0.3535533905932737
 46
0.3535533905932738
 79
     0
 47
0.073046293374565
 98
        4
 10
859.102154534432
 20
523.4096034621315
 10
863.7462583877766
 20
522.0217239954044
 10
873.8755235350126
 20
521.9121545046309
 10
875.8867489958189
 20
521.9486776682221
  0
LINE
  5
433
330
1F
100
AcDbEntity
  8
0
100
AcDbLine
 10
877.8785336195801
 20
521.74104644882
 30
0.0
 11
916.3785327746918
 21
521.74104644882
 31
0.0
  0
LINE
  5
434
330
1F
100
AcDbEntity
  8
图层2
100
AcDbLine
 10
866.37853361958
 20
510.24104644882
 30
0.0
 11
869.9285336195801
 21
510.24104644882
 31
0.0
  0
LINE
  5
435
102
{ACAD_REACTORS
330
524
102
}
330
1F
100
AcDbEntity
  8
0
100
AcDbLine
 10
863.8785336195802
 20
521.74104644882
 30
0.0
 11
863.8785336195802
 21
471.74104644882
 31
0.0
  0
LINE
  5
436
330
1F
100
AcDbEntity
  8
图层2
100
AcDbLine
 10
873.8785336195801
 20
521.74104644882
 30
0.0
 11
873.8785336195801
 21
471.74104644882
 31
0.0
  0
LINE
  5
437
102
{ACAD_REACTORS
330
524
102
}
330
1F
100
AcDbEntity
  8
0
100
AcDbLine
 10
865.8785336195801
 20
521.74104644882
 30
0.0
 11
865.8785336195801
 21
471.74104644882
 31
0.0
  0
LINE
  5
438
330
1F
100
AcDbEntity
  8
0
100
AcDbLine
 10
870.9410336195801
 20
565.1262428099387
 30
0.0
 11
870.9410336195801
 21
564.7762428099387
 31
0.0
  0
ARC
  5
439
330
1F
100
AcDbEntity
  8
0
100
AcDbCircle
 10
870.7910336195801
 20
564.2762428099387
 30
0.0
 40
0.15
100
AcDbArc
 50
270.0
 51
0.0
  0
LINE
  5
43A
330
1F
100
AcDbEntity
  8
0
100
AcDbLine
 10
871.8785336195802
 20
568.1262428099386
 30
0.0
 11
869.3410336195801
 21
568.1262428099386
 31
0.0
  0
ARC
  5
43B
330
1F
100
AcDbEntity
  8
0
100
AcDbCircle
 10
870.7910336195801
 20
567.3762428099387
 30
0.0
 40
0.15
100
AcDbArc
 50
0.0
 51
90.0
  0
LINE
  5
43C
330
1F
100
AcDbEntity
  8
0
100
AcDbLine
 10
870.9410336195801
 20
567.3762428099387
 30
0.0
 11
870.9410336195801
 21
564.0262428099386
 31
0.0
  0
LINE
  5
43D
330
1F
100
AcDbEntity
  8
0
100
AcDbLine
 10
865.9410336195801
 20
564.6262428099387
 30
0.0
 11
865.9410336195801
 21
567.3762428099386
 31
0.0
  0
ARC
  5
43E
330
1F
100
AcDbEntity
  8
0
100
AcDbCircle
 10
866.0910336195801
 20
567.3762428099386
 30
0.0
 40
0.15
100
AcDbArc
 50
90.0
 51
180.0
  0
ARC
  5
43F
330
1F
100
AcDbEntity
  8
0
100
AcDbCircle
 10
866.0910336195801
 20
564.2762428099387
 30
0.0
 40
0.15
100
AcDbArc
 50
180.0
 51
270.0
  0
LINE
  5
440
330
1F
100
AcDbEntity
  8
0
100
AcDbLine
 10
865.9410336195801
 20
564.6262428099387
 30
0.0
 11
865.9410336195801
 21
564.2762428099387
 31
0.0
  0
ARC
  5
441
330
1F
100
AcDbEntity
  8
图层2
100
AcDbCircle
 10
869.9285336195801
 20
511.24104644882
 30
0.0
 40
1.0
100
AcDbArc
 50
270.0
 51
0.0
  0
LINE
  5
442
330
1F
100
AcDbEntity
  8
图层2
100
AcDbLine
 10
866.37853361958
 20
510.24104644882
 30
0.0
 11
866.37853361958
 21
475.74104644882
 31
0.0
  0
LINE
  5
443
102
{ACAD_REACTORS
330
524
102
}
330
1F
100
AcDbEntity
  8
0
100
AcDbLine
 10
863.8785336195802
 20
471.74104644882
 30
0.0
 11
916.3785327746918
 21
471.74104644882
 31
0.0
  0
LINE
  5
444
330
1F
100
AcDbEntity
  8
0
100
AcDbLine
 10
865.8785336195801
 20
475.74104644882
 30
0.0
 11
916.3785327746918
 21
475.74104644882
 31
0.0
  0
LINE
  5
445
330
1F
100
AcDbEntity
  8
0
100
AcDbLine
 10
1038.37853361958
 20
521.74104644882
 30
0.0
 11
1038.37853361958
 21
471.74104644882
 31
0.0
  0
LINE
  5
446
330
1F
100
AcDbEntity
  8
0
100
AcDbLine
 10
1036.37853361958
 20
521.74104644882
 30
0.0
 11
1036.37853361958
 21
471.74104644882
 31
0.0
  0
LINE
  5
447
330
1F
100
AcDbEntity
  8
图层2
100
AcDbLine
 10
1028.37853361958
 20
521.74104644882
 30
0.0
 11
1028.37853361958
 21
471.74104644882
 31
0.0
  0
LINE
  5
448
330
1F
100
AcDbEntity
  8
0
100
AcDbLine
 10
1038.37853361958
 20
471.74104644882
 30
0.0
 11
916.3785327746918
 21
471.74104644882
 31
0.0
  0
LINE
  5
449
330
1F
100
AcDbEntity
  8
0
100
AcDbLine
 10
935.8785336195801
 20
475.74104644882
 30
0.0
 11
916.3785327746918
 21
475.74104644882
 31
0.0
  0
LINE
  5
44A
330
1F
100
AcDbEntity
  8
0
100
AcDbLine
 10
930.8285336195801
 20
521.74104644882
 30
0.0
 11
916.3785327746918
 21
521.74104644882
 31
0.0
  0
HATCH
  5
44B
330
1F
100
AcDbEntity
  8
图层7
100
AcDbHatch
 10
0.0
 20
0.0
 30
0.0
210
0.0
220
0.0
230
1.0
  2
ANSI31
 70
     0
 71
     0
 91
        4
 92
        7
 72
     1
 73
     1
 93
        8
 10
1043.37853361958
 20
525.24104644882
 42
0.0
 10
1042.87853361958
 20
525.24104644882
 42
0.0
 10
1042.87853361958
 20
522.74104644882
 42
-0.4142135623730951
 10
1042.37853361958
 20
522.24104644882
 42
0.0
 10
1039.37853361958
 20
522.2410464488199
 42
0.0
 10
1039.37853361958
 20
521.74104644882
 42
0.0
 10
1042.37853361958
 20
521.7410464488199
 42
0.4142135623730951
 10
1043.37853361958
 20
522.7410464488199
 42
0.0
 97
        0
 92
        7
 72
     0
 73
     1
 93
        4
 10
1037.02853361958
 20
522.24104644882
 10
1037.02853361958
 20
521.74104644882
 10
1039.37853361958
 20
521.74104644882
 10
1039.37853361958
 20
522.2410464488199
 97
        0
 92
        7
 72
     0
 73
     1
 93
        4
 10
1029.72853361958
 20
521.74104644882
 10
1029.72853361958
 20
522.24104644882
 10
1027.37853361958
 20
522.24104644882
 10
1027.37853361958
 20
521.74104644882
 97
        0
 92
        7
 72
     1
 73
     1
 93
        8
 10
1027.37853361958
 20
521.74104644882
 42
0.0
 10
1027.37853361958
 20
522.2410464488199
 42
0.0
 10
1024.37853361958
 20
522.24104644882
 42
-0.4142135623730951
 10
1023.87853361958
 20
522.74104644882
 42
0.0
 10
1023.87853361958
 20
525.24104644882
 42
0.0
 10
1023.37853361958
 20
525.24104644882
 42
0.0
 10
1023.37853361958
 20
522.74104644882
 42
0.4142135623730951
 10
1024.37853361958
 20
521.74104644882
 42
0.0
 97
        0
 75
     0
 76
     1
 52
0.0
 41
4.0
 77
     0
 78
     1
 53
135.0
 43
1062.894071965361
 44
437.8634090232635
 45
0.3535533905932737
 46
0.3535533905932738
 79
     0
 47
0.073046293374565
 98
        4
 10
1043.154912704728
 20
523.4096034621315
 10
1038.510808851383
 20
522.0217239954044
 10
1028.381543704147
 20
521.9121545046309
 10
1026.370318243341
 20
521.9486776682221
  0
ARC
  5
44C
330
1F
100
AcDbEntity
  8
0
100
AcDbCircle
 10
1024.37853361958
 20
522.74104644882
 30
0.0
 40
1.0
100
AcDbArc
 50
180.0
 51
270.0
  0
LINE
  5
44D
330
1F
100
AcDbEntity
  8
0
100
AcDbLine
 10
1043.37853361958
 20
525.24104644882
 30
0.0
 11
1023.37853361958
 21
525.24104644882
 31
0.0
  0
LINE
  5
44E
330
1F
100
AcDbEntity
  8
0
100
AcDbLine
 10
1036.32853361958
 20
521.74104644882
 30
0.0
 11
1042.37853361958
 21
521.7410464488199
 31
0.0
  0
LINE
  5
44F
330
1F
100
AcDbEntity
  8
0
100
AcDbLine
 10
1036.92853361958
 20
522.24104644882
 30
0.0
 11
1042.37853361958
 21
522.24104644882
 31
0.0
  0
LINE
  5
450
330
1F
100
AcDbEntity
  8
图层2
100
AcDbLine
 10
1037.32853361958
 20
524.24104644882
 30
0.0
 11
1041.42853361958
 21
524.24104644882
 31
0.0
  0
LINE
  5
451
330
1F
100
AcDbEntity
  8
0
100
AcDbLine
 10
1023.92853361958
 20
525.24104644882
 30
0.0
 11
1042.82853361958
 21
525.24104644882
 31
0.0
  0
LINE
  5
452
330
1F
100
AcDbEntity
  8
0
100
AcDbLine
 10
1041.57853361958
 20
523.24104644882
 30
0.0
 11
1025.17853361958
 21
523.24104644882
 31
0.0
  0
LINE
  5
453
330
1F
100
AcDbEntity
  8
0
100
AcDbLine
 10
1042.87853361958
 20
525.24104644882
 30
0.0
 11
1042.87853361958
 21
522.74104644882
 31
0.0
  0
LINE
  5
454
102
{ACAD_REACTORS
330
8CC
102
}
330
1F
100
AcDbEntity
  8
0
100
AcDbLine
 10
1043.37853361958
 20
525.24104644882
 30
0.0
 11
1043.37853361958
 21
522.7410464488199
 31
0.0
  0
LINE
  5
455
330
1F
100
AcDbEntity
  8
图层2
100
AcDbLine
 10
1041.42853361958
 20
523.24104644882
 30
0.0
 11
1041.42853361958
 21
524.24104644882
 31
0.0
  0
ARC
  5
456
330
1F
100
AcDbEntity
  8
0
100
AcDbCircle
 10
1041.57853361958
 20
524.4910464488198
 30
0.0
 40
1.25
100
AcDbArc
 50
270.0
 51
0.0
  0
ARC
  5
457
330
1F
100
AcDbEntity
  8
0
100
AcDbCircle
 10
1042.37853361958
 20
522.7410464488199
 30
0.0
 40
1.0
100
AcDbArc
 50
270.0
 51
0.0
  0
ARC
  5
458
330
1F
100
AcDbEntity
  8
0
100
AcDbCircle
 10
1042.37853361958
 20
522.74104644882
 30
0.0
 40
0.5
100
AcDbArc
 50
270.0
 51
0.0
  0
LINE
  5
459
330
1F
100
AcDbEntity
  8
0
100
AcDbLine
 10
1042.82853361958
 20
525.24104644882
 30
0.0
 11
1042.82853361958
 21
524.49104644882
 31
0.0
  0
LINE
  5
45A
330
1F
100
AcDbEntity
  8
图层2
100
AcDbLine
 10
1040.42853361958
 20
524.24104644882
 30
0.0
 11
1040.42853361958
 21
525.24104644882
 31
0.0
  0
LINE
  5
45B
330
1F
100
AcDbEntity
  8
0
100
AcDbLine
 10
1023.87853361958
 20
525.24104644882
 30
0.0
 11
1023.87853361958
 21
522.74104644882
 31
0.0
  0
LINE
  5
45C
330
1F
100
AcDbEntity
  8
图层2
100
AcDbLine
 10
1037.32853361958
 20
524.24104644882
 30
0.0
 11
1037.32853361958
 21
523.24104644882
 31
0.0
  0
LINE
  5
45D
330
1F
100
AcDbEntity
  8
图层1
100
AcDbLine
 10
1039.37853361958
 20
518.2742738823062
 30
0.0
 11
1039.37853361958
 21
528.7377689556467
 31
0.0
  0
LINE
  5
45E
330
1F
100
AcDbEntity
  8
图层2
100
AcDbLine
 10
1029.42853361958
 20
523.24104644882
 30
0.0
 11
1029.42853361958
 21
524.24104644882
 31
0.0
  0
LINE
  5
45F
330
1F
100
AcDbEntity
  8
图层2
100
AcDbLine
 10
1025.32853361958
 20
524.24104644882
 30
0.0
 11
1025.32853361958
 21
523.24104644882
 31
0.0
  0
ARC
  5
460
330
1F
100
AcDbEntity
  8
0
100
AcDbCircle
 10
1025.17853361958
 20
524.4910464488198
 30
0.0
 40
1.25
100
AcDbArc
 50
180.0
 51
270.0
  0
LINE
  5
461
330
1F
100
AcDbEntity
  8
图层1
100
AcDbLine
 10
1027.37853361958
 20
519.2707974316176
 30
0.0
 11
1027.37853361958
 21
528.7377689556467
 31
0.0
  0
LINE
  5
462
330
1F
100
AcDbEntity
  8
0
100
AcDbLine
 10
1029.82853361958
 20
521.8910464488199
 30
0.0
 11
1036.92853361958
 21
521.8910464488199
 31
0.0
  0
LINE
  5
463
330
1F
100
AcDbEntity
  8
0
100
AcDbLine
 10
1032.91603361958
 20
521.8910464488199
 30
0.0
 11
1032.91603361958
 21
517.74104644882
 31
0.0
  0
LINE
  5
464
330
1F
100
AcDbEntity
  8
0
100
AcDbLine
 10
1033.84103361958
 20
521.8910464488199
 30
0.0
 11
1033.84103361958
 21
517.74104644882
 31
0.0
  0
LINE
  5
465
330
1F
100
AcDbEntity
  8
0
100
AcDbLine
 10
1032.91603361958
 20
517.74104644882
 30
0.0
 11
1033.84103361958
 21
517.7410464488199
 31
0.0
  0
LINE
  5
466
330
1F
100
AcDbEntity
  8
0
100
AcDbLine
 10
1037.02853361958
 20
521.74104644882
 30
0.0
 11
1037.02853361958
 21
522.24104644882
 31
0.0
  0
LINE
  5
467
330
1F
100
AcDbEntity
  8
0
100
AcDbLine
 10
1036.92853361958
 20
521.8910464488199
 30
0.0
 11
1036.92853361958
 21
523.24104644882
 31
0.0
  0
LINE
  5
468
330
1F
100
AcDbEntity
  8
0
100
AcDbLine
 10
1032.91603361958
 20
517.99104644882
 30
0.0
 11
1033.84103361958
 21
517.9910464488199
 31
0.0
  0
LINE
  5
469
330
1F
100
AcDbEntity
  8
0
100
AcDbLine
 10
1024.37853361958
 20
522.24104644882
 30
0.0
 11
1029.82853361958
 21
522.24104644882
 31
0.0
  0
LINE
  5
46A
330
1F
100
AcDbEntity
  8
0
100
AcDbLine
 10
1024.37853361958
 20
521.74104644882
 30
0.0
 11
1031.32853361958
 21
521.74104644882
 31
0.0
  0
LINE
  5
46B
330
1F
100
AcDbEntity
  8
0
100
AcDbLine
 10
1029.72853361958
 20
521.74104644882
 30
0.0
 11
1029.72853361958
 21
522.24104644882
 31
0.0
  0
LINE
  5
46C
330
1F
100
AcDbEntity
  8
0
100
AcDbLine
 10
1029.82853361958
 20
523.24104644882
 30
0.0
 11
1029.82853361958
 21
521.8910464488199
 31
0.0
  0
ARC
  5
46D
330
1F
100
AcDbEntity
  8
0
100
AcDbCircle
 10
1024.37853361958
 20
522.74104644882
 30
0.0
 40
0.5
100
AcDbArc
 50
180.0
 51
270.0
  0
LINE
  5
46E
330
1F
100
AcDbEntity
  8
图层2
100
AcDbLine
 10
1038.32853361958
 20
525.24104644882
 30
0.0
 11
1038.32853361958
 21
524.24104644882
 31
0.0
  0
LINE
  5
46F
330
1F
100
AcDbEntity
  8
图层2
100
AcDbLine
 10
1025.32853361958
 20
524.24104644882
 30
0.0
 11
1029.42853361958
 21
524.24104644882
 31
0.0
  0
LINE
  5
470
330
1F
100
AcDbEntity
  8
图层2
100
AcDbLine
 10
1028.42853361958
 20
524.24104644882
 30
0.0
 11
1028.42853361958
 21
525.24104644882
 31
0.0
  0
LINE
  5
471
330
1F
100
AcDbEntity
  8
图层2
100
AcDbLine
 10
1026.32853361958
 20
525.24104644882
 30
0.0
 11
1026.32853361958
 21
524.24104644882
 31
0.0
  0
LINE
  5
472
330
1F
100
AcDbEntity
  8
0
100
AcDbLine
 10
1023.92853361958
 20
524.49104644882
 30
0.0
 11
1023.92853361958
 21
525.24104644882
 31
0.0
  0
LINE
  5
473
330
1F
100
AcDbEntity
  8
0
100
AcDbLine
 10
1023.37853361958
 20
525.24104644882
 30
0.0
 11
1023.37853361958
 21
522.74104644882
 31
0.0
  0
LINE
  5
474
102
{ACAD_REACTORS
330
890
102
}
330
1F
100
AcDbEntity
  8
图层1
100
AcDbLine
 10
1033.37853361958
 20
527.7815802429479
 30
0.0
 11
1033.37853361958
 21
468.6501613324821
 31
0.0
  0
LINE
  5
475
330
1F
100
AcDbEntity
  8
图层1
100
AcDbLine
 10
868.8785336195801
 20
527.3997867650198
 30
0.0
 11
868.8785336195801
 21
469.2597763590917
 31
0.0
  0
LINE
  5
476
330
1F
100
AcDbEntity
  8
图层1
100
AcDbLine
 10
951.12853361958
 20
527.3997867650198
 30
0.0
 11
951.12853361958
 21
469.2597763590917
 31
0.0
  0
LINE
  5
477
330
1F
100
AcDbEntity
  8
图层1
100
AcDbLine
 10
1033.37853361958
 20
527.3997867650198
 30
0.0
 11
1033.37853361958
 21
469.2597763590917
 31
0.0
  0
LINE
  5
478
330
1F
100
AcDbEntity
  8
图层1
100
AcDbLine
 10
902.8785336195801
 20
527.3997867650198
 30
0.0
 11
902.8785336195801
 21
469.2597763590917
 31
0.0
  0
LINE
  5
479
330
1F
100
AcDbEntity
  8
图层1
100
AcDbLine
 10
1060.62953569385
 20
566.1262428099385
 30
0.0
 11
1117.178330517968
 21
566.1262428099385
 31
0.0
  0
LINE
  5
47A
330
1F
100
AcDbEntity
  8
0
100
AcDbLine
 10
1064.237821995318
 20
566.1262428099385
 30
0.0
 11
1064.237821995318
 21
574.3262428099386
 31
0.0
  0
LINE
  5
47B
330
1F
100
AcDbEntity
  8
0
100
AcDbLine
 10
1062.237821995317
 20
575.5762428099386
 30
0.0
 11
1062.237821995317
 21
556.6762428099386
 31
0.0
  0
LINE
  5
47C
330
1F
100
AcDbEntity
  8
图层2
100
AcDbLine
 10
1063.237821995318
 20
574.1762428099386
 30
0.0
 11
1063.237821995318
 21
570.0762428099387
 31
0.0
  0
ARC
  5
47D
330
1F
100
AcDbEntity
  8
0
100
AcDbCircle
 10
1062.987821995317
 20
574.3262428099386
 30
0.0
 40
1.25
100
AcDbArc
 50
0.0
 51
90.0
  0
LINE
  5
47E
330
1F
100
AcDbEntity
  8
0
100
AcDbLine
 10
1062.987821995317
 20
575.5762428099386
 30
0.0
 11
1062.237821995317
 21
575.5762428099386
 31
0.0
  0
LINE
  5
47F
330
1F
100
AcDbEntity
  8
图层2
100
AcDbLine
 10
1062.237821995317
 20
573.1762428099386
 30
0.0
 11
1063.237821995318
 21
573.1762428099386
 31
0.0
  0
LINE
  5
480
330
1F
100
AcDbEntity
  8
图层2
100
AcDbLine
 10
1063.237821995318
 20
574.1762428099386
 30
0.0
 11
1064.237821995318
 21
574.1762428099386
 31
0.0
  0
HATCH
  5
481
330
1F
100
AcDbEntity
  8
图层7
100
AcDbHatch
 10
0.0
 20
0.0
 30
0.0
210
0.0
220
0.0
230
1.0
  2
LINE
 70
     0
 71
     0
 91
        2
 92
        7
 72
     1
 73
     1
 93
       19
 10
1072.512821995318
 20
564.1262428099387
 42
0.0
 10
1073.637821995317
 20
565.2512428099385
 42
0.0
 10
1074.762821995317
 20
564.1262428099386
 42
0.0
 10
1075.737821995318
 20
564.1262428099386
 42
0.0
 10
1076.237821995317
 20
564.6262428099386
 42
0.0
 10
1076.237821995317
 20
566.1262428099385
 42
0.0
 10
1068.237821995317
 20
566.1262428099385
 42
-0.3786699902072269
 10
1067.360372245953
 20
565.133780500292
 42
0.0
 10
1062.237821995317
 20
564.5012428099386
 42
0.0
 10
1062.237821995317
 20
561.1762428099386
 42
0.0
 10
1063.237821995318
 20
561.1762428099386
 42
0.0
 10
1063.237821995318
 20
562.1762428099386
 42
0.0
 10
1064.237821995318
 20
562.1762428099386
 42
0.0
 10
1064.237821995318
 20
562.5762428099386
 42
0.0
 10
1065.587821995318
 20
562.5762428099386
 42
0.0
 10
1065.587821995317
 20
563.1762428099387
 42
0.0
 10
1069.487821995318
 20
563.1762428099387
 42
0.0
 10
1069.737821995317
 20
563.4262428099386
 42
0.0
 10
1069.737821995317
 20
564.1262428099386
 42
0.0
 97
        0
 92
        7
 72
     1
 73
     1
 93
        7
 10
1063.237821995318
 20
558.0762428099387
 42
0.0
 10
1063.237821995318
 20
559.0762428099386
 42
0.0
 10
1062.237821995317
 20
559.0762428099386
 42
0.0
 10
1062.237821995317
 20
556.6762428099386
 42
0.0
 10
1062.987821995317
 20
556.6762428099386
 42
0.4142135623730885
 10
1064.237821995318
 20
557.9262428099386
 42
0.0
 10
1064.237821995318
 20
558.0762428099387
 42
0.0
 97
        0
 75
     0
 76
     1
 52
300.0
 41
0.25
 77
     0
 78
     1
 53
300.0
 43
963.3232218487728
 44
639.0601996690101
 45
0.6874076642538983
 46
0.3968749999999997
 79
     0
 47
0.0977525274369758
 98
        2
 10
1071.403104757809
 20
564.8560578504724
 10
1063.045263636275
 20
557.5156660600376
  0
LINE
  5
482
330
1F
100
AcDbEntity
  8
0
100
AcDbLine
 10
1065.587821995318
 20
563.1762428099387
 30
0.0
 11
1069.487821995318
 21
563.1762428099387
 31
0.0
  0
LINE
  5
483
330
1F
100
AcDbEntity
  8
0
100
AcDbLine
 10
1065.587821995318
 20
569.0762428099386
 30
0.0
 11
1069.487821995318
 21
569.0762428099386
 31
0.0
  0
LINE
  5
484
330
1F
100
AcDbEntity
  8
0
100
AcDbLine
 10
1065.587821995318
 20
567.6262428099386
 30
0.0
 11
1075.737821995318
 21
567.6262428099386
 31
0.0
  0
LINE
  5
485
330
1F
100
AcDbEntity
  8
图层2
100
AcDbLine
 10
1062.237821995317
 20
567.7512428099386
 30
0.0
 11
1067.360372245953
 21
567.1187051195853
 31
0.0
  0
LINE
  5
486
330
1F
100
AcDbEntity
  8
0
100
AcDbLine
 10
1062.237821995317
 20
564.5012428099386
 30
0.0
 11
1067.360372245953
 21
565.133780500292
 31
0.0
  0
LINE
  5
487
330
1F
100
AcDbEntity
  8
图层1
100
AcDbLine
 10
1066.441862563058
 20
560.1262428099386
 30
0.0
 11
1058.741099488491
 21
560.1262428099386
 31
0.0
  0
LINE
  5
488
330
1F
100
AcDbEntity
  8
图层1
100
AcDbLine
 10
1077.929896418905
 20
566.1262428099385
 30
0.0
 11
1061.551560299877
 21
566.1262428099385
 31
0.0
  0
LINE
  5
489
330
1F
100
AcDbEntity
  8
0
100
AcDbLine
 10
1065.587821995318
 20
569.6762428099386
 30
0.0
 11
1065.587821995318
 21
566.1262428099385
 31
0.0
  0
LINE
  5
48A
330
1F
100
AcDbEntity
  8
图层1
100
AcDbLine
 10
1065.190690448932
 20
572.1262428099386
 30
0.0
 11
1058.741099488491
 21
572.1262428099386
 31
0.0
  0
LINE
  5
48B
330
1F
100
AcDbEntity
  8
图层2
100
AcDbLine
 10
1063.237821995318
 20
571.0762428099386
 30
0.0
 11
1062.237821995317
 21
571.0762428099386
 31
0.0
  0
LINE
  5
48C
330
1F
100
AcDbEntity
  8
图层2
100
AcDbLine
 10
1064.237821995318
 20
570.0762428099387
 30
0.0
 11
1063.237821995318
 21
570.0762428099387
 31
0.0
  0
LINE
  5
48D
330
1F
100
AcDbEntity
  8
0
100
AcDbLine
 10
1064.237821995318
 20
569.6762428099386
 30
0.0
 11
1065.587821995318
 21
569.6762428099386
 31
0.0
  0
LINE
  5
48E
330
1F
100
AcDbEntity
  8
0
100
AcDbLine
 10
1063.237821995318
 20
562.1762428099386
 30
0.0
 11
1063.237821995318
 21
558.0762428099387
 31
0.0
  0
LINE
  5
48F
330
1F
100
AcDbEntity
  8
0
100
AcDbLine
 10
1064.237821995318
 20
557.9262428099386
 30
0.0
 11
1064.237821995318
 21
562.5762428099386
 31
0.0
  0
LINE
  5
490
330
1F
100
AcDbEntity
  8
0
100
AcDbLine
 10
1065.587821995317
 20
563.1762428099387
 30
0.0
 11
1065.587821995318
 21
562.5762428099386
 31
0.0
  0
LINE
  5
491
330
1F
100
AcDbEntity
  8
0
100
AcDbLine
 10
1062.237821995317
 20
561.1762428099386
 30
0.0
 11
1063.237821995318
 21
561.1762428099386
 31
0.0
  0
LINE
  5
492
330
1F
100
AcDbEntity
  8
0
100
AcDbLine
 10
1063.237821995318
 20
562.1762428099386
 30
0.0
 11
1064.237821995318
 21
562.1762428099386
 31
0.0
  0
LINE
  5
493
330
1F
100
AcDbEntity
  8
0
100
AcDbLine
 10
1065.587821995318
 20
562.5762428099386
 30
0.0
 11
1064.237821995318
 21
562.5762428099386
 31
0.0
  0
LINE
  5
494
330
1F
100
AcDbEntity
  8
0
100
AcDbLine
 10
1063.237821995318
 20
559.0762428099386
 30
0.0
 11
1062.237821995317
 21
559.0762428099386
 31
0.0
  0
LINE
  5
495
330
1F
100
AcDbEntity
  8
0
100
AcDbLine
 10
1062.237821995317
 20
556.6762428099386
 30
0.0
 11
1062.987821995317
 21
556.6762428099386
 31
0.0
  0
LINE
  5
496
330
1F
100
AcDbEntity
  8
0
100
AcDbLine
 10
1064.237821995318
 20
558.0762428099387
 30
0.0
 11
1063.237821995318
 21
558.0762428099387
 31
0.0
  0
LINE
  5
497
330
1F
100
AcDbEntity
  8
0
100
AcDbLine
 10
1072.512821995317
 20
564.1262428099386
 30
0.0
 11
1073.637821995317
 21
565.2512428099385
 31
0.0
  0
LINE
  5
498
330
1F
100
AcDbEntity
  8
0
100
AcDbLine
 10
1074.762821995317
 20
564.1262428099386
 30
0.0
 11
1073.637821995317
 21
565.2512428099385
 31
0.0
  0
LINE
  5
499
330
1F
100
AcDbEntity
  8
图层1
100
AcDbLine
 10
1073.637821995317
 20
565.7858403593865
 30
0.0
 11
1073.637821995317
 21
563.3078128428947
 31
0.0
  0
LINE
  5
49A
330
1F
100
AcDbEntity
  8
0
100
AcDbLine
 10
1076.237821995317
 20
564.6262428099386
 30
0.0
 11
1076.237821995317
 21
567.1262428099386
 31
0.0
  0
LINE
  5
49B
330
1F
100
AcDbEntity
  8
图层2
100
AcDbLine
 10
1069.487821995317
 20
568.1262428099386
 30
0.0
 11
1069.487821995318
 21
567.6262428099386
 31
0.0
  0
LINE
  5
49C
330
1F
100
AcDbEntity
  8
0
100
AcDbLine
 10
1069.487821995318
 20
569.0762428099386
 30
0.0
 11
1069.737821995317
 21
568.8262428099386
 31
0.0
  0
ARC
  5
49D
330
1F
100
AcDbEntity
  8
图层2
100
AcDbCircle
 10
1067.237821995318
 20
566.1262428099385
 30
0.0
 40
1.0
100
AcDbArc
 50
0.0
 51
82.96069224917475
  0
LINE
  5
49E
330
1F
100
AcDbEntity
  8
图层1
100
AcDbLine
 10
1067.237821995318
 20
566.8851533410112
 30
0.0
 11
1067.237821995318
 21
565.3653356359642
 31
0.0
  0
LINE
  5
49F
330
1F
100
AcDbEntity
  8
图层2
100
AcDbLine
 10
1069.737821995317
 20
567.6262428099386
 30
0.0
 11
1069.737821995317
 21
568.1262428099386
 31
0.0
  0
ARC
  5
4A0
330
1F
100
AcDbEntity
  8
0
100
AcDbCircle
 10
1067.237821995318
 20
566.1262428099385
 30
0.0
 40
1.0
100
AcDbArc
 50
277.0393077508249
 51
0.0
  0
LINE
  5
4A1
330
1F
100
AcDbEntity
  8
0
100
AcDbLine
 10
1075.737821995318
 20
567.6262428099386
 30
0.0
 11
1075.737821995318
 21
566.1262428099385
 31
0.0
  0
LINE
  5
4A2
330
1F
100
AcDbEntity
  8
0
100
AcDbLine
 10
1075.737821995318
 20
567.6262428099386
 30
0.0
 11
1076.237821995317
 21
567.1262428099386
 31
0.0
  0
LINE
  5
4A3
330
1F
100
AcDbEntity
  8
0
100
AcDbLine
 10
1069.737821995317
 20
564.1262428099386
 30
0.0
 11
1072.512821995317
 21
564.1262428099386
 31
0.0
  0
LINE
  5
4A4
330
1F
100
AcDbEntity
  8
0
100
AcDbLine
 10
1069.737821995317
 20
563.4262428099386
 30
0.0
 11
1069.737821995317
 21
564.1262428099386
 31
0.0
  0
LINE
  5
4A5
330
1F
100
AcDbEntity
  8
0
100
AcDbLine
 10
1069.737821995317
 20
563.4262428099386
 30
0.0
 11
1069.487821995318
 21
563.1762428099387
 31
0.0
  0
LINE
  5
4A6
330
1F
100
AcDbEntity
  8
0
100
AcDbLine
 10
1076.237821995317
 20
564.6262428099386
 30
0.0
 11
1075.737821995318
 21
564.1262428099386
 31
0.0
  0
LINE
  5
4A7
330
1F
100
AcDbEntity
  8
0
100
AcDbLine
 10
1065.737821995317
 20
567.6262428099386
 30
0.0
 11
1111.587821995318
 21
567.6262428099386
 31
0.0
  0
LINE
  5
4A8
330
1F
100
AcDbEntity
  8
0
100
AcDbLine
 10
1065.587821995318
 20
566.1262428099385
 30
0.0
 11
1065.587821995318
 21
569.6762428099386
 31
0.0
  0
LINE
  5
4A9
330
1F
100
AcDbEntity
  8
0
100
AcDbLine
 10
1062.237821995317
 20
556.6762428099386
 30
0.0
 11
1062.237821995317
 21
575.5762428099386
 31
0.0
  0
LINE
  5
4AA
330
1F
100
AcDbEntity
  8
0
100
AcDbLine
 10
1065.737821995317
 20
569.0762428099386
 30
0.0
 11
1065.737821995317
 21
575.1262428099386
 31
0.0
  0
LINE
  5
4AB
330
1F
100
AcDbEntity
  8
0
100
AcDbLine
 10
1062.237821995317
 20
576.1262428099386
 30
0.0
 11
1062.237821995317
 21
556.1262428099386
 31
0.0
  0
HATCH
  5
4AC
330
1F
100
AcDbEntity
  8
图层7
100
AcDbHatch
 10
0.0
 20
0.0
 30
0.0
210
0.0
220
0.0
230
1.0
  2
ANSI31
 70
     0
 71
     0
 91
        4
 92
        7
 72
     1
 73
     1
 93
        8
 10
1062.237821995317
 20
576.1262428099386
 42
0.0
 10
1062.237821995317
 20
575.6262428099386
 42
0.0
 10
1064.737821995318
 20
575.6262428099386
 42
-0.4142135623730951
 10
1065.237821995318
 20
575.1262428099386
 42
0.0
 10
1065.237821995318
 20
572.1262428099386
 42
0.0
 10
1065.737821995317
 20
572.1262428099386
 42
0.0
 10
1065.737821995317
 20
575.1262428099386
 42
0.4142135623730951
 10
1064.737821995318
 20
576.1262428099386
 42
0.0
 97
        0
 92
        7
 72
     0
 73
     1
 93
        4
 10
1065.237821995318
 20
569.7762428099387
 10
1065.737821995317
 20
569.7762428099387
 10
1065.737821995317
 20
572.1262428099386
 10
1065.237821995318
 20
572.1262428099386
 97
        0
 92
        7
 72
     0
 73
     1
 93
        4
 10
1065.737821995317
 20
562.4762428099386
 10
1065.237821995318
 20
562.4762428099386
 10
1065.237821995318
 20
560.1262428099386
 10
1065.737821995317
 20
560.1262428099386
 97
        0
 92
        7
 72
     1
 73
     1
 93
        8
 10
1065.737821995317
 20
560.1262428099386
 42
0.0
 10
1065.237821995318
 20
560.1262428099386
 42
0.0
 10
1065.237821995318
 20
557.1262428099386
 42
-0.4142135623730951
 10
1064.737821995318
 20
556.6262428099386
 42
0.0
 10
1062.237821995317
 20
556.6262428099386
 42
0.0
 10
1062.237821995317
 20
556.1262428099386
 42
0.0
 10
1064.737821995318
 20
556.1262428099386
 42
0.4142135623730951
 10
1065.737821995317
 20
557.1262428099386
 42
0.0
 97
        0
 75
     0
 76
     1
 52
90.0
 41
4.0
 77
     0
 78
     1
 53
225.0
 43
1149.615459420874
 44
595.6417811557197
 45
-0.3535533905932738
 46
0.3535533905932737
 79
     0
 47
0.073046293374565
 98
        4
 10
1064.069264982006
 20
575.9026218950867
 10
1065.457144448733
 20
571.2585180417421
 10
1065.566713939507
 20
561.1292528945063
 10
1065.530190775915
 20
559.1180274336998
  0
LINE
  5
4AD
330
1F
100
AcDbEntity
  8
0
100
AcDbLine
 10
1065.737821995317
 20
557.1262428099386
 30
0.0
 11
1065.737821995317
 21
563.1762428099387
 31
0.0
  0
LINE
  5
4AE
330
1F
100
AcDbEntity
  8
0
100
AcDbLine
 10
1065.237821995318
 20
557.1262428099386
 30
0.0
 11
1065.237821995318
 21
562.5762428099386
 31
0.0
  0
LINE
  5
4AF
102
{ACAD_REACTORS
330
8ED
102
}
330
1F
100
AcDbEntity
  8
0
100
AcDbLine
 10
1062.237821995317
 20
556.1262428099386
 30
0.0
 11
1064.737821995318
 21
556.1262428099386
 31
0.0
  0
ARC
  5
4B0
330
1F
100
AcDbEntity
  8
0
100
AcDbCircle
 10
1062.987821995317
 20
557.9262428099386
 30
0.0
 40
1.25
100
AcDbArc
 50
270.0
 51
0.0
  0
LINE
  5
4B1
330
1F
100
AcDbEntity
  8
0
100
AcDbLine
 10
1062.237821995317
 20
556.6262428099386
 30
0.0
 11
1064.737821995318
 21
556.6262428099386
 31
0.0
  0
ARC
  5
4B2
330
1F
100
AcDbEntity
  8
0
100
AcDbCircle
 10
1064.737821995318
 20
557.1262428099386
 30
0.0
 40
0.5
100
AcDbArc
 50
270.0
 51
0.0
  0
ARC
  5
4B3
330
1F
100
AcDbEntity
  8
0
100
AcDbCircle
 10
1064.737821995318
 20
557.1262428099386
 30
0.0
 40
1.0
100
AcDbArc
 50
270.0
 51
0.0
  0
LINE
  5
4B4
330
1F
100
AcDbEntity
  8
0
100
AcDbLine
 10
1062.987821995317
 20
556.6762428099386
 30
0.0
 11
1062.237821995317
 21
556.6762428099386
 31
0.0
  0
LINE
  5
4B5
330
1F
100
AcDbEntity
  8
0
100
AcDbLine
 10
1064.237821995318
 20
562.5762428099386
 30
0.0
 11
1065.587821995318
 21
562.5762428099386
 31
0.0
  0
LINE
  5
4B6
330
1F
100
AcDbEntity
  8
0
100
AcDbLine
 10
1065.737821995317
 20
562.4762428099386
 30
0.0
 11
1065.237821995318
 21
562.4762428099386
 31
0.0
  0
ARC
  5
4B7
330
1F
100
AcDbEntity
  8
0
100
AcDbCircle
 10
1062.987821995317
 20
574.3262428099386
 30
0.0
 40
1.25
100
AcDbArc
 50
0.0
 51
90.0
  0
LINE
  5
4B8
330
1F
100
AcDbEntity
  8
0
100
AcDbLine
 10
1062.237821995317
 20
576.1262428099386
 30
0.0
 11
1064.737821995318
 21
576.1262428099386
 31
0.0
  0
LINE
  5
4B9
330
1F
100
AcDbEntity
  8
0
100
AcDbLine
 10
1062.237821995317
 20
575.6262428099386
 30
0.0
 11
1064.737821995318
 21
575.6262428099386
 31
0.0
  0
LINE
  5
4BA
330
1F
100
AcDbEntity
  8
0
100
AcDbLine
 10
1065.237821995318
 20
569.6762428099386
 30
0.0
 11
1065.237821995318
 21
575.1262428099386
 31
0.0
  0
LINE
  5
4BB
330
1F
100
AcDbEntity
  8
0
100
AcDbLine
 10
1065.587821995318
 20
569.6762428099386
 30
0.0
 11
1064.237821995318
 21
569.6762428099386
 31
0.0
  0
LINE
  5
4BC
330
1F
100
AcDbEntity
  8
0
100
AcDbLine
 10
1065.737821995317
 20
569.7762428099387
 30
0.0
 11
1065.237821995318
 21
569.7762428099387
 31
0.0
  0
ARC
  5
4BD
330
1F
100
AcDbEntity
  8
0
100
AcDbCircle
 10
1064.737821995318
 20
575.1262428099386
 30
0.0
 40
0.5
100
AcDbArc
 50
0.0
 51
90.0
  0
ARC
  5
4BE
330
1F
100
AcDbEntity
  8
0
100
AcDbCircle
 10
1064.737821995318
 20
575.1262428099386
 30
0.0
 40
1.0
100
AcDbArc
 50
0.0
 51
90.0
  0
LINE
  5
4BF
330
1F
100
AcDbEntity
  8
0
100
AcDbLine
 10
1062.237821995317
 20
575.5762428099386
 30
0.0
 11
1062.987821995317
 21
575.5762428099386
 31
0.0
  0
LINE
  5
4C0
330
1F
100
AcDbEntity
  8
图层1
100
AcDbLine
 10
1059.69728820119
 20
566.1262428099385
 30
0.0
 11
1068.769505850126
 21
566.1262428099385
 31
0.0
  0
LINE
  5
4C1
330
1F
100
AcDbEntity
  8
0
100
AcDbLine
 10
1065.737821995317
 20
570.6262428099385
 30
0.0
 11
1115.587821995318
 21
570.6262428099385
 31
0.0
  0
LINE
  5
4C2
330
1F
100
AcDbEntity
  8
0
100
AcDbLine
 10
1065.737821995317
 20
560.6262428099386
 30
0.0
 11
1115.587821995318
 21
560.6262428099387
 31
0.0
  0
LINE
  5
4C3
330
1F
100
AcDbEntity
  8
0
100
AcDbLine
 10
1111.587821995318
 20
564.1262428099386
 30
0.0
 11
1115.587821995318
 21
564.1262428099387
 31
0.0
  0
LINE
  5
4C4
330
1F
100
AcDbEntity
  8
0
100
AcDbLine
 10
1111.587821995318
 20
568.1262428099386
 30
0.0
 11
1111.587821995318
 21
564.1262428099387
 31
0.0
  0
LINE
  5
4C5
102
{ACAD_REACTORS
330
8ED
102
}
330
1F
100
AcDbEntity
  8
0
100
AcDbLine
 10
1115.587821995318
 20
570.6262428099385
 30
0.0
 11
1115.587821995318
 21
560.6262428099386
 31
0.0
  0
LINE
  5
4C6
330
1F
100
AcDbEntity
  8
0
100
AcDbLine
 10
1069.737821995317
 20
564.0262428099386
 30
0.0
 11
1072.387821995318
 21
564.0262428099386
 31
0.0
  0
LINE
  5
4C7
330
1F
100
AcDbEntity
  8
图层1
100
AcDbLine
 10
1073.637821995317
 20
563.3078128428947
 30
0.0
 11
1073.637821995317
 21
559.7045674367548
 31
0.0
  0
LINE
  5
4C8
330
1F
100
AcDbEntity
  8
图层1
100
AcDbLine
 10
1113.587821995318
 20
565.3690374994992
 30
0.0
 11
1113.587821995318
 21
558.1978286604438
 31
0.0
  0
LINE
  5
4C9
330
1F
100
AcDbEntity
  8
0
100
AcDbLine
 10
1077.237821995318
 20
564.6262428099386
 30
0.0
 11
1077.237821995318
 21
567.6262428099386
 31
0.0
  0
LINE
  5
4CA
330
1F
100
AcDbEntity
  8
0
100
AcDbLine
 10
1077.237821995318
 20
564.6262428099386
 30
0.0
 11
1077.237821995318
 21
564.3762428099385
 31
0.0
  0
LINE
  5
4CB
330
1F
100
AcDbEntity
  8
图层2
100
AcDbLine
 10
1113.587821995318
 20
563.1305050506239
 30
0.0
 11
1113.587821995318
 21
562.1510419927507
 31
0.0
  0
LINE
  5
4CC
330
1F
100
AcDbEntity
  8
图层2
100
AcDbLine
 10
1114.212821995318
 20
562.1510419927507
 30
0.0
 11
1114.212821995318
 21
563.1305050506239
 31
0.0
  0
LINE
  5
4CD
330
1F
100
AcDbEntity
  8
图层2
100
AcDbLine
 10
1112.962821995318
 20
562.1510419927507
 30
0.0
 11
1112.962821995318
 21
563.1305050506239
 31
0.0
  0
LINE
  5
4CE
330
1F
100
AcDbEntity
  8
图层2
100
AcDbLine
 10
1114.587821995318
 20
563.6510419927507
 30
0.0
 11
1114.587821995318
 21
562.1510419927507
 31
0.0
  0
LINE
  5
4CF
330
1F
100
AcDbEntity
  8
图层2
100
AcDbLine
 10
1112.587821995318
 20
563.6510419927507
 30
0.0
 11
1112.587821995318
 21
562.1510419927507
 31
0.0
  0
LINE
  5
4D0
330
1F
100
AcDbEntity
  8
0
100
AcDbLine
 10
1114.837821995318
 20
563.6510419927507
 30
0.0
 11
1114.837821995318
 21
562.1510419927507
 31
0.0
  0
LINE
  5
4D1
330
1F
100
AcDbEntity
  8
0
100
AcDbLine
 10
1112.337821995318
 20
563.6510419927507
 30
0.0
 11
1112.337821995318
 21
562.1510419927507
 31
0.0
  0
LINE
  5
4D2
330
1F
100
AcDbEntity
  8
0
100
AcDbLine
 10
1112.337821995318
 20
562.1510419927507
 30
0.0
 11
1114.837821995318
 21
562.1510419927507
 31
0.0
  0
LINE
  5
4D3
330
1F
100
AcDbEntity
  8
图层2
100
AcDbLine
 10
1112.337821995318
 20
562.1510419927507
 30
0.0
 11
1112.337821995318
 21
560.6262428099387
 31
0.0
  0
LINE
  5
4D4
330
1F
100
AcDbEntity
  8
0
100
AcDbLine
 10
1112.587821995318
 20
562.1510419927507
 30
0.0
 11
1112.587821995318
 21
560.6262428099387
 31
0.0
  0
LINE
  5
4D5
330
1F
100
AcDbEntity
  8
图层2
100
AcDbLine
 10
1114.837821995318
 20
562.1510419927507
 30
0.0
 11
1114.837821995318
 21
560.6262428099387
 31
0.0
  0
LINE
  5
4D6
330
1F
100
AcDbEntity
  8
0
100
AcDbLine
 10
1114.587821995318
 20
562.1510419927507
 30
0.0
 11
1114.587821995318
 21
560.6262428099387
 31
0.0
  0
LINE
  5
4D7
330
1F
100
AcDbEntity
  8
0
100
AcDbLine
 10
1112.337821995318
 20
563.6510419927507
 30
0.0
 11
1114.837821995318
 21
563.6510419927507
 31
0.0
  0
LINE
  5
4D8
330
1F
100
AcDbEntity
  8
图层2
100
AcDbLine
 10
1112.337821995318
 20
563.6510419927507
 30
0.0
 11
1112.337821995318
 21
564.0262428099386
 31
0.0
  0
LINE
  5
4D9
330
1F
100
AcDbEntity
  8
0
100
AcDbLine
 10
1113.587821995318
 20
564.1262428099387
 30
0.0
 11
1114.587821995318
 21
563.6510419927507
 31
0.0
  0
LINE
  5
4DA
330
1F
100
AcDbEntity
  8
图层2
100
AcDbLine
 10
1112.962821995318
 20
563.1305050506239
 30
0.0
 11
1114.212821995318
 21
563.1305050506239
 31
0.0
  0
LINE
  5
4DB
330
1F
100
AcDbEntity
  8
0
100
AcDbLine
 10
1112.587821995318
 20
563.6510419927507
 30
0.0
 11
1112.587821995318
 21
564.0262428099386
 31
0.0
  0
LINE
  5
4DC
330
1F
100
AcDbEntity
  8
0
100
AcDbLine
 10
1113.587821995318
 20
564.1262428099387
 30
0.0
 11
1112.587821995318
 21
563.6510419927507
 31
0.0
  0
LINE
  5
4DD
330
1F
100
AcDbEntity
  8
图层2
100
AcDbLine
 10
1114.837821995318
 20
563.6510419927507
 30
0.0
 11
1114.837821995318
 21
564.0262428099386
 31
0.0
  0
LINE
  5
4DE
330
1F
100
AcDbEntity
  8
0
100
AcDbLine
 10
1114.587821995318
 20
563.6510419927507
 30
0.0
 11
1114.587821995318
 21
564.0262428099386
 31
0.0
  0
LINE
  5
4DF
330
1F
100
AcDbEntity
  8
图层2
100
AcDbLine
 10
1073.012821995317
 20
563.3762428099386
 30
0.0
 11
1074.262821995317
 21
563.3762428099386
 31
0.0
  0
LINE
  5
4E0
330
1F
100
AcDbEntity
  8
0
100
AcDbLine
 10
1072.387821995318
 20
561.8762428099386
 30
0.0
 11
1074.887821995317
 21
561.8762428099386
 31
0.0
  0
LINE
  5
4E1
330
1F
100
AcDbEntity
  8
0
100
AcDbLine
 10
1072.387821995318
 20
564.0012428099386
 30
0.0
 11
1072.512821995317
 21
564.1262428099386
 31
0.0
  0
LINE
  5
4E2
330
1F
100
AcDbEntity
  8
图层2
100
AcDbLine
 10
1073.012821995317
 20
561.8762428099386
 30
0.0
 11
1073.012821995317
 21
563.3762428099386
 31
0.0
  0
LINE
  5
4E3
330
1F
100
AcDbEntity
  8
图层2
100
AcDbLine
 10
1072.637821995318
 20
564.1262428099386
 30
0.0
 11
1072.637821995317
 21
561.8762428099386
 31
0.0
  0
LINE
  5
4E4
330
1F
100
AcDbEntity
  8
0
100
AcDbLine
 10
1072.387821995318
 20
563.8762428099385
 30
0.0
 11
1072.387821995318
 21
561.8762428099386
 31
0.0
  0
LINE
  5
4E5
330
1F
100
AcDbEntity
  8
图层2
100
AcDbLine
 10
1072.387821995318
 20
561.8762428099386
 30
0.0
 11
1072.387821995318
 21
560.6262428099387
 31
0.0
  0
LINE
  5
4E6
330
1F
100
AcDbEntity
  8
0
100
AcDbLine
 10
1072.637821995317
 20
560.6262428099387
 30
0.0
 11
1072.637821995317
 21
561.8762428099386
 31
0.0
  0
LINE
  5
4E7
330
1F
100
AcDbEntity
  8
图层2
100
AcDbLine
 10
1072.387821995318
 20
564.0262428099386
 30
0.0
 11
1072.387821995318
 21
564.1262428099386
 31
0.0
  0
LINE
  5
4E8
330
1F
100
AcDbEntity
  8
图层2
100
AcDbLine
 10
1073.637821995317
 20
561.8762428099386
 30
0.0
 11
1073.637821995317
 21
563.3762428099386
 31
0.0
  0
LINE
  5
4E9
330
1F
100
AcDbEntity
  8
图层2
100
AcDbLine
 10
1074.262821995317
 20
563.3762428099386
 30
0.0
 11
1074.262821995317
 21
561.8762428099386
 31
0.0
  0
LINE
  5
4EA
330
1F
100
AcDbEntity
  8
图层2
100
AcDbLine
 10
1074.637821995317
 20
564.1262428099386
 30
0.0
 11
1074.637821995317
 21
561.8762428099386
 31
0.0
  0
LINE
  5
4EB
330
1F
100
AcDbEntity
  8
0
100
AcDbLine
 10
1074.887821995317
 20
564.0262428099386
 30
0.0
 11
1074.887821995317
 21
561.8762428099386
 31
0.0
  0
LINE
  5
4EC
330
1F
100
AcDbEntity
  8
图层2
100
AcDbLine
 10
1074.887821995317
 20
561.8762428099386
 30
0.0
 11
1074.887821995318
 21
560.6262428099387
 31
0.0
  0
LINE
  5
4ED
330
1F
100
AcDbEntity
  8
0
100
AcDbLine
 10
1074.637821995317
 20
560.6262428099387
 30
0.0
 11
1074.637821995317
 21
561.8762428099386
 31
0.0
  0
LINE
  5
4EE
330
1F
100
AcDbEntity
  8
0
100
AcDbLine
 10
1074.887821995317
 20
564.0012428099386
 30
0.0
 11
1074.762821995317
 21
564.1262428099386
 31
0.0
  0
LINE
  5
4EF
330
1F
100
AcDbEntity
  8
图层2
100
AcDbLine
 10
1074.887821995318
 20
564.0262428099386
 30
0.0
 11
1074.887821995317
 21
564.1262428099386
 31
0.0
  0
LINE
  5
4F0
330
1F
100
AcDbEntity
  8
0
100
AcDbLine
 10
1092.337821995318
 20
563.9010419927507
 30
0.0
 11
1092.337821995318
 21
562.4010419927507
 31
0.0
  0
LINE
  5
4F1
330
1F
100
AcDbEntity
  8
0
100
AcDbLine
 10
1094.837821995318
 20
563.9010419927507
 30
0.0
 11
1094.837821995318
 21
562.4010419927507
 31
0.0
  0
LINE
  5
4F2
330
1F
100
AcDbEntity
  8
图层2
100
AcDbLine
 10
1092.587821995318
 20
563.9010419927507
 30
0.0
 11
1092.587821995318
 21
562.4010419927507
 31
0.0
  0
LINE
  5
4F3
330
1F
100
AcDbEntity
  8
图层2
100
AcDbLine
 10
1094.587821995318
 20
563.9010419927507
 30
0.0
 11
1094.587821995318
 21
562.4010419927507
 31
0.0
  0
LINE
  5
4F4
330
1F
100
AcDbEntity
  8
图层2
100
AcDbLine
 10
1092.962821995318
 20
562.4010419927507
 30
0.0
 11
1092.962821995318
 21
563.3805050506238
 31
0.0
  0
LINE
  5
4F5
330
1F
100
AcDbEntity
  8
图层2
100
AcDbLine
 10
1094.212821995318
 20
562.4010419927507
 30
0.0
 11
1094.212821995318
 21
563.3805050506238
 31
0.0
  0
LINE
  5
4F6
330
1F
100
AcDbEntity
  8
图层2
100
AcDbLine
 10
1093.587821995318
 20
563.3805050506238
 30
0.0
 11
1093.587821995318
 21
562.4010419927507
 31
0.0
  0
LINE
  5
4F7
330
1F
100
AcDbEntity
  8
0
100
AcDbLine
 10
1092.337821995318
 20
562.4010419927507
 30
0.0
 11
1094.837821995318
 21
562.4010419927507
 31
0.0
  0
LINE
  5
4F8
330
1F
100
AcDbEntity
  8
图层2
100
AcDbLine
 10
1092.337821995318
 20
562.4010419927507
 30
0.0
 11
1092.337821995318
 21
560.6262428099386
 31
0.0
  0
LINE
  5
4F9
330
1F
100
AcDbEntity
  8
0
100
AcDbLine
 10
1092.587821995318
 20
562.4010419927507
 30
0.0
 11
1092.587821995318
 21
560.6262428099387
 31
0.0
  0
LINE
  5
4FA
330
1F
100
AcDbEntity
  8
图层2
100
AcDbLine
 10
1094.837821995318
 20
562.4010419927507
 30
0.0
 11
1094.837821995318
 21
560.6262428099386
 31
0.0
  0
LINE
  5
4FB
330
1F
100
AcDbEntity
  8
0
100
AcDbLine
 10
1094.587821995318
 20
562.4010419927507
 30
0.0
 11
1094.587821995318
 21
560.6262428099386
 31
0.0
  0
LINE
  5
4FC
330
1F
100
AcDbEntity
  8
0
100
AcDbLine
 10
1093.587821995318
 20
564.3762428099385
 30
0.0
 11
1094.587821995318
 21
563.9010419927507
 31
0.0
  0
LINE
  5
4FD
330
1F
100
AcDbEntity
  8
0
100
AcDbLine
 10
1092.337821995318
 20
563.9010419927507
 30
0.0
 11
1094.837821995318
 21
563.9010419927507
 31
0.0
  0
LINE
  5
4FE
330
1F
100
AcDbEntity
  8
0
100
AcDbLine
 10
1093.587821995318
 20
564.3762428099385
 30
0.0
 11
1092.587821995318
 21
563.9010419927507
 31
0.0
  0
LINE
  5
4FF
330
1F
100
AcDbEntity
  8
0
100
AcDbLine
 10
1092.587821995318
 20
563.9010419927507
 30
0.0
 11
1092.587821995318
 21
564.0262428099386
 31
0.0
  0
LINE
  5
500
330
1F
100
AcDbEntity
  8
图层2
100
AcDbLine
 10
1092.962821995318
 20
563.3805050506238
 30
0.0
 11
1094.212821995318
 21
563.3805050506238
 31
0.0
  0
LINE
  5
501
330
1F
100
AcDbEntity
  8
图层2
100
AcDbLine
 10
1092.337821995318
 20
563.9010419927507
 30
0.0
 11
1092.337821995318
 21
564.0262428099386
 31
0.0
  0
LINE
  5
502
330
1F
100
AcDbEntity
  8
0
100
AcDbLine
 10
1094.587821995318
 20
563.9010419927507
 30
0.0
 11
1094.587821995318
 21
564.0262428099386
 31
0.0
  0
LINE
  5
503
330
1F
100
AcDbEntity
  8
图层2
100
AcDbLine
 10
1094.837821995318
 20
563.9010419927507
 30
0.0
 11
1094.837821995318
 21
564.0262428099386
 31
0.0
  0
LINE
  5
504
330
1F
100
AcDbEntity
  8
0
100
AcDbLine
 10
1112.087821995318
 20
567.6262428099387
 30
0.0
 11
1112.087821995318
 21
564.6262428099386
 31
0.0
  0
LINE
  5
505
330
1F
100
AcDbEntity
  8
0
100
AcDbLine
 10
1115.087821995318
 20
567.6262428099386
 30
0.0
 11
1115.087821995318
 21
564.6262428099387
 31
0.0
  0
LINE
  5
506
330
1F
100
AcDbEntity
  8
0
100
AcDbLine
 10
1112.087821995318
 20
567.6262428099386
 30
0.0
 11
1115.087821995318
 21
567.6262428099387
 31
0.0
  0
LINE
  5
507
330
1F
100
AcDbEntity
  8
0
100
AcDbLine
 10
1112.087821995318
 20
564.6262428099386
 30
0.0
 11
1115.087821995318
 21
564.6262428099387
 31
0.0
  0
HATCH
  5
508
330
1F
100
AcDbEntity
  8
图层7
100
AcDbHatch
 10
0.0
 20
0.0
 30
0.0
210
0.0
220
0.0
230
1.0
  2
LINE
 70
     0
 71
     0
 91
        4
 92
        7
 72
     0
 73
     1
 93
        6
 10
1113.587821995318
 20
568.1262428099387
 10
1113.587821995318
 20
567.6262428099387
 10
1115.087821995318
 20
567.6262428099387
 10
1115.087821995318
 20
566.6262428099385
 10
1115.587821995318
 20
566.6262428099385
 10
1115.587821995318
 20
568.1262428099386
 97
        0
 92
        7
 72
     0
 73
     1
 93
        6
 10
1111.587821995318
 20
568.1262428099386
 10
1111.587821995318
 20
566.6262428099385
 10
1112.087821995318
 20
566.6262428099385
 10
1112.087821995318
 20
567.6262428099386
 10
1113.587821995318
 20
567.6262428099387
 10
1113.587821995318
 20
568.1262428099386
 97
        0
 92
        7
 72
     0
 73
     1
 93
        6
 10
1112.087821995318
 20
566.6262428099385
 10
1111.587821995318
 20
566.6262428099385
 10
1111.587821995318
 20
564.1262428099386
 10
1113.587821995318
 20
564.1262428099386
 10
1113.587821995318
 20
564.6262428099386
 10
1112.087821995318
 20
564.6262428099387
 97
        0
 92
        7
 72
     0
 73
     1
 93
        6
 10
1115.087821995318
 20
564.6262428099386
 10
1113.587821995318
 20
564.6262428099386
 10
1113.587821995318
 20
564.1262428099387
 10
1115.587821995318
 20
564.1262428099387
 10
1115.587821995318
 20
566.6262428099385
 10
1115.087821995318
 20
566.6262428099385
 97
        0
 75
     0
 76
     1
 52
45.0
 41
4.0
 77
     0
 78
     1
 53
45.0
 43
919.0253485677041
 44
453.9275012772018
 45
-0.3535533905932737
 46
0.3535533905932738
 79
     0
 47
0.0669812175281029
 98
        4
 10
1113.81666928733
 20
567.9035112940437
 10
1112.944850006242
 20
567.9704923512769
 10
1111.905373339348
 20
566.0280369650531
 10
1115.325586384509
 20
565.7936027583303
  0
LINE
  5
509
330
1F
100
AcDbEntity
  8
0
100
AcDbLine
 10
1074.887821995317
 20
564.0262428099386
 30
0.0
 11
1092.851291275377
 21
564.0262428099386
 31
0.0
  0
LINE
  5
50A
330
1F
100
AcDbEntity
  8
0
100
AcDbLine
 10
1072.387821995318
 20
564.0012428099386
 30
0.0
 11
1072.387821995318
 21
563.8762428099385
 31
0.0
  0
LINE
  5
50B
330
1F
100
AcDbEntity
  8
0
100
AcDbLine
 10
1074.887821995317
 20
564.0012428099386
 30
0.0
 11
1074.887821995317
 21
563.8762428099387
 31
0.0
  0
LINE
  5
51C
330
1F
100
AcDbEntity
  8
0
100
AcDbLine
 10
985.9379315788869
 20
568.1262428099386
 30
0.0
 11
1036.37853361958
 21
568.1262428099386
 31
0.0
  0
LINE
  5
51D
330
1F
100
AcDbEntity
  8
0
100
AcDbLine
 10
985.9379315788869
 20
568.1262428099386
 30
0.0
 11
1029.25353361958
 21
568.1262428099386
 31
0.0
  0
LINE
  5
51E
330
1F
100
AcDbEntity
  8
0
100
AcDbLine
 10
865.92853361958
 20
521.89104644882
 30
0.0
 11
865.92853361958
 21
521.74104644882
 31
0.0
  0
LINE
  5
51F
330
1F
100
AcDbEntity
  8
0
100
AcDbLine
 10
870.9285336195801
 20
521.89104644882
 30
0.0
 11
870.9285336195801
 21
521.74104644882
 31
0.0
  0
LINE
  5
520
330
1F
100
AcDbEntity
  8
0
100
AcDbLine
 10
1031.32853361958
 20
521.74104644882
 30
0.0
 11
1031.32853361958
 21
521.8910464488199
 31
0.0
  0
LINE
  5
521
330
1F
100
AcDbEntity
  8
0
100
AcDbLine
 10
1036.32853361958
 20
521.74104644882
 30
0.0
 11
1036.32853361958
 21
521.8910464488199
 31
0.0
  0
LINE
  5
522
330
1F
100
AcDbEntity
  8
0
100
AcDbLine
 10
1031.32853361958
 20
521.74104644882
 30
0.0
 11
1032.91603361958
 21
521.74104644882
 31
0.0
  0
LINE
  5
523
330
1F
100
AcDbEntity
  8
0
100
AcDbLine
 10
1033.84103361958
 20
521.74104644882
 30
0.0
 11
1036.32853361958
 21
521.74104644882
 31
0.0
  0
HATCH
  5
524
330
1F
100
AcDbEntity
  8
图层7
100
AcDbHatch
 10
0.0
 20
0.0
 30
0.0
210
0.0
220
0.0
230
1.0
  2
ANSI31
 70
     0
 71
     1
 91
        1
 92
        7
 72
     0
 73
     1
 93
        4
 10
865.8785336195801
 20
521.7410464488199
 10
863.8785336195802
 20
521.7410464488199
 10
863.8785336195802
 20
471.74104644882
 10
865.8785336195801
 20
471.7410464488199
 97
        4
330
427
330
435
330
443
330
437
 75
     0
 76
     1
 52
0.0
 41
7.5
 77
     0
 78
     1
 53
45.0
 43
845.4791455569637
 44
432.1365105679912
 45
-0.6629126073623883
 46
0.6629126073623884
 79
     0
 47
0.6096150823599585
 98
        1
 10
865.1690591723905
 20
505.836681331713
  0
HATCH
  5
525
330
1F
100
AcDbEntity
  8
图层7
100
AcDbHatch
 10
0.0
 20
0.0
 30
0.0
210
0.0
220
0.0
230
1.0
  2
ANSI31
 70
     0
 71
     0
 91
        1
 92
        7
 72
     0
 73
     1
 93
        4
 10
1036.37853361958
 20
471.74104644882
 10
1038.37853361958
 20
471.74104644882
 10
1038.37853361958
 20
521.7410464488199
 10
1036.37853361958
 20
521.74104644882
 97
        0
 75
     0
 76
     1
 52
90.0
 41
7.5
 77
     0
 78
     1
 53
135.0
 43
907.4791455569638
 44
432.1365105679912
 45
-0.6629126073623884
 46
-0.6629126073623883
 79
     0
 47
0.6096150823599585
 98
        1
 10
1037.338939440703
 20
500.0453382413172
  0
LINE
  5
526
330
1F
100
AcDbEntity
  8
0
100
AcDbLine
 10
1065.737821995317
 20
568.1262428099386
 30
0.0
 11
1115.587821995318
 21
568.1262428099386
 31
0.0
  0
LINE
  5
527
330
1F
100
AcDbEntity
  8
0
100
AcDbLine
 10
1065.737821995317
 20
568.1262428099386
 30
0.0
 11
1065.737821995317
 21
567.6262428099386
 31
0.0
  0
LINE
  5
528
330
1F
100
AcDbEntity
  8
0
100
AcDbLine
 10
1069.487821995317
 20
568.1262428099386
 30
0.0
 11
1069.487821995318
 21
569.0762428099386
 31
0.0
  0
LINE
  5
529
330
1F
100
AcDbEntity
  8
0
100
AcDbLine
 10
1069.737821995317
 20
568.1262428099386
 30
0.0
 11
1069.737821995317
 21
568.8262428099386
 31
0.0
  0
LINE
  5
52A
330
1F
100
AcDbEntity
  8
图层1
100
AcDbLine
 10
1093.587821995318
 20
565.2664892281931
 30
0.0
 11
1093.587821995318
 21
558.5761298046143
 31
0.0
  0
LINE
  5
531
330
1F
100
AcDbEntity
  8
0
100
AcDbLine
 10
1112.087821995318
 20
567.6262428099386
 30
0.0
 11
1115.087821995318
 21
567.6262428099387
 31
0.0
  0
LINE
  5
532
330
1F
100
AcDbEntity
  8
0
100
AcDbLine
 10
1072.387821995318
 20
564.0262428099386
 30
0.0
 11
1072.387821995318
 21
564.0012428099386
 31
0.0
  0
LINE
  5
533
330
1F
100
AcDbEntity
  8
0
100
AcDbLine
 10
1114.587821995318
 20
564.0262428099386
 30
0.0
 11
1115.587821995318
 21
564.0262428099386
 31
0.0
  0
LINE
  5
534
330
1F
100
AcDbEntity
  8
0
100
AcDbLine
 10
1112.587821995318
 20
564.0262428099386
 30
0.0
 11
1113.377384646763
 21
564.0262428099386
 31
0.0
  0
LINE
  5
535
330
1F
100
AcDbEntity
  8
0
100
AcDbLine
 10
1113.798259343872
 20
564.0262428099386
 30
0.0
 11
1114.587821995318
 21
564.0262428099386
 31
0.0
  0
HATCH
  5
536
330
1F
100
AcDbEntity
  8
图层7
100
AcDbHatch
 10
0.0
 20
0.0
 30
0.0
210
0.0
220
0.0
230
1.0
  2
LINE
 70
     0
 71
     0
 91
        1
 92
        7
 72
     0
 73
     1
 93
        4
 10
1111.587821995318
 20
567.6262428099386
 10
1111.587821995318
 20
568.1262428099386
 10
1065.737821995317
 20
568.1262428099386
 10
1065.737821995317
 20
567.6262428099386
 97
        0
 75
     0
 76
     1
 52
315.0
 41
4.0
 77
     0
 78
     1
 53
315.0
 43
918.2648399374745
 44
453.9275012772018
 45
0.3535533905932739
 46
0.3535533905932737
 79
     0
 47
0.1831324127990415
 98
        1
 10
1096.42180080695
 20
567.7940173985079
  0
LINE
  5
537
330
1F
100
AcDbEntity
  8
0
100
AcDbLine
 10
1075.987821995318
 20
564.3762428099385
 30
0.0
 11
1111.587821995318
 21
564.3762428099387
 31
0.0
  0
HATCH
  5
538
330
1F
100
AcDbEntity
  8
图层7
100
AcDbHatch
 10
0.0
 20
0.0
 30
0.0
210
0.0
220
0.0
230
1.0
  2
LINE
 70
     0
 71
     0
 91
        5
 92
        7
 72
     0
 73
     1
 93
        7
 10
1115.587821995318
 20
570.6262428099387
 10
1065.737821995317
 20
570.6262428099385
 10
1065.737821995317
 20
569.0762428099386
 10
1069.487821995318
 20
569.0762428099386
 10
1069.737821995317
 20
568.8262428099386
 10
1069.737821995317
 20
568.1262428099386
 10
1115.587821995318
 20
568.1262428099387
 97
        0
 92
        7
 72
     0
 73
     1
 93
       11
 10
1092.337821995318
 20
563.9010419927507
 10
1092.587821995318
 20
563.9010419927507
 10
1092.587821995318
 20
564.0262428099386
 10
1074.887821995317
 20
564.0262428099386
 10
1074.887821995317
 20
563.8762428099387
 10
1074.887821995317
 20
561.8762428099386
 10
1074.637821995317
 20
561.8762428099386
 10
1074.637821995317
 20
560.6262428099386
 10
1092.587821995318
 20
560.6262428099387
 10
1092.587821995318
 20
562.4010419927507
 10
1092.337821995318
 20
562.4010419927507
 97
        0
 92
        7
 72
     0
 73
     1
 93
       12
 10
1112.337821995318
 20
563.6510419927508
 10
1112.587821995318
 20
563.6510419927507
 10
1112.587821995318
 20
564.0262428099386
 10
1094.587821995318
 20
564.0262428099386
 10
1094.587821995318
 20
563.9010419927507
 10
1094.837821995318
 20
563.9010419927507
 10
1094.837821995318
 20
562.4010419927507
 10
1094.587821995318
 20
562.4010419927507
 10
1094.587821995318
 20
560.6262428099386
 10
1112.587821995318
 20
560.6262428099387
 10
1112.587821995318
 20
562.1510419927507
 10
1112.337821995318
 20
562.1510419927507
 97
        0
 92
        7
 72
     0
 73
     1
 93
        8
 10
1115.587821995318
 20
564.0262428099386
 10
1114.587821995318
 20
564.0262428099386
 10
1114.587821995318
 20
563.6510419927507
 10
1114.837821995318
 20
563.6510419927507
 10
1114.837821995318
 20
562.1510419927507
 10
1114.587821995318
 20
562.1510419927507
 10
1114.587821995318
 20
560.6262428099387
 10
1115.587821995317
 20
560.6262428099387
 97
        0
 92
        7
 72
     0
 73
     1
 93
       10
 10
1072.387821995318
 20
563.8762428099385
 10
1072.387821995318
 20
564.0262428099386
 10
1069.737821995317
 20
564.0262428099386
 10
1069.737821995317
 20
563.4262428099386
 10
1069.487821995318
 20
563.1762428099387
 10
1065.737821995317
 20
563.1762428099387
 10
1065.737821995317
 20
560.6262428099386
 10
1072.637821995317
 20
560.6262428099386
 10
1072.637821995317
 20
561.8762428099386
 10
1072.387821995318
 20
561.8762428099386
 97
        0
 75
     0
 76
     1
 52
45.0
 41
8.0
 77
     0
 78
     1
 53
45.0
 43
918.2648399374745
 44
453.9275012772018
 45
-0.7071067811865475
 46
0.7071067811865476
 79
     0
 47
0.1738955107202786
 98
        5
 10
1094.730423044761
 20
569.2976454266023
 10
1089.507187715435
 20
563.1243545730523
 10
1097.951417997864
 20
562.4287726286764
 10
1115.362202845568
 20
561.6462426880503
 10
1070.964701921372
 20
562.7765636008644
  0
HATCH
  5
539
330
1F
100
AcDbEntity
  8
图层7
100
AcDbHatch
 10
0.0
 20
0.0
 30
0.0
210
0.0
220
0.0
230
1.0
  2
NET
 70
     0
 71
     0
 91
        1
 92
        7
 72
     0
 73
     1
 93
        5
 10
1077.237821995318
 20
567.6262428099386
 10
1077.237821995318
 20
564.6262428099386
 10
1077.237821995318
 20
564.3762428099385
 10
1111.587821995318
 20
564.3762428099387
 10
1111.587821995318
 20
567.6262428099386
 97
        0
 75
     0
 76
     1
 52
45.0
 41
6.0
 77
     0
 78
     2
 53
45.0
 43
918.2648399374745
 44
453.9275012772018
 45
-0.5303300858899106
 46
0.5303300858899107
 79
     0
 53
135.0
 43
918.2648399374745
 44
453.9275012772018
 45
-0.5303300858899107
 46
-0.5303300858899106
 79
     0
 47
0.1738955107202786
 98
        1
 10
1095.252746702678
 20
566.3414216565984
  0
LINE
  5
53A
330
1F
100
AcDbEntity
  8
0
100
AcDbLine
 10
1029.25353361958
 20
568.1262428099386
 30
0.0
 11
1036.37853361958
 21
568.1262428099386
 31
0.0
  0
LINE
  5
53B
330
1F
100
AcDbEntity
  8
0
100
AcDbLine
 10
1036.37853361958
 20
568.1262428099386
 30
0.0
 11
1036.37853361958
 21
567.6262428099386
 31
0.0
  0
LINE
  5
53C
330
1F
100
AcDbEntity
  8
0
100
AcDbLine
 10
1038.37853361958
 20
521.74104644882
 30
0.0
 11
877.8785327746918
 21
521.74104644882
 31
0.0
  0
LINE
  5
53D
330
1F
100
AcDbEntity
  8
0
100
AcDbLine
 10
1038.37853361958
 20
475.74104644882
 30
0.0
 11
877.8785327746918
 21
475.74104644882
 31
0.0
  0
LINE
  5
53E
330
1F
100
AcDbEntity
  8
0
100
AcDbLine
 10
865.8785336195801
 20
521.74104644882
 30
0.0
 11
865.8785336195801
 21
475.74104644882
 31
0.0
  0
LINE
  5
53F
330
1F
100
AcDbEntity
  8
0
100
AcDbLine
 10
865.8785336195801
 20
475.74104644882
 30
0.0
 11
877.8785327746918
 21
475.74104644882
 31
0.0
  0
LINE
  5
540
330
1F
100
AcDbEntity
  8
0
100
AcDbLine
 10
865.8785336195801
 20
521.74104644882
 30
0.0
 11
868.4160336195802
 21
521.74104644882
 31
0.0
  0
LINE
  5
541
330
1F
100
AcDbEntity
  8
0
100
AcDbLine
 10
1036.37853361958
 20
521.74104644882
 30
0.0
 11
1036.37853361958
 21
475.74104644882
 31
0.0
  0
LINE
  5
542
330
1F
100
AcDbEntity
  8
0
100
AcDbLine
 10
1033.84103361958
 20
521.74104644882
 30
0.0
 11
1036.37853361958
 21
521.7410464488199
 31
0.0
  0
LINE
  5
543
330
1F
100
AcDbEntity
  8
0
100
AcDbLine
 10
1033.84103361958
 20
521.74104644882
 30
0.0
 11
1033.84103361958
 21
517.2410464488199
 31
0.0
  0
LINE
  5
544
330
1F
100
AcDbEntity
  8
0
100
AcDbLine
 10
1032.91603361958
 20
521.74104644882
 30
0.0
 11
1032.91603361958
 21
517.24104644882
 31
0.0
  0
LINE
  5
545
330
1F
100
AcDbEntity
  8
0
100
AcDbLine
 10
1032.91603361958
 20
517.24104644882
 30
0.0
 11
1033.84103361958
 21
517.2410464488199
 31
0.0
  0
LINE
  5
546
330
1F
100
AcDbEntity
  8
0
100
AcDbLine
 10
1031.32853361958
 20
521.74104644882
 30
0.0
 11
1032.91603361958
 21
521.74104644882
 31
0.0
  0
LINE
  5
547
330
1F
100
AcDbEntity
  8
图层1
100
AcDbLine
 10
868.8785336195801
 20
518.0695242068403
 30
0.0
 11
868.8785336195801
 21
523.6660763382668
 31
0.0
  0
LINE
  5
548
330
1F
100
AcDbEntity
  8
0
100
AcDbLine
 10
868.4160336195802
 20
521.74104644882
 30
0.0
 11
868.4160336195802
 21
517.24104644882
 31
0.0
  0
LINE
  5
549
330
1F
100
AcDbEntity
  8
0
100
AcDbLine
 10
869.3410336195801
 20
521.74104644882
 30
0.0
 11
869.3410336195801
 21
517.2410464488199
 31
0.0
  0
LINE
  5
54A
330
1F
100
AcDbEntity
  8
0
100
AcDbLine
 10
868.4160336195802
 20
517.24104644882
 30
0.0
 11
869.3410336195801
 21
517.2410464488199
 31
0.0
  0
LINE
  5
54B
330
1F
100
AcDbEntity
  8
0
100
AcDbLine
 10
869.3410336195801
 20
521.74104644882
 30
0.0
 11
877.8785327746918
 21
521.74104644882
 31
0.0
  0
LINE
  5
54C
330
1F
100
AcDbEntity
  8
图层1
100
AcDbLine
 10
902.8785336195801
 20
523.5242467241628
 30
0.0
 11
902.8785336195801
 21
474.2494030474173
 31
0.0
  0
LINE
  5
54D
330
1F
100
AcDbEntity
  8
0
100
AcDbLine
 10
928.3785336195801
 20
516.0540989763457
 30
0.0
 11
877.3785336195802
 21
516.0540989763457
 31
0.0
  0
LINE
  5
54E
330
1F
100
AcDbEntity
  8
0
100
AcDbLine
 10
928.3785336195801
 20
477.8846373507313
 30
0.0
 11
877.3785336195802
 21
477.8846373507313
 31
0.0
  0
LINE
  5
54F
330
1F
100
AcDbEntity
  8
0
100
AcDbLine
 10
877.3785336195802
 20
516.0540989763457
 30
0.0
 11
880.8785336195802
 21
506.2410464488199
 31
0.0
  0
LINE
  5
550
330
1F
100
AcDbEntity
  8
0
100
AcDbLine
 10
928.3785336195801
 20
516.0540989763457
 30
0.0
 11
924.8785336195801
 21
506.2410464488199
 31
0.0
  0
LINE
  5
551
330
1F
100
AcDbEntity
  8
0
100
AcDbLine
 10
924.8785336195801
 20
506.2410464488199
 30
0.0
 11
928.3785336195801
 21
477.8846373507313
 31
0.0
  0
LINE
  5
552
330
1F
100
AcDbEntity
  8
0
100
AcDbLine
 10
880.8785336195802
 20
506.2410464488199
 30
0.0
 11
877.3785336195802
 21
477.8846373507313
 31
0.0
  0
LINE
  5
553
330
1F
100
AcDbEntity
  8
0
100
AcDbLine
 10
877.3785336195802
 20
516.0540989763457
 30
0.0
 11
877.3785336195802
 21
477.8846373507313
 31
0.0
  0
LINE
  5
554
330
1F
100
AcDbEntity
  8
0
100
AcDbLine
 10
928.3785336195801
 20
516.0540989763457
 30
0.0
 11
928.3785336195801
 21
477.8846373507313
 31
0.0
  0
LINE
  5
555
330
1F
100
AcDbEntity
  8
0
100
AcDbLine
 10
924.8785336195801
 20
506.2410464488199
 30
0.0
 11
914.3785336195801
 21
506.2410464488199
 31
0.0
  0
LINE
  5
556
330
1F
100
AcDbEntity
  8
图层1
100
AcDbLine
 10
914.3785336195801
 20
486.74104644882
 30
0.0
 11
912.1398768005882
 21
486.74104644882
 31
0.0
  0
LINE
  5
557
330
1F
100
AcDbEntity
  8
图层1
100
AcDbLine
 10
916.0307800695438
 20
513.24104644882
 30
0.0
 11
912.0182856416079
 21
513.24104644882
 31
0.0
  0
LINE
  5
558
330
1F
100
AcDbEntity
  8
图层1
100
AcDbLine
 10
913.8785336195802
 20
512.101604165306
 30
0.0
 11
913.8785336195802
 21
514.7733716169329
 31
0.0
  0
LINE
  5
559
330
1F
100
AcDbEntity
  8
图层1
100
AcDbLine
 10
913.8785336195802
 20
489.1486918634437
 30
0.0
 11
913.8785336195802
 21
484.8981525332783
 31
0.0
  0
LINE
  5
55A
330
1F
100
AcDbEntity
  8
图层1
100
AcDbLine
 10
908.37853361958
 20
512.101604165306
 30
0.0
 11
908.37853361958
 21
514.7733716169329
 31
0.0
  0
LINE
  5
55B
330
1F
100
AcDbEntity
  8
图层1
100
AcDbLine
 10
908.37853361958
 20
489.1486918634437
 30
0.0
 11
908.37853361958
 21
484.8981525332783
 31
0.0
  0
LINE
  5
55C
330
1F
100
AcDbEntity
  8
图层1
100
AcDbLine
 10
897.3785336195801
 20
489.1486918634437
 30
0.0
 11
897.3785336195801
 21
484.8981525332783
 31
0.0
  0
LINE
  5
55D
330
1F
100
AcDbEntity
  8
图层1
100
AcDbLine
 10
897.3785336195801
 20
512.101604165306
 30
0.0
 11
897.3785336195801
 21
514.7733716169329
 31
0.0
  0
LINE
  5
55E
330
1F
100
AcDbEntity
  8
图层1
100
AcDbLine
 10
891.8785336195801
 20
489.1486918634437
 30
0.0
 11
891.8785336195801
 21
484.8981525332783
 31
0.0
  0
LINE
  5
55F
330
1F
100
AcDbEntity
  8
图层1
100
AcDbLine
 10
891.8785336195801
 20
512.101604165306
 30
0.0
 11
891.8785336195801
 21
514.7733716169329
 31
0.0
  0
LINE
  5
560
330
1F
100
AcDbEntity
  8
0
100
AcDbLine
 10
903.6285336195801
 20
513.24104644882
 30
0.0
 11
903.6285336195801
 21
508.24104644882
 31
0.0
  0
LINE
  5
561
330
1F
100
AcDbEntity
  8
0
100
AcDbLine
 10
902.12853361958
 20
513.24104644882
 30
0.0
 11
902.12853361958
 21
508.24104644882
 31
0.0
  0
LINE
  5
562
330
1F
100
AcDbEntity
  8
0
100
AcDbLine
 10
902.12853361958
 20
491.24104644882
 30
0.0
 11
902.12853361958
 21
486.74104644882
 31
0.0
  0
LINE
  5
563
330
1F
100
AcDbEntity
  8
0
100
AcDbLine
 10
891.37853361958
 20
506.2410464488199
 30
0.0
 11
880.8785336195802
 21
506.2410464488199
 31
0.0
  0
LINE
  5
564
330
1F
100
AcDbEntity
  8
图层1
100
AcDbLine
 10
893.536495659533
 20
513.24104644882
 30
0.0
 11
889.767182822273
 21
513.24104644882
 31
0.0
  0
LINE
  5
565
330
1F
100
AcDbEntity
  8
图层1
100
AcDbLine
 10
899.4944413583041
 20
513.24104644882
 30
0.0
 11
895.360356498673
 21
513.24104644882
 31
0.0
  0
LINE
  5
566
330
1F
100
AcDbEntity
  8
图层1
100
AcDbLine
 10
910.0728343707727
 20
513.24104644882
 30
0.0
 11
901.0751206067684
 21
513.24104644882
 31
0.0
  0
LINE
  5
567
330
1F
100
AcDbEntity
  8
图层1
100
AcDbLine
 10
899.3728501993238
 20
486.74104644882
 30
0.0
 11
890.1319548446439
 21
486.74104644882
 31
0.0
  0
LINE
  5
568
330
1F
100
AcDbEntity
  8
图层1
100
AcDbLine
 10
904.601251853353
 20
486.74104644882
 30
0.0
 11
901.1967110384636
 21
486.74104644882
 31
0.0
  0
LINE
  5
569
330
1F
100
AcDbEntity
  8
图层1
100
AcDbLine
 10
910.559196824839
 20
486.74104644882
 30
0.0
 11
906.911475146559
 21
486.74104644882
 31
0.0
  0
LINE
  5
56A
330
1F
100
AcDbEntity
  8
图层1
100
AcDbLine
 10
891.37853361958
 20
508.24104644882
 30
0.0
 11
898.8554435808824
 21
508.24104644882
 31
0.0
  0
LINE
  5
56B
330
1F
100
AcDbEntity
  8
图层1
100
AcDbLine
 10
891.37853361958
 20
504.2410464488199
 30
0.0
 11
893.5468441991815
 21
504.2410464488199
 31
0.0
  0
LINE
  5
56C
330
1F
100
AcDbEntity
  8
0
100
AcDbLine
 10
902.12853361958
 20
504.2410464488199
 30
0.0
 11
902.12853361958
 21
491.24104644882
 31
0.0
  0
LINE
  5
56D
330
1F
100
AcDbEntity
  8
0
100
AcDbLine
 10
903.6285336195801
 20
504.2410464488199
 30
0.0
 11
903.6285336195801
 21
486.74104644882
 31
0.0
  0
LINE
  5
56E
330
1F
100
AcDbEntity
  8
0
100
AcDbLine
 10
896.6285336195801
 20
513.24104644882
 30
0.0
 11
896.6285336195801
 21
508.24104644882
 31
0.0
  0
LINE
  5
56F
330
1F
100
AcDbEntity
  8
0
100
AcDbLine
 10
898.1285336195801
 20
513.24104644882
 30
0.0
 11
898.1285336195801
 21
508.24104644882
 31
0.0
  0
LINE
  5
570
330
1F
100
AcDbEntity
  8
0
100
AcDbLine
 10
898.1285336195801
 20
504.2410464488199
 30
0.0
 11
898.1285336195801
 21
486.74104644882
 31
0.0
  0
LINE
  5
571
330
1F
100
AcDbEntity
  8
0
100
AcDbLine
 10
896.6285336195801
 20
504.2410464488199
 30
0.0
 11
896.6285336195801
 21
491.24104644882
 31
0.0
  0
LINE
  5
572
330
1F
100
AcDbEntity
  8
0
100
AcDbLine
 10
896.6285336195801
 20
491.24104644882
 30
0.0
 11
896.6285336195801
 21
486.74104644882
 31
0.0
  0
LINE
  5
573
330
1F
100
AcDbEntity
  8
0
100
AcDbLine
 10
891.1285336195801
 20
504.2410464488199
 30
0.0
 11
891.1285336195801
 21
491.24104644882
 31
0.0
  0
LINE
  5
574
330
1F
100
AcDbEntity
  8
0
100
AcDbLine
 10
892.6285336195801
 20
504.2410464488199
 30
0.0
 11
892.6285336195801
 21
486.74104644882
 31
0.0
  0
LINE
  5
575
330
1F
100
AcDbEntity
  8
0
100
AcDbLine
 10
891.1285336195801
 20
491.24104644882
 30
0.0
 11
891.1285336195801
 21
486.74104644882
 31
0.0
  0
LINE
  5
576
330
1F
100
AcDbEntity
  8
0
100
AcDbLine
 10
892.6285336195801
 20
513.24104644882
 30
0.0
 11
892.6285336195801
 21
508.24104644882
 31
0.0
  0
LINE
  5
577
330
1F
100
AcDbEntity
  8
0
100
AcDbLine
 10
891.1285336195801
 20
513.24104644882
 30
0.0
 11
891.1285336195801
 21
508.24104644882
 31
0.0
  0
LINE
  5
578
330
1F
100
AcDbEntity
  8
0
100
AcDbLine
 10
913.1285336195801
 20
504.24104644882
 30
0.0
 11
913.1285336195801
 21
486.74104644882
 31
0.0
  0
LINE
  5
579
330
1F
100
AcDbEntity
  8
0
100
AcDbLine
 10
914.62853361958
 20
504.24104644882
 30
0.0
 11
914.62853361958
 21
491.24104644882
 31
0.0
  0
LINE
  5
57A
330
1F
100
AcDbEntity
  8
0
100
AcDbLine
 10
914.62853361958
 20
491.24104644882
 30
0.0
 11
914.62853361958
 21
486.74104644882
 31
0.0
  0
LINE
  5
57B
330
1F
100
AcDbEntity
  8
0
100
AcDbLine
 10
914.62853361958
 20
513.24104644882
 30
0.0
 11
914.62853361958
 21
508.24104644882
 31
0.0
  0
LINE
  5
57C
330
1F
100
AcDbEntity
  8
0
100
AcDbLine
 10
913.1285336195801
 20
513.24104644882
 30
0.0
 11
913.1285336195801
 21
508.24104644882
 31
0.0
  0
LINE
  5
57D
330
1F
100
AcDbEntity
  8
0
100
AcDbLine
 10
909.1285336195801
 20
504.2410464488199
 30
0.0
 11
909.1285336195801
 21
491.24104644882
 31
0.0
  0
LINE
  5
57E
330
1F
100
AcDbEntity
  8
0
100
AcDbLine
 10
907.6285336195802
 20
504.2410464488199
 30
0.0
 11
907.6285336195802
 21
486.74104644882
 31
0.0
  0
LINE
  5
57F
330
1F
100
AcDbEntity
  8
0
100
AcDbLine
 10
909.1285336195801
 20
491.24104644882
 30
0.0
 11
909.1285336195801
 21
486.74104644882
 31
0.0
  0
LINE
  5
580
330
1F
100
AcDbEntity
  8
0
100
AcDbLine
 10
907.6285336195802
 20
513.24104644882
 30
0.0
 11
907.6285336195802
 21
508.24104644882
 31
0.0
  0
LINE
  5
581
330
1F
100
AcDbEntity
  8
0
100
AcDbLine
 10
909.1285336195801
 20
513.24104644882
 30
0.0
 11
909.1285336195801
 21
508.24104644882
 31
0.0
  0
LINE
  5
582
330
1F
100
AcDbEntity
  8
0
100
AcDbLine
 10
891.37853361958
 20
506.2410464488199
 30
0.0
 11
914.3785336195801
 21
506.2410464488199
 31
0.0
  0
LINE
  5
583
330
1F
100
AcDbEntity
  8
图层1
100
AcDbLine
 10
896.8785336195802
 20
504.2410464488199
 30
0.0
 11
898.9951434114985
 21
504.2410464488199
 31
0.0
  0
LINE
  5
584
330
1F
100
AcDbEntity
  8
图层1
100
AcDbLine
 10
902.3785336195802
 20
504.2410464488199
 30
0.0
 11
904.4434426238156
 21
504.2410464488199
 31
0.0
  0
LINE
  5
585
330
1F
100
AcDbEntity
  8
图层1
100
AcDbLine
 10
906.259542603683
 20
504.2410464488199
 30
0.0
 11
910.869642105017
 21
504.2410464488199
 31
0.0
  0
LINE
  5
586
330
1F
100
AcDbEntity
  8
图层1
100
AcDbLine
 10
913.3785336195801
 20
504.2410464488199
 30
0.0
 11
914.3785336195801
 21
504.2410464488199
 31
0.0
  0
LINE
  5
587
330
1F
100
AcDbEntity
  8
图层1
100
AcDbLine
 10
902.3785336195802
 20
508.24104644882
 30
0.0
 11
904.5831424544319
 21
508.24104644882
 31
0.0
  0
LINE
  5
588
330
1F
100
AcDbEntity
  8
图层1
100
AcDbLine
 10
908.3391080431505
 20
508.24104644882
 30
0.0
 11
910.3108420552667
 21
508.24104644882
 31
0.0
  0
LINE
  5
589
330
1F
100
AcDbEntity
  8
图层1
100
AcDbLine
 10
911.9872414772325
 20
508.24104644882
 30
0.0
 11
914.3785336195801
 21
508.24104644882
 31
0.0
  0
LINE
  5
58A
330
1F
100
AcDbEntity
  8
图层1
100
AcDbLine
 10
891.8785336195801
 20
506.9231046127185
 30
0.0
 11
891.8785336195801
 21
509.5948720643455
 31
0.0
  0
LINE
  5
58B
330
1F
100
AcDbEntity
  8
图层1
100
AcDbLine
 10
897.3785336195801
 20
506.9231046127185
 30
0.0
 11
897.3785336195801
 21
509.5948720643455
 31
0.0
  0
LINE
  5
58C
330
1F
100
AcDbEntity
  8
图层1
100
AcDbLine
 10
908.37853361958
 20
506.9231046127185
 30
0.0
 11
908.37853361958
 21
509.5948720643455
 31
0.0
  0
LINE
  5
58D
330
1F
100
AcDbEntity
  8
图层1
100
AcDbLine
 10
913.8785336195802
 20
506.9231046127185
 30
0.0
 11
913.8785336195802
 21
509.5948720643455
 31
0.0
  0
LINE
  5
58E
330
1F
100
AcDbEntity
  8
图层1
100
AcDbLine
 10
891.8785336195801
 20
505.5604431581431
 30
0.0
 11
891.8785336195801
 21
501.5533257480409
 31
0.0
  0
LINE
  5
58F
330
1F
100
AcDbEntity
  8
图层1
100
AcDbLine
 10
897.3785336195801
 20
505.8038650782062
 30
0.0
 11
897.3785336195801
 21
501.5533257480409
 31
0.0
  0
LINE
  5
590
330
1F
100
AcDbEntity
  8
图层1
100
AcDbLine
 10
908.37853361958
 20
505.8038650782062
 30
0.0
 11
908.37853361958
 21
501.5533257480409
 31
0.0
  0
LINE
  5
591
330
1F
100
AcDbEntity
  8
图层1
100
AcDbLine
 10
913.8785336195802
 20
505.8038650782062
 30
0.0
 11
913.8785336195802
 21
501.5533257480409
 31
0.0
  0
ARC
  5
592
330
1F
100
AcDbEntity
  8
0
100
AcDbCircle
 10
891.8785336195801
 20
513.24104644882
 30
0.0
 40
0.75
100
AcDbArc
 50
0.0
 51
180.0
  0
ARC
  5
593
330
1F
100
AcDbEntity
  8
0
100
AcDbCircle
 10
891.8785336195801
 20
508.24104644882
 30
0.0
 40
0.75
100
AcDbArc
 50
180.0
 51
0.0
  0
ARC
  5
594
330
1F
100
AcDbEntity
  8
0
100
AcDbCircle
 10
891.8785336195801
 20
504.2410464488199
 30
0.0
 40
0.75
100
AcDbArc
 50
0.0
 51
180.0
  0
ARC
  5
595
330
1F
100
AcDbEntity
  8
0
100
AcDbCircle
 10
891.8785336195801
 20
486.74104644882
 30
0.0
 40
0.75
100
AcDbArc
 50
180.0
 51
0.0
  0
ARC
  5
596
330
1F
100
AcDbEntity
  8
0
100
AcDbCircle
 10
897.3785336195801
 20
513.24104644882
 30
0.0
 40
0.75
100
AcDbArc
 50
0.0
 51
180.0
  0
ARC
  5
597
330
1F
100
AcDbEntity
  8
0
100
AcDbCircle
 10
897.3785336195801
 20
508.24104644882
 30
0.0
 40
0.75
100
AcDbArc
 50
180.0
 51
0.0
  0
ARC
  5
598
330
1F
100
AcDbEntity
  8
0
100
AcDbCircle
 10
897.3785336195801
 20
504.2410464488199
 30
0.0
 40
0.75
100
AcDbArc
 50
0.0
 51
180.0
  0
ARC
  5
599
330
1F
100
AcDbEntity
  8
0
100
AcDbCircle
 10
897.3785336195801
 20
486.74104644882
 30
0.0
 40
0.75
100
AcDbArc
 50
180.0
 51
0.0
  0
ARC
  5
59A
330
1F
100
AcDbEntity
  8
0
100
AcDbCircle
 10
902.8785336195801
 20
513.24104644882
 30
0.0
 40
0.75
100
AcDbArc
 50
0.0
 51
180.0
  0
ARC
  5
59B
330
1F
100
AcDbEntity
  8
0
100
AcDbCircle
 10
902.8785336195801
 20
508.24104644882
 30
0.0
 40
0.75
100
AcDbArc
 50
180.0
 51
0.0
  0
ARC
  5
59C
330
1F
100
AcDbEntity
  8
0
100
AcDbCircle
 10
902.8785336195801
 20
504.2410464488199
 30
0.0
 40
0.75
100
AcDbArc
 50
0.0
 51
180.0
  0
ARC
  5
59D
330
1F
100
AcDbEntity
  8
0
100
AcDbCircle
 10
902.8785336195801
 20
486.74104644882
 30
0.0
 40
0.75
100
AcDbArc
 50
180.0
 51
0.0
  0
ARC
  5
59E
330
1F
100
AcDbEntity
  8
0
100
AcDbCircle
 10
908.37853361958
 20
513.24104644882
 30
0.0
 40
0.75
100
AcDbArc
 50
0.0
 51
180.0
  0
ARC
  5
59F
330
1F
100
AcDbEntity
  8
0
100
AcDbCircle
 10
908.37853361958
 20
508.24104644882
 30
0.0
 40
0.75
100
AcDbArc
 50
180.0
 51
0.0
  0
ARC
  5
5A0
330
1F
100
AcDbEntity
  8
0
100
AcDbCircle
 10
908.37853361958
 20
504.2410464488199
 30
0.0
 40
0.75
100
AcDbArc
 50
0.0
 51
180.0
  0
ARC
  5
5A1
330
1F
100
AcDbEntity
  8
0
100
AcDbCircle
 10
908.37853361958
 20
486.74104644882
 30
0.0
 40
0.75
100
AcDbArc
 50
180.0
 51
0.0
  0
ARC
  5
5A2
330
1F
100
AcDbEntity
  8
0
100
AcDbCircle
 10
913.8785336195802
 20
513.24104644882
 30
0.0
 40
0.75
100
AcDbArc
 50
0.0
 51
180.0
  0
ARC
  5
5A3
330
1F
100
AcDbEntity
  8
0
100
AcDbCircle
 10
913.8785336195802
 20
508.24104644882
 30
0.0
 40
0.75
100
AcDbArc
 50
180.0
 51
0.0
  0
ARC
  5
5A4
330
1F
100
AcDbEntity
  8
0
100
AcDbCircle
 10
913.8785336195802
 20
504.2410464488199
 30
0.0
 40
0.75
100
AcDbArc
 50
0.0
 51
180.0
  0
ARC
  5
5A5
330
1F
100
AcDbEntity
  8
0
100
AcDbCircle
 10
913.8785336195802
 20
486.74104644882
 30
0.0
 40
0.75
100
AcDbArc
 50
180.0
 51
0.0
  0
LINE
  5
5A6
330
1F
100
AcDbEntity
  8
0
100
AcDbLine
 10
865.8785336195801
 20
568.1262428099386
 30
0.0
 11
874.9880419484
 21
568.1262428099386
 31
0.0
  0
LINE
  5
5A7
330
1F
100
AcDbEntity
  8
0
100
AcDbLine
 10
865.8785336195801
 20
567.5262428099387
 30
0.0
 11
865.8785336195801
 21
568.1262428099386
 31
0.0
  0
LINE
  5
5A8
330
1F
100
AcDbEntity
  8
0
100
AcDbLine
 10
1036.37853361958
 20
567.6262428099386
 30
0.0
 11
1036.37853361958
 21
568.1262428099386
 31
0.0
  0
LINE
  5
5A9
330
1F
100
AcDbEntity
  8
0
100
AcDbLine
 10
986.8284232500668
 20
568.1262428099386
 30
0.0
 11
1036.37853361958
 21
568.1262428099386
 31
0.0
  0
LINE
  5
5AA
330
1F
100
AcDbEntity
  8
0
100
AcDbLine
 10
874.9880419484
 20
568.1262428099386
 30
0.0
 11
951.12853361958
 21
568.1262428099387
 31
0.0
  0
LINE
  5
5AB
330
1F
100
AcDbEntity
  8
0
100
AcDbLine
 10
1020.37853361958
 20
485.7410464488198
 30
0.0
 11
936.87853361958
 21
485.7410464488198
 31
0.0
  0
LINE
  5
5AC
330
1F
100
AcDbEntity
  8
0
100
AcDbLine
 10
1020.37853361958
 20
487.7410464488199
 30
0.0
 11
936.87853361958
 21
487.7410464488199
 31
0.0
  0
LINE
  5
5AD
330
1F
100
AcDbEntity
  8
图层1
100
AcDbLine
 10
1023.868511919784
 20
486.7410464488198
 30
0.0
 11
934.4781286330894
 21
486.7410464488198
 31
0.0
  0
LINE
  5
5AE
330
1F
100
AcDbEntity
  8
0
100
AcDbLine
 10
1020.37853361958
 20
493.7410464488199
 30
0.0
 11
936.87853361958
 21
493.7410464488199
 31
0.0
  0
LINE
  5
5AF
330
1F
100
AcDbEntity
  8
0
100
AcDbLine
 10
1020.37853361958
 20
495.7410464488199
 30
0.0
 11
936.87853361958
 21
495.7410464488199
 31
0.0
  0
LINE
  5
5B0
330
1F
100
AcDbEntity
  8
图层1
100
AcDbLine
 10
1023.868511919784
 20
494.7410464488199
 30
0.0
 11
934.4804423305749
 21
494.7410464488199
 31
0.0
  0
ARC
  5
5B1
330
1F
100
AcDbEntity
  8
0
100
AcDbCircle
 10
1020.37853361958
 20
486.7410464488198
 30
0.0
 40
1.0
100
AcDbArc
 50
270.0
 51
90.0
  0
LINE
  5
5B2
330
1F
100
AcDbEntity
  8
图层1
100
AcDbLine
 10
1020.37853361958
 20
483.9279436038031
 30
0.0
 11
1020.37853361958
 21
488.9835888350125
 31
0.0
  0
ARC
  5
5B3
330
1F
100
AcDbEntity
  8
0
100
AcDbCircle
 10
1020.37853361958
 20
494.7410464488199
 30
0.0
 40
1.0
100
AcDbArc
 50
270.0
 51
90.0
  0
LINE
  5
5B4
330
1F
100
AcDbEntity
  8
图层1
100
AcDbLine
 10
1020.37853361958
 20
492.745514363548
 30
0.0
 11
1020.37853361958
 21
497.2040933929316
 31
0.0
  0
ARC
  5
5B5
330
1F
100
AcDbEntity
  8
0
100
AcDbCircle
 10
936.87853361958
 20
486.7410464488198
 30
0.0
 40
1.0
100
AcDbArc
 50
90.0
 51
270.0
  0
LINE
  5
5B6
330
1F
100
AcDbEntity
  8
图层1
100
AcDbLine
 10
936.87853361958
 20
484.0628705917406
 30
0.0
 11
936.87853361958
 21
488.8442581348428
 31
0.0
  0
ARC
  5
5B7
330
1F
100
AcDbEntity
  8
0
100
AcDbCircle
 10
936.87853361958
 20
494.7410464488199
 30
0.0
 40
1.0
100
AcDbArc
 50
90.0
 51
270.0
  0
LINE
  5
5B8
330
1F
100
AcDbEntity
  8
图层1
100
AcDbLine
 10
936.87853361958
 20
492.8848450637177
 30
0.0
 11
936.87853361958
 21
497.0647626927622
 31
0.0
  0
LINE
  5
5B9
330
1F
100
AcDbEntity
  8
0
100
AcDbLine
 10
984.9842138687366
 20
567.5262428099387
 30
0.0
 11
928.3948595520827
 21
567.5262428099387
 31
0.0
  0
LINE
  5
5BA
330
1F
100
AcDbEntity
  8
0
100
AcDbLine
 10
1036.37853361958
 20
568.1262428099386
 30
0.0
 11
865.8785336195803
 21
568.1262428099386
 31
0.0
  0
LINE
  5
5BB
330
1F
100
AcDbEntity
  8
0
100
AcDbLine
 10
1020.37853361958
 20
501.7410464488199
 30
0.0
 11
936.87853361958
 21
501.7410464488199
 31
0.0
  0
LINE
  5
5BC
330
1F
100
AcDbEntity
  8
0
100
AcDbLine
 10
1020.37853361958
 20
503.7410464488199
 30
0.0
 11
936.87853361958
 21
503.7410464488199
 31
0.0
  0
LINE
  5
5BD
330
1F
100
AcDbEntity
  8
图层1
100
AcDbLine
 10
1023.868511919784
 20
502.7410464488199
 30
0.0
 11
934.2637892723614
 21
502.7410464488199
 31
0.0
  0
LINE
  5
5BE
330
1F
100
AcDbEntity
  8
图层1
100
AcDbLine
 10
1023.868511919784
 20
510.7410464488197
 30
0.0
 11
934.2637892723614
 21
510.7410464488197
 31
0.0
  0
LINE
  5
5BF
330
1F
100
AcDbEntity
  8
0
100
AcDbLine
 10
1020.37853361958
 20
509.7410464488198
 30
0.0
 11
936.87853361958
 21
509.7410464488198
 31
0.0
  0
LINE
  5
5C0
330
1F
100
AcDbEntity
  8
0
100
AcDbLine
 10
1020.37853361958
 20
511.7410464488198
 30
0.0
 11
936.87853361958
 21
511.7410464488198
 31
0.0
  0
LINE
  5
5C1
330
1F
100
AcDbEntity
  8
图层1
100
AcDbLine
 10
1020.37853361958
 20
500.687357521128
 30
0.0
 11
1020.37853361958
 21
504.7279451252117
 31
0.0
  0
ARC
  5
5C2
330
1F
100
AcDbEntity
  8
0
100
AcDbCircle
 10
1020.37853361958
 20
502.7410464488199
 30
0.0
 40
1.0
100
AcDbArc
 50
270.0
 51
90.0
  0
ARC
  5
5C3
330
1F
100
AcDbEntity
  8
0
100
AcDbCircle
 10
1020.37853361958
 20
510.7410464488197
 30
0.0
 40
1.0
100
AcDbArc
 50
270.0
 51
90.0
  0
LINE
  5
5C4
330
1F
100
AcDbEntity
  8
图层1
100
AcDbLine
 10
1020.37853361958
 20
508.3505399535777
 30
0.0
 11
1020.37853361958
 21
514.4044140420789
 31
0.0
  0
LINE
  5
5C5
330
1F
100
AcDbEntity
  8
0
100
AcDbLine
 10
1036.37853361958
 20
567.5262428099387
 30
0.0
 11
1036.37853361958
 21
568.1262428099386
 31
0.0
  0
ARC
  5
5C6
330
1F
100
AcDbEntity
  8
0
100
AcDbCircle
 10
936.87853361958
 20
502.7410464488199
 30
0.0
 40
1.0
100
AcDbArc
 50
90.0
 51
270.0
  0
LINE
  5
5C7
330
1F
100
AcDbEntity
  8
图层1
100
AcDbLine
 10
936.87853361958
 20
500.9660189214672
 30
0.0
 11
936.87853361958
 21
504.7279451252117
 31
0.0
  0
ARC
  5
5C8
330
1F
100
AcDbEntity
  8
0
100
AcDbCircle
 10
936.87853361958
 20
510.7410464488197
 30
0.0
 40
1.0
100
AcDbArc
 50
90.0
 51
270.0
  0
LINE
  5
5C9
330
1F
100
AcDbEntity
  8
图层1
100
AcDbLine
 10
936.87853361958
 20
508.0628705917406
 30
0.0
 11
936.87853361958
 21
513.0877803833007
 31
0.0
  0
LINE
  5
5CA
330
1F
100
AcDbEntity
  8
0
100
AcDbLine
 10
865.8785336195803
 20
567.4262428099386
 30
0.0
 11
865.8785336195803
 21
568.1262428099386
 31
0.0
  0
LINE
  5
5CB
330
1F
100
AcDbEntity
  8
0
100
AcDbLine
 10
928.7690252907601
 20
568.1262428099386
 30
0.0
 11
876.9880419484001
 21
568.1262428099386
 31
0.0
  0
LINE
  5
5CC
330
1F
100
AcDbEntity
  8
0
100
AcDbLine
 10
923.5768947156467
 20
563.1262428099386
 30
0.0
 11
882.1801725235136
 21
563.1262428099386
 31
0.0
  0
LINE
  5
5CD
330
1F
100
AcDbEntity
  8
0
100
AcDbLine
 10
923.5768947156467
 20
562.6262428099386
 30
0.0
 11
882.1801725235134
 21
562.6262428099386
 31
0.0
  0
LINE
  5
5CE
330
1F
100
AcDbEntity
  8
0
100
AcDbLine
 10
937.8785336195802
 20
568.1262428099386
 30
0.0
 11
928.7690252907601
 21
568.1262428099386
 31
0.0
  0
ARC
  5
5CF
330
1F
100
AcDbEntity
  8
0
100
AcDbCircle
 10
913.8780215089125
 20
564.7788033632765
 30
0.0
 40
1.947439513995988
100
AcDbArc
 50
67.36506820134696
 51
112.634931798653
  0
ARC
  5
5D0
330
1F
100
AcDbEntity
  8
0
100
AcDbCircle
 10
913.8780215089125
 20
565.3236822566007
 30
0.0
 40
1.947439513996161
100
AcDbArc
 50
247.365068201347
 51
292.6349317986531
  0
LINE
  5
5D1
330
1F
100
AcDbEntity
  8
0
100
AcDbLine
 10
914.6275093982451
 20
563.5262428099387
 30
0.0
 11
914.6275093982451
 21
566.5762428099387
 31
0.0
  0
LINE
  5
5D2
330
1F
100
AcDbEntity
  8
图层1
100
AcDbLine
 10
913.8785336195802
 20
560.9827187823379
 30
0.0
 11
913.8785336195802
 21
569.6081271920838
 31
0.0
  0
LINE
  5
5D3
330
1F
100
AcDbEntity
  8
0
100
AcDbLine
 10
927.7449853901114
 20
567.5930707403928
 30
0.0
 11
925.2153585566848
 21
563.979318121212
 31
0.0
  0
LINE
  5
5D4
330
1F
100
AcDbEntity
  8
0
100
AcDbLine
 10
928.1546013503708
 20
567.3063395682112
 30
0.0
 11
925.6249745169442
 21
563.6925869490302
 31
0.0
  0
ARC
  5
5D5
330
1F
100
AcDbEntity
  8
0
100
AcDbCircle
 10
928.7690252907601
 20
566.8762428099386
 30
0.0
 40
0.75
100
AcDbArc
 50
119.9264348666119
 51
145.0079798014445
  0
ARC
  5
5D6
330
1F
100
AcDbEntity
  8
0
100
AcDbCircle
 10
923.5768947156467
 20
565.1262428099386
 30
0.0
 40
2.0
100
AcDbArc
 50
270.0
 51
325.0079798014446
  0
ARC
  5
5D7
330
1F
100
AcDbEntity
  8
0
100
AcDbCircle
 10
923.5768947156467
 20
565.1262428099386
 30
0.0
 40
2.5
100
AcDbArc
 50
270.0
 51
325.0079798014446
  0
LINE
  5
5D8
330
1F
100
AcDbEntity
  8
图层1
100
AcDbLine
 10
897.3785336195801
 20
560.9827187823379
 30
0.0
 11
897.3785336195801
 21
569.6081271920838
 31
0.0
  0
LINE
  5
5D9
330
1F
100
AcDbEntity
  8
0
100
AcDbLine
 10
896.6285336195801
 20
563.5262428099387
 30
0.0
 11
896.6285336195801
 21
566.5762428099387
 31
0.0
  0
LINE
  5
5DA
330
1F
100
AcDbEntity
  8
0
100
AcDbLine
 10
898.127509398245
 20
563.5262428099387
 30
0.0
 11
898.127509398245
 21
566.5762428099387
 31
0.0
  0
LINE
  5
5DB
330
1F
100
AcDbEntity
  8
图层1
100
AcDbLine
 10
902.8785336195801
 20
560.9827187823379
 30
0.0
 11
902.8785336195801
 21
569.6081271920838
 31
0.0
  0
LINE
  5
5DC
330
1F
100
AcDbEntity
  8
0
100
AcDbLine
 10
902.12853361958
 20
563.5262428099387
 30
0.0
 11
902.12853361958
 21
566.5762428099387
 31
0.0
  0
LINE
  5
5DD
330
1F
100
AcDbEntity
  8
0
100
AcDbLine
 10
903.627509398245
 20
563.5262428099387
 30
0.0
 11
903.627509398245
 21
566.5762428099387
 31
0.0
  0
LINE
  5
5DE
330
1F
100
AcDbEntity
  8
图层1
100
AcDbLine
 10
908.37853361958
 20
560.9827187823379
 30
0.0
 11
908.37853361958
 21
569.6081271920838
 31
0.0
  0
LINE
  5
5DF
330
1F
100
AcDbEntity
  8
0
100
AcDbLine
 10
907.6285336195802
 20
563.5262428099387
 30
0.0
 11
907.6285336195802
 21
566.5762428099387
 31
0.0
  0
LINE
  5
5E0
330
1F
100
AcDbEntity
  8
0
100
AcDbLine
 10
909.1275093982449
 20
563.5262428099387
 30
0.0
 11
909.1275093982449
 21
566.5762428099387
 31
0.0
  0
LINE
  5
5E1
330
1F
100
AcDbEntity
  8
0
100
AcDbLine
 10
913.1285336195801
 20
563.5262428099387
 30
0.0
 11
913.1285336195801
 21
566.5762428099387
 31
0.0
  0
ARC
  5
5E2
330
1F
100
AcDbEntity
  8
0
100
AcDbCircle
 10
908.3780215089126
 20
564.7788033632765
 30
0.0
 40
1.947439513995988
100
AcDbArc
 50
67.36506820134696
 51
112.634931798653
  0
ARC
  5
5E3
330
1F
100
AcDbEntity
  8
0
100
AcDbCircle
 10
902.8780215089126
 20
564.7788033632765
 30
0.0
 40
1.947439513995988
100
AcDbArc
 50
67.36506820134696
 51
112.634931798653
  0
ARC
  5
5E4
330
1F
100
AcDbEntity
  8
0
100
AcDbCircle
 10
897.3780215089126
 20
564.7788033632765
 30
0.0
 40
1.947439513995988
100
AcDbArc
 50
67.36506820134696
 51
112.634931798653
  0
ARC
  5
5E5
330
1F
100
AcDbEntity
  8
0
100
AcDbCircle
 10
908.3780215089126
 20
565.3236822566007
 30
0.0
 40
1.947439513996161
100
AcDbArc
 50
247.365068201347
 51
292.6349317986531
  0
ARC
  5
5E6
330
1F
100
AcDbEntity
  8
0
100
AcDbCircle
 10
902.8780215089126
 20
565.3236822566007
 30
0.0
 40
1.947439513996161
100
AcDbArc
 50
247.365068201347
 51
292.6349317986531
  0
ARC
  5
5E7
330
1F
100
AcDbEntity
  8
0
100
AcDbCircle
 10
897.3780215089126
 20
565.3236822566007
 30
0.0
 40
1.947439513996161
100
AcDbArc
 50
247.365068201347
 51
292.6349317986531
  0
LINE
  5
5E8
330
1F
100
AcDbEntity
  8
0
100
AcDbLine
 10
878.0120818490489
 20
567.5930707403928
 30
0.0
 11
880.5417086824755
 21
563.979318121212
 31
0.0
  0
LINE
  5
5E9
330
1F
100
AcDbEntity
  8
0
100
AcDbLine
 10
877.6024658887894
 20
567.3063395682112
 30
0.0
 11
880.1320927222159
 21
563.6925869490304
 31
0.0
  0
LINE
  5
5EA
330
1F
100
AcDbEntity
  8
图层1
100
AcDbLine
 10
891.8785336195801
 20
560.9827187823379
 30
0.0
 11
891.8785336195801
 21
569.6081271920838
 31
0.0
  0
LINE
  5
5EB
330
1F
100
AcDbEntity
  8
0
100
AcDbLine
 10
891.1285336195801
 20
563.5262428099387
 30
0.0
 11
891.1285336195801
 21
566.5762428099387
 31
0.0
  0
LINE
  5
5EC
330
1F
100
AcDbEntity
  8
0
100
AcDbLine
 10
892.627509398245
 20
563.5262428099387
 30
0.0
 11
892.627509398245
 21
566.5762428099387
 31
0.0
  0
ARC
  5
5ED
330
1F
100
AcDbEntity
  8
0
100
AcDbCircle
 10
891.8780215089126
 20
564.7788033632765
 30
0.0
 40
1.947439513995988
100
AcDbArc
 50
67.36506820134696
 51
112.634931798653
  0
ARC
  5
5EE
330
1F
100
AcDbEntity
  8
0
100
AcDbCircle
 10
891.8780215089126
 20
565.3236822566007
 30
0.0
 40
1.947439513996161
100
AcDbArc
 50
247.365068201347
 51
292.6349317986531
  0
ARC
  5
5EF
330
1F
100
AcDbEntity
  8
0
100
AcDbCircle
 10
882.1801725235136
 20
565.1262428099386
 30
0.0
 40
2.0
100
AcDbArc
 50
214.9920201985555
 51
270.0
  0
ARC
  5
5F0
330
1F
100
AcDbEntity
  8
0
100
AcDbCircle
 10
882.1801725235134
 20
565.1262428099386
 30
0.0
 40
2.5
100
AcDbArc
 50
214.9920201985555
 51
270.0
  0
LINE
  5
5F1
330
1F
100
AcDbEntity
  8
0
100
AcDbLine
 10
876.9880419484001
 20
568.1262428099386
 30
0.0
 11
867.8785336195801
 21
568.1262428099386
 31
0.0
  0
ARC
  5
5F2
330
1F
100
AcDbEntity
  8
0
100
AcDbCircle
 10
876.9880419484001
 20
566.8762428099386
 30
0.0
 40
0.75
100
AcDbArc
 50
34.99202019855546
 51
60.07356513338081
  0
LINE
  5
5F3
330
1F
100
AcDbEntity
  8
0
100
AcDbLine
 10
877.3622076870775
 20
567.5262428099387
 30
0.0
 11
865.8785336195801
 21
567.5262428099387
 31
0.0
  0
ARC
  5
5F4
330
1F
100
AcDbEntity
  8
0
100
AcDbCircle
 10
928.7690252907601
 20
566.8762428099386
 30
0.0
 40
1.25
100
AcDbArc
 50
90.0
 51
145.0079798014445
  0
ARC
  5
5F5
330
1F
100
AcDbEntity
  8
0
100
AcDbCircle
 10
876.9880419484001
 20
566.8762428099386
 30
0.0
 40
1.250000000000051
100
AcDbArc
 50
34.99202019855546
 51
90.0
  0
SPLINE
  5
5F6
330
1F
100
AcDbEntity
  8
图层7
100
AcDbSpline
210
0.0
220
0.0
230
1.0
 70
  1064
 71
     3
 72
    10
 73
     6
 74
     4
 42
0.000000001
 43
0.0000000001
 44
0.0000000001
 40
0.0
 40
0.0
 40
0.0
 40
0.0
 40
1.912730449103135
 40
3.434188197010599
 40
4.861393728941986
 40
4.861393728941986
 40
4.861393728941986
 40
4.861393728941986
 10
985.9379315788869
 20
568.1262428099386
 30
0.0
 10
985.2278224659025
 20
567.7276855473865
 30
0.0
 10
983.9528658532005
 20
567.0121008461909
 30
0.0
 10
985.5822115002387
 20
565.4009157212603
 30
0.0
 10
984.8653590815239
 20
564.5419820170985
 30
0.0
 10
984.518389746448
 20
564.1262428099386
 30
0.0
 11
985.9379315788869
 21
568.1262428099386
 31
0.0
 11
984.5601674046886
 21
566.7994784558719
 31
0.0
 11
985.1598321386738
 21
565.4011809605291
 31
0.0
 11
984.518389746448
 21
564.1262428099386
 31
0.0
  0
LINE
  5
803
330
1F
100
AcDbEntity
  8
0
100
AcDbLine
 10
870.0285336195802
 20
564.1262428099387
 30
0.0
 11
870.7910336195801
 21
564.1262428099386
 31
0.0
  0
LINE
  5
804
330
1F
100
AcDbEntity
  8
0
100
AcDbLine
 10
867.6285336195801
 20
564.0262428099386
 30
0.0
 11
870.1285336195802
 21
564.0262428099386
 31
0.0
  0
LINE
  5
805
330
1F
100
AcDbEntity
  8
0
100
AcDbLine
 10
1074.762821995317
 20
564.1262428099386
 30
0.0
 11
1075.737821995318
 21
564.1262428099386
 31
0.0
  0
LINE
  5
806
330
1F
100
AcDbEntity
  8
0
100
AcDbLine
 10
1072.387821995318
 20
564.0012428099386
 30
0.0
 11
1074.887821995317
 21
564.0012428099386
 31
0.0
  0
LINE
  5
807
330
1F
100
AcDbEntity
  8
0
100
AcDbLine
 10
1094.324352715258
 20
564.0262428099386
 30
0.0
 11
1112.587821995318
 21
564.0262428099386
 31
0.0
  0
DIMENSION
  5
879
102
{ACAD_XDICTIONARY
360
886
102
}
102
{ACAD_REACTORS
330
890
102
}
330
1F
100
AcDbEntity
  8
图层7
100
AcDbDimension
280
     0
  2
*D2
 10
1033.37853361958
 20
532.5519597323252
 30
0.0
 11
951.12853361958
 21
534.4269597323252
 31
0.0
 70
    32
  1
329
 71
     5
 42
164.5
 73
     0
 74
     0
 75
     0
  3
ISO-25
100
AcDbAlignedDimension
 13
868.8785336195801
 23
529.0743642822015
 33
0.0
 14
1033.37853361958
 24
527.7815802429479
 34
0.0
100
AcDbRotatedDimension
  0
DIMENSION
  5
8B5
102
{ACAD_XDICTIONARY
360
8C2
102
}
102
{ACAD_REACTORS
330
8CC
102
}
330
1F
100
AcDbEntity
  8
图层7
100
AcDbDimension
280
     0
  2
*D3
 10
1043.37853361958
 20
540.6962418034945
 30
0.0
 11
951.12853361958
 21
542.5712418034946
 31
0.0
 70
    32
  1
369
 71
     5
 42
184.5
 73
     0
 74
     0
 75
     0
  3
ISO-25
100
AcDbAlignedDimension
 13
858.8785336195801
 23
525.24104644882
 33
0.0
 14
1043.37853361958
 24
525.24104644882
 34
0.0
100
AcDbRotatedDimension
  0
DIMENSION
  5
8D6
102
{ACAD_XDICTIONARY
360
8E3
102
}
102
{ACAD_REACTORS
330
8ED
102
}
330
1F
100
AcDbEntity
  8
图层7
100
AcDbDimension
280
     0
  2
*D4
 10
1115.587821995318
 20
548.9470469642726
 30
0.0
 11
1088.912821995317
 21
550.8220469642727
 31
0.0
 70
    32
  1
107
 71
     5
 42
53.35000000000014
 73
     0
 74
     0
 75
     0
  3
ISO-25
100
AcDbAlignedDimension
 13
1062.237821995317
 23
556.1262428099386
 33
0.0
 14
1115.587821995318
 24
560.6262428099386
 34
0.0
100
AcDbRotatedDimension
  0
DIMENSION
  5
93A
102
{ACAD_XDICTIONARY
360
946
102
}
102
{ACAD_REACTORS
330
94F
102
}
330
1F
100
AcDbEntity
  8
图层7
100
AcDbDimension
280
     0
  2
*D5
 10
1027.347235059443
 20
558.1498126761951
 30
0.0
 11
1043.191637769759
 21
582.2129177907334
 31
0.0
 70
    35
  1
%%C40
 71
     5
 42
20.0
 73
     0
 74
     0
 75
     0
  3
ISO-25
100
AcDbDiametricDimension
 15
1039.409832179717
 25
574.1026729436821
 35
0.0
 40
0.0
1001
ACAD
1000
DSTYLE
1002
{
1070
   288
1070
     1
1002
}
  0
DIMENSION
  5
950
102
{ACAD_XDICTIONARY
360
95C
102
}
102
{ACAD_REACTORS
330
965
102
}
330
1F
100
AcDbEntity
  8
图层7
100
AcDbDimension
280
     0
  2
*D6
 10
875.2791879922249
 20
558.4430388166851
 30
0.0
 11
858.3179074196078
 21
581.7323729921604
 31
0.0
 70
    35
  1
%%C40
 71
     5
 42
20.00000000000017
 73
     0
 74
     0
 75
     0
  3
ISO-25
100
AcDbDiametricDimension
 15
862.4778792469362
 25
573.8094468031928
 35
0.0
 40
0.0
1001
ACAD
1000
DSTYLE
1002
{
1070
   288
1070
     1
1002
}
  0
ENDSEC
  0
SECTION
  2
OBJECTS
  0
DICTIONARY
  5
C
330
0
100
AcDbDictionary
281
     1
  3
ACAD_CIP_PREVIOUS_PRODUCT_INFO
350
B40
  3
ACAD_COLOR
350
6B
  3
ACAD_DETAILVIEWSTYLE
350
B34
  3
ACAD_GROUP
350
D
  3
ACAD_LAYOUT
350
1A
  3
ACAD_MATERIAL
350
6A
  3
ACAD_MLEADERSTYLE
350
B2F
  3
ACAD_MLINESTYLE
350
17
  3
ACAD_PLOTSETTINGS
350
19
  3
ACAD_PLOTSTYLENAME
350
E
  3
ACAD_SCALELIST
350
B1D
  3
ACAD_SECTIONVIEWSTYLE
350
B31
  3
ACAD_TABLESTYLE
350
7E
  3
ACAD_VISUALSTYLE
350
B04
  3
ACDB_RECOMPOSE_DATA
350
B67
  3
AcDbVariableDictionary
350
5E
  0
DICTIONARY
  5
808
330
2
100
AcDbDictionary
280
     1
281
     1
  3
ACAD_LAYERFILTERS
360
80A
  3
ACAD_LAYERSTATES
360
9B5
  3
ACLYDICTIONARY
360
809
  0
DICTIONARY
  5
B41
330
10
100
AcDbDictionary
280
     1
281
     1
  3
ADSK_XREC_LAYER_RECONCILED
360
B42
  0
DICTIONARY
  5
B43
330
184
100
AcDbDictionary
280
     1
281
     1
  3
ADSK_XREC_LAYER_RECONCILED
360
B44
  0
DICTIONARY
  5
B45
330
185
100
AcDbDictionary
280
     1
281
     1
  3
ADSK_XREC_LAYER_RECONCILED
360
B46
  0
DICTIONARY
  5
B47
330
186
100
AcDbDictionary
280
     1
281
     1
  3
ADSK_XREC_LAYER_RECONCILED
360
B48
  0
DICTIONARY
  5
B49
330
187
100
AcDbDictionary
280
     1
281
     1
  3
ADSK_XREC_LAYER_RECONCILED
360
B4A
  0
DICTIONARY
  5
687
330
1F
100
AcDbDictionary
280
     1
281
     1
  3
ACAD_SORTENTS
360
688
  0
DICTIONARY
  5
886
330
879
100
AcDbDictionary
280
     1
281
     1
  3
ACAD_DIMASSOC
360
890
  0
DICTIONARY
  5
8C2
330
8B5
100
AcDbDictionary
280
     1
281
     1
  3
ACAD_DIMASSOC
360
8CC
  0
DICTIONARY
  5
8E3
330
8D6
100
AcDbDictionary
280
     1
281
     1
  3
ACAD_DIMASSOC
360
8ED
  0
DICTIONARY
  5
946
330
93A
100
AcDbDictionary
280
     1
281
     1
  3
ACAD_DIMASSOC
360
94F
  0
DICTIONARY
  5
95C
330
950
100
AcDbDictionary
280
     1
281
     1
  3
ACAD_DIMASSOC
360
965
  0
XRECORD
  5
B40
102
{ACAD_REACTORS
330
C
102
}
330
C
100
AcDbXrecord
280
     1
300
ACD
300
2017
300
ACD_F_S
  0
DICTIONARY
  5
6B
102
{ACAD_REACTORS
330
C
102
}
330
C
100
AcDbDictionary
281
     1
  0
DICTIONARY
  5
B34
102
{ACAD_REACTORS
330
C
102
}
330
C
100
AcDbDictionary
281
     1
  3
Metric50
350
B35
  0
DICTIONARY
  5
D
102
{ACAD_REACTORS
330
C
102
}
330
C
100
AcDbDictionary
281
     1
  0
DICTIONARY
  5
1A
102
{ACAD_REACTORS
330
C
102
}
330
C
100
AcDbDictionary
281
     1
  3
Model
350
22
  3
布局1
350
D3
  3
布局2
350
D7
1001
AcadStringInfo
1000
MIFCodePage
1070
     5
  0
DICTIONARY
  5
6A
102
{ACAD_REACTORS
330
C
102
}
330
C
100
AcDbDictionary
281
     1
  3
ByBlock
350
AF4
  3
ByLayer
350
AEC
  3
Global
350
AFC
  0
DICTIONARY
  5
B2F
102
{ACAD_REACTORS
330
C
102
}
330
C
100
AcDbDictionary
281
     1
  3
Standard
350
B30
  0
DICTIONARY
  5
17
102
{ACAD_REACTORS
330
C
102
}
330
C
100
AcDbDictionary
281
     1
  3
Standard
350
18
  0
DICTIONARY
  5
19
102
{ACAD_REACTORS
330
C
102
}
330
C
100
AcDbDictionary
281
     1
  0
ACDBDICTIONARYWDFLT
  5
E
102
{ACAD_REACTORS
330
C
102
}
330
C
100
AcDbDictionary
281
     1
  3
Normal
350
F
100
AcDbDictionaryWithDefault
340
F
  0
DICTIONARY
  5
B1D
102
{ACAD_REACTORS
330
C
102
}
330
C
100
AcDbDictionary
281
     1
  3
A0
350
B1E
  3
A1
350
B1F
  3
A2
350
B20
  3
A3
350
B21
  3
A4
350
B22
  3
A5
350
B23
  3
A6
350
B24
  3
A7
350
B25
  3
A8
350
B26
  3
A9
350
B27
  3
B0
350
B28
  3
B1
350
B29
  3
B2
350
B2A
  3
B3
350
B2B
  3
B4
350
B2C
  3
B5
350
B2D
  3
B6
350
B2E
  0
DICTIONARY
  5
B31
102
{ACAD_REACTORS
330
C
102
}
330
C
100
AcDbDictionary
281
     1
  3
Metric50
350
B33
  0
DICTIONARY
  5
7E
102
{ACAD_REACTORS
330
C
102
}
330
C
100
AcDbDictionary
281
     1
  3
Standard
350
7F
  0
DICTIONARY
  5
B04
102
{ACAD_REACTORS
330
C
102
}
330
C
100
AcDbDictionary
281
     1
  3
2dWireframe
350
B0A
  3
Basic
350
B09
  3
Brighten
350
B10
  3
ColorChange
350
B14
  3
Conceptual
350
B0D
  3
Dim
350
B0F
  3
EdgeColorOff
350
B1C
  3
Facepattern
350
B13
  3
Flat
350
B05
  3
FlatWithEdges
350
B06
  3
Gouraud
350
B07
  3
GouraudWithEdges
350
B08
  3
Hidden
350
B0C
  3
JitterOff
350
B1A
  3
Linepattern
350
B12
  3
OverhangOff
350
B1B
  3
Realistic
350
B0E
  3
Shaded
350
B19
  3
Shaded with edges
350
B18
  3
Shades of Gray
350
B15
  3
Sketchy
350
B16
  3
Thicken
350
B11
  3
Wireframe
350
B0B
  3
X-Ray
350
B17
  0
XRECORD
  5
B67
102
{ACAD_REACTORS
330
C
102
}
330
C
100
AcDbXrecord
280
     1
 90
        1
330
7F
330
B33
330
B35
  0
DICTIONARY
  5
5E
102
{ACAD_REACTORS
330
C
102
}
330
C
100
AcDbDictionary
281
     1
  3
CANNOSCALE
350
B5D
  3
CMLEADERSTYLE
350
B59
  3
CTABLESTYLE
350
84
  3
CVIEWDETAILSTYLE
350
B5A
  3
CVIEWSECTIONSTYLE
350
B5B
  3
DIMASSOC
350
5F
  3
HIDETEXT
350
63
  3
LAYEREVAL
350
B5F
  3
LAYERNOTIFY
350
B60
  3
LIGHTINGUNITS
350
B5E
  3
MSLTSCALE
350
B5C
  3
PROJECTNAME
350
921
  0
DICTIONARY
  5
80A
102
{ACAD_REACTORS
330
808
102
}
330
808
100
AcDbDictionary
281
     1
  0
DICTIONARY
  5
9B5
102
{ACAD_REACTORS
330
808
102
}
330
808
100
AcDbDictionary
281
     1
  0
DICTIONARY
  5
809
102
{ACAD_REACTORS
330
808
102
}
330
808
100
AcDbDictionary
281
     1
1001
ACAD
1000
<All
  0
XRECORD
  5
B42
102
{ACAD_REACTORS
330
B41
102
}
330
B41
100
AcDbXrecord
280
     1
290
     1
  0
XRECORD
  5
B44
102
{ACAD_REACTORS
330
B43
102
}
330
B43
100
AcDbXrecord
280
     1
290
     1
  0
XRECORD
  5
B46
102
{ACAD_REACTORS
330
B45
102
}
330
B45
100
AcDbXrecord
280
     1
290
     1
  0
XRECORD
  5
B48
102
{ACAD_REACTORS
330
B47
102
}
330
B47
100
AcDbXrecord
280
     1
290
     1
  0
XRECORD
  5
B4A
102
{ACAD_REACTORS
330
B49
102
}
330
B49
100
AcDbXrecord
280
     1
290
     1
  0
SORTENTSTABLE
  5
688
102
{ACAD_REACTORS
330
687
102
}
330
687
100
AcDbSortentsTable
330
1F
331
4A7
  5
4A9
331
4E6
  5
4E8
331
4A3
  5
4A4
331
4E2
  5
4E4
331
59F
  5
5A2
331
5DE
  5
5E1
331
49F
  5
4A0
331
4DE
  5
4E0
331
49B
  5
49C
331
4DA
  5
4DC
331
59B
  5
59E
331
5DA
  5
5DD
331
597
  5
59A
331
5D6
  5
5D9
331
46E
  5
46F
331
42F
  5
430
331
593
  5
596
331
5D2
  5
5D5
331
42B
  5
42C
331
46A
  5
46B
331
427
  5
428
331
466
  5
467
331
423
  5
424
331
462
  5
463
331
566
  5
569
331
527
  5
52A
331
807
  5
50C
331
803
  5
3D9
331
562
  5
565
331
523
  5
526
331
51F
  5
522
331
55E
  5
561
331
55A
  5
55D
331
3F7
  5
3F8
331
3F3
  5
3F4
331
3EF
  5
3F0
331
3EB
  5
3EC
331
4D7
  5
4D9
331
4D3
  5
4D5
331
5CF
  5
5D2
331
4CF
  5
4D1
331
50A
  5
50D
331
4CB
  5
4CD
331
5CB
  5
5CE
331
5C7
  5
5CA
331
45F
  5
460
331
5C3
  5
5C6
331
45B
  5
45C
331
496
  5
497
331
457
  5
458
331
492
  5
493
331
453
  5
454
331
557
  5
55A
331
553
  5
556
331
58E
  5
591
331
54F
  5
552
331
58A
  5
58D
331
54B
  5
54E
331
3E4
  5
3E5
331
3E0
  5
3E1
331
3DC
  5
3DD
331
41F
  5
420
331
3D8
  5
3D8
331
41B
  5
41C
331
506
  5
508
331
4C7
  5
4C9
331
502
  5
504
331
4C3
  5
4C5
331
4FE
  5
500
331
5BF
  5
5C2
331
4BF
  5
4C1
331
4FA
  5
4FC
331
4BB
  5
4BD
331
5BB
  5
5BE
331
5B7
  5
5BA
331
5F6
  5
5FB
331
48E
  5
48F
331
44F
  5
450
331
5B3
  5
5B6
331
5F2
  5
5F5
331
48A
  5
48B
331
44B
  5
44C
331
486
  5
487
331
447
  5
448
331
443
  5
444
331
482
  5
483
331
547
  5
54A
331
586
  5
589
331
543
  5
546
331
582
  5
585
331
57E
  5
581
331
53F
  5
542
331
57A
  5
57D
331
53B
  5
53E
331
3D4
  5
3D4
331
417
  5
418
331
3D0
  5
3D0
331
413
  5
414
331
3CC
  5
3CC
331
40F
  5
410
331
3C8
  5
3C8
331
40B
  5
40C
331
4B4
  5
4B6
331
4F7
  5
4F9
331
4B0
  5
4B2
331
4F3
  5
4F5
331
4AC
  5
4AE
331
5AC
  5
5AF
331
5EF
  5
5F2
331
5A8
  5
5AB
331
4EF
  5
4F1
331
4A8
  5
4AA
331
4EB
  5
4ED
331
5EB
  5
5EE
331
5A4
  5
5A7
331
5E7
  5
5EA
331
5A0
  5
5A3
331
43C
  5
43D
331
5E3
  5
5E6
331
47F
  5
480
331
438
  5
439
331
47B
  5
47C
331
434
  5
435
331
477
  5
478
331
430
  5
431
331
473
  5
474
331
534
  5
537
331
577
  5
57A
331
573
  5
576
331
56F
  5
572
331
528
  5
52B
331
56B
  5
56E
331
404
  5
405
331
400
  5
401
331
3FC
  5
3FD
331
3F8
  5
3F9
331
4A4
  5
4A6
331
4E7
  5
4E9
331
4A0
  5
4A1
331
4E3
  5
4E5
331
49C
  5
49D
331
59C
  5
59F
331
5DF
  5
5E2
331
598
  5
59B
331
4DF
  5
4E1
331
498
  5
499
331
4DB
  5
4DD
331
5DB
  5
5DE
331
594
  5
597
331
5D7
  5
5DA
331
590
  5
593
331
42C
  5
42D
331
46F
  5
470
331
428
  5
429
331
5D3
  5
5D6
331
46B
  5
46C
331
424
  5
425
331
467
  5
468
331
420
  5
421
331
804
  5
806
331
463
  5
464
331
524
  5
527
331
567
  5
56A
331
520
  5
523
331
563
  5
566
331
51C
  5
51F
331
55F
  5
562
331
55B
  5
55E
331
3F4
  5
3F5
331
3F0
  5
3F1
331
3EC
  5
3ED
331
3E8
  5
3E9
331
4D4
  5
4D6
331
4D0
  5
4D2
331
4CC
  5
4CE
331
5CC
  5
5CF
331
4C8
  5
4CA
331
5C8
  5
5CB
331
5C4
  5
5C7
331
50B
  5
50E
331
5C0
  5
5C3
331
45C
  5
45D
331
458
  5
459
331
454
  5
455
331
497
  5
498
331
450
  5
451
331
493
  5
494
331
554
  5
557
331
550
  5
553
331
54C
  5
54F
331
58F
  5
592
331
548
  5
54B
331
58B
  5
58E
331
3E5
  5
3E6
331
3E1
  5
3E2
331
41C
  5
41D
331
3DD
  5
3DE
331
418
  5
419
331
3D9
  5
3DA
331
4C4
  5
4C6
331
507
  5
509
331
4C0
  5
4C2
331
503
  5
505
331
4BC
  5
4BE
331
5BC
  5
5BF
331
5B8
  5
5BB
331
4FF
  5
501
331
4B8
  5
4BA
331
4FB
  5
4FD
331
5B4
  5
5B7
331
5B0
  5
5B3
331
44C
  5
44D
331
5F3
  5
5F6
331
48F
  5
490
331
448
  5
449
331
48B
  5
48C
331
444
  5
445
331
487
  5
488
331
440
  5
441
331
483
  5
484
331
544
  5
547
331
587
  5
58A
331
540
  5
543
331
583
  5
586
331
53C
  5
53F
331
57F
  5
582
331
538
  5
53B
331
57B
  5
57E
331
414
  5
415
331
3D5
  5
3D5
331
410
  5
411
331
3D1
  5
3D1
331
40C
  5
40D
331
3CD
  5
3CD
331
408
  5
409
331
3C9
  5
3C9
331
4B5
  5
4B7
331
4F4
  5
4F6
331
4B1
  5
4B3
331
4F0
  5
4F2
331
4EC
  5
4EE
331
4AD
  5
4AF
331
5EC
  5
5EF
331
5AD
  5
5B0
331
4A9
  5
4AB
331
4E8
  5
4EA
331
5E8
  5
5EB
331
5A9
  5
5AC
331
5E4
  5
5E7
331
5A5
  5
5A8
331
5E0
  5
5E3
331
43D
  5
43E
331
47C
  5
47D
331
5A1
  5
5A4
331
478
  5
479
331
439
  5
43A
331
474
  5
475
331
435
  5
436
331
470
  5
471
331
431
  5
432
331
535
  5
538
331
574
  5
577
331
531
  5
534
331
570
  5
573
331
56C
  5
56F
331
568
  5
56B
331
529
  5
52C
331
405
  5
406
331
401
  5
402
331
3FD
  5
3FE
331
3F9
  5
3FA
331
4A5
  5
4A7
331
4E4
  5
4E6
331
4A1
  5
4A2
331
4E0
  5
4E2
331
49D
  5
49E
331
4DC
  5
4DE
331
59D
  5
5A0
331
5DC
  5
5DF
331
499
  5
49A
331
4D8
  5
4DA
331
599
  5
59C
331
5D8
  5
5DB
331
595
  5
598
331
5D4
  5
5D7
331
46C
  5
46D
331
42D
  5
42E
331
591
  5
594
331
5D0
  5
5D3
331
429
  5
42A
331
468
  5
469
331
425
  5
426
331
464
  5
465
331
421
  5
422
331
460
  5
461
331
805
  5
4A5
331
564
  5
567
331
525
  5
528
331
560
  5
563
331
521
  5
524
331
51D
  5
520
331
55C
  5
55F
331
558
  5
55B
331
3F5
  5
3F6
331
3F1
  5
3F2
331
3ED
  5
3EE
331
3E9
  5
3EA
331
4D5
  5
4D7
331
4D1
  5
4D3
331
4CD
  5
4CF
331
5CD
  5
5D0
331
508
  5
50A
331
4C9
  5
4CB
331
5C9
  5
5CC
331
5C5
  5
5C8
331
45D
  5
45E
331
5C1
  5
5C4
331
459
  5
45A
331
494
  5
495
331
455
  5
456
331
490
  5
491
331
451
  5
452
331
555
  5
558
331
551
  5
554
331
58C
  5
58F
331
54D
  5
550
331
588
  5
58B
331
549
  5
54C
331
3E6
  5
3E7
331
3E2
  5
3E3
331
41D
  5
41E
331
3DE
  5
3DF
331
419
  5
41A
331
3DA
  5
3DB
331
504
  5
506
331
4C5
  5
4C7
331
500
  5
502
331
4C1
  5
4C3
331
4FC
  5
4FE
331
4BD
  5
4BF
331
5BD
  5
5C0
331
4B9
  5
4BB
331
4F8
  5
4FA
331
5B9
  5
5BC
331
5B5
  5
5B8
331
5F4
  5
5F9
331
48C
  5
48D
331
44D
  5
44E
331
5B1
  5
5B4
331
5F0
  5
5F3
331
488
  5
489
331
449
  5
44A
331
445
  5
446
331
484
  5
485
331
441
  5
442
331
480
  5
481
331
545
  5
548
331
584
  5
587
331
541
  5
544
331
580
  5
583
331
57C
  5
57F
331
53D
  5
540
331
539
  5
53C
331
578
  5
57B
331
3D6
  5
3D6
331
415
  5
416
331
3D2
  5
3D2
331
411
  5
412
331
3CE
  5
3CE
331
40D
  5
40E
331
409
  5
40A
331
3CA
  5
3CA
331
4B6
  5
4B8
331
4F5
  5
4F7
331
4B2
  5
4B4
331
4F1
  5
4F3
331
4AE
  5
4B0
331
4ED
  5
4EF
331
5ED
  5
5F0
331
5AE
  5
5B1
331
4AA
  5
4AC
331
4E9
  5
4EB
331
5E9
  5
5EC
331
5AA
  5
5AD
331
5A6
  5
5A9
331
5E5
  5
5E8
331
47D
  5
47E
331
43E
  5
43F
331
5A2
  5
5A5
331
5E1
  5
5E4
331
43A
  5
43B
331
479
  5
47A
331
436
  5
437
331
475
  5
476
331
432
  5
433
331
471
  5
472
331
575
  5
578
331
536
  5
539
331
571
  5
574
331
532
  5
535
331
56D
  5
570
331
52A
  5
52D
331
569
  5
56C
331
3C7
  5
3C7
331
406
  5
407
331
402
  5
403
331
3FE
  5
3FF
331
3FA
  5
3FB
331
4A6
  5
4A8
331
4E5
  5
4E7
331
4A2
  5
4A3
331
4E1
  5
4E3
331
49E
  5
49F
331
4DD
  5
4DF
331
59E
  5
5A1
331
5DD
  5
5E0
331
49A
  5
49B
331
4D9
  5
4DB
331
5D9
  5
5DC
331
59A
  5
59D
331
5D5
  5
5D8
331
596
  5
599
331
5D1
  5
5D4
331
42E
  5
42F
331
46D
  5
46E
331
592
  5
595
331
42A
  5
42B
331
469
  5
46A
331
465
  5
466
331
426
  5
427
331
461
  5
462
331
422
  5
423
331
806
  5
807
331
526
  5
529
331
565
  5
568
331
522
  5
525
331
561
  5
564
331
51E
  5
521
331
55D
  5
560
331
559
  5
55C
331
3F6
  5
3F7
331
3F2
  5
3F3
331
3EE
  5
3EF
331
3EA
  5
3EB
331
4D6
  5
4D8
331
4D2
  5
4D4
331
5CE
  5
5D1
331
4CE
  5
4D0
331
509
  5
50B
331
4CA
  5
4CC
331
5CA
  5
5CD
331
5C6
  5
5C9
331
45E
  5
45F
331
5C2
  5
5C5
331
45A
  5
45B
331
495
  5
496
331
456
  5
457
331
491
  5
492
331
452
  5
453
331
556
  5
559
331
552
  5
555
331
58D
  5
590
331
54E
  5
551
331
54A
  5
54D
331
589
  5
58C
331
3E7
  5
3E8
331
3E3
  5
3E4
331
41E
  5
41F
331
3DF
  5
3E0
331
41A
  5
41B
331
3DB
  5
3DC
331
4C6
  5
4C8
331
505
  5
507
331
4C2
  5
4C4
331
501
  5
503
331
4FD
  5
4FF
331
5BE
  5
5C1
331
4BE
  5
4C0
331
4F9
  5
4FB
331
4BA
  5
4BC
331
5BA
  5
5BD
331
5F5
  5
5FA
331
5B6
  5
5B9
331
5F1
  5
5F4
331
44E
  5
44F
331
48D
  5
48E
331
5B2
  5
5B5
331
489
  5
48A
331
44A
  5
44B
331
485
  5
486
331
446
  5
447
331
481
  5
482
331
442
  5
443
331
585
  5
588
331
546
  5
549
331
542
  5
545
331
581
  5
584
331
57D
  5
580
331
53E
  5
541
331
579
  5
57C
331
53A
  5
53D
331
416
  5
417
331
3D7
  5
3D7
331
412
  5
413
331
3D3
  5
3D3
331
40E
  5
40F
331
3CF
  5
3CF
331
40A
  5
40B
331
3CB
  5
3CB
331
4B7
  5
4B9
331
4F6
  5
4F8
331
4B3
  5
4B5
331
4F2
  5
4F4
331
5AF
  5
5B2
331
5EE
  5
5F1
331
4AF
  5
4B1
331
4EE
  5
4F0
331
4AB
  5
4AD
331
4EA
  5
4EC
331
5EA
  5
5ED
331
5AB
  5
5AE
331
5E6
  5
5E9
331
5A7
  5
5AA
331
5E2
  5
5E5
331
43F
  5
440
331
47E
  5
47F
331
5A3
  5
5A6
331
43B
  5
43C
331
47A
  5
47B
331
476
  5
477
331
437
  5
438
331
472
  5
473
331
433
  5
434
331
537
  5
53A
331
576
  5
579
331
533
  5
536
331
572
  5
575
331
56E
  5
571
331
56A
  5
56D
331
407
  5
408
331
403
  5
404
331
3FF
  5
400
331
3FB
  5
3FC
  0
DIMASSOC
  5
890
102
{ACAD_REACTORS
330
886
102
}
330
886
100
AcDbDimAssoc
330
879
 90
        3
 70
     0
 71
     0
  1
AcDbOsnapPointRef
 72
     1
331
414
 73
     2
 91
        0
 40
1.0
 10
0.0
 20
0.0
 30
2.000000000000000E+50
 75
     0
  1
AcDbOsnapPointRef
 72
    13
331
474
 73
     2
 91
        0
 40
0.0
 10
0.0
 20
0.0
 30
2.000000000000000E+50
 75
     0
  0
DIMASSOC
  5
8CC
102
{ACAD_REACTORS
330
8C2
102
}
330
8C2
100
AcDbDimAssoc
330
8B5
 90
        3
 70
     0
 71
     0
  1
AcDbOsnapPointRef
 72
    13
331
426
 73
     2
 91
        0
 40
0.0
 10
0.0
 20
0.0
 30
2.000000000000000E+50
 75
     0
  1
AcDbOsnapPointRef
 72
    13
331
454
 73
     2
 91
        0
 40
0.0
 10
0.0
 20
0.0
 30
2.000000000000000E+50
 75
     0
  0
DIMASSOC
  5
8ED
102
{ACAD_REACTORS
330
8E3
102
}
330
8E3
100
AcDbDimAssoc
330
8D6
 90
        3
 70
     0
 71
     0
  1
AcDbOsnapPointRef
 72
    13
331
4AF
 73
     2
 91
        0
 40
0.0
 10
0.0
 20
0.0
 30
2.000000000000000E+50
 75
     0
  1
AcDbOsnapPointRef
 72
     1
331
4C5
 73
     2
 91
        0
 40
1.0
 10
0.0
 20
0.0
 30
2.000000000000000E+50
 75
     0
  0
DIMASSOC
  5
94F
102
{ACAD_REACTORS
330
946
102
}
330
946
100
AcDbDimAssoc
330
93A
 90
        2
 70
     0
 71
     0
  1
AcDbOsnapPointRef
 72
     3
331
3CC
 73
     2
 91
        0
 40
0.0
 10
0.0
 20
0.0
 30
0.0
 75
     0
  0
DIMASSOC
  5
965
102
{ACAD_REACTORS
330
95C
102
}
330
95C
100
AcDbDimAssoc
330
950
 90
        2
 70
     0
 71
     0
  1
AcDbOsnapPointRef
 72
     3
331
3CB
 73
     2
 91
        0
 40
0.0
 10
0.0
 20
0.0
 30
0.0
 75
     0
  0
ACDBDETAILVIEWSTYLE
  5
B35
102
{ACAD_XDICTIONARY
360
B65
102
}
102
{ACAD_REACTORS
330
B34
102
}
330
B34
100
AcDbModelDocViewStyle
 70
     0
  3
Metric50
290
     0
100
AcDbDetailViewStyle
 70
     0
 71
     0
 90
        3
 71
     1
340
11
 62
   256
 40
5.0
340
0
 62
   256
 40
5.0
300

 40
0.0
280
     1
 71
     2
340
16
 90
       25
 62
   256
 71
     3
340
11
 62
   256
 40
5.0
 90
        0
 40
15.0
 90
        1
300
%<\AcVar ViewDetailId>% (%<\AcVar ViewScale \f "%sn">%)
 71
     4
340
16
 90
       25
 62
   256
340
16
 90
       25
 62
   256
280
     0
  0
LAYOUT
  5
22
102
{ACAD_REACTORS
330
1A
102
}
330
1A
100
AcDbPlotSettings
  1

  2
none_device
  4
ISO_A4_(210.00_x_297.00_MM)
  6

 40
7.5
 41
20.0
 42
7.5
 43
20.0
 44
210.0
 45
297.0
 46
11.54999923706054
 47
-13.65000009536743
 48
0.0
 49
0.0
140
0.0
141
0.0
142
1.0
143
8.704084754739808
 70
 11952
 72
     1
 73
     0
 74
     0
  7

 75
     0
147
0.1148885871608098
 76
     0
 77
     2
 78
   300
148
0.0
149
0.0
100
AcDbLayout
  1
Model
 70
     1
 71
     0
 10
0.0
 20
0.0
 11
12.0
 21
9.0
 12
0.0
 22
0.0
 32
0.0
 14
0.0
 24
0.0
 34
0.0
 15
0.0
 25
0.0
 35
0.0
146
0.0
 13
0.0
 23
0.0
 33
0.0
 16
1.0
 26
0.0
 36
0.0
 17
0.0
 27
1.0
 37
0.0
 76
     0
330
1F
331
AEA
1001
ACAD_PSEXT
1000
None
1000
None
1000
Not applicable
1000
The layout will not be plotted unless a new plotter configuration name is selected.
1070
     0
  0
LAYOUT
  5
D3
102
{ACAD_REACTORS
330
1A
102
}
330
1A
100
AcDbPlotSettings
  1

  2
C:\Documents and Settings\basas\Application Data\Autodesk\AutoCAD 2005\R16.1\enu\plotters\Default Windows System Printer.pc3
  4

  6

 40
0.0
 41
0.0
 42
0.0
 43
0.0
 44
0.0
 45
0.0
 46
0.0
 47
0.0
 48
0.0
 49
0.0
140
0.0
141
0.0
142
1.0
143
1.0
 70
   688
 72
     0
 73
     0
 74
     5
  7

 75
    16
147
1.0
 76
     0
 77
     2
 78
   300
148
0.0
149
0.0
100
AcDbLayout
  1
布局1
 70
     1
 71
     1
 10
0.0
 20
0.0
 11
12.0
 21
9.0
 12
0.0
 22
0.0
 32
0.0
 14
0.0
 24
0.0
 34
0.0
 15
0.0
 25
0.0
 35
0.0
146
0.0
 13
0.0
 23
0.0
 33
0.0
 16
1.0
 26
0.0
 36
0.0
 17
0.0
 27
1.0
 37
0.0
 76
     0
330
D2
1001
AcadStringInfo
1000
MIFCodePage
1070
     5
  0
LAYOUT
  5
D7
102
{ACAD_REACTORS
330
1A
102
}
330
1A
100
AcDbPlotSettings
  1

  2
C:\Documents and Settings\basas\Application Data\Autodesk\AutoCAD 2005\R16.1\enu\plotters\Default Windows System Printer.pc3
  4

  6

 40
0.0
 41
0.0
 42
0.0
 43
0.0
 44
0.0
 45
0.0
 46
0.0
 47
0.0
 48
0.0
 49
0.0
140
0.0
141
0.0
142
1.0
143
1.0
 70
   688
 72
     0
 73
     0
 74
     5
  7

 75
    16
147
1.0
 76
     0
 77
     2
 78
   300
148
0.0
149
0.0
100
AcDbLayout
  1
布局2
 70
     1
 71
     2
 10
0.0
 20
0.0
 11
12.0
 21
9.0
 12
0.0
 22
0.0
 32
0.0
 14
0.0
 24
0.0
 34
0.0
 15
0.0
 25
0.0
 35
0.0
146
0.0
 13
0.0
 23
0.0
 33
0.0
 16
1.0
 26
0.0
 36
0.0
 17
0.0
 27
1.0
 37
0.0
 76
     0
330
D6
1001
AcadStringInfo
1000
MIFCodePage
1070
     5
  0
MATERIAL
  5
AF4
102
{ACAD_XDICTIONARY
360
AF5
102
}
102
{ACAD_REACTORS
330
6A
102
}
330
6A
100
AcDbMaterial
  1
ByBlock
 72
     0
 43
0.0008202099737533
 43
0.0
 43
0.0
 43
0.0
 43
0.0
 43
0.0008202099737533
 43
0.0
 43
0.0
 43
0.0
 43
0.0
 43
1.0
 43
0.0
 43
0.0
 43
0.0
 43
0.0
 43
1.0
 77
     0
 47
0.0008202099737533
 47
0.0
 47
0.0
 47
0.0
 47
0.0
 47
0.0008202099737533
 47
0.0
 47
0.0
 47
0.0
 47
0.0
 47
1.0
 47
0.0
 47
0.0
 47
0.0
 47
0.0
 47
1.0
171
     0
 49
0.0008202099737533
 49
0.0
 49
0.0
 49
0.0
 49
0.0
 49
0.0008202099737533
 49
0.0
 49
0.0
 49
0.0
 49
0.0
 49
1.0
 49
0.0
 49
0.0
 49
0.0
 49
0.0
 49
1.0
175
     0
142
0.0008202099737533
142
0.0
142
0.0
142
0.0
142
0.0
142
0.0008202099737533
142
0.0
142
0.0
142
0.0
142
0.0
142
1.0
142
0.0
142
0.0
142
0.0
142
0.0
142
1.0
179
     0
144
0.0008202099737533
144
0.0
144
0.0
144
0.0
144
0.0
144
0.0008202099737533
144
0.0
144
0.0
144
0.0
144
0.0
144
1.0
144
0.0
144
0.0
144
0.0
144
0.0
144
1.0
147
0.0008202099737533
147
0.0
147
0.0
147
0.0
147
0.0
147
0.0008202099737533
147
0.0
147
0.0
147
0.0
147
0.0
147
1.0
147
0.0
147
0.0
147
0.0
147
0.0
147
1.0
  0
MATERIAL
  5
AEC
102
{ACAD_XDICTIONARY
360
AED
102
}
102
{ACAD_REACTORS
330
6A
102
}
330
6A
100
AcDbMaterial
  1
ByLayer
 72
     0
 43
0.0008202099737533
 43
0.0
 43
0.0
 43
0.0
 43
0.0
 43
0.0008202099737533
 43
0.0
 43
0.0
 43
0.0
 43
0.0
 43
1.0
 43
0.0
 43
0.0
 43
0.0
 43
0.0
 43
1.0
 77
     0
 47
0.0008202099737533
 47
0.0
 47
0.0
 47
0.0
 47
0.0
 47
0.0008202099737533
 47
0.0
 47
0.0
 47
0.0
 47
0.0
 47
1.0
 47
0.0
 47
0.0
 47
0.0
 47
0.0
 47
1.0
171
     0
 49
0.0008202099737533
 49
0.0
 49
0.0
 49
0.0
 49
0.0
 49
0.0008202099737533
 49
0.0
 49
0.0
 49
0.0
 49
0.0
 49
1.0
 49
0.0
 49
0.0
 49
0.0
 49
0.0
 49
1.0
175
     0
142
0.0008202099737533
142
0.0
142
0.0
142
0.0
142
0.0
142
0.0008202099737533
142
0.0
142
0.0
142
0.0
142
0.0
142
1.0
142
0.0
142
0.0
142
0.0
142
0.0
142
1.0
179
     0
144
0.0008202099737533
144
0.0
144
0.0
144
0.0
144
0.0
144
0.0008202099737533
144
0.0
144
0.0
144
0.0
144
0.0
144
1.0
144
0.0
144
0.0
144
0.0
144
0.0
144
1.0
147
0.0008202099737533
147
0.0
147
0.0
147
0.0
147
0.0
147
0.0008202099737533
147
0.0
147
0.0
147
0.0
147
0.0
147
1.0
147
0.0
147
0.0
147
0.0
147
0.0
147
1.0
  0
MATERIAL
  5
AFC
102
{ACAD_XDICTIONARY
360
AFD
102
}
102
{ACAD_REACTORS
330
6A
102
}
330
6A
100
AcDbMaterial
  1
Global
 72
     0
 43
0.0008202099737533
 43
0.0
 43
0.0
 43
0.0
 43
0.0
 43
0.0008202099737533
 43
0.0
 43
0.0
 43
0.0
 43
0.0
 43
1.0
 43
0.0
 43
0.0
 43
0.0
 43
0.0
 43
1.0
 77
     0
 47
0.0008202099737533
 47
0.0
 47
0.0
 47
0.0
 47
0.0
 47
0.0008202099737533
 47
0.0
 47
0.0
 47
0.0
 47
0.0
 47
1.0
 47
0.0
 47
0.0
 47
0.0
 47
0.0
 47
1.0
171
     0
 49
0.0008202099737533
 49
0.0
 49
0.0
 49
0.0
 49
0.0
 49
0.0008202099737533
 49
0.0
 49
0.0
 49
0.0
 49
0.0
 49
1.0
 49
0.0
 49
0.0
 49
0.0
 49
0.0
 49
1.0
175
     0
142
0.0008202099737533
142
0.0
142
0.0
142
0.0
142
0.0
142
0.0008202099737533
142
0.0
142
0.0
142
0.0
142
0.0
142
1.0
142
0.0
142
0.0
142
0.0
142
0.0
142
1.0
179
     0
144
0.0008202099737533
144
0.0
144
0.0
144
0.0
144
0.0
144
0.0008202099737533
144
0.0
144
0.0
144
0.0
144
0.0
144
1.0
144
0.0
144
0.0
144
0.0
144
0.0
144
1.0
147
0.0008202099737533
147
0.0
147
0.0
147
0.0
147
0.0
147
0.0008202099737533
147
0.0
147
0.0
147
0.0
147
0.0
147
1.0
147
0.0
147
0.0
147
0.0
147
0.0
147
1.0
  0
MLEADERSTYLE
  5
B30
102
{ACAD_REACTORS
330
B2F
102
}
330
B2F
100
AcDbMLeaderStyle
179
     2
170
     2
171
     1
172
     0
 90
        2
 40
0.0
 41
0.0
173
     1
 91
-1056964608
340
14
 92
       -2
290
     1
 42
2.0
291
     1
 43
0.36
  3
Standard
 44
4.0
300

342
11
174
     1
178
     6
175
     1
176
     0
 93
-1056964608
 45
4.0
292
     0
297
     0
 46
4.0
 94
-1056964608
 47
1.0
 49
1.0
140
1.0
293
     1
141
0.0
294
     1
177
     0
142
1.0
295
     1
296
     0
143
0.125
271
     0
272
     9
273
     9
298
     1
  0
MLINESTYLE
  5
18
102
{ACAD_REACTORS
330
17
102
}
330
17
100
AcDbMlineStyle
  2
STANDARD
 70
     0
  3

 62
   256
 51
90.0
 52
90.0
 71
     2
 49
0.5
 62
   256
  6
BYLAYER
 49
-0.5
 62
   256
  6
BYLAYER
  0
ACDBPLACEHOLDER
  5
F
102
{ACAD_REACTORS
330
E
102
}
330
E
  0
SCALE
  5
B1E
102
{ACAD_REACTORS
330
B1D
102
}
330
B1D
100
AcDbScale
 70
     0
300
1:1
140
1.0
141
1.0
290
     1
  0
SCALE
  5
B1F
102
{ACAD_REACTORS
330
B1D
102
}
330
B1D
100
AcDbScale
 70
     0
300
1:2
140
1.0
141
2.0
290
     0
  0
SCALE
  5
B20
102
{ACAD_REACTORS
330
B1D
102
}
330
B1D
100
AcDbScale
 70
     0
300
1:4
140
1.0
141
4.0
290
     0
  0
SCALE
  5
B21
102
{ACAD_REACTORS
330
B1D
102
}
330
B1D
100
AcDbScale
 70
     0
300
1:5
140
1.0
141
5.0
290
     0
  0
SCALE
  5
B22
102
{ACAD_REACTORS
330
B1D
102
}
330
B1D
100
AcDbScale
 70
     0
300
1:8
140
1.0
141
8.0
290
     0
  0
SCALE
  5
B23
102
{ACAD_REACTORS
330
B1D
102
}
330
B1D
100
AcDbScale
 70
     0
300
1:10
140
1.0
141
10.0
290
     0
  0
SCALE
  5
B24
102
{ACAD_REACTORS
330
B1D
102
}
330
B1D
100
AcDbScale
 70
     0
300
1:16
140
1.0
141
16.0
290
     0
  0
SCALE
  5
B25
102
{ACAD_REACTORS
330
B1D
102
}
330
B1D
100
AcDbScale
 70
     0
300
1:20
140
1.0
141
20.0
290
     0
  0
SCALE
  5
B26
102
{ACAD_REACTORS
330
B1D
102
}
330
B1D
100
AcDbScale
 70
     0
300
1:30
140
1.0
141
30.0
290
     0
  0
SCALE
  5
B27
102
{ACAD_REACTORS
330
B1D
102
}
330
B1D
100
AcDbScale
 70
     0
300
1:40
140
1.0
141
40.0
290
     0
  0
SCALE
  5
B28
102
{ACAD_REACTORS
330
B1D
102
}
330
B1D
100
AcDbScale
 70
     0
300
1:50
140
1.0
141
50.0
290
     0
  0
SCALE
  5
B29
102
{ACAD_REACTORS
330
B1D
102
}
330
B1D
100
AcDbScale
 70
     0
300
1:100
140
1.0
141
100.0
290
     0
  0
SCALE
  5
B2A
102
{ACAD_REACTORS
330
B1D
102
}
330
B1D
100
AcDbScale
 70
     0
300
2:1
140
2.0
141
1.0
290
     0
  0
SCALE
  5
B2B
102
{ACAD_REACTORS
330
B1D
102
}
330
B1D
100
AcDbScale
 70
     0
300
4:1
140
4.0
141
1.0
290
     0
  0
SCALE
  5
B2C
102
{ACAD_REACTORS
330
B1D
102
}
330
B1D
100
AcDbScale
 70
     0
300
8:1
140
8.0
141
1.0
290
     0
  0
SCALE
  5
B2D
102
{ACAD_REACTORS
330
B1D
102
}
330
B1D
100
AcDbScale
 70
     0
300
10:1
140
10.0
141
1.0
290
     0
  0
SCALE
  5
B2E
102
{ACAD_REACTORS
330
B1D
102
}
330
B1D
100
AcDbScale
 70
     0
300
100:1
140
100.0
141
1.0
290
     0
  0
ACDBSECTIONVIEWSTYLE
  5
B33
102
{ACAD_XDICTIONARY
360
B63
102
}
102
{ACAD_REACTORS
330
B31
102
}
330
B31
100
AcDbModelDocViewStyle
 70
     0
  3
Metric50
290
     0
100
AcDbSectionViewStyle
 70
     0
 71
     0
 90
      102
 71
     1
340
11
 62
   256
 40
5.0
340
0
340
0
 62
   256
 40
5.0
300
I, O, Q, S, X, Z
 40
10.0
 90
        0
 40
2.5
 90
        0
 71
     2
340
16
 90
       25
 62
   256
340
16
 90
       50
 62
   256
 40
5.0
 40
2.5
 40
5.0
 71
     3
340
11
 62
   256
 40
5.0
 90
        0
 40
15.0
 90
        1
300
%<\AcVar ViewSectionStartId>%-%<\AcVar ViewSectionEndId>% (%<\AcVar ViewScale \f "%sn">%)
 71
     4
 62
   256
 62
   257
300
ANSI31
 40
1.0
 90
        0
290
     0
290
     0
 90
        6
 40
0.0
 40
1.570796326794896
 40
0.2617993877991494
 40
1.308996938995747
 40
-0.2617993877991494
 40
1.832595714594046
  0
TABLESTYLE
  5
7F
102
{ACAD_XDICTIONARY
360
B61
102
}
102
{ACAD_REACTORS
330
7E
102
}
330
7E
100
AcDbTableStyle
280
     0
  3
Standard
 70
     0
 71
     0
 40
1.5
 41
1.5
280
     0
281
     0
  7
Standard
140
4.5
170
     2
 62
     0
 63
     7
283
     0
 90
        4
 91
        0
  1

274
    -2
284
     1
 64
     0
275
    -2
285
     1
 65
     0
276
    -2
286
     1
 66
     0
277
    -2
287
     1
 67
     0
278
    -2
288
     1
 68
     0
279
    -2
289
     1
 69
     0
  7
Standard
140
6.0
170
     5
 62
     0
 63
     7
283
     0
 90
        4
 91
        0
  1

274
    -2
284
     1
 64
     0
275
    -2
285
     1
 65
     0
276
    -2
286
     1
 66
     0
277
    -2
287
     1
 67
     0
278
    -2
288
     1
 68
     0
279
    -2
289
     1
 69
     0
  7
Standard
140
4.5
170
     5
 62
     0
 63
     7
283
     0
 90
        4
 91
        0
  1

274
    -2
284
     1
 64
     0
275
    -2
285
     1
 65
     0
276
    -2
286
     1
 66
     0
277
    -2
287
     1
 67
     0
278
    -2
288
     1
 68
     0
279
    -2
289
     1
 69
     0
  0
VISUALSTYLE
  5
B0A
102
{ACAD_REACTORS
330
B04
102
}
330
B04
100
AcDbVisualStyle
  2
2dWireframe
 70
     4
177
     3
291
     0
 70
    58
 90
        0
176
     1
 90
        2
176
     1
 90
        0
176
     1
 90
        0
176
     1
 40
0.6
176
     1
 40
30.0
176
     1
 62
     7
420
 16777215
176
     1
 90
        1
176
     1
 90
        4
176
     1
 62
     7
176
     1
 62
   257
176
     1
 90
        1
176
     1
 90
        1
176
     1
 40
1.0
176
     1
 90
        0
176
     1
 62
   257
176
     1
 40
1.0
176
     1
 90
        1
176
     1
 90
        6
176
     1
 90
        2
176
     1
 62
     7
176
     1
 90
        5
176
     1
 90
        0
176
     1
 90
        0
176
     1
290
     0
176
     1
 90
        1
176
     1
 40
0.0
176
     1
 90
        0
176
     1
290
     1
176
     1
290
     1
176
     1
290
     0
176
     1
290
     0
176
     1
290
     0
176
     1
290
     0
176
     1
290
     0
176
     1
290
     0
176
     1
290
     0
176
     1
 90
       50
176
     1
 40
0.0
176
     1
 40
1.0
176
     1
 90
        0
176
     1
 62
    18
420
        0
176
     1
 90
       50
176
     1
 90
        3
176
     1
 62
     5
420
      255
176
     1
290
     0
176
     1
 90
       50
176
     1
 90
       50
176
     1
 90
       50
176
     1
290
     0
176
     1
 90
       50
176
     1
 62
   256
176
     0
 40
1.0
176
     0
 90
        2
176
     1
  1
strokes_ogs.tif
176
     1
290
     0
176
     1
 40
1.0
176
     1
 40
1.0
176
     1
  0
VISUALSTYLE
  5
B09
102
{ACAD_REACTORS
330
B04
102
}
330
B04
100
AcDbVisualStyle
  2
Basic
 70
     7
177
     3
291
     1
 70
    58
 90
        1
176
     1
 90
        0
176
     1
 90
        1
176
     1
 90
        0
176
     1
 40
0.6
176
     1
 40
30.0
176
     1
 62
     7
420
 16777215
176
     1
 90
        0
176
     1
 90
        4
176
     1
 62
     7
176
     1
 62
   257
176
     1
 90
        1
176
     1
 90
        1
176
     1
 40
1.0
176
     1
 90
        8
176
     1
 62
     7
176
     1
 40
1.0
176
     1
 90
        1
176
     1
 90
        6
176
     1
 90
        2
176
     1
 62
     7
176
     1
 90
        5
176
     1
 90
        0
176
     1
 90
        0
176
     1
290
     0
176
     1
 90
        1
176
     1
 40
0.0
176
     1
 90
        0
176
     1
290
     0
176
     1
290
     1
176
     1
290
     1
176
     1
290
     0
176
     1
290
     0
176
     1
290
     0
176
     1
290
     0
176
     1
290
     0
176
     1
290
     0
176
     1
 90
       50
176
     1
 40
0.0
176
     1
 40
1.0
176
     1
 90
        0
176
     1
 62
    18
420
        0
176
     1
 90
       50
176
     1
 90
        3
176
     1
 62
     5
420
      255
176
     1
290
     0
176
     1
 90
       50
176
     1
 90
       50
176
     1
 90
       50
176
     1
290
     0
176
     1
 90
       50
176
     1
 62
   256
176
     0
 40
1.0
176
     0
 90
        2
176
     1
  1
strokes_ogs.tif
176
     1
290
     0
176
     1
 40
1.0
176
     1
 40
1.0
176
     1
  0
VISUALSTYLE
  5
B10
102
{ACAD_REACTORS
330
B04
102
}
330
B04
100
AcDbVisualStyle
  2
Brighten
 70
    12
177
     3
291
     1
 70
    58
 90
        2
176
     1
 90
        2
176
     1
 90
        0
176
     1
 90
        0
176
     1
 40
0.6
176
     1
 40
30.0
176
     1
 62
     7
420
 16777215
176
     1
 90
        1
176
     1
 90
        4
176
     1
 62
     7
176
     1
 62
   257
176
     1
 90
        1
176
     1
 90
        1
176
     1
 40
1.0
176
     1
 90
        8
176
     1
 62
     7
176
     1
 40
1.0
176
     1
 90
        1
176
     1
 90
        6
176
     1
 90
        2
176
     1
 62
     7
176
     1
 90
        5
176
     1
 90
        0
176
     1
 90
        0
176
     1
290
     0
176
     1
 90
        1
176
     1
 40
50.0
176
     1
 90
        0
176
     1
290
     0
176
     1
290
     1
176
     1
290
     1
176
     1
290
     0
176
     1
290
     0
176
     1
290
     0
176
     1
290
     0
176
     1
290
     0
176
     1
290
     0
176
     1
 90
       50
176
     1
 40
0.0
176
     1
 40
1.0
176
     1
 90
        0
176
     1
 62
    18
420
        0
176
     1
 90
       50
176
     1
 90
        3
176
     1
 62
     5
420
      255
176
     1
290
     0
176
     1
 90
       50
176
     1
 90
       50
176
     1
 90
       50
176
     1
290
     0
176
     1
 90
       50
176
     1
 62
   256
176
     0
 40
1.0
176
     0
 90
        2
176
     1
  1
strokes_ogs.tif
176
     1
290
     0
176
     1
 40
1.0
176
     1
 40
1.0
176
     1
  0
VISUALSTYLE
  5
B14
102
{ACAD_REACTORS
330
B04
102
}
330
B04
100
AcDbVisualStyle
  2
ColorChange
 70
    16
177
     3
291
     1
 70
    58
 90
        2
176
     1
 90
        2
176
     1
 90
        3
176
     1
 90
        0
176
     1
 40
0.6
176
     1
 40
30.0
176
     1
 62
     8
420
  8421504
176
     1
 90
        1
176
     1
 90
        4
176
     1
 62
     7
176
     1
 62
   257
176
     1
 90
        1
176
     1
 90
        1
176
     1
 40
1.0
176
     1
 90
        8
176
     1
 62
     8
420
  8421504
176
     1
 40
1.0
176
     1
 90
        1
176
     1
 90
        6
176
     1
 90
        2
176
     1
 62
     7
176
     1
 90
        5
176
     1
 90
        0
176
     1
 90
        0
176
     1
290
     0
176
     1
 90
        1
176
     1
 40
0.0
176
     1
 90
        0
176
     1
290
     0
176
     1
290
     1
176
     1
290
     1
176
     1
290
     0
176
     1
290
     0
176
     1
290
     0
176
     1
290
     0
176
     1
290
     0
176
     1
290
     0
176
     1
 90
       50
176
     1
 40
0.0
176
     1
 40
1.0
176
     1
 90
        0
176
     1
 62
    18
420
        0
176
     1
 90
       50
176
     1
 90
        3
176
     1
 62
     5
420
      255
176
     1
290
     0
176
     1
 90
       50
176
     1
 90
       50
176
     1
 90
       50
176
     1
290
     0
176
     1
 90
       50
176
     1
 62
   256
176
     0
 40
1.0
176
     0
 90
        2
176
     1
  1
strokes_ogs.tif
176
     1
290
     0
176
     1
 40
1.0
176
     1
 40
1.0
176
     1
  0
VISUALSTYLE
  5
B0D
102
{ACAD_REACTORS
330
B04
102
}
330
B04
100
AcDbVisualStyle
  2
Conceptual
 70
     9
177
     3
291
     0
 70
    58
 90
        3
176
     1
 90
        2
176
     1
 90
        0
176
     1
 90
        0
176
     1
 40
0.6
176
     1
 40
30.0
176
     1
 62
     7
420
 16777215
176
     1
 90
        2
176
     1
 90
        2
176
     1
 62
     7
176
     1
 62
   257
176
     1
 90
        1
176
     1
 90
        1
176
     1
 40
179.0
176
     1
 90
        8
176
     1
 62
     7
176
     1
 40
1.0
176
     1
 90
        1
176
     1
 90
        6
176
     1
 90
        2
176
     1
 62
     7
176
     1
 90
        3
176
     1
 90
        0
176
     1
 90
        0
176
     1
290
     0
176
     1
 90
        1
176
     1
 40
0.0
176
     1
 90
        0
176
     1
290
     0
176
     1
290
     1
176
     1
290
     1
176
     1
290
     0
176
     1
290
     0
176
     1
290
     0
176
     1
290
     0
176
     1
290
     0
176
     1
290
     0
176
     1
 90
       50
176
     1
 40
0.0
176
     1
 40
1.0
176
     1
 90
        0
176
     1
 62
    18
420
        0
176
     1
 90
       50
176
     1
 90
        3
176
     1
 62
     5
420
      255
176
     1
290
     0
176
     1
 90
       50
176
     1
 90
       50
176
     1
 90
       50
176
     1
290
     0
176
     1
 90
       50
176
     1
 62
   256
176
     0
 40
1.0
176
     0
 90
        2
176
     1
  1
strokes_ogs.tif
176
     1
290
     0
176
     1
 40
1.0
176
     1
 40
1.0
176
     1
  0
VISUALSTYLE
  5
B0F
102
{ACAD_REACTORS
330
B04
102
}
330
B04
100
AcDbVisualStyle
  2
Dim
 70
    11
177
     3
291
     1
 70
    58
 90
        2
176
     1
 90
        2
176
     1
 90
        0
176
     1
 90
        0
176
     1
 40
0.6
176
     1
 40
30.0
176
     1
 62
     7
420
 16777215
176
     1
 90
        1
176
     1
 90
        4
176
     1
 62
     7
176
     1
 62
   257
176
     1
 90
        1
176
     1
 90
        1
176
     1
 40
1.0
176
     1
 90
        8
176
     1
 62
     7
176
     1
 40
1.0
176
     1
 90
        1
176
     1
 90
        6
176
     1
 90
        2
176
     1
 62
     7
176
     1
 90
        5
176
     1
 90
        0
176
     1
 90
        0
176
     1
290
     0
176
     1
 90
        1
176
     1
 40
-50.0
176
     1
 90
        0
176
     1
290
     0
176
     1
290
     1
176
     1
290
     1
176
     1
290
     0
176
     1
290
     0
176
     1
290
     0
176
     1
290
     0
176
     1
290
     0
176
     1
290
     0
176
     1
 90
       50
176
     1
 40
0.0
176
     1
 40
1.0
176
     1
 90
        0
176
     1
 62
    18
420
        0
176
     1
 90
       50
176
     1
 90
        3
176
     1
 62
     5
420
      255
176
     1
290
     0
176
     1
 90
       50
176
     1
 90
       50
176
     1
 90
       50
176
     1
290
     0
176
     1
 90
       50
176
     1
 62
   256
176
     0
 40
1.0
176
     0
 90
        2
176
     1
  1
strokes_ogs.tif
176
     1
290
     0
176
     1
 40
1.0
176
     1
 40
1.0
176
     1
  0
VISUALSTYLE
  5
B1C
102
{ACAD_REACTORS
330
B04
102
}
330
B04
100
AcDbVisualStyle
  2
EdgeColorOff
 70
    22
177
     3
291
     1
 70
    58
 90
        2
176
     0
 90
        2
176
     0
 90
        0
176
     0
 90
        0
176
     0
 40
0.6
176
     0
 40
30.0
176
     0
 62
     7
420
 16777215
176
     0
 90
        1
176
     0
 90
        4
176
     0
 62
     7
176
     0
 62
   257
176
     0
 90
        1
176
     0
 90
        1
176
     0
 40
1.0
176
     0
 90
        8
176
     2
 62
     7
176
     0
 40
1.0
176
     0
 90
        1
176
     0
 90
        6
176
     0
 90
        2
176
     0
 62
     7
176
     0
 90
        5
176
     0
 90
        0
176
     0
 90
        0
176
     0
290
     0
176
     0
 90
        1
176
     0
 40
0.0
176
     0
 90
        0
176
     0
290
     0
176
     0
290
     1
176
     0
290
     1
176
     0
290
     0
176
     0
290
     0
176
     0
290
     0
176
     0
290
     0
176
     0
290
     0
176
     0
290
     0
176
     0
 90
       50
176
     0
 40
0.0
176
     0
 40
1.0
176
     0
 90
        0
176
     0
 62
    18
420
        0
176
     0
 90
       50
176
     0
 90
        3
176
     0
 62
     5
420
      255
176
     0
290
     0
176
     0
 90
       50
176
     0
 90
       50
176
     0
 90
       50
176
     0
290
     0
176
     0
 90
       50
176
     0
 62
   256
176
     0
 40
1.0
176
     0
 90
        2
176
     0
  1
strokes_ogs.tif
176
     0
290
     0
176
     0
 40
1.0
176
     0
 40
1.0
176
     0
  0
VISUALSTYLE
  5
B13
102
{ACAD_REACTORS
330
B04
102
}
330
B04
100
AcDbVisualStyle
  2
Facepattern
 70
    15
177
     3
291
     1
 70
    58
 90
        2
176
     1
 90
        2
176
     1
 90
        0
176
     1
 90
        0
176
     1
 40
0.6
176
     1
 40
30.0
176
     1
 62
     7
420
 16777215
176
     1
 90
        1
176
     1
 90
        4
176
     1
 62
     7
176
     1
 62
   257
176
     1
 90
        1
176
     1
 90
        1
176
     1
 40
1.0
176
     1
 90
        8
176
     1
 62
     7
176
     1
 40
1.0
176
     1
 90
        1
176
     1
 90
        6
176
     1
 90
        2
176
     1
 62
     7
176
     1
 90
        5
176
     1
 90
        0
176
     1
 90
        0
176
     1
290
     0
176
     1
 90
        1
176
     1
 40
0.0
176
     1
 90
        0
176
     1
290
     0
176
     1
290
     1
176
     1
290
     1
176
     1
290
     0
176
     1
290
     0
176
     1
290
     0
176
     1
290
     0
176
     1
290
     0
176
     1
290
     0
176
     1
 90
       50
176
     1
 40
0.0
176
     1
 40
1.0
176
     1
 90
        0
176
     1
 62
    18
420
        0
176
     1
 90
       50
176
     1
 90
        3
176
     1
 62
     5
420
      255
176
     1
290
     0
176
     1
 90
       50
176
     1
 90
       50
176
     1
 90
       50
176
     1
290
     0
176
     1
 90
       50
176
     1
 62
   256
176
     0
 40
1.0
176
     0
 90
        2
176
     1
  1
strokes_ogs.tif
176
     1
290
     0
176
     1
 40
1.0
176
     1
 40
1.0
176
     1
  0
VISUALSTYLE
  5
B05
102
{ACAD_REACTORS
330
B04
102
}
330
B04
100
AcDbVisualStyle
  2
Flat
 70
     0
177
     3
291
     1
 70
    58
 90
        2
176
     1
 90
        1
176
     1
 90
        1
176
     1
 90
        2
176
     1
 40
0.6
176
     1
 40
30.0
176
     1
 62
     7
420
 16777215
176
     1
 90
        0
176
     1
 90
        0
176
     1
 62
     7
176
     1
 62
   257
176
     1
 90
        1
176
     1
 90
        1
176
     1
 40
1.0
176
     1
 90
        8
176
     1
 62
     7
176
     1
 40
1.0
176
     1
 90
        1
176
     1
 90
        6
176
     1
 90
        2
176
     1
 62
     7
176
     1
 90
        5
176
     1
 90
        0
176
     1
 90
        0
176
     1
290
     0
176
     1
 90
       13
176
     1
 40
0.0
176
     1
 90
        0
176
     1
290
     0
176
     1
290
     1
176
     1
290
     1
176
     1
290
     0
176
     1
290
     0
176
     1
290
     0
176
     1
290
     0
176
     1
290
     0
176
     1
290
     0
176
     1
 90
       50
176
     1
 40
0.0
176
     1
 40
1.0
176
     1
 90
        0
176
     1
 62
    18
420
        0
176
     1
 90
       50
176
     1
 90
        3
176
     1
 62
     5
420
      255
176
     1
290
     0
176
     1
 90
       50
176
     1
 90
       50
176
     1
 90
       50
176
     1
290
     0
176
     1
 90
       50
176
     1
 62
   256
176
     0
 40
1.0
176
     0
 90
        2
176
     1
  1
strokes_ogs.tif
176
     1
290
     0
176
     1
 40
1.0
176
     1
 40
1.0
176
     1
  0
VISUALSTYLE
  5
B06
102
{ACAD_REACTORS
330
B04
102
}
330
B04
100
AcDbVisualStyle
  2
FlatWithEdges
 70
     1
177
     3
291
     1
 70
    58
 90
        2
176
     1
 90
        1
176
     1
 90
        1
176
     1
 90
        2
176
     1
 40
0.6
176
     1
 40
30.0
176
     1
 62
     7
420
 16777215
176
     1
 90
        1
176
     1
 90
        0
176
     1
 62
     7
176
     1
 62
   257
176
     1
 90
        1
176
     1
 90
        1
176
     1
 40
1.0
176
     1
 90
        0
176
     1
 62
   257
176
     1
 40
1.0
176
     1
 90
        1
176
     1
 90
        6
176
     1
 90
        2
176
     1
 62
     7
176
     1
 90
        5
176
     1
 90
        0
176
     1
 90
        0
176
     1
290
     0
176
     1
 90
       13
176
     1
 40
0.0
176
     1
 90
        0
176
     1
290
     0
176
     1
290
     1
176
     1
290
     1
176
     1
290
     0
176
     1
290
     0
176
     1
290
     0
176
     1
290
     0
176
     1
290
     0
176
     1
290
     0
176
     1
 90
       50
176
     1
 40
0.0
176
     1
 40
1.0
176
     1
 90
        0
176
     1
 62
    18
420
        0
176
     1
 90
       50
176
     1
 90
        3
176
     1
 62
     5
420
      255
176
     1
290
     0
176
     1
 90
       50
176
     1
 90
       50
176
     1
 90
       50
176
     1
290
     0
176
     1
 90
       50
176
     1
 62
   256
176
     0
 40
1.0
176
     0
 90
        2
176
     1
  1
strokes_ogs.tif
176
     1
290
     0
176
     1
 40
1.0
176
     1
 40
1.0
176
     1
  0
VISUALSTYLE
  5
B07
102
{ACAD_REACTORS
330
B04
102
}
330
B04
100
AcDbVisualStyle
  2
Gouraud
 70
     2
177
     3
291
     1
 70
    58
 90
        2
176
     1
 90
        2
176
     1
 90
        1
176
     1
 90
        2
176
     1
 40
0.6
176
     1
 40
30.0
176
     1
 62
     7
420
 16777215
176
     1
 90
        0
176
     1
 90
        0
176
     1
 62
     7
176
     1
 62
   257
176
     1
 90
        1
176
     1
 90
        1
176
     1
 40
1.0
176
     1
 90
        0
176
     1
 62
     7
176
     1
 40
1.0
176
     1
 90
        1
176
     1
 90
        6
176
     1
 90
        2
176
     1
 62
     7
176
     1
 90
        5
176
     1
 90
        0
176
     1
 90
        0
176
     1
290
     0
176
     1
 90
       13
176
     1
 40
0.0
176
     1
 90
        0
176
     1
290
     0
176
     1
290
     1
176
     1
290
     1
176
     1
290
     0
176
     1
290
     0
176
     1
290
     0
176
     1
290
     0
176
     1
290
     0
176
     1
290
     0
176
     1
 90
       50
176
     1
 40
0.0
176
     1
 40
1.0
176
     1
 90
        0
176
     1
 62
    18
420
        0
176
     1
 90
       50
176
     1
 90
        3
176
     1
 62
     5
420
      255
176
     1
290
     0
176
     1
 90
       50
176
     1
 90
       50
176
     1
 90
       50
176
     1
290
     0
176
     1
 90
       50
176
     1
 62
   256
176
     0
 40
1.0
176
     0
 90
        2
176
     1
  1
strokes_ogs.tif
176
     1
290
     0
176
     1
 40
1.0
176
     1
 40
1.0
176
     1
  0
VISUALSTYLE
  5
B08
102
{ACAD_REACTORS
330
B04
102
}
330
B04
100
AcDbVisualStyle
  2
GouraudWithEdges
 70
     3
177
     3
291
     1
 70
    58
 90
        2
176
     1
 90
        2
176
     1
 90
        1
176
     1
 90
        2
176
     1
 40
0.6
176
     1
 40
30.0
176
     1
 62
     7
420
 16777215
176
     1
 90
        1
176
     1
 90
        0
176
     1
 62
     7
176
     1
 62
   257
176
     1
 90
        1
176
     1
 90
        1
176
     1
 40
1.0
176
     1
 90
        0
176
     1
 62
   257
176
     1
 40
1.0
176
     1
 90
        1
176
     1
 90
        6
176
     1
 90
        2
176
     1
 62
     7
176
     1
 90
        5
176
     1
 90
        0
176
     1
 90
        0
176
     1
290
     0
176
     1
 90
       13
176
     1
 40
0.0
176
     1
 90
        0
176
     1
290
     0
176
     1
290
     1
176
     1
290
     1
176
     1
290
     0
176
     1
290
     0
176
     1
290
     0
176
     1
290
     0
176
     1
290
     0
176
     1
290
     0
176
     1
 90
       50
176
     1
 40
0.0
176
     1
 40
1.0
176
     1
 90
        0
176
     1
 62
    18
420
        0
176
     1
 90
       50
176
     1
 90
        3
176
     1
 62
     5
420
      255
176
     1
290
     0
176
     1
 90
       50
176
     1
 90
       50
176
     1
 90
       50
176
     1
290
     0
176
     1
 90
       50
176
     1
 62
   256
176
     0
 40
1.0
176
     0
 90
        2
176
     1
  1
strokes_ogs.tif
176
     1
290
     0
176
     1
 40
1.0
176
     1
 40
1.0
176
     1
  0
VISUALSTYLE
  5
B0C
102
{ACAD_REACTORS
330
B04
102
}
330
B04
100
AcDbVisualStyle
  2
Hidden
 70
     6
177
     3
291
     0
 70
    58
 90
        1
176
     1
 90
        2
176
     1
 90
        2
176
     1
 90
        0
176
     1
 40
0.6
176
     1
 40
30.0
176
     1
 62
     7
420
 16777215
176
     1
 90
        2
176
     1
 90
        2
176
     1
 62
     7
176
     1
 62
   257
176
     1
 90
        2
176
     1
 90
        1
176
     1
 40
40.0
176
     1
 90
        0
176
     1
 62
   257
176
     1
 40
1.0
176
     1
 90
        1
176
     1
 90
        6
176
     1
 90
        2
176
     1
 62
     7
176
     1
 90
        3
176
     1
 90
        0
176
     1
 90
        0
176
     1
290
     0
176
     1
 90
        1
176
     1
 40
0.0
176
     1
 90
        0
176
     1
290
     0
176
     1
290
     1
176
     1
290
     1
176
     1
290
     0
176
     1
290
     0
176
     1
290
     0
176
     1
290
     0
176
     1
290
     0
176
     1
290
     0
176
     1
 90
       50
176
     1
 40
0.0
176
     1
 40
1.0
176
     1
 90
        0
176
     1
 62
    18
420
        0
176
     1
 90
       50
176
     1
 90
        3
176
     1
 62
     5
420
      255
176
     1
290
     0
176
     1
 90
       50
176
     1
 90
       50
176
     1
 90
       50
176
     1
290
     0
176
     1
 90
       50
176
     1
 62
   256
176
     0
 40
1.0
176
     0
 90
        2
176
     1
  1
strokes_ogs.tif
176
     1
290
     0
176
     1
 40
1.0
176
     1
 40
1.0
176
     1
  0
VISUALSTYLE
  5
B1A
102
{ACAD_REACTORS
330
B04
102
}
330
B04
100
AcDbVisualStyle
  2
JitterOff
 70
    20
177
     3
291
     1
 70
    58
 90
        2
176
     0
 90
        2
176
     0
 90
        0
176
     0
 90
        0
176
     0
 40
0.6
176
     0
 40
30.0
176
     0
 62
     7
420
 16777215
176
     0
 90
        1
176
     0
 90
        4
176
     0
 62
     7
176
     0
 62
   257
176
     0
 90
        1
176
     0
 90
        1
176
     0
 40
1.0
176
     0
 90
       10
176
     2
 62
     7
176
     0
 40
1.0
176
     0
 90
        1
176
     0
 90
        6
176
     0
 90
        2
176
     0
 62
     7
176
     0
 90
        5
176
     0
 90
        0
176
     0
 90
        0
176
     0
290
     0
176
     0
 90
        1
176
     0
 40
0.0
176
     0
 90
        0
176
     0
290
     0
176
     0
290
     1
176
     0
290
     1
176
     0
290
     0
176
     0
290
     0
176
     0
290
     0
176
     0
290
     0
176
     0
290
     0
176
     0
290
     0
176
     0
 90
       50
176
     0
 40
0.0
176
     0
 40
1.0
176
     0
 90
        0
176
     0
 62
    18
420
        0
176
     0
 90
       50
176
     0
 90
        3
176
     0
 62
     5
420
      255
176
     0
290
     0
176
     0
 90
       50
176
     0
 90
       50
176
     0
 90
       50
176
     0
290
     0
176
     0
 90
       50
176
     0
 62
   256
176
     0
 40
1.0
176
     0
 90
        2
176
     0
  1
strokes_ogs.tif
176
     0
290
     0
176
     0
 40
1.0
176
     0
 40
1.0
176
     0
  0
VISUALSTYLE
  5
B12
102
{ACAD_REACTORS
330
B04
102
}
330
B04
100
AcDbVisualStyle
  2
Linepattern
 70
    14
177
     3
291
     1
 70
    58
 90
        2
176
     1
 90
        2
176
     1
 90
        0
176
     1
 90
        0
176
     1
 40
0.6
176
     1
 40
30.0
176
     1
 62
     7
420
 16777215
176
     1
 90
        1
176
     1
 90
        4
176
     1
 62
     7
176
     1
 62
   257
176
     1
 90
        7
176
     1
 90
        7
176
     1
 40
1.0
176
     1
 90
        8
176
     1
 62
     7
176
     1
 40
1.0
176
     1
 90
        1
176
     1
 90
        6
176
     1
 90
        2
176
     1
 62
     7
176
     1
 90
        5
176
     1
 90
        0
176
     1
 90
        0
176
     1
290
     0
176
     1
 90
        1
176
     1
 40
0.0
176
     1
 90
        0
176
     1
290
     0
176
     1
290
     1
176
     1
290
     1
176
     1
290
     0
176
     1
290
     0
176
     1
290
     0
176
     1
290
     0
176
     1
290
     0
176
     1
290
     0
176
     1
 90
       50
176
     1
 40
0.0
176
     1
 40
1.0
176
     1
 90
        0
176
     1
 62
    18
420
        0
176
     1
 90
       50
176
     1
 90
        3
176
     1
 62
     5
420
      255
176
     1
290
     0
176
     1
 90
       50
176
     1
 90
       50
176
     1
 90
       50
176
     1
290
     0
176
     1
 90
       50
176
     1
 62
   256
176
     0
 40
1.0
176
     0
 90
        2
176
     1
  1
strokes_ogs.tif
176
     1
290
     0
176
     1
 40
1.0
176
     1
 40
1.0
176
     1
  0
VISUALSTYLE
  5
B1B
102
{ACAD_REACTORS
330
B04
102
}
330
B04
100
AcDbVisualStyle
  2
OverhangOff
 70
    21
177
     3
291
     1
 70
    58
 90
        2
176
     0
 90
        2
176
     0
 90
        0
176
     0
 90
        0
176
     0
 40
0.6
176
     0
 40
30.0
176
     0
 62
     7
420
 16777215
176
     0
 90
        1
176
     0
 90
        4
176
     0
 62
     7
176
     0
 62
   257
176
     0
 90
        1
176
     0
 90
        1
176
     0
 40
1.0
176
     0
 90
        9
176
     2
 62
     7
176
     0
 40
1.0
176
     0
 90
        1
176
     0
 90
        6
176
     0
 90
        2
176
     0
 62
     7
176
     0
 90
        5
176
     0
 90
        0
176
     0
 90
        0
176
     0
290
     0
176
     0
 90
        1
176
     0
 40
0.0
176
     0
 90
        0
176
     0
290
     0
176
     0
290
     1
176
     0
290
     1
176
     0
290
     0
176
     0
290
     0
176
     0
290
     0
176
     0
290
     0
176
     0
290
     0
176
     0
290
     0
176
     0
 90
       50
176
     0
 40
0.0
176
     0
 40
1.0
176
     0
 90
        0
176
     0
 62
    18
420
        0
176
     0
 90
       50
176
     0
 90
        3
176
     0
 62
     5
420
      255
176
     0
290
     0
176
     0
 90
       50
176
     0
 90
       50
176
     0
 90
       50
176
     0
290
     0
176
     0
 90
       50
176
     0
 62
   256
176
     0
 40
1.0
176
     0
 90
        2
176
     0
  1
strokes_ogs.tif
176
     0
290
     0
176
     0
 40
1.0
176
     0
 40
1.0
176
     0
  0
VISUALSTYLE
  5
B0E
102
{ACAD_REACTORS
330
B04
102
}
330
B04
100
AcDbVisualStyle
  2
Realistic
 70
     8
177
     3
291
     0
 70
    58
 90
        2
176
     1
 90
        3
176
     1
 90
        0
176
     1
 90
        2
176
     1
 40
0.6
176
     1
 40
30.0
176
     1
 62
     7
420
 16777215
176
     1
 90
        0
176
     1
 90
        0
176
     1
 62
     7
176
     1
 62
   257
176
     1
 90
        1
176
     1
 90
        1
176
     1
 40
1.0
176
     1
 90
        8
176
     1
 62
   257
176
     1
 40
1.0
176
     1
 90
        1
176
     1
 90
        6
176
     1
 90
        2
176
     1
 62
     7
176
     1
 90
        3
176
     1
 90
        0
176
     1
 90
        0
176
     1
290
     0
176
     1
 90
       13
176
     1
 40
0.0
176
     1
 90
        0
176
     1
290
     0
176
     1
290
     1
176
     1
290
     1
176
     1
290
     0
176
     1
290
     0
176
     1
290
     0
176
     1
290
     0
176
     1
290
     0
176
     1
290
     0
176
     1
 90
       50
176
     1
 40
0.0
176
     1
 40
1.0
176
     1
 90
        0
176
     1
 62
    18
420
        0
176
     1
 90
       50
176
     1
 90
        3
176
     1
 62
     5
420
      255
176
     1
290
     0
176
     1
 90
       50
176
     1
 90
       50
176
     1
 90
       50
176
     1
290
     0
176
     1
 90
       50
176
     1
 62
   256
176
     0
 40
1.0
176
     0
 90
        2
176
     1
  1
strokes_ogs.tif
176
     1
290
     0
176
     1
 40
1.0
176
     1
 40
1.0
176
     1
  0
VISUALSTYLE
  5
B19
102
{ACAD_REACTORS
330
B04
102
}
330
B04
100
AcDbVisualStyle
  2
Shaded
 70
    27
177
     3
291
     0
 70
    58
 90
        2
176
     1
 90
        2
176
     1
 90
        1
176
     1
 90
        2
176
     1
 40
0.6
176
     1
 40
30.0
176
     1
 62
     7
420
 16777215
176
     1
 90
        0
176
     1
 90
        4
176
     1
 62
     7
176
     1
 62
   257
176
     1
 90
        1
176
     1
 90
        1
176
     1
 40
1.0
176
     1
 90
        8
176
     1
 62
   257
176
     1
 40
1.0
176
     1
 90
        1
176
     1
 90
        6
176
     1
 90
        2
176
     1
 62
     8
420
  7895160
176
     1
 90
        3
176
     1
 90
        0
176
     1
 90
        0
176
     1
290
     0
176
     1
 90
        5
176
     1
 40
0.0
176
     1
 90
        0
176
     1
290
     0
176
     1
290
     1
176
     1
290
     1
176
     1
290
     0
176
     1
290
     0
176
     1
290
     0
176
     1
290
     0
176
     1
290
     0
176
     1
290
     0
176
     1
 90
       50
176
     1
 40
0.0
176
     1
 40
1.0
176
     1
 90
        0
176
     1
 62
    18
420
        0
176
     1
 90
       50
176
     1
 90
        3
176
     1
 62
     5
420
      255
176
     1
290
     0
176
     1
 90
       50
176
     1
 90
       50
176
     1
 90
       50
176
     1
290
     0
176
     1
 90
       50
176
     1
 62
   256
176
     0
 40
1.0
176
     0
 90
        2
176
     1
  1
strokes_ogs.tif
176
     1
290
     0
176
     1
 40
1.0
176
     1
 40
1.0
176
     1
  0
VISUALSTYLE
  5
B18
102
{ACAD_REACTORS
330
B04
102
}
330
B04
100
AcDbVisualStyle
  2
Shaded with edges
 70
    26
177
     3
291
     0
 70
    58
 90
        2
176
     1
 90
        2
176
     1
 90
        1
176
     1
 90
        2
176
     1
 40
0.6
176
     1
 40
30.0
176
     1
 62
     7
420
 16777215
176
     1
 90
        1
176
     1
 90
        2
176
     1
 62
     7
176
     1
 62
   257
176
     1
 90
        2
176
     1
 90
        1
176
     1
 40
1.0
176
     1
 90
        8
176
     1
 62
   257
176
     1
 40
1.0
176
     1
 90
        1
176
     1
 90
        6
176
     1
 90
        2
176
     1
 62
     7
176
     1
 90
        3
176
     1
 90
        0
176
     1
 90
        0
176
     1
290
     0
176
     1
 90
        5
176
     1
 40
0.0
176
     1
 90
        0
176
     1
290
     0
176
     1
290
     1
176
     1
290
     1
176
     1
290
     0
176
     1
290
     0
176
     1
290
     0
176
     1
290
     0
176
     1
290
     0
176
     1
290
     0
176
     1
 90
       50
176
     1
 40
0.0
176
     1
 40
1.0
176
     1
 90
        0
176
     1
 62
    18
420
        0
176
     1
 90
       50
176
     1
 90
        3
176
     1
 62
     5
420
      255
176
     1
290
     0
176
     1
 90
       50
176
     1
 90
       50
176
     1
 90
       50
176
     1
290
     0
176
     1
 90
       50
176
     1
 62
   256
176
     0
 40
1.0
176
     0
 90
        2
176
     1
  1
strokes_ogs.tif
176
     1
290
     0
176
     1
 40
1.0
176
     1
 40
1.0
176
     1
  0
VISUALSTYLE
  5
B15
102
{ACAD_REACTORS
330
B04
102
}
330
B04
100
AcDbVisualStyle
  2
Shades of Gray
 70
    23
177
     3
291
     0
 70
    58
 90
        2
176
     1
 90
        2
176
     1
 90
        3
176
     1
 90
        0
176
     1
 40
0.6
176
     1
 40
30.0
176
     1
 62
     7
420
 16777215
176
     1
 90
        2
176
     1
 90
        2
176
     1
 62
     7
176
     1
 62
     7
176
     1
 90
        1
176
     1
 90
        1
176
     1
 40
40.0
176
     1
 90
        8
176
     1
 62
     7
176
     1
 40
1.0
176
     1
 90
        1
176
     1
 90
        6
176
     1
 90
        2
176
     1
 62
     7
176
     1
 90
        3
176
     1
 90
        0
176
     1
 90
        0
176
     1
290
     0
176
     1
 90
        1
176
     1
 40
0.0
176
     1
 90
        0
176
     1
290
     0
176
     1
290
     1
176
     1
290
     1
176
     1
290
     0
176
     1
290
     0
176
     1
290
     0
176
     1
290
     0
176
     1
290
     0
176
     1
290
     0
176
     1
 90
       50
176
     1
 40
0.0
176
     1
 40
1.0
176
     1
 90
        0
176
     1
 62
    18
420
        0
176
     1
 90
       50
176
     1
 90
        3
176
     1
 62
     5
420
      255
176
     1
290
     0
176
     1
 90
       50
176
     1
 90
       50
176
     1
 90
       50
176
     1
290
     0
176
     1
 90
       50
176
     1
 62
   256
176
     0
 40
1.0
176
     0
 90
        2
176
     1
  1
strokes_ogs.tif
176
     1
290
     0
176
     1
 40
1.0
176
     1
 40
1.0
176
     1
  0
VISUALSTYLE
  5
B16
102
{ACAD_REACTORS
330
B04
102
}
330
B04
100
AcDbVisualStyle
  2
Sketchy
 70
    24
177
     3
291
     0
 70
    58
 90
        1
176
     1
 90
        2
176
     1
 90
        2
176
     1
 90
        0
176
     1
 40
0.6
176
     1
 40
30.0
176
     1
 62
     7
420
 16777215
176
     1
 90
        2
176
     1
 90
        2
176
     1
 62
     7
176
     1
 62
     7
176
     1
 90
        1
176
     1
 90
        1
176
     1
 40
40.0
176
     1
 90
       11
176
     1
 62
     7
176
     1
 40
1.0
176
     1
 90
        1
176
     1
 90
        6
176
     1
 90
        2
176
     1
 62
     7
176
     1
 90
        6
176
     1
 90
        0
176
     1
 90
        0
176
     1
290
     0
176
     1
 90
        1
176
     1
 40
0.0
176
     1
 90
        0
176
     1
290
     0
176
     1
290
     1
176
     1
290
     1
176
     1
290
     0
176
     1
290
     0
176
     1
290
     0
176
     1
290
     0
176
     1
290
     0
176
     1
290
     0
176
     1
 90
       50
176
     1
 40
0.0
176
     1
 40
1.0
176
     1
 90
        0
176
     1
 62
    18
420
        0
176
     1
 90
       50
176
     1
 90
        3
176
     1
 62
     5
420
      255
176
     1
290
     0
176
     1
 90
       50
176
     1
 90
       50
176
     1
 90
       50
176
     1
290
     0
176
     1
 90
       50
176
     1
 62
   256
176
     0
 40
1.0
176
     0
 90
        2
176
     1
  1
strokes_ogs.tif
176
     1
290
     0
176
     1
 40
1.0
176
     1
 40
1.0
176
     1
  0
VISUALSTYLE
  5
B11
102
{ACAD_REACTORS
330
B04
102
}
330
B04
100
AcDbVisualStyle
  2
Thicken
 70
    13
177
     3
291
     1
 70
    58
 90
        2
176
     1
 90
        2
176
     1
 90
        0
176
     1
 90
        0
176
     1
 40
0.6
176
     1
 40
30.0
176
     1
 62
     7
420
 16777215
176
     1
 90
        1
176
     1
 90
        4
176
     1
 62
     7
176
     1
 62
   257
176
     1
 90
        1
176
     1
 90
        1
176
     1
 40
1.0
176
     1
 90
       12
176
     1
 62
     7
176
     1
 40
1.0
176
     1
 90
        1
176
     1
 90
        6
176
     1
 90
        2
176
     1
 62
     7
176
     1
 90
        5
176
     1
 90
        0
176
     1
 90
        0
176
     1
290
     0
176
     1
 90
        1
176
     1
 40
0.0
176
     1
 90
        0
176
     1
290
     0
176
     1
290
     1
176
     1
290
     1
176
     1
290
     0
176
     1
290
     0
176
     1
290
     0
176
     1
290
     0
176
     1
290
     0
176
     1
290
     0
176
     1
 90
       50
176
     1
 40
0.0
176
     1
 40
1.0
176
     1
 90
        0
176
     1
 62
    18
420
        0
176
     1
 90
       50
176
     1
 90
        3
176
     1
 62
     5
420
      255
176
     1
290
     0
176
     1
 90
       50
176
     1
 90
       50
176
     1
 90
       50
176
     1
290
     0
176
     1
 90
       50
176
     1
 62
   256
176
     0
 40
1.0
176
     0
 90
        2
176
     1
  1
strokes_ogs.tif
176
     1
290
     0
176
     1
 40
1.0
176
     1
 40
1.0
176
     1
  0
VISUALSTYLE
  5
B0B
102
{ACAD_REACTORS
330
B04
102
}
330
B04
100
AcDbVisualStyle
  2
Wireframe
 70
     5
177
     3
291
     0
 70
    58
 90
        0
176
     1
 90
        2
176
     1
 90
        0
176
     1
 90
        0
176
     1
 40
0.6
176
     1
 40
30.0
176
     1
 62
     7
420
 16777215
176
     1
 90
        1
176
     1
 90
        4
176
     1
 62
     7
176
     1
 62
   257
176
     1
 90
        1
176
     1
 90
        1
176
     1
 40
1.0
176
     1
 90
        0
176
     1
 62
   257
176
     1
 40
1.0
176
     1
 90
        1
176
     1
 90
        6
176
     1
 90
        2
176
     1
 62
     7
176
     1
 90
        3
176
     1
 90
        0
176
     1
 90
        0
176
     1
290
     0
176
     1
 90
        1
176
     1
 40
0.0
176
     1
 90
        0
176
     1
290
     0
176
     1
290
     1
176
     1
290
     1
176
     1
290
     0
176
     1
290
     0
176
     1
290
     0
176
     1
290
     0
176
     1
290
     0
176
     1
290
     0
176
     1
 90
       50
176
     1
 40
0.0
176
     1
 40
1.0
176
     1
 90
        0
176
     1
 62
    18
420
        0
176
     1
 90
       50
176
     1
 90
        3
176
     1
 62
     5
420
      255
176
     1
290
     0
176
     1
 90
       50
176
     1
 90
       50
176
     1
 90
       50
176
     1
290
     0
176
     1
 90
       50
176
     1
 62
   256
176
     0
 40
1.0
176
     0
 90
        2
176
     1
  1
strokes_ogs.tif
176
     1
290
     0
176
     1
 40
1.0
176
     1
 40
1.0
176
     1
  0
VISUALSTYLE
  5
B17
102
{ACAD_REACTORS
330
B04
102
}
330
B04
100
AcDbVisualStyle
  2
X-Ray
 70
    25
177
     3
291
     0
 70
    58
 90
        2
176
     1
 90
        2
176
     1
 90
        1
176
     1
 90
        1
176
     1
 40
0.5
176
     1
 40
30.0
176
     1
 62
     7
420
 16777215
176
     1
 90
        1
176
     1
 90
        0
176
     1
 62
     7
176
     1
 62
   257
176
     1
 90
        1
176
     1
 90
        1
176
     1
 40
1.0
176
     1
 90
        8
176
     1
 62
     7
176
     1
 40
1.0
176
     1
 90
        1
176
     1
 90
        6
176
     1
 90
        2
176
     1
 62
     7
176
     1
 90
        3
176
     1
 90
        0
176
     1
 90
        0
176
     1
290
     0
176
     1
 90
       13
176
     1
 40
0.0
176
     1
 90
        0
176
     1
290
     0
176
     1
290
     1
176
     1
290
     1
176
     1
290
     0
176
     1
290
     0
176
     1
290
     0
176
     1
290
     0
176
     1
290
     0
176
     1
290
     0
176
     1
 90
       50
176
     1
 40
0.0
176
     1
 40
1.0
176
     1
 90
        0
176
     1
 62
    18
420
        0
176
     1
 90
       50
176
     1
 90
        3
176
     1
 62
     5
420
      255
176
     1
290
     0
176
     1
 90
       50
176
     1
 90
       50
176
     1
 90
       50
176
     1
290
     0
176
     1
 90
       50
176
     1
 62
   256
176
     0
 40
1.0
176
     0
 90
        2
176
     1
  1
strokes_ogs.tif
176
     1
290
     0
176
     1
 40
1.0
176
     1
 40
1.0
176
     1
  0
DICTIONARYVAR
  5
B5D
102
{ACAD_REACTORS
330
5E
102
}
330
5E
100
DictionaryVariables
280
     0
  1
1:1
  0
DICTIONARYVAR
  5
B59
102
{ACAD_REACTORS
330
5E
102
}
330
5E
100
DictionaryVariables
280
     0
  1
STANDARD
  0
DICTIONARYVAR
  5
84
102
{ACAD_REACTORS
330
5E
102
}
330
5E
100
DictionaryVariables
280
     0
  1
STANDARD
  0
DICTIONARYVAR
  5
B5A
102
{ACAD_REACTORS
330
5E
102
}
330
5E
100
DictionaryVariables
280
     0
  1
Metric50
  0
DICTIONARYVAR
  5
B5B
102
{ACAD_REACTORS
330
5E
102
}
330
5E
100
DictionaryVariables
280
     0
  1
Metric50
  0
DICTIONARYVAR
  5
5F
102
{ACAD_REACTORS
330
5E
102
}
330
5E
100
DictionaryVariables
280
     0
  1
2
  0
DICTIONARYVAR
  5
63
102
{ACAD_REACTORS
330
5E
102
}
330
5E
100
DictionaryVariables
280
     0
  1
1
  0
DICTIONARYVAR
  5
B5F
102
{ACAD_REACTORS
330
5E
102
}
330
5E
100
DictionaryVariables
280
     0
  1
1
  0
DICTIONARYVAR
  5
B60
102
{ACAD_REACTORS
330
5E
102
}
330
5E
100
DictionaryVariables
280
     0
  1
15
  0
DICTIONARYVAR
  5
B5E
102
{ACAD_REACTORS
330
5E
102
}
330
5E
100
DictionaryVariables
280
     0
  1
0
  0
DICTIONARYVAR
  5
B5C
102
{ACAD_REACTORS
330
5E
102
}
330
5E
100
DictionaryVariables
280
     0
  1
0
  0
DICTIONARYVAR
  5
921
102
{ACAD_REACTORS
330
5E
102
}
330
5E
100
DictionaryVariables
280
     0
  1

  0
DICTIONARY
  5
B65
330
B35
100
AcDbDictionary
280
     1
281
     1
  3
ACAD_XREC_ROUNDTRIP
360
B66
  0
DICTIONARY
  5
AF5
330
AF4
100
AcDbDictionary
280
     1
281
     1
  3
BUMPTILE
360
AF7
  3
DIFFUSETILE
360
AF6
  3
OPACITYTILE
360
AFA
  3
REFLECTIONTILE
360
AF9
  3
REFRACTIONTILE
360
AFB
  3
SPECULARTILE
360
AF8
  0
DICTIONARY
  5
AED
330
AEC
100
AcDbDictionary
280
     1
281
     1
  3
BUMPTILE
360
AEF
  3
DIFFUSETILE
360
AEE
  3
OPACITYTILE
360
AF2
  3
REFLECTIONTILE
360
AF1
  3
REFRACTIONTILE
360
AF3
  3
SPECULARTILE
360
AF0
  0
DICTIONARY
  5
AFD
330
AFC
100
AcDbDictionary
280
     1
281
     1
  3
BUMPTILE
360
AFF
  3
DIFFUSETILE
360
AFE
  3
OPACITYTILE
360
B02
  3
REFLECTIONTILE
360
B01
  3
REFRACTIONTILE
360
B03
  3
SPECULARTILE
360
B00
  0
DICTIONARY
  5
B63
330
B33
100
AcDbDictionary
280
     1
281
     1
  3
ACAD_XREC_ROUNDTRIP
360
B64
  0
DICTIONARY
  5
B61
330
7F
100
AcDbDictionary
280
     1
281
     1
  3
ACAD_ROUNDTRIP_2008_TABLESTYLE_CELLSTYLEMAP
360
B62
  0
XRECORD
  5
B66
102
{ACAD_REACTORS
330
B65
102
}
330
B65
100
AcDbXrecord
280
     1
102
DISPLAYNAME
  1
Metric50
102
FLAGS
 90
        0
  0
XRECORD
  5
AF7
102
{ACAD_REACTORS
330
AF5
102
}
330
AF5
100
AcDbXrecord
280
     1
270
     1
271
     1
  0
XRECORD
  5
AF6
102
{ACAD_REACTORS
330
AF5
102
}
330
AF5
100
AcDbXrecord
280
     1
270
     1
271
     1
  0
XRECORD
  5
AFA
102
{ACAD_REACTORS
330
AF5
102
}
330
AF5
100
AcDbXrecord
280
     1
270
     1
271
     1
  0
XRECORD
  5
AF9
102
{ACAD_REACTORS
330
AF5
102
}
330
AF5
100
AcDbXrecord
280
     1
270
     1
271
     1
  0
XRECORD
  5
AFB
102
{ACAD_REACTORS
330
AF5
102
}
330
AF5
100
AcDbXrecord
280
     1
270
     1
271
     1
  0
XRECORD
  5
AF8
102
{ACAD_REACTORS
330
AF5
102
}
330
AF5
100
AcDbXrecord
280
     1
270
     1
271
     1
  0
XRECORD
  5
AEF
102
{ACAD_REACTORS
330
AED
102
}
330
AED
100
AcDbXrecord
280
     1
270
     1
271
     1
  0
XRECORD
  5
AEE
102
{ACAD_REACTORS
330
AED
102
}
330
AED
100
AcDbXrecord
280
     1
270
     1
271
     1
  0
XRECORD
  5
AF2
102
{ACAD_REACTORS
330
AED
102
}
330
AED
100
AcDbXrecord
280
     1
270
     1
271
     1
  0
XRECORD
  5
AF1
102
{ACAD_REACTORS
330
AED
102
}
330
AED
100
AcDbXrecord
280
     1
270
     1
271
     1
  0
XRECORD
  5
AF3
102
{ACAD_REACTORS
330
AED
102
}
330
AED
100
AcDbXrecord
280
     1
270
     1
271
     1
  0
XRECORD
  5
AF0
102
{ACAD_REACTORS
330
AED
102
}
330
AED
100
AcDbXrecord
280
     1
270
     1
271
     1
  0
XRECORD
  5
AFF
102
{ACAD_REACTORS
330
AFD
102
}
330
AFD
100
AcDbXrecord
280
     1
270
     1
271
     1
  0
XRECORD
  5
AFE
102
{ACAD_REACTORS
330
AFD
102
}
330
AFD
100
AcDbXrecord
280
     1
270
     1
271
     1
  0
XRECORD
  5
B02
102
{ACAD_REACTORS
330
AFD
102
}
330
AFD
100
AcDbXrecord
280
     1
270
     1
271
     1
  0
XRECORD
  5
B01
102
{ACAD_REACTORS
330
AFD
102
}
330
AFD
100
AcDbXrecord
280
     1
270
     1
271
     1
  0
XRECORD
  5
B03
102
{ACAD_REACTORS
330
AFD
102
}
330
AFD
100
AcDbXrecord
280
     1
270
     1
271
     1
  0
XRECORD
  5
B00
102
{ACAD_REACTORS
330
AFD
102
}
330
AFD
100
AcDbXrecord
280
     1
270
     1
271
     1
  0
XRECORD
  5
B64
102
{ACAD_REACTORS
330
B63
102
}
330
B63
100
AcDbXrecord
280
     1
102
DISPLAYNAME
  1
Metric50
102
FLAGS
 90
        0
  0
CELLSTYLEMAP
  5
B62
102
{ACAD_REACTORS
330
B61
102
}
330
B61
100
AcDbCellStyleMap
 90
        3
300
CELLSTYLE
  1
TABLEFORMAT_BEGIN
 90
        5
170
     1
 91
        0
 92
    32768
 62
   257
 93
        1
300
CONTENTFORMAT
  1
CONTENTFORMAT_BEGIN
 90
        0
 91
        0
 92
        4
 93
        0
300

 40
0.0
140
1.0
 94
        5
 62
     0
340
11
144
6.0
309
CONTENTFORMAT_END
171
     1
301
MARGIN
  1
CELLMARGIN_BEGIN
 40
1.5
 40
1.5
 40
1.5
 40
1.5
 40
0.18
 40
0.18
309
CELLMARGIN_END
 94
        6
 95
        1
302
GRIDFORMAT
  1
GRIDFORMAT_BEGIN
 90
        0
 91
        1
 62
     0
 92
       -2
340
0
 93
        0
 40
0.045
309
GRIDFORMAT_END
 95
        2
302
GRIDFORMAT
  1
GRIDFORMAT_BEGIN
 90
        0
 91
        1
 62
     0
 92
       -2
340
0
 93
        0
 40
0.045
309
GRIDFORMAT_END
 95
        4
302
GRIDFORMAT
  1
GRIDFORMAT_BEGIN
 90
        0
 91
        1
 62
     0
 92
       -2
340
0
 93
        0
 40
0.045
309
GRIDFORMAT_END
 95
        8
302
GRIDFORMAT
  1
GRIDFORMAT_BEGIN
 90
        0
 91
        1
 62
     0
 92
       -2
340
0
 93
        0
 40
0.045
309
GRIDFORMAT_END
 95
       16
302
GRIDFORMAT
  1
GRIDFORMAT_BEGIN
 90
        0
 91
        1
 62
     0
 92
       -2
340
0
 93
        0
 40
0.045
309
GRIDFORMAT_END
 95
       32
302
GRIDFORMAT
  1
GRIDFORMAT_BEGIN
 90
        0
 91
        1
 62
     0
 92
       -2
340
0
 93
        0
 40
0.045
309
GRIDFORMAT_END
309
TABLEFORMAT_END
  1
CELLSTYLE_BEGIN
 90
        1
 91
        1
300
_TITLE
309
CELLSTYLE_END
300
CELLSTYLE
  1
TABLEFORMAT_BEGIN
 90
        5
170
     1
 91
        0
 92
        0
 62
   257
 93
        1
300
CONTENTFORMAT
  1
CONTENTFORMAT_BEGIN
 90
        0
 91
        0
 92
        4
 93
        0
300

 40
0.0
140
1.0
 94
        5
 62
     0
340
11
144
4.5
309
CONTENTFORMAT_END
171
     1
301
MARGIN
  1
CELLMARGIN_BEGIN
 40
1.5
 40
1.5
 40
1.5
 40
1.5
 40
0.18
 40
0.18
309
CELLMARGIN_END
 94
        6
 95
        1
302
GRIDFORMAT
  1
GRIDFORMAT_BEGIN
 90
        0
 91
        1
 62
     0
 92
       -2
340
0
 93
        0
 40
0.045
309
GRIDFORMAT_END
 95
        2
302
GRIDFORMAT
  1
GRIDFORMAT_BEGIN
 90
        0
 91
        1
 62
     0
 92
       -2
340
0
 93
        0
 40
0.045
309
GRIDFORMAT_END
 95
        4
302
GRIDFORMAT
  1
GRIDFORMAT_BEGIN
 90
        0
 91
        1
 62
     0
 92
       -2
340
0
 93
        0
 40
0.045
309
GRIDFORMAT_END
 95
        8
302
GRIDFORMAT
  1
GRIDFORMAT_BEGIN
 90
        0
 91
        1
 62
     0
 92
       -2
340
0
 93
        0
 40
0.045
309
GRIDFORMAT_END
 95
       16
302
GRIDFORMAT
  1
GRIDFORMAT_BEGIN
 90
        0
 91
        1
 62
     0
 92
       -2
340
0
 93
        0
 40
0.045
309
GRIDFORMAT_END
 95
       32
302
GRIDFORMAT
  1
GRIDFORMAT_BEGIN
 90
        0
 91
        1
 62
     0
 92
       -2
340
0
 93
        0
 40
0.045
309
GRIDFORMAT_END
309
TABLEFORMAT_END
  1
CELLSTYLE_BEGIN
 90
        2
 91
        1
300
_HEADER
309
CELLSTYLE_END
300
CELLSTYLE
  1
TABLEFORMAT_BEGIN
 90
        5
170
     1
 91
        0
 92
        0
 62
   257
 93
        1
300
CONTENTFORMAT
  1
CONTENTFORMAT_BEGIN
 90
        0
 91
        0
 92
        4
 93
        0
300

 40
0.0
140
1.0
 94
        2
 62
     0
340
11
144
4.5
309
CONTENTFORMAT_END
171
     1
301
MARGIN
  1
CELLMARGIN_BEGIN
 40
1.5
 40
1.5
 40
1.5
 40
1.5
 40
0.18
 40
0.18
309
CELLMARGIN_END
 94
        6
 95
        1
302
GRIDFORMAT
  1
GRIDFORMAT_BEGIN
 90
        0
 91
        1
 62
     0
 92
       -2
340
0
 93
        0
 40
0.045
309
GRIDFORMAT_END
 95
        2
302
GRIDFORMAT
  1
GRIDFORMAT_BEGIN
 90
        0
 91
        1
 62
     0
 92
       -2
340
0
 93
        0
 40
0.045
309
GRIDFORMAT_END
 95
        4
302
GRIDFORMAT
  1
GRIDFORMAT_BEGIN
 90
        0
 91
        1
 62
     0
 92
       -2
340
0
 93
        0
 40
0.045
309
GRIDFORMAT_END
 95
        8
302
GRIDFORMAT
  1
GRIDFORMAT_BEGIN
 90
        0
 91
        1
 62
     0
 92
       -2
340
0
 93
        0
 40
0.045
309
GRIDFORMAT_END
 95
       16
302
GRIDFORMAT
  1
GRIDFORMAT_BEGIN
 90
        0
 91
        1
 62
     0
 92
       -2
340
0
 93
        0
 40
0.045
309
GRIDFORMAT_END
 95
       32
302
GRIDFORMAT
  1
GRIDFORMAT_BEGIN
 90
        0
 91
        1
 62
     0
 92
       -2
340
0
 93
        0
 40
0.045
309
GRIDFORMAT_END
309
TABLEFORMAT_END
  1
CELLSTYLE_BEGIN
 90
        3
 91
        2
300
_DATA
309
CELLSTYLE_END
  0
ENDSEC
  0
EOF
