  0
SECTION
  2
HEADER
  9
$ACADVER
  1
AC1027
  9
$ACADMAINTVER
 70
   125
  9
$DWGCODEPAGE
  3
ANSI_1252
  9
$LASTSAVEDBY
  1
fleminab
  9
$REQUIREDVERSIONS
160
                 0
  9
$INSBASE
 10
0.0
 20
0.0
 30
0.0
  9
$EXTMIN
 10
1034.99732362786
 20
361.9633499822237
 30
-0.0015258207003583
  9
$EXTMAX
 10
1742.937828483877
 20
720.3216818643372
 30
0.0000000349246037
  9
$LIMMIN
 10
0.0
 20
0.0
  9
$LIMMAX
 10
420.0
 20
297.0
  9
$ORTHOMODE
 70
     0
  9
$REGENMODE
 70
     1
  9
$FILLMODE
 70
     1
  9
$QTEXTMODE
 70
     0
  9
$MIRRTEXT
 70
     0
  9
$LTSCALE
 40
1.0
  9
$ATTMODE
 70
     1
  9
$TEXTSIZE
 40
2.5
  9
$TRACEWID
 40
1.0
  9
$TEXTSTYLE
  7
Standard
  9
$CLAYER
  8
0
  9
$CELTYPE
  6
ByLayer
  9
$CECOLOR
 62
   256
  9
$CELTSCALE
 40
1.0
  9
$DISPSILH
 70
     0
  9
$DIMSCALE
 40
1.0
  9
$DIMASZ
 40
2.5
  9
$DIMEXO
 40
0.625
  9
$DIMDLI
 40
3.75
  9
$DIMRND
 40
0.0
  9
$DIMDLE
 40
0.0
  9
$DIMEXE
 40
1.25
  9
$DIMTP
 40
0.0
  9
$DIMTM
 40
0.0
  9
$DIMTXT
 40
2.5
  9
$DIMCEN
 40
2.5
  9
$DIMTSZ
 40
0.0
  9
$DIMTOL
 70
     0
  9
$DIMLIM
 70
     0
  9
$DIMTIH
 70
     0
  9
$DIMTOH
 70
     0
  9
$DIMSE1
 70
     0
  9
$DIMSE2
 70
     0
  9
$DIMTAD
 70
     1
  9
$DIMZIN
 70
     8
  9
$DIMBLK
  1

  9
$DIMASO
 70
     1
  9
$DIMSHO
 70
     1
  9
$DIMPOST
  1

  9
$DIMAPOST
  1

  9
$DIMALT
 70
     0
  9
$DIMALTD
 70
     3
  9
$DIMALTF
 40
0.03937007874016
  9
$DIMLFAC
 40
1.0
  9
$DIMTOFL
 70
     1
  9
$DIMTVP
 40
0.0
  9
$DIMTIX
 70
     0
  9
$DIMSOXD
 70
     0
  9
$DIMSAH
 70
     0
  9
$DIMBLK1
  1

  9
$DIMBLK2
  1

  9
$DIMSTYLE
  2
ISO-25
  9
$DIMCLRD
 70
     0
  9
$DIMCLRE
 70
     0
  9
$DIMCLRT
 70
     0
  9
$DIMTFAC
 40
1.0
  9
$DIMGAP
 40
0.625
  9
$DIMJUST
 70
     0
  9
$DIMSD1
 70
     0
  9
$DIMSD2
 70
     0
  9
$DIMTOLJ
 70
     0
  9
$DIMTZIN
 70
     8
  9
$DIMALTZ
 70
     0
  9
$DIMALTTZ
 70
     0
  9
$DIMUPT
 70
     0
  9
$DIMDEC
 70
     2
  9
$DIMTDEC
 70
     2
  9
$DIMALTU
 70
     2
  9
$DIMALTTD
 70
     3
  9
$DIMTXSTY
  7
Standard
  9
$DIMAUNIT
 70
     0
  9
$DIMADEC
 70
     0
  9
$DIMALTRND
 40
0.0
  9
$DIMAZIN
 70
     0
  9
$DIMDSEP
 70
    44
  9
$DIMATFIT
 70
     3
  9
$DIMFRAC
 70
     0
  9
$DIMLDRBLK
  1

  9
$DIMLUNIT
 70
     2
  9
$DIMLWD
 70
    -2
  9
$DIMLWE
 70
    -2
  9
$DIMTMOVE
 70
     0
  9
$DIMFXL
 40
1.0
  9
$DIMFXLON
 70
     0
  9
$DIMJOGANG
 40
0.7853981633974483
  9
$DIMTFILL
 70
     0
  9
$DIMTFILLCLR
 70
     0
  9
$DIMARCSYM
 70
     0
  9
$DIMLTYPE
  6

  9
$DIMLTEX1
  6

  9
$DIMLTEX2
  6

  9
$DIMTXTDIRECTION
 70
     0
  9
$LUNITS
 70
     2
  9
$LUPREC
 70
     4
  9
$SKETCHINC
 40
1.0
  9
$FILLETRAD
 40
0.0
  9
$AUNITS
 70
     0
  9
$AUPREC
 70
     0
  9
$MENU
  1
.
  9
$ELEVATION
 40
0.0
  9
$PELEVATION
 40
0.0
  9
$THICKNESS
 40
0.0
  9
$LIMCHECK
 70
     0
  9
$CHAMFERA
 40
0.0
  9
$CHAMFERB
 40
0.0
  9
$CHAMFERC
 40
0.0
  9
$CHAMFERD
 40
0.0
  9
$SKPOLY
 70
     0
  9
$TDCREATE
 40
2455849.653460648
  9
$TDUCREATE
 40
2455849.195137211
  9
$TDUPDATE
 40
2458015.488067130
  9
$TDUUPDATE
 40
2458015.071400463
  9
$TDINDWG
 40
0.0003151736
  9
$TDUSRTIMER
 40
0.0003151736
  9
$USRTIMER
 70
     1
  9
$ANGBASE
 50
0.0
  9
$ANGDIR
 70
     0
  9
$PDMODE
 70
     0
  9
$PDSIZE
 40
0.0
  9
$PLINEWID
 40
0.0
  9
$SPLFRAME
 70
     0
  9
$SPLINETYPE
 70
     6
  9
$SPLINESEGS
 70
     8
  9
$HANDSEED
  5
320
  9
$SURFTAB1
 70
     6
  9
$SURFTAB2
 70
     6
  9
$SURFTYPE
 70
     6
  9
$SURFU
 70
     6
  9
$SURFV
 70
     6
  9
$UCSBASE
  2

  9
$UCSNAME
  2

  9
$UCSORG
 10
0.0
 20
0.0
 30
0.0
  9
$UCSXDIR
 10
1.0
 20
0.0
 30
0.0
  9
$UCSYDIR
 10
0.0
 20
1.0
 30
0.0
  9
$UCSORTHOREF
  2

  9
$UCSORTHOVIEW
 70
     0
  9
$UCSORGTOP
 10
0.0
 20
0.0
 30
0.0
  9
$UCSORGBOTTOM
 10
0.0
 20
0.0
 30
0.0
  9
$UCSORGLEFT
 10
0.0
 20
0.0
 30
0.0
  9
$UCSORGRIGHT
 10
0.0
 20
0.0
 30
0.0
  9
$UCSORGFRONT
 10
0.0
 20
0.0
 30
0.0
  9
$UCSORGBACK
 10
0.0
 20
0.0
 30
0.0
  9
$PUCSBASE
  2

  9
$PUCSNAME
  2

  9
$PUCSORG
 10
0.0
 20
0.0
 30
0.0
  9
$PUCSXDIR
 10
1.0
 20
0.0
 30
0.0
  9
$PUCSYDIR
 10
0.0
 20
1.0
 30
0.0
  9
$PUCSORTHOREF
  2

  9
$PUCSORTHOVIEW
 70
     0
  9
$PUCSORGTOP
 10
0.0
 20
0.0
 30
0.0
  9
$PUCSORGBOTTOM
 10
0.0
 20
0.0
 30
0.0
  9
$PUCSORGLEFT
 10
0.0
 20
0.0
 30
0.0
  9
$PUCSORGRIGHT
 10
0.0
 20
0.0
 30
0.0
  9
$PUCSORGFRONT
 10
0.0
 20
0.0
 30
0.0
  9
$PUCSORGBACK
 10
0.0
 20
0.0
 30
0.0
  9
$USERI1
 70
     0
  9
$USERI2
 70
     0
  9
$USERI3
 70
     0
  9
$USERI4
 70
     0
  9
$USERI5
 70
     0
  9
$USERR1
 40
0.0
  9
$USERR2
 40
0.0
  9
$USERR3
 40
0.0
  9
$USERR4
 40
0.0
  9
$USERR5
 40
0.0
  9
$WORLDVIEW
 70
     1
  9
$SHADEDGE
 70
     3
  9
$SHADEDIF
 70
    70
  9
$TILEMODE
 70
     1
  9
$MAXACTVP
 70
    64
  9
$PINSBASE
 10
0.0
 20
0.0
 30
0.0
  9
$PLIMCHECK
 70
     0
  9
$PEXTMIN
 10
0.0
 20
0.0
 30
0.0
  9
$PEXTMAX
 10
0.0
 20
0.0
 30
0.0
  9
$PLIMMIN
 10
0.0
 20
0.0
  9
$PLIMMAX
 10
12.0
 20
9.0
  9
$UNITMODE
 70
     0
  9
$VISRETAIN
 70
     1
  9
$PLINEGEN
 70
     0
  9
$PSLTSCALE
 70
     1
  9
$TREEDEPTH
 70
  3020
  9
$CMLSTYLE
  2
Standard
  9
$CMLJUST
 70
     0
  9
$CMLSCALE
 40
20.0
  9
$PROXYGRAPHICS
 70
     1
  9
$MEASUREMENT
 70
     1
  9
$CELWEIGHT
370
    -1
  9
$ENDCAPS
280
     0
  9
$JOINSTYLE
280
     0
  9
$LWDISPLAY
290
     0
  9
$INSUNITS
 70
     4
  9
$HYPERLINKBASE
  1

  9
$STYLESHEET
  1

  9
$XEDIT
290
     1
  9
$CEPSNTYPE
380
     0
  9
$PSTYLEMODE
290
     1
  9
$FINGERPRINTGUID
  2
{FDEAD578-A652-11D2-9A35-0060089B3A3F}
  9
$VERSIONGUID
  2
{29BCA498-0DC3-D541-9320-03B2DC82EFEC}
  9
$EXTNAMES
290
     1
  9
$PSVPSCALE
 40
0.0
  9
$OLESTARTUP
290
     0
  9
$SORTENTS
280
   127
  9
$INDEXCTL
280
     0
  9
$HIDETEXT
280
     1
  9
$XCLIPFRAME
280
     0
  9
$HALOGAP
280
     0
  9
$OBSCOLOR
 70
   257
  9
$OBSLTYPE
280
     0
  9
$INTERSECTIONDISPLAY
280
     0
  9
$INTERSECTIONCOLOR
 70
   257
  9
$DIMASSOC
280
     2
  9
$PROJECTNAME
  1

  9
$CAMERADISPLAY
290
     0
  9
$LENSLENGTH
 40
50.0
  9
$CAMERAHEIGHT
 40
0.0
  9
$STEPSPERSEC
 40
2.0
  9
$STEPSIZE
 40
6.0
  9
$3DDWFPREC
 40
2.0
  9
$PSOLWIDTH
 40
0.25
  9
$PSOLHEIGHT
 40
4.0
  9
$LOFTANG1
 40
1.570796326794896
  9
$LOFTANG2
 40
1.570796326794896
  9
$LOFTMAG1
 40
0.0
  9
$LOFTMAG2
 40
0.0
  9
$LOFTPARAM
 70
     7
  9
$LOFTNORMALS
280
     1
  9
$LATITUDE
 40
37.795
  9
$LONGITUDE
 40
-122.394
  9
$NORTHDIRECTION
 40
0.0
  9
$TIMEZONE
 70
 -8000
  9
$LIGHTGLYPHDISPLAY
280
     1
  9
$TILEMODELIGHTSYNCH
280
     1
  9
$CMATERIAL
347
2AD
  9
$SOLIDHIST
280
     0
  9
$SHOWHIST
280
     1
  9
$DWFFRAME
280
     2
  9
$DGNFRAME
280
     0
  9
$REALWORLDSCALE
290
     1
  9
$INTERFERECOLOR
 62
     1
  9
$INTERFEREOBJVS
345
2CF
  9
$INTERFEREVPVS
346
2CC
  9
$CSHADOW
280
     0
  9
$SHADOWPLANELOCATION
 40
0.0
  0
ENDSEC
  0
SECTION
  2
CLASSES
  0
CLASS
  1
ACDBDICTIONARYWDFLT
  2
AcDbDictionaryWithDefault
  3
ObjectDBX Classes
 90
        0
 91
        1
280
     0
281
     0
  0
CLASS
  1
DICTIONARYVAR
  2
AcDbDictionaryVar
  3
ObjectDBX Classes
 90
        0
 91
       20
280
     0
281
     0
  0
CLASS
  1
MATERIAL
  2
AcDbMaterial
  3
ObjectDBX Classes
 90
     1153
 91
        3
280
     0
281
     0
  0
CLASS
  1
VISUALSTYLE
  2
AcDbVisualStyle
  3
ObjectDBX Classes
 90
     4095
 91
       24
280
     0
281
     0
  0
CLASS
  1
TABLESTYLE
  2
AcDbTableStyle
  3
ObjectDBX Classes
 90
     4095
 91
        1
280
     0
281
     0
  0
CLASS
  1
SCALE
  2
AcDbScale
  3
ObjectDBX Classes
 90
     1153
 91
       17
280
     0
281
     0
  0
CLASS
  1
MLEADERSTYLE
  2
AcDbMLeaderStyle
  3
ACDB_MLEADERSTYLE_CLASS
 90
     4095
 91
        1
280
     0
281
     0
  0
CLASS
  1
ACDBSECTIONVIEWSTYLE
  2
AcDbSectionViewStyle
  3
ObjectDBX Classes
 90
     1025
 91
        1
280
     0
281
     0
  0
CLASS
  1
ACDBDETAILVIEWSTYLE
  2
AcDbDetailViewStyle
  3
ObjectDBX Classes
 90
     1025
 91
        1
280
     0
281
     0
  0
CLASS
  1
CELLSTYLEMAP
  2
AcDbCellStyleMap
  3
ObjectDBX Classes
 90
     1152
 91
        1
280
     0
281
     0
  0
ENDSEC
  0
SECTION
  2
TABLES
  0
TABLE
  2
VPORT
  5
8
330
0
100
AcDbSymbolTable
 70
     1
1001
ACAD
1000
DbSaveVer
1071
        5
  0
VPORT
  5
2AB
330
8
100
AcDbSymbolTableRecord
100
AcDbViewportTableRecord
  2
*Active
 70
     0
 10
0.0
 20
0.0
 11
1.0
 21
1.0
 12
1388.967576055869
 22
541.1425159232805
 13
0.0
 23
0.0
 14
10.0
 24
10.0
 15
10.0
 25
10.0
 16
0.0
 26
0.0
 36
1.0
 17
0.0
 27
0.0
 37
0.0
 40
360.9241433275702
 41
2.292712066905615
 42
50.0
 43
0.0
 44
0.0
 50
0.0
 51
0.0
 71
     0
 72
  1000
 73
     1
 74
     3
 75
     0
 76
     0
 77
     0
 78
     0
281
     0
 65
     1
110
0.0
120
0.0
130
0.0
111
1.0
121
0.0
131
0.0
112
0.0
122
1.0
132
0.0
 79
     0
146
0.0
348
2CB
 60
     3
 61
     5
292
     1
282
     1
141
0.0
142
0.0
 63
   250
421
  3355443
1001
ACAD_NAV_VCDISPLAY
1070
     3
  0
ENDTAB
  0
TABLE
  2
LTYPE
  5
5
330
0
100
AcDbSymbolTable
 70
     1
  0
LTYPE
  5
14
330
5
100
AcDbSymbolTableRecord
100
AcDbLinetypeTableRecord
  2
ByBlock
 70
     0
  3

 72
    65
 73
     0
 40
0.0
  0
LTYPE
  5
15
330
5
100
AcDbSymbolTableRecord
100
AcDbLinetypeTableRecord
  2
ByLayer
 70
     0
  3

 72
    65
 73
     0
 40
0.0
  0
LTYPE
  5
16
330
5
100
AcDbSymbolTableRecord
100
AcDbLinetypeTableRecord
  2
Continuous
 70
     0
  3
Solid line
 72
    65
 73
     0
 40
0.0
  0
ENDTAB
  0
TABLE
  2
LAYER
  5
2
102
{ACAD_XDICTIONARY
360
AF
102
}
330
0
100
AcDbSymbolTable
 70
     2
  0
LAYER
  5
10
102
{ACAD_XDICTIONARY
360
2FF
102
}
330
2
100
AcDbSymbolTableRecord
100
AcDbLayerTableRecord
  2
0
 70
     0
 62
     7
  6
Continuous
370
    -3
390
F
347
2BD
348
0
  0
LAYER
  5
AB
330
2
100
AcDbSymbolTableRecord
100
AcDbLayerTableRecord
  2
Defpoints
 70
     0
 62
     7
  6
Continuous
290
     0
370
    -3
390
F
347
2BD
348
0
  0
ENDTAB
  0
TABLE
  2
STYLE
  5
3
330
0
100
AcDbSymbolTable
 70
     3
  0
STYLE
  5
11
330
3
100
AcDbSymbolTableRecord
100
AcDbTextStyleTableRecord
  2
Standard
 70
     0
 40
0.0
 41
1.0
 50
0.0
 71
     0
 42
2.5
  3
txt
  4

  0
STYLE
  5
AC
330
3
100
AcDbSymbolTableRecord
100
AcDbTextStyleTableRecord
  2
6
 70
     0
 40
0.0
 41
0.8
 50
0.0
 71
     0
 42
3.799999999999999
  3
technic_.ttf
  4

1001
ACAD
1000
Technic
1071
      514
  0
STYLE
  5
AD
330
3
100
AcDbSymbolTableRecord
100
AcDbTextStyleTableRecord
  2
7.5
 70
     0
 40
7.599999999999999
 41
0.7070000000000001
 50
0.0
 71
     0
 42
7.599999999999999
  3
technic_.ttf
  4

1001
ACAD
1000
Technic
1071
      514
  0
ENDTAB
  0
TABLE
  2
VIEW
  5
6
330
0
100
AcDbSymbolTable
 70
     0
  0
ENDTAB
  0
TABLE
  2
UCS
  5
7
330
0
100
AcDbSymbolTable
 70
     0
  0
ENDTAB
  0
TABLE
  2
APPID
  5
9
330
0
100
AcDbSymbolTable
 70
     3
  0
APPID
  5
12
330
9
100
AcDbSymbolTableRecord
100
AcDbRegAppTableRecord
  2
ACAD
 70
     0
  0
APPID
  5
2F8
330
9
100
AcDbSymbolTableRecord
100
AcDbRegAppTableRecord
  2
AcadStringInfo
 70
     0
  0
APPID
  5
301
330
9
100
AcDbSymbolTableRecord
100
AcDbRegAppTableRecord
  2
ACAD_NAV_VCDISPLAY
 70
     0
  0
ENDTAB
  0
TABLE
  2
DIMSTYLE
  5
A
330
0
100
AcDbSymbolTable
 70
     2
100
AcDbDimStyleTable
 71
     0
  0
DIMSTYLE
105
27
330
A
100
AcDbSymbolTableRecord
100
AcDbDimStyleTableRecord
  2
ISO-25
 70
     0
 41
2.5
 42
0.625
 43
3.75
 44
1.25
 73
     0
 74
     0
 77
     1
 78
     8
140
2.5
141
2.5
143
0.03937007874016
147
0.625
171
     3
172
     1
271
     2
272
     2
274
     3
278
    44
283
     0
284
     8
340
11
  0
DIMSTYLE
105
AE
102
{ACAD_REACTORS
330
192
330
193
330
26B
102
}
330
A
100
AcDbSymbolTableRecord
100
AcDbDimStyleTableRecord
  2
6
 70
     0
 41
6.0
 42
1.0
 43
5.0
 44
3.0
 73
     0
 74
     0
 77
     3
 78
     8
140
6.0
141
7.5
143
0.03937007874016
147
1.0
171
     3
172
     1
176
    96
177
    96
178
   106
271
     1
272
     1
274
     3
283
     0
284
     8
340
AC
371
    18
372
    13
  0
ENDTAB
  0
TABLE
  2
BLOCK_RECORD
  5
1
330
0
100
AcDbSymbolTable
 70
     7
  0
BLOCK_RECORD
  5
1F
330
1
100
AcDbSymbolTableRecord
100
AcDbBlockTableRecord
  2
*Model_Space
340
22
 70
     0
280
     1
281
     0
  0
BLOCK_RECORD
  5
50
330
1
100
AcDbSymbolTableRecord
100
AcDbBlockTableRecord
  2
*Paper_Space
340
51
 70
     0
280
     1
281
     0
  0
BLOCK_RECORD
  5
55
330
1
100
AcDbSymbolTableRecord
100
AcDbBlockTableRecord
  2
*Paper_Space0
340
56
 70
     0
280
     1
281
     0
  0
BLOCK_RECORD
  5
26C
330
1
100
AcDbSymbolTableRecord
100
AcDbBlockTableRecord
  2
*D4
340
0
 70
     0
280
     1
281
     0
  0
BLOCK_RECORD
  5
278
330
1
100
AcDbSymbolTableRecord
100
AcDbBlockTableRecord
  2
*D5
340
0
 70
     0
280
     1
281
     0
  0
BLOCK_RECORD
  5
284
330
1
100
AcDbSymbolTableRecord
100
AcDbBlockTableRecord
  2
*D6
340
0
 70
     0
280
     1
281
     0
  0
ENDTAB
  0
ENDSEC
  0
SECTION
  2
BLOCKS
  0
BLOCK
  5
20
330
1F
100
AcDbEntity
  8
0
100
AcDbBlockBegin
  2
*Model_Space
 70
     0
 10
0.0
 20
0.0
 30
0.0
  3
*Model_Space
  1

  0
ENDBLK
  5
21
330
1F
100
AcDbEntity
  8
0
100
AcDbBlockEnd
  0
BLOCK
  5
52
330
50
100
AcDbEntity
 67
     1
  8
0
100
AcDbBlockBegin
  2
*Paper_Space
 70
     0
 10
0.0
 20
0.0
 30
0.0
  3
*Paper_Space
  1

  0
ENDBLK
  5
53
330
50
100
AcDbEntity
 67
     1
  8
0
100
AcDbBlockEnd
  0
BLOCK
  5
57
330
55
100
AcDbEntity
 67
     1
  8
0
100
AcDbBlockBegin
  2
*Paper_Space0
 70
     0
 10
0.0
 20
0.0
 30
0.0
  3
*Paper_Space0
  1

  0
ENDBLK
  5
58
330
55
100
AcDbEntity
 67
     1
  8
0
100
AcDbBlockEnd
  0
BLOCK
  5
276
330
26C
100
AcDbEntity
  8
0
100
AcDbBlockBegin
  2
*D4
 70
     1
 10
0.0
 20
0.0
 30
0.0
  3
*D4
  1

  0
LINE
  5
290
330
26C
100
AcDbEntity
  8
0
 62
    96
440
 16777216
370
    13
100
AcDbLine
 10
1550.489659435671
 20
676.0199466116753
 30
0.0
 11
1553.55123481771
 21
676.0199466116753
 31
0.0
  0
LINE
  5
291
330
26C
100
AcDbEntity
  8
0
 62
    96
440
 16777216
370
    13
100
AcDbLine
 10
1547.932132889367
 20
361.9634636861604
 30
0.0
 11
1553.55123481771
 21
361.9634636861604
 31
0.0
  0
LINE
  5
292
330
26C
100
AcDbEntity
  8
0
 62
     7
440
 16777216
370
    18
100
AcDbLine
 10
1550.55123481771
 20
658.0199466116753
 30
0.0
 11
1550.55123481771
 21
379.9634636861604
 31
0.0
  0
SOLID
  5
293
330
26C
100
AcDbEntity
  8
0
 62
     7
440
 16777216
100
AcDbTrace
 10
1547.55123481771
 20
658.0199466116753
 30
0.0
 11
1553.55123481771
 21
658.0199466116753
 31
0.0
 12
1550.55123481771
 22
676.0199466116753
 32
0.0
 13
1550.55123481771
 23
676.0199466116753
 33
0.0
  0
SOLID
  5
294
330
26C
100
AcDbEntity
  8
0
 62
     7
440
 16777216
100
AcDbTrace
 10
1547.55123481771
 20
379.9634636861604
 30
0.0
 11
1553.55123481771
 21
379.9634636861604
 31
0.0
 12
1550.55123481771
 22
361.9634636861604
 32
0.0
 13
1550.55123481771
 23
361.9634636861604
 33
0.0
  0
MTEXT
  5
295
330
26C
100
AcDbEntity
  8
0
 62
     7
440
 16777216
100
AcDbMText
 10
1538.55123481771
 20
518.9917051489181
 30
0.0
 40
20.0
 41
0.0
 46
0.0
 71
     5
 72
     1
  1
314
 11
0.0000000000000001
 21
1.0
 31
0.0
 73
     1
 44
1.0
  0
POINT
  5
296
330
26C
100
AcDbEntity
  8
Defpoints
 62
     0
440
 16777216
100
AcDbPoint
 10
1549.489659435671
 20
676.0199466116753
 30
0.0
  0
POINT
  5
297
330
26C
100
AcDbEntity
  8
Defpoints
 62
     0
440
 16777216
100
AcDbPoint
 10
1546.932132889367
 20
361.9634636861604
 30
0.0
  0
POINT
  5
298
330
26C
100
AcDbEntity
  8
Defpoints
 62
     0
440
 16777216
100
AcDbPoint
 10
1550.55123481771
 20
361.9634636861604
 30
0.0
  0
ENDBLK
  5
277
330
26C
100
AcDbEntity
  8
0
100
AcDbBlockEnd
  0
BLOCK
  5
282
330
278
100
AcDbEntity
  8
0
100
AcDbBlockBegin
  2
*D5
 70
     1
 10
0.0
 20
0.0
 30
0.0
  3
*D5
  1

  0
LINE
  5
299
330
278
100
AcDbEntity
  8
0
 62
    96
440
 16777216
370
    13
100
AcDbLine
 10
1528.761052351654
 20
691.3456351977777
 30
0.0
 11
1528.761052351654
 21
696.3580874627767
 31
0.0
  0
LINE
  5
29A
330
278
100
AcDbEntity
  8
0
 62
    96
440
 16777216
370
    13
100
AcDbLine
 10
1035.126911821111
 20
687.4348494390268
 30
0.0
 11
1035.126911821111
 21
696.3580874627767
 31
0.0
  0
LINE
  5
29B
330
278
100
AcDbEntity
  8
0
 62
     7
440
 16777216
370
    18
100
AcDbLine
 10
1510.761052351654
 20
693.3580874627767
 30
0.0
 11
1053.126911821111
 21
693.3580874627767
 31
0.0
  0
SOLID
  5
29C
330
278
100
AcDbEntity
  8
0
 62
     7
440
 16777216
100
AcDbTrace
 10
1510.761052351654
 20
696.3580874627767
 30
0.0
 11
1510.761052351654
 21
690.3580874627768
 31
0.0
 12
1528.761052351654
 22
693.3580874627767
 32
0.0
 13
1528.761052351654
 23
693.3580874627767
 33
0.0
  0
SOLID
  5
29D
330
278
100
AcDbEntity
  8
0
 62
     7
440
 16777216
100
AcDbTrace
 10
1053.126911821111
 20
696.3580874627767
 30
0.0
 11
1053.126911821111
 21
690.3580874627768
 31
0.0
 12
1035.126911821111
 22
693.3580874627767
 32
0.0
 13
1035.126911821111
 23
693.3580874627767
 33
0.0
  0
MTEXT
  5
29E
330
278
100
AcDbEntity
  8
0
 62
     7
440
 16777216
100
AcDbMText
 10
1281.943982086382
 20
705.3580874627767
 30
0.0
 40
20.0
 41
0.0
 46
0.0
 71
     5
 72
     1
  1
494
 73
     1
 44
1.0
  0
POINT
  5
29F
330
278
100
AcDbEntity
  8
Defpoints
 62
     0
440
 16777216
100
AcDbPoint
 10
1528.761052351654
 20
690.3456351977776
 30
0.0
  0
POINT
  5
2A0
330
278
100
AcDbEntity
  8
Defpoints
 62
     0
440
 16777216
100
AcDbPoint
 10
1035.126911821111
 20
686.4348494390268
 30
0.0
  0
POINT
  5
2A1
330
278
100
AcDbEntity
  8
Defpoints
 62
     0
440
 16777216
100
AcDbPoint
 10
1035.126911821111
 20
693.3580874627767
 30
0.0
  0
ENDBLK
  5
283
330
278
100
AcDbEntity
  8
0
100
AcDbBlockEnd
  0
BLOCK
  5
28E
330
284
100
AcDbEntity
  8
0
100
AcDbBlockBegin
  2
*D6
 70
     1
 10
0.0
 20
0.0
 30
0.0
  3
*D6
  1

  0
LINE
  5
2A2
330
284
100
AcDbEntity
  8
0
 62
    96
440
 16777216
370
    13
100
AcDbLine
 10
1742.884635807809
 20
691.6864449402937
 30
0.0
 11
1742.884635807809
 21
701.2996983849143
 31
0.0
  0
LINE
  5
2A3
330
284
100
AcDbEntity
  8
0
 62
    96
440
 16777216
370
    13
100
AcDbLine
 10
1697.884635807809
 20
693.7602981565362
 30
0.0
 11
1697.884635807809
 21
701.2996983849143
 31
0.0
  0
LINE
  5
2A4
330
284
100
AcDbEntity
  8
0
 62
     7
440
 16777216
370
    18
100
AcDbLine
 10
1724.884635807809
 20
698.2996983849143
 30
0.0
 11
1715.884635807809
 21
698.2996983849143
 31
0.0
  0
SOLID
  5
2A5
330
284
100
AcDbEntity
  8
0
 62
     7
440
 16777216
100
AcDbTrace
 10
1724.884635807809
 20
701.2996983849143
 30
0.0
 11
1724.884635807809
 21
695.2996983849143
 31
0.0
 12
1742.884635807809
 22
698.2996983849143
 32
0.0
 13
1742.884635807809
 23
698.2996983849143
 33
0.0
  0
SOLID
  5
2A6
330
284
100
AcDbEntity
  8
0
 62
     7
440
 16777216
100
AcDbTrace
 10
1715.884635807809
 20
701.2996983849143
 30
0.0
 11
1715.884635807809
 21
695.2996983849143
 31
0.0
 12
1697.884635807809
 22
698.2996983849143
 32
0.0
 13
1697.884635807809
 23
698.2996983849143
 33
0.0
  0
MTEXT
  5
2A7
330
284
100
AcDbEntity
  8
0
 62
     7
440
 16777216
100
AcDbMText
 10
1720.384635807809
 20
710.2996983849143
 30
0.0
 40
20.0
 41
0.0
 46
0.0
 71
     5
 72
     1
  1
45
 73
     1
 44
1.0
  0
POINT
  5
2A8
330
284
100
AcDbEntity
  8
Defpoints
 62
     0
440
 16777216
100
AcDbPoint
 10
1742.884635807809
 20
690.6864449402937
 30
0.0
  0
POINT
  5
2A9
330
284
100
AcDbEntity
  8
Defpoints
 62
     0
440
 16777216
100
AcDbPoint
 10
1697.884635807809
 20
692.7602981565362
 30
0.0
  0
POINT
  5
2AA
330
284
100
AcDbEntity
  8
Defpoints
 62
     0
440
 16777216
100
AcDbPoint
 10
1697.884635807809
 20
698.2996983849143
 30
0.0
  0
ENDBLK
  5
28F
330
284
100
AcDbEntity
  8
0
100
AcDbBlockEnd
  0
ENDSEC
  0
SECTION
  2
ENTITIES
  0
DIMENSION
  5
192
330
1F
100
AcDbEntity
  8
0
100
AcDbDimension
280
     0
  2
*D4
 10
1550.55123481771
 20
361.9634636861604
 30
0.0
 11
1538.55123481771
 21
518.9917051489181
 31
0.0
 70
    32
  1
314
 71
     5
 42
314.0564829255149
 73
     0
 74
     0
 75
     0
  3
6
100
AcDbAlignedDimension
 13
1549.489659435671
 23
676.0199466116753
 33
0.0
 14
1546.932132889367
 24
361.9634636861604
 34
0.0
 50
90.0
100
AcDbRotatedDimension
1001
ACAD
1000
DSTYLE
1002
{
1070
    41
1040
18.0
1070
   140
1040
20.0
1070
   147
1040
2.0
1070
   176
1070
     7
1070
   178
1070
     7
1070
   340
1005
11
1002
}
  0
DIMENSION
  5
193
330
1F
100
AcDbEntity
  8
0
100
AcDbDimension
280
     0
  2
*D5
 10
1035.126911821111
 20
693.3580874627767
 30
0.0
 11
1281.943982086382
 21
705.3580874627767
 31
0.0
 70
    32
  1
494
 71
     5
 42
493.6341405305425
 73
     0
 74
     0
 75
     0
  3
6
100
AcDbAlignedDimension
 13
1528.761052351654
 23
690.3456351977776
 33
0.0
 14
1035.126911821111
 24
686.4348494390268
 34
0.0
100
AcDbRotatedDimension
1001
ACAD
1000
DSTYLE
1002
{
1070
    41
1040
18.0
1070
   140
1040
20.0
1070
   147
1040
2.0
1070
   176
1070
     7
1070
   178
1070
     7
1070
   340
1005
11
1002
}
  0
ARC
  5
194
330
1F
100
AcDbEntity
  8
0
100
AcDbCircle
 10
3454.521252899733
 20
577.5520769417338
 30
0.0
 40
1948.430070932597
100
AcDbArc
 50
179.9834172089628
 51
180.1302366098355
  0
LINE
  5
195
330
1F
100
AcDbEntity
  8
0
  6
Continuous
370
    35
100
AcDbLine
 10
1525.925294428003
 20
571.7801621585496
 30
0.0
 11
1523.008978555302
 21
571.7801621585493
 31
0.0
  0
LINE
  5
196
330
1F
100
AcDbEntity
  8
0
  6
Continuous
370
    35
100
AcDbLine
 10
1525.761048257339
 20
575.5177689646298
 30
0.0
 11
1522.761048257339
 21
575.5278624549925
 31
0.0
  0
LINE
  5
197
330
1F
100
AcDbEntity
  8
0
  6
Continuous
370
    35
100
AcDbLine
 10
1525.761048257339
 20
579.0163415914827
 30
0.0
 11
1521.761048257339
 21
579.0163415914824
 31
0.0
  0
ARC
  5
198
330
1F
100
AcDbEntity
  8
0
  6
Continuous
370
    35
100
AcDbCircle
 10
1509.334971669034
 20
577.2911099872697
 30
0.0
 40
2.93944749304806
100
AcDbArc
 50
38.83096361783658
 51
150.8036518987022
  0
ARC
  5
199
330
1F
100
AcDbEntity
  8
0
  6
Continuous
370
    35
100
AcDbCircle
 10
1509.347749901422
 20
574.4504405975883
 30
0.0
 40
3.146667881466778
100
AcDbArc
 50
214.9625606629493
 51
316.355679742158
  0
LINE
  5
19A
330
1F
100
AcDbEntity
  8
0
  6
Continuous
370
    35
100
AcDbLine
 10
1522.761048257339
 20
569.5278375051961
 30
0.0
 11
1521.761048257339
 21
570.5307255178849
 31
0.0
  0
LINE
  5
19B
330
1F
100
AcDbEntity
  8
0
  6
Continuous
370
    35
100
AcDbLine
 10
1522.761048257339
 20
581.5278874047893
 30
0.0
 11
1521.761048257338
 21
580.5307671008789
 31
0.0
  0
LINE
  5
19C
330
1F
100
AcDbEntity
  8
0
  6
Continuous
370
    35
100
AcDbLine
 10
1526.761048257339
 20
579.0163415914831
 30
0.0
 11
1525.761048257339
 21
581.5192358416211
 31
0.0
  0
LINE
  5
19D
330
1F
100
AcDbEntity
  8
0
  6
Continuous
370
    35
100
AcDbLine
 10
1526.761048257339
 20
572.0163124833872
 30
0.0
 11
1525.761048257339
 21
569.519185942028
 31
0.0
  0
LINE
  5
19E
330
1F
100
AcDbEntity
  8
0
  6
Continuous
370
    35
100
AcDbLine
 10
1525.761048257339
 20
569.5163020876385
 30
0.0
 11
1525.761048257339
 21
581.5192358416211
 31
0.0
  0
ARC
  5
19F
330
1F
100
AcDbEntity
  8
0
  6
Continuous
370
    35
100
AcDbCircle
 10
1524.698531104319
 20
575.5163270374351
 30
0.0
 40
4.062521247335343
100
AcDbArc
 50
300.5103416170279
 51
59.4896583829721
  0
LINE
  5
1A0
330
1F
100
AcDbEntity
  8
0
  6
Continuous
370
    35
100
AcDbLine
 10
1522.761048257339
 20
569.5278375051964
 30
0.0
 11
1525.761048257338
 21
569.519185942028
 31
0.0
  0
LINE
  5
1A1
330
1F
100
AcDbEntity
  8
0
  6
Continuous
370
    35
100
AcDbLine
 10
1522.761048257339
 20
581.5278874047893
 30
0.0
 11
1525.761048257339
 21
581.5192358416211
 31
0.0
  0
LINE
  5
1A2
330
1F
100
AcDbEntity
  8
0
  6
Continuous
370
    35
100
AcDbLine
 10
1522.761048257339
 20
569.527837505196
 30
0.0
 11
1522.761048257339
 21
581.5278874047893
 31
0.0
  0
LINE
  5
1A3
330
1F
100
AcDbEntity
  8
0
  6
Continuous
370
    35
100
AcDbLine
 10
1526.761048257339
 20
572.0163124833872
 30
0.0
 11
1526.761048257339
 21
579.0163415914831
 31
0.0
  0
LINE
  5
1A4
330
1F
100
AcDbEntity
  8
0
  6
Continuous
370
    35
100
AcDbLine
 10
1513.023900432604
 20
594.6352007728032
 30
0.0
 11
1510.773881720335
 21
594.6222234820147
 31
0.0
  0
LINE
  5
1A5
330
1F
100
AcDbEntity
  8
0
  6
Continuous
370
    35
100
AcDbLine
 10
1509.624798984353
 20
594.6450032864347
 30
0.0
 11
1523.624798984353
 21
594.6046293249836
 31
0.0
  0
LINE
  5
1A6
330
1F
100
AcDbEntity
  8
0
  6
Continuous
370
    35
100
AcDbLine
 10
1506.768971660378
 20
578.7249842913706
 30
0.0
 11
1506.768971660378
 21
572.6472707387637
 31
0.0
  0
LINE
  5
1A7
330
1F
100
AcDbEntity
  8
0
  6
Continuous
370
    35
100
AcDbLine
 10
1511.624798984352
 20
570.904355536056
 30
0.0
 11
1511.624798984352
 21
585.639198152961
 31
0.0
  0
LINE
  5
1A8
330
1F
100
AcDbEntity
  8
0
  6
Continuous
370
    35
100
AcDbLine
 10
1509.624798984353
 20
585.64496586174
 30
0.0
 11
1523.624798984353
 21
585.6045919002887
 31
0.0
  0
LINE
  5
1A9
330
1F
100
AcDbEntity
  8
0
  6
Continuous
370
    35
100
AcDbLine
 10
1521.624798984352
 20
570.904355536056
 30
0.0
 11
1521.624798984352
 21
585.6103596090673
 31
0.0
  0
LINE
  5
1AA
330
1F
100
AcDbEntity
  8
0
  6
Continuous
370
    35
100
AcDbLine
 10
1511.624798984352
 20
570.904355536056
 30
0.0
 11
1511.624798984352
 21
585.639198152961
 31
0.0
  0
LINE
  5
1AB
330
1F
100
AcDbEntity
  8
0
  6
Continuous
370
    35
100
AcDbLine
 10
1509.624798984353
 20
585.64496586174
 30
0.0
 11
1509.624798984353
 21
594.6450032864347
 31
0.0
  0
LINE
  5
1AC
330
1F
100
AcDbEntity
  8
0
  6
Continuous
370
    35
100
AcDbLine
 10
1523.624798984353
 20
585.6045919002887
 30
0.0
 11
1523.624798984353
 21
594.6046293249836
 31
0.0
  0
LINE
  5
1AD
330
1F
100
AcDbEntity
  8
0
100
AcDbLine
 10
1506.768971660378
 20
578.7249842913706
 30
0.0
 11
1506.073680180072
 21
578.7249842913706
 31
0.0
  0
LINE
  5
1AE
330
1F
100
AcDbEntity
  8
0
100
AcDbLine
 10
1506.768971660382
 20
572.6472707387569
 30
0.0
 11
1506.083734541769
 21
572.6472707387569
 31
0.0
  0
LINE
  5
1AF
330
1F
100
AcDbEntity
  8
0
100
AcDbLine
 10
1304.480626308324
 20
572.6472707387569
 30
0.0
 11
1305.165863426937
 21
572.6472707387569
 31
0.0
  0
LINE
  5
1B0
330
1F
100
AcDbEntity
  8
0
100
AcDbLine
 10
1304.480626308329
 20
578.7249842913706
 30
0.0
 11
1305.175917788634
 21
578.7249842913706
 31
0.0
  0
ARC
  5
1B1
330
1F
100
AcDbEntity
  8
0
  6
Continuous
370
    35
100
AcDbCircle
 10
1405.624798984353
 20
575.5199466116753
 30
0.0
 40
100.5
100
AcDbArc
 50
1.480188590607306
 51
358.6334603236248
  0
LINE
  5
1B2
330
1F
100
AcDbEntity
  8
0
  6
Continuous
370
    35
100
AcDbLine
 10
1394.624798984353
 20
432.4038896097331
 30
0.0
 11
1416.624798984353
 21
432.4038896097329
 31
0.0
  0
LINE
  5
1B3
330
1F
100
AcDbEntity
  8
0
  6
Continuous
370
    35
100
AcDbLine
 10
1394.624798984353
 20
468.403889609733
 30
0.0
 11
1416.624798984354
 21
468.4038896097328
 31
0.0
  0
ARC
  5
1B4
330
1F
100
AcDbEntity
  8
0
  6
Continuous
370
    35
100
AcDbCircle
 10
1405.624798984353
 20
570.904355536056
 30
0.0
 40
106.0
100
AcDbArc
 50
275.9212016296387
 51
0.7379140597079582
  0
ARC
  5
1B5
330
1F
100
AcDbEntity
  8
0
  6
Continuous
370
    35
100
AcDbCircle
 10
1405.624798984353
 20
570.904355536056
 30
0.0
 40
116.0
100
AcDbArc
 50
275.4413964305575
 51
0.0
  0
LINE
  5
1B6
330
1F
100
AcDbEntity
  8
0
  6
Continuous
370
    35
100
AcDbLine
 10
1287.624798984353
 20
585.6045919002887
 30
0.0
 11
1287.624798984353
 21
594.6046293249836
 31
0.0
  0
LINE
  5
1B7
330
1F
100
AcDbEntity
  8
0
  6
Continuous
370
    35
100
AcDbLine
 10
1301.624798984353
 20
585.64496586174
 30
0.0
 11
1301.624798984353
 21
594.6450032864347
 31
0.0
  0
LINE
  5
1B8
330
1F
100
AcDbEntity
  8
0
  6
Continuous
370
    35
100
AcDbLine
 10
1299.624798984353
 20
570.904355536056
 30
0.0
 11
1299.624798984353
 21
585.639198152961
 31
0.0
  0
LINE
  5
1B9
330
1F
100
AcDbEntity
  8
0
  6
Continuous
370
    35
100
AcDbLine
 10
1289.624798984353
 20
570.904355536056
 30
0.0
 11
1289.624798984353
 21
585.6103596090673
 31
0.0
  0
LINE
  5
1BA
330
1F
100
AcDbEntity
  8
0
  6
Continuous
370
    35
100
AcDbLine
 10
1301.624798984353
 20
585.64496586174
 30
0.0
 11
1287.624798984353
 21
585.6045919002887
 31
0.0
  0
LINE
  5
1BB
330
1F
100
AcDbEntity
  8
0
  6
Continuous
370
    35
100
AcDbLine
 10
1299.624798984353
 20
570.904355536056
 30
0.0
 11
1299.624798984353
 21
585.639198152961
 31
0.0
  0
LINE
  5
1BC
330
1F
100
AcDbEntity
  8
0
  6
Continuous
370
    35
100
AcDbLine
 10
1304.480626308329
 20
578.7249842913706
 30
0.0
 11
1304.480626308329
 21
572.6472707387637
 31
0.0
  0
ARC
  5
1BD
330
1F
100
AcDbEntity
  8
0
  6
Continuous
370
    35
100
AcDbCircle
 10
1405.624798984353
 20
570.904355536056
 30
0.0
 40
116.0
100
AcDbArc
 50
180.0
 51
264.5586035694425
  0
ARC
  5
1BE
330
1F
100
AcDbEntity
  8
0
  6
Continuous
370
    35
100
AcDbCircle
 10
1405.624798984353
 20
570.904355536056
 30
0.0
 40
106.0
100
AcDbArc
 50
180.0
 51
264.0434878542301
  0
CIRCLE
  5
1BF
330
1F
100
AcDbEntity
  8
0
  6
Continuous
370
    35
100
AcDbCircle
 10
1405.624798984353
 20
575.5199466116753
 30
0.0
 40
97.0
  0
CIRCLE
  5
1C0
330
1F
100
AcDbEntity
  8
0
  6
Continuous
370
    35
100
AcDbCircle
 10
1405.624798984353
 20
575.5199466116753
 30
0.0
 40
91.0
  0
LINE
  5
1C1
330
1F
100
AcDbEntity
  8
0
  6
Continuous
370
    35
100
AcDbLine
 10
1416.624798984353
 20
468.4038896097328
 30
0.0
 11
1416.624798984353
 21
466.4038896097329
 31
0.0
  0
LINE
  5
1C2
330
1F
100
AcDbEntity
  8
0
  6
Continuous
370
    35
100
AcDbLine
 10
1394.624798984353
 20
468.4038896097328
 30
0.0
 11
1394.624798984353
 21
466.4038896097329
 31
0.0
  0
LINE
  5
1C3
330
1F
100
AcDbEntity
  8
0
  6
Continuous
370
    35
100
AcDbLine
 10
1394.624798984353
 20
468.4038896097328
 30
0.0
 11
1416.624798984353
 21
468.4038896097328
 31
0.0
  0
LINE
  5
1C4
330
1F
100
AcDbEntity
  8
0
  6
Continuous
370
    35
100
AcDbLine
 10
1278.624798984353
 20
436.4038896097329
 30
0.0
 11
1278.624798984353
 21
432.4038896097333
 31
0.0
  0
LINE
  5
1C5
330
1F
100
AcDbEntity
  8
0
  6
Continuous
370
    35
100
AcDbLine
 10
1256.624798984353
 20
415.9038896097335
 30
0.0
 11
1256.624798984354
 21
411.903889609734
 31
0.0
  0
ARC
  5
1C6
330
1F
100
AcDbEntity
  8
0
  6
Continuous
370
    35
100
AcDbCircle
 10
1286.835978470341
 20
442.4038896097329
 30
0.0
 40
10.16973296360832
100
AcDbArc
 50
143.843985779391
 51
216.156014220609
  0
ARC
  5
1C7
330
1F
100
AcDbEntity
  8
0
  6
Continuous
370
    35
100
AcDbCircle
 10
1246.425286093241
 20
421.9038896097333
 30
0.0
 40
11.83342990075018
100
AcDbArc
 50
329.5332592676043
 51
30.4667407323956
  0
CIRCLE
  5
1C8
330
1F
100
AcDbEntity
  8
0
  6
Continuous
370
    35
100
AcDbCircle
 10
1094.895776661024
 20
376.8433763882565
 30
0.0
 40
5.0
  0
CIRCLE
  5
1C9
330
1F
100
AcDbEntity
  8
0
  6
Continuous
370
    35
100
AcDbCircle
 10
1094.866083954176
 20
467.0933667533211
 30
0.0
 40
5.0
  0
ARC
  5
1CA
330
1F
100
AcDbEntity
  8
0
  6
Continuous
370
    35
100
AcDbCircle
 10
1095.126911821111
 20
421.9634636861606
 30
0.0
 40
60.0
100
AcDbArc
 50
5.681997685663429
 51
354.2036509967861
  0
LINE
  5
1CB
330
1F
100
AcDbEntity
  8
0
  6
Continuous
370
    35
100
AcDbLine
 10
1394.624798984353
 20
466.4038896097329
 30
0.0
 11
1394.624798984353
 21
465.4096438318759
 31
0.0
  0
LINE
  5
1CC
330
1F
100
AcDbEntity
  8
0
  6
Continuous
370
    35
100
AcDbLine
 10
1416.624798984353
 20
456.223800839751
 30
0.0
 11
1416.624798984353
 21
432.4038896097331
 31
0.0
  0
LINE
  5
1CD
330
1F
100
AcDbEntity
  8
0
  6
Continuous
370
    35
100
AcDbLine
 10
1256.624798984353
 20
432.4038896097329
 30
0.0
 11
1278.624798984353
 21
432.4038896097331
 31
0.0
  0
LINE
  5
1CE
330
1F
100
AcDbEntity
  8
0
  6
Continuous
370
    35
100
AcDbLine
 10
1394.624798984353
 20
452.4038896097329
 30
0.0
 11
1416.624798984353
 21
452.4038896097329
 31
0.0
  0
LINE
  5
1CF
330
1F
100
AcDbEntity
  8
0
  6
Continuous
370
    35
100
AcDbLine
 10
1256.624798984353
 20
452.9038896097329
 30
0.0
 11
1278.624798984353
 21
452.9038896097329
 31
0.0
  0
LINE
  5
1D0
330
1F
100
AcDbEntity
  8
0
  6
Continuous
370
    35
100
AcDbLine
 10
1278.624798984353
 20
448.4038896097329
 30
0.0
 11
1394.624798984353
 21
448.403889609733
 31
0.0
  0
LINE
  5
1D1
330
1F
100
AcDbEntity
  8
0
  6
Continuous
370
    35
100
AcDbLine
 10
1278.624798984353
 20
436.4038896097329
 30
0.0
 11
1394.624798984353
 21
436.4038896097331
 31
0.0
  0
LINE
  5
1D2
330
1F
100
AcDbEntity
  8
0
  6
Continuous
370
    35
100
AcDbLine
 10
1256.624798984353
 20
452.9038896097329
 30
0.0
 11
1256.624798984353
 21
432.4038896097335
 31
0.0
  0
LINE
  5
1D3
330
1F
100
AcDbEntity
  8
0
  6
Continuous
370
    35
100
AcDbLine
 10
1278.624798984353
 20
452.9038896097329
 30
0.0
 11
1278.624798984353
 21
448.4038896097329
 31
0.0
  0
LINE
  5
1D4
330
1F
100
AcDbEntity
  8
0
  6
Continuous
370
    35
100
AcDbLine
 10
1394.624798984353
 20
432.4038896097331
 30
0.0
 11
1416.624798984353
 21
432.4038896097329
 31
0.0
  0
LINE
  5
1D5
330
1F
100
AcDbEntity
  8
0
  6
Continuous
370
    35
100
AcDbLine
 10
1256.624798984353
 20
432.4038896097329
 30
0.0
 11
1278.624798984353
 21
432.4038896097331
 31
0.0
  0
LINE
  5
1D6
330
1F
100
AcDbEntity
  8
0
  6
Continuous
370
    35
100
AcDbLine
 10
1256.624798984353
 20
432.4038896097329
 30
0.0
 11
1278.624798984353
 21
432.4038896097331
 31
0.0
  0
LINE
  5
1D7
330
1F
100
AcDbEntity
  8
0
  6
Continuous
370
    35
100
AcDbLine
 10
1256.624798984353
 20
432.4038896097335
 30
0.0
 11
1256.624798984353
 21
427.9038896097335
 31
0.0
  0
LINE
  5
1D8
330
1F
100
AcDbEntity
  8
0
  6
Continuous
370
    35
100
AcDbLine
 10
1256.624798984352
 20
452.9038896097318
 30
0.0
 11
1256.624798984353
 21
432.4038896097325
 31
0.0
  0
LINE
  5
1D9
330
1F
100
AcDbEntity
  8
0
  6
Continuous
370
    35
100
AcDbLine
 10
1256.624798984353
 20
415.9038896097335
 30
0.0
 11
1104.640911187454
 21
415.9038896097318
 31
0.0
  0
LINE
  5
1DA
330
1F
100
AcDbEntity
  8
0
  6
Continuous
370
    35
100
AcDbLine
 10
1256.624798984353
 20
427.9038896097335
 30
0.0
 11
1104.629132258672
 21
427.9038896097322
 31
0.0
  0
LINE
  5
1DB
330
1F
100
AcDbEntity
  8
0
  6
Continuous
370
    35
100
AcDbLine
 10
1278.624798984353
 20
432.4038896097338
 30
0.0
 11
1256.624798984353
 21
432.4038896097335
 31
0.0
  0
LINE
  5
1DC
330
1F
100
AcDbEntity
  8
0
  6
Continuous
370
    35
100
AcDbLine
 10
1256.624798984353
 20
432.4038896097329
 30
0.0
 11
1278.624798984353
 21
432.4038896097331
 31
0.0
  0
LINE
  5
1DD
330
1F
100
AcDbEntity
  8
0
  6
Continuous
370
    35
100
AcDbLine
 10
1256.624798984354
 20
411.903889609734
 30
0.0
 11
1278.644921321022
 21
411.903889609734
 31
0.0
  0
LINE
  5
1DE
330
1F
100
AcDbEntity
  8
0
  6
Continuous
370
    35
100
AcDbLine
 10
1278.644921321022
 20
411.903889609734
 30
0.0
 11
1278.624798984353
 21
432.4038896097331
 31
0.0
  0
LINE
  5
1DF
330
1F
100
AcDbEntity
  8
0
  6
Continuous
370
    35
100
AcDbLine
 10
1084.664646318404
 20
391.7134733210957
 30
0.0
 11
1084.605260904709
 21
452.2134540512252
 31
0.0
  0
LINE
  5
1E0
330
1F
100
AcDbEntity
  8
0
  6
Continuous
370
    35
100
AcDbLine
 10
1104.664636683469
 20
391.7331048596086
 30
0.0
 11
1104.640911187454
 21
415.9038896097318
 31
0.0
  0
LINE
  5
1E1
330
1F
100
AcDbEntity
  8
0
  6
Continuous
370
    35
100
AcDbLine
 10
1084.624892443222
 20
432.2134636861599
 30
0.0
 11
1104.624882808287
 21
432.2330952246727
 31
0.0
  0
LINE
  5
1E2
330
1F
100
AcDbEntity
  8
0
370
     9
100
AcDbLine
 10
1084.645014779891
 20
411.7134636861607
 30
0.0
 11
1104.645005144956
 21
411.7330952246736
 31
0.0
  0
LINE
  5
1E3
330
1F
100
AcDbEntity
  8
0
  6
Continuous
370
    35
100
AcDbLine
 10
1084.664646318404
 20
391.7134733210957
 30
0.0
 11
1104.664636683469
 21
391.7331048596086
 31
0.0
  0
LINE
  5
1E4
330
1F
100
AcDbEntity
  8
0
  6
Continuous
370
    35
100
AcDbLine
 10
1084.605260904709
 20
452.2134540512249
 30
0.0
 11
1104.605251269774
 21
452.2330855897378
 31
0.0
  0
ARC
  5
1E5
330
1F
100
AcDbEntity
  8
0
  6
Continuous
370
    35
100
AcDbCircle
 10
1110.588975372579
 20
421.9097338760664
 30
0.0
 40
8.452788469009982
100
AcDbArc
 50
134.8355393101478
 51
225.2769411381352
  0
LINE
  5
1E6
330
1F
100
AcDbEntity
  8
0
  6
Continuous
370
    35
100
AcDbLine
 10
1104.629132258672
 20
427.9038896097325
 30
0.0
 11
1104.605251269774
 21
452.2330855897378
 31
0.0
  0
LINE
  5
1E7
330
1F
100
AcDbEntity
  8
0
  6
Continuous
370
    35
100
AcDbLine
 10
1301.624798984353
 20
594.6450032864347
 30
0.0
 11
1287.624798984353
 21
594.6046293249836
 31
0.0
  0
LINE
  5
1E8
330
1F
100
AcDbEntity
  8
0
  6
Continuous
370
    35
100
AcDbLine
 10
1298.225697536102
 20
594.6352007728032
 30
0.0
 11
1300.475716248371
 21
594.6222234820147
 31
0.0
  0
LINE
  5
1E9
330
1F
100
AcDbEntity
  8
0
  6
Continuous
370
    35
100
AcDbLine
 10
1284.488549711367
 20
572.0163124833872
 30
0.0
 11
1284.488549711367
 21
579.0163415914831
 31
0.0
  0
LINE
  5
1EA
330
1F
100
AcDbEntity
  8
0
  6
Continuous
370
    35
100
AcDbLine
 10
1288.488549711367
 20
569.527837505196
 30
0.0
 11
1288.488549711367
 21
581.5278874047893
 31
0.0
  0
LINE
  5
1EB
330
1F
100
AcDbEntity
  8
0
  6
Continuous
370
    35
100
AcDbLine
 10
1288.488549711367
 20
581.5278874047893
 30
0.0
 11
1285.488549711367
 21
581.5192358416211
 31
0.0
  0
LINE
  5
1EC
330
1F
100
AcDbEntity
  8
0
  6
Continuous
370
    35
100
AcDbLine
 10
1288.488549711367
 20
569.5278375051964
 30
0.0
 11
1285.488549711368
 21
569.519185942028
 31
0.0
  0
ARC
  5
1ED
330
1F
100
AcDbEntity
  8
0
  6
Continuous
370
    35
100
AcDbCircle
 10
1286.551066864387
 20
575.5163270374351
 30
0.0
 40
4.062521247335343
100
AcDbArc
 50
120.5103416170279
 51
239.4896583829721
  0
LINE
  5
1EE
330
1F
100
AcDbEntity
  8
0
  6
Continuous
370
    35
100
AcDbLine
 10
1285.488549711367
 20
569.5163020876385
 30
0.0
 11
1285.488549711367
 21
581.5192358416211
 31
0.0
  0
LINE
  5
1EF
330
1F
100
AcDbEntity
  8
0
  6
Continuous
370
    35
100
AcDbLine
 10
1284.488549711367
 20
572.0163124833872
 30
0.0
 11
1285.488549711367
 21
569.519185942028
 31
0.0
  0
LINE
  5
1F0
330
1F
100
AcDbEntity
  8
0
  6
Continuous
370
    35
100
AcDbLine
 10
1284.488549711367
 20
579.0163415914831
 30
0.0
 11
1285.488549711367
 21
581.5192358416211
 31
0.0
  0
LINE
  5
1F1
330
1F
100
AcDbEntity
  8
0
  6
Continuous
370
    35
100
AcDbLine
 10
1288.488549711367
 20
581.5278874047893
 30
0.0
 11
1289.488549711368
 21
580.5307671008789
 31
0.0
  0
LINE
  5
1F2
330
1F
100
AcDbEntity
  8
0
  6
Continuous
370
    35
100
AcDbLine
 10
1288.488549711367
 20
569.5278375051961
 30
0.0
 11
1289.488549711367
 21
570.5307255178849
 31
0.0
  0
ARC
  5
1F3
330
1F
100
AcDbEntity
  8
0
  6
Continuous
370
    35
100
AcDbCircle
 10
1301.901848067284
 20
574.4504405975883
 30
0.0
 40
3.146667881466778
100
AcDbArc
 50
223.644320257842
 51
325.0374393370507
  0
ARC
  5
1F4
330
1F
100
AcDbEntity
  8
0
  6
Continuous
370
    35
100
AcDbCircle
 10
1301.914626299672
 20
577.2911099872697
 30
0.0
 40
2.93944749304806
100
AcDbArc
 50
29.19634810129776
 51
141.1690363821634
  0
LINE
  5
1F5
330
1F
100
AcDbEntity
  8
0
  6
Continuous
370
    35
100
AcDbLine
 10
1285.488549711367
 20
579.0163415914827
 30
0.0
 11
1289.488549711367
 21
579.0163415914824
 31
0.0
  0
LINE
  5
1F6
330
1F
100
AcDbEntity
  8
0
  6
Continuous
370
    35
100
AcDbLine
 10
1285.488549711367
 20
575.5177689646298
 30
0.0
 11
1288.488549711367
 21
575.5278624549925
 31
0.0
  0
LINE
  5
1F7
330
1F
100
AcDbEntity
  8
0
  6
Continuous
370
    35
100
AcDbLine
 10
1285.324303540703
 20
571.7801621585496
 30
0.0
 11
1288.240619413405
 21
571.7801621585493
 31
0.0
  0
ARC
  5
1F8
330
1F
100
AcDbEntity
  8
0
  6
Continuous
370
    35
100
AcDbCircle
 10
1389.058426324905
 20
442.3975004417054
 30
0.0
 40
8.065088498146575
100
AcDbArc
 50
313.6444561091898
 51
47.41813603718191
  0
LINE
  5
1F9
330
1F
100
AcDbEntity
  8
0
  6
Continuous
370
    35
100
AcDbLine
 10
1394.624798984353
 20
436.5613075131696
 30
0.0
 11
1394.624798984353
 21
432.4038896097331
 31
0.0
  0
ARC
  5
1FA
330
1F
100
AcDbEntity
  8
0
  6
Continuous
370
    35
100
AcDbCircle
 10
1390.090274912985
 20
460.905455854481
 30
0.0
 40
6.391370579892996
100
AcDbArc
 50
315.1922977096299
 51
46.18021031692811
  0
ARC
  5
1FB
330
1F
100
AcDbEntity
  8
0
  6
Continuous
370
    35
100
AcDbCircle
 10
1421.425869103308
 20
460.8469469699445
 30
0.0
 40
6.665114734814816
100
AcDbArc
 50
136.8928335125457
 51
223.9184158741744
  0
LINE
  5
1FC
330
1F
100
AcDbEntity
  8
0
  6
Continuous
370
    35
100
AcDbLine
 10
1394.624798984353
 20
456.4012678770859
 30
0.0
 11
1394.624798984353
 21
448.2336933702413
 31
0.0
  0
LINE
  5
1FD
330
1F
100
AcDbEntity
  8
0
  6
Continuous
370
    35
100
AcDbLine
 10
1416.559823413798
 20
466.4038896097329
 30
0.0
 11
1416.559823413798
 21
465.1710368302198
 31
0.0
  0
LINE
  5
1FE
330
1F
100
AcDbEntity
  8
0
370
    40
100
AcDbLine
 10
1722.384635807809
 20
490.2955658084902
 30
0.0
 11
1722.384635807809
 21
575.519946611675
 31
0.0
  0
LINE
  5
1FF
330
1F
100
AcDbEntity
  8
0
370
    40
100
AcDbLine
 10
1722.384635807809
 20
490.2955658084902
 30
0.0
 11
1722.384635807809
 21
575.519946611675
 31
0.0
  0
LINE
  5
200
330
1F
100
AcDbEntity
  8
0
370
    40
100
AcDbLine
 10
1722.384635807809
 20
490.2955658084902
 30
0.0
 11
1722.384635807809
 21
575.519946611675
 31
0.0
  0
LINE
  5
201
330
1F
100
AcDbEntity
  8
0
370
    40
100
AcDbLine
 10
1722.384635807809
 20
490.2955658084902
 30
0.0
 11
1722.384635807809
 21
575.519946611675
 31
0.0
  0
LINE
  5
202
330
1F
100
AcDbEntity
  8
0
370
    40
100
AcDbLine
 10
1722.384635807809
 20
490.2955658084902
 30
0.0
 11
1722.384635807809
 21
575.519946611675
 31
0.0
  0
LINE
  5
203
330
1F
100
AcDbEntity
  8
0
370
    40
100
AcDbLine
 10
1722.384635807809
 20
478.0199466116751
 30
0.0
 11
1722.384635807809
 21
575.519946611675
 31
0.0
  0
LINE
  5
204
330
1F
100
AcDbEntity
  8
0
370
    40
100
AcDbLine
 10
1737.884635807811
 20
475.019946611675
 30
0.0
 11
1739.384635807809
 21
475.019946611675
 31
0.0
  0
ARC
  5
205
330
1F
100
AcDbEntity
  8
0
370
    40
100
AcDbCircle
 10
1739.384635807809
 20
477.0199466116742
 30
0.0
 40
2.0
100
AcDbArc
 50
270.0
 51
0.0
  0
LINE
  5
206
330
1F
100
AcDbEntity
  8
0
370
    40
100
AcDbLine
 10
1741.384635807809
 20
477.0199466116742
 30
0.0
 11
1741.384635807809
 21
575.519946611675
 31
0.0
  0
LINE
  5
207
330
1F
100
AcDbEntity
  8
0
370
    40
100
AcDbLine
 10
1719.384635807811
 20
490.2955658084911
 30
0.0
 11
1719.384635807809
 21
575.519946611675
 31
0.0
  0
LINE
  5
208
330
1F
100
AcDbEntity
  8
0
370
    40
100
AcDbLine
 10
1719.384635807809
 20
671.0199466116753
 30
0.0
 11
1719.384635807809
 21
575.519946611675
 31
0.0
  0
LINE
  5
209
330
1F
100
AcDbEntity
  8
0
370
    40
100
AcDbLine
 10
1741.384635807809
 20
674.0199466116753
 30
0.0
 11
1741.384635807809
 21
575.519946611675
 31
0.0
  0
ARC
  5
20A
330
1F
100
AcDbEntity
  8
0
370
    40
100
AcDbCircle
 10
1721.384635807809
 20
671.0199466116753
 30
0.0
 40
2.0
100
AcDbArc
 50
90.0
 51
180.0
  0
ARC
  5
20B
330
1F
100
AcDbEntity
  8
0
370
    40
100
AcDbCircle
 10
1739.384635807809
 20
674.0199466116753
 30
0.0
 40
2.0
100
AcDbArc
 50
0.0
 51
90.0
  0
ARC
  5
20C
330
1F
100
AcDbEntity
  8
0
370
    40
100
AcDbCircle
 10
1724.384635807811
 20
674.0199466116753
 30
0.0
 40
2.0
100
AcDbArc
 50
90.0
 51
180.0
  0
LINE
  5
20D
330
1F
100
AcDbEntity
  8
0
370
    40
100
AcDbLine
 10
1724.384635807811
 20
676.0199466116753
 30
0.0
 11
1739.384635807809
 21
676.0199466116753
 31
0.0
  0
LINE
  5
20E
330
1F
100
AcDbEntity
  8
0
370
    40
100
AcDbLine
 10
1721.384635807809
 20
673.0199466116753
 30
0.0
 11
1722.384635807809
 21
673.0199466116762
 31
0.0
  0
LINE
  5
20F
330
1F
100
AcDbEntity
  8
0
370
    40
100
AcDbLine
 10
1731.884635807809
 20
580.655220146419
 30
0.0
 11
1731.884635807809
 21
580.6552201464203
 31
0.0
  0
LINE
  5
210
330
1F
100
AcDbEntity
  8
0
370
    40
100
AcDbLine
 10
1722.384635807809
 20
674.0199466116753
 30
0.0
 11
1722.384635807809
 21
575.519946611675
 31
0.0
  0
LINE
  5
211
330
1F
100
AcDbEntity
  8
0
370
    40
100
AcDbLine
 10
1722.384635807809
 20
674.0199466116753
 30
0.0
 11
1722.384635807809
 21
575.519946611675
 31
0.0
  0
LINE
  5
212
330
1F
100
AcDbEntity
  8
0
370
    40
100
AcDbLine
 10
1722.384635807809
 20
674.0199466116753
 30
0.0
 11
1722.384635807809
 21
575.519946611675
 31
0.0
  0
LINE
  5
213
330
1F
100
AcDbEntity
  8
0
370
    40
100
AcDbLine
 10
1737.884635807811
 20
475.019946611675
 30
0.0
 11
1739.384635807809
 21
475.019946611675
 31
0.0
  0
LINE
  5
214
330
1F
100
AcDbEntity
  8
0
370
    40
100
AcDbLine
 10
1737.884635807811
 20
475.019946611675
 30
0.0
 11
1739.384635807809
 21
475.019946611675
 31
0.0
  0
LINE
  5
215
330
1F
100
AcDbEntity
  8
0
370
    40
100
AcDbLine
 10
1722.384635807809
 20
477.0199466116751
 30
0.0
 11
1722.384635807809
 21
478.2955658084902
 31
0.0
  0
LINE
  5
216
330
1F
100
AcDbEntity
  8
0
370
    40
100
AcDbLine
 10
1722.384635807809
 20
477.0199466116751
 30
0.0
 11
1722.384635807809
 21
478.2955658084902
 31
0.0
  0
LINE
  5
217
330
1F
100
AcDbEntity
  8
0
370
    40
100
AcDbLine
 10
1722.384635807809
 20
477.0199466116751
 30
0.0
 11
1722.384635807809
 21
478.2955658084902
 31
0.0
  0
LINE
  5
218
330
1F
100
AcDbEntity
  8
0
370
    40
100
AcDbLine
 10
1721.384635807809
 20
478.0199466116751
 30
0.0
 11
1722.384635807809
 21
478.0199466116751
 31
0.0
  0
LINE
  5
219
330
1F
100
AcDbEntity
  8
0
370
    40
100
AcDbLine
 10
1724.384635807811
 20
475.019946611675
 30
0.0
 11
1726.884635807809
 21
475.019946611675
 31
0.0
  0
ARC
  5
21A
330
1F
100
AcDbEntity
  8
0
370
    40
100
AcDbCircle
 10
1724.384635807811
 20
477.0199466116751
 30
0.0
 40
2.0
100
AcDbArc
 50
180.0
 51
270.0
  0
ARC
  5
21B
330
1F
100
AcDbEntity
  8
0
370
    40
100
AcDbCircle
 10
1739.384635807809
 20
477.0199466116751
 30
0.0
 40
2.0
100
AcDbArc
 50
270.0
 51
0.0
  0
ARC
  5
21C
330
1F
100
AcDbEntity
  8
0
370
    40
100
AcDbCircle
 10
1721.384635807809
 20
480.019946611675
 30
0.0
 40
2.0
100
AcDbArc
 50
180.0
 51
269.9999999999479
  0
LINE
  5
21D
330
1F
100
AcDbEntity
  8
0
370
    40
100
AcDbLine
 10
1741.384635807809
 20
477.0199466116751
 30
0.0
 11
1741.384635807809
 21
575.519946611675
 31
0.0
  0
LINE
  5
21E
330
1F
100
AcDbEntity
  8
0
370
    40
100
AcDbLine
 10
1719.384635807809
 20
480.019946611675
 30
0.0
 11
1719.384635807809
 21
575.519946611675
 31
0.0
  0
LINE
  5
21F
330
1F
100
AcDbEntity
  8
0
370
    40
100
AcDbLine
 10
1736.884635807809
 20
475.019946611675
 30
0.0
 11
1739.384635807809
 21
475.019946611675
 31
0.0
  0
LINE
  5
220
330
1F
100
AcDbEntity
  8
0
  6
Continuous
370
    35
100
AcDbLine
 10
1738.884635807809
 20
585.6045919002887
 30
0.0
 11
1738.884635807809
 21
594.6046293249836
 31
0.0
  0
LINE
  5
221
330
1F
100
AcDbEntity
  8
0
  6
Continuous
370
    35
100
AcDbLine
 10
1724.884635807809
 20
585.64496586174
 30
0.0
 11
1724.884635807809
 21
594.6450032864347
 31
0.0
  0
LINE
  5
222
330
1F
100
AcDbEntity
  8
0
  6
Continuous
370
    35
100
AcDbLine
 10
1726.884635807809
 20
570.904355536056
 30
0.0
 11
1726.884635807809
 21
572.2046078258881
 31
0.0
  0
LINE
  5
223
330
1F
100
AcDbEntity
  8
0
  6
Continuous
370
    35
100
AcDbLine
 10
1736.884635807809
 20
460.905455854481
 30
0.0
 11
1736.884635807809
 21
572.2046078258882
 31
0.0
  0
LINE
  5
224
330
1F
100
AcDbEntity
  8
0
  6
Continuous
370
    35
100
AcDbLine
 10
1724.884635807809
 20
585.64496586174
 30
0.0
 11
1738.884635807809
 21
585.6045919002887
 31
0.0
  0
LINE
  5
225
330
1F
100
AcDbEntity
  8
0
  6
Continuous
370
    35
100
AcDbLine
 10
1726.884635807809
 20
460.905455854481
 30
0.0
 11
1726.884635807809
 21
572.2046078258883
 31
0.0
  0
LINE
  5
226
330
1F
100
AcDbEntity
  8
0
  6
Continuous
370
    35
100
AcDbLine
 10
1724.884635807809
 20
594.6450032864347
 30
0.0
 11
1738.884635807809
 21
594.6046293249836
 31
0.0
  0
LINE
  5
227
330
1F
100
AcDbEntity
  8
0
  6
Continuous
370
    35
100
AcDbLine
 10
1728.28373725606
 20
594.6352007728032
 30
0.0
 11
1726.033718543791
 21
594.6222234820147
 31
0.0
  0
LINE
  5
228
330
1F
100
AcDbEntity
  8
0
  6
Continuous
370
    35
100
AcDbLine
 10
1720.884635807809
 20
467.1438770105379
 30
0.0
 11
1720.884635807809
 21
447.2068328430728
 31
0.0
  0
LINE
  5
229
330
1F
100
AcDbEntity
  8
0
  6
Continuous
370
    35
100
AcDbLine
 10
1722.583531922881
 20
468.4038896097328
 30
0.0
 11
1726.884635807809
 21
468.4038896097328
 31
0.0
  0
LINE
  5
22A
330
1F
100
AcDbEntity
  8
0
  6
Continuous
370
    35
100
AcDbLine
 10
1742.884635807808
 20
468.4038896097328
 30
0.0
 11
1742.884635807809
 21
391.7331048596086
 31
0.0
  0
LINE
  5
22B
330
1F
100
AcDbEntity
  8
0
  6
Continuous
370
    35
100
AcDbLine
 10
1722.583531922881
 20
468.4038896097328
 30
0.0
 11
1726.884635807809
 21
468.4038896097328
 31
0.0
  0
ARC
  5
22C
330
1F
100
AcDbEntity
  8
0
100
AcDbCircle
 10
1731.884635807809
 20
460.905455854481
 30
0.0
 40
5.0
100
AcDbArc
 50
180.0
 51
0.0
  0
LINE
  5
22D
330
1F
100
AcDbEntity
  8
0
  6
Continuous
370
    35
100
AcDbLine
 10
1736.884635807809
 20
468.4038896097328
 30
0.0
 11
1742.884635807809
 21
468.4038896097328
 31
0.0
  0
LINE
  5
22E
330
1F
100
AcDbEntity
  8
0
  6
Continuous
370
    35
100
AcDbLine
 10
1736.884635807809
 20
468.4038896097328
 30
0.0
 11
1742.884635807808
 21
468.4038896097328
 31
0.0
  0
CIRCLE
  5
22F
330
1F
100
AcDbEntity
  8
0
100
AcDbCircle
 10
1731.884635807809
 20
575.5199466116753
 30
0.0
 40
5.999289229945816
  0
CIRCLE
  5
230
330
1F
100
AcDbEntity
  8
0
100
AcDbCircle
 10
1731.884635807809
 20
575.5199466116753
 30
0.0
 40
3.496394979807746
  0
LINE
  5
231
330
1F
100
AcDbEntity
  8
0
  6
Continuous
370
    35
100
AcDbLine
 10
1736.884635807809
 20
578.8352853974624
 30
0.0
 11
1736.884635807809
 21
585.6103596090673
 31
0.0
  0
LINE
  5
232
330
1F
100
AcDbEntity
  8
0
  6
Continuous
370
    35
100
AcDbLine
 10
1726.884635807809
 20
578.8352853974621
 30
0.0
 11
1726.884635807809
 21
585.639198152961
 31
0.0
  0
LINE
  5
233
330
1F
100
AcDbEntity
  8
0
  6
Continuous
370
    35
100
AcDbLine
 10
1726.884635807809
 20
578.8352853974624
 30
0.0
 11
1726.884635807809
 21
585.639198152961
 31
0.0
  0
LINE
  5
234
330
1F
100
AcDbEntity
  8
0
  6
Continuous
370
    35
100
AcDbLine
 10
1394.624798984353
 20
451.4038896097329
 30
0.0
 11
1416.624798984353
 21
451.4038896097329
 31
0.0
  0
LINE
  5
235
330
1F
100
AcDbEntity
  8
0
  6
Continuous
370
    35
100
AcDbLine
 10
1256.624798984353
 20
433.4038896097329
 30
0.0
 11
1278.624798984353
 21
433.4038896097331
 31
0.0
  0
LINE
  5
236
330
1F
100
AcDbEntity
  8
0
  6
Continuous
370
    35
100
AcDbLine
 10
1278.624798984353
 20
433.4038896097338
 30
0.0
 11
1256.624798984353
 21
433.4038896097336
 31
0.0
  0
LINE
  5
237
330
1F
100
AcDbEntity
  8
0
  6
Continuous
370
    35
100
AcDbLine
 10
1256.624798984353
 20
433.4038896097329
 30
0.0
 11
1278.624798984353
 21
433.4038896097331
 31
0.0
  0
LINE
  5
238
330
1F
100
AcDbEntity
  8
0
  6
Continuous
370
    35
100
AcDbLine
 10
1256.624798984353
 20
433.4038896097329
 30
0.0
 11
1278.624798984353
 21
433.4038896097331
 31
0.0
  0
LINE
  5
239
330
1F
100
AcDbEntity
  8
0
  6
Continuous
370
    35
100
AcDbLine
 10
1256.624798984353
 20
433.4038896097329
 30
0.0
 11
1278.624798984353
 21
433.4038896097331
 31
0.0
  0
LINE
  5
23A
330
1F
100
AcDbEntity
  8
0
100
AcDbLine
 10
1720.884635807809
 20
452.9038896097329
 30
0.0
 11
1742.884635807808
 21
452.9038896097329
 31
0.0
  0
LINE
  5
23B
330
1F
100
AcDbEntity
  8
0
  6
Continuous
370
    35
100
AcDbLine
 10
1720.884635807809
 20
391.7115101568413
 30
0.0
 11
1742.884635807808
 21
391.7331048596086
 31
0.0
  0
LINE
  5
23C
330
1F
100
AcDbEntity
  8
0
370
     9
100
AcDbLine
 10
1720.884635807809
 20
411.711519791781
 30
0.0
 11
1742.884635807808
 21
411.7331144945483
 31
0.0
  0
LINE
  5
23D
330
1F
100
AcDbEntity
  8
0
  6
Continuous
370
    35
100
AcDbLine
 10
1720.884635807809
 20
432.2115005219054
 30
0.0
 11
1742.884635807808
 21
432.2330952246727
 31
0.0
  0
LINE
  5
23E
330
1F
100
AcDbEntity
  8
0
370
     9
100
AcDbLine
 10
1720.884635807809
 20
410.711519791781
 30
0.0
 11
1742.884635807808
 21
410.7331144945483
 31
0.0
  0
LINE
  5
23F
330
1F
100
AcDbEntity
  8
0
  6
Continuous
370
    35
100
AcDbLine
 10
1720.884635807809
 20
433.2115005219054
 30
0.0
 11
1742.884635807808
 21
433.2330952246727
 31
0.0
  0
LINE
  5
240
330
1F
100
AcDbEntity
  8
0
100
AcDbLine
 10
1720.884635807809
 20
452.2330855897378
 30
0.0
 11
1742.884635807808
 21
452.2330855897378
 31
0.0
  0
LINE
  5
241
330
1F
100
AcDbEntity
  8
0
  6
Continuous
370
    35
100
AcDbLine
 10
1717.884635807808
 20
476.9634636861606
 30
0.0
 11
1717.884635807809
 21
366.9634636861606
 31
0.0
  0
LINE
  5
242
330
1F
100
AcDbEntity
  8
0
  6
Continuous
370
    35
100
AcDbLine
 10
1084.624892443222
 20
433.2134636861598
 30
0.0
 11
1104.624882808287
 21
433.2330952246727
 31
0.0
  0
LINE
  5
243
330
1F
100
AcDbEntity
  8
0
  6
Continuous
370
    35
100
AcDbLine
 10
1697.884635807809
 20
481.9634636861605
 30
0.0
 11
1697.884635807809
 21
361.9634636861606
 31
0.0
  0
LINE
  5
244
330
1F
100
AcDbEntity
  8
0
100
AcDbLine
 10
1697.884635807809
 20
481.9634636861605
 30
0.0
 11
1712.884635807808
 21
481.9634636861605
 31
0.0
  0
LINE
  5
245
330
1F
100
AcDbEntity
  8
0
100
AcDbLine
 10
1697.884635807809
 20
361.9634636861606
 30
0.0
 11
1712.884635807809
 21
361.9634636861606
 31
0.0
  0
ARC
  5
246
330
1F
100
AcDbEntity
  8
0
100
AcDbCircle
 10
1712.884635807808
 20
476.9634636861606
 30
0.0
 40
5.0
100
AcDbArc
 50
0.0
 51
90.0
  0
ARC
  5
247
330
1F
100
AcDbEntity
  8
0
100
AcDbCircle
 10
1712.884635807809
 20
366.9634636861606
 30
0.0
 40
5.0
100
AcDbArc
 50
270.0
 51
0.0
  0
LINE
  5
248
330
1F
100
AcDbEntity
  8
0
100
AcDbLine
 10
1717.884635807808
 20
467.0933667533211
 30
0.0
 11
1720.384635807808
 21
467.0933667533211
 31
0.0
  0
LINE
  5
249
330
1F
100
AcDbEntity
  8
0
100
AcDbLine
 10
1717.884635807808
 20
472.0933667533211
 30
0.0
 11
1720.384635807808
 21
472.0933667533211
 31
0.0
  0
ARC
  5
24A
330
1F
100
AcDbEntity
  8
0
100
AcDbCircle
 10
1720.384635807808
 20
469.5933667533211
 30
0.0
 40
2.5
100
AcDbArc
 50
270.0
 51
90.0
  0
LINE
  5
24B
330
1F
100
AcDbEntity
  8
0
100
AcDbLine
 10
1717.884635807808
 20
471.093366753321
 30
0.0
 11
1720.384635807808
 21
471.093366753321
 31
0.0
  0
LINE
  5
24C
330
1F
100
AcDbEntity
  8
0
100
AcDbLine
 10
1717.884635807808
 20
470.593366753321
 30
0.0
 11
1720.384635807808
 21
470.593366753321
 31
0.0
  0
LINE
  5
24D
330
1F
100
AcDbEntity
  8
0
100
AcDbLine
 10
1717.884635807808
 20
481.5933667533211
 30
0.0
 11
1720.384635807808
 21
481.5933667533211
 31
0.0
  0
LINE
  5
24E
330
1F
100
AcDbEntity
  8
0
100
AcDbLine
 10
1717.884635807808
 20
471.5933667533211
 30
0.0
 11
1720.384635807808
 21
471.5933667533211
 31
0.0
  0
LINE
  5
24F
330
1F
100
AcDbEntity
  8
0
100
AcDbLine
 10
1717.884635807808
 20
470.093366753321
 30
0.0
 11
1720.384635807808
 21
470.093366753321
 31
0.0
  0
LINE
  5
250
330
1F
100
AcDbEntity
  8
0
100
AcDbLine
 10
1717.884635807808
 20
469.0933667533211
 30
0.0
 11
1720.384635807808
 21
469.0933667533211
 31
0.0
  0
LINE
  5
251
330
1F
100
AcDbEntity
  8
0
100
AcDbLine
 10
1717.884635807808
 20
469.5933667533211
 30
0.0
 11
1720.384635807808
 21
469.5933667533211
 31
0.0
  0
LINE
  5
252
330
1F
100
AcDbEntity
  8
0
100
AcDbLine
 10
1717.884635807808
 20
468.0933667533211
 30
0.0
 11
1720.384635807808
 21
468.0933667533211
 31
0.0
  0
LINE
  5
253
330
1F
100
AcDbEntity
  8
0
100
AcDbLine
 10
1717.884635807808
 20
467.5933667533211
 30
0.0
 11
1720.384635807808
 21
467.5933667533211
 31
0.0
  0
LINE
  5
254
330
1F
100
AcDbEntity
  8
0
100
AcDbLine
 10
1717.884635807808
 20
468.5933667533211
 30
0.0
 11
1720.384635807808
 21
468.5933667533211
 31
0.0
  0
LINE
  5
255
330
1F
100
AcDbEntity
  8
0
100
AcDbLine
 10
1720.384635807808
 20
472.0933667533211
 30
0.0
 11
1720.384635807808
 21
467.0933667533211
 31
0.0
  0
LINE
  5
256
330
1F
100
AcDbEntity
  8
0
100
AcDbLine
 10
1720.384635807808
 20
371.8335606190002
 30
0.0
 11
1720.384635807808
 21
376.8335606190002
 31
0.0
  0
LINE
  5
257
330
1F
100
AcDbEntity
  8
0
100
AcDbLine
 10
1717.884635807808
 20
372.3335606190001
 30
0.0
 11
1720.384635807808
 21
372.3335606190001
 31
0.0
  0
LINE
  5
258
330
1F
100
AcDbEntity
  8
0
100
AcDbLine
 10
1717.884635807808
 20
373.3335606190001
 30
0.0
 11
1720.384635807808
 21
373.3335606190001
 31
0.0
  0
LINE
  5
259
330
1F
100
AcDbEntity
  8
0
100
AcDbLine
 10
1717.884635807808
 20
372.8335606190001
 30
0.0
 11
1720.384635807808
 21
372.8335606190001
 31
0.0
  0
ARC
  5
25A
330
1F
100
AcDbEntity
  8
0
100
AcDbCircle
 10
1720.384635807808
 20
374.3335606190002
 30
0.0
 40
2.5
100
AcDbArc
 50
270.0
 51
90.0
  0
LINE
  5
25B
330
1F
100
AcDbEntity
  8
0
100
AcDbLine
 10
1717.884635807808
 20
371.8335606190001
 30
0.0
 11
1720.384635807808
 21
371.8335606190001
 31
0.0
  0
LINE
  5
25C
330
1F
100
AcDbEntity
  8
0
100
AcDbLine
 10
1717.884635807808
 20
375.3335606190001
 30
0.0
 11
1720.384635807808
 21
375.3335606190001
 31
0.0
  0
LINE
  5
25D
330
1F
100
AcDbEntity
  8
0
100
AcDbLine
 10
1717.884635807808
 20
376.3335606190001
 30
0.0
 11
1720.384635807808
 21
376.3335606190001
 31
0.0
  0
LINE
  5
25E
330
1F
100
AcDbEntity
  8
0
100
AcDbLine
 10
1717.884635807808
 20
375.8335606190001
 30
0.0
 11
1720.384635807808
 21
375.8335606190001
 31
0.0
  0
LINE
  5
25F
330
1F
100
AcDbEntity
  8
0
100
AcDbLine
 10
1717.884635807808
 20
374.3335606190001
 30
0.0
 11
1720.384635807808
 21
374.3335606190001
 31
0.0
  0
LINE
  5
260
330
1F
100
AcDbEntity
  8
0
100
AcDbLine
 10
1717.884635807808
 20
374.8335606190001
 30
0.0
 11
1720.384635807808
 21
374.8335606190001
 31
0.0
  0
LINE
  5
261
330
1F
100
AcDbEntity
  8
0
100
AcDbLine
 10
1717.884635807808
 20
373.8335606190001
 30
0.0
 11
1720.384635807808
 21
373.8335606190001
 31
0.0
  0
LINE
  5
262
330
1F
100
AcDbEntity
  8
0
100
AcDbLine
 10
1717.884635807808
 20
376.8335606190002
 30
0.0
 11
1720.384635807808
 21
376.8335606190002
 31
0.0
  0
LINE
  5
263
330
1F
100
AcDbEntity
  8
0
  6
Continuous
370
    35
100
AcDbLine
 10
1717.884635807809
 20
406.7183203932903
 30
0.0
 11
1720.884635807809
 21
406.7200945292484
 31
0.0
  0
LINE
  5
264
330
1F
100
AcDbEntity
  8
0
  6
Continuous
370
    35
100
AcDbLine
 10
1717.884635807809
 20
396.7183203932904
 30
0.0
 11
1720.884635807809
 21
396.7200945292485
 31
0.0
  0
ARC
  5
265
330
1F
100
AcDbEntity
  8
0
100
AcDbCircle
 10
1711.54668728243
 20
401.7200945292485
 30
0.0
 40
10.59232187306521
100
AcDbArc
 50
331.8331986172726
 51
28.16680138272735
  0
LINE
  5
266
330
1F
100
AcDbEntity
  8
0
  6
Continuous
370
    35
100
AcDbLine
 10
1720.884635807809
 20
396.7200945292487
 30
0.0
 11
1720.884635807809
 21
391.7115101568413
 31
0.0
  0
ARC
  5
267
330
1F
100
AcDbEntity
  8
0
100
AcDbCircle
 10
1711.54668728243
 20
442.2068328430726
 30
0.0
 40
10.59232187306521
100
AcDbArc
 50
331.8331986172726
 51
28.16680138272735
  0
LINE
  5
268
330
1F
100
AcDbEntity
  8
0
  6
Continuous
370
    35
100
AcDbLine
 10
1717.884635807809
 20
447.2086069790308
 30
0.0
 11
1720.884635807809
 21
447.2068328430727
 31
0.0
  0
LINE
  5
269
330
1F
100
AcDbEntity
  8
0
  6
Continuous
370
    35
100
AcDbLine
 10
1717.884635807809
 20
437.2086069790308
 30
0.0
 11
1720.884635807809
 21
437.2068328430726
 31
0.0
  0
LINE
  5
26A
330
1F
100
AcDbEntity
  8
0
  6
Continuous
370
    35
100
AcDbLine
 10
1720.884635807809
 20
437.2068328430724
 30
0.0
 11
1720.884635807809
 21
406.7200945292483
 31
0.0
  0
DIMENSION
  5
26B
330
1F
100
AcDbEntity
  8
0
100
AcDbDimension
280
     0
  2
*D6
 10
1697.884635807809
 20
698.2996983849143
 30
0.0
 11
1720.384635807809
 21
698.2996983849143
 31
0.0
 70
   160
 71
     5
 42
45.00000000000091
 73
     0
 74
     0
 75
     0
  3
6
100
AcDbAlignedDimension
 13
1742.884635807809
 23
690.6864449402937
 33
0.0
 14
1697.884635807809
 24
692.7602981565362
 34
0.0
100
AcDbRotatedDimension
1001
ACAD
1000
DSTYLE
1002
{
1070
    41
1040
18.0
1070
   140
1040
20.0
1070
   147
1040
2.0
1070
   176
1070
     7
1070
   178
1070
     7
1070
   340
1005
11
1002
}
  0
ENDSEC
  0
SECTION
  2
OBJECTS
  0
DICTIONARY
  5
C
330
0
100
AcDbDictionary
281
     1
  3
ACAD_CIP_PREVIOUS_PRODUCT_INFO
350
2FE
  3
ACAD_COLOR
350
6B
  3
ACAD_DETAILVIEWSTYLE
350
2F6
  3
ACAD_GROUP
350
D
  3
ACAD_LAYOUT
350
1A
  3
ACAD_MATERIAL
350
6A
  3
ACAD_MLEADERSTYLE
350
2F2
  3
ACAD_MLINESTYLE
350
17
  3
ACAD_PLOTSETTINGS
350
19
  3
ACAD_PLOTSTYLENAME
350
E
  3
ACAD_SCALELIST
350
2E0
  3
ACAD_SECTIONVIEWSTYLE
350
2F4
  3
ACAD_TABLESTYLE
350
2DE
  3
ACAD_VISUALSTYLE
350
2C5
  3
ACDB_RECOMPOSE_DATA
350
31F
  3
AcDbVariableDictionary
350
5E
  0
DICTIONARY
  5
AF
330
2
100
AcDbDictionary
280
     1
281
     1
  3
ACAD_LAYERSTATES
360
B0
  0
DICTIONARY
  5
2FF
330
10
100
AcDbDictionary
280
     1
281
     1
  3
ADSK_XREC_LAYER_RECONCILED
360
300
  0
XRECORD
  5
2FE
102
{ACAD_REACTORS
330
C
102
}
330
C
100
AcDbXrecord
280
     1
300
ACD
300
2017
300
ACD_F_S
  0
DICTIONARY
  5
6B
102
{ACAD_REACTORS
330
C
102
}
330
C
100
AcDbDictionary
281
     1
  0
DICTIONARY
  5
2F6
102
{ACAD_REACTORS
330
C
102
}
330
C
100
AcDbDictionary
281
     1
  3
Metric50
350
2F7
  0
DICTIONARY
  5
D
102
{ACAD_REACTORS
330
C
102
}
330
C
100
AcDbDictionary
281
     1
  0
DICTIONARY
  5
1A
102
{ACAD_REACTORS
330
C
102
}
330
C
100
AcDbDictionary
281
     1
  3
Model
350
22
  3
布局1
350
51
  3
布局2
350
56
1001
AcadStringInfo
1000
MIFCodePage
1070
     5
  0
DICTIONARY
  5
6A
102
{ACAD_REACTORS
330
C
102
}
330
C
100
AcDbDictionary
281
     1
  3
ByBlock
350
2B5
  3
ByLayer
350
2AD
  3
Global
350
2BD
  0
DICTIONARY
  5
2F2
102
{ACAD_REACTORS
330
C
102
}
330
C
100
AcDbDictionary
281
     1
  3
Standard
350
2F3
  0
DICTIONARY
  5
17
102
{ACAD_REACTORS
330
C
102
}
330
C
100
AcDbDictionary
281
     1
  3
Standard
350
18
  0
DICTIONARY
  5
19
102
{ACAD_REACTORS
330
C
102
}
330
C
100
AcDbDictionary
281
     1
  0
ACDBDICTIONARYWDFLT
  5
E
102
{ACAD_REACTORS
330
C
102
}
330
C
100
AcDbDictionary
281
     1
  3
Normal
350
F
100
AcDbDictionaryWithDefault
340
F
  0
DICTIONARY
  5
2E0
102
{ACAD_REACTORS
330
C
102
}
330
C
100
AcDbDictionary
281
     1
  3
A0
350
2E1
  3
A1
350
2E2
  3
A2
350
2E3
  3
A3
350
2E4
  3
A4
350
2E5
  3
A5
350
2E6
  3
A6
350
2E7
  3
A7
350
2E8
  3
A8
350
2E9
  3
A9
350
2EA
  3
B0
350
2EB
  3
B1
350
2EC
  3
B2
350
2ED
  3
B3
350
2EE
  3
B4
350
2EF
  3
B5
350
2F0
  3
B6
350
2F1
  0
DICTIONARY
  5
2F4
102
{ACAD_REACTORS
330
C
102
}
330
C
100
AcDbDictionary
281
     1
  3
Metric50
350
2F5
  0
DICTIONARY
  5
2DE
102
{ACAD_REACTORS
330
C
102
}
330
C
100
AcDbDictionary
281
     1
  3
Standard
350
2DF
  0
DICTIONARY
  5
2C5
102
{ACAD_REACTORS
330
C
102
}
330
C
100
AcDbDictionary
281
     1
  3
2dWireframe
350
2CB
  3
Basic
350
2CA
  3
Brighten
350
2D1
  3
ColorChange
350
2D5
  3
Conceptual
350
2CE
  3
Dim
350
2D0
  3
EdgeColorOff
350
2DD
  3
Facepattern
350
2D4
  3
Flat
350
2C6
  3
FlatWithEdges
350
2C7
  3
Gouraud
350
2C8
  3
GouraudWithEdges
350
2C9
  3
Hidden
350
2CD
  3
JitterOff
350
2DB
  3
Linepattern
350
2D3
  3
OverhangOff
350
2DC
  3
Realistic
350
2CF
  3
Shaded
350
2DA
  3
Shaded with edges
350
2D9
  3
Shades of Gray
350
2D6
  3
Sketchy
350
2D7
  3
Thicken
350
2D2
  3
Wireframe
350
2CC
  3
X-Ray
350
2D8
  0
XRECORD
  5
31F
102
{ACAD_REACTORS
330
C
102
}
330
C
100
AcDbXrecord
280
     1
 90
        1
330
2DF
330
2F5
330
2F7
  0
DICTIONARY
  5
5E
102
{ACAD_REACTORS
330
C
102
}
330
C
100
AcDbDictionary
281
     1
  3
CANNOSCALE
350
315
  3
CMLEADERSTYLE
350
311
  3
CTABLESTYLE
350
310
  3
CVIEWDETAILSTYLE
350
312
  3
CVIEWSECTIONSTYLE
350
313
  3
DIMASSOC
350
5F
  3
HIDETEXT
350
63
  3
LAYEREVAL
350
317
  3
LAYERNOTIFY
350
318
  3
LIGHTINGUNITS
350
316
  3
MSLTSCALE
350
314
  0
DICTIONARY
  5
B0
102
{ACAD_REACTORS
330
AF
102
}
330
AF
100
AcDbDictionary
281
     1
  0
XRECORD
  5
300
102
{ACAD_REACTORS
330
2FF
102
}
330
2FF
100
AcDbXrecord
280
     1
290
     1
  0
ACDBDETAILVIEWSTYLE
  5
2F7
102
{ACAD_XDICTIONARY
360
31D
102
}
102
{ACAD_REACTORS
330
2F6
102
}
330
2F6
100
AcDbModelDocViewStyle
 70
     0
  3
Metric50
290
     0
100
AcDbDetailViewStyle
 70
     0
 71
     0
 90
        3
 71
     1
340
11
 62
   256
 40
5.0
340
0
 62
   256
 40
5.0
300

 40
0.0
280
     1
 71
     2
340
16
 90
       25
 62
   256
 71
     3
340
11
 62
   256
 40
5.0
 90
        0
 40
15.0
 90
        1
300
%<\AcVar ViewDetailId>% (%<\AcVar ViewScale \f "%sn">%)
 71
     4
340
16
 90
       25
 62
   256
340
16
 90
       25
 62
   256
280
     0
  0
LAYOUT
  5
22
102
{ACAD_REACTORS
330
1A
102
}
330
1A
100
AcDbPlotSettings
  1

  2
none_device
  4
ANSI_A_(8.50_x_11.00_Inches)
  6

 40
6.349999904632568
 41
19.04999923706055
 42
6.350006103515625
 43
19.04998779296875
 44
215.8999938964844
 45
279.3999938964844
 46
0.0
 47
0.0
 48
0.0
 49
0.0
140
0.0
141
0.0
142
1.0
143
78.436453180766
 70
 11952
 72
     0
 73
     1
 74
     0
  7

 75
     0
147
0.0127491741332998
 76
     0
 77
     2
 78
   300
148
0.0
149
0.0
100
AcDbLayout
  1
Model
 70
     1
 71
     0
 10
0.0
 20
0.0
 11
12.0
 21
9.0
 12
0.0
 22
0.0
 32
0.0
 14
0.0
 24
0.0
 34
0.0
 15
0.0
 25
0.0
 35
0.0
146
0.0
 13
0.0
 23
0.0
 33
0.0
 16
1.0
 26
0.0
 36
0.0
 17
0.0
 27
1.0
 37
0.0
 76
     0
330
1F
331
2AB
  0
LAYOUT
  5
51
102
{ACAD_REACTORS
330
1A
102
}
330
1A
100
AcDbPlotSettings
  1

  2
None
  4

  6

 40
0.0
 41
0.0
 42
0.0
 43
0.0
 44
0.0
 45
0.0
 46
0.0
 47
0.0
 48
0.0
 49
0.0
140
0.0
141
0.0
142
1.0
143
1.0
 70
   688
 72
     0
 73
     0
 74
     5
  7

 75
    16
147
1.0
 76
     0
 77
     2
 78
   300
148
0.0
149
0.0
100
AcDbLayout
  1
布局1
 70
     1
 71
     1
 10
0.0
 20
0.0
 11
12.0
 21
9.0
 12
0.0
 22
0.0
 32
0.0
 14
0.0
 24
0.0
 34
0.0
 15
0.0
 25
0.0
 35
0.0
146
0.0
 13
0.0
 23
0.0
 33
0.0
 16
1.0
 26
0.0
 36
0.0
 17
0.0
 27
1.0
 37
0.0
 76
     0
330
50
1001
AcadStringInfo
1000
MIFCodePage
1070
     5
  0
LAYOUT
  5
56
102
{ACAD_REACTORS
330
1A
102
}
330
1A
100
AcDbPlotSettings
  1

  2
None
  4

  6

 40
0.0
 41
0.0
 42
0.0
 43
0.0
 44
0.0
 45
0.0
 46
0.0
 47
0.0
 48
0.0
 49
0.0
140
0.0
141
0.0
142
1.0
143
1.0
 70
   688
 72
     0
 73
     0
 74
     5
  7

 75
    16
147
1.0
 76
     0
 77
     2
 78
   300
148
0.0
149
0.0
100
AcDbLayout
  1
布局2
 70
     1
 71
     2
 10
0.0
 20
0.0
 11
12.0
 21
9.0
 12
0.0
 22
0.0
 32
0.0
 14
0.0
 24
0.0
 34
0.0
 15
0.0
 25
0.0
 35
0.0
146
0.0
 13
0.0
 23
0.0
 33
0.0
 16
1.0
 26
0.0
 36
0.0
 17
0.0
 27
1.0
 37
0.0
 76
     0
330
55
1001
AcadStringInfo
1000
MIFCodePage
1070
     5
  0
MATERIAL
  5
2B5
102
{ACAD_XDICTIONARY
360
2B6
102
}
102
{ACAD_REACTORS
330
6A
102
}
330
6A
100
AcDbMaterial
  1
ByBlock
 72
     0
 43
0.0008202099737533
 43
0.0
 43
0.0
 43
0.0
 43
0.0
 43
0.0008202099737533
 43
0.0
 43
0.0
 43
0.0
 43
0.0
 43
1.0
 43
0.0
 43
0.0
 43
0.0
 43
0.0
 43
1.0
 77
     0
 47
0.0008202099737533
 47
0.0
 47
0.0
 47
0.0
 47
0.0
 47
0.0008202099737533
 47
0.0
 47
0.0
 47
0.0
 47
0.0
 47
1.0
 47
0.0
 47
0.0
 47
0.0
 47
0.0
 47
1.0
171
     0
 49
0.0008202099737533
 49
0.0
 49
0.0
 49
0.0
 49
0.0
 49
0.0008202099737533
 49
0.0
 49
0.0
 49
0.0
 49
0.0
 49
1.0
 49
0.0
 49
0.0
 49
0.0
 49
0.0
 49
1.0
175
     0
142
0.0008202099737533
142
0.0
142
0.0
142
0.0
142
0.0
142
0.0008202099737533
142
0.0
142
0.0
142
0.0
142
0.0
142
1.0
142
0.0
142
0.0
142
0.0
142
0.0
142
1.0
179
     0
144
0.0008202099737533
144
0.0
144
0.0
144
0.0
144
0.0
144
0.0008202099737533
144
0.0
144
0.0
144
0.0
144
0.0
144
1.0
144
0.0
144
0.0
144
0.0
144
0.0
144
1.0
147
0.0008202099737533
147
0.0
147
0.0
147
0.0
147
0.0
147
0.0008202099737533
147
0.0
147
0.0
147
0.0
147
0.0
147
1.0
147
0.0
147
0.0
147
0.0
147
0.0
147
1.0
  0
MATERIAL
  5
2AD
102
{ACAD_XDICTIONARY
360
2AE
102
}
102
{ACAD_REACTORS
330
6A
102
}
330
6A
100
AcDbMaterial
  1
ByLayer
 72
     0
 43
0.0008202099737533
 43
0.0
 43
0.0
 43
0.0
 43
0.0
 43
0.0008202099737533
 43
0.0
 43
0.0
 43
0.0
 43
0.0
 43
1.0
 43
0.0
 43
0.0
 43
0.0
 43
0.0
 43
1.0
 77
     0
 47
0.0008202099737533
 47
0.0
 47
0.0
 47
0.0
 47
0.0
 47
0.0008202099737533
 47
0.0
 47
0.0
 47
0.0
 47
0.0
 47
1.0
 47
0.0
 47
0.0
 47
0.0
 47
0.0
 47
1.0
171
     0
 49
0.0008202099737533
 49
0.0
 49
0.0
 49
0.0
 49
0.0
 49
0.0008202099737533
 49
0.0
 49
0.0
 49
0.0
 49
0.0
 49
1.0
 49
0.0
 49
0.0
 49
0.0
 49
0.0
 49
1.0
175
     0
142
0.0008202099737533
142
0.0
142
0.0
142
0.0
142
0.0
142
0.0008202099737533
142
0.0
142
0.0
142
0.0
142
0.0
142
1.0
142
0.0
142
0.0
142
0.0
142
0.0
142
1.0
179
     0
144
0.0008202099737533
144
0.0
144
0.0
144
0.0
144
0.0
144
0.0008202099737533
144
0.0
144
0.0
144
0.0
144
0.0
144
1.0
144
0.0
144
0.0
144
0.0
144
0.0
144
1.0
147
0.0008202099737533
147
0.0
147
0.0
147
0.0
147
0.0
147
0.0008202099737533
147
0.0
147
0.0
147
0.0
147
0.0
147
1.0
147
0.0
147
0.0
147
0.0
147
0.0
147
1.0
  0
MATERIAL
  5
2BD
102
{ACAD_XDICTIONARY
360
2BE
102
}
102
{ACAD_REACTORS
330
6A
102
}
330
6A
100
AcDbMaterial
  1
Global
 72
     0
 43
0.0008202099737533
 43
0.0
 43
0.0
 43
0.0
 43
0.0
 43
0.0008202099737533
 43
0.0
 43
0.0
 43
0.0
 43
0.0
 43
1.0
 43
0.0
 43
0.0
 43
0.0
 43
0.0
 43
1.0
 77
     0
 47
0.0008202099737533
 47
0.0
 47
0.0
 47
0.0
 47
0.0
 47
0.0008202099737533
 47
0.0
 47
0.0
 47
0.0
 47
0.0
 47
1.0
 47
0.0
 47
0.0
 47
0.0
 47
0.0
 47
1.0
171
     0
 49
0.0008202099737533
 49
0.0
 49
0.0
 49
0.0
 49
0.0
 49
0.0008202099737533
 49
0.0
 49
0.0
 49
0.0
 49
0.0
 49
1.0
 49
0.0
 49
0.0
 49
0.0
 49
0.0
 49
1.0
175
     0
142
0.0008202099737533
142
0.0
142
0.0
142
0.0
142
0.0
142
0.0008202099737533
142
0.0
142
0.0
142
0.0
142
0.0
142
1.0
142
0.0
142
0.0
142
0.0
142
0.0
142
1.0
179
     0
144
0.0008202099737533
144
0.0
144
0.0
144
0.0
144
0.0
144
0.0008202099737533
144
0.0
144
0.0
144
0.0
144
0.0
144
1.0
144
0.0
144
0.0
144
0.0
144
0.0
144
1.0
147
0.0008202099737533
147
0.0
147
0.0
147
0.0
147
0.0
147
0.0008202099737533
147
0.0
147
0.0
147
0.0
147
0.0
147
1.0
147
0.0
147
0.0
147
0.0
147
0.0
147
1.0
  0
MLEADERSTYLE
  5
2F3
102
{ACAD_REACTORS
330
2F2
102
}
330
2F2
100
AcDbMLeaderStyle
179
     2
170
     2
171
     1
172
     0
 90
        2
 40
0.0
 41
0.0
173
     1
 91
-1056964608
340
14
 92
       -2
290
     1
 42
2.0
291
     1
 43
0.36
  3
Standard
 44
4.0
300

342
11
174
     1
178
     6
175
     1
176
     0
 93
-1056964608
 45
4.0
292
     0
297
     0
 46
4.0
 94
-1056964608
 47
1.0
 49
1.0
140
1.0
293
     1
141
0.0
294
     1
177
     0
142
1.0
295
     1
296
     0
143
0.125
271
     0
272
     9
273
     9
298
     1
  0
MLINESTYLE
  5
18
102
{ACAD_REACTORS
330
17
102
}
330
17
100
AcDbMlineStyle
  2
STANDARD
 70
     0
  3

 62
   256
 51
90.0
 52
90.0
 71
     2
 49
0.5
 62
   256
  6
BYLAYER
 49
-0.5
 62
   256
  6
BYLAYER
  0
ACDBPLACEHOLDER
  5
F
102
{ACAD_REACTORS
330
E
102
}
330
E
  0
SCALE
  5
2E1
102
{ACAD_REACTORS
330
2E0
102
}
330
2E0
100
AcDbScale
 70
     0
300
1:1
140
1.0
141
1.0
290
     1
  0
SCALE
  5
2E2
102
{ACAD_REACTORS
330
2E0
102
}
330
2E0
100
AcDbScale
 70
     0
300
1:2
140
1.0
141
2.0
290
     0
  0
SCALE
  5
2E3
102
{ACAD_REACTORS
330
2E0
102
}
330
2E0
100
AcDbScale
 70
     0
300
1:4
140
1.0
141
4.0
290
     0
  0
SCALE
  5
2E4
102
{ACAD_REACTORS
330
2E0
102
}
330
2E0
100
AcDbScale
 70
     0
300
1:5
140
1.0
141
5.0
290
     0
  0
SCALE
  5
2E5
102
{ACAD_REACTORS
330
2E0
102
}
330
2E0
100
AcDbScale
 70
     0
300
1:8
140
1.0
141
8.0
290
     0
  0
SCALE
  5
2E6
102
{ACAD_REACTORS
330
2E0
102
}
330
2E0
100
AcDbScale
 70
     0
300
1:10
140
1.0
141
10.0
290
     0
  0
SCALE
  5
2E7
102
{ACAD_REACTORS
330
2E0
102
}
330
2E0
100
AcDbScale
 70
     0
300
1:16
140
1.0
141
16.0
290
     0
  0
SCALE
  5
2E8
102
{ACAD_REACTORS
330
2E0
102
}
330
2E0
100
AcDbScale
 70
     0
300
1:20
140
1.0
141
20.0
290
     0
  0
SCALE
  5
2E9
102
{ACAD_REACTORS
330
2E0
102
}
330
2E0
100
AcDbScale
 70
     0
300
1:30
140
1.0
141
30.0
290
     0
  0
SCALE
  5
2EA
102
{ACAD_REACTORS
330
2E0
102
}
330
2E0
100
AcDbScale
 70
     0
300
1:40
140
1.0
141
40.0
290
     0
  0
SCALE
  5
2EB
102
{ACAD_REACTORS
330
2E0
102
}
330
2E0
100
AcDbScale
 70
     0
300
1:50
140
1.0
141
50.0
290
     0
  0
SCALE
  5
2EC
102
{ACAD_REACTORS
330
2E0
102
}
330
2E0
100
AcDbScale
 70
     0
300
1:100
140
1.0
141
100.0
290
     0
  0
SCALE
  5
2ED
102
{ACAD_REACTORS
330
2E0
102
}
330
2E0
100
AcDbScale
 70
     0
300
2:1
140
2.0
141
1.0
290
     0
  0
SCALE
  5
2EE
102
{ACAD_REACTORS
330
2E0
102
}
330
2E0
100
AcDbScale
 70
     0
300
4:1
140
4.0
141
1.0
290
     0
  0
SCALE
  5
2EF
102
{ACAD_REACTORS
330
2E0
102
}
330
2E0
100
AcDbScale
 70
     0
300
8:1
140
8.0
141
1.0
290
     0
  0
SCALE
  5
2F0
102
{ACAD_REACTORS
330
2E0
102
}
330
2E0
100
AcDbScale
 70
     0
300
10:1
140
10.0
141
1.0
290
     0
  0
SCALE
  5
2F1
102
{ACAD_REACTORS
330
2E0
102
}
330
2E0
100
AcDbScale
 70
     0
300
100:1
140
100.0
141
1.0
290
     0
  0
ACDBSECTIONVIEWSTYLE
  5
2F5
102
{ACAD_XDICTIONARY
360
31B
102
}
102
{ACAD_REACTORS
330
2F4
102
}
330
2F4
100
AcDbModelDocViewStyle
 70
     0
  3
Metric50
290
     0
100
AcDbSectionViewStyle
 70
     0
 71
     0
 90
      102
 71
     1
340
11
 62
   256
 40
5.0
340
0
340
0
 62
   256
 40
5.0
300
I, O, Q, S, X, Z
 40
10.0
 90
        0
 40
2.5
 90
        0
 71
     2
340
16
 90
       25
 62
   256
340
16
 90
       50
 62
   256
 40
5.0
 40
2.5
 40
5.0
 71
     3
340
11
 62
   256
 40
5.0
 90
        0
 40
15.0
 90
        1
300
%<\AcVar ViewSectionStartId>%-%<\AcVar ViewSectionEndId>% (%<\AcVar ViewScale \f "%sn">%)
 71
     4
 62
   256
 62
   257
300
ANSI31
 40
1.0
 90
        0
290
     0
290
     0
 90
        6
 40
0.0
 40
1.570796326794896
 40
0.2617993877991494
 40
1.308996938995747
 40
-0.2617993877991494
 40
1.832595714594046
  0
TABLESTYLE
  5
2DF
102
{ACAD_XDICTIONARY
360
319
102
}
102
{ACAD_REACTORS
330
2DE
102
}
330
2DE
100
AcDbTableStyle
280
     0
  3
Standard
 70
     0
 71
     0
 40
1.5
 41
1.5
280
     0
281
     0
  7
Standard
140
4.5
170
     2
 62
     0
 63
     7
283
     0
 90
      512
 91
        0
  1

274
    -2
284
     1
 64
     0
275
    -2
285
     1
 65
     0
276
    -2
286
     1
 66
     0
277
    -2
287
     1
 67
     0
278
    -2
288
     1
 68
     0
279
    -2
289
     1
 69
     0
  7
Standard
140
6.0
170
     5
 62
     0
 63
     7
283
     0
 90
      512
 91
        0
  1

274
    -2
284
     1
 64
     0
275
    -2
285
     1
 65
     0
276
    -2
286
     1
 66
     0
277
    -2
287
     1
 67
     0
278
    -2
288
     1
 68
     0
279
    -2
289
     1
 69
     0
  7
Standard
140
4.5
170
     5
 62
     0
 63
     7
283
     0
 90
      512
 91
        0
  1

274
    -2
284
     1
 64
     0
275
    -2
285
     1
 65
     0
276
    -2
286
     1
 66
     0
277
    -2
287
     1
 67
     0
278
    -2
288
     1
 68
     0
279
    -2
289
     1
 69
     0
  0
VISUALSTYLE
  5
2CB
102
{ACAD_REACTORS
330
2C5
102
}
330
2C5
100
AcDbVisualStyle
  2
2dWireframe
 70
     4
177
     3
291
     0
 70
    58
 90
        0
176
     1
 90
        2
176
     1
 90
        0
176
     1
 90
        0
176
     1
 40
0.6
176
     1
 40
30.0
176
     1
 62
     7
420
 16777215
176
     1
 90
        1
176
     1
 90
        4
176
     1
 62
     7
176
     1
 62
   257
176
     1
 90
        1
176
     1
 90
        1
176
     1
 40
1.0
176
     1
 90
        0
176
     1
 62
   257
176
     1
 40
1.0
176
     1
 90
        1
176
     1
 90
        6
176
     1
 90
        2
176
     1
 62
     7
176
     1
 90
        5
176
     1
 90
        0
176
     1
 90
        0
176
     1
290
     0
176
     1
 90
        1
176
     1
 40
0.0
176
     1
 90
        0
176
     1
290
     1
176
     1
290
     1
176
     1
290
     0
176
     1
290
     0
176
     1
290
     0
176
     1
290
     0
176
     1
290
     0
176
     1
290
     0
176
     1
290
     0
176
     1
 90
       50
176
     1
 40
0.0
176
     1
 40
1.0
176
     1
 90
        0
176
     1
 62
    18
420
        0
176
     1
 90
       50
176
     1
 90
        3
176
     1
 62
     5
420
      255
176
     1
290
     0
176
     1
 90
       50
176
     1
 90
       50
176
     1
 90
       50
176
     1
290
     0
176
     1
 90
       50
176
     1
 62
   256
176
     0
 40
1.0
176
     0
 90
        2
176
     1
  1
strokes_ogs.tif
176
     1
290
     0
176
     1
 40
1.0
176
     1
 40
1.0
176
     1
  0
VISUALSTYLE
  5
2CA
102
{ACAD_REACTORS
330
2C5
102
}
330
2C5
100
AcDbVisualStyle
  2
Basic
 70
     7
177
     3
291
     1
 70
    58
 90
        1
176
     1
 90
        0
176
     1
 90
        1
176
     1
 90
        0
176
     1
 40
0.6
176
     1
 40
30.0
176
     1
 62
     7
420
 16777215
176
     1
 90
        0
176
     1
 90
        4
176
     1
 62
     7
176
     1
 62
   257
176
     1
 90
        1
176
     1
 90
        1
176
     1
 40
1.0
176
     1
 90
        8
176
     1
 62
     7
176
     1
 40
1.0
176
     1
 90
        1
176
     1
 90
        6
176
     1
 90
        2
176
     1
 62
     7
176
     1
 90
        5
176
     1
 90
        0
176
     1
 90
        0
176
     1
290
     0
176
     1
 90
        1
176
     1
 40
0.0
176
     1
 90
        0
176
     1
290
     0
176
     1
290
     1
176
     1
290
     1
176
     1
290
     0
176
     1
290
     0
176
     1
290
     0
176
     1
290
     0
176
     1
290
     0
176
     1
290
     0
176
     1
 90
       50
176
     1
 40
0.0
176
     1
 40
1.0
176
     1
 90
        0
176
     1
 62
    18
420
        0
176
     1
 90
       50
176
     1
 90
        3
176
     1
 62
     5
420
      255
176
     1
290
     0
176
     1
 90
       50
176
     1
 90
       50
176
     1
 90
       50
176
     1
290
     0
176
     1
 90
       50
176
     1
 62
   256
176
     0
 40
1.0
176
     0
 90
        2
176
     1
  1
strokes_ogs.tif
176
     1
290
     0
176
     1
 40
1.0
176
     1
 40
1.0
176
     1
  0
VISUALSTYLE
  5
2D1
102
{ACAD_REACTORS
330
2C5
102
}
330
2C5
100
AcDbVisualStyle
  2
Brighten
 70
    12
177
     3
291
     1
 70
    58
 90
        2
176
     1
 90
        2
176
     1
 90
        0
176
     1
 90
        0
176
     1
 40
0.6
176
     1
 40
30.0
176
     1
 62
     7
420
 16777215
176
     1
 90
        1
176
     1
 90
        4
176
     1
 62
     7
176
     1
 62
   257
176
     1
 90
        1
176
     1
 90
        1
176
     1
 40
1.0
176
     1
 90
        8
176
     1
 62
     7
176
     1
 40
1.0
176
     1
 90
        1
176
     1
 90
        6
176
     1
 90
        2
176
     1
 62
     7
176
     1
 90
        5
176
     1
 90
        0
176
     1
 90
        0
176
     1
290
     0
176
     1
 90
        1
176
     1
 40
50.0
176
     1
 90
        0
176
     1
290
     0
176
     1
290
     1
176
     1
290
     1
176
     1
290
     0
176
     1
290
     0
176
     1
290
     0
176
     1
290
     0
176
     1
290
     0
176
     1
290
     0
176
     1
 90
       50
176
     1
 40
0.0
176
     1
 40
1.0
176
     1
 90
        0
176
     1
 62
    18
420
        0
176
     1
 90
       50
176
     1
 90
        3
176
     1
 62
     5
420
      255
176
     1
290
     0
176
     1
 90
       50
176
     1
 90
       50
176
     1
 90
       50
176
     1
290
     0
176
     1
 90
       50
176
     1
 62
   256
176
     0
 40
1.0
176
     0
 90
        2
176
     1
  1
strokes_ogs.tif
176
     1
290
     0
176
     1
 40
1.0
176
     1
 40
1.0
176
     1
  0
VISUALSTYLE
  5
2D5
102
{ACAD_REACTORS
330
2C5
102
}
330
2C5
100
AcDbVisualStyle
  2
ColorChange
 70
    16
177
     3
291
     1
 70
    58
 90
        2
176
     1
 90
        2
176
     1
 90
        3
176
     1
 90
        0
176
     1
 40
0.6
176
     1
 40
30.0
176
     1
 62
     8
420
  8421504
176
     1
 90
        1
176
     1
 90
        4
176
     1
 62
     7
176
     1
 62
   257
176
     1
 90
        1
176
     1
 90
        1
176
     1
 40
1.0
176
     1
 90
        8
176
     1
 62
     8
420
  8421504
176
     1
 40
1.0
176
     1
 90
        1
176
     1
 90
        6
176
     1
 90
        2
176
     1
 62
     7
176
     1
 90
        5
176
     1
 90
        0
176
     1
 90
        0
176
     1
290
     0
176
     1
 90
        1
176
     1
 40
0.0
176
     1
 90
        0
176
     1
290
     0
176
     1
290
     1
176
     1
290
     1
176
     1
290
     0
176
     1
290
     0
176
     1
290
     0
176
     1
290
     0
176
     1
290
     0
176
     1
290
     0
176
     1
 90
       50
176
     1
 40
0.0
176
     1
 40
1.0
176
     1
 90
        0
176
     1
 62
    18
420
        0
176
     1
 90
       50
176
     1
 90
        3
176
     1
 62
     5
420
      255
176
     1
290
     0
176
     1
 90
       50
176
     1
 90
       50
176
     1
 90
       50
176
     1
290
     0
176
     1
 90
       50
176
     1
 62
   256
176
     0
 40
1.0
176
     0
 90
        2
176
     1
  1
strokes_ogs.tif
176
     1
290
     0
176
     1
 40
1.0
176
     1
 40
1.0
176
     1
  0
VISUALSTYLE
  5
2CE
102
{ACAD_REACTORS
330
2C5
102
}
330
2C5
100
AcDbVisualStyle
  2
Conceptual
 70
     9
177
     3
291
     0
 70
    58
 90
        3
176
     1
 90
        2
176
     1
 90
        0
176
     1
 90
        0
176
     1
 40
0.6
176
     1
 40
30.0
176
     1
 62
     7
420
 16777215
176
     1
 90
        2
176
     1
 90
        2
176
     1
 62
     7
176
     1
 62
   257
176
     1
 90
        1
176
     1
 90
        1
176
     1
 40
179.0
176
     1
 90
        8
176
     1
 62
     7
176
     1
 40
1.0
176
     1
 90
        1
176
     1
 90
        6
176
     1
 90
        2
176
     1
 62
     7
176
     1
 90
        3
176
     1
 90
        0
176
     1
 90
        0
176
     1
290
     0
176
     1
 90
        1
176
     1
 40
0.0
176
     1
 90
        0
176
     1
290
     0
176
     1
290
     1
176
     1
290
     1
176
     1
290
     0
176
     1
290
     0
176
     1
290
     0
176
     1
290
     0
176
     1
290
     0
176
     1
290
     0
176
     1
 90
       50
176
     1
 40
0.0
176
     1
 40
1.0
176
     1
 90
        0
176
     1
 62
    18
420
        0
176
     1
 90
       50
176
     1
 90
        3
176
     1
 62
     5
420
      255
176
     1
290
     0
176
     1
 90
       50
176
     1
 90
       50
176
     1
 90
       50
176
     1
290
     0
176
     1
 90
       50
176
     1
 62
   256
176
     0
 40
1.0
176
     0
 90
        2
176
     1
  1
strokes_ogs.tif
176
     1
290
     0
176
     1
 40
1.0
176
     1
 40
1.0
176
     1
  0
VISUALSTYLE
  5
2D0
102
{ACAD_REACTORS
330
2C5
102
}
330
2C5
100
AcDbVisualStyle
  2
Dim
 70
    11
177
     3
291
     1
 70
    58
 90
        2
176
     1
 90
        2
176
     1
 90
        0
176
     1
 90
        0
176
     1
 40
0.6
176
     1
 40
30.0
176
     1
 62
     7
420
 16777215
176
     1
 90
        1
176
     1
 90
        4
176
     1
 62
     7
176
     1
 62
   257
176
     1
 90
        1
176
     1
 90
        1
176
     1
 40
1.0
176
     1
 90
        8
176
     1
 62
     7
176
     1
 40
1.0
176
     1
 90
        1
176
     1
 90
        6
176
     1
 90
        2
176
     1
 62
     7
176
     1
 90
        5
176
     1
 90
        0
176
     1
 90
        0
176
     1
290
     0
176
     1
 90
        1
176
     1
 40
-50.0
176
     1
 90
        0
176
     1
290
     0
176
     1
290
     1
176
     1
290
     1
176
     1
290
     0
176
     1
290
     0
176
     1
290
     0
176
     1
290
     0
176
     1
290
     0
176
     1
290
     0
176
     1
 90
       50
176
     1
 40
0.0
176
     1
 40
1.0
176
     1
 90
        0
176
     1
 62
    18
420
        0
176
     1
 90
       50
176
     1
 90
        3
176
     1
 62
     5
420
      255
176
     1
290
     0
176
     1
 90
       50
176
     1
 90
       50
176
     1
 90
       50
176
     1
290
     0
176
     1
 90
       50
176
     1
 62
   256
176
     0
 40
1.0
176
     0
 90
        2
176
     1
  1
strokes_ogs.tif
176
     1
290
     0
176
     1
 40
1.0
176
     1
 40
1.0
176
     1
  0
VISUALSTYLE
  5
2DD
102
{ACAD_REACTORS
330
2C5
102
}
330
2C5
100
AcDbVisualStyle
  2
EdgeColorOff
 70
    22
177
     3
291
     1
 70
    58
 90
        2
176
     0
 90
        2
176
     0
 90
        0
176
     0
 90
        0
176
     0
 40
0.6
176
     0
 40
30.0
176
     0
 62
     7
420
 16777215
176
     0
 90
        1
176
     0
 90
        4
176
     0
 62
     7
176
     0
 62
   257
176
     0
 90
        1
176
     0
 90
        1
176
     0
 40
1.0
176
     0
 90
        8
176
     2
 62
     7
176
     0
 40
1.0
176
     0
 90
        1
176
     0
 90
        6
176
     0
 90
        2
176
     0
 62
     7
176
     0
 90
        5
176
     0
 90
        0
176
     0
 90
        0
176
     0
290
     0
176
     0
 90
        1
176
     0
 40
0.0
176
     0
 90
        0
176
     0
290
     0
176
     0
290
     1
176
     0
290
     1
176
     0
290
     0
176
     0
290
     0
176
     0
290
     0
176
     0
290
     0
176
     0
290
     0
176
     0
290
     0
176
     0
 90
       50
176
     0
 40
0.0
176
     0
 40
1.0
176
     0
 90
        0
176
     0
 62
    18
420
        0
176
     0
 90
       50
176
     0
 90
        3
176
     0
 62
     5
420
      255
176
     0
290
     0
176
     0
 90
       50
176
     0
 90
       50
176
     0
 90
       50
176
     0
290
     0
176
     0
 90
       50
176
     0
 62
   256
176
     0
 40
1.0
176
     0
 90
        2
176
     0
  1
strokes_ogs.tif
176
     0
290
     0
176
     0
 40
1.0
176
     0
 40
1.0
176
     0
  0
VISUALSTYLE
  5
2D4
102
{ACAD_REACTORS
330
2C5
102
}
330
2C5
100
AcDbVisualStyle
  2
Facepattern
 70
    15
177
     3
291
     1
 70
    58
 90
        2
176
     1
 90
        2
176
     1
 90
        0
176
     1
 90
        0
176
     1
 40
0.6
176
     1
 40
30.0
176
     1
 62
     7
420
 16777215
176
     1
 90
        1
176
     1
 90
        4
176
     1
 62
     7
176
     1
 62
   257
176
     1
 90
        1
176
     1
 90
        1
176
     1
 40
1.0
176
     1
 90
        8
176
     1
 62
     7
176
     1
 40
1.0
176
     1
 90
        1
176
     1
 90
        6
176
     1
 90
        2
176
     1
 62
     7
176
     1
 90
        5
176
     1
 90
        0
176
     1
 90
        0
176
     1
290
     0
176
     1
 90
        1
176
     1
 40
0.0
176
     1
 90
        0
176
     1
290
     0
176
     1
290
     1
176
     1
290
     1
176
     1
290
     0
176
     1
290
     0
176
     1
290
     0
176
     1
290
     0
176
     1
290
     0
176
     1
290
     0
176
     1
 90
       50
176
     1
 40
0.0
176
     1
 40
1.0
176
     1
 90
        0
176
     1
 62
    18
420
        0
176
     1
 90
       50
176
     1
 90
        3
176
     1
 62
     5
420
      255
176
     1
290
     0
176
     1
 90
       50
176
     1
 90
       50
176
     1
 90
       50
176
     1
290
     0
176
     1
 90
       50
176
     1
 62
   256
176
     0
 40
1.0
176
     0
 90
        2
176
     1
  1
strokes_ogs.tif
176
     1
290
     0
176
     1
 40
1.0
176
     1
 40
1.0
176
     1
  0
VISUALSTYLE
  5
2C6
102
{ACAD_REACTORS
330
2C5
102
}
330
2C5
100
AcDbVisualStyle
  2
Flat
 70
     0
177
     3
291
     1
 70
    58
 90
        2
176
     1
 90
        1
176
     1
 90
        1
176
     1
 90
        2
176
     1
 40
0.6
176
     1
 40
30.0
176
     1
 62
     7
420
 16777215
176
     1
 90
        0
176
     1
 90
        0
176
     1
 62
     7
176
     1
 62
   257
176
     1
 90
        1
176
     1
 90
        1
176
     1
 40
1.0
176
     1
 90
        8
176
     1
 62
     7
176
     1
 40
1.0
176
     1
 90
        1
176
     1
 90
        6
176
     1
 90
        2
176
     1
 62
     7
176
     1
 90
        5
176
     1
 90
        0
176
     1
 90
        0
176
     1
290
     0
176
     1
 90
       13
176
     1
 40
0.0
176
     1
 90
        0
176
     1
290
     0
176
     1
290
     1
176
     1
290
     1
176
     1
290
     0
176
     1
290
     0
176
     1
290
     0
176
     1
290
     0
176
     1
290
     0
176
     1
290
     0
176
     1
 90
       50
176
     1
 40
0.0
176
     1
 40
1.0
176
     1
 90
        0
176
     1
 62
    18
420
        0
176
     1
 90
       50
176
     1
 90
        3
176
     1
 62
     5
420
      255
176
     1
290
     0
176
     1
 90
       50
176
     1
 90
       50
176
     1
 90
       50
176
     1
290
     0
176
     1
 90
       50
176
     1
 62
   256
176
     0
 40
1.0
176
     0
 90
        2
176
     1
  1
strokes_ogs.tif
176
     1
290
     0
176
     1
 40
1.0
176
     1
 40
1.0
176
     1
  0
VISUALSTYLE
  5
2C7
102
{ACAD_REACTORS
330
2C5
102
}
330
2C5
100
AcDbVisualStyle
  2
FlatWithEdges
 70
     1
177
     3
291
     1
 70
    58
 90
        2
176
     1
 90
        1
176
     1
 90
        1
176
     1
 90
        2
176
     1
 40
0.6
176
     1
 40
30.0
176
     1
 62
     7
420
 16777215
176
     1
 90
        1
176
     1
 90
        0
176
     1
 62
     7
176
     1
 62
   257
176
     1
 90
        1
176
     1
 90
        1
176
     1
 40
1.0
176
     1
 90
        0
176
     1
 62
   257
176
     1
 40
1.0
176
     1
 90
        1
176
     1
 90
        6
176
     1
 90
        2
176
     1
 62
     7
176
     1
 90
        5
176
     1
 90
        0
176
     1
 90
        0
176
     1
290
     0
176
     1
 90
       13
176
     1
 40
0.0
176
     1
 90
        0
176
     1
290
     0
176
     1
290
     1
176
     1
290
     1
176
     1
290
     0
176
     1
290
     0
176
     1
290
     0
176
     1
290
     0
176
     1
290
     0
176
     1
290
     0
176
     1
 90
       50
176
     1
 40
0.0
176
     1
 40
1.0
176
     1
 90
        0
176
     1
 62
    18
420
        0
176
     1
 90
       50
176
     1
 90
        3
176
     1
 62
     5
420
      255
176
     1
290
     0
176
     1
 90
       50
176
     1
 90
       50
176
     1
 90
       50
176
     1
290
     0
176
     1
 90
       50
176
     1
 62
   256
176
     0
 40
1.0
176
     0
 90
        2
176
     1
  1
strokes_ogs.tif
176
     1
290
     0
176
     1
 40
1.0
176
     1
 40
1.0
176
     1
  0
VISUALSTYLE
  5
2C8
102
{ACAD_REACTORS
330
2C5
102
}
330
2C5
100
AcDbVisualStyle
  2
Gouraud
 70
     2
177
     3
291
     1
 70
    58
 90
        2
176
     1
 90
        2
176
     1
 90
        1
176
     1
 90
        2
176
     1
 40
0.6
176
     1
 40
30.0
176
     1
 62
     7
420
 16777215
176
     1
 90
        0
176
     1
 90
        0
176
     1
 62
     7
176
     1
 62
   257
176
     1
 90
        1
176
     1
 90
        1
176
     1
 40
1.0
176
     1
 90
        0
176
     1
 62
     7
176
     1
 40
1.0
176
     1
 90
        1
176
     1
 90
        6
176
     1
 90
        2
176
     1
 62
     7
176
     1
 90
        5
176
     1
 90
        0
176
     1
 90
        0
176
     1
290
     0
176
     1
 90
       13
176
     1
 40
0.0
176
     1
 90
        0
176
     1
290
     0
176
     1
290
     1
176
     1
290
     1
176
     1
290
     0
176
     1
290
     0
176
     1
290
     0
176
     1
290
     0
176
     1
290
     0
176
     1
290
     0
176
     1
 90
       50
176
     1
 40
0.0
176
     1
 40
1.0
176
     1
 90
        0
176
     1
 62
    18
420
        0
176
     1
 90
       50
176
     1
 90
        3
176
     1
 62
     5
420
      255
176
     1
290
     0
176
     1
 90
       50
176
     1
 90
       50
176
     1
 90
       50
176
     1
290
     0
176
     1
 90
       50
176
     1
 62
   256
176
     0
 40
1.0
176
     0
 90
        2
176
     1
  1
strokes_ogs.tif
176
     1
290
     0
176
     1
 40
1.0
176
     1
 40
1.0
176
     1
  0
VISUALSTYLE
  5
2C9
102
{ACAD_REACTORS
330
2C5
102
}
330
2C5
100
AcDbVisualStyle
  2
GouraudWithEdges
 70
     3
177
     3
291
     1
 70
    58
 90
        2
176
     1
 90
        2
176
     1
 90
        1
176
     1
 90
        2
176
     1
 40
0.6
176
     1
 40
30.0
176
     1
 62
     7
420
 16777215
176
     1
 90
        1
176
     1
 90
        0
176
     1
 62
     7
176
     1
 62
   257
176
     1
 90
        1
176
     1
 90
        1
176
     1
 40
1.0
176
     1
 90
        0
176
     1
 62
   257
176
     1
 40
1.0
176
     1
 90
        1
176
     1
 90
        6
176
     1
 90
        2
176
     1
 62
     7
176
     1
 90
        5
176
     1
 90
        0
176
     1
 90
        0
176
     1
290
     0
176
     1
 90
       13
176
     1
 40
0.0
176
     1
 90
        0
176
     1
290
     0
176
     1
290
     1
176
     1
290
     1
176
     1
290
     0
176
     1
290
     0
176
     1
290
     0
176
     1
290
     0
176
     1
290
     0
176
     1
290
     0
176
     1
 90
       50
176
     1
 40
0.0
176
     1
 40
1.0
176
     1
 90
        0
176
     1
 62
    18
420
        0
176
     1
 90
       50
176
     1
 90
        3
176
     1
 62
     5
420
      255
176
     1
290
     0
176
     1
 90
       50
176
     1
 90
       50
176
     1
 90
       50
176
     1
290
     0
176
     1
 90
       50
176
     1
 62
   256
176
     0
 40
1.0
176
     0
 90
        2
176
     1
  1
strokes_ogs.tif
176
     1
290
     0
176
     1
 40
1.0
176
     1
 40
1.0
176
     1
  0
VISUALSTYLE
  5
2CD
102
{ACAD_REACTORS
330
2C5
102
}
330
2C5
100
AcDbVisualStyle
  2
Hidden
 70
     6
177
     3
291
     0
 70
    58
 90
        1
176
     1
 90
        2
176
     1
 90
        2
176
     1
 90
        0
176
     1
 40
0.6
176
     1
 40
30.0
176
     1
 62
     7
420
 16777215
176
     1
 90
        2
176
     1
 90
        2
176
     1
 62
     7
176
     1
 62
   257
176
     1
 90
        2
176
     1
 90
        1
176
     1
 40
40.0
176
     1
 90
        0
176
     1
 62
   257
176
     1
 40
1.0
176
     1
 90
        1
176
     1
 90
        6
176
     1
 90
        2
176
     1
 62
     7
176
     1
 90
        3
176
     1
 90
        0
176
     1
 90
        0
176
     1
290
     0
176
     1
 90
        1
176
     1
 40
0.0
176
     1
 90
        0
176
     1
290
     0
176
     1
290
     1
176
     1
290
     1
176
     1
290
     0
176
     1
290
     0
176
     1
290
     0
176
     1
290
     0
176
     1
290
     0
176
     1
290
     0
176
     1
 90
       50
176
     1
 40
0.0
176
     1
 40
1.0
176
     1
 90
        0
176
     1
 62
    18
420
        0
176
     1
 90
       50
176
     1
 90
        3
176
     1
 62
     5
420
      255
176
     1
290
     0
176
     1
 90
       50
176
     1
 90
       50
176
     1
 90
       50
176
     1
290
     0
176
     1
 90
       50
176
     1
 62
   256
176
     0
 40
1.0
176
     0
 90
        2
176
     1
  1
strokes_ogs.tif
176
     1
290
     0
176
     1
 40
1.0
176
     1
 40
1.0
176
     1
  0
VISUALSTYLE
  5
2DB
102
{ACAD_REACTORS
330
2C5
102
}
330
2C5
100
AcDbVisualStyle
  2
JitterOff
 70
    20
177
     3
291
     1
 70
    58
 90
        2
176
     0
 90
        2
176
     0
 90
        0
176
     0
 90
        0
176
     0
 40
0.6
176
     0
 40
30.0
176
     0
 62
     7
420
 16777215
176
     0
 90
        1
176
     0
 90
        4
176
     0
 62
     7
176
     0
 62
   257
176
     0
 90
        1
176
     0
 90
        1
176
     0
 40
1.0
176
     0
 90
       10
176
     2
 62
     7
176
     0
 40
1.0
176
     0
 90
        1
176
     0
 90
        6
176
     0
 90
        2
176
     0
 62
     7
176
     0
 90
        5
176
     0
 90
        0
176
     0
 90
        0
176
     0
290
     0
176
     0
 90
        1
176
     0
 40
0.0
176
     0
 90
        0
176
     0
290
     0
176
     0
290
     1
176
     0
290
     1
176
     0
290
     0
176
     0
290
     0
176
     0
290
     0
176
     0
290
     0
176
     0
290
     0
176
     0
290
     0
176
     0
 90
       50
176
     0
 40
0.0
176
     0
 40
1.0
176
     0
 90
        0
176
     0
 62
    18
420
        0
176
     0
 90
       50
176
     0
 90
        3
176
     0
 62
     5
420
      255
176
     0
290
     0
176
     0
 90
       50
176
     0
 90
       50
176
     0
 90
       50
176
     0
290
     0
176
     0
 90
       50
176
     0
 62
   256
176
     0
 40
1.0
176
     0
 90
        2
176
     0
  1
strokes_ogs.tif
176
     0
290
     0
176
     0
 40
1.0
176
     0
 40
1.0
176
     0
  0
VISUALSTYLE
  5
2D3
102
{ACAD_REACTORS
330
2C5
102
}
330
2C5
100
AcDbVisualStyle
  2
Linepattern
 70
    14
177
     3
291
     1
 70
    58
 90
        2
176
     1
 90
        2
176
     1
 90
        0
176
     1
 90
        0
176
     1
 40
0.6
176
     1
 40
30.0
176
     1
 62
     7
420
 16777215
176
     1
 90
        1
176
     1
 90
        4
176
     1
 62
     7
176
     1
 62
   257
176
     1
 90
        7
176
     1
 90
        7
176
     1
 40
1.0
176
     1
 90
        8
176
     1
 62
     7
176
     1
 40
1.0
176
     1
 90
        1
176
     1
 90
        6
176
     1
 90
        2
176
     1
 62
     7
176
     1
 90
        5
176
     1
 90
        0
176
     1
 90
        0
176
     1
290
     0
176
     1
 90
        1
176
     1
 40
0.0
176
     1
 90
        0
176
     1
290
     0
176
     1
290
     1
176
     1
290
     1
176
     1
290
     0
176
     1
290
     0
176
     1
290
     0
176
     1
290
     0
176
     1
290
     0
176
     1
290
     0
176
     1
 90
       50
176
     1
 40
0.0
176
     1
 40
1.0
176
     1
 90
        0
176
     1
 62
    18
420
        0
176
     1
 90
       50
176
     1
 90
        3
176
     1
 62
     5
420
      255
176
     1
290
     0
176
     1
 90
       50
176
     1
 90
       50
176
     1
 90
       50
176
     1
290
     0
176
     1
 90
       50
176
     1
 62
   256
176
     0
 40
1.0
176
     0
 90
        2
176
     1
  1
strokes_ogs.tif
176
     1
290
     0
176
     1
 40
1.0
176
     1
 40
1.0
176
     1
  0
VISUALSTYLE
  5
2DC
102
{ACAD_REACTORS
330
2C5
102
}
330
2C5
100
AcDbVisualStyle
  2
OverhangOff
 70
    21
177
     3
291
     1
 70
    58
 90
        2
176
     0
 90
        2
176
     0
 90
        0
176
     0
 90
        0
176
     0
 40
0.6
176
     0
 40
30.0
176
     0
 62
     7
420
 16777215
176
     0
 90
        1
176
     0
 90
        4
176
     0
 62
     7
176
     0
 62
   257
176
     0
 90
        1
176
     0
 90
        1
176
     0
 40
1.0
176
     0
 90
        9
176
     2
 62
     7
176
     0
 40
1.0
176
     0
 90
        1
176
     0
 90
        6
176
     0
 90
        2
176
     0
 62
     7
176
     0
 90
        5
176
     0
 90
        0
176
     0
 90
        0
176
     0
290
     0
176
     0
 90
        1
176
     0
 40
0.0
176
     0
 90
        0
176
     0
290
     0
176
     0
290
     1
176
     0
290
     1
176
     0
290
     0
176
     0
290
     0
176
     0
290
     0
176
     0
290
     0
176
     0
290
     0
176
     0
290
     0
176
     0
 90
       50
176
     0
 40
0.0
176
     0
 40
1.0
176
     0
 90
        0
176
     0
 62
    18
420
        0
176
     0
 90
       50
176
     0
 90
        3
176
     0
 62
     5
420
      255
176
     0
290
     0
176
     0
 90
       50
176
     0
 90
       50
176
     0
 90
       50
176
     0
290
     0
176
     0
 90
       50
176
     0
 62
   256
176
     0
 40
1.0
176
     0
 90
        2
176
     0
  1
strokes_ogs.tif
176
     0
290
     0
176
     0
 40
1.0
176
     0
 40
1.0
176
     0
  0
VISUALSTYLE
  5
2CF
102
{ACAD_REACTORS
330
2C5
102
}
330
2C5
100
AcDbVisualStyle
  2
Realistic
 70
     8
177
     3
291
     0
 70
    58
 90
        2
176
     1
 90
        3
176
     1
 90
        0
176
     1
 90
        2
176
     1
 40
0.6
176
     1
 40
30.0
176
     1
 62
     7
420
 16777215
176
     1
 90
        0
176
     1
 90
        0
176
     1
 62
     7
176
     1
 62
   257
176
     1
 90
        1
176
     1
 90
        1
176
     1
 40
1.0
176
     1
 90
        8
176
     1
 62
   257
176
     1
 40
1.0
176
     1
 90
        1
176
     1
 90
        6
176
     1
 90
        2
176
     1
 62
     7
176
     1
 90
        3
176
     1
 90
        0
176
     1
 90
        0
176
     1
290
     0
176
     1
 90
       13
176
     1
 40
0.0
176
     1
 90
        0
176
     1
290
     0
176
     1
290
     1
176
     1
290
     1
176
     1
290
     0
176
     1
290
     0
176
     1
290
     0
176
     1
290
     0
176
     1
290
     0
176
     1
290
     0
176
     1
 90
       50
176
     1
 40
0.0
176
     1
 40
1.0
176
     1
 90
        0
176
     1
 62
    18
420
        0
176
     1
 90
       50
176
     1
 90
        3
176
     1
 62
     5
420
      255
176
     1
290
     0
176
     1
 90
       50
176
     1
 90
       50
176
     1
 90
       50
176
     1
290
     0
176
     1
 90
       50
176
     1
 62
   256
176
     0
 40
1.0
176
     0
 90
        2
176
     1
  1
strokes_ogs.tif
176
     1
290
     0
176
     1
 40
1.0
176
     1
 40
1.0
176
     1
  0
VISUALSTYLE
  5
2DA
102
{ACAD_REACTORS
330
2C5
102
}
330
2C5
100
AcDbVisualStyle
  2
Shaded
 70
    27
177
     3
291
     0
 70
    58
 90
        2
176
     1
 90
        2
176
     1
 90
        1
176
     1
 90
        2
176
     1
 40
0.6
176
     1
 40
30.0
176
     1
 62
     7
420
 16777215
176
     1
 90
        0
176
     1
 90
        4
176
     1
 62
     7
176
     1
 62
   257
176
     1
 90
        1
176
     1
 90
        1
176
     1
 40
1.0
176
     1
 90
        8
176
     1
 62
   257
176
     1
 40
1.0
176
     1
 90
        1
176
     1
 90
        6
176
     1
 90
        2
176
     1
 62
     8
420
  7895160
176
     1
 90
        3
176
     1
 90
        0
176
     1
 90
        0
176
     1
290
     0
176
     1
 90
        5
176
     1
 40
0.0
176
     1
 90
        0
176
     1
290
     0
176
     1
290
     1
176
     1
290
     1
176
     1
290
     0
176
     1
290
     0
176
     1
290
     0
176
     1
290
     0
176
     1
290
     0
176
     1
290
     0
176
     1
 90
       50
176
     1
 40
0.0
176
     1
 40
1.0
176
     1
 90
        0
176
     1
 62
    18
420
        0
176
     1
 90
       50
176
     1
 90
        3
176
     1
 62
     5
420
      255
176
     1
290
     0
176
     1
 90
       50
176
     1
 90
       50
176
     1
 90
       50
176
     1
290
     0
176
     1
 90
       50
176
     1
 62
   256
176
     0
 40
1.0
176
     0
 90
        2
176
     1
  1
strokes_ogs.tif
176
     1
290
     0
176
     1
 40
1.0
176
     1
 40
1.0
176
     1
  0
VISUALSTYLE
  5
2D9
102
{ACAD_REACTORS
330
2C5
102
}
330
2C5
100
AcDbVisualStyle
  2
Shaded with edges
 70
    26
177
     3
291
     0
 70
    58
 90
        2
176
     1
 90
        2
176
     1
 90
        1
176
     1
 90
        2
176
     1
 40
0.6
176
     1
 40
30.0
176
     1
 62
     7
420
 16777215
176
     1
 90
        1
176
     1
 90
        2
176
     1
 62
     7
176
     1
 62
   257
176
     1
 90
        2
176
     1
 90
        1
176
     1
 40
1.0
176
     1
 90
        8
176
     1
 62
   257
176
     1
 40
1.0
176
     1
 90
        1
176
     1
 90
        6
176
     1
 90
        2
176
     1
 62
     7
176
     1
 90
        3
176
     1
 90
        0
176
     1
 90
        0
176
     1
290
     0
176
     1
 90
        5
176
     1
 40
0.0
176
     1
 90
        0
176
     1
290
     0
176
     1
290
     1
176
     1
290
     1
176
     1
290
     0
176
     1
290
     0
176
     1
290
     0
176
     1
290
     0
176
     1
290
     0
176
     1
290
     0
176
     1
 90
       50
176
     1
 40
0.0
176
     1
 40
1.0
176
     1
 90
        0
176
     1
 62
    18
420
        0
176
     1
 90
       50
176
     1
 90
        3
176
     1
 62
     5
420
      255
176
     1
290
     0
176
     1
 90
       50
176
     1
 90
       50
176
     1
 90
       50
176
     1
290
     0
176
     1
 90
       50
176
     1
 62
   256
176
     0
 40
1.0
176
     0
 90
        2
176
     1
  1
strokes_ogs.tif
176
     1
290
     0
176
     1
 40
1.0
176
     1
 40
1.0
176
     1
  0
VISUALSTYLE
  5
2D6
102
{ACAD_REACTORS
330
2C5
102
}
330
2C5
100
AcDbVisualStyle
  2
Shades of Gray
 70
    23
177
     3
291
     0
 70
    58
 90
        2
176
     1
 90
        2
176
     1
 90
        3
176
     1
 90
        0
176
     1
 40
0.6
176
     1
 40
30.0
176
     1
 62
     7
420
 16777215
176
     1
 90
        2
176
     1
 90
        2
176
     1
 62
     7
176
     1
 62
     7
176
     1
 90
        1
176
     1
 90
        1
176
     1
 40
40.0
176
     1
 90
        8
176
     1
 62
     7
176
     1
 40
1.0
176
     1
 90
        1
176
     1
 90
        6
176
     1
 90
        2
176
     1
 62
     7
176
     1
 90
        3
176
     1
 90
        0
176
     1
 90
        0
176
     1
290
     0
176
     1
 90
        1
176
     1
 40
0.0
176
     1
 90
        0
176
     1
290
     0
176
     1
290
     1
176
     1
290
     1
176
     1
290
     0
176
     1
290
     0
176
     1
290
     0
176
     1
290
     0
176
     1
290
     0
176
     1
290
     0
176
     1
 90
       50
176
     1
 40
0.0
176
     1
 40
1.0
176
     1
 90
        0
176
     1
 62
    18
420
        0
176
     1
 90
       50
176
     1
 90
        3
176
     1
 62
     5
420
      255
176
     1
290
     0
176
     1
 90
       50
176
     1
 90
       50
176
     1
 90
       50
176
     1
290
     0
176
     1
 90
       50
176
     1
 62
   256
176
     0
 40
1.0
176
     0
 90
        2
176
     1
  1
strokes_ogs.tif
176
     1
290
     0
176
     1
 40
1.0
176
     1
 40
1.0
176
     1
  0
VISUALSTYLE
  5
2D7
102
{ACAD_REACTORS
330
2C5
102
}
330
2C5
100
AcDbVisualStyle
  2
Sketchy
 70
    24
177
     3
291
     0
 70
    58
 90
        1
176
     1
 90
        2
176
     1
 90
        2
176
     1
 90
        0
176
     1
 40
0.6
176
     1
 40
30.0
176
     1
 62
     7
420
 16777215
176
     1
 90
        2
176
     1
 90
        2
176
     1
 62
     7
176
     1
 62
     7
176
     1
 90
        1
176
     1
 90
        1
176
     1
 40
40.0
176
     1
 90
       11
176
     1
 62
     7
176
     1
 40
1.0
176
     1
 90
        1
176
     1
 90
        6
176
     1
 90
        2
176
     1
 62
     7
176
     1
 90
        6
176
     1
 90
        0
176
     1
 90
        0
176
     1
290
     0
176
     1
 90
        1
176
     1
 40
0.0
176
     1
 90
        0
176
     1
290
     0
176
     1
290
     1
176
     1
290
     1
176
     1
290
     0
176
     1
290
     0
176
     1
290
     0
176
     1
290
     0
176
     1
290
     0
176
     1
290
     0
176
     1
 90
       50
176
     1
 40
0.0
176
     1
 40
1.0
176
     1
 90
        0
176
     1
 62
    18
420
        0
176
     1
 90
       50
176
     1
 90
        3
176
     1
 62
     5
420
      255
176
     1
290
     0
176
     1
 90
       50
176
     1
 90
       50
176
     1
 90
       50
176
     1
290
     0
176
     1
 90
       50
176
     1
 62
   256
176
     0
 40
1.0
176
     0
 90
        2
176
     1
  1
strokes_ogs.tif
176
     1
290
     0
176
     1
 40
1.0
176
     1
 40
1.0
176
     1
  0
VISUALSTYLE
  5
2D2
102
{ACAD_REACTORS
330
2C5
102
}
330
2C5
100
AcDbVisualStyle
  2
Thicken
 70
    13
177
     3
291
     1
 70
    58
 90
        2
176
     1
 90
        2
176
     1
 90
        0
176
     1
 90
        0
176
     1
 40
0.6
176
     1
 40
30.0
176
     1
 62
     7
420
 16777215
176
     1
 90
        1
176
     1
 90
        4
176
     1
 62
     7
176
     1
 62
   257
176
     1
 90
        1
176
     1
 90
        1
176
     1
 40
1.0
176
     1
 90
       12
176
     1
 62
     7
176
     1
 40
1.0
176
     1
 90
        1
176
     1
 90
        6
176
     1
 90
        2
176
     1
 62
     7
176
     1
 90
        5
176
     1
 90
        0
176
     1
 90
        0
176
     1
290
     0
176
     1
 90
        1
176
     1
 40
0.0
176
     1
 90
        0
176
     1
290
     0
176
     1
290
     1
176
     1
290
     1
176
     1
290
     0
176
     1
290
     0
176
     1
290
     0
176
     1
290
     0
176
     1
290
     0
176
     1
290
     0
176
     1
 90
       50
176
     1
 40
0.0
176
     1
 40
1.0
176
     1
 90
        0
176
     1
 62
    18
420
        0
176
     1
 90
       50
176
     1
 90
        3
176
     1
 62
     5
420
      255
176
     1
290
     0
176
     1
 90
       50
176
     1
 90
       50
176
     1
 90
       50
176
     1
290
     0
176
     1
 90
       50
176
     1
 62
   256
176
     0
 40
1.0
176
     0
 90
        2
176
     1
  1
strokes_ogs.tif
176
     1
290
     0
176
     1
 40
1.0
176
     1
 40
1.0
176
     1
  0
VISUALSTYLE
  5
2CC
102
{ACAD_REACTORS
330
2C5
102
}
330
2C5
100
AcDbVisualStyle
  2
Wireframe
 70
     5
177
     3
291
     0
 70
    58
 90
        0
176
     1
 90
        2
176
     1
 90
        0
176
     1
 90
        0
176
     1
 40
0.6
176
     1
 40
30.0
176
     1
 62
     7
420
 16777215
176
     1
 90
        1
176
     1
 90
        4
176
     1
 62
     7
176
     1
 62
   257
176
     1
 90
        1
176
     1
 90
        1
176
     1
 40
1.0
176
     1
 90
        0
176
     1
 62
   257
176
     1
 40
1.0
176
     1
 90
        1
176
     1
 90
        6
176
     1
 90
        2
176
     1
 62
     7
176
     1
 90
        3
176
     1
 90
        0
176
     1
 90
        0
176
     1
290
     0
176
     1
 90
        1
176
     1
 40
0.0
176
     1
 90
        0
176
     1
290
     0
176
     1
290
     1
176
     1
290
     1
176
     1
290
     0
176
     1
290
     0
176
     1
290
     0
176
     1
290
     0
176
     1
290
     0
176
     1
290
     0
176
     1
 90
       50
176
     1
 40
0.0
176
     1
 40
1.0
176
     1
 90
        0
176
     1
 62
    18
420
        0
176
     1
 90
       50
176
     1
 90
        3
176
     1
 62
     5
420
      255
176
     1
290
     0
176
     1
 90
       50
176
     1
 90
       50
176
     1
 90
       50
176
     1
290
     0
176
     1
 90
       50
176
     1
 62
   256
176
     0
 40
1.0
176
     0
 90
        2
176
     1
  1
strokes_ogs.tif
176
     1
290
     0
176
     1
 40
1.0
176
     1
 40
1.0
176
     1
  0
VISUALSTYLE
  5
2D8
102
{ACAD_REACTORS
330
2C5
102
}
330
2C5
100
AcDbVisualStyle
  2
X-Ray
 70
    25
177
     3
291
     0
 70
    58
 90
        2
176
     1
 90
        2
176
     1
 90
        1
176
     1
 90
        1
176
     1
 40
0.5
176
     1
 40
30.0
176
     1
 62
     7
420
 16777215
176
     1
 90
        1
176
     1
 90
        0
176
     1
 62
     7
176
     1
 62
   257
176
     1
 90
        1
176
     1
 90
        1
176
     1
 40
1.0
176
     1
 90
        8
176
     1
 62
     7
176
     1
 40
1.0
176
     1
 90
        1
176
     1
 90
        6
176
     1
 90
        2
176
     1
 62
     7
176
     1
 90
        3
176
     1
 90
        0
176
     1
 90
        0
176
     1
290
     0
176
     1
 90
       13
176
     1
 40
0.0
176
     1
 90
        0
176
     1
290
     0
176
     1
290
     1
176
     1
290
     1
176
     1
290
     0
176
     1
290
     0
176
     1
290
     0
176
     1
290
     0
176
     1
290
     0
176
     1
290
     0
176
     1
 90
       50
176
     1
 40
0.0
176
     1
 40
1.0
176
     1
 90
        0
176
     1
 62
    18
420
        0
176
     1
 90
       50
176
     1
 90
        3
176
     1
 62
     5
420
      255
176
     1
290
     0
176
     1
 90
       50
176
     1
 90
       50
176
     1
 90
       50
176
     1
290
     0
176
     1
 90
       50
176
     1
 62
   256
176
     0
 40
1.0
176
     0
 90
        2
176
     1
  1
strokes_ogs.tif
176
     1
290
     0
176
     1
 40
1.0
176
     1
 40
1.0
176
     1
  0
DICTIONARYVAR
  5
315
102
{ACAD_REACTORS
330
5E
102
}
330
5E
100
DictionaryVariables
280
     0
  1
1:1
  0
DICTIONARYVAR
  5
311
102
{ACAD_REACTORS
330
5E
102
}
330
5E
100
DictionaryVariables
280
     0
  1
STANDARD
  0
DICTIONARYVAR
  5
310
102
{ACAD_REACTORS
330
5E
102
}
330
5E
100
DictionaryVariables
280
     0
  1
STANDARD
  0
DICTIONARYVAR
  5
312
102
{ACAD_REACTORS
330
5E
102
}
330
5E
100
DictionaryVariables
280
     0
  1
Metric50
  0
DICTIONARYVAR
  5
313
102
{ACAD_REACTORS
330
5E
102
}
330
5E
100
DictionaryVariables
280
     0
  1
Metric50
  0
DICTIONARYVAR
  5
5F
102
{ACAD_REACTORS
330
5E
102
}
330
5E
100
DictionaryVariables
280
     0
  1
2
  0
DICTIONARYVAR
  5
63
102
{ACAD_REACTORS
330
5E
102
}
330
5E
100
DictionaryVariables
280
     0
  1
1
  0
DICTIONARYVAR
  5
317
102
{ACAD_REACTORS
330
5E
102
}
330
5E
100
DictionaryVariables
280
     0
  1
1
  0
DICTIONARYVAR
  5
318
102
{ACAD_REACTORS
330
5E
102
}
330
5E
100
DictionaryVariables
280
     0
  1
15
  0
DICTIONARYVAR
  5
316
102
{ACAD_REACTORS
330
5E
102
}
330
5E
100
DictionaryVariables
280
     0
  1
0
  0
DICTIONARYVAR
  5
314
102
{ACAD_REACTORS
330
5E
102
}
330
5E
100
DictionaryVariables
280
     0
  1
0
  0
DICTIONARY
  5
31D
330
2F7
100
AcDbDictionary
280
     1
281
     1
  3
ACAD_XREC_ROUNDTRIP
360
31E
  0
DICTIONARY
  5
2B6
330
2B5
100
AcDbDictionary
280
     1
281
     1
  3
BUMPTILE
360
2B8
  3
DIFFUSETILE
360
2B7
  3
OPACITYTILE
360
2BB
  3
REFLECTIONTILE
360
2BA
  3
REFRACTIONTILE
360
2BC
  3
SPECULARTILE
360
2B9
  0
DICTIONARY
  5
2AE
330
2AD
100
AcDbDictionary
280
     1
281
     1
  3
BUMPTILE
360
2B0
  3
DIFFUSETILE
360
2AF
  3
OPACITYTILE
360
2B3
  3
REFLECTIONTILE
360
2B2
  3
REFRACTIONTILE
360
2B4
  3
SPECULARTILE
360
2B1
  0
DICTIONARY
  5
2BE
330
2BD
100
AcDbDictionary
280
     1
281
     1
  3
BUMPTILE
360
2C0
  3
DIFFUSETILE
360
2BF
  3
OPACITYTILE
360
2C3
  3
REFLECTIONTILE
360
2C2
  3
REFRACTIONTILE
360
2C4
  3
SPECULARTILE
360
2C1
  0
DICTIONARY
  5
31B
330
2F5
100
AcDbDictionary
280
     1
281
     1
  3
ACAD_XREC_ROUNDTRIP
360
31C
  0
DICTIONARY
  5
319
330
2DF
100
AcDbDictionary
280
     1
281
     1
  3
ACAD_ROUNDTRIP_2008_TABLESTYLE_CELLSTYLEMAP
360
31A
  0
XRECORD
  5
31E
102
{ACAD_REACTORS
330
31D
102
}
330
31D
100
AcDbXrecord
280
     1
102
DISPLAYNAME
  1
Metric50
102
FLAGS
 90
        0
  0
XRECORD
  5
2B8
102
{ACAD_REACTORS
330
2B6
102
}
330
2B6
100
AcDbXrecord
280
     1
270
     1
271
     1
  0
XRECORD
  5
2B7
102
{ACAD_REACTORS
330
2B6
102
}
330
2B6
100
AcDbXrecord
280
     1
270
     1
271
     1
  0
XRECORD
  5
2BB
102
{ACAD_REACTORS
330
2B6
102
}
330
2B6
100
AcDbXrecord
280
     1
270
     1
271
     1
  0
XRECORD
  5
2BA
102
{ACAD_REACTORS
330
2B6
102
}
330
2B6
100
AcDbXrecord
280
     1
270
     1
271
     1
  0
XRECORD
  5
2BC
102
{ACAD_REACTORS
330
2B6
102
}
330
2B6
100
AcDbXrecord
280
     1
270
     1
271
     1
  0
XRECORD
  5
2B9
102
{ACAD_REACTORS
330
2B6
102
}
330
2B6
100
AcDbXrecord
280
     1
270
     1
271
     1
  0
XRECORD
  5
2B0
102
{ACAD_REACTORS
330
2AE
102
}
330
2AE
100
AcDbXrecord
280
     1
270
     1
271
     1
  0
XRECORD
  5
2AF
102
{ACAD_REACTORS
330
2AE
102
}
330
2AE
100
AcDbXrecord
280
     1
270
     1
271
     1
  0
XRECORD
  5
2B3
102
{ACAD_REACTORS
330
2AE
102
}
330
2AE
100
AcDbXrecord
280
     1
270
     1
271
     1
  0
XRECORD
  5
2B2
102
{ACAD_REACTORS
330
2AE
102
}
330
2AE
100
AcDbXrecord
280
     1
270
     1
271
     1
  0
XRECORD
  5
2B4
102
{ACAD_REACTORS
330
2AE
102
}
330
2AE
100
AcDbXrecord
280
     1
270
     1
271
     1
  0
XRECORD
  5
2B1
102
{ACAD_REACTORS
330
2AE
102
}
330
2AE
100
AcDbXrecord
280
     1
270
     1
271
     1
  0
XRECORD
  5
2C0
102
{ACAD_REACTORS
330
2BE
102
}
330
2BE
100
AcDbXrecord
280
     1
270
     1
271
     1
  0
XRECORD
  5
2BF
102
{ACAD_REACTORS
330
2BE
102
}
330
2BE
100
AcDbXrecord
280
     1
270
     1
271
     1
  0
XRECORD
  5
2C3
102
{ACAD_REACTORS
330
2BE
102
}
330
2BE
100
AcDbXrecord
280
     1
270
     1
271
     1
  0
XRECORD
  5
2C2
102
{ACAD_REACTORS
330
2BE
102
}
330
2BE
100
AcDbXrecord
280
     1
270
     1
271
     1
  0
XRECORD
  5
2C4
102
{ACAD_REACTORS
330
2BE
102
}
330
2BE
100
AcDbXrecord
280
     1
270
     1
271
     1
  0
XRECORD
  5
2C1
102
{ACAD_REACTORS
330
2BE
102
}
330
2BE
100
AcDbXrecord
280
     1
270
     1
271
     1
  0
XRECORD
  5
31C
102
{ACAD_REACTORS
330
31B
102
}
330
31B
100
AcDbXrecord
280
     1
102
DISPLAYNAME
  1
Metric50
102
FLAGS
 90
        0
  0
CELLSTYLEMAP
  5
31A
102
{ACAD_REACTORS
330
319
102
}
330
319
100
AcDbCellStyleMap
 90
        3
300
CELLSTYLE
  1
TABLEFORMAT_BEGIN
 90
        5
170
     1
 91
        0
 92
    32768
 62
   257
 93
        1
300
CONTENTFORMAT
  1
CONTENTFORMAT_BEGIN
 90
        0
 91
        0
 92
      512
 93
        0
300

 40
0.0
140
1.0
 94
        5
 62
     0
340
11
144
6.0
309
CONTENTFORMAT_END
171
     1
301
MARGIN
  1
CELLMARGIN_BEGIN
 40
1.5
 40
1.5
 40
1.5
 40
1.5
 40
4.5
 40
4.5
309
CELLMARGIN_END
 94
        6
 95
        1
302
GRIDFORMAT
  1
GRIDFORMAT_BEGIN
 90
        0
 91
        1
 62
     0
 92
       -2
340
0
 93
        0
 40
1.125
309
GRIDFORMAT_END
 95
        2
302
GRIDFORMAT
  1
GRIDFORMAT_BEGIN
 90
        0
 91
        1
 62
     0
 92
       -2
340
0
 93
        0
 40
1.125
309
GRIDFORMAT_END
 95
        4
302
GRIDFORMAT
  1
GRIDFORMAT_BEGIN
 90
        0
 91
        1
 62
     0
 92
       -2
340
0
 93
        0
 40
1.125
309
GRIDFORMAT_END
 95
        8
302
GRIDFORMAT
  1
GRIDFORMAT_BEGIN
 90
        0
 91
        1
 62
     0
 92
       -2
340
0
 93
        0
 40
1.125
309
GRIDFORMAT_END
 95
       16
302
GRIDFORMAT
  1
GRIDFORMAT_BEGIN
 90
        0
 91
        1
 62
     0
 92
       -2
340
0
 93
        0
 40
1.125
309
GRIDFORMAT_END
 95
       32
302
GRIDFORMAT
  1
GRIDFORMAT_BEGIN
 90
        0
 91
        1
 62
     0
 92
       -2
340
0
 93
        0
 40
1.125
309
GRIDFORMAT_END
309
TABLEFORMAT_END
  1
CELLSTYLE_BEGIN
 90
        1
 91
        1
300
_TITLE
309
CELLSTYLE_END
300
CELLSTYLE
  1
TABLEFORMAT_BEGIN
 90
        5
170
     1
 91
        0
 92
        0
 62
   257
 93
        1
300
CONTENTFORMAT
  1
CONTENTFORMAT_BEGIN
 90
        0
 91
        0
 92
      512
 93
        0
300

 40
0.0
140
1.0
 94
        5
 62
     0
340
11
144
4.5
309
CONTENTFORMAT_END
171
     1
301
MARGIN
  1
CELLMARGIN_BEGIN
 40
1.5
 40
1.5
 40
1.5
 40
1.5
 40
4.5
 40
4.5
309
CELLMARGIN_END
 94
        6
 95
        1
302
GRIDFORMAT
  1
GRIDFORMAT_BEGIN
 90
        0
 91
        1
 62
     0
 92
       -2
340
0
 93
        0
 40
1.125
309
GRIDFORMAT_END
 95
        2
302
GRIDFORMAT
  1
GRIDFORMAT_BEGIN
 90
        0
 91
        1
 62
     0
 92
       -2
340
0
 93
        0
 40
1.125
309
GRIDFORMAT_END
 95
        4
302
GRIDFORMAT
  1
GRIDFORMAT_BEGIN
 90
        0
 91
        1
 62
     0
 92
       -2
340
0
 93
        0
 40
1.125
309
GRIDFORMAT_END
 95
        8
302
GRIDFORMAT
  1
GRIDFORMAT_BEGIN
 90
        0
 91
        1
 62
     0
 92
       -2
340
0
 93
        0
 40
1.125
309
GRIDFORMAT_END
 95
       16
302
GRIDFORMAT
  1
GRIDFORMAT_BEGIN
 90
        0
 91
        1
 62
     0
 92
       -2
340
0
 93
        0
 40
1.125
309
GRIDFORMAT_END
 95
       32
302
GRIDFORMAT
  1
GRIDFORMAT_BEGIN
 90
        0
 91
        1
 62
     0
 92
       -2
340
0
 93
        0
 40
1.125
309
GRIDFORMAT_END
309
TABLEFORMAT_END
  1
CELLSTYLE_BEGIN
 90
        2
 91
        1
300
_HEADER
309
CELLSTYLE_END
300
CELLSTYLE
  1
TABLEFORMAT_BEGIN
 90
        5
170
     1
 91
        0
 92
        0
 62
   257
 93
        1
300
CONTENTFORMAT
  1
CONTENTFORMAT_BEGIN
 90
        0
 91
        0
 92
      512
 93
        0
300

 40
0.0
140
1.0
 94
        2
 62
     0
340
11
144
4.5
309
CONTENTFORMAT_END
171
     1
301
MARGIN
  1
CELLMARGIN_BEGIN
 40
1.5
 40
1.5
 40
1.5
 40
1.5
 40
4.5
 40
4.5
309
CELLMARGIN_END
 94
        6
 95
        1
302
GRIDFORMAT
  1
GRIDFORMAT_BEGIN
 90
        0
 91
        1
 62
     0
 92
       -2
340
0
 93
        0
 40
1.125
309
GRIDFORMAT_END
 95
        2
302
GRIDFORMAT
  1
GRIDFORMAT_BEGIN
 90
        0
 91
        1
 62
     0
 92
       -2
340
0
 93
        0
 40
1.125
309
GRIDFORMAT_END
 95
        4
302
GRIDFORMAT
  1
GRIDFORMAT_BEGIN
 90
        0
 91
        1
 62
     0
 92
       -2
340
0
 93
        0
 40
1.125
309
GRIDFORMAT_END
 95
        8
302
GRIDFORMAT
  1
GRIDFORMAT_BEGIN
 90
        0
 91
        1
 62
     0
 92
       -2
340
0
 93
        0
 40
1.125
309
GRIDFORMAT_END
 95
       16
302
GRIDFORMAT
  1
GRIDFORMAT_BEGIN
 90
        0
 91
        1
 62
     0
 92
       -2
340
0
 93
        0
 40
1.125
309
GRIDFORMAT_END
 95
       32
302
GRIDFORMAT
  1
GRIDFORMAT_BEGIN
 90
        0
 91
        1
 62
     0
 92
       -2
340
0
 93
        0
 40
1.125
309
GRIDFORMAT_END
309
TABLEFORMAT_END
  1
CELLSTYLE_BEGIN
 90
        3
 91
        2
300
_DATA
309
CELLSTYLE_END
  0
ENDSEC
  0
EOF
