  0
SECTION
  2
HEADER
  9
$ACADVER
  1
AC1027
  9
$ACADMAINTVER
 70
   125
  9
$DWGCODEPAGE
  3
ANSI_1252
  9
$LASTSAVEDBY
  1
fleminab
  9
$REQUIREDVERSIONS
160
                 0
  9
$INSBASE
 10
8.0
 20
5.0
 30
0.0
  9
$EXTMIN
 10
807.9637528631646
 20
340.3827697704183
 30
0.0
  9
$EXTMAX
 10
6288.879566175133
 20
4498.271551723679
 30
0.0
  9
$LIMMIN
 10
0.0
 20
0.0
  9
$LIMMAX
 10
420.0
 20
297.0
  9
$ORTHOMODE
 70
     1
  9
$REGENMODE
 70
     1
  9
$FILLMODE
 70
     1
  9
$QTEXTMODE
 70
     0
  9
$MIRRTEXT
 70
     1
  9
$LTSCALE
 40
0.5
  9
$ATTMODE
 70
     1
  9
$TEXTSIZE
 40
6.0
  9
$TRACEWID
 40
1.0
  9
$TEXTSTYLE
  7
黑体
  9
$CLAYER
  8
标注
  9
$CELTYPE
  6
ByLayer
  9
$CECOLOR
 62
   256
  9
$CELTSCALE
 40
1.0
  9
$DISPSILH
 70
     1
  9
$DIMSCALE
 40
1.0
  9
$DIMASZ
 40
12.0
  9
$DIMEXO
 40
0.625
  9
$DIMDLI
 40
3.75
  9
$DIMRND
 40
0.0
  9
$DIMDLE
 40
0.0
  9
$DIMEXE
 40
8.0
  9
$DIMTP
 40
0.0
  9
$DIMTM
 40
0.0
  9
$DIMTXT
 40
30.0
  9
$DIMCEN
 40
2.5
  9
$DIMTSZ
 40
0.0
  9
$DIMTOL
 70
     0
  9
$DIMLIM
 70
     0
  9
$DIMTIH
 70
     0
  9
$DIMTOH
 70
     0
  9
$DIMSE1
 70
     0
  9
$DIMSE2
 70
     0
  9
$DIMTAD
 70
     1
  9
$DIMZIN
 70
     8
  9
$DIMBLK
  1
ClosedBlank
  9
$DIMASO
 70
     1
  9
$DIMSHO
 70
     1
  9
$DIMPOST
  1

  9
$DIMAPOST
  1

  9
$DIMALT
 70
     0
  9
$DIMALTD
 70
     3
  9
$DIMALTF
 40
0.03937007874016
  9
$DIMLFAC
 40
1.0
  9
$DIMTOFL
 70
     1
  9
$DIMTVP
 40
0.0
  9
$DIMTIX
 70
     0
  9
$DIMSOXD
 70
     0
  9
$DIMSAH
 70
     0
  9
$DIMBLK1
  1

  9
$DIMBLK2
  1

  9
$DIMSTYLE
  2
线性标注
  9
$DIMCLRD
 70
     0
  9
$DIMCLRE
 70
     0
  9
$DIMCLRT
 70
     0
  9
$DIMTFAC
 40
1.0
  9
$DIMGAP
 40
0.625
  9
$DIMJUST
 70
     0
  9
$DIMSD1
 70
     0
  9
$DIMSD2
 70
     0
  9
$DIMTOLJ
 70
     0
  9
$DIMTZIN
 70
     8
  9
$DIMALTZ
 70
     0
  9
$DIMALTTZ
 70
     0
  9
$DIMUPT
 70
     0
  9
$DIMDEC
 70
     1
  9
$DIMTDEC
 70
     1
  9
$DIMALTU
 70
     2
  9
$DIMALTTD
 70
     3
  9
$DIMTXSTY
  7
样式 1
  9
$DIMAUNIT
 70
     0
  9
$DIMADEC
 70
     0
  9
$DIMALTRND
 40
0.0
  9
$DIMAZIN
 70
     0
  9
$DIMDSEP
 70
    46
  9
$DIMATFIT
 70
     3
  9
$DIMFRAC
 70
     0
  9
$DIMLDRBLK
  1

  9
$DIMLUNIT
 70
     2
  9
$DIMLWD
 70
    -2
  9
$DIMLWE
 70
    -2
  9
$DIMTMOVE
 70
     0
  9
$DIMFXL
 40
1.25
  9
$DIMFXLON
 70
     0
  9
$DIMJOGANG
 40
1.570796326794896
  9
$DIMTFILL
 70
     0
  9
$DIMTFILLCLR
 70
     0
  9
$DIMARCSYM
 70
     0
  9
$DIMLTYPE
  6

  9
$DIMLTEX1
  6

  9
$DIMLTEX2
  6

  9
$DIMTXTDIRECTION
 70
     0
  9
$LUNITS
 70
     2
  9
$LUPREC
 70
     4
  9
$SKETCHINC
 40
1.0
  9
$FILLETRAD
 40
55.0
  9
$AUNITS
 70
     0
  9
$AUPREC
 70
     0
  9
$MENU
  1
.
  9
$ELEVATION
 40
0.0
  9
$PELEVATION
 40
0.0
  9
$THICKNESS
 40
0.0
  9
$LIMCHECK
 70
     0
  9
$CHAMFERA
 40
1.0
  9
$CHAMFERB
 40
1.0
  9
$CHAMFERC
 40
0.5
  9
$CHAMFERD
 40
0.7853981633974483
  9
$SKPOLY
 70
     0
  9
$TDCREATE
 40
2454593.406203704
  9
$TDUCREATE
 40
2454592.989546620
  9
$TDUPDATE
 40
2458015.649918981
  9
$TDUUPDATE
 40
2458015.233252315
  9
$TDINDWG
 40
8.6858194560
  9
$TDUSRTIMER
 40
8.6858136690
  9
$USRTIMER
 70
     1
  9
$ANGBASE
 50
0.0
  9
$ANGDIR
 70
     0
  9
$PDMODE
 70
    34
  9
$PDSIZE
 40
-2.0
  9
$PLINEWID
 40
0.0
  9
$SPLFRAME
 70
     0
  9
$SPLINETYPE
 70
     6
  9
$SPLINESEGS
 70
     8
  9
$HANDSEED
  5
60639F0
  9
$SURFTAB1
 70
     6
  9
$SURFTAB2
 70
     6
  9
$SURFTYPE
 70
     6
  9
$SURFU
 70
     6
  9
$SURFV
 70
     6
  9
$UCSBASE
  2

  9
$UCSNAME
  2

  9
$UCSORG
 10
0.0
 20
0.0
 30
0.0
  9
$UCSXDIR
 10
1.0
 20
-0.0000000000000007
 30
0.0
  9
$UCSYDIR
 10
0.0000000000000007
 20
1.0
 30
0.0
  9
$UCSORTHOREF
  2

  9
$UCSORTHOVIEW
 70
     0
  9
$UCSORGTOP
 10
0.0
 20
0.0
 30
0.0
  9
$UCSORGBOTTOM
 10
0.0
 20
0.0
 30
0.0
  9
$UCSORGLEFT
 10
0.0
 20
0.0
 30
0.0
  9
$UCSORGRIGHT
 10
0.0
 20
0.0
 30
0.0
  9
$UCSORGFRONT
 10
0.0
 20
0.0
 30
0.0
  9
$UCSORGBACK
 10
0.0
 20
0.0
 30
0.0
  9
$PUCSBASE
  2

  9
$PUCSNAME
  2

  9
$PUCSORG
 10
0.0
 20
0.0
 30
0.0
  9
$PUCSXDIR
 10
1.0
 20
0.0
 30
0.0
  9
$PUCSYDIR
 10
0.0
 20
1.0
 30
0.0
  9
$PUCSORTHOREF
  2

  9
$PUCSORTHOVIEW
 70
     0
  9
$PUCSORGTOP
 10
0.0
 20
0.0
 30
0.0
  9
$PUCSORGBOTTOM
 10
0.0
 20
0.0
 30
0.0
  9
$PUCSORGLEFT
 10
0.0
 20
0.0
 30
0.0
  9
$PUCSORGRIGHT
 10
0.0
 20
0.0
 30
0.0
  9
$PUCSORGFRONT
 10
0.0
 20
0.0
 30
0.0
  9
$PUCSORGBACK
 10
0.0
 20
0.0
 30
0.0
  9
$USERI1
 70
     0
  9
$USERI2
 70
     0
  9
$USERI3
 70
     0
  9
$USERI4
 70
     0
  9
$USERI5
 70
     0
  9
$USERR1
 40
0.0
  9
$USERR2
 40
0.0
  9
$USERR3
 40
0.0
  9
$USERR4
 40
0.0
  9
$USERR5
 40
0.0
  9
$WORLDVIEW
 70
     1
  9
$SHADEDGE
 70
     3
  9
$SHADEDIF
 70
    70
  9
$TILEMODE
 70
     1
  9
$MAXACTVP
 70
    64
  9
$PINSBASE
 10
0.0
 20
0.0
 30
0.0
  9
$PLIMCHECK
 70
     0
  9
$PEXTMIN
 10
231.5628581642607
 20
85.44559382699658
 30
-0.0015258207003583
  9
$PEXTMAX
 10
276.520524714962
 20
126.0476833016569
 30
0.0000000349246037
  9
$PLIMMIN
 10
-4.7730712890625
 20
-4.773083209991455
  9
$PLIMMAX
 10
292.2375793457031
 20
205.2425875663757
  9
$UNITMODE
 70
     0
  9
$VISRETAIN
 70
     1
  9
$PLINEGEN
 70
     0
  9
$PSLTSCALE
 70
     0
  9
$TREEDEPTH
 70
  3020
  9
$CMLSTYLE
  2
Standard
  9
$CMLJUST
 70
     0
  9
$CMLSCALE
 40
20.0
  9
$PROXYGRAPHICS
 70
     1
  9
$MEASUREMENT
 70
     1
  9
$CELWEIGHT
370
    -1
  9
$ENDCAPS
280
     0
  9
$JOINSTYLE
280
     0
  9
$LWDISPLAY
290
     0
  9
$INSUNITS
 70
     4
  9
$HYPERLINKBASE
  1

  9
$STYLESHEET
  1
grayscaleDS.ctb
  9
$XEDIT
290
     1
  9
$CEPSNTYPE
380
     0
  9
$PSTYLEMODE
290
     1
  9
$FINGERPRINTGUID
  2
{FDEAD578-A652-11D2-9A35-0060089B3A3F}
  9
$VERSIONGUID
  2
{B285F32F-1CD6-1042-AA7B-6B8AD9C9BCEC}
  9
$EXTNAMES
290
     1
  9
$PSVPSCALE
 40
1.0
  9
$OLESTARTUP
290
     0
  9
$SORTENTS
280
   127
  9
$INDEXCTL
280
     0
  9
$HIDETEXT
280
     1
  9
$XCLIPFRAME
280
     2
  9
$HALOGAP
280
     0
  9
$OBSCOLOR
 70
   257
  9
$OBSLTYPE
280
     0
  9
$INTERSECTIONDISPLAY
280
     0
  9
$INTERSECTIONCOLOR
 70
   257
  9
$DIMASSOC
280
     1
  9
$PROJECTNAME
  1

  9
$CAMERADISPLAY
290
     0
  9
$LENSLENGTH
 40
50.0
  9
$CAMERAHEIGHT
 40
0.0
  9
$STEPSPERSEC
 40
2.0
  9
$STEPSIZE
 40
6.0
  9
$3DDWFPREC
 40
2.0
  9
$PSOLWIDTH
 40
0.25
  9
$PSOLHEIGHT
 40
4.0
  9
$LOFTANG1
 40
1.570795999999999
  9
$LOFTANG2
 40
1.570795999999999
  9
$LOFTMAG1
 40
0.0
  9
$LOFTMAG2
 40
0.0
  9
$LOFTPARAM
 70
     7
  9
$LOFTNORMALS
280
     1
  9
$LATITUDE
 40
37.795
  9
$LONGITUDE
 40
-122.394
  9
$NORTHDIRECTION
 40
0.0
  9
$TIMEZONE
 70
 -8000
  9
$LIGHTGLYPHDISPLAY
280
     1
  9
$TILEMODELIGHTSYNCH
280
     1
  9
$CMATERIAL
347
982F
  9
$SOLIDHIST
280
     0
  9
$SHOWHIST
280
     1
  9
$DWFFRAME
280
     2
  9
$DGNFRAME
280
     2
  9
$REALWORLDSCALE
290
     1
  9
$INTERFERECOLOR
 62
   256
  9
$INTERFEREOBJVS
345
9851
  9
$INTERFEREVPVS
346
63369
  9
$CSHADOW
280
     0
  9
$SHADOWPLANELOCATION
 40
0.0
  0
ENDSEC
  0
SECTION
  2
CLASSES
  0
CLASS
  1
ACDBDICTIONARYWDFLT
  2
AcDbDictionaryWithDefault
  3
ObjectDBX Classes
 90
        0
 91
        1
280
     0
281
     0
  0
CLASS
  1
ACDBPLACEHOLDER
  2
AcDbPlaceHolder
  3
ObjectDBX Classes
 90
        0
 91
        1
280
     0
281
     0
  0
CLASS
  1
LAYOUT
  2
AcDbLayout
  3
ObjectDBX Classes
 90
        0
 91
        2
280
     0
281
     0
  0
CLASS
  1
PLOTSETTINGS
  2
AcDbPlotSettings
  3
ObjectDBX Classes
 90
        0
 91
        1
280
     0
281
     0
  0
CLASS
  1
DICTIONARYVAR
  2
AcDbDictionaryVar
  3
ObjectDBX Classes
 90
        0
 91
       20
280
     0
281
     0
  0
CLASS
  1
WIPEOUT
  2
AcDbWipeout
  3
WipeOut|Product Desc: Object Enabler for WipeOut entity | Company: Autodesk, Inc. | WEB Address: www.autodesk.com
 90
     2175
 91
        0
280
     0
281
     1
  0
CLASS
  1
WIPEOUTVARIABLES
  2
AcDbWipeoutVariables
  3
"WipeOut|Product Desc:     WipeOut Dbx Application|Company:          Autodesk, Inc.|WEB Address:      www.autodesk.com"
 90
        0
 91
        0
280
     0
281
     0
  0
CLASS
  1
DIMASSOC
  2
AcDbDimAssoc
  3
"AcDbDimAssoc|Product Desc:     AcDim ARX App For Dimension|Company:          Autodesk, Inc.|WEB Address:      www.autodesk.com"
 90
        0
 91
        0
280
     0
281
     0
  0
CLASS
  1
RASTERVARIABLES
  2
AcDbRasterVariables
  3
ISM
 90
        0
 91
        3
280
     0
281
     0
  0
CLASS
  1
IMAGEDEF
  2
AcDbRasterImageDef
  3
ISM
 90
        0
 91
        1
280
     0
281
     0
  0
CLASS
  1
IMAGEDEF_REACTOR
  2
AcDbRasterImageDefReactor
  3
ISM
 90
        1
 91
        0
280
     0
281
     0
  0
CLASS
  1
IMAGE
  2
AcDbRasterImage
  3
ISM
 90
     2175
 91
        0
280
     0
281
     1
  0
CLASS
  1
MATERIAL
  2
AcDbMaterial
  3
ObjectDBX Classes
 90
     1153
 91
        3
280
     0
281
     0
  0
CLASS
  1
VISUALSTYLE
  2
AcDbVisualStyle
  3
ObjectDBX Classes
 90
     4095
 91
       26
280
     0
281
     0
  0
CLASS
  1
TABLESTYLE
  2
AcDbTableStyle
  3
ObjectDBX Classes
 90
     4095
 91
        1
280
     0
281
     0
  0
CLASS
  1
SCALE
  2
AcDbScale
  3
ObjectDBX Classes
 90
     1153
 91
       33
280
     0
281
     0
  0
CLASS
  1
MLEADERSTYLE
  2
AcDbMLeaderStyle
  3
ACDB_MLEADERSTYLE_CLASS
 90
     4095
 91
        1
280
     0
281
     0
  0
CLASS
  1
CELLSTYLEMAP
  2
AcDbCellStyleMap
  3
ObjectDBX Classes
 90
     1152
 91
        2
280
     0
281
     0
  0
CLASS
  1
SORTENTSTABLE
  2
AcDbSortentsTable
  3
ObjectDBX Classes
 90
        0
 91
        1
280
     0
281
     0
  0
CLASS
  1
ACDBSECTIONVIEWSTYLE
  2
AcDbSectionViewStyle
  3
ObjectDBX Classes
 90
     1025
 91
        1
280
     0
281
     0
  0
CLASS
  1
ACDBDETAILVIEWSTYLE
  2
AcDbDetailViewStyle
  3
ObjectDBX Classes
 90
     1025
 91
        1
280
     0
281
     0
  0
ENDSEC
  0
SECTION
  2
TABLES
  0
TABLE
  2
VPORT
  5
1A
102
{ACAD_XDICTIONARY
360
628B8
102
}
330
0
100
AcDbSymbolTable
 70
     1
1001
ACAD
1000
DbSaveVer
1071
        5
  0
VPORT
  5
6335A
330
1A
100
AcDbSymbolTableRecord
100
AcDbViewportTableRecord
  2
*Active
 70
     0
 10
0.0
 20
0.0
 11
1.0
 21
1.0
 12
4864.043756722396
 22
3297.006458409975
 13
0.0
 23
0.0
 14
10.0
 24
10.0
 15
10.0
 25
10.0
 16
0.0
 26
0.0
 36
1.0
 17
0.0
 27
0.0
 37
0.0
 40
2455.561447114259
 41
2.292712066905615
 42
50.0
 43
0.0
 44
0.0
 50
0.0
 51
0.0
 71
    16
 72
 20000
 73
     1
 74
     1
 75
     0
 76
     0
 77
     0
 78
     2
281
     0
 65
     1
110
0.0
120
0.0
130
0.0
111
1.0
121
-0.0000000000000007
131
0.0
112
0.0000000000000007
122
1.0
132
0.0
 79
     0
146
0.0
348
984D
 60
     3
 61
     5
292
     1
282
     1
141
0.0
142
0.0
 63
   250
421
  3355443
1001
ACAD_NAV_VCDISPLAY
1070
     3
  0
ENDTAB
  0
TABLE
  2
LTYPE
  5
15
330
0
100
AcDbSymbolTable
 70
     3
  0
LTYPE
  5
16
330
15
100
AcDbSymbolTableRecord
100
AcDbLinetypeTableRecord
  2
ByBlock
 70
     0
  3

 72
    65
 73
     0
 40
0.0
  0
LTYPE
  5
17
330
15
100
AcDbSymbolTableRecord
100
AcDbLinetypeTableRecord
  2
ByLayer
 70
     0
  3

 72
    65
 73
     0
 40
0.0
  0
LTYPE
  5
8
330
15
100
AcDbSymbolTableRecord
100
AcDbLinetypeTableRecord
  2
Continuous
 70
     0
  3
Solid line
 72
    65
 73
     0
 40
0.0
  0
LTYPE
  5
3FE
330
15
100
AcDbSymbolTableRecord
100
AcDbLinetypeTableRecord
  2
CENTER
 70
     0
  3
Center ____ _ ____ _ ____ _ ____ _ ____ _ ____
 72
    65
 73
     4
 40
50.8
 49
31.75
 74
     0
 49
-6.349999999999998
 74
     0
 49
6.349999999999998
 74
     0
 49
-6.349999999999998
 74
     0
  0
LTYPE
  5
63603
330
15
100
AcDbSymbolTableRecord
100
AcDbLinetypeTableRecord
  2
ACAD_ISO02W100
 70
     0
  3
ISO dash __ __ __ __ __ __ __ __ __ __ __ __ __
 72
    65
 73
     2
 40
15.0
 49
12.0
 74
     0
 49
-3.0
 74
     0
  0
ENDTAB
  0
TABLE
  2
LAYER
  5
10
102
{ACAD_XDICTIONARY
360
3FD7
102
}
330
0
100
AcDbSymbolTable
 70
    10
  0
LAYER
  5
4
102
{ACAD_XDICTIONARY
360
9891
102
}
330
10
100
AcDbSymbolTableRecord
100
AcDbLayerTableRecord
  2
0
 70
     0
 62
     7
  6
Continuous
370
    30
390
5
347
983F
348
0
  0
LAYER
  5
400
102
{ACAD_XDICTIONARY
360
9893
102
}
330
10
100
AcDbSymbolTableRecord
100
AcDbLayerTableRecord
  2
标注
 70
     0
 62
     3
  6
Continuous
370
     9
390
5
347
983F
348
0
1001
AcadStringInfo
1000
MIFCodePage
1070
     5
  0
LAYER
  5
401
330
10
100
AcDbSymbolTableRecord
100
AcDbLayerTableRecord
  2
Defpoints
 70
     0
 62
     7
  6
Continuous
290
     0
370
    -3
390
5
347
983F
348
0
  0
LAYER
  5
403
102
{ACAD_XDICTIONARY
360
9897
102
}
330
10
100
AcDbSymbolTableRecord
100
AcDbLayerTableRecord
  2
中心线
 70
     0
 62
     1
  6
CENTER
370
     9
390
5
347
983F
348
0
1001
AcadStringInfo
1000
MIFCodePage
1070
     5
  0
LAYER
  5
405
102
{ACAD_XDICTIONARY
360
989B
102
}
330
10
100
AcDbSymbolTableRecord
100
AcDbLayerTableRecord
  2
剖面线
 70
     0
 62
    50
  6
Continuous
370
     9
390
5
347
983F
348
0
1001
AcadStringInfo
1000
MIFCodePage
1070
     5
  0
LAYER
  5
92F
102
{ACAD_XDICTIONARY
360
989F
102
}
330
10
100
AcDbSymbolTableRecord
100
AcDbLayerTableRecord
  2
ASHADE
 70
     4
 62
    -7
  6
Continuous
370
    -3
390
5
347
983F
348
0
  0
LAYER
  5
3FD5
102
{ACAD_XDICTIONARY
360
98A7
102
}
330
10
100
AcDbSymbolTableRecord
100
AcDbLayerTableRecord
  2
03___PRT_ALL_CURVES
 70
     0
 62
     7
  6
Continuous
370
    -3
390
5
347
983F
348
0
  0
LAYER
  5
4563
102
{ACAD_XDICTIONARY
360
98A9
102
}
330
10
100
AcDbSymbolTableRecord
100
AcDbLayerTableRecord
  2
图层1
 70
     0
 62
     7
  6
Continuous
370
    13
390
5
347
983F
348
0
1001
AcadStringInfo
1000
MIFCodePage
1070
     5
  0
LAYER
  5
635FE
330
10
100
AcDbSymbolTableRecord
100
AcDbLayerTableRecord
  2
hid
 70
     0
 62
     2
  6
ACAD_ISO02W100
370
     9
390
5
347
983F
348
0
1001
AcAecLayerStandard
1000

1000

1001
AcCmTransparency
1071
        0
  0
LAYER
  5
6390C
330
10
100
AcDbSymbolTableRecord
100
AcDbLayerTableRecord
  2
Hidden
 70
     0
 62
     2
  6
ACAD_ISO02W100
370
    30
390
5
347
983F
348
0
1001
AcAecLayerStandard
1000

1000

1001
AcCmTransparency
1071
        0
  0
ENDTAB
  0
TABLE
  2
STYLE
  5
11
330
0
100
AcDbSymbolTable
 70
     6
  0
STYLE
  5
12
330
11
100
AcDbSymbolTableRecord
100
AcDbTextStyleTableRecord
  2
Standard
 70
     0
 40
0.0
 41
1.0
 50
0.0
 71
     0
 42
4.5
  3
simhei.ttf
  4

1001
ACAD
1000
SimHei
1071
    34306
  0
STYLE
  5
406
330
11
100
AcDbSymbolTableRecord
100
AcDbTextStyleTableRecord
  2
样式 1
 70
     0
 40
0.0
 41
1.0
 50
0.0
 71
     0
 42
4.5
  3

  4

1001
ACAD
1000
LiSu
1071
    34353
1001
AcadStringInfo
1000
MIFCodePage
1070
     5
  0
STYLE
  5
3FD6
330
11
100
AcDbSymbolTableRecord
100
AcDbTextStyleTableRecord
  2
黑体
 70
     0
 40
0.0
 41
1.0
 50
0.0
 71
     0
 42
6.0
  3
simhei.ttf
  4

1001
ACAD
1000
SimHei
1071
    34306
1001
AcadStringInfo
1000
MIFCodePage
1070
     5
  0
STYLE
  5
63287
330
11
100
AcDbSymbolTableRecord
100
AcDbTextStyleTableRecord
  2
GN3
 70
     0
 40
0.156
 41
1.0
 50
0.0
 71
     0
 42
0.2
  3
ROMANK
  4

  0
STYLE
  5
63288
330
11
100
AcDbSymbolTableRecord
100
AcDbTextStyleTableRecord
  2
GN4
 70
     0
 40
0.188
 41
1.0
 50
0.0
 71
     0
 42
0.2
  3
ROMAND
  4

  0
STYLE
  5
63602
330
11
100
AcDbSymbolTableRecord
100
AcDbTextStyleTableRecord
  2

 70
     1
 40
0.0
 41
1.0
 50
0.0
 71
     0
 42
6.0
  3
ltypeshp.shx
  4

  0
ENDTAB
  0
TABLE
  2
VIEW
  5
18
330
0
100
AcDbSymbolTable
 70
     0
  0
ENDTAB
  0
TABLE
  2
UCS
  5
19
330
0
100
AcDbSymbolTable
 70
     0
  0
ENDTAB
  0
TABLE
  2
APPID
  5
1C
330
0
100
AcDbSymbolTable
 70
    21
  0
APPID
  5
13
330
1C
100
AcDbSymbolTableRecord
100
AcDbRegAppTableRecord
  2
ACAD
 70
     0
  0
APPID
  5
2BE8
330
1C
100
AcDbSymbolTableRecord
100
AcDbRegAppTableRecord
  2
DCO15
 70
     0
  0
APPID
  5
987D
330
1C
100
AcDbSymbolTableRecord
100
AcDbRegAppTableRecord
  2
ACAD_MLEADERVER
 70
     0
  0
APPID
  5
988A
330
1C
100
AcDbSymbolTableRecord
100
AcDbRegAppTableRecord
  2
ACAD_EXEMPT_FROM_CAD_STANDARDS
 70
     0
  0
APPID
  5
A534
330
1C
100
AcDbSymbolTableRecord
100
AcDbRegAppTableRecord
  2
ACAD_DSTYLE_DIMRADIAL_EXTENSION
 70
     0
  0
APPID
  5
30A41
330
1C
100
AcDbSymbolTableRecord
100
AcDbRegAppTableRecord
  2
ACAD_PSEXT
 70
     0
  0
APPID
  5
46FFE
330
1C
100
AcDbSymbolTableRecord
100
AcDbRegAppTableRecord
  2
ACAD_DSTYLE_DIMJAG
 70
     0
  0
APPID
  5
46FFF
330
1C
100
AcDbSymbolTableRecord
100
AcDbRegAppTableRecord
  2
ACAD_DSTYLE_DIMTALN
 70
     0
  0
APPID
  5
62C14
330
1C
100
AcDbSymbolTableRecord
100
AcDbRegAppTableRecord
  2
ACAD_DSTYLE_DIMTEXT_FILL
 70
     0
  0
APPID
  5
62C15
330
1C
100
AcDbSymbolTableRecord
100
AcDbRegAppTableRecord
  2
ACAD_DSTYLE_DIMEXT_LENGTH
 70
     0
  0
APPID
  5
62C16
330
1C
100
AcDbSymbolTableRecord
100
AcDbRegAppTableRecord
  2
ACAD_DSTYLE_DIMEXT_ENABLED
 70
     0
  0
APPID
  5
62C17
330
1C
100
AcDbSymbolTableRecord
100
AcDbRegAppTableRecord
  2
ACAD_DSTYLE_DIM_LINETYPE
 70
     0
  0
APPID
  5
62C18
330
1C
100
AcDbSymbolTableRecord
100
AcDbRegAppTableRecord
  2
ACAD_DSTYLE_DIM_EXT1_LINETYPE
 70
     0
  0
APPID
  5
62C19
330
1C
100
AcDbSymbolTableRecord
100
AcDbRegAppTableRecord
  2
ACAD_DSTYLE_DIM_EXT2_LINETYPE
 70
     0
  0
APPID
  5
62CD5
330
1C
100
AcDbSymbolTableRecord
100
AcDbRegAppTableRecord
  2
ACAD_DSTYLE_DIMJOGGED_JOGANGLE_SYMBOL
 70
     0
  0
APPID
  5
62D39
330
1C
100
AcDbSymbolTableRecord
100
AcDbRegAppTableRecord
  2
ACAD_DSTYLE_DIMARC_LENGTH_SYMBOL
 70
     0
  0
APPID
  5
63289
330
1C
100
AcDbSymbolTableRecord
100
AcDbRegAppTableRecord
  2
PSP
 70
     0
  0
APPID
  5
63373
330
1C
100
AcDbSymbolTableRecord
100
AcDbRegAppTableRecord
  2
AcadStringInfo
 70
     0
  0
APPID
  5
635FF
330
1C
100
AcDbSymbolTableRecord
100
AcDbRegAppTableRecord
  2
AcAecLayerStandard
 70
     0
  0
APPID
  5
63600
330
1C
100
AcDbSymbolTableRecord
100
AcDbRegAppTableRecord
  2
AcCmTransparency
 70
     0
  0
APPID
  5
60639E0
330
1C
100
AcDbSymbolTableRecord
100
AcDbRegAppTableRecord
  2
ACAD_NAV_VCDISPLAY
 70
     0
  0
ENDTAB
  0
TABLE
  2
DIMSTYLE
  5
1D
330
0
100
AcDbSymbolTable
 70
     2
100
AcDbDimStyleTable
 71
     1
340
18F2E
  0
DIMSTYLE
105
4564
330
1D
100
AcDbSymbolTableRecord
100
AcDbDimStyleTableRecord
  2
STANDARD
 70
     0
 41
15.0
 42
6.0
 44
5.0
140
15.0
271
     0
272
     0
340
12
  0
DIMSTYLE
105
18F2E
102
{ACAD_REACTORS
330
622E4
330
6231F
330
6259B
330
6258E
330
6258F
330
62590
330
62591
330
626E5
330
626F2
330
62A35
330
62A36
330
62B9F
330
62BF5
330
633FE
330
6377A
330
6377B
330
6377C
330
6378B
330
6378C
330
63811
102
}
330
1D
100
AcDbSymbolTableRecord
100
AcDbDimStyleTableRecord
  2
线性标注
 70
     0
 41
12.0
 42
0.625
 43
3.75
 44
8.0
 49
1.25
 50
90.0
 73
     0
 74
     0
 77
     1
 78
     8
140
30.0
141
2.5
143
0.03937007874016
147
0.625
171
     3
172
     1
271
     1
272
     1
274
     3
283
     0
284
     8
340
406
342
18F26
1001
ACAD_DSTYLE_DIMJAG
1070
   388
1040
1.5
1001
ACAD_DSTYLE_DIMTALN
1070
   392
1070
     0
1001
ACAD_DSTYLE_DIMJOGGED_JOGANGLE_SYMBOL
1070
   384
1040
1.570796326794896
1001
AcadStringInfo
1000
MIFCodePage
1070
     5
  0
ENDTAB
  0
TABLE
  2
BLOCK_RECORD
  5
1
330
0
100
AcDbSymbolTable
 70
    21
  0
BLOCK_RECORD
  5
2
102
{ACAD_XDICTIONARY
360
98C5
102
}
330
1
100
AcDbSymbolTableRecord
100
AcDbBlockTableRecord
  2
*Model_Space
340
A
 70
     0
280
     1
281
     0
  0
BLOCK_RECORD
  5
C
330
1
100
AcDbSymbolTableRecord
100
AcDbBlockTableRecord
  2
*Paper_Space
340
F
 70
     0
280
     1
281
     0
  0
BLOCK_RECORD
  5
18F26
330
1
100
AcDbSymbolTableRecord
100
AcDbBlockTableRecord
  2
_ClosedBlank
340
0
102
{BLKREFS
331
63828
331
63829
331
63831
331
63832
331
6384C
331
6384D
331
636AB
331
636B3
331
636B4
331
636BA
331
636BB
331
636E8
331
636E9
331
636F1
331
636F8
331
636F9
331
63475
331
63476
331
6352A
331
6352B
331
6368C
331
6368D
331
63695
331
631B5
331
631B6
331
631BF
331
631C0
331
6392F
331
63930
331
63939
331
6393A
331
63941
331
63942
331
63948
331
6394F
331
63950
102
}
 70
     0
280
     1
281
     0
  0
BLOCK_RECORD
  5
622E5
330
1
100
AcDbSymbolTableRecord
100
AcDbBlockTableRecord
  2
*D1
340
0
 70
     0
280
     1
281
     0
  0
BLOCK_RECORD
  5
62320
330
1
100
AcDbSymbolTableRecord
100
AcDbBlockTableRecord
  2
*D2
340
0
 70
     0
280
     1
281
     0
  0
BLOCK_RECORD
  5
6259C
330
1
100
AcDbSymbolTableRecord
100
AcDbBlockTableRecord
  2
*D3
340
0
 70
     0
280
     1
281
     0
  0
BLOCK_RECORD
  5
625A8
330
1
100
AcDbSymbolTableRecord
100
AcDbBlockTableRecord
  2
*D4
340
0
 70
     0
280
     1
281
     0
  0
BLOCK_RECORD
  5
625B5
330
1
100
AcDbSymbolTableRecord
100
AcDbBlockTableRecord
  2
*D5
340
0
 70
     0
280
     1
281
     0
  0
BLOCK_RECORD
  5
625BE
330
1
100
AcDbSymbolTableRecord
100
AcDbBlockTableRecord
  2
*D6
340
0
 70
     0
280
     1
281
     0
  0
BLOCK_RECORD
  5
625C7
330
1
100
AcDbSymbolTableRecord
100
AcDbBlockTableRecord
  2
*D7
340
0
 70
     0
280
     1
281
     0
  0
BLOCK_RECORD
  5
626E6
330
1
100
AcDbSymbolTableRecord
100
AcDbBlockTableRecord
  2
*D8
340
0
 70
     0
280
     1
281
     0
  0
BLOCK_RECORD
  5
626F3
330
1
100
AcDbSymbolTableRecord
100
AcDbBlockTableRecord
  2
*D9
340
0
 70
     0
280
     1
281
     0
  0
BLOCK_RECORD
  5
62A43
330
1
100
AcDbSymbolTableRecord
100
AcDbBlockTableRecord
  2
*D10
340
0
 70
     0
280
     1
281
     0
  0
BLOCK_RECORD
  5
62A4F
330
1
100
AcDbSymbolTableRecord
100
AcDbBlockTableRecord
  2
*D11
340
0
 70
     0
280
     1
281
     0
  0
BLOCK_RECORD
  5
62BA0
330
1
100
AcDbSymbolTableRecord
100
AcDbBlockTableRecord
  2
*D12
340
0
 70
     0
280
     1
281
     0
  0
BLOCK_RECORD
  5
62BF6
330
1
100
AcDbSymbolTableRecord
100
AcDbBlockTableRecord
  2
*D13
340
0
 70
     0
280
     1
281
     0
  0
BLOCK_RECORD
  5
633FF
330
1
100
AcDbSymbolTableRecord
100
AcDbBlockTableRecord
  2
*D14
340
0
 70
     0
280
     1
281
     0
  0
BLOCK_RECORD
  5
6378E
330
1
100
AcDbSymbolTableRecord
100
AcDbBlockTableRecord
  2
*D15
340
0
 70
     0
280
     1
281
     0
  0
BLOCK_RECORD
  5
6379C
330
1
100
AcDbSymbolTableRecord
100
AcDbBlockTableRecord
  2
*D16
340
0
 70
     0
280
     1
281
     0
  0
BLOCK_RECORD
  5
637A7
330
1
100
AcDbSymbolTableRecord
100
AcDbBlockTableRecord
  2
*D17
340
0
 70
     0
280
     1
281
     0
  0
BLOCK_RECORD
  5
637B2
330
1
100
AcDbSymbolTableRecord
100
AcDbBlockTableRecord
  2
*D18
340
0
 70
     0
280
     1
281
     0
  0
BLOCK_RECORD
  5
637BB
330
1
100
AcDbSymbolTableRecord
100
AcDbBlockTableRecord
  2
*D19
340
0
 70
     0
280
     1
281
     0
  0
BLOCK_RECORD
  5
63812
330
1
100
AcDbSymbolTableRecord
100
AcDbBlockTableRecord
  2
*D20
340
0
 70
     0
280
     1
281
     0
  0
ENDTAB
  0
ENDSEC
  0
SECTION
  2
BLOCKS
  0
BLOCK
  5
3
330
2
100
AcDbEntity
  8
0
100
AcDbBlockBegin
  2
*Model_Space
 70
     2
 10
0.0
 20
0.0
 30
0.0
  3
*Model_Space
  1

  0
ENDBLK
  5
9
330
2
100
AcDbEntity
  8
0
100
AcDbBlockEnd
  0
BLOCK
  5
D
330
C
100
AcDbEntity
 67
     1
  8
0
100
AcDbBlockBegin
  2
*Paper_Space
 70
     0
 10
0.0
 20
0.0
 30
0.0
  3
*Paper_Space
  1

  0
ENDBLK
  5
E
330
C
100
AcDbEntity
 67
     1
  8
0
100
AcDbBlockEnd
  0
BLOCK
  5
18F27
330
18F26
100
AcDbEntity
  8
0
 48
0.2
100
AcDbBlockBegin
  2
_ClosedBlank
 70
     0
 10
0.0
 20
0.0
 30
0.0
  3
_ClosedBlank
  1

  0
LINE
  5
18F28
330
18F26
100
AcDbEntity
  8
0
  6
ByBlock
 62
     0
370
    -2
100
AcDbLine
 10
-1.0
 20
0.1666666666666666
 30
0.0
 11
0.0
 21
0.0
 31
0.0
  0
LINE
  5
18F29
330
18F26
100
AcDbEntity
  8
0
  6
ByBlock
 62
     0
370
    -2
100
AcDbLine
 10
0.0
 20
0.0
 30
0.0
 11
-1.0
 21
-0.1666666666666666
 31
0.0
  0
LINE
  5
18F2A
330
18F26
100
AcDbEntity
  8
0
  6
ByBlock
 62
     0
370
    -2
100
AcDbLine
 10
-1.0
 20
0.1666666666666666
 30
0.0
 11
-1.0
 21
-0.1666666666666666
 31
0.0
  0
ENDBLK
  5
18F2B
330
18F26
100
AcDbEntity
  8
0
 48
0.2
100
AcDbBlockEnd
  0
BLOCK
  5
622E6
330
622E5
100
AcDbEntity
  8
0
100
AcDbBlockBegin
  2
*D1
 70
     1
 10
0.0
 20
0.0
 30
0.0
  3
*D1
  1

  0
LINE
  5
63689
330
622E5
100
AcDbEntity
  8
标注
 62
     0
440
 16777216
370
    -2
100
AcDbLine
 10
3539.450290356415
 20
3860.888368056502
 30
0.0
 11
3539.450290356415
 21
3889.96692407478
 31
0.0
  0
LINE
  5
6368A
330
622E5
100
AcDbEntity
  8
标注
 62
     0
440
 16777216
370
    -2
100
AcDbLine
 10
3643.350290356414
 20
3777.3883680565
 30
0.0
 11
3643.350290356414
 21
3889.96692407478
 31
0.0
  0
LINE
  5
6368B
330
622E5
100
AcDbEntity
  8
标注
 62
     0
440
 16777216
370
    -2
100
AcDbLine
 10
3551.450290356414
 20
3881.966924074781
 30
0.0
 11
3631.350290356414
 21
3881.966924074781
 31
0.0
  0
INSERT
  5
6368C
330
622E5
100
AcDbEntity
  8
标注
 62
     0
440
 16777216
370
    -2
100
AcDbBlockReference
  2
_ClosedBlank
 10
3539.450290356415
 20
3881.966924074781
 30
0.0
 41
12.0
 42
12.0
 43
12.0
 50
180.0
  0
INSERT
  5
6368D
330
622E5
100
AcDbEntity
  8
标注
 62
     0
440
 16777216
370
    -2
100
AcDbBlockReference
  2
_ClosedBlank
 10
3643.350290356414
 20
3881.966924074781
 30
0.0
 41
12.0
 42
12.0
 43
12.0
  0
MTEXT
  5
6368E
330
622E5
100
AcDbEntity
  8
标注
 62
     0
440
 16777216
100
AcDbMText
 10
3591.400290356415
 20
3897.591924074781
 30
0.0
 40
30.0
 41
0.0
 46
0.0
 71
     5
 72
     1
  1
88
  7
样式 1
 73
     1
 44
1.0
  0
POINT
  5
6368F
330
622E5
100
AcDbEntity
  8
Defpoints
 62
     0
440
 16777216
100
AcDbPoint
 10
3539.450290356415
 20
3860.263368056502
 30
0.0
  0
POINT
  5
63690
330
622E5
100
AcDbEntity
  8
Defpoints
 62
     0
440
 16777216
100
AcDbPoint
 10
3643.350290356414
 20
3776.7633680565
 30
0.0
  0
POINT
  5
63691
330
622E5
100
AcDbEntity
  8
Defpoints
 62
     0
440
 16777216
100
AcDbPoint
 10
3643.350290356414
 20
3881.966924074781
 30
0.0
  0
ENDBLK
  5
622E7
330
622E5
100
AcDbEntity
  8
0
100
AcDbBlockEnd
  0
BLOCK
  5
62321
330
62320
100
AcDbEntity
  8
0
100
AcDbBlockBegin
  2
*D2
 70
     1
 10
0.0
 20
0.0
 30
0.0
  3
*D2
  1

  0
LINE
  5
63692
330
62320
100
AcDbEntity
  8
标注
 62
     0
440
 16777216
370
    -2
100
AcDbLine
 10
3746.01232886753
 20
3828.533729254452
 30
0.0
 11
3636.65493763111
 21
3795.914432474225
 31
0.0
  0
MTEXT
  5
63693
330
62320
100
AcDbEntity
  8
标注
 62
     0
440
 16777216
100
AcDbMText
 10
3703.300557006
 20
3832.098877813019
 30
0.0
 40
30.0
 41
0.0
 46
0.0
 71
     5
 72
     1
  1
R55
  7
样式 1
 11
0.9582783175327728
 21
0.2858367823541228
 31
0.0
 73
     1
 44
1.0
  0
LINE
  5
63694
330
62320
100
AcDbEntity
  8
标注
 62
     0
440
 16777216
370
    -2
100
AcDbLine
 10
3572.450290356418
 20
3776.7633680565
 30
0.0
 11
3625.155597820717
 21
3792.484391085975
 31
0.0
  0
INSERT
  5
63695
330
62320
100
AcDbEntity
  8
标注
 62
     0
440
 16777216
370
    -2
100
AcDbBlockReference
  2
_ClosedBlank
 10
3625.155597820717
 20
3792.484391085975
 30
0.0
 41
12.0
 42
12.0
 43
12.0
 50
196.6088735742756
  0
POINT
  5
63696
330
62320
100
AcDbEntity
  8
Defpoints
 62
     0
440
 16777216
100
AcDbPoint
 10
3625.155597820717
 20
3792.484391085975
 30
0.0
  0
POINT
  5
63697
330
62320
100
AcDbEntity
  8
Defpoints
 62
     0
440
 16777216
100
AcDbPoint
 10
3572.450290356418
 20
3776.7633680565
 30
0.0
  0
ENDBLK
  5
62322
330
62320
100
AcDbEntity
  8
0
100
AcDbBlockEnd
  0
BLOCK
  5
6259D
330
6259C
100
AcDbEntity
  8
0
100
AcDbBlockBegin
  2
*D3
 70
     1
 10
0.0
 20
0.0
 30
0.0
  3
*D3
  1

  0
LINE
  5
636F5
330
6259C
100
AcDbEntity
  8
标注
 62
     0
440
 16777216
370
    -2
100
AcDbLine
 10
4641.410031492124
 20
4176.259581221064
 30
0.0
 11
4701.711020067591
 21
4176.259581221064
 31
0.0
  0
LINE
  5
636F6
330
6259C
100
AcDbEntity
  8
标注
 62
     0
440
 16777216
370
    -2
100
AcDbLine
 10
4557.910031492124
 20
4088.259581221064
 30
0.0
 11
4701.711020067591
 21
4088.259581221064
 31
0.0
  0
LINE
  5
636F7
330
6259C
100
AcDbEntity
  8
标注
 62
     0
440
 16777216
370
    -2
100
AcDbLine
 10
4693.711020067591
 20
4164.259581221065
 30
0.0
 11
4693.711020067591
 21
4100.259581221065
 31
0.0
  0
INSERT
  5
636F8
330
6259C
100
AcDbEntity
  8
标注
 62
     0
440
 16777216
370
    -2
100
AcDbBlockReference
  2
_ClosedBlank
 10
4693.711020067591
 20
4176.259581221064
 30
0.0
 41
12.0
 42
12.0
 43
12.0
 50
90.0
  0
INSERT
  5
636F9
330
6259C
100
AcDbEntity
  8
标注
 62
     0
440
 16777216
370
    -2
100
AcDbBlockReference
  2
_ClosedBlank
 10
4693.711020067591
 20
4088.259581221064
 30
0.0
 41
12.0
 42
12.0
 43
12.0
 50
270.0
  0
MTEXT
  5
636FA
330
6259C
100
AcDbEntity
  8
标注
 62
     0
440
 16777216
100
AcDbMText
 10
4678.086020067591
 20
4132.259581221066
 30
0.0
 40
30.0
 41
0.0
 46
0.0
 71
     5
 72
     1
  1
88
  7
样式 1
 11
0.0000000000000001
 21
1.0
 31
0.0
 73
     1
 44
1.0
  0
POINT
  5
636FB
330
6259C
100
AcDbEntity
  8
Defpoints
 62
     0
440
 16777216
100
AcDbPoint
 10
4640.785031492123
 20
4176.259581221064
 30
0.0
  0
POINT
  5
636FC
330
6259C
100
AcDbEntity
  8
Defpoints
 62
     0
440
 16777216
100
AcDbPoint
 10
4557.285031492124
 20
4088.259581221064
 30
0.0
  0
POINT
  5
636FD
330
6259C
100
AcDbEntity
  8
Defpoints
 62
     0
440
 16777216
100
AcDbPoint
 10
4693.711020067591
 20
4088.259581221064
 30
0.0
  0
ENDBLK
  5
6259E
330
6259C
100
AcDbEntity
  8
0
100
AcDbBlockEnd
  0
BLOCK
  5
625A9
330
625A8
100
AcDbEntity
  8
0
100
AcDbBlockBegin
  2
*D4
 70
     1
 10
0.0
 20
0.0
 30
0.0
  3
*D4
  1

  0
LINE
  5
636E3
330
625A8
100
AcDbEntity
  8
标注
 62
     0
440
 16777216
370
    -2
100
AcDbLine
 10
4584.410031492125
 20
4176.259581221064
 30
0.0
 11
4690.708487133346
 21
4176.259581221064
 31
0.0
  0
LINE
  5
636E4
330
625A8
100
AcDbEntity
  8
标注
 62
     0
440
 16777216
370
    -2
100
AcDbLine
 10
4584.410031492125
 20
4163.259581221065
 30
0.0
 11
4690.708487133346
 21
4163.259581221065
 31
0.0
  0
LINE
  5
636E5
330
625A8
100
AcDbEntity
  8
标注
 62
     0
440
 16777216
370
    -2
100
AcDbLine
 10
4682.708487133345
 20
4151.259581221064
 30
0.0
 11
4682.708487133345
 21
4139.259581221065
 31
0.0
  0
LINE
  5
636E6
330
625A8
100
AcDbEntity
  8
标注
 62
     0
440
 16777216
370
    -2
100
AcDbLine
 10
4682.708487133345
 20
4188.259581221064
 30
0.0
 11
4682.708487133345
 21
4244.366724078207
 31
0.0
  0
LINE
  5
636E7
330
625A8
100
AcDbEntity
  8
标注
 62
     0
440
 16777216
370
    -2
100
AcDbLine
 10
4682.708487133345
 20
4163.259581221065
 30
0.0
 11
4682.708487133345
 21
4176.259581221064
 31
0.0
  0
INSERT
  5
636E8
330
625A8
100
AcDbEntity
  8
标注
 62
     0
440
 16777216
370
    -2
100
AcDbBlockReference
  2
_ClosedBlank
 10
4682.708487133345
 20
4163.259581221065
 30
0.0
 41
12.0
 42
12.0
 43
12.0
 50
90.0
  0
INSERT
  5
636E9
330
625A8
100
AcDbEntity
  8
标注
 62
     0
440
 16777216
370
    -2
100
AcDbBlockReference
  2
_ClosedBlank
 10
4682.708487133345
 20
4176.259581221064
 30
0.0
 41
12.0
 42
12.0
 43
12.0
 50
270.0
  0
MTEXT
  5
636EA
330
625A8
100
AcDbEntity
  8
标注
 62
     0
440
 16777216
100
AcDbMText
 10
4667.083487133345
 20
4222.313152649637
 30
0.0
 40
30.0
 41
0.0
 46
0.0
 71
     5
 72
     1
  1
13
  7
样式 1
 11
0.0000000000000001
 21
1.0
 31
0.0
 73
     1
 44
1.0
  0
POINT
  5
636EB
330
625A8
100
AcDbEntity
  8
Defpoints
 62
     0
440
 16777216
100
AcDbPoint
 10
4583.785031492126
 20
4176.259581221064
 30
0.0
  0
POINT
  5
636EC
330
625A8
100
AcDbEntity
  8
Defpoints
 62
     0
440
 16777216
100
AcDbPoint
 10
4583.785031492126
 20
4163.259581221065
 30
0.0
  0
POINT
  5
636ED
330
625A8
100
AcDbEntity
  8
Defpoints
 62
     0
440
 16777216
100
AcDbPoint
 10
4682.708487133345
 20
4163.259581221065
 30
0.0
  0
ENDBLK
  5
625AA
330
625A8
100
AcDbEntity
  8
0
100
AcDbBlockEnd
  0
BLOCK
  5
625B6
330
625B5
100
AcDbEntity
  8
0
100
AcDbBlockBegin
  2
*D5
 70
     1
 10
0.0
 20
0.0
 30
0.0
  3
*D5
  1

  0
LINE
  5
636A8
330
625B5
100
AcDbEntity
  8
标注
 62
     0
440
 16777216
370
    -2
100
AcDbLine
 10
4125.094335966072
 20
3023.624958289867
 30
0.0
 11
4219.197435459714
 21
3114.922374887409
 31
0.0
  0
MTEXT
  5
636A9
330
625B5
100
AcDbEntity
  8
标注
 62
     0
440
 16777216
100
AcDbMText
 10
4142.859166820641
 20
3062.630297982074
 30
0.0
 40
30.0
 41
0.0
 46
0.0
 71
     5
 72
     1
  1
R55
  7
样式 1
 11
0.7177253139165076
 21
0.696326341425808
 31
0.0
 73
     1
 44
1.0
  0
LINE
  5
636AA
330
625B5
100
AcDbEntity
  8
标注
 62
     0
440
 16777216
370
    -2
100
AcDbLine
 10
4267.285031492119
 20
3161.576239762936
 30
0.0
 11
4227.810139226714
 21
3123.278290984519
 31
0.0
  0
INSERT
  5
636AB
330
625B5
100
AcDbEntity
  8
标注
 62
     0
440
 16777216
370
    -2
100
AcDbBlockReference
  2
_ClosedBlank
 10
4227.810139226714
 20
3123.278290984519
 30
0.0
 41
12.0
 42
12.0
 43
12.0
 50
44.13300392986395
  0
ARC
  5
636AC
330
625B5
100
AcDbEntity
  8
标注
 62
     0
440
 16777216
370
    -2
100
AcDbCircle
 10
4267.285031492119
 20
3161.576239762936
 30
0.0
 40
54.99999999999636
100
AcDbArc
 50
215.7990723643244
 51
269.3489115964422
  0
POINT
  5
636AD
330
625B5
100
AcDbEntity
  8
Defpoints
 62
     0
440
 16777216
100
AcDbPoint
 10
4227.810139226714
 20
3123.278290984519
 30
0.0
  0
POINT
  5
636AE
330
625B5
100
AcDbEntity
  8
Defpoints
 62
     0
440
 16777216
100
AcDbPoint
 10
4267.285031492119
 20
3161.576239762936
 30
0.0
  0
ENDBLK
  5
625B7
330
625B5
100
AcDbEntity
  8
0
100
AcDbBlockEnd
  0
BLOCK
  5
625BF
330
625BE
100
AcDbEntity
  8
0
100
AcDbBlockBegin
  2
*D6
 70
     1
 10
0.0
 20
0.0
 30
0.0
  3
*D6
  1

  0
LINE
  5
636EE
330
625BE
100
AcDbEntity
  8
标注
 62
     0
440
 16777216
370
    -2
100
AcDbLine
 10
4693.644514292895
 20
3979.402305980983
 30
0.0
 11
4600.14245911359
 21
4091.759669593267
 31
0.0
  0
MTEXT
  5
636EF
330
625BE
100
AcDbEntity
  8
标注
 62
     0
440
 16777216
100
AcDbMText
 10
4680.125343701305
 20
4020.074627851162
 30
0.0
 40
30.0
 41
0.0
 46
0.0
 71
     5
 72
     1
  1
R55
  7
样式 1
 11
0.6396630988277936
 21
-0.7686553974298397
 31
0.0
 73
     1
 44
1.0
  0
LINE
  5
636F0
330
625BE
100
AcDbEntity
  8
标注
 62
     0
440
 16777216
370
    -2
100
AcDbLine
 10
4557.285031492123
 20
4143.259581221074
 30
0.0
 11
4592.466501927658
 21
4100.983534362425
 31
0.0
  0
INSERT
  5
636F1
330
625BE
100
AcDbEntity
  8
标注
 62
     0
440
 16777216
370
    -2
100
AcDbBlockReference
  2
_ClosedBlank
 10
4592.466501927658
 20
4100.983534362425
 30
0.0
 41
12.0
 42
12.0
 43
12.0
 50
129.7667022134543
  0
ARC
  5
636F2
330
625BE
100
AcDbEntity
  8
标注
 62
     0
440
 16777216
370
    -2
100
AcDbCircle
 10
4557.285031492123
 20
4143.259581221074
 30
0.0
 40
55.00000000000955
100
AcDbArc
 50
270.6510884035576
 51
318.1006337789921
  0
POINT
  5
636F3
330
625BE
100
AcDbEntity
  8
Defpoints
 62
     0
440
 16777216
100
AcDbPoint
 10
4592.466501927658
 20
4100.983534362425
 30
0.0
  0
POINT
  5
636F4
330
625BE
100
AcDbEntity
  8
Defpoints
 62
     0
440
 16777216
100
AcDbPoint
 10
4557.285031492123
 20
4143.259581221074
 30
0.0
  0
ENDBLK
  5
625C0
330
625BE
100
AcDbEntity
  8
0
100
AcDbBlockEnd
  0
BLOCK
  5
625C8
330
625C7
100
AcDbEntity
  8
0
100
AcDbBlockBegin
  2
*D7
 70
     1
 10
0.0
 20
0.0
 30
0.0
  3
*D7
  1

  0
LINE
  5
636AF
330
625C7
100
AcDbEntity
  8
标注
 62
     0
440
 16777216
370
    -2
100
AcDbLine
 10
4463.550411165131
 20
3194.325928127865
 30
0.0
 11
4577.403242935695
 21
3127.155618449008
 31
0.0
  0
LINE
  5
636B0
330
625C7
100
AcDbEntity
  8
标注
 62
     0
440
 16777216
370
    -2
100
AcDbLine
 10
4647.166820048551
 20
3085.996861076871
 30
0.0
 11
4657.502164806012
 21
3079.89926739211
 31
0.0
  0
MTEXT
  5
636B1
102
{ACAD_XDICTIONARY
360
639C6
102
}
330
625C7
100
AcDbEntity
  8
标注
 62
     0
440
 16777216
100
AcDbMText
 10
4523.451712261569
 20
3177.59110303867
 30
0.0
 40
30.0
 41
0.0
 46
0.0
 71
     5
 72
     1
  1
{\fGulim|b0|i0|c129|p34;3-∅57}
  7
样式 1
 11
0.8612787297883558
 21
-0.5081328070634258
 31
0.0
 73
     1
 44
1.0
  0
LINE
  5
636B2
330
625C7
100
AcDbEntity
  8
标注
 62
     0
440
 16777216
370
    -2
100
AcDbLine
 10
4636.831475291091
 20
3092.094454761632
 30
0.0
 11
4587.738587693157
 21
3121.058024764247
 31
0.0
  0
INSERT
  5
636B3
330
625C7
100
AcDbEntity
  8
标注
 62
     0
440
 16777216
370
    -2
100
AcDbBlockReference
  2
_ClosedBlank
 10
4636.831475291091
 20
3092.094454761632
 30
0.0
 41
12.0
 42
12.0
 43
12.0
 50
149.4604631947139
  0
INSERT
  5
636B4
330
625C7
100
AcDbEntity
  8
标注
 62
     0
440
 16777216
370
    -2
100
AcDbBlockReference
  2
_ClosedBlank
 10
4587.738587693157
 20
3121.058024764247
 30
0.0
 41
12.0
 42
12.0
 43
12.0
 50
329.460463194714
  0
POINT
  5
636B5
330
625C7
100
AcDbEntity
  8
Defpoints
 62
     0
440
 16777216
100
AcDbPoint
 10
4587.738587693157
 20
3121.058024764247
 30
0.0
  0
POINT
  5
636B6
330
625C7
100
AcDbEntity
  8
Defpoints
 62
     0
440
 16777216
100
AcDbPoint
 10
4636.831475291091
 20
3092.094454761632
 30
0.0
  0
ENDBLK
  5
625C9
330
625C7
100
AcDbEntity
  8
0
100
AcDbBlockEnd
  0
BLOCK
  5
626E7
330
626E6
100
AcDbEntity
  8
0
100
AcDbBlockBegin
  2
*D8
 70
     1
 10
0.0
 20
0.0
 30
0.0
  3
*D8
  1

  0
LINE
  5
636B7
330
626E6
100
AcDbEntity
  8
标注
 62
     0
440
 16777216
370
    -2
100
AcDbLine
 10
4210.676375034034
 20
3906.57623976294
 30
0.0
 11
3968.821504503253
 21
3906.57623976294
 31
0.0
  0
LINE
  5
636B8
330
626E6
100
AcDbEntity
  8
标注
 62
     0
440
 16777216
370
    -2
100
AcDbLine
 10
4266.660031492123
 20
3106.576239762941
 30
0.0
 11
3968.821504503253
 21
3106.576239762941
 31
0.0
  0
LINE
  5
636B9
330
626E6
100
AcDbEntity
  8
标注
 62
     0
440
 16777216
370
    -2
100
AcDbLine
 10
3976.821504503254
 20
3894.576239762939
 30
0.0
 11
3976.821504503254
 21
3118.57623976294
 31
0.0
  0
INSERT
  5
636BA
330
626E6
100
AcDbEntity
  8
标注
 62
     0
440
 16777216
370
    -2
100
AcDbBlockReference
  2
_ClosedBlank
 10
3976.821504503254
 20
3906.57623976294
 30
0.0
 41
12.0
 42
12.0
 43
12.0
 50
90.0
  0
INSERT
  5
636BB
330
626E6
100
AcDbEntity
  8
标注
 62
     0
440
 16777216
370
    -2
100
AcDbBlockReference
  2
_ClosedBlank
 10
3976.821504503254
 20
3106.576239762941
 30
0.0
 41
12.0
 42
12.0
 43
12.0
 50
270.0
  0
MTEXT
  5
636BC
330
626E6
100
AcDbEntity
  8
标注
 62
     0
440
 16777216
100
AcDbMText
 10
3961.196504503252
 20
3506.57623976294
 30
0.0
 40
30.0
 41
0.0
 46
0.0
 71
     5
 72
     1
  1
800
  7
样式 1
 11
0.0000000000000001
 21
1.0
 31
0.0
 73
     1
 44
1.0
  0
POINT
  5
636BD
330
626E6
100
AcDbEntity
  8
Defpoints
 62
     0
440
 16777216
100
AcDbPoint
 10
4211.301375034034
 20
3906.57623976294
 30
0.0
  0
POINT
  5
636BE
330
626E6
100
AcDbEntity
  8
Defpoints
 62
     0
440
 16777216
100
AcDbPoint
 10
4267.285031492123
 20
3106.576239762941
 30
0.0
  0
POINT
  5
636BF
330
626E6
100
AcDbEntity
  8
Defpoints
 62
     0
440
 16777216
100
AcDbPoint
 10
3976.821504503254
 20
3106.576239762941
 30
0.0
  0
ENDBLK
  5
626E8
330
626E6
100
AcDbEntity
  8
0
100
AcDbBlockEnd
  0
BLOCK
  5
626F4
330
626F3
100
AcDbEntity
  8
0
100
AcDbBlockBegin
  2
*D9
 70
     1
 10
0.0
 20
0.0
 30
0.0
  3
*D9
  1

  0
LINE
  5
63825
330
626F3
100
AcDbEntity
  8
标注
 62
     0
440
 16777216
370
    -2
100
AcDbLine
 10
4211.969309366497
 20
3111.856443537624
 30
0.0
 11
4211.969309366497
 21
2814.402953693533
 31
0.0
  0
LINE
  5
63826
330
626F3
100
AcDbEntity
  8
标注
 62
     0
440
 16777216
370
    -2
100
AcDbLine
 10
4612.285031492122
 20
3070.250104661556
 30
0.0
 11
4612.285031492122
 21
2814.402953693533
 31
0.0
  0
LINE
  5
63827
330
626F3
100
AcDbEntity
  8
标注
 62
     0
440
 16777216
370
    -2
100
AcDbLine
 10
4223.969309366498
 20
2822.402953693533
 30
0.0
 11
4600.285031492123
 21
2822.402953693533
 31
0.0
  0
INSERT
  5
63828
330
626F3
100
AcDbEntity
  8
标注
 62
     0
440
 16777216
370
    -2
100
AcDbBlockReference
  2
_ClosedBlank
 10
4211.969309366497
 20
2822.402953693533
 30
0.0
 41
12.0
 42
12.0
 43
12.0
 50
180.0
  0
INSERT
  5
63829
330
626F3
100
AcDbEntity
  8
标注
 62
     0
440
 16777216
370
    -2
100
AcDbBlockReference
  2
_ClosedBlank
 10
4612.285031492122
 20
2822.402953693533
 30
0.0
 41
12.0
 42
12.0
 43
12.0
  0
MTEXT
  5
6382A
330
626F3
100
AcDbEntity
  8
标注
 62
     0
440
 16777216
100
AcDbMText
 10
4412.12717042931
 20
2838.027953693533
 30
0.0
 40
30.0
 41
0.0
 46
0.0
 71
     5
 72
     1
  1
400
  7
样式 1
 73
     1
 44
1.0
  0
POINT
  5
6382B
330
626F3
100
AcDbEntity
  8
Defpoints
 62
     0
440
 16777216
100
AcDbPoint
 10
4211.969309366497
 20
3112.481443537623
 30
0.0
  0
POINT
  5
6382C
330
626F3
100
AcDbEntity
  8
Defpoints
 62
     0
440
 16777216
100
AcDbPoint
 10
4612.285031492122
 20
3070.875104661556
 30
0.0
  0
POINT
  5
6382D
330
626F3
100
AcDbEntity
  8
Defpoints
 62
     0
440
 16777216
100
AcDbPoint
 10
4612.285031492122
 20
2822.402953693533
 30
0.0
  0
ENDBLK
  5
626F5
330
626F3
100
AcDbEntity
  8
0
100
AcDbBlockEnd
  0
BLOCK
  5
62A44
330
62A43
100
AcDbEntity
  8
0
100
AcDbBlockBegin
  2
*D10
 70
     1
 10
0.0
 20
0.0
 30
0.0
  3
*D10
  1

  0
LINE
  5
63527
330
62A43
100
AcDbEntity
  8
标注
 62
     0
440
 16777216
370
    -2
100
AcDbLine
 10
5530.846851440468
 20
3282.717441220071
 30
0.0
 11
5480.610294047046
 21
3238.377714015047
 31
0.0
  0
LINE
  5
63528
330
62A43
100
AcDbEntity
  8
标注
 62
     0
440
 16777216
370
    -2
100
AcDbLine
 10
5726.864485864065
 20
3151.142965448873
 30
0.0
 11
5676.627928470644
 21
3106.80323824385
 31
0.0
  0
LINE
  5
63529
330
62A43
100
AcDbEntity
  8
标注
 62
     0
440
 16777216
370
    -2
100
AcDbLine
 10
5496.77461514721
 20
3237.162745198803
 30
0.0
 11
5672.865184699791
 21
3118.96407166995
 31
0.0
  0
INSERT
  5
6352A
330
62A43
100
AcDbEntity
  8
标注
 62
     0
440
 16777216
370
    -2
100
AcDbBlockReference
  2
_ClosedBlank
 10
5486.811082711703
 20
3243.850646319975
 30
0.0
 41
12.0
 42
12.0
 43
12.0
 50
146.1289887626282
  0
INSERT
  5
6352B
330
62A43
100
AcDbEntity
  8
标注
 62
     0
440
 16777216
370
    -2
100
AcDbBlockReference
  2
_ClosedBlank
 10
5682.828717135299
 20
3112.276170548778
 30
0.0
 41
12.0
 42
12.0
 43
12.0
 50
326.1289887626282
  0
MTEXT
  5
6352C
330
62A43
100
AcDbEntity
  8
标注
 62
     0
440
 16777216
100
AcDbMText
 10
5590.777304110885
 20
3192.883199588938
 30
0.0
 40
30.0
 41
0.0
 46
0.0
 71
     5
 72
     1
  1
400
  7
样式 1
 11
0.8302943696256392
 21
-0.5573250934310802
 31
0.0
 73
     1
 44
1.0
  0
POINT
  5
6352D
330
62A43
100
AcDbEntity
  8
Defpoints
 62
     0
440
 16777216
100
AcDbPoint
 10
5531.331288054893
 20
3283.145014056393
 30
0.0
  0
POINT
  5
6352E
330
62A43
100
AcDbEntity
  8
Defpoints
 62
     0
440
 16777216
100
AcDbPoint
 10
5727.34892247849
 20
3151.570538285195
 30
0.0
  0
POINT
  5
6352F
330
62A43
100
AcDbEntity
  8
Defpoints
 62
     0
440
 16777216
100
AcDbPoint
 10
5682.828717135299
 20
3112.276170548778
 30
0.0
  0
ENDBLK
  5
62A45
330
62A43
100
AcDbEntity
  8
0
100
AcDbBlockEnd
  0
BLOCK
  5
62A50
330
62A4F
100
AcDbEntity
  8
0
100
AcDbBlockBegin
  2
*D11
 70
     1
 10
0.0
 20
0.0
 30
0.0
  3
*D11
  1

  0
ARC
  5
63474
330
62A4F
100
AcDbEntity
  8
标注
 62
     0
440
 16777216
370
    -2
100
AcDbCircle
 10
5615.94701186856
 20
3353.665241368768
 30
0.0
 40
126.8521117170163
100
AcDbArc
 50
331.458998500898
 51
83.77979361232146
  0
INSERT
  5
63475
330
62A4F
100
AcDbEntity
  8
标注
 62
     0
440
 16777216
370
    -2
100
AcDbBlockReference
  2
_ClosedBlank
 10
5721.157827716758
 20
3282.798165264113
 30
0.0
 41
12.0
 42
12.0
 43
12.0
 50
238.7479439947005
  0
INSERT
  5
63476
330
62A4F
100
AcDbEntity
  8
标注
 62
     0
440
 16777216
370
    -2
100
AcDbBlockReference
  2
_ClosedBlank
 10
5617.713931951974
 20
3480.505046794688
 30
0.0
 41
12.0
 42
12.0
 43
12.0
 50
176.490848118519
  0
MTEXT
  5
63477
330
62A4F
100
AcDbEntity
  8
标注
 62
     0
440
 16777216
100
AcDbMText
 10
5742.188385268858
 20
3419.717061973729
 30
0.0
 40
30.0
 41
0.0
 46
0.0
 71
     5
 72
     1
  1
90%%D
  7
样式 1
 11
0.4635960106781978
 21
-0.8860466911417594
 31
0.0
 73
     1
 44
1.0
  0
POINT
  5
63478
330
62A4F
100
AcDbEntity
  8
Defpoints
 62
     0
440
 16777216
100
AcDbPoint
 10
5741.828630713713
 20
3369.326540292866
 30
0.0
  0
POINT
  5
63479
330
62A4F
100
AcDbEntity
  8
Defpoints
 62
     0
440
 16777216
100
AcDbPoint
 10
5622.994535106256
 20
3859.577469428992
 30
0.0
  0
POINT
  5
6347A
330
62A4F
100
AcDbEntity
  8
Defpoints
 62
     0
440
 16777216
100
AcDbPoint
 10
5643.869643543595
 20
3334.857334139799
 30
0.0
  0
POINT
  5
6347B
330
62A4F
100
AcDbEntity
  8
Defpoints
 62
     0
440
 16777216
100
AcDbPoint
 10
5760.885533005817
 20
3256.038689144803
 30
0.0
  0
POINT
  5
6347C
330
62A4F
100
AcDbEntity
  8
Defpoints
 62
     0
440
 16777216
100
AcDbPoint
 10
5616.232678627041
 20
3374.17206360849
 30
0.0
  0
ENDBLK
  5
62A51
330
62A4F
100
AcDbEntity
  8
0
100
AcDbBlockEnd
  0
BLOCK
  5
62BAA
330
62BA0
100
AcDbEntity
  8
0
100
AcDbBlockBegin
  2
*D12
 70
     1
 10
0.0
 20
0.0
 30
0.0
  3
*D12
  1

  0
LINE
  5
631B2
330
62BA0
100
AcDbEntity
  8
标注
 62
     0
440
 16777216
370
    -2
100
AcDbLine
 10
5588.128974691842
 20
3962.42765136382
 30
0.0
 11
5522.179125825619
 21
4006.568005553714
 31
0.0
  0
LINE
  5
631B3
330
62BA0
100
AcDbEntity
  8
标注
 62
     0
440
 16777216
370
    -2
100
AcDbLine
 10
5580.13896118684
 20
3364.499091255424
 30
0.0
 11
5514.189112320617
 21
3408.639445445318
 31
0.0
  0
LINE
  5
631B4
330
62BA0
100
AcDbEntity
  8
标注
 62
     0
440
 16777216
370
    -2
100
AcDbLine
 10
5529.948578321646
 20
3989.261652506673
 30
0.0
 11
5522.279243938465
 21
3415.330949904748
 31
0.0
  0
INSERT
  5
631B5
330
62BA0
100
AcDbEntity
  8
标注
 62
     0
440
 16777216
370
    -2
100
AcDbBlockReference
  2
_ClosedBlank
 10
5530.108917882557
 20
4001.260581259908
 30
0.0
 41
12.0
 42
12.0
 43
12.0
 50
89.23441220761485
  0
INSERT
  5
631B6
330
62BA0
100
AcDbEntity
  8
标注
 62
     0
440
 16777216
370
    -2
100
AcDbBlockReference
  2
_ClosedBlank
 10
5522.118904377554
 20
3403.332021151513
 30
0.0
 41
12.0
 42
12.0
 43
12.0
 50
269.2344122076149
  0
MTEXT
  5
631B7
330
62BA0
100
AcDbEntity
  8
标注
 62
     0
440
 16777216
100
AcDbMText
 10
5511.001596899459
 20
3740.767270039137
 30
0.0
 40
30.0
 41
0.0
 46
0.0
 71
     5
 72
     1
  1
800
  7
样式 1
 11
0.0133616300759145
 21
0.9999107294362405
 31
0.0
 73
     1
 44
1.0
  0
POINT
  5
631B8
330
62BA0
100
AcDbEntity
  8
Defpoints
 62
     0
440
 16777216
100
AcDbPoint
 10
5588.748489696291
 20
3962.013008840866
 30
0.0
  0
POINT
  5
631B9
330
62BA0
100
AcDbEntity
  8
Defpoints
 62
     0
440
 16777216
100
AcDbPoint
 10
5580.758476191288
 20
3364.084448732471
 30
0.0
  0
POINT
  5
631BA
330
62BA0
100
AcDbEntity
  8
Defpoints
 62
     0
440
 16777216
100
AcDbPoint
 10
5522.118904377554
 20
3403.332021151513
 30
0.0
  0
ENDBLK
  5
62BAB
330
62BA0
100
AcDbEntity
  8
0
100
AcDbBlockEnd
  0
BLOCK
  5
62C00
330
62BF6
100
AcDbEntity
  8
0
100
AcDbBlockBegin
  2
*D13
 70
     1
 10
0.0
 20
0.0
 30
0.0
  3
*D13
  1

  0
LINE
  5
631BB
330
62BF6
100
AcDbEntity
  8
标注
 62
     0
440
 16777216
370
    -2
100
AcDbLine
 10
5612.105181158757
 20
3880.949195907165
 30
0.0
 11
5613.177226377891
 21
3957.997903456141
 31
0.0
  0
LINE
  5
631BC
330
62BF6
100
AcDbEntity
  8
标注
 62
     0
440
 16777216
370
    -2
100
AcDbLine
 10
5680.378314608898
 20
3948.858704919125
 30
0.0
 11
5681.450359828033
 21
4025.907412468101
 31
0.0
  0
LINE
  5
631BD
330
62BF6
100
AcDbEntity
  8
标注
 62
     0
440
 16777216
370
    -2
100
AcDbLine
 10
5621.525932098447
 20
3955.018523585192
 30
0.0
 11
5628.023277198965
 21
3961.481263661119
 31
0.0
  0
LINE
  5
631BE
330
62BF6
100
AcDbEntity
  8
标注
 62
     0
440
 16777216
370
    -2
100
AcDbLine
 10
5672.783249963678
 20
4006.002843677072
 30
0.0
 11
5663.346635755452
 21
3996.61648911516
 31
0.0
  0
INSERT
  5
631BF
330
62BF6
100
AcDbEntity
  8
标注
 62
     0
440
 16777216
370
    -2
100
AcDbBlockReference
  2
_ClosedBlank
 10
5613.018024305993
 20
3946.555929125152
 30
0.0
 41
12.0
 42
12.0
 43
12.0
 50
224.8470135712861
  0
INSERT
  5
631C0
330
62BF6
100
AcDbEntity
  8
标注
 62
     0
440
 16777216
370
    -2
100
AcDbBlockReference
  2
_ClosedBlank
 10
5681.291157756134
 20
4014.465438137112
 30
0.0
 41
12.0
 42
12.0
 43
12.0
 50
44.8470135712861
  0
MTEXT
  5
631C1
330
62BF6
100
AcDbEntity
  8
标注
 62
     0
440
 16777216
100
AcDbMText
 10
5645.684956477209
 20
3979.048876388139
 30
0.0
 40
30.0
 41
0.0
 46
0.0
 71
     5
 72
     1
  1
88
  7
样式 1
 11
0.7058525948639622
 21
0.7083587469099336
 31
0.0
 73
     1
 44
1.0
  0
POINT
  5
631C2
330
62BF6
100
AcDbEntity
  8
Defpoints
 62
     0
440
 16777216
100
AcDbPoint
 10
5612.092743496888
 20
3880.055291662557
 30
0.0
  0
POINT
  5
631C3
330
62BF6
100
AcDbEntity
  8
Defpoints
 62
     0
440
 16777216
100
AcDbPoint
 10
5680.365876947029
 20
3947.964800674516
 30
0.0
  0
POINT
  5
631C4
330
62BF6
100
AcDbEntity
  8
Defpoints
 62
     0
440
 16777216
100
AcDbPoint
 10
5681.291157756134
 20
4014.465438137112
 30
0.0
  0
ENDBLK
  5
62C01
330
62BF6
100
AcDbEntity
  8
0
100
AcDbBlockEnd
  0
BLOCK
  5
63400
330
633FF
100
AcDbEntity
  8
0
100
AcDbBlockBegin
  2
*D14
 70
     1
 10
0.0
 20
0.0
 30
0.0
  3
*D14
  1

  0
LINE
  5
6382E
330
633FF
100
AcDbEntity
  8
标注
 62
     0
440
 16777216
370
    -2
100
AcDbLine
 10
4211.969309366497
 20
3080.748241445573
 30
0.0
 11
4211.969309366497
 21
2859.909691192987
 31
0.0
  0
LINE
  5
6382F
330
633FF
100
AcDbEntity
  8
标注
 62
     0
440
 16777216
370
    -2
100
AcDbLine
 10
4311.985031492123
 20
2982.181539405971
 30
0.0
 11
4311.985031492123
 21
2859.909691192987
 31
0.0
  0
LINE
  5
63830
330
633FF
100
AcDbEntity
  8
标注
 62
     0
440
 16777216
370
    -2
100
AcDbLine
 10
4223.969309366498
 20
2867.909691192987
 30
0.0
 11
4299.985031492123
 21
2867.909691192987
 31
0.0
  0
INSERT
  5
63831
330
633FF
100
AcDbEntity
  8
标注
 62
     0
440
 16777216
370
    -2
100
AcDbBlockReference
  2
_ClosedBlank
 10
4211.969309366497
 20
2867.909691192987
 30
0.0
 41
12.0
 42
12.0
 43
12.0
 50
180.0
  0
INSERT
  5
63832
330
633FF
100
AcDbEntity
  8
标注
 62
     0
440
 16777216
370
    -2
100
AcDbBlockReference
  2
_ClosedBlank
 10
4311.985031492123
 20
2867.909691192987
 30
0.0
 41
12.0
 42
12.0
 43
12.0
  0
MTEXT
  5
63833
330
633FF
100
AcDbEntity
  8
标注
 62
     0
440
 16777216
100
AcDbMText
 10
4261.97717042931
 20
2883.534691192987
 30
0.0
 40
30.0
 41
0.0
 46
0.0
 71
     5
 72
     1
  1
100
  7
样式 1
 73
     1
 44
1.0
  0
POINT
  5
63834
330
633FF
100
AcDbEntity
  8
Defpoints
 62
     0
440
 16777216
100
AcDbPoint
 10
4211.969309366497
 20
3081.373241445572
 30
0.0
  0
POINT
  5
63835
330
633FF
100
AcDbEntity
  8
Defpoints
 62
     0
440
 16777216
100
AcDbPoint
 10
4311.985031492123
 20
2982.806539405971
 30
0.0
  0
POINT
  5
63836
330
633FF
100
AcDbEntity
  8
Defpoints
 62
     0
440
 16777216
100
AcDbPoint
 10
4311.985031492123
 20
2867.909691192987
 30
0.0
  0
ENDBLK
  5
63401
330
633FF
100
AcDbEntity
  8
0
100
AcDbBlockEnd
  0
BLOCK
  5
6378F
330
6378E
100
AcDbEntity
  8
0
100
AcDbBlockBegin
  2
*D15
 70
     1
 10
0.0
 20
0.0
 30
0.0
  3
*D15
  1

  0
LINE
  5
6392A
330
6378E
100
AcDbEntity
  8
标注
 62
     0
440
 16777216
370
    -2
100
AcDbLine
 10
4680.41769109337
 20
3361.317400604108
 30
0.0
 11
4680.41769109337
 21
3330.188343473275
 31
0.0
  0
LINE
  5
6392B
330
6378E
100
AcDbEntity
  8
标注
 62
     0
440
 16777216
370
    -2
100
AcDbLine
 10
4667.417691093371
 20
3361.317400604107
 30
0.0
 11
4667.417691093371
 21
3330.188343473275
 31
0.0
  0
LINE
  5
6392C
330
6378E
100
AcDbEntity
  8
标注
 62
     0
440
 16777216
370
    -2
100
AcDbLine
 10
4692.41769109337
 20
3338.188343473275
 30
0.0
 11
4704.41769109337
 21
3338.188343473275
 31
0.0
  0
LINE
  5
6392D
330
6378E
100
AcDbEntity
  8
标注
 62
     0
440
 16777216
370
    -2
100
AcDbLine
 10
4655.417691093371
 20
3338.188343473276
 30
0.0
 11
4599.310548236227
 21
3338.188343473276
 31
0.0
  0
LINE
  5
6392E
330
6378E
100
AcDbEntity
  8
标注
 62
     0
440
 16777216
370
    -2
100
AcDbLine
 10
4680.41769109337
 20
3338.188343473276
 30
0.0
 11
4667.417691093371
 21
3338.188343473276
 31
0.0
  0
INSERT
  5
6392F
330
6378E
100
AcDbEntity
  8
标注
 62
     0
440
 16777216
370
    -2
100
AcDbBlockReference
  2
_ClosedBlank
 10
4680.41769109337
 20
3338.188343473276
 30
0.0
 41
12.0
 42
12.0
 43
12.0
 50
179.9999999999995
  0
INSERT
  5
63930
330
6378E
100
AcDbEntity
  8
标注
 62
     0
440
 16777216
370
    -2
100
AcDbBlockReference
  2
_ClosedBlank
 10
4667.417691093371
 20
3338.188343473276
 30
0.0
 41
12.0
 42
12.0
 43
12.0
 50
359.9999999999995
  0
MTEXT
  5
63931
330
6378E
100
AcDbEntity
  8
标注
 62
     0
440
 16777216
100
AcDbMText
 10
4621.364119664799
 20
3353.813343473276
 30
0.0
 40
30.0
 41
0.0
 46
0.0
 71
     5
 72
     1
  1
13
  7
样式 1
 73
     1
 44
1.0
  0
POINT
  5
63932
330
6378E
100
AcDbEntity
  8
Defpoints
 62
     0
440
 16777216
100
AcDbPoint
 10
4680.41769109337
 20
3361.942400604108
 30
0.0
  0
POINT
  5
63933
330
6378E
100
AcDbEntity
  8
Defpoints
 62
     0
440
 16777216
100
AcDbPoint
 10
4667.417691093371
 20
3361.942400604107
 30
0.0
  0
POINT
  5
63934
330
6378E
100
AcDbEntity
  8
Defpoints
 62
     0
440
 16777216
100
AcDbPoint
 10
4667.417691093371
 20
3338.188343473276
 30
0.0
  0
ENDBLK
  5
63790
330
6378E
100
AcDbEntity
  8
0
100
AcDbBlockEnd
  0
BLOCK
  5
6379D
330
6379C
100
AcDbEntity
  8
0
100
AcDbBlockBegin
  2
*D16
 70
     1
 10
0.0
 20
0.0
 30
0.0
  3
*D16
  1

  0
LINE
  5
63935
330
6379C
100
AcDbEntity
  8
标注
 62
     0
440
 16777216
370
    -2
100
AcDbLine
 10
4873.548746365038
 20
3557.660027521898
 30
0.0
 11
4763.798814505603
 21
3495.547517216476
 31
0.0
  0
LINE
  5
63936
330
6379C
100
AcDbEntity
  8
标注
 62
     0
440
 16777216
370
    -2
100
AcDbLine
 10
4715.23656768114
 20
3468.06391877377
 30
0.0
 11
4704.793073740395
 21
3462.153467495769
 31
0.0
  0
MTEXT
  5
63937
102
{ACAD_XDICTIONARY
360
639CA
102
}
330
6379C
100
AcDbEntity
  8
标注
 62
     0
440
 16777216
100
AcDbMText
 10
4816.199627304129
 20
3543.157297410199
 30
0.0
 40
30.0
 41
0.0
 46
0.0
 71
     5
 72
     1
  1
∅31.8
  7
样式 1
 11
0.8702911617287393
 21
0.4925376065000938
 31
0.0
 73
     1
 44
1.0
  0
LINE
  5
63938
330
6379C
100
AcDbEntity
  8
标注
 62
     0
440
 16777216
370
    -2
100
AcDbLine
 10
4725.680061621885
 20
3473.974370051771
 30
0.0
 11
4753.355320564859
 21
3489.637065938474
 31
0.0
  0
INSERT
  5
63939
330
6379C
100
AcDbEntity
  8
标注
 62
     0
440
 16777216
370
    -2
100
AcDbBlockReference
  2
_ClosedBlank
 10
4725.680061621885
 20
3473.974370051771
 30
0.0
 41
12.0
 42
12.0
 43
12.0
 50
29.50750798722582
  0
INSERT
  5
6393A
330
6379C
100
AcDbEntity
  8
标注
 62
     0
440
 16777216
370
    -2
100
AcDbBlockReference
  2
_ClosedBlank
 10
4753.355320564859
 20
3489.637065938474
 30
0.0
 41
12.0
 42
12.0
 43
12.0
 50
209.5075079872258
  0
POINT
  5
6393B
330
6379C
100
AcDbEntity
  8
Defpoints
 62
     0
440
 16777216
100
AcDbPoint
 10
4753.355320564859
 20
3489.637065938474
 30
0.0
  0
POINT
  5
6393C
330
6379C
100
AcDbEntity
  8
Defpoints
 62
     0
440
 16777216
100
AcDbPoint
 10
4725.680061621885
 20
3473.974370051771
 30
0.0
  0
ENDBLK
  5
6379E
330
6379C
100
AcDbEntity
  8
0
100
AcDbBlockEnd
  0
BLOCK
  5
637A8
330
637A7
100
AcDbEntity
  8
0
100
AcDbBlockBegin
  2
*D17
 70
     1
 10
0.0
 20
0.0
 30
0.0
  3
*D17
  1

  0
LINE
  5
6393D
330
637A7
100
AcDbEntity
  8
标注
 62
     0
440
 16777216
370
    -2
100
AcDbLine
 10
4875.376164446295
 20
3402.735688559519
 30
0.0
 11
4762.680366243105
 21
3468.324973211991
 31
0.0
  0
LINE
  5
6393E
330
637A7
100
AcDbEntity
  8
标注
 62
     0
440
 16777216
370
    -2
100
AcDbLine
 10
4716.355015943639
 20
3495.286462778255
 30
0.0
 11
4705.983668861668
 21
3501.322617158761
 31
0.0
  0
MTEXT
  5
6393F
102
{ACAD_XDICTIONARY
360
639CC
102
}
330
637A7
100
AcDbEntity
  8
标注
 62
     0
440
 16777216
100
AcDbMText
 10
4832.07351490197
 20
3446.01661187515
 30
0.0
 40
30.0
 41
0.0
 46
0.0
 71
     5
 72
     1
  1
∅29.6
  7
样式 1
 11
0.8642789234974989
 21
-0.5030128650422415
 31
0.0
 73
     1
 44
1.0
  0
LINE
  5
63940
330
637A7
100
AcDbEntity
  8
标注
 62
     0
440
 16777216
370
    -2
100
AcDbLine
 10
4726.726363025609
 20
3489.250308397748
 30
0.0
 11
4752.309019161134
 21
3474.361127592498
 31
0.0
  0
INSERT
  5
63941
330
637A7
100
AcDbEntity
  8
标注
 62
     0
440
 16777216
370
    -2
100
AcDbBlockReference
  2
_ClosedBlank
 10
4726.726363025609
 20
3489.250308397748
 30
0.0
 41
12.0
 42
12.0
 43
12.0
 50
329.8004694619534
  0
INSERT
  5
63942
330
637A7
100
AcDbEntity
  8
标注
 62
     0
440
 16777216
370
    -2
100
AcDbBlockReference
  2
_ClosedBlank
 10
4752.309019161134
 20
3474.361127592498
 30
0.0
 41
12.0
 42
12.0
 43
12.0
 50
149.8004694619534
  0
POINT
  5
63943
330
637A7
100
AcDbEntity
  8
Defpoints
 62
     0
440
 16777216
100
AcDbPoint
 10
4752.309019161134
 20
3474.361127592498
 30
0.0
  0
POINT
  5
63944
330
637A7
100
AcDbEntity
  8
Defpoints
 62
     0
440
 16777216
100
AcDbPoint
 10
4726.726363025609
 20
3489.250308397748
 30
0.0
  0
ENDBLK
  5
637A9
330
637A7
100
AcDbEntity
  8
0
100
AcDbBlockEnd
  0
BLOCK
  5
637B3
330
637B2
100
AcDbEntity
  8
0
100
AcDbBlockBegin
  2
*D18
 70
     1
 10
0.0
 20
0.0
 30
0.0
  3
*D18
  1

  0
LINE
  5
63945
330
637B2
100
AcDbEntity
  8
标注
 62
     0
440
 16777216
370
    -2
100
AcDbLine
 10
4833.042002407065
 20
3397.274474160648
 30
0.0
 11
4748.051381002742
 21
3428.055359394118
 31
0.0
  0
MTEXT
  5
63946
330
637B2
100
AcDbEntity
  8
标注
 62
     0
440
 16777216
100
AcDbMText
 10
4801.508786404852
 20
3425.31296424683
 30
0.0
 40
30.0
 41
0.0
 46
0.0
 71
     5
 72
     1
  1
R46
  7
样式 1
 11
0.9402360329202068
 21
-0.3405234241553318
 31
0.0
 73
     1
 44
1.0
  0
LINE
  5
63947
330
637B2
100
AcDbEntity
  8
标注
 62
     0
440
 16777216
370
    -2
100
AcDbLine
 10
4693.517691093377
 20
3447.805717995125
 30
0.0
 11
4736.768548607701
 21
3432.141640483982
 31
0.0
  0
INSERT
  5
63948
330
637B2
100
AcDbEntity
  8
标注
 62
     0
440
 16777216
370
    -2
100
AcDbBlockReference
  2
_ClosedBlank
 10
4736.768548607701
 20
3432.141640483982
 30
0.0
 41
12.0
 42
12.0
 43
12.0
 50
160.0912329021512
  0
ARC
  5
63949
330
637B2
100
AcDbEntity
  8
标注
 62
     0
440
 16777216
370
    -2
100
AcDbCircle
 10
4693.517691093377
 20
3447.805717995125
 30
0.0
 40
45.99999999999363
100
AcDbArc
 50
270.7784752651235
 51
350.0557162957321
  0
POINT
  5
6394A
330
637B2
100
AcDbEntity
  8
Defpoints
 62
     0
440
 16777216
100
AcDbPoint
 10
4736.768548607701
 20
3432.141640483982
 30
0.0
  0
POINT
  5
6394B
330
637B2
100
AcDbEntity
  8
Defpoints
 62
     0
440
 16777216
100
AcDbPoint
 10
4693.517691093377
 20
3447.805717995125
 30
0.0
  0
ENDBLK
  5
637B4
330
637B2
100
AcDbEntity
  8
0
100
AcDbBlockEnd
  0
BLOCK
  5
637BC
330
637BB
100
AcDbEntity
  8
0
100
AcDbBlockBegin
  2
*D19
 70
     1
 10
0.0
 20
0.0
 30
0.0
  3
*D19
  1

  0
LINE
  5
6394C
330
637BB
100
AcDbEntity
  8
标注
 62
     0
440
 16777216
370
    -2
100
AcDbLine
 10
4666.79269109337
 20
3481.805717995124
 30
0.0
 11
4620.014291137389
 21
3481.805717995124
 31
0.0
  0
LINE
  5
6394D
330
637BB
100
AcDbEntity
  8
标注
 62
     0
440
 16777216
370
    -2
100
AcDbLine
 10
4666.792691093369
 20
3401.805717995124
 30
0.0
 11
4620.014291137389
 21
3401.805717995124
 31
0.0
  0
LINE
  5
6394E
330
637BB
100
AcDbEntity
  8
标注
 62
     0
440
 16777216
370
    -2
100
AcDbLine
 10
4628.014291137389
 20
3469.805717995124
 30
0.0
 11
4628.014291137389
 21
3413.805717995124
 31
0.0
  0
INSERT
  5
6394F
330
637BB
100
AcDbEntity
  8
标注
 62
     0
440
 16777216
370
    -2
100
AcDbBlockReference
  2
_ClosedBlank
 10
4628.014291137389
 20
3481.805717995124
 30
0.0
 41
12.0
 42
12.0
 43
12.0
 50
90.0
  0
INSERT
  5
63950
330
637BB
100
AcDbEntity
  8
标注
 62
     0
440
 16777216
370
    -2
100
AcDbBlockReference
  2
_ClosedBlank
 10
4628.014291137389
 20
3401.805717995124
 30
0.0
 41
12.0
 42
12.0
 43
12.0
 50
270.0
  0
MTEXT
  5
63951
330
637BB
100
AcDbEntity
  8
标注
 62
     0
440
 16777216
100
AcDbMText
 10
4612.389291137388
 20
3441.805717995124
 30
0.0
 40
30.0
 41
0.0
 46
0.0
 71
     5
 72
     1
  1
80
  7
样式 1
 11
0.0000000000000001
 21
1.0
 31
0.0
 73
     1
 44
1.0
  0
POINT
  5
63952
330
637BB
100
AcDbEntity
  8
Defpoints
 62
     0
440
 16777216
100
AcDbPoint
 10
4667.41769109337
 20
3481.805717995124
 30
0.0
  0
POINT
  5
63953
330
637BB
100
AcDbEntity
  8
Defpoints
 62
     0
440
 16777216
100
AcDbPoint
 10
4667.417691093369
 20
3401.805717995124
 30
0.0
  0
POINT
  5
63954
330
637BB
100
AcDbEntity
  8
Defpoints
 62
     0
440
 16777216
100
AcDbPoint
 10
4628.014291137389
 20
3401.805717995124
 30
0.0
  0
ENDBLK
  5
637BD
330
637BB
100
AcDbEntity
  8
0
100
AcDbBlockEnd
  0
BLOCK
  5
63813
330
63812
100
AcDbEntity
  8
0
100
AcDbBlockBegin
  2
*D20
 70
     1
 10
0.0
 20
0.0
 30
0.0
  3
*D20
  1

  0
LINE
  5
63848
330
63812
100
AcDbEntity
  8
标注
 62
     0
440
 16777216
370
    -2
100
AcDbLine
 10
4394.569506473644
 20
2952.462292383862
 30
0.0
 11
4328.358393767188
 21
3011.8822611387
 31
0.0
  0
LINE
  5
63849
330
63812
100
AcDbEntity
  8
标注
 62
     0
440
 16777216
370
    -2
100
AcDbLine
 10
4295.611669217062
 20
3041.270218387181
 30
0.0
 11
4286.680744339757
 21
3049.285115818585
 31
0.0
  0
MTEXT
  5
6384A
102
{ACAD_XDICTIONARY
360
639C8
102
}
330
63812
100
AcDbEntity
  8
标注
 62
     0
440
 16777216
100
AcDbMText
 10
4376.365476922875
 20
2989.793636479572
 30
0.0
 40
30.0
 41
0.0
 46
0.0
 71
     5
 72
     1
  1
∅20
  7
样式 1
 11
0.7442437397755059
 21
-0.6679081192836101
 31
0.0
 73
     1
 44
1.0
  0
LINE
  5
6384B
330
63812
100
AcDbEntity
  8
标注
 62
     0
440
 16777216
370
    -2
100
AcDbLine
 10
4304.542594094368
 20
3033.255320955778
 30
0.0
 11
4319.427468889881
 21
3019.897158570103
 31
0.0
  0
INSERT
  5
6384C
330
63812
100
AcDbEntity
  8
标注
 62
     0
440
 16777216
370
    -2
100
AcDbBlockReference
  2
_ClosedBlank
 10
4304.542594094368
 20
3033.255320955778
 30
0.0
 41
12.0
 42
12.0
 43
12.0
 50
318.0941829670946
  0
INSERT
  5
6384D
330
63812
100
AcDbEntity
  8
标注
 62
     0
440
 16777216
370
    -2
100
AcDbBlockReference
  2
_ClosedBlank
 10
4319.427468889881
 20
3019.897158570103
 30
0.0
 41
12.0
 42
12.0
 43
12.0
 50
138.0941829670946
  0
POINT
  5
6384E
330
63812
100
AcDbEntity
  8
Defpoints
 62
     0
440
 16777216
100
AcDbPoint
 10
4319.427468889881
 20
3019.897158570103
 30
0.0
  0
POINT
  5
6384F
330
63812
100
AcDbEntity
  8
Defpoints
 62
     0
440
 16777216
100
AcDbPoint
 10
4304.542594094368
 20
3033.255320955778
 30
0.0
  0
ENDBLK
  5
63814
330
63812
100
AcDbEntity
  8
0
100
AcDbBlockEnd
  0
ENDSEC
  0
SECTION
  2
ENTITIES
  0
HATCH
  5
47A0
330
2
100
AcDbEntity
  8
标注
100
AcDbHatch
 10
0.0
 20
0.0
 30
0.0
210
0.0
220
0.0
230
1.0
  2
ANSI31
 70
     0
 71
     0
 91
        1
 92
        7
 72
     0
 73
     1
 93
        6
 10
808.9637528631646
 20
341.4077636669027
 10
807.9637528631646
 20
340.4077636669027
 10
807.9637528631646
 20
340.3827697704183
 10
808.9637528631646
 20
340.3827697704183
 10
817.9637528631646
 20
340.3827697704183
 10
817.9637528631646
 20
341.4077636669027
 97
        0
 75
     0
 76
     1
 52
0.0
 41
1.0
 77
     0
 78
     1
 53
45.0
 43
0.0
 44
0.0
 45
-57.02462636878911
 46
57.02462636878912
 79
     0
 47
0.0
 98
        2
 10
811.6304195298312
 20
290.00483008513
 10
814.540916511757
 20
290.1885128832553
  0
HATCH
  5
47AF
330
2
100
AcDbEntity
  8
标注
100
AcDbHatch
 10
0.0
 20
0.0
 30
0.0
210
0.0
220
0.0
230
1.0
  2
ANSI31
 70
     0
 71
     0
 91
        1
 92
        7
 72
     0
 73
     1
 93
        6
 10
807.9637528631646
 20
340.4077636669027
 10
807.9637528631646
 20
340.3827697704183
 10
808.9637528631646
 20
340.3827697704183
 10
817.9637528631646
 20
340.3827697704183
 10
817.9637528631646
 20
341.4077636669027
 10
808.9637528631646
 20
341.4077636669027
 97
        0
 75
     0
 76
     1
 52
0.0
 41
1.0
 77
     0
 78
     1
 53
45.0
 43
0.0
 44
0.0
 45
-57.02462636878911
 46
57.02462636878912
 79
     0
 47
0.0
 98
        2
 10
811.6304195298312
 20
290.00483008513
 10
815.1155934479202
 20
290.0208102015142
  0
HATCH
  5
47C4
330
2
100
AcDbEntity
  8
标注
100
AcDbHatch
 10
0.0
 20
0.0
 30
0.0
210
0.0
220
0.0
230
1.0
  2
ANSI31
 70
     0
 71
     0
 91
        1
 92
        7
 72
     0
 73
     1
 93
        6
 10
807.9637528631646
 20
340.4077636669027
 10
807.9637528631646
 20
340.3827697704183
 10
808.9637528631646
 20
340.3827697704183
 10
817.9637528631646
 20
340.3827697704183
 10
817.9637528631646
 20
341.4077636669027
 10
808.9637528631646
 20
341.4077636669027
 97
        0
 75
     0
 76
     1
 52
0.0
 41
1.0
 77
     0
 78
     1
 53
45.0
 43
0.0
 44
0.0
 45
-57.02462636878911
 46
57.02462636878912
 79
     0
 47
0.0
 98
        2
 10
811.6304195298312
 20
290.00483008513
 10
811.6304195298312
 20
290.00483008513
  0
HATCH
  5
7FDE
330
2
100
AcDbEntity
  8
剖面线
100
AcDbHatch
 10
0.0
 20
0.0
 30
0.0
210
0.0
220
0.0
230
1.0
  2
ANSI31
 70
     0
 71
     1
 91
        0
 75
     0
 76
     1
 52
0.0
 41
0.25
 77
     0
 78
     1
 53
45.0
 43
0.0
 44
0.0
 45
-0.5612660075668221
 46
0.5612660075668221
 79
     0
 98
        1
 10
267.1978866720704
 20
1009.396111914461
  0
HATCH
  5
807B
330
2
100
AcDbEntity
  8
剖面线
100
AcDbHatch
 10
0.0
 20
0.0
 30
0.0
210
0.0
220
0.0
230
1.0
  2
ANSI31
 70
     0
 71
     1
 91
        0
 75
     0
 76
     1
 52
0.0
 41
0.25
 77
     0
 78
     1
 53
45.0
 43
0.0
 44
0.0
 45
-0.5612660075668221
 46
0.5612660075668221
 79
     0
 98
        1
 10
260.9063311437414
 20
1015.611866868925
  0
HATCH
  5
80BB
330
2
100
AcDbEntity
  8
0
100
AcDbHatch
 10
0.0
 20
0.0
 30
0.0
210
0.0
220
0.0
230
1.0
  2
ANSI31
 70
     0
 71
     1
 91
        0
 75
     0
 76
     1
 52
0.0
 41
0.25
 77
     0
 78
     1
 53
45.0
 43
0.0
 44
0.0
 45
-0.5612660075668221
 46
0.5612660075668221
 79
     0
 98
        1
 10
0.0
 20
0.0
  0
HATCH
  5
8127
330
2
100
AcDbEntity
  8
0
100
AcDbHatch
 10
0.0
 20
0.0
 30
0.0
210
0.0
220
0.0
230
1.0
  2
ANSI31
 70
     0
 71
     1
 91
        0
 75
     0
 76
     1
 52
0.0
 41
0.25
 77
     0
 78
     1
 53
45.0
 43
0.0
 44
0.0
 45
-0.5612660075668221
 46
0.5612660075668221
 79
     0
 98
        1
 10
0.0
 20
0.0
  0
HATCH
  5
8151
330
2
100
AcDbEntity
  8
0
100
AcDbHatch
 10
0.0
 20
0.0
 30
0.0
210
0.0
220
0.0
230
1.0
  2
ANSI31
 70
     0
 71
     1
 91
        0
 75
     0
 76
     1
 52
0.0
 41
0.25
 77
     0
 78
     1
 53
45.0
 43
0.0
 44
0.0
 45
-0.5612660075668221
 46
0.5612660075668221
 79
     0
 98
        1
 10
0.0
 20
0.0
  0
HATCH
  5
8184
330
2
100
AcDbEntity
  8
剖面线
100
AcDbHatch
 10
0.0
 20
0.0
 30
0.0
210
0.0
220
0.0
230
1.0
  2
ANSI31
 70
     0
 71
     0
 91
        0
 75
     0
 76
     1
 52
0.0
 41
0.25
 77
     0
 78
     1
 53
45.00000000000436
 43
1662.819978524104
 44
0.3206117319112991
 45
-0.5612660075669284
 46
0.5612660075668221
 79
     0
 98
        2
 10
2060.042234542995
 20
923.3992186555811
 10
2042.482776698473
 20
923.3050660666023
  0
HATCH
  5
81A8
330
2
100
AcDbEntity
  8
0
100
AcDbHatch
 10
0.0
 20
0.0
 30
0.0
210
0.0
220
0.0
230
1.0
  2
ANSI31
 70
     0
 71
     1
 91
        0
 75
     0
 76
     1
 52
0.0
 41
0.1
 77
     0
 78
     1
 53
45.0
 43
0.0
 44
0.0
 45
-0.2245064030267288
 46
0.2245064030267288
 79
     0
 98
        1
 10
0.0
 20
0.0
  0
HATCH
  5
81BF
330
2
100
AcDbEntity
  8
0
100
AcDbHatch
 10
0.0
 20
0.0
 30
0.0
210
0.0
220
0.0
230
1.0
  2
ANSI31
 70
     0
 71
     1
 91
        0
 75
     0
 76
     1
 52
0.0
 41
0.1
 77
     0
 78
     1
 53
45.0
 43
0.0
 44
0.0
 45
-0.2245064030267288
 46
0.2245064030267288
 79
     0
 98
        1
 10
0.0
 20
0.0
  0
HATCH
  5
81C7
330
2
100
AcDbEntity
  8
0
100
AcDbHatch
 10
0.0
 20
0.0
 30
0.0
210
0.0
220
0.0
230
1.0
  2
ANSI31
 70
     0
 71
     1
 91
        0
 75
     0
 76
     1
 52
0.0
 41
0.25
 77
     0
 78
     1
 53
45.0
 43
0.0
 44
0.0
 45
-0.5612660075668221
 46
0.5612660075668221
 79
     0
 98
        1
 10
0.0
 20
0.0
  0
HATCH
  5
8D7A
330
2
100
AcDbEntity
  8
标注
100
AcDbHatch
 10
0.0
 20
0.0
 30
0.0
210
0.0
220
0.0
230
1.0
  2
ANSI31
 70
     0
 71
     0
 91
        1
 92
       10
 72
     0
 73
     1
 93
        4
 10
2048.785847868912
 20
971.5216843808956
 10
2048.785847868912
 20
966.6558651718558
 10
2053.651667077952
 20
966.6558651718558
 10
2053.651667077952
 20
971.5216843808956
 97
        0
 75
     0
 76
     1
 52
0.0
 41
0.25
 77
     0
 78
     1
 53
45.0
 43
0.0
 44
0.0
 45
-0.5612660075668221
 46
0.5612660075668221
 79
     0
 98
        1
 10
0.0
 20
0.0
  0
HATCH
  5
8ED7
330
2
100
AcDbEntity
  8
标注
100
AcDbHatch
 10
0.0
 20
0.0
 30
0.0
210
0.0
220
0.0
230
1.0
  2
ANSI31
 70
     0
 71
     1
 91
        0
 75
     0
 76
     1
 52
0.0
 41
0.25
 77
     0
 78
     1
 53
45.0
 43
0.0
 44
0.0
 45
-0.5612660075668221
 46
0.5612660075668221
 79
     0
 98
        1
 10
0.0
 20
0.0
  0
MTEXT
  5
47027
330
2
100
AcDbEntity
  8
标注
100
AcDbMText
 10
851.2901663856801
 20
335.199601009439
 30
0.0
 40
6.0
 41
13.70396488517739
 46
0.0
 71
     1
 72
     1
  1

 73
     1
 44
1.0
  0
LINE
  5
62252
330
2
100
AcDbEntity
  8
中心线
100
AcDbLine
 10
3519.064172467265
 20
3831.7633680565
 30
0.0
 11
3572.450290356414
 21
3831.7633680565
 31
0.0
  0
LINE
  5
62253
330
2
100
AcDbEntity
  8
中心线
100
AcDbLine
 10
3529.877176612217
 20
3106.576239762941
 30
0.0
 11
3656.63878672549
 21
3106.576239762941
 31
0.0
  0
LINE
  5
62255
330
2
100
AcDbEntity
  8
中心线
100
AcDbLine
 10
3627.450290356415
 20
3776.7633680565
 30
0.0
 11
3627.450290356415
 21
3057.098952852492
 31
0.0
  0
ARC
  5
62256
330
2
100
AcDbEntity
  8
中心线
100
AcDbCircle
 10
3572.450290356414
 20
3776.7633680565
 30
0.0
 40
55.0
100
AcDbArc
 50
0.0
 51
90.0
  0
ARC
  5
62258
330
2
100
AcDbEntity
  8
0
100
AcDbCircle
 10
3572.450290356414
 20
3776.7633680565
 30
0.0
 40
39.1
100
AcDbArc
 50
0.0
 51
90.0
  0
LINE
  5
62259
330
2
100
AcDbEntity
  8
0
100
AcDbLine
 10
3611.550290356415
 20
3776.7633680565
 30
0.0
 11
3611.550290356412
 21
3106.576239762941
 31
0.0
  0
ARC
  5
6225B
330
2
100
AcDbEntity
  8
0
100
AcDbCircle
 10
3572.450290356414
 20
3776.7633680565
 30
0.0
 40
70.9
100
AcDbArc
 50
0.0
 51
90.0
  0
LINE
  5
6225C
330
2
100
AcDbEntity
  8
0
100
AcDbLine
 10
3643.350290356414
 20
3776.7633680565
 30
0.0
 11
3643.350290356414
 21
3106.576239762941
 31
0.0
  0
LINE
  5
62260
330
2
100
AcDbEntity
  8
0
100
AcDbLine
 10
3539.450290356413
 20
3860.263368056502
 30
0.0
 11
3552.450290356415
 21
3860.263368056502
 31
0.0
  0
LINE
  5
62262
330
2
100
AcDbEntity
  8
0
100
AcDbLine
 10
3539.450290356415
 20
3831.7633680565
 30
0.0
 11
3539.450290356415
 21
3860.263368056502
 31
0.0
  0
LINE
  5
62263
330
2
100
AcDbEntity
  8
0
100
AcDbLine
 10
3552.450290356415
 20
3831.7633680565
 30
0.0
 11
3552.450290356415
 21
3860.263368056502
 31
0.0
  0
LINE
  5
62264
330
2
100
AcDbEntity
  8
0
100
AcDbLine
 10
3552.450290356415
 20
3847.6633680565
 30
0.0
 11
3572.450290356414
 21
3847.663368056501
 31
0.0
  0
LINE
  5
62265
330
2
100
AcDbEntity
  8
0
100
AcDbLine
 10
3539.450290356415
 20
3831.7633680565
 30
0.0
 11
3539.450290356415
 21
3803.2633680565
 31
0.0
  0
LINE
  5
62266
330
2
100
AcDbEntity
  8
0
100
AcDbLine
 10
3552.450290356415
 20
3831.7633680565
 30
0.0
 11
3552.450290356415
 21
3803.2633680565
 31
0.0
  0
LINE
  5
62267
330
2
100
AcDbEntity
  8
0
100
AcDbLine
 10
3539.450290356413
 20
3803.2633680565
 30
0.0
 11
3552.450290356415
 21
3803.2633680565
 31
0.0
  0
LINE
  5
62268
330
2
100
AcDbEntity
  8
0
100
AcDbLine
 10
3552.450290356415
 20
3815.863368056501
 30
0.0
 11
3572.450290356414
 21
3815.863368056501
 31
0.0
  0
LINE
  5
62269
330
2
100
AcDbEntity
  8
中心线
100
AcDbLine
 10
3539.450290356413
 20
3803.2633680565
 30
0.0
 11
3539.450290356413
 21
2949.062636867969
 31
0.0
  0
LINE
  5
6226C
330
2
100
AcDbEntity
  8
0
100
AcDbLine
 10
3539.450290356413
 20
3106.576239762941
 30
0.0
 11
3539.450290356413
 21
3135.076239762942
 31
0.0
  0
LINE
  5
6226D
330
2
100
AcDbEntity
  8
0
100
AcDbLine
 10
3539.450290356413
 20
3106.576239762941
 30
0.0
 11
3539.450290356413
 21
3078.076239762941
 31
0.0
  0
LINE
  5
62270
330
2
100
AcDbEntity
  8
0
100
AcDbLine
 10
3552.450290356413
 20
3106.576239762941
 30
0.0
 11
3552.450290356413
 21
3135.076239762942
 31
0.0
  0
LINE
  5
62271
330
2
100
AcDbEntity
  8
0
100
AcDbLine
 10
3552.450290356413
 20
3106.576239762941
 30
0.0
 11
3552.450290356413
 21
3078.076239762941
 31
0.0
  0
LINE
  5
62275
330
2
100
AcDbEntity
  8
0
100
AcDbLine
 10
3611.550290356415
 20
3122.476239762941
 30
0.0
 11
3552.450290356413
 21
3122.476239762941
 31
0.0
  0
LINE
  5
62276
330
2
100
AcDbEntity
  8
0
100
AcDbLine
 10
3627.450290356415
 20
3090.676239762942
 30
0.0
 11
3552.450290356413
 21
3090.676239762942
 31
0.0
  0
LINE
  5
6227B
330
2
100
AcDbEntity
  8
0
100
AcDbLine
 10
3539.450290356413
 20
3078.076239762941
 30
0.0
 11
3552.450290356413
 21
3078.076239762941
 31
0.0
  0
LINE
  5
6227C
330
2
100
AcDbEntity
  8
0
100
AcDbLine
 10
3539.450290356413
 20
3135.076239762942
 30
0.0
 11
3552.450290356413
 21
3135.076239762942
 31
0.0
  0
DIMENSION
  5
622E4
330
2
100
AcDbEntity
  8
标注
100
AcDbDimension
280
     0
  2
*D1
 10
3643.350290356414
 20
3881.966924074781
 30
0.0
 11
3591.400290356415
 21
3897.591924074781
 31
0.0
 70
    32
  1
88
 71
     5
 42
103.8999999999996
 73
     0
 74
     0
 75
     0
  3
线性标注
100
AcDbAlignedDimension
 13
3539.450290356415
 23
3860.263368056502
 33
0.0
 14
3643.350290356414
 24
3776.7633680565
 34
0.0
100
AcDbRotatedDimension
  0
DIMENSION
  5
6231F
330
2
100
AcDbEntity
  8
标注
100
AcDbDimension
280
     0
  2
*D2
 10
3572.450290356418
 20
3776.7633680565
 30
0.0
 11
3707.766756730283
 21
3817.125779101569
 31
0.0
 70
   164
 71
     5
 42
54.99999999999545
 73
     0
 74
     0
 75
     0
  3
线性标注
100
AcDbRadialDimension
 15
3625.155597820717
 25
3792.484391085975
 35
0.0
 40
0.0
1001
ACAD
1000
DSTYLE
1002
{
1070
   288
1070
     1
1002
}
1001
ACAD_DSTYLE_DIMRADIAL_EXTENSION
1070
   387
1070
     1
1070
   388
1040
0.0
1070
   390
1040
1.570796326794896
  0
MTEXT
  5
62394
330
2
100
AcDbEntity
  8
0
100
AcDbMText
 10
4279.383251296674
 20
2778.542354909916
 30
0.0
 40
30.0
 41
201.7942574699391
 46
0.0
 71
     1
 72
     5
  1
A
  7
黑体
 73
     1
 44
1.0
  0
LINE
  5
62565
330
2
100
AcDbEntity
  8
中心线
100
AcDbLine
 10
4674.256305455108
 20
3106.576239762941
 30
0.0
 11
4267.285031492123
 21
3106.576239762941
 31
0.0
  0
LINE
  5
62566
330
2
100
AcDbEntity
  8
中心线
100
AcDbLine
 10
4212.285031492124
 20
3161.57623976294
 30
0.0
 11
4212.285031492121
 21
3945.87148275488
 31
0.0
  0
LINE
  5
62567
330
2
100
AcDbEntity
  8
0
100
AcDbLine
 10
4196.385031492123
 20
3161.57623976294
 30
0.0
 11
4196.385031492122
 21
3906.840937794697
 31
0.0
  0
LINE
  5
62568
330
2
100
AcDbEntity
  8
0
100
AcDbLine
 10
4228.185031492123
 20
3161.57623976294
 30
0.0
 11
4228.185031492121
 21
3906.840937794699
 31
0.0
  0
ARC
  5
62569
330
2
100
AcDbEntity
  8
中心线
100
AcDbCircle
 10
4267.285031492123
 20
3161.57623976294
 30
0.0
 40
55.0
100
AcDbArc
 50
180.0
 51
270.0
  0
ARC
  5
6256A
330
2
100
AcDbEntity
  8
0
100
AcDbCircle
 10
4267.285031492123
 20
3161.57623976294
 30
0.0
 40
70.9
100
AcDbArc
 50
180.0
 51
270.0
  0
ARC
  5
6256B
330
2
100
AcDbEntity
  8
0
100
AcDbCircle
 10
4267.285031492123
 20
3161.57623976294
 30
0.0
 40
39.1
100
AcDbArc
 50
180.0
 51
270.0
  0
LINE
  5
6256C
330
2
100
AcDbEntity
  8
0
100
AcDbLine
 10
4612.285031492122
 20
3122.47623976294
 30
0.0
 11
4267.285031492123
 21
3122.47623976294
 31
0.0
  0
LINE
  5
6256D
330
2
100
AcDbEntity
  8
0
100
AcDbLine
 10
4612.285031492122
 20
3090.67623976294
 30
0.0
 11
4321.985031492123
 21
3090.67623976294
 31
0.0
  0
ARC
  5
6256E
330
2
100
AcDbEntity
  8
0
100
AcDbCircle
 10
4212.285031492121
 20
3906.57623976294
 30
0.0
 40
15.89999999999963
100
AcDbArc
 50
0.0
 51
180.0
  0
ARC
  5
6256F
330
2
100
AcDbEntity
  8
0
100
AcDbCircle
 10
4212.285031492121
 20
3906.57623976294
 30
0.0
 40
28.5
100
AcDbArc
 50
303.9103294427135
 51
236.0896705572866
  0
ARC
  5
62570
330
2
100
AcDbEntity
  8
0
100
AcDbCircle
 10
4612.285031492122
 20
3106.576239762941
 30
0.0
 40
15.90000000000009
100
AcDbArc
 50
270.0
 51
90.0
  0
ARC
  5
62571
330
2
100
AcDbEntity
  8
0
100
AcDbCircle
 10
4612.285031492122
 20
3106.576239762941
 30
0.0
 40
28.5
100
AcDbArc
 50
213.9103294427413
 51
146.0896705572586
  0
LINE
  5
62574
330
2
100
AcDbEntity
  8
0
100
AcDbLine
 10
4628.185031492124
 20
4163.259581221065
 30
0.0
 11
4628.185031492124
 21
4143.259581221065
 31
0.0
  0
LINE
  5
62575
330
2
100
AcDbEntity
  8
0
100
AcDbLine
 10
4596.385031492124
 20
4163.259581221065
 30
0.0
 11
4596.385031492125
 21
4143.259581221065
 31
0.0
  0
LINE
  5
62576
330
2
100
AcDbEntity
  8
中心线
100
AcDbLine
 10
4212.285031492124
 20
4191.986683772156
 30
0.0
 11
4212.285031492124
 21
4065.473276415004
 31
0.0
  0
LINE
  5
62577
330
2
100
AcDbEntity
  8
中心线
100
AcDbLine
 10
4557.285031492124
 20
4088.259581221064
 30
0.0
 11
4187.135019165643
 21
4088.259581221066
 31
0.0
  0
LINE
  5
62578
330
2
100
AcDbEntity
  8
0
100
AcDbLine
 10
4557.285031492124
 20
4104.159581221065
 30
0.0
 11
4322.184005619386
 21
4104.159581221066
 31
0.0
  0
ARC
  5
62579
330
2
100
AcDbEntity
  8
中心线
100
AcDbCircle
 10
4557.285031492124
 20
4143.259581221065
 30
0.0
 40
55.0
100
AcDbArc
 50
270.0
 51
0.0
  0
ARC
  5
6257A
330
2
100
AcDbEntity
  8
0
100
AcDbCircle
 10
4557.285031492124
 20
4143.259581221065
 30
0.0
 40
70.9
100
AcDbArc
 50
270.0
 51
0.0
  0
ARC
  5
6257B
330
2
100
AcDbEntity
  8
0
100
AcDbCircle
 10
4557.285031492124
 20
4143.259581221065
 30
0.0
 40
39.1
100
AcDbArc
 50
270.0
 51
0.0
  0
LINE
  5
6257C
330
2
100
AcDbEntity
  8
0
100
AcDbLine
 10
4612.285031492123
 20
4176.259581221064
 30
0.0
 11
4640.785031492123
 21
4176.259581221064
 31
0.0
  0
LINE
  5
6257D
330
2
100
AcDbEntity
  8
0
100
AcDbLine
 10
4640.785031492123
 20
4176.259581221064
 30
0.0
 11
4640.785031492123
 21
4163.259581221065
 31
0.0
  0
LINE
  5
6257E
330
2
100
AcDbEntity
  8
0
100
AcDbLine
 10
4640.785031492123
 20
4163.259581221065
 30
0.0
 11
4612.285031492125
 21
4163.259581221065
 31
0.0
  0
LINE
  5
6257F
330
2
100
AcDbEntity
  8
0
100
AcDbLine
 10
4612.285031492125
 20
4176.259581221064
 30
0.0
 11
4583.785031492126
 21
4176.259581221064
 31
0.0
  0
LINE
  5
62580
330
2
100
AcDbEntity
  8
0
100
AcDbLine
 10
4583.785031492126
 20
4176.259581221064
 30
0.0
 11
4583.785031492126
 21
4163.259581221065
 31
0.0
  0
LINE
  5
62581
330
2
100
AcDbEntity
  8
0
100
AcDbLine
 10
4583.785031492126
 20
4163.259581221065
 30
0.0
 11
4612.285031492123
 21
4163.259581221065
 31
0.0
  0
LINE
  5
62582
330
2
100
AcDbEntity
  8
中心线
100
AcDbLine
 10
4700.101129231343
 20
4176.259581221064
 30
0.0
 11
4157.236718606183
 21
4176.259581221064
 31
0.0
  0
LINE
  5
62583
330
2
100
AcDbEntity
  8
中心线
100
AcDbLine
 10
4612.285031492124
 20
4143.259581221065
 30
0.0
 11
4612.285031492124
 21
4187.755858269894
 31
0.0
  0
LINE
  5
62584
330
2
100
AcDbEntity
  8
中心线
100
AcDbLine
 10
4612.285031492122
 20
3142.940098328063
 30
0.0
 11
4612.285031492122
 21
3073.024503489542
 31
0.0
  0
LINE
  5
62585
330
2
100
AcDbEntity
  8
0
100
AcDbLine
 10
4240.785031492128
 20
4176.259581221066
 30
0.0
 11
4212.28503149213
 21
4176.259581221065
 31
0.0
  0
LINE
  5
62586
330
2
100
AcDbEntity
  8
0
100
AcDbLine
 10
4183.78503149213
 20
4176.259581221066
 30
0.0
 11
4212.285031492128
 21
4176.259581221065
 31
0.0
  0
LINE
  5
62587
330
2
100
AcDbEntity
  8
0
100
AcDbLine
 10
4240.785031492128
 20
4176.259581221066
 30
0.0
 11
4240.785031492128
 21
4163.259581221066
 31
0.0
  0
LINE
  5
62588
330
2
100
AcDbEntity
  8
0
100
AcDbLine
 10
4183.78503149213
 20
4162.934915779472
 30
0.0
 11
4183.709135730908
 21
4176.259581221065
 31
0.0
  0
LINE
  5
62589
330
2
100
AcDbEntity
  8
0
100
AcDbLine
 10
4240.785031492128
 20
4163.259581221066
 30
0.0
 11
4183.78503149213
 21
4162.934915779472
 31
0.0
  0
ARC
  5
6258A
330
2
100
AcDbEntity
  8
0
100
AcDbCircle
 10
4212.285031492124
 20
4088.259581221066
 30
0.0
 40
15.90000000000009
100
AcDbArc
 50
180.0
 51
0.6526932771456553
  0
LINE
  5
6258B
330
2
100
AcDbEntity
  8
0
100
AcDbLine
 10
4228.185031492124
 20
4088.259581221066
 30
0.0
 11
4227.758262750435
 21
4163.18538224517
 31
0.0
  0
LINE
  5
6258C
330
2
100
AcDbEntity
  8
0
100
AcDbLine
 10
4196.385031492124
 20
4088.259581221066
 30
0.0
 11
4195.959294407713
 21
4163.004258980271
 31
0.0
  0
LINE
  5
6258D
330
2
100
AcDbEntity
  8
中心线
100
AcDbLine
 10
4246.017267428266
 20
3906.57623976294
 30
0.0
 11
4176.585482639803
 21
3906.57623976294
 31
0.0
  0
DIMENSION
  5
6258E
330
2
100
AcDbEntity
  8
标注
100
AcDbDimension
280
     0
  2
*D4
 10
4682.708487133345
 20
4163.259581221065
 30
0.0
 11
4682.708487133345
 21
4222.313152649637
 31
0.0
 70
   160
 71
     5
 42
13.0
 73
     0
 74
     0
 75
     0
  3
线性标注
100
AcDbAlignedDimension
 13
4583.785031492126
 23
4176.259581221064
 33
0.0
 14
4583.785031492126
 24
4163.259581221065
 34
0.0
 50
90.0
100
AcDbRotatedDimension
  0
DIMENSION
  5
6258F
330
2
100
AcDbEntity
  8
标注
100
AcDbDimension
280
     0
  2
*D5
 10
4267.285031492119
 20
3161.576239762936
 30
0.0
 11
4153.739265905418
 21
3051.415839952129
 31
0.0
 70
   164
 71
     5
 42
54.99999999999636
 73
     0
 74
     0
 75
     0
  3
线性标注
100
AcDbRadialDimension
 15
4227.810139226714
 25
3123.278290984519
 35
0.0
 40
0.0
1001
ACAD
1000
DSTYLE
1002
{
1070
   288
1070
     1
1002
}
1001
ACAD_DSTYLE_DIMRADIAL_EXTENSION
1070
   387
1070
     1
1070
   388
1040
4.712388980384689
1070
   390
1040
0.0
  0
DIMENSION
  5
62590
330
2
100
AcDbEntity
  8
标注
100
AcDbDimension
280
     0
  2
*D6
 10
4557.285031492123
 20
4143.259581221074
 30
0.0
 11
4668.115103116464
 21
4010.079891931978
 31
0.0
 70
   164
 71
     5
 42
55.00000000000955
 73
     0
 74
     0
 75
     0
  3
线性标注
100
AcDbRadialDimension
 15
4592.466501927658
 25
4100.983534362425
 35
0.0
 40
0.0
1001
ACAD
1000
DSTYLE
1002
{
1070
   288
1070
     1
1002
}
1001
ACAD_DSTYLE_DIMRADIAL_EXTENSION
1070
   387
1070
     1
1070
   388
1040
3.141592653589793
1070
   390
1040
4.712388980384689
  0
DIMENSION
  5
62591
330
2
100
AcDbEntity
  8
标注
100
AcDbDimension
280
     0
  2
*D7
 10
4636.831475291091
 20
3092.094454761632
 30
0.0
 11
4523.451712261569
 21
3177.59110303867
 31
0.0
 70
    35
  1
{\fGulim|b0|i0|c129|p34;3-<>}
 71
     5
 42
56.99999999999818
 73
     0
 74
     0
 75
     0
  3
线性标注
100
AcDbDiametricDimension
 15
4587.738587693157
 25
3121.058024764247
 35
0.0
 40
0.0
1001
ACAD
1000
DSTYLE
1002
{
1070
   288
1070
     1
1002
}
1001
ACAD_DSTYLE_DIMRADIAL_EXTENSION
1070
   387
1070
     1
1070
   388
1040
0.5918468992120046
1070
   390
1040
5.691338407967581
  0
LINE
  5
62594
330
2
100
AcDbEntity
  8
0
100
AcDbLine
 10
4301.93526675477
 20
3203.89125664354
 30
0.0
 11
4301.93526675477
 21
3232.271418651938
 31
0.0
  0
LWPOLYLINE
  5
62595
330
2
100
AcDbEntity
  8
0
100
AcDbPolyline
 90
        2
 70
     0
 10
4301.93526675477
 20
3232.271418651938
 40
2.0
 41
0.0
 10
4370.849628128458
 20
3232.271418651938
 40
0.0
 41
0.0
  0
LINE
  5
62596
330
2
100
AcDbEntity
  8
0
100
AcDbLine
 10
4303.496930427978
 20
2789.491271467475
 30
0.0
 11
4304.210305575192
 21
2761.12007671783
 31
0.0
  0
LWPOLYLINE
  5
62597
330
2
100
AcDbEntity
  8
0
100
AcDbPolyline
 90
        2
 70
     0
 10
4304.210305575192
 20
2761.12007671783
 40
1.999999999999999
 41
0.0
 10
4373.102892129197
 20
2762.852335775252
 40
0.0
 41
0.0
  0
MTEXT
  5
62598
330
2
100
AcDbEntity
  8
0
100
AcDbMText
 10
4274.894267633563
 20
3247.053373316412
 30
0.0
 40
30.0
 41
201.7942574699391
 46
0.0
 71
     1
 72
     5
  1
A
  7
黑体
 73
     1
 44
1.0
  0
LINE
  5
6259A
330
2
100
AcDbEntity
  8
0
100
AcDbLine
 10
4212.285031492124
 20
4072.359581221066
 30
0.0
 11
4557.285031492124
 21
4072.359581221065
 31
0.0
  0
DIMENSION
  5
6259B
330
2
100
AcDbEntity
  8
标注
100
AcDbDimension
280
     0
  2
*D3
 10
4693.711020067591
 20
4088.259581221064
 30
0.0
 11
4693.711020067591
 21
4132.259581221066
 31
0.0
 70
   160
 71
     5
 42
88.0
 73
     0
 74
     0
 75
     0
  3
线性标注
100
AcDbAlignedDimension
 13
4640.785031492123
 23
4176.259581221064
 33
0.0
 14
4557.285031492124
 24
4088.259581221064
 34
0.0
 50
90.0
100
AcDbRotatedDimension
  0
DIMENSION
  5
626E5
330
2
100
AcDbEntity
  8
标注
100
AcDbDimension
280
     0
  2
*D8
 10
3976.821504503254
 20
3106.576239762941
 30
0.0
 11
3961.196504503252
 21
3506.57623976294
 31
0.0
 70
    32
 71
     5
 42
799.9999999999995
 73
     0
 74
     0
 75
     0
  3
线性标注
100
AcDbAlignedDimension
 13
4211.301375034034
 23
3906.57623976294
 33
0.0
 14
4267.285031492123
 24
3106.576239762941
 34
0.0
 50
90.0
100
AcDbRotatedDimension
  0
DIMENSION
  5
626F2
330
2
100
AcDbEntity
  8
标注
100
AcDbDimension
280
     0
  2
*D9
 10
4612.285031492122
 20
2822.402953693533
 30
0.0
 11
4412.12717042931
 21
2838.027953693533
 31
0.0
 70
    32
  1
400
 71
     5
 42
400.3157221256251
 73
     0
 74
     0
 75
     0
  3
线性标注
100
AcDbAlignedDimension
 13
4211.969309366497
 23
3112.481443537623
 33
0.0
 14
4612.285031492122
 24
3070.875104661556
 34
0.0
100
AcDbRotatedDimension
  0
LINE
  5
629F8
330
2
100
AcDbEntity
  8
0
  6
Continuous
 62
     7
100
AcDbLine
 10
5636.196146284277
 20
3938.889563255731
 30
0.0
 11
5642.867494594823
 21
3944.802028293404
 31
0.0
  0
LINE
  5
629F9
330
2
100
AcDbEntity
  8
0
  6
Continuous
 62
     7
100
AcDbLine
 10
5642.813173884081
 20
3931.423219587308
 30
0.0
 11
5627.417754712454
 21
3917.77906950619
 31
0.0
  0
LINE
  5
629FA
330
2
100
AcDbEntity
  8
0
  6
Continuous
 62
     7
100
AcDbLine
 10
5659.513291178541
 20
3912.579590307732
 30
0.0
 11
5644.117872006915
 21
3898.935440226612
 31
0.0
  0
LINE
  5
629FB
330
2
100
AcDbEntity
  8
0
  6
Continuous
 62
     7
100
AcDbLine
 10
5666.130318778279
 20
3905.113246639381
 30
0.0
 11
5672.801667088826
 21
3911.025711677054
 31
0.0
  0
LINE
  5
629FC
330
2
100
AcDbEntity
  8
0
  6
Continuous
 62
     7
100
AcDbLine
 10
5662.74846310893
 20
3287.374112644138
 30
0.0
 11
5664.679388346635
 21
3289.085390099138
 31
0.0
  0
LINE
  5
629FD
330
2
100
AcDbEntity
  8
0
  6
Continuous
 62
     7
100
AcDbLine
 10
5670.795273780677
 20
3278.672276741847
 30
0.0
 11
5650.48706491347
 21
3260.674179608275
 31
0.0
  0
LINE
  5
629FE
330
2
100
AcDbEntity
  8
0
  6
Continuous
 62
     7
100
AcDbLine
 10
5686.065608003258
 20
3261.064139696065
 30
0.0
 11
5663.061288975953
 21
3240.676621966049
 31
0.0
  0
LINE
  5
629FF
330
2
100
AcDbEntity
  8
0
  6
Continuous
 62
     7
100
AcDbLine
 10
5692.682635602996
 20
3253.597796027714
 30
0.0
 11
5699.353983913542
 21
3259.510261065386
 31
0.0
  0
LINE
  5
62A00
330
2
100
AcDbEntity
  8
0
  6
Continuous
 62
     7
100
AcDbLine
 10
5622.994535106256
 20
3859.577469428993
 30
0.0
 11
5616.232678627042
 21
3374.172063608491
 31
0.0
  0
LINE
  5
62A01
330
2
100
AcDbEntity
  8
0
  6
Continuous
 62
     7
100
AcDbLine
 10
5597.832131681679
 20
3860.934209761501
 30
0.0
 11
5591.055414099233
 21
3373.886348502957
 31
0.0
  0
LINE
  5
62A02
330
2
100
AcDbEntity
  8
0
  6
Continuous
 62
     7
100
AcDbLine
 10
5643.869643543597
 20
3334.8573341398
 30
0.0
 11
5760.885533005818
 21
3256.038689144804
 31
0.0
  0
LINE
  5
62A03
330
2
100
AcDbEntity
  8
0
  6
Continuous
 62
     7
100
AcDbLine
 10
5808.924293900015
 20
3280.506824931672
 30
0.0
 11
5815.595642210562
 21
3286.419289969342
 31
0.0
  0
LINE
  5
62A04
330
2
100
AcDbEntity
  8
0
  6
Continuous
 62
     7
100
AcDbLine
 10
5815.541321499754
 20
3273.040481263321
 30
0.0
 11
5798.902876964483
 21
3258.294703196167
 31
0.0
  0
LINE
  5
62A05
330
2
100
AcDbEntity
  8
0
  6
Continuous
 62
     7
100
AcDbLine
 10
5832.241438794214
 20
3254.196851983746
 30
0.0
 11
5815.602994258944
 21
3239.45107391659
 31
0.0
  0
LINE
  5
62A06
330
2
100
AcDbEntity
  8
0
  6
Continuous
 62
     7
100
AcDbLine
 10
5838.858466393952
 20
3246.730508315395
 30
0.0
 11
5845.529814704497
 21
3252.642973353066
 31
0.0
  0
SPLINE
  5
62A07
330
2
100
AcDbEntity
  8
0
  6
Continuous
 62
     7
100
AcDbSpline
210
0.0
220
0.0
230
1.0
 70
  1064
 71
     3
 72
     9
 73
     5
 74
     3
 42
0.000000001
 43
0.0000000001
 44
0.0000000001
 12
-0.0113474091524688
 22
0.9999356160801188
 32
0.0
 13
0.7434906739781395
 23
0.6687463029486832
 33
0.0
 40
0.0
 40
0.0
 40
0.0
 40
0.0
 40
3.819077522049864
 40
6.556245900077554
 40
6.556245900077554
 40
6.556245900077554
 40
6.556245900077554
 10
5806.707512899301
 20
3274.503835777581
 30
0.0
 10
5806.693067354224
 20
3275.77677965587
 30
0.0
 10
5806.968733684688
 20
3278.023333367242
 30
0.0
 10
5808.251250680267
 20
3279.896837411619
 30
0.0
 10
5808.929603734323
 20
3280.506994489404
 30
0.0
 11
5806.707512899301
 21
3274.503835777581
 31
0.0
 11
5807.35586626003
 21
3278.267476440431
 31
0.0
 11
5808.929603734323
 21
3280.506994489404
 31
0.0
  0
SPLINE
  5
62A08
330
2
100
AcDbEntity
  8
0
  6
Continuous
 62
     7
100
AcDbSpline
210
0.0
220
0.0
230
1.0
 70
  1064
 71
     3
 72
     9
 73
     5
 74
     3
 42
0.000000001
 43
0.0000000001
 44
0.0000000001
 12
-0.0113474091524688
 22
0.9999356160801188
 32
0.0
 13
0.7434906739781395
 23
0.6687463029486832
 33
0.0
 40
0.0
 40
0.0
 40
0.0
 40
0.0
 40
3.819077522052413
 40
6.556245899699575
 40
6.556245899699575
 40
6.556245899699575
 40
6.556245899699575
 10
5660.531682108276
 20
3281.371123489973
 30
0.0
 10
5660.5172365632
 20
3282.644067368263
 30
0.0
 10
5660.792902893685
 20
3284.890621079477
 30
0.0
 10
5662.075419889047
 20
3286.764125123838
 30
0.0
 10
5662.753772943011
 20
3287.374282201538
 30
0.0
 11
5660.531682108276
 21
3281.371123489973
 31
0.0
 11
5661.180035469008
 21
3285.134764152825
 31
0.0
 11
5662.753772943011
 21
3287.374282201538
 31
0.0
  0
SPLINE
  5
62A09
330
2
100
AcDbEntity
  8
0
  6
Continuous
 62
     7
100
AcDbSpline
210
0.0
220
0.0
230
1.0
 70
  1064
 71
     3
 72
     9
 73
     5
 74
     3
 42
0.000000001
 43
0.0000000001
 44
0.0000000001
 12
0.0113474091524688
 22
-0.9999356160801188
 32
0.0
 13
-0.7434906739781395
 23
-0.6687463029486832
 33
0.0
 40
0.0
 40
0.0
 40
0.0
 40
0.0
 40
3.819077538867968
 40
6.556245916920747
 40
6.556245916920747
 40
6.556245916920747
 40
6.556245916920747
 10
5847.746595687365
 20
3258.645962527297
 30
0.0
 10
5847.761041232504
 20
3257.373018643402
 30
0.0
 10
5847.485374929942
 20
3255.126464921252
 30
0.0
 10
5846.202857924316
 20
3253.252960873049
 30
0.0
 10
5845.524504870253
 20
3252.642803795259
 30
0.0
 11
5847.746595687365
 21
3258.645962527297
 31
0.0
 11
5847.098242344485
 21
3254.882321844307
 31
0.0
 11
5845.524504870253
 21
3252.642803795259
 31
0.0
  0
SPLINE
  5
62A0A
330
2
100
AcDbEntity
  8
0
  6
Continuous
 62
     7
100
AcDbSpline
210
0.0
220
0.0
230
1.0
 70
     8
 71
     3
 72
     9
 73
     5
 74
     0
 42
0.000000001
 43
0.0000000001
 40
1.091422250521787
 40
1.091422250521787
 40
1.091422250521787
 40
1.091422250521787
 40
3.819077538993468
 40
6.556245917000102
 40
6.556245917000102
 40
6.556245917000102
 40
6.556245917000102
 10
5701.536377618782
 20
3264.416939923523
 30
0.0
 10
5701.465527453454
 20
3263.502674148792
 30
0.0
 10
5701.096042752148
 20
3261.681869273708
 30
0.0
 10
5700.027027133218
 20
3260.120248585506
 30
0.0
 10
5699.348674079167
 20
3259.510091507725
 30
0.0
  0
SPLINE
  5
62A0B
330
2
100
AcDbEntity
  8
0
  6
Continuous
 62
     7
100
AcDbSpline
210
0.0
220
0.0
230
1.0
 70
  1064
 71
     3
 72
    11
 73
     7
 74
     5
 42
0.000000001
 43
0.0000000001
 44
0.0000000001
 12
0.7530395479034544
 22
0.6579752573565065
 32
0.0
 13
0.8447734460384365
 23
-0.535124120992826
 33
0.0
 40
0.0
 40
0.0
 40
0.0
 40
0.0
 40
2.176266987903719
 40
5.867445416908591
 40
10.42007297258383
 40
15.84535705397384
 40
15.84535705397384
 40
15.84535705397384
 40
15.84535705397384
 10
5642.871824740517
 20
3944.79213054264
 30
0.0
 10
5643.418096443412
 20
3945.269440486455
 30
0.0
 10
5645.140437018618
 20
3946.302210995316
 30
0.0
 10
5648.731361939596
 20
3946.559982418858
 30
0.0
 10
5653.171617961191
 20
3945.368084143765
 30
0.0
 10
5656.137509636571
 20
3943.805567355888
 30
0.0
 10
5657.665221612962
 20
3942.837833897491
 30
0.0
 11
5642.871824740517
 21
3944.79213054264
 31
0.0
 11
5644.736973772559
 21
3945.913449895416
 31
0.0
 11
5648.401806760515
 21
3946.353674116859
 31
0.0
 11
5652.830826994991
 21
3945.300015052792
 31
0.0
 11
5657.665221612962
 21
3942.837833897491
 31
0.0
  0
SPLINE
  5
62A0C
330
2
100
AcDbEntity
  8
0
  6
Continuous
 62
     7
100
AcDbSpline
210
0.0
220
0.0
230
1.0
 70
  1064
 71
     3
 72
    12
 73
     8
 74
     6
 42
0.000000001
 43
0.0000000001
 44
0.0000000001
 12
-0.3895112067317965
 22
0.9210217260360037
 32
0.0
 13
0.753039547028385
 23
0.6579752583580064
 33
0.0
 40
0.0
 40
0.0
 40
0.0
 40
0.0
 40
0.5167795448299724
 40
5.666261336069814
 40
9.914337872993574
 40
13.38302354622582
 40
14.45514386512318
 40
14.45514386512318
 40
14.45514386512318
 40
14.45514386512318
 10
5635.799834126517
 20
3925.225607193591
 30
0.0
 10
5635.732736985143
 20
3925.384262256378
 30
0.0
 10
5635.011811390647
 20
3927.129636879893
 30
0.0
 10
5634.03552947748
 20
3930.317256229186
 30
0.0
 10
5633.824640018114
 20
3934.658258692456
 30
0.0
 10
5634.876847160297
 20
3937.542625823169
 30
0.0
 10
5635.931360076875
 20
3938.644522605975
 30
0.0
 10
5636.200476409976
 20
3938.879665487248
 30
0.0
 11
5635.799834126517
 21
3925.225607193591
 31
0.0
 11
5635.60259144434
 21
3925.70326441617
 31
0.0
 11
5634.178374604822
 21
3930.651877263457
 31
0.0
 11
5634.130169944823
 21
3934.899680292591
 31
0.0
 11
5635.461882714603
 21
3938.102541731757
 31
0.0
 11
5636.200476409976
 21
3938.879665487248
 31
0.0
  0
SPLINE
  5
62A0D
330
2
100
AcDbEntity
  8
0
  6
Continuous
 62
     7
100
AcDbSpline
210
0.0
220
0.0
230
1.0
 70
  1064
 71
     3
 72
    15
 73
    11
 74
     9
 42
0.000000001
 43
0.0000000001
 44
0.0000000001
 12
0.8447734461180886
 22
-0.5351241208670836
 32
0.0
 13
-0.7530395474614253
 23
-0.6579752578624002
 33
0.0
 40
0.0
 40
0.0
 40
0.0
 40
0.0
 40
6.081296221203643
 40
12.48248407842817
 40
18.81849787829275
 40
24.71386218431135
 40
29.86334397555162
 40
34.11142049498372
 40
37.58010620399931
 40
38.65222652060217
 40
38.65222652060217
 40
38.65222652060217
 40
38.65222652060217
 10
5657.665221612962
 20
3942.837833897491
 30
0.0
 10
5659.377660801513
 20
3941.753084466123
 30
0.0
 10
5662.695242941707
 20
3939.207255003482
 30
0.0
 10
5667.081409971771
 20
3934.69655900642
 30
0.0
 10
5670.762834856174
 20
3929.667471656664
 30
0.0
 10
5673.458085705295
 20
3924.510162127603
 30
0.0
 10
5674.961929528221
 20
3919.599001703932
 30
0.0
 10
5675.173245757942
 20
3915.256815386533
 30
0.0
 10
5674.120960871396
 20
3912.372664015578
 30
0.0
 10
5673.066453278022
 20
3911.270752346198
 30
0.0
 10
5672.797336945342
 20
3911.035609465606
 30
0.0
 11
5657.665221612962
 21
3942.837833897491
 31
0.0
 11
5662.513336698246
 21
3939.166601972119
 31
0.0
 11
5666.982406824543
 21
3934.583740618149
 31
0.0
 11
5670.710374486199
 21
3929.460526003698
 31
0.0
 11
5673.395221910911
 21
3924.212010536758
 31
0.0
 11
5674.819438750429
 21
3919.26339768947
 31
0.0
 11
5674.867643430421
 21
3915.015594678056
 31
0.0
 11
5673.535930658498
 21
3911.812733201029
 31
0.0
 11
5672.797336945342
 21
3911.035609465606
 31
0.0
  0
SPLINE
  5
62A0E
330
2
100
AcDbEntity
  8
0
  6
Continuous
 62
     7
100
AcDbSpline
210
0.0
220
0.0
230
1.0
 70
  1064
 71
     3
 72
    11
 73
     7
 74
     5
 42
0.000000001
 43
0.0000000001
 44
0.0000000001
 12
-0.7530395471789589
 22
-0.6579752581856777
 32
0.0
 13
-0.867508983538104
 23
0.4974215148952501
 33
0.0
 40
0.0
 40
0.0
 40
0.0
 40
0.0
 40
2.176267009637489
 40
5.867445416297158
 40
10.42007297213171
 40
14.4460123806373
 40
14.4460123806373
 40
14.4460123806373
 40
14.4460123806373
 10
5666.125988635088
 20
3905.123144428195
 30
0.0
 10
5665.579716927261
 20
3904.645834479013
 30
0.0
 10
5663.857351921851
 20
3903.613078766533
 30
0.0
 10
5660.266617770107
 20
3903.355191573608
 30
0.0
 10
5656.280030677239
 20
3904.425613879961
 30
0.0
 10
5653.698982787934
 20
3905.684230695054
 30
0.0
 10
5652.534803253248
 20
3906.35176032154
 30
0.0
 11
5666.125988635088
 21
3905.123144428195
 31
0.0
 11
5664.260839600606
 21
3904.001825037295
 31
0.0
 11
5660.596006633006
 21
3903.561600833763
 31
0.0
 11
5656.1669863984
 21
3904.615259897976
 31
0.0
 11
5652.534803253248
 21
3906.35176032154
 31
0.0
  0
SPLINE
  5
62A0F
330
2
100
AcDbEntity
  8
0
  6
Continuous
 62
     7
100
AcDbSpline
210
0.0
220
0.0
230
1.0
 70
  1064
 71
     3
 72
    14
 73
    10
 74
     8
 42
0.000000001
 43
0.0000000001
 44
0.0000000001
 12
-0.7483901213484037
 22
-0.6632587928313666
 32
0.0
 13
0.0113474093246036
 23
-0.9999356160781653
 33
0.0
 40
0.0
 40
0.0
 40
0.0
 40
0.0
 40
9.625353045975352
 40
19.44753915169856
 40
29.34886950142102
 40
39.1861326170405
 40
48.83681769336778
 40
58.21932477771597
 40
67.1893907981514
 40
67.1893907981514
 40
67.1893907981514
 40
67.1893907981514
 10
5627.417754712454
 20
3917.77906950619
 30
0.0
 10
5625.016581667756
 20
3915.651036158905
 30
0.0
 10
5620.44618612985
 20
3911.028313757088
 30
0.0
 10
5614.336119835417
 20
3903.369403974732
 30
0.0
 10
5608.949140521257
 20
3895.100751515525
 30
0.0
 10
5604.39486101249
 20
3886.410412669014
 30
0.0
 10
5600.813320923772
 20
3877.456419084655
 30
0.0
 10
5598.40960693561
 20
3868.411793892798
 30
0.0
 10
5597.783341574845
 20
3862.281583820929
 30
0.0
 10
5597.817270578445
 20
3859.291754323459
 30
0.0
 11
5627.417754712454
 21
3917.77906950619
 31
0.0
 11
5620.620233082688
 21
3910.964297246419
 31
0.0
 11
5614.479544989808
 21
3903.298314619162
 31
0.0
 11
5609.072908273135
 21
3895.003459460194
 31
0.0
 11
5604.519430837876
 21
3886.283505971068
 31
0.0
 11
5600.967068272705
 21
3877.31041048244
 31
0.0
 11
5598.622254170662
 21
3868.225627270129
 31
0.0
 11
5597.817270578445
 21
3859.291754323459
 31
0.0
  0
SPLINE
  5
62A10
330
2
100
AcDbEntity
  8
0
  6
Continuous
 62
     7
100
AcDbSpline
210
0.0
220
0.0
230
1.0
 70
  1064
 71
     3
 72
    15
 73
    11
 74
     9
 42
0.000000001
 43
0.0000000001
 44
0.0000000001
 12
-0.7483901213484037
 22
-0.6632587928313666
 32
0.0
 13
0.0113474093466139
 23
-0.9999356160779155
 33
0.0
 40
0.0
 40
0.0
 40
0.0
 40
0.0
 40
5.746519675027718
 40
12.3045785765327
 40
19.27327415034747
 40
26.21081261002493
 40
32.6754992948258
 40
38.26197729449304
 40
42.6427604897665
 40
45.63496698021241
 40
45.63496698021241
 40
45.63496698021241
 40
45.63496698021241
 10
5644.117872006915
 20
3898.935440226612
 30
0.0
 10
5642.684325821273
 20
3897.664963659064
 30
0.0
 10
5639.776997143802
 20
3894.759416832112
 30
0.0
 10
5635.682124959837
 20
3889.798313202391
 30
0.0
 10
5631.82065680617
 20
3884.164060203397
 30
0.0
 10
5628.480978299223
 20
3878.241563839515
 30
0.0
 10
5625.877345869668
 20
3872.462326670655
 30
0.0
 10
5624.121940200247
 20
3867.262763399613
 30
0.0
 10
5623.198998070542
 20
3863.033800770942
 30
0.0
 10
5622.983217175623
 20
3860.574807375812
 30
0.0
 10
5622.994535106255
 20
3859.577469428993
 30
0.0
 11
5644.117872006915
 21
3898.935440226612
 31
0.0
 11
5640.032665437938
 21
3894.893958361717
 31
0.0
 11
5635.844949271744
 21
3889.847061308378
 31
0.0
 11
5631.901206904164
 21
3884.101661919418
 31
0.0
 11
5628.499803016647
 21
3878.055184310637
 31
0.0
 11
5625.861959073031
 21
3872.153154722286
 31
0.0
 11
5624.104640434413
 21
3866.850271766466
 31
0.0
 11
5623.209302339245
 21
3862.561958450098
 31
0.0
 11
5622.994535106255
 21
3859.577469428993
 31
0.0
  0
SPLINE
  5
62A11
330
2
100
AcDbEntity
  8
0
  6
Continuous
 62
     7
100
AcDbSpline
210
0.0
220
0.0
230
1.0
 70
  1064
 71
     3
 72
    14
 73
    10
 74
     8
 42
0.000000001
 43
0.0000000001
 44
0.0000000001
 12
0.0113474092001962
 22
-0.999935616079577
 32
0.0
 13
0.844773446208012
 23
-0.535124120725126
 33
0.0
 40
0.0
 40
0.0
 40
0.0
 40
0.0
 40
9.598311681741487
 40
19.95301417351691
 40
30.68829828515814
 40
41.66247574753265
 40
52.73073961691978
 40
63.72646230956017
 40
74.49216013007379
 40
74.49216013007379
 40
74.49216013007379
 40
74.49216013007379
 10
5591.055414099233
 20
3373.886348502957
 30
0.0
 10
5591.09171942266
 20
3370.687117268021
 30
0.0
 10
5592.010885809603
 20
3364.036713092664
 30
0.0
 10
5595.296154102957
 20
3354.305388519433
 30
0.0
 10
5600.176174631218
 20
3344.759801790717
 30
0.0
 10
5606.322293468835
 20
3335.697397696394
 30
0.0
 10
5613.498282649977
 20
3327.313639294504
 30
0.0
 10
5621.502675512984
 20
3319.820197962023
 30
0.0
 10
5627.364289285927
 20
3315.507208354876
 30
0.0
 10
5630.39581450215
 20
3313.586880161478
 30
0.0
 11
5591.055414099233
 21
3373.886348502957
 31
0.0
 11
5592.257628870695
 21
3364.363624796835
 31
0.0
 11
5595.484913619185
 21
3354.524697170038
 31
0.0
 11
5600.327280750457
 21
3344.943580036654
 31
0.0
 11
5606.466889649543
 21
3335.847549389061
 31
0.0
 11
5613.661801145656
 21
3327.436858950964
 31
0.0
 11
5621.700671789117
 21
3319.934694175971
 31
0.0
 11
5630.39581450215
 21
3313.586880161478
 31
0.0
  0
SPLINE
  5
62A12
330
2
100
AcDbEntity
  8
0
  6
Continuous
 62
     7
100
AcDbSpline
210
0.0
220
0.0
230
1.0
 70
  1064
 71
     3
 72
    15
 73
    11
 74
     9
 42
0.000000001
 43
0.0000000001
 44
0.0000000001
 12
0.0113474090834438
 22
-0.9999356160809021
 32
0.0
 13
0.8447734462957178
 23
-0.5351241205866689
 33
0.0
 40
0.0
 40
0.0
 40
0.0
 40
0.0
 40
3.241067693742702
 40
7.838498028923389
 40
13.66930335342598
 40
20.46517274288815
 40
27.86860967505694
 40
35.46026604888219
 40
42.80371308898523
 40
49.47958046676889
 40
49.47958046676889
 40
49.47958046676889
 40
49.47958046676889
 10
5616.232678627042
 20
3374.172063608491
 30
0.0
 10
5616.244937867372
 20
3373.091777268123
 30
0.0
 10
5616.585819266123
 20
3370.484361375119
 30
0.0
 10
5617.860171109064
 20
3366.096465820901
 30
0.0
 10
5620.173455511149
 20
3360.824949259644
 30
0.0
 10
5623.545858060852
 20
3355.047381065641
 30
0.0
 10
5627.85291190456
 20
3349.182532469505
 30
0.0
 10
5632.849923881011
 20
3343.644709046871
 30
0.0
 10
5638.200400401371
 20
3338.803458201852
 30
0.0
 10
5641.989778379683
 20
3336.048140026362
 30
0.0
 10
5643.869643543597
 20
3334.8573341398
 30
0.0
 11
5616.232678627042
 21
3374.172063608491
 31
0.0
 11
5616.593490033002
 21
3370.951142168165
 31
0.0
 11
5617.828445026777
 21
3366.522682859309
 31
0.0
 11
5620.135555948712
 21
3361.167729084892
 31
0.0
 11
5623.538819781924
 21
3355.285413551008
 31
0.0
 11
5627.910897792941
 21
3349.310816303144
 31
0.0
 11
5632.997624217936
 21
3343.675351745941
 31
0.0
 11
5638.453057267415
 21
3338.759615313477
 31
0.0
 11
5643.869643543597
 21
3334.8573341398
 31
0.0
  0
SPLINE
  5
62A14
330
2
100
AcDbEntity
  8
0
  6
Continuous
 62
     7
100
AcDbSpline
210
0.0
220
0.0
230
1.0
 70
  1064
 71
     3
 72
    12
 73
     8
 74
     6
 42
0.000000001
 43
0.0000000001
 44
0.0000000001
 12
-0.7434906732169289
 22
-0.6687463037949728
 32
0.0
 13
-0.8679377370445255
 23
0.4966730157900953
 33
0.0
 40
0.0
 40
0.0
 40
0.0
 40
0.0
 40
0.5342248178205069
 40
3.913935801714479
 40
8.01420366948006
 40
13.01923659729373
 40
14.43202905005384
 40
14.43202905005384
 40
14.43202905005384
 40
14.43202905005384
 10
5692.677325768915
 20
3253.597626470316
 30
0.0
 10
5692.544928712433
 20
3253.478539512879
 30
0.0
 10
5691.532455724535
 20
3252.651881693737
 30
0.0
 10
5688.861757484304
 20
3251.771400864269
 30
0.0
 10
5684.657871027363
 20
3252.266598227344
 30
0.0
 10
5681.375588415425
 20
3253.584192005711
 30
0.0
 10
5679.494695517642
 20
3254.602858805678
 30
0.0
 10
5679.085956889522
 20
3254.836757435077
 30
0.0
 11
5692.677325768915
 21
3253.597626470316
 31
0.0
 11
5692.263100900481
 21
3253.260263291612
 31
0.0
 11
5689.096582441508
 21
3252.078905097143
 31
0.0
 11
5685.008040371336
 21
3252.388776567059
 31
0.0
 11
5680.328704035956
 21
3254.164773771134
 31
0.0
 11
5679.085956889522
 21
3254.836757435077
 31
0.0
  0
SPLINE
  5
62A15
330
2
100
AcDbEntity
  8
0
  6
Continuous
 62
     7
100
AcDbSpline
210
0.0
220
0.0
230
1.0
 70
  1064
 71
     3
 72
     9
 73
     5
 74
     3
 42
0.000000001
 43
0.0000000001
 44
0.0000000001
 12
-0.3891211219185763
 22
0.9211866002481954
 32
0.0
 13
-0.0113474096351431
 23
0.9999356160746412
 33
0.0
 40
0.0
 40
0.0
 40
0.0
 40
0.0
 40
3.172712197869083
 40
7.877370510636962
 40
7.877370510636962
 40
7.877370510636962
 40
7.877370510636962
 10
5662.339600883676
 20
3273.736699181779
 30
0.0
 10
5661.928077773689
 20
3274.710919169486
 30
0.0
 10
5661.036392833537
 20
3277.181734922545
 30
0.0
 10
5660.549477336632
 20
3279.803005020506
 30
0.0
 10
5660.531682108276
 20
3281.371123489973
 30
0.0
 11
5662.339600883676
 21
3273.736699181779
 31
0.0
 11
5661.275463492469
 21
3276.725631148743
 31
0.0
 11
5660.531682108276
 21
3281.371123489973
 31
0.0
  0
SPLINE
  5
62A16
330
2
100
AcDbEntity
  8
0
  6
Continuous
 62
     7
100
AcDbSpline
210
0.0
220
0.0
230
1.0
 70
  1064
 71
     3
 72
    17
 73
    13
 74
    11
 42
0.000000001
 43
0.0000000001
 44
0.0000000001
 12
0.7434906736401436
 22
0.6687463033244562
 32
0.0
 13
0.0113474094845128
 23
-0.9999356160763504
 33
0.0
 40
0.0
 40
0.0
 40
0.0
 40
0.0
 40
0.5342248178193581
 40
3.913935801713114
 40
8.014203669549697
 40
13.01923657335232
 40
18.80900022980835
 40
25.09674517974528
 40
31.51421776068955
 40
37.67398391875851
 40
43.22746023664004
 40
47.93211856395672
 40
47.93211856395672
 40
47.93211856395672
 40
47.93211856395672
 10
5815.600952044578
 20
3286.419459526817
 30
0.0
 10
5815.733349101136
 20
3286.53854648417
 30
0.0
 10
5816.745827141502
 20
3287.365201820872
 30
0.0
 10
5819.416384129346
 20
3288.24575205729
 30
0.0
 10
5823.621060236721
 20
3287.750166680961
 30
0.0
 10
5828.265355425511
 20
3285.886173440336
 30
0.0
 10
5833.068307552172
 20
3282.776278300057
 30
0.0
 10
5837.684104258913
 20
3278.657150176924
 30
0.0
 10
5841.758001635928
 20
3273.840528471784
 30
0.0
 10
5844.97634963675
 20
3268.695947066066
 30
0.0
 10
5847.095861431293
 20
3263.624488527288
 30
0.0
 10
5847.72880045919
 20
3260.214081001616
 30
0.0
 10
5847.746595687365
 20
3258.645962527297
 30
0.0
 11
5815.600952044578
 21
3286.419459526817
 31
0.0
 11
5816.015176913012
 21
3286.756822705519
 31
0.0
 11
5819.181695371984
 21
3287.93818089999
 31
0.0
 11
5823.270237442222
 21
3287.628309429998
 31
0.0
 11
5827.949573759621
 21
3285.852312246212
 31
0.0
 11
5832.840612358202
 21
3282.754070063165
 31
0.0
 11
5837.547110308208
 21
3278.584584051432
 31
0.0
 11
5841.687775185729
 21
3273.681641190329
 31
0.0
 11
5844.927154962473
 21
3268.442448715899
 31
0.0
 11
5847.002814323461
 21
3263.291454886509
 31
0.0
 11
5847.746595687365
 21
3258.645962527297
 31
0.0
  0
SPLINE
  5
62A17
330
2
100
AcDbEntity
  8
0
  6
Continuous
 62
     7
100
AcDbSpline
210
0.0
220
0.0
230
1.0
 70
  1064
 71
     3
 72
    14
 73
    10
 74
     8
 42
0.000000001
 43
0.0000000001
 44
0.0000000001
 12
-0.7483901213484037
 22
-0.6632587928313666
 32
0.0
 13
-0.844773446193424
 23
0.5351241207481549
 33
0.0
 40
0.0
 40
0.0
 40
0.0
 40
0.0
 40
9.915748993881747
 40
20.29310153733329
 40
30.89589415420077
 40
41.58707483827822
 40
52.2290208991243
 40
62.68768533098725
 40
72.82254914842623
 40
72.82254914842623
 40
72.82254914842623
 40
72.82254914842623
 10
5815.602994258944
 20
3239.45107391659
 30
0.0
 10
5813.129378061347
 20
3237.258838014022
 30
0.0
 10
5807.560756204496
 20
3233.319460744646
 30
0.0
 10
5798.100265651306
 20
3229.105899092691
 30
0.0
 10
5787.785735963571
 20
3226.608052924449
 30
0.0
 10
5777.11253319619
 20
3225.907643516148
 30
0.0
 10
5766.520201765104
 20
3227.012070117284
 30
0.0
 10
5756.456631964621
 20
3229.87845358168
 30
0.0
 10
5750.267213815593
 20
3232.962899802194
 30
0.0
 10
5747.413325871008
 20
3234.770703165264
 30
0.0
 11
5815.602994258944
 21
3239.45107391659
 31
0.0
 11
5807.533370713395
 21
3233.688847442145
 31
0.0
 11
5798.069365601901
 21
3229.431846965201
 31
0.0
 11
5787.769473840066
 21
3226.915611489181
 31
0.0
 11
5777.101590094524
 21
3226.210203230659
 31
0.0
 11
5766.518144288247
 21
3227.324515048576
 31
0.0
 11
5756.467210159864
 21
3230.216293886111
 31
0.0
 11
5747.413325871008
 21
3234.770703165264
 31
0.0
  0
SPLINE
  5
62A18
330
2
100
AcDbEntity
  8
0
  6
Continuous
 62
     7
100
AcDbSpline
210
0.0
220
0.0
230
1.0
 70
  1064
 71
     3
 72
    14
 73
    10
 74
     8
 42
0.000000001
 43
0.0000000001
 44
0.0000000001
 12
-0.7483901213484037
 22
-0.6632587928313666
 32
0.0
 13
-0.8447734463360989
 23
0.5351241205229217
 33
0.0
 40
0.0
 40
0.0
 40
0.0
 40
0.0
 40
4.965284106213572
 40
10.52872056756189
 40
16.56573125538241
 40
22.84095999040596
 40
29.07832324156281
 40
35.0023085882352
 40
40.39277011991144
 40
40.39277011991144
 40
40.39277011991144
 40
40.39277011991144
 10
5798.902876964483
 20
3258.294703196167
 30
0.0
 10
5797.664220439557
 20
3257.196947082049
 30
0.0
 10
5794.748026487537
 20
3255.187749466888
 30
0.0
 10
5789.653115031825
 20
3252.985312406074
 30
0.0
 10
5783.824570665407
 20
3251.609866997026
 30
0.0
 10
5777.626058316998
 20
3251.210489272394
 30
0.0
 10
5771.482534633764
 20
3251.83392078351
 30
0.0
 10
5765.819118784175
 20
3253.410116914589
 30
0.0
 10
5762.405061167738
 20
3255.079635147989
 30
0.0
 10
5760.887154912587
 20
3256.041157143439
 30
0.0
 11
5798.902876964483
 21
3258.294703196167
 31
0.0
 11
5794.842088695698
 21
3255.437423914836
 31
0.0
 11
5789.749397871078
 21
3253.197708436413
 31
0.0
 11
5783.878271124278
 21
3251.792230308564
 31
0.0
 11
5777.616344718
 21
3251.383851367841
 31
0.0
 11
5771.411879320469
 21
3252.023624341422
 31
0.0
 11
5765.711870570513
 21
3253.63716164747
 31
0.0
 11
5760.887154912587
 21
3256.041157143439
 31
0.0
  0
SPLINE
  5
62A19
330
2
100
AcDbEntity
  8
0
  6
Continuous
 62
     7
100
AcDbSpline
210
0.0
220
0.0
230
1.0
 70
  1064
 71
     3
 72
    12
 73
     8
 74
     6
 42
0.000000001
 43
0.0000000001
 44
0.0000000001
 12
-0.7434906732169289
 22
-0.6687463037949728
 32
0.0
 13
-0.8679377370445255
 23
0.4966730157900953
 33
0.0
 40
0.0
 40
0.0
 40
0.0
 40
0.0
 40
0.5342248178283063
 40
3.913935802015527
 40
8.014203689316317
 40
13.01923659284971
 40
14.43202904570187
 40
14.43202904570187
 40
14.43202904570187
 40
14.43202904570187
 10
5838.853156559999
 20
3246.730338757849
 30
0.0
 10
5838.720759503514
 20
3246.611251800409
 30
0.0
 10
5837.708286515049
 20
3245.784593982064
 30
0.0
 10
5835.037588268218
 20
3244.904113143172
 30
0.0
 10
5830.833701816504
 20
3245.399310545228
 30
0.0
 10
5827.551419198736
 20
3246.716904294836
 30
0.0
 10
5825.67052630869
 20
3247.73557109327
 30
0.0
 10
5825.261787680542
 20
3247.969469722684
 30
0.0
 11
5838.853156559999
 21
3246.730338757849
 31
0.0
 11
5838.438931691435
 21
3246.392975579292
 31
0.0
 11
5835.272413232301
 21
3245.211617384416
 31
0.0
 11
5831.183871144081
 21
3245.521488874695
 31
0.0
 11
5826.504534827041
 21
3247.297486058668
 31
0.0
 11
5825.261787680542
 21
3247.969469722684
 31
0.0
  0
SPLINE
  5
62A1A
330
2
100
AcDbEntity
  8
0
  6
Continuous
 62
     7
100
AcDbSpline
210
0.0
220
0.0
230
1.0
 70
  1064
 71
     3
 72
     9
 73
     5
 74
     3
 42
0.000000001
 43
0.0000000001
 44
0.0000000001
 12
-0.3891211219185763
 22
0.9211866002481954
 32
0.0
 13
-0.0113474096351431
 23
0.9999356160746412
 33
0.0
 40
0.0
 40
0.0
 40
0.0
 40
0.0
 40
3.172712197961429
 40
7.877370525277367
 40
7.877370525277367
 40
7.877370525277367
 40
7.877370525277367
 10
5808.515431654473
 20
3266.86941145133
 30
0.0
 10
5808.103908544474
 20
3267.843631439065
 30
0.0
 10
5807.212223595136
 20
3270.31444719553
 30
0.0
 10
5806.725308127711
 20
3272.935717303266
 30
0.0
 10
5806.707512899301
 20
3274.503835777581
 30
0.0
 11
5808.515431654473
 21
3266.86941145133
 31
0.0
 11
5807.451294263202
 21
3269.858343418369
 31
0.0
 11
5806.707512899301
 21
3274.503835777581
 31
0.0
  0
SPLINE
  5
62A1B
330
2
100
AcDbEntity
  8
0
  6
Continuous
 62
     7
100
AcDbSpline
210
0.0
220
0.0
230
1.0
 70
  1064
 71
     3
 72
    11
 73
     7
 74
     5
 42
0.000000001
 43
0.0000000001
 44
0.0000000001
 12
-0.8447734460645378
 22
0.5351241209516216
 32
0.0
 13
-0.7418288821719602
 23
-0.670589225663148
 33
0.0
 40
0.0
 40
0.0
 40
0.0
 40
0.0
 40
3.302595118608655
 40
6.010185534448506
 40
8.168537362415108
 40
8.827305407203388
 40
8.827305407203388
 40
8.827305407203388
 40
8.827305407203388
 10
5651.068747898566
 20
3930.327405879056
 30
0.0
 10
5650.138766345465
 20
3930.916505315624
 30
0.0
 10
5648.342456430866
 20
3931.845207795459
 30
0.0
 10
5645.659212017588
 20
3932.474317323436
 30
0.0
 10
5643.74550653145
 20
3932.130302205909
 30
0.0
 10
5642.983919608836
 20
3931.565376648741
 30
0.0
 10
5642.821021888078
 20
3931.418122397726
 30
0.0
 11
5651.068747898566
 21
3930.327405879056
 31
0.0
 11
5648.110891564069
 21
3931.796494175221
 31
0.0
 11
5645.451819629803
 21
3932.306770873051
 31
0.0
 11
5643.351820576821
 21
3931.808286579658
 31
0.0
 11
5642.821021888078
 21
3931.418122397726
 31
0.0
  0
SPLINE
  5
62A1C
330
2
100
AcDbEntity
  8
0
  6
Continuous
 62
     7
100
AcDbSpline
210
0.0
220
0.0
230
1.0
 70
  1064
 71
     3
 72
    11
 73
     7
 74
     5
 42
0.000000001
 43
0.0000000001
 44
0.0000000001
 12
0.7530395479034544
 22
0.6579752573565065
 32
0.0
 13
0.8447734460384365
 23
-0.535124120992826
 33
0.0
 40
0.0
 40
0.0
 40
0.0
 40
0.0
 40
2.176267014557233
 40
5.8674454432384
 40
10.42007299913958
 40
15.84535708038608
 40
15.84535708038608
 40
15.84535708038608
 40
15.84535708038608
 10
5636.200476409976
 20
3938.879665487248
 30
0.0
 10
5636.746748119562
 20
3939.356975436908
 30
0.0
 10
5638.469088697446
 20
3940.389745959468
 30
0.0
 10
5642.060013629874
 20
3940.647517380044
 30
0.0
 10
5646.500269650672
 20
3939.455619107052
 30
0.0
 10
5649.466161326066
 20
3937.893102318192
 30
0.0
 10
5650.993873302416
 20
3936.925368859821
 30
0.0
 11
5636.200476409976
 21
3938.879665487248
 31
0.0
 11
5638.065625462307
 21
3940.000984858006
 31
0.0
 11
5641.730458449968
 21
3940.441209079187
 31
0.0
 11
5646.159478684739
 21
3939.387550015382
 31
0.0
 11
5650.993873302416
 21
3936.925368859821
 31
0.0
  0
SPLINE
  5
62A1D
330
2
100
AcDbEntity
  8
0
  6
Continuous
 62
     7
100
AcDbSpline
210
0.0
220
0.0
230
1.0
 70
  1064
 71
     3
 72
    10
 73
     6
 74
     4
 42
0.000000001
 43
0.0000000001
 44
0.0000000001
 12
-0.8447734471019579
 22
0.5351241193138986
 32
0.0
 13
-0.7483795276579538
 23
-0.6632707460626151
 33
0.0
 40
0.0
 40
0.0
 40
0.0
 40
0.0
 40
3.632351255435063
 40
6.524503982514886
 40
8.807961714634943
 40
8.807961714634943
 40
8.807961714634943
 40
8.807961714634943
 10
5635.673328726942
 20
3916.683255797936
 30
0.0
 10
5634.650490763228
 20
3917.331175386804
 30
0.0
 10
5632.691912202608
 20
3918.320489294206
 30
0.0
 10
5629.744885063265
 20
3918.895659275344
 30
0.0
 10
5627.987385718785
 20
3918.283919744051
 30
0.0
 10
5627.417754712454
 20
3917.77906950619
 30
0.0
 11
5635.673328726942
 21
3916.683255797936
 31
0.0
 11
5632.400151864832
 21
3918.258149087086
 31
0.0
 11
5629.533164699574
 21
3918.638848431714
 31
0.0
 11
5627.417754712454
 21
3917.77906950619
 31
0.0
  0
SPLINE
  5
62A1E
330
2
100
AcDbEntity
  8
0
  6
Continuous
 62
     7
100
AcDbSpline
210
0.0
220
0.0
230
1.0
 70
  1064
 71
     3
 72
    15
 73
    11
 74
     9
 42
0.000000001
 43
0.0000000001
 44
0.0000000001
 12
0.8447734461180886
 22
-0.5351241208670836
 32
0.0
 13
-0.7530395474614253
 23
-0.6579752578624002
 33
0.0
 40
0.0
 40
0.0
 40
0.0
 40
0.0
 40
6.081296221280633
 40
12.48248407850486
 40
18.8184978783687
 40
24.71386218438934
 40
29.86334397579834
 40
34.11142049497231
 40
37.58010620434318
 40
38.65222652055413
 40
38.65222652055413
 40
38.65222652055413
 40
38.65222652055413
 10
5650.993873302416
 20
3936.925368859821
 30
0.0
 10
5652.706312490988
 20
3935.840619428439
 30
0.0
 10
5656.023894631543
 20
3933.294789966238
 30
0.0
 10
5660.410061661504
 20
3928.784093968973
 30
0.0
 10
5664.091486545867
 20
3923.75500661925
 30
0.0
 10
5666.786737395262
 20
3918.597697090175
 30
0.0
 10
5668.290581217386
 20
3913.686536666387
 30
0.0
 10
5668.501897447865
 20
3909.344350348883
 30
0.0
 10
5667.449612560925
 20
3906.460198978155
 30
0.0
 10
5666.395104967669
 20
3905.358287308701
 30
0.0
 10
5666.125988635088
 20
3905.123144428195
 30
0.0
 11
5650.993873302416
 21
3936.925368859821
 31
0.0
 11
5655.841988387994
 21
3933.254136934709
 31
0.0
 11
5660.311058514289
 21
3928.671275580738
 31
0.0
 11
5664.039026175945
 21
3923.548060966287
 31
0.0
 11
5666.723873600659
 21
3918.299545499348
 31
0.0
 11
5668.148090439882
 21
3913.350932651798
 31
0.0
 11
5668.19629512017
 21
3909.103129640647
 31
0.0
 11
5666.864582347951
 21
3905.900268163357
 31
0.0
 11
5666.125988635088
 21
3905.123144428195
 31
0.0
  0
SPLINE
  5
62A1F
330
2
100
AcDbEntity
  8
0
  6
Continuous
 62
     7
100
AcDbSpline
210
0.0
220
0.0
230
1.0
 70
  1064
 71
     3
 72
    10
 73
     6
 74
     4
 42
0.000000001
 43
0.0000000001
 44
0.0000000001
 12
-0.8447734458370121
 22
0.5351241213108048
 32
0.0
 13
-0.010670325620384
 23
0.999943070455091
 33
0.0
 40
0.0
 40
0.0
 40
0.0
 40
0.0
 40
3.752596668236586
 40
7.165903152778986
 40
8.66902525219023
 40
8.66902525219023
 40
8.66902525219023
 40
8.66902525219023
 10
5602.242480388245
 20
3852.210170563365
 30
0.0
 10
5601.185782382156
 20
3852.879538894941
 30
0.0
 10
5599.337816574218
 20
3854.479590769968
 30
0.0
 10
5598.008185384696
 20
3857.156122738168
 30
0.0
 10
5597.822538822037
 20
3858.79774063379
 30
0.0
 10
5597.817192554622
 20
3859.298752809574
 30
0.0
 11
5602.242480388245
 21
3852.210170563365
 31
0.0
 11
5599.455687812547
 21
3854.723289918768
 31
0.0
 11
5597.989188392272
 21
3857.805503507693
 31
0.0
 11
5597.817192554622
 21
3859.298752809574
 31
0.0
  0
SPLINE
  5
62A20
330
2
100
AcDbEntity
  8
0
  6
Continuous
 62
     7
100
AcDbSpline
210
0.0
220
0.0
230
1.0
 70
  1064
 71
     3
 72
    14
 73
    10
 74
     8
 42
0.000000001
 43
0.0000000001
 44
0.0000000001
 12
-0.7483901213484037
 22
-0.6632587928313666
 32
0.0
 13
-0.0126401788475363
 23
0.9999201097481249
 33
0.0
 40
0.0
 40
0.0
 40
0.0
 40
0.0
 40
3.973549820883958
 40
8.242088075210185
 40
12.61412509962596
 40
16.8630682908925
 40
20.80431065388183
 40
24.37271697944319
 40
27.54098867262471
 40
27.54098867262471
 40
27.54098867262471
 40
27.54098867262471
 10
5613.23083545662
 20
3367.95642747329
 30
0.0
 10
5612.239580312408
 20
3367.077930187472
 30
0.0
 10
5609.843544270432
 20
3365.624403867136
 30
0.0
 10
5605.733002474079
 20
3364.538678942342
 30
0.0
 10
5601.388166791219
 20
3364.537735815125
 30
0.0
 10
5597.291731576869
 20
3365.627549309852
 30
0.0
 10
5593.893559519468
 20
3367.70864767735
 30
0.0
 10
5591.622797138346
 20
3370.566719168746
 30
0.0
 10
5591.068893985971
 20
3372.830343932824
 30
0.0
 10
5591.055544812358
 20
3373.886350125876
 30
0.0
 11
5613.23083545662
 21
3367.95642747329
 31
0.0
 11
5609.861943278101
 21
3365.84937653215
 31
0.0
 11
5605.743080962491
 21
3364.728933738565
 31
0.0
 11
5601.371044133528
 21
3364.730241045466
 31
0.0
 11
5597.273164874714
 21
3365.853140783997
 31
0.0
 11
5593.943707984164
 21
3367.962194642435
 31
0.0
 11
5591.784255020829
 21
3370.803019628851
 31
0.0
 11
5591.055544812358
 21
3373.886350125876
 31
0.0
  0
SPLINE
  5
62A21
330
2
100
AcDbEntity
  8
0
  6
Continuous
 62
     7
100
AcDbSpline
210
0.0
220
0.0
230
1.0
 70
  1064
 71
     3
 72
     9
 73
     5
 74
     3
 42
0.000000001
 43
0.0000000001
 44
0.0000000001
 12
0.0113474091524688
 22
-0.9999356160801188
 32
0.0
 13
-0.7434906739781395
 23
-0.6687463029486832
 33
0.0
 40
0.0
 40
0.0
 40
0.0
 40
0.0
 40
3.819077538869312
 40
6.556245916920824
 40
6.556245916920824
 40
6.556245916920824
 40
6.556245916920824
 10
5841.075247377111
 20
3252.733497489888
 30
0.0
 10
5841.08969292225
 20
3251.460553605993
 30
0.0
 10
5840.814026619687
 20
3249.213999883841
 30
0.0
 10
5839.531509614062
 20
3247.340495835639
 30
0.0
 10
5838.853156559999
 20
3246.730338757849
 30
0.0
 11
5841.075247377111
 21
3252.733497489888
 31
0.0
 11
5840.426894034231
 21
3248.969856806896
 31
0.0
 11
5838.853156559999
 21
3246.730338757849
 31
0.0
  0
SPLINE
  5
62A22
330
2
100
AcDbEntity
  8
0
  6
Continuous
 62
     7
100
AcDbSpline
210
0.0
220
0.0
230
1.0
 70
  1064
 71
     3
 72
    13
 73
     9
 74
     7
 42
0.000000001
 43
0.0000000001
 44
0.0000000001
 12
-0.3194640615683811
 22
-0.9475983924459949
 32
0.0
 13
-0.8447734462574333
 23
0.5351241206471072
 33
0.0
 40
0.0
 40
0.0
 40
0.0
 40
0.0
 40
2.814093108982552
 40
6.600607101873542
 40
10.74036026803054
 40
15.08858706778783
 40
19.42659010624027
 40
23.53909439106318
 40
23.53909439106318
 40
23.53909439106318
 40
23.53909439106318
 10
5622.61121111762
 20
3857.180436355226
 30
0.0
 10
5622.311543912878
 20
3856.291559653138
 30
0.0
 10
5621.212618405834
 20
3854.328913291525
 30
0.0
 10
5618.43460483985
 20
3851.956746579857
 30
0.0
 10
5614.609591092166
 20
3850.35593790549
 30
0.0
 10
5610.320272230094
 20
3849.805092906183
 30
0.0
 10
5606.044323224448
 20
3850.354251106502
 30
0.0
 10
5603.404375491452
 20
3851.469645572661
 30
0.0
 10
5602.246330685638
 20
3852.203212319018
 30
0.0
 11
5622.61121111762
 21
3857.180436355226
 31
0.0
 11
5621.263941902888
 21
3854.709811800775
 31
0.0
 11
5618.43015223626
 21
3852.198373100811
 31
0.0
 11
5614.628519654207
 21
3850.559731594019
 31
0.0
 11
5610.317577171485
 21
3849.991531617974
 31
0.0
 11
5606.017288063936
 21
3850.562306488768
 31
0.0
 11
5602.246330685638
 21
3852.203212319018
 31
0.0
  0
SPLINE
  5
62A23
330
2
100
AcDbEntity
  8
0
  6
Continuous
 62
     7
100
AcDbSpline
210
0.0
220
0.0
230
1.0
 70
  1064
 71
     3
 72
    13
 73
     9
 74
     7
 42
0.000000001
 43
0.0000000001
 44
0.0000000001
 12
0.7483795287283858
 22
0.6632707448548288
 32
0.0
 13
-0.8447734459406419
 23
0.5351241211472097
 33
0.0
 40
0.0
 40
0.0
 40
0.0
 40
0.0
 40
2.282227311023596
 40
5.17400326317011
 40
8.806013400615231
 40
12.98198324859848
 40
17.35425085182709
 40
21.5304143707606
 40
21.5304143707606
 40
21.5304143707606
 40
21.5304143707606
 10
5644.117872006915
 20
3898.935440226612
 30
0.0
 10
5644.687196073406
 20
3899.440018429448
 30
0.0
 10
5645.50580988457
 20
3901.110287337534
 30
0.0
 10
5645.289473635447
 20
3904.105487198072
 30
0.0
 10
5644.065773671314
 20
3907.48453898653
 30
0.0
 10
5641.91568636041
 20
3910.958569466933
 30
0.0
 10
5639.091753382937
 20
3914.146529900225
 30
0.0
 10
5636.849299409176
 20
3915.938333853657
 30
0.0
 10
5635.673328726942
 20
3916.683255797936
 30
0.0
 11
5644.117872006915
 21
3898.935440226612
 31
0.0
 11
5645.225364655889
 21
3900.930940547746
 31
0.0
 11
5645.192550497211
 21
3903.822530316092
 31
0.0
 11
5644.022973932809
 21
3907.261074819004
 31
0.0
 11
5641.85770318139
 21
3910.831834786338
 31
0.0
 11
5638.957901819182
 21
3914.104123901618
 31
0.0
 11
5635.673328726942
 21
3916.683255797936
 31
0.0
  0
SPLINE
  5
62A24
330
2
100
AcDbEntity
  8
0
  6
Continuous
 62
     7
100
AcDbSpline
210
0.0
220
0.0
230
1.0
 70
  1064
 71
     3
 72
    14
 73
    10
 74
     8
 42
0.000000001
 43
0.0000000001
 44
0.0000000001
 12
-0.7483901213484037
 22
-0.6632587928313666
 32
0.0
 13
0.8602044083265722
 23
-0.5099493856212907
 33
0.0
 40
0.0
 40
0.0
 40
0.0
 40
0.0
 40
4.075472233840737
 40
8.440383251574456
 40
12.67020290806277
 40
16.36743595735167
 40
19.25921190982983
 40
21.36946394412387
 40
21.72020127785892
 40
21.72020127785892
 40
21.72020127785892
 40
21.72020127785892
 10
5637.03824439912
 20
3332.548108072029
 30
0.0
 10
5636.021563345908
 20
3331.647077140684
 30
0.0
 10
5634.108070226187
 20
3329.561306054289
 30
0.0
 10
5631.747620736129
 20
3326.043137070183
 30
0.0
 10
5629.973458633487
 20
3322.332304895547
 30
0.0
 10
5628.999130193215
 20
3318.831367986207
 30
0.0
 10
5628.861948430671
 20
3315.914164538003
 30
0.0
 10
5629.622501387125
 20
3314.12776925033
 30
0.0
 10
5630.300038762408
 20
3313.65458441143
 30
0.0
 10
5630.400607362623
 20
3313.594964982145
 30
0.0
 11
5637.03824439912
 21
3332.548108072029
 31
0.0
 11
5634.25320447423
 21
3329.5727044783
 31
0.0
 11
5631.815477711114
 21
3325.951939860001
 31
0.0
 11
5630.019089930981
 21
3322.122531907093
 31
0.0
 11
5629.080712010097
 21
3318.5463636926
 31
0.0
 11
5629.113526168548
 21
3315.654773923919
 31
0.0
 11
5630.11357456379
 21
3313.796530975481
 31
0.0
 11
5630.400607362623
 21
3313.594964982145
 31
0.0
  0
SPLINE
  5
62A25
330
2
100
AcDbEntity
  8
0
  6
Continuous
 62
     7
100
AcDbSpline
210
0.0
220
0.0
230
1.0
 70
  1064
 71
     3
 72
    14
 73
    10
 74
     8
 42
0.000000001
 43
0.0000000001
 44
0.0000000001
 12
0.7418288819406451
 22
0.6705892259190366
 32
0.0
 13
-0.8447734459286097
 23
0.5351241211662044
 33
0.0
 40
0.0
 40
0.0
 40
0.0
 40
0.0
 40
1.337370497762893
 40
3.655172839791732
 40
6.568225767462291
 40
10.04125988577255
 40
13.8798181377619
 40
17.81462929625784
 40
21.55906575147913
 40
21.55906575147913
 40
21.55906575147913
 40
21.55906575147913
 10
5659.505443174478
 20
3912.584687497389
 30
0.0
 10
5659.836143194843
 20
3912.883629579676
 30
0.0
 10
5660.590927843063
 20
3913.888789799754
 30
0.0
 10
5660.894037353584
 20
3916.148719579057
 30
0.0
 10
5660.307988813791
 20
3919.013926294747
 30
0.0
 10
5658.895637018914
 20
3922.142269669511
 30
0.0
 10
5656.779341681545
 20
3925.255260876201
 30
0.0
 10
5654.152068392803
 20
3928.073771778662
 30
0.0
 10
5652.123148061012
 20
3929.659493123267
 30
0.0
 10
5651.068747898566
 20
3930.327405879056
 30
0.0
 11
5659.505443174478
 21
3912.584687497389
 31
0.0
 11
5660.310008121116
 21
3913.652973552211
 31
0.0
 11
5660.750021626159
 21
3915.928626384278
 31
0.0
 11
5660.251613410185
 21
3918.798725095065
 31
0.0
 11
5658.863571165117
 21
3921.98232442803
 31
0.0
 11
5656.721766109495
 21
3925.167791514287
 31
0.0
 11
5654.03585307787
 21
3928.043310604741
 31
0.0
 11
5651.068747898566
 21
3930.327405879056
 31
0.0
  0
SPLINE
  5
62A26
330
2
100
AcDbEntity
  8
0
  6
Continuous
 62
     7
100
AcDbSpline
210
0.0
220
0.0
230
1.0
 70
  1064
 71
     3
 72
     9
 73
     5
 74
     3
 42
0.000000001
 43
0.0000000001
 44
0.0000000001
 12
0.0113474091524688
 22
-0.9999356160801188
 32
0.0
 13
-0.7434906739781395
 23
-0.6687463029486832
 33
0.0
 40
0.0
 40
0.0
 40
0.0
 40
0.0
 40
3.819077538685927
 40
6.556245916690992
 40
6.556245916690992
 40
6.556245916690992
 40
6.556245916690992
 10
5694.899416585732
 20
3259.600785202095
 30
0.0
 10
5694.913862130871
 20
3258.32784131826
 30
0.0
 10
5694.638195828954
 20
3256.081287596022
 30
0.0
 10
5693.355678822968
 20
3254.207783548095
 30
0.0
 10
5692.677325768915
 20
3253.597626470316
 30
0.0
 11
5694.899416585732
 21
3259.600785202095
 31
0.0
 11
5694.251063243275
 21
3255.837144519216
 31
0.0
 11
5692.677325768915
 21
3253.597626470316
 31
0.0
  0
SPLINE
  5
62A27
330
2
100
AcDbEntity
  8
0
  6
Continuous
 62
     7
100
AcDbSpline
210
0.0
220
0.0
230
1.0
 70
  1064
 71
     3
 72
    10
 73
     6
 74
     4
 42
0.000000001
 43
0.0000000001
 44
0.0000000001
 12
0.0126401789341196
 22
-0.9999201097470304
 32
0.0
 13
-0.7483901213484037
 23
-0.6632587928313666
 33
0.0
 40
0.0
 40
0.0
 40
0.0
 40
0.0
 40
0.1466204235522994
 40
3.471197014157403
 40
7.070973142070548
 40
7.070973142070548
 40
7.070973142070548
 40
7.070973142070548
 10
5616.2325478934
 20
3374.172061967258
 30
0.0
 10
5616.233165662862
 20
3374.123192397254
 30
0.0
 10
5616.235472178804
 20
3372.966272848991
 30
0.0
 10
5615.62846214668
 20
3370.591325950499
 30
0.0
 10
5614.128847754352
 20
3368.752288529644
 30
0.0
 10
5613.23083545662
 20
3367.95642747329
 30
0.0
 11
5616.2325478934
 21
3374.172061967258
 31
0.0
 11
5616.232824747602
 21
3374.025441805089
 31
0.0
 11
5615.443419360452
 21
3370.795945150572
 31
0.0
 11
5613.23083545662
 21
3367.95642747329
 31
0.0
  0
SPLINE
  5
62A28
330
2
100
AcDbEntity
  8
0
  6
Continuous
 62
     7
100
AcDbSpline
210
0.0
220
0.0
230
1.0
 70
  1064
 71
     3
 72
    10
 73
     6
 74
     4
 42
0.000000001
 43
0.0000000001
 44
0.0000000001
 12
-0.860204407838634
 22
0.5099493864443656
 32
0.0
 13
-0.7483901213484037
 23
-0.6632587928313666
 33
0.0
 40
0.0
 40
0.0
 40
0.0
 40
0.0
 40
1.609907654806896
 40
4.185809141061386
 40
7.607146122024536
 40
7.607146122024536
 40
7.607146122024536
 40
7.607146122024536
 10
5643.864850665273
 20
3334.849249339276
 30
0.0
 10
5643.403234111646
 20
3335.122906479543
 30
0.0
 10
5641.957747166994
 20
3335.450432909581
 30
0.0
 10
5639.501384143968
 20
3334.492770410875
 30
0.0
 10
5637.891742665239
 20
3333.304518683983
 30
0.0
 10
5637.03824439912
 20
3332.548108072029
 30
0.0
 11
5643.864850665273
 21
3334.849249339276
 31
0.0
 11
5642.305221496226
 21
3335.248447926526
 31
0.0
 11
5639.834680556581
 21
3334.519273096717
 31
0.0
 11
5637.03824439912
 21
3332.548108072029
 31
0.0
  0
SPLINE
  5
62A29
330
2
100
AcDbEntity
  8
0
  6
Continuous
 62
     7
100
AcDbSpline
210
0.0
220
0.0
230
1.0
 70
  1064
 71
     3
 72
    16
 73
    12
 74
    10
 42
0.000000001
 43
0.0000000001
 44
0.0000000001
 12
-0.010439616789892
 22
0.9199407667895147
 32
0.0
 13
-0.6829039718425618
 23
-0.6164755998753345
 33
0.0
 40
0.0
 40
0.0
 40
0.0
 40
0.0
 40
2.680008693303205
 40
5.87520008214931
 40
9.406673674067388
 40
13.02669993988533
 40
16.47158147875624
 40
19.50996898774208
 40
22.00095217038414
 40
23.98663585243308
 40
24.59275597331584
 40
24.59275597331584
 40
24.59275597331584
 40
24.59275597331584
 10
5687.302338450745
 20
3264.413175772757
 30
0.0
 10
5687.293012362828
 20
3265.234992190197
 30
0.0
 10
5686.894702587273
 20
3267.29752524541
 30
0.0
 10
5685.596574744762
 20
3270.115049169826
 30
0.0
 10
5683.649401964839
 20
3272.997706999471
 30
0.0
 10
5681.231574505201
 20
3275.586394698875
 30
0.0
 10
5678.565089289082
 20
3277.670633771307
 30
0.0
 10
5675.891434687772
 20
3279.058950307574
 30
0.0
 10
5673.409403752603
 20
3279.627291667079
 30
0.0
 10
5671.677430225993
 20
3279.335349831828
 30
0.0
 10
5670.945301513341
 20
3278.788425302594
 30
0.0
 10
5670.807327567354
 20
3278.663872547556
 30
0.0
 11
5687.302338450745
 21
3264.413175772757
 31
0.0
 11
5686.84380289217
 21
3267.053666586546
 31
0.0
 11
5685.566804026706
 21
3269.982577972874
 31
0.0
 11
5683.596343375477
 21
3272.913207692297
 31
0.0
 11
5681.12530338638
 21
3275.558685255516
 31
0.0
 11
5678.395566621151
 21
3277.660052907645
 31
0.0
 11
5675.674338793682
 21
3279.011614140357
 31
0.0
 11
5673.2279926141
 21
3279.481068702428
 31
0.0
 11
5671.295993485085
 21
3279.022463152268
 31
0.0
 11
5670.807327567354
 21
3278.663872547556
 31
0.0
  0
SPLINE
  5
62A2A
330
2
100
AcDbEntity
  8
0
  6
Continuous
 62
     7
100
AcDbSpline
210
0.0
220
0.0
230
1.0
 70
     8
 71
     3
 72
     9
 73
     5
 74
     0
 42
0.000000001
 43
0.0000000001
 40
0.0
 40
0.0
 40
0.0
 40
0.0
 40
0.5342248178241848
 40
2.849337276697587
 40
2.849337276697587
 40
2.849337276697587
 40
2.849337276697587
 10
5662.753772943011
 20
3287.374282201538
 30
0.0
 10
5662.88616999957
 20
3287.493369158893
 30
0.0
 10
5663.623251947045
 20
3288.095172556884
 30
0.0
 10
5664.514958468739
 20
3288.486776620111
 30
0.0
 10
5665.273375019742
 20
3288.687833734934
 30
0.0
  0
SPLINE
  5
62A2B
330
2
100
AcDbEntity
  8
0
  6
Continuous
 62
     7
100
AcDbSpline
210
0.0
220
0.0
230
1.0
 70
  1064
 71
     3
 72
    16
 73
    12
 74
    10
 42
0.000000001
 43
0.0000000001
 44
0.0000000001
 12
-0.0113474090687301
 22
0.9999356160810689
 32
0.0
 13
0.8356937790818253
 23
-0.5491956915380323
 33
0.0
 40
0.0
 40
0.0
 40
0.0
 40
0.0
 40
2.950120372839482
 40
6.484680662679761
 40
10.36146852325589
 40
14.27854734154935
 40
17.92755244655826
 40
21.04514900640236
 40
23.48020589620299
 40
25.32225218647736
 40
25.54218796235142
 40
25.54218796235142
 40
25.54218796235142
 40
25.54218796235142
 10
5745.990668206878
 20
3238.174530608239
 30
0.0
 10
5745.979509465986
 20
3239.157840752416
 30
0.0
 10
5746.310872801621
 20
3241.320319362312
 30
0.0
 10
5747.456570550915
 20
3244.589652249434
 30
0.0
 10
5749.211482957483
 20
3247.947929992175
 30
0.0
 10
5751.414235569822
 20
3251.074949433851
 30
0.0
 10
5753.855921924683
 20
3253.686813638344
 30
0.0
 10
5756.325435774531
 20
3255.539840453717
 30
0.0
 10
5758.619295457513
 20
3256.529482949659
 30
0.0
 10
5760.230420219116
 20
3256.428941254935
 30
0.0
 10
5760.824266685919
 20
3256.078951738312
 30
0.0
 10
5760.885533005818
 20
3256.038689144804
 30
0.0
 11
5745.990668206878
 21
3238.174530608239
 31
0.0
 11
5746.360828763295
 21
3241.101336269146
 31
0.0
 11
5747.493471162086
 21
3244.449505565788
 31
0.0
 11
5749.277724520525
 21
3247.891296388719
 31
0.0
 11
5751.538933690052
 21
3251.089802221193
 31
0.0
 11
5754.05575576798
 21
3253.731931075817
 31
0.0
 11
5756.581826632802
 21
3255.559052937064
 31
0.0
 11
5758.869876901706
 21
3256.392316414923
 31
0.0
 11
5760.695936260475
 21
3256.150155819935
 31
0.0
 11
5760.885533005818
 21
3256.038689144804
 31
0.0
  0
SPLINE
  5
62A2C
330
2
100
AcDbEntity
  8
0
  6
Continuous
 62
     7
100
AcDbSpline
210
0.0
220
0.0
230
1.0
 70
  1064
 71
     3
 72
     9
 73
     5
 74
     3
 42
0.000000001
 43
0.0000000001
 44
0.0000000001
 12
0.7422869257611936
 22
0.6700821739488348
 32
0.0
 13
-0.0113474123052766
 23
0.9999356160443401
 33
0.0
 40
0.0
 40
0.0
 40
0.0
 40
0.0
 40
1.337467002710247
 40
3.655269366243431
 40
3.655269366243431
 40
3.655269366243431
 40
3.655269366243431
 10
5832.23395070806
 20
3254.201557388008
 30
0.0
 10
5832.564878797977
 20
3254.500294986929
 30
0.0
 10
5833.318762832703
 20
3255.503704680775
 30
0.0
 10
5833.486936261519
 20
3256.77333701554
 30
0.0
 10
5833.478169241832
 20
3257.54588806029
 30
0.0
 11
5832.23395070806
 21
3254.201557388008
 31
0.0
 11
5833.038155716501
 21
3255.270235210243
 31
0.0
 11
5833.478169241832
 21
3257.54588806029
 31
0.0
  0
SPLINE
  5
62A2D
330
2
100
AcDbEntity
  8
0
  6
Continuous
 62
     7
100
AcDbSpline
210
0.0
220
0.0
230
1.0
 70
  1064
 71
     3
 72
     9
 73
     5
 74
     3
 42
0.000000001
 43
0.0000000001
 44
0.0000000001
 12
0.7418107254131146
 22
0.6706093107481203
 32
0.0
 13
-0.0113474137482323
 23
0.9999356160279653
 33
0.0
 40
0.0
 40
0.0
 40
0.0
 40
0.0
 40
1.335111493207551
 40
3.652913835546104
 40
3.652913835546104
 40
3.652913835546104
 40
3.652913835546104
 10
5815.597286532657
 20
3239.457387645469
 30
0.0
 10
5815.927419874418
 20
3239.755833711547
 30
0.0
 10
5816.680414359493
 20
3240.75872444826
 30
0.0
 10
5816.848491727284
 20
3242.027558955462
 30
0.0
 10
5816.839724706563
 20
3242.800109993135
 30
0.0
 11
5815.597286532657
 21
3239.457387645469
 31
0.0
 11
5816.399711201224
 21
3240.524457160809
 31
0.0
 11
5816.839724706563
 21
3242.800109993135
 31
0.0
  0
SPLINE
  5
62A2E
330
2
100
AcDbEntity
  8
0
  6
Continuous
 62
     7
100
AcDbSpline
210
0.0
220
0.0
230
1.0
 70
  1064
 71
     3
 72
    16
 73
    12
 74
    10
 42
0.000000001
 43
0.0000000001
 44
0.0000000001
 12
-0.0113474095542304
 22
0.9999356160755596
 32
0.0
 13
-0.7422869259158281
 23
-0.6700821737775375
 33
0.0
 40
0.0
 40
0.0
 40
0.0
 40
0.0
 40
2.913052927671454
 40
6.386087045981721
 40
10.2246452980671
 40
14.15945645716557
 40
17.9038929074479
 40
21.20648802605798
 40
23.91407846322114
 40
26.07243030232062
 40
26.73125649408587
 40
26.73125649408587
 40
26.73125649408587
 40
26.73125649408587
 10
5833.478169241832
 20
3257.54588806029
 30
0.0
 10
5833.467150706957
 20
3258.516843184921
 30
0.0
 10
5833.035581507105
 20
3260.637916120364
 30
0.0
 10
5831.623898243751
 20
3263.757402686533
 30
0.0
 10
5829.507726674165
 20
3266.873005057355
 30
0.0
 10
5826.879144191213
 20
3269.691394060302
 30
0.0
 10
5823.982358615693
 20
3271.957013156349
 30
0.0
 10
5821.0714156381
 20
3273.462009682882
 30
0.0
 10
5818.387048195255
 20
3274.091893325802
 30
0.0
 10
5816.473981904561
 20
3273.747054717608
 30
0.0
 10
5815.711822275375
 20
3273.182931754704
 30
0.0
 10
5815.548809585841
 20
3273.03577585913
 30
0.0
 11
5833.478169241832
 21
3257.54588806029
 31
0.0
 11
5832.979761025859
 21
3260.415986771078
 31
0.0
 11
5831.591718780789
 21
3263.599586104042
 31
0.0
 11
5829.449913725104
 21
3266.785053190372
 31
0.0
 11
5826.764000673548
 21
3269.660572263034
 31
0.0
 11
5823.796895514175
 21
3271.944667555142
 31
0.0
 11
5820.839039179675
 21
3273.413755851307
 31
0.0
 11
5818.179967227563
 21
3273.924032569279
 31
0.0
 11
5816.079968172204
 21
3273.425548237691
 31
0.0
 11
5815.548809585841
 21
3273.03577585913
 31
0.0
  0
SPLINE
  5
62A2F
330
2
100
AcDbEntity
  8
0
  6
Continuous
 62
     7
100
AcDbSpline
210
0.0
220
0.0
230
1.0
 70
  1064
 71
     3
 72
    17
 73
    13
 74
    11
 42
0.000000001
 43
0.0000000001
 44
0.0000000001
 12
0.7434906736401436
 22
0.6687463033244562
 32
0.0
 13
0.0113474094845128
 23
-0.9999356160763504
 33
0.0
 40
0.0
 40
0.0
 40
0.0
 40
0.0
 40
0.5342248174309978
 40
3.913935801688196
 40
8.014203669524778
 40
13.01923657314473
 40
18.8090002296008
 40
25.09674517953885
 40
31.51421776047428
 40
37.67398391860884
 40
43.22746023648953
 40
47.93211856359522
 40
47.93211856359522
 40
47.93211856359522
 40
47.93211856359522
 10
5808.929603734323
 20
3280.506994489404
 30
0.0
 10
5809.062000790786
 20
3280.626081446671
 30
0.0
 10
5810.074478831204
 20
3281.452736783286
 30
0.0
 10
5812.745035818926
 20
3282.33328701994
 30
0.0
 10
5816.949711926457
 20
3281.837701643632
 30
0.0
 10
5821.594007114953
 20
3279.973708402497
 30
0.0
 10
5826.396959241677
 20
3276.863813262456
 30
0.0
 10
5831.012755948221
 20
3272.744685139131
 30
0.0
 10
5835.086653325909
 20
3267.92806343452
 30
0.0
 10
5838.305001326117
 20
3262.783482028334
 30
0.0
 10
5840.424513120575
 20
3257.712023489676
 30
0.0
 10
5841.057452148938
 20
3254.301615964136
 30
0.0
 10
5841.075247377111
 20
3252.733497489888
 30
0.0
 11
5808.929603734323
 21
3280.506994489404
 31
0.0
 11
5809.343828602468
 21
3280.844357667848
 31
0.0
 11
5812.510347061731
 21
3282.025715862578
 31
0.0
 11
5816.598889131968
 21
3281.715844392586
 31
0.0
 11
5821.278225449074
 21
3279.939847208541
 31
0.0
 11
5826.169264047656
 21
3276.841605025496
 31
0.0
 11
5830.875761997662
 21
3272.672119013759
 31
0.0
 11
5835.016426875476
 21
3267.769176152916
 31
0.0
 11
5838.255806651925
 21
3262.529983678228
 31
0.0
 11
5840.331466012915
 21
3257.378989848839
 31
0.0
 11
5841.075247377111
 21
3252.733497489888
 31
0.0
  0
SPLINE
  5
62A30
330
2
100
AcDbEntity
  8
0
  6
Continuous
 62
     7
100
AcDbSpline
210
0.0
220
0.0
230
1.0
 70
  1064
 71
     3
 72
     9
 73
     5
 74
     3
 42
0.000000001
 43
0.0000000001
 44
0.0000000001
 12
-0.8356937787485874
 22
0.5491956920451102
 32
0.0
 13
-0.0113474060966749
 23
0.9999356161147961
 33
0.0
 40
0.0
 40
0.0
 40
0.0
 40
0.0
 40
1.545822991532867
 40
3.805774430636789
 40
3.805774430636789
 40
3.805774430636789
 40
3.805774430636789
 10
5747.414947757715
 20
3234.773171146252
 30
0.0
 10
5746.984336205358
 20
3235.056157588791
 30
0.0
 10
5746.149777585383
 20
3236.11178690242
 30
0.0
 10
5745.999216402457
 20
3237.421261963356
 30
0.0
 10
5745.990668206878
 20
3238.174530608239
 30
0.0
 11
5747.414947757715
 21
3234.773171146252
 31
0.0
 11
5746.419223453578
 21
3235.955584708126
 31
0.0
 11
5745.990668206878
 21
3238.174530608239
 31
0.0
  0
SPLINE
  5
62A31
330
2
100
AcDbEntity
  8
0
  6
Continuous
 62
     7
100
AcDbSpline
210
0.0
220
0.0
230
1.0
 70
  1064
 71
     3
 72
    16
 73
    12
 74
    10
 42
0.000000001
 43
0.0000000001
 44
0.0000000001
 12
-0.0113474093580347
 22
0.9999356160777859
 32
0.0
 13
-0.7418107258371024
 23
-0.670609310279116
 33
0.0
 40
0.0
 40
0.0
 40
0.0
 40
0.0
 40
2.913052927672798
 40
6.386087045981815
 40
10.2246452980677
 40
14.15945645646705
 40
17.90389291185729
 40
21.20648803032038
 40
23.91407846748542
 40
26.07243030692913
 40
26.73364341491132
 40
26.73364341491132
 40
26.73364341491132
 40
26.73364341491132
 10
5816.839724706563
 20
3242.800109993135
 30
0.0
 10
5816.828706171879
 20
3243.771065117768
 30
0.0
 10
5816.397136969927
 20
3245.892138051629
 30
0.0
 10
5814.985453716483
 20
3249.011624626354
 30
0.0
 10
5812.86928210579
 20
3252.127226960923
 30
0.0
 10
5810.24069977945
 20
3254.945616102902
 30
0.0
 10
5807.343913767495
 20
3257.211234824994
 30
0.0
 10
5804.432972027885
 20
3258.71623238304
 30
0.0
 10
5801.748601118593
 20
3259.346113152417
 30
0.0
 10
5799.834716140804
 20
3259.001132051888
 30
0.0
 10
5799.072083016319
 20
3258.436194689573
 30
0.0
 10
5798.90858469113
 20
3258.288389467475
 30
0.0
 11
5816.839724706563
 21
3242.800109993135
 31
0.0
 11
5816.341316490589
 21
3245.670208703924
 31
0.0
 11
5814.953274245521
 21
3248.853808036887
 31
0.0
 11
5812.811469189834
 21
3252.039275123217
 31
0.0
 11
5810.125556158272
 21
3254.9147942136
 31
0.0
 11
5807.158450978612
 21
3257.198889487726
 31
0.0
 11
5804.200594644406
 21
3258.667977784152
 31
0.0
 11
5801.541522692292
 21
3259.178254502125
 31
0.0
 11
5799.441523636641
 21
3258.679770170277
 31
0.0
 11
5798.90858469113
 21
3258.288389467475
 31
0.0
  0
SPLINE
  5
62A32
330
2
100
AcDbEntity
  8
0
  6
Continuous
 62
     7
100
AcDbSpline
210
0.0
220
0.0
230
1.0
 70
  1064
 71
     3
 72
     9
 73
     5
 74
     3
 42
0.000000001
 43
0.0000000001
 44
0.0000000001
 12
0.7422869257611936
 22
0.6700821739488348
 32
0.0
 13
-0.0113474123052766
 23
0.9999356160443401
 33
0.0
 40
0.0
 40
0.0
 40
0.0
 40
0.0
 40
1.337467023533349
 40
3.655269382378853
 40
3.655269382378853
 40
3.655269382378853
 40
3.655269382378853
 10
5686.058119917102
 20
3261.068845100328
 30
0.0
 10
5686.389048012171
 20
3261.367582703899
 30
0.0
 10
5687.142932109392
 20
3262.370992363992
 30
0.0
 10
5687.311105470413
 20
3263.64062472957
 30
0.0
 10
5687.302338450745
 20
3264.413175772757
 30
0.0
 11
5686.058119917102
 21
3261.068845100328
 31
0.0
 11
5686.86232496339
 21
3262.137522920142
 31
0.0
 11
5687.302338450745
 21
3264.413175772757
 31
0.0
  0
LINE
  5
62A33
330
2
100
AcDbEntity
  8
0
100
AcDbLine
 10
5746.427881211473
 20
3235.93769887127
 30
0.0
 11
5630.400607362623
 21
3313.594964982145
 31
0.0
  0
DIMENSION
  5
62A35
330
2
100
AcDbEntity
  8
标注
100
AcDbDimension
280
     0
  2
*D10
 10
5682.828717135299
 20
3112.276170548778
 30
0.0
 11
5582.069099526023
 21
3179.909850063536
 31
0.0
 70
   161
  1
400
 71
     5
 42
236.0820952115773
 73
     0
 74
     0
 75
     0
  3
线性标注
100
AcDbAlignedDimension
 13
5531.331288054894
 23
3283.145014056393
 33
0.0
 14
5727.348922478491
 24
3151.570538285195
 34
0.0
  0
DIMENSION
  5
62A36
330
2
100
AcDbEntity
  8
标注
100
AcDbDimension
280
     0
  2
*D11
 10
5616.232678627042
 20
3374.172063608491
 30
0.0
 11
5742.188385268858
 21
3419.717061973728
 31
0.0
 70
    34
  1
90%%D
 71
     5
 42
2.149635002488992
 73
     0
 74
     0
 75
     0
  3
线性标注
100
AcDb2LineAngularDimension
 13
5643.869643543597
 23
3334.8573341398
 33
0.0
 14
5760.885533005818
 24
3256.038689144804
 34
0.0
 15
5622.994535106256
 25
3859.577469428993
 35
0.0
 16
5741.828630713713
 26
3369.326540292866
 36
0.0
  0
ARC
  5
62B68
330
2
100
AcDbEntity
  8
0
100
AcDbCircle
 10
3627.450290356415
 20
3106.576239762941
 30
0.0
 40
15.89999999999918
100
AcDbArc
 50
180.0
 51
0.0
  0
DIMENSION
  5
62B9F
330
2
100
AcDbEntity
  8
标注
100
AcDbDimension
280
     0
  2
*D12
 10
5522.118904377554
 20
3403.332021151513
 30
0.0
 11
5526.625202046899
 21
3740.558494569201
 31
0.0
 70
   161
  1
800
 71
     5
 42
597.9819422935029
 73
     0
 74
     0
 75
     0
  3
线性标注
100
AcDbAlignedDimension
 13
5588.748489696292
 23
3962.013008840866
 33
0.0
 14
5580.758476191288
 24
3364.084448732471
 34
0.0
  0
DIMENSION
  5
62BF5
330
2
100
AcDbEntity
  8
标注
100
AcDbDimension
280
     0
  2
*D13
 10
5681.291157756134
 20
4014.465438137112
 30
0.0
 11
5645.684956477209
 21
3979.048876388139
 31
0.0
 70
   161
  1
88
 71
     5
 42
96.29601323702992
 73
     0
 74
     0
 75
     0
 53
45.10153488414252
  3
线性标注
100
AcDbAlignedDimension
 13
5612.092743496889
 23
3880.055291662557
 33
0.0
 14
5680.365876947029
 24
3947.964800674515
 34
0.0
  0
LINE
  5
633C8
330
2
100
AcDbEntity
  8
中心线
100
AcDbLine
 10
4311.985031492123
 20
2993.947904411895
 30
0.0
 11
4311.985031492123
 21
3143.757938768823
 31
0.0
  0
DIMENSION
  5
633FE
330
2
100
AcDbEntity
  8
标注
100
AcDbDimension
280
     0
  2
*D14
 10
4311.985031492123
 20
2867.909691192987
 30
0.0
 11
4261.97717042931
 21
2883.534691192987
 31
0.0
 70
    32
 71
     5
 42
100.0157221256259
 73
     0
 74
     0
 75
     0
  3
线性标注
100
AcDbAlignedDimension
 13
4211.969309366497
 23
3081.373241445572
 33
0.0
 14
4311.985031492123
 24
2982.806539405971
 34
0.0
100
AcDbRotatedDimension
  0
LINE
  5
634D1
330
2
100
AcDbEntity
  8
0
100
AcDbLine
 10
4302.386057364865
 20
4104.159581221065
 30
0.0
 11
4228.094466921574
 21
4104.159581221066
 31
0.0
  0
LINE
  5
634F4
330
2
100
AcDbEntity
  8
中心线
100
AcDbLine
 10
4248.513663333969
 20
3026.57623976294
 30
0.0
 11
4375.275273447242
 21
3026.57623976294
 31
0.0
  0
MTEXT
  5
6351F
330
2
100
AcDbEntity
  8
标注
100
AcDbMText
 10
4320.762486255761
 20
2896.101027444896
 30
0.0
 40
21.0
 41
81.096921757764
 46
0.0
 71
     1
 72
     5
  1
{\fSimHei|b0|i0|c134|p2; B}
  7
黑体
 73
     1
 44
1.0
1001
ACAD
1000
ACAD_MTEXT_COLUMN_INFO_BEGIN
1070
    75
1070
     2
1070
    79
1070
     0
1070
    76
1070
     1
1070
    78
1070
     0
1070
    48
1040
81.096921757764
1070
    49
1040
30.0
1070
    50
1070
     1
1040
0.0
1000
ACAD_MTEXT_COLUMN_INFO_END
  0
LWPOLYLINE
  5
63520
330
2
100
AcDbEntity
  8
标注
100
AcDbPolyline
 90
        3
 70
     1
 43
0.0
 10
4365.842835538368
 20
2869.395349483724
 10
4342.344235528113
 20
2909.667946378968
 10
4319.216443545588
 20
2869.181263369095
  0
LINE
  5
63564
330
2
100
AcDbEntity
  8
0
  6
Continuous
 62
     7
100
AcDbLine
 10
5650.23639098045
 20
3298.752114591568
 30
0.0
 11
5649.850249851393
 21
3265.13865073244
 31
0.0
  0
LINE
  5
63565
330
2
100
AcDbEntity
  8
0
  6
Continuous
 62
     7
100
AcDbLine
 10
5629.519481302132
 20
3312.617980042995
 30
0.0
 11
5628.653411635234
 21
3250.372892530949
 31
0.0
  0
ELLIPSE
  5
63567
330
2
100
AcDbEntity
  8
0
  6
Continuous
 62
     7
100
AcDbEllipse
 10
5654.363490174109
 20
3261.265144454464
 30
0.0
 11
20.28951539448561
 21
21.9416835015932
 31
0.0
210
0.0
220
0.0
230
1.0
 40
0.7162904960709222
 41
2.58250557657622
 42
4.399066609072685
  0
ELLIPSE
  5
63568
330
2
100
AcDbEntity
  8
0
  6
Continuous
 62
     7
100
AcDbEllipse
 10
5656.967371024013
 20
3265.823278023679
 30
0.0
 11
5.681064310455972
 21
6.143671380446093
 31
0.0
210
0.0
220
0.0
230
1.0
 40
0.7162904960709221
 41
2.248847230708955
 42
3.617773749082075
  0
ELLIPSE
  5
6356D
330
2
100
AcDbEntity
  8
标注
100
AcDbEllipse
 10
5654.363490174109
 20
3261.265144454464
 30
0.0
 11
20.28951539448561
 21
21.9416835015932
 31
0.0
210
0.0
220
0.0
230
1.0
 40
0.7162904960709222
 41
4.749209999644731
 42
4.76304130238339
  0
SPLINE
  5
6356F
330
2
100
AcDbEntity
  8
0
  6
Continuous
 62
     7
100
AcDbSpline
210
0.0
220
0.0
230
1.0
 70
     8
 71
     3
 72
    10
 73
     6
 74
     0
 42
0.000000001
 43
0.0000000001
 40
35.22183565711568
 40
35.22183565711568
 40
35.22183565711568
 40
35.22183565711568
 40
37.67398392029618
 40
43.2274602725333
 40
47.93211857705598
 40
47.93211857705598
 40
47.93211857705598
 40
47.93211857705598
 10
5690.889450674119
 20
3271.542947555847
 30
0.0
 10
5691.309426197377
 20
3270.840813115807
 30
0.0
 10
5692.607815179581
 20
3268.505493586387
 30
0.0
 10
5694.248682345021
 20
3264.579311199375
 30
0.0
 10
5694.881621357644
 20
3261.168903668815
 30
0.0
 10
5694.899416585732
 20
3259.600785202095
 30
0.0
  0
MTEXT
  5
635FC
330
2
100
AcDbEntity
  8
标注
100
AcDbMText
 10
4711.199462454575
 20
3299.8626083939
 30
0.0
 40
21.0
 41
81.096921757764
 46
0.0
 71
     1
 72
     5
  1
{\fSimHei|b0|i0|c134|p2; B}
  7
黑体
210
0.0
220
0.0
230
-1.0
 11
-1.0
 21
0.0000000000000083
 31
0.0
 73
     1
 44
1.0
1001
ACAD
1000
ACAD_MTEXT_COLUMN_INFO_BEGIN
1070
    75
1070
     2
1070
    79
1070
     0
1070
    76
1070
     1
1070
    78
1070
     0
1070
    48
1040
81.096921757764
1070
    49
1040
30.0
1070
    50
1070
     1
1040
0.0
1000
ACAD_MTEXT_COLUMN_INFO_END
  0
LWPOLYLINE
  5
635FD
330
2
100
AcDbEntity
  8
标注
100
AcDbPolyline
 90
        3
 70
     1
 43
0.0
 10
4666.119113171968
 20
3273.156930432727
 10
4689.617713182223
 20
3313.429527327972
 10
4712.745505164747
 20
3272.942844318099
  0
LINE
  5
63773
330
2
100
AcDbEntity
  8
中心线
100
AcDbLine
 10
4667.41769109337
 20
3481.805717995124
 30
0.0
 11
4755.41769109337
 21
3481.805717995123
 31
0.0
  0
ARC
  5
63774
330
2
100
AcDbEntity
  8
0
100
AcDbCircle
 10
4739.517691093371
 20
3481.805717995124
 30
0.0
 40
14.8
100
AcDbArc
 50
270.0
 51
90.0
  0
ARC
  5
63775
330
2
100
AcDbEntity
  8
0
100
AcDbCircle
 10
4739.517691093371
 20
3481.805717995124
 30
0.0
 40
15.9
100
AcDbArc
 50
270.0
 51
90.0
  0
DIMENSION
  5
6377A
330
2
100
AcDbEntity
  8
标注
100
AcDbDimension
280
     0
  2
*D15
 10
4667.417691093371
 20
3338.188343473276
 30
0.0
 11
4621.364119664799
 21
3353.813343473276
 31
0.0
 70
    32
 71
     5
 42
12.99999999999909
 73
     0
 74
     0
 75
     0
  3
线性标注
100
AcDbAlignedDimension
 13
4680.41769109337
 23
3361.942400604108
 33
0.0
 14
4667.417691093371
 24
3361.942400604107
 34
0.0
 50
179.9999999999995
100
AcDbRotatedDimension
  0
DIMENSION
  5
6377B
330
2
100
AcDbEntity
  8
标注
100
AcDbDimension
280
     0
  2
*D16
 10
4725.680061621885
 20
3473.974370051771
 30
0.0
 11
4816.199627304129
 21
3543.157297410199
 31
0.0
 70
    35
 71
     5
 42
31.80000000000018
 73
     0
 74
     0
 75
     0
  3
线性标注
100
AcDbDiametricDimension
 15
4753.355320564859
 25
3489.637065938474
 35
0.0
 40
0.0
1001
ACAD
1000
DSTYLE
1002
{
1070
   288
1070
     1
1002
}
1001
ACAD_DSTYLE_DIMRADIAL_EXTENSION
1070
   387
1070
     1
1070
   388
1040
0.0
1070
   390
1040
0.0
  0
DIMENSION
  5
6377C
330
2
100
AcDbEntity
  8
标注
100
AcDbDimension
280
     0
  2
*D17
 10
4726.726363025609
 20
3489.250308397748
 30
0.0
 11
4832.07351490197
 21
3446.01661187515
 31
0.0
 70
    35
 71
     5
 42
29.599999999999
 73
     0
 74
     0
 75
     0
  3
线性标注
100
AcDbDiametricDimension
 15
4752.309019161134
 25
3474.361127592498
 35
0.0
 40
0.0
1001
ACAD
1000
DSTYLE
1002
{
1070
   288
1070
     1
1002
}
1001
ACAD_DSTYLE_DIMRADIAL_EXTENSION
1070
   387
1070
     1
1070
   388
1040
0.0
1070
   390
1040
0.0
  0
ARC
  5
6377D
330
2
100
AcDbEntity
  8
中心线
100
AcDbCircle
 10
4693.51769109337
 20
3447.805717995125
 30
0.0
 40
46.0
100
AcDbArc
 50
270.0
 51
359.9999999999996
  0
ARC
  5
6377E
330
2
100
AcDbEntity
  8
0
100
AcDbCircle
 10
4693.51769109337
 20
3447.805717995125
 30
0.0
 40
36.0
100
AcDbArc
 50
270.0
 51
359.9999999999996
  0
ARC
  5
6377F
330
2
100
AcDbEntity
  8
0
100
AcDbCircle
 10
4693.51769109337
 20
3447.805717995125
 30
0.0
 40
56.0
100
AcDbArc
 50
270.0
 51
359.9999999999996
  0
LINE
  5
63780
330
2
100
AcDbEntity
  8
0
100
AcDbLine
 10
4667.417691093369
 20
3373.305717995124
 30
0.0
 11
4667.417691093369
 21
3430.305717995124
 31
0.0
  0
LINE
  5
63781
330
2
100
AcDbEntity
  8
0
100
AcDbLine
 10
4680.417691093369
 20
3373.305717995125
 30
0.0
 11
4680.417691093369
 21
3430.305717995125
 31
0.0
  0
LINE
  5
63782
330
2
100
AcDbEntity
  8
0
100
AcDbLine
 10
4680.417691093369
 20
3430.305717995125
 30
0.0
 11
4667.417691093369
 21
3430.305717995124
 31
0.0
  0
LINE
  5
63783
330
2
100
AcDbEntity
  8
0
100
AcDbLine
 10
4680.417691093369
 20
3373.305717995125
 30
0.0
 11
4667.417691093369
 21
3373.305717995124
 31
0.0
  0
LINE
  5
63784
330
2
100
AcDbEntity
  8
中心线
100
AcDbLine
 10
4739.517691093371
 20
3502.455576060358
 30
0.0
 11
4739.517691093371
 21
3447.805717995124
 31
0.0
  0
LINE
  5
63785
330
2
100
AcDbEntity
  8
0
100
AcDbLine
 10
4729.517691093371
 20
3469.44408379895
 30
0.0
 11
4729.51769109337
 21
3447.805717995124
 31
0.0
  0
LINE
  5
63786
330
2
100
AcDbEntity
  8
0
100
AcDbLine
 10
4749.517691093371
 20
3469.444083798951
 30
0.0
 11
4749.51769109337
 21
3447.805717995124
 31
0.0
  0
LINE
  5
63787
330
2
100
AcDbEntity
  8
中心线
100
AcDbLine
 10
4693.51769109337
 20
3401.805717995125
 30
0.0
 11
4658.020244258678
 21
3401.805717995124
 31
0.0
  0
LINE
  5
63788
330
2
100
AcDbEntity
  8
0
100
AcDbLine
 10
4693.51769109337
 20
3411.805717995125
 30
0.0
 11
4680.417691093369
 21
3411.805717995125
 31
0.0
  0
LINE
  5
63789
330
2
100
AcDbEntity
  8
0
100
AcDbLine
 10
4693.51769109337
 20
3391.805717995125
 30
0.0
 11
4680.417691093369
 21
3391.805717995125
 31
0.0
  0
DIMENSION
  5
6378B
330
2
100
AcDbEntity
  8
标注
100
AcDbDimension
280
     0
  2
*D18
 10
4693.517691093377
 20
3447.805717995125
 30
0.0
 11
4801.508786404852
 21
3425.31296424683
 31
0.0
 70
    36
 71
     5
 42
45.99999999999363
 73
     0
 74
     0
 75
     0
  3
线性标注
100
AcDbRadialDimension
 15
4736.768548607701
 25
3432.141640483982
 35
0.0
 40
0.0
1001
ACAD
1000
DSTYLE
1002
{
1070
   288
1070
     1
1002
}
1001
ACAD_DSTYLE_DIMRADIAL_EXTENSION
1070
   387
1070
     1
1070
   388
1040
3.141592653589793
1070
   390
1040
4.712388980384689
  0
DIMENSION
  5
6378C
330
2
100
AcDbEntity
  8
标注
100
AcDbDimension
280
     0
  2
*D19
 10
4628.014291137389
 20
3401.805717995124
 30
0.0
 11
4612.389291137388
 21
3441.805717995124
 31
0.0
 70
    32
 71
     5
 42
80.0
 73
     0
 74
     0
 75
     0
  3
线性标注
100
AcDbAlignedDimension
 13
4667.41769109337
 23
3481.805717995124
 33
0.0
 14
4667.417691093369
 24
3401.805717995124
 34
0.0
 50
90.0
100
AcDbRotatedDimension
  0
MTEXT
  5
6378D
330
2
100
AcDbEntity
  8
0
100
AcDbMText
 10
4760.981465313806
 20
3330.169222033546
 30
0.0
 40
25.0
 41
173.5631402998115
 46
0.0
 71
     1
 72
     5
  1
A-A
  7
黑体
210
0.0
220
0.0
230
-1.0
 11
-1.0
 21
0.0000000000000072
 31
0.0
 73
     1
 44
1.0
  0
LINE
  5
6380B
330
2
100
AcDbEntity
  8
中心线
100
AcDbLine
 10
4311.985031492123
 20
3139.891385156955
 30
0.0
 11
4311.985031492123
 21
2992.625418292216
 31
0.0
  0
LINE
  5
6380C
330
2
100
AcDbEntity
  8
0
100
AcDbLine
 10
4321.985031492123
 20
3091.77623976294
 30
0.0
 11
4321.985031492123
 21
3026.57623976294
 31
0.0
  0
LINE
  5
6380D
330
2
100
AcDbEntity
  8
0
100
AcDbLine
 10
4301.985031492123
 20
3091.77623976294
 30
0.0
 11
4301.985031492123
 21
3026.57623976294
 31
0.0
  0
ARC
  5
6380E
330
2
100
AcDbEntity
  8
0
100
AcDbCircle
 10
4311.985031492123
 20
3026.57623976294
 30
0.0
 40
10.00000000000091
100
AcDbArc
 50
180.0
 51
0.0
  0
ARC
  5
6380F
330
2
100
AcDbEntity
  8
0
100
AcDbCircle
 10
4311.985031492123
 20
3026.57623976294
 30
0.0
 40
28.5
100
AcDbArc
 50
110.5409775375132
 51
69.45902246248678
  0
ARC
  5
63810
330
2
100
AcDbEntity
  8
0
100
AcDbCircle
 10
4311.985031492123
 20
3060.083213410512
 30
0.0
 40
33.23323516264469
100
AcDbArc
 50
72.48811667166274
 51
107.5118833283372
  0
DIMENSION
  5
63811
330
2
100
AcDbEntity
  8
标注
100
AcDbDimension
280
     0
  2
*D20
 10
4304.542594094368
 20
3033.255320955778
 30
0.0
 11
4365.929412559068
 21
2978.16482804558
 31
0.0
 70
    35
 71
     5
 42
20.00000000000364
 73
     0
 74
     0
 75
     0
  3
线性标注
100
AcDbDiametricDimension
 15
4319.427468889881
 25
3019.897158570103
 35
0.0
 40
0.0
1001
ACAD
1000
DSTYLE
1002
{
1070
   288
1070
     1
1002
}
1001
ACAD_DSTYLE_DIMRADIAL_EXTENSION
1070
   387
1070
     1
1070
   388
1040
3.141592653589793
1070
   390
1040
0.0
  0
LINE
  5
63847
330
2
100
AcDbEntity
  8
0
100
AcDbLine
 10
4301.985031492123
 20
3090.67623976294
 30
0.0
 11
4267.285031492123
 21
3090.67623976294
 31
0.0
  0
ARC
  5
63866
330
2
100
AcDbEntity
  8
0
100
AcDbCircle
 10
4739.517691093372
 20
3481.805717995124
 30
0.0
 40
14.8
100
AcDbArc
 50
90.0
 51
270.0
  0
ARC
  5
63867
330
2
100
AcDbEntity
  8
0
100
AcDbCircle
 10
4739.517691093372
 20
3481.805717995124
 30
0.0
 40
15.9
100
AcDbArc
 50
90.0
 51
270.0
  0
LINE
  5
63878
330
2
100
AcDbEntity
  8
0
100
AcDbLine
 10
4302.285031492126
 20
4163.259581221065
 30
0.0
 11
4302.285031492124
 21
4104.188993968651
 31
0.0
  0
LINE
  5
63879
330
2
100
AcDbEntity
  8
0
100
AcDbLine
 10
4322.285031492124
 20
4163.259581221065
 30
0.0
 11
4322.285031492124
 21
4104.188993968651
 31
0.0
  0
LINE
  5
6387B
330
2
100
AcDbEntity
  8
0
100
AcDbLine
 10
4283.785031492124
 20
4176.259581221065
 30
0.0
 11
4340.785031492123
 21
4176.259581221064
 31
0.0
  0
LINE
  5
6387C
330
2
100
AcDbEntity
  8
0
100
AcDbLine
 10
4283.785031492124
 20
4176.259581221065
 30
0.0
 11
4340.785031492123
 21
4176.259581221064
 31
0.0
  0
LINE
  5
6387D
330
2
100
AcDbEntity
  8
0
100
AcDbLine
 10
4283.785031492124
 20
4163.259581221065
 30
0.0
 11
4340.785031492123
 21
4163.259581221065
 31
0.0
  0
LINE
  5
6387E
330
2
100
AcDbEntity
  8
0
100
AcDbLine
 10
4283.785031492124
 20
4176.259581221065
 30
0.0
 11
4283.785031492124
 21
4163.259581221065
 31
0.0
  0
LINE
  5
6387F
330
2
100
AcDbEntity
  8
0
100
AcDbLine
 10
4340.785031492123
 20
4176.259581221064
 30
0.0
 11
4340.785031492123
 21
4163.259581221065
 31
0.0
  0
LINE
  5
63880
330
2
100
AcDbEntity
  8
中心线
100
AcDbLine
 10
4312.285031492124
 20
4191.226888159943
 30
0.0
 11
4312.285031492124
 21
4083.508130789945
 31
0.0
  0
LINE
  5
63882
330
2
100
AcDbEntity
  8
中心线
100
AcDbLine
 10
3555.350290356413
 20
3106.576239762941
 30
0.0
 11
3643.350290356413
 21
3106.576239762941
 31
0.0
  0
ARC
  5
63883
330
2
100
AcDbEntity
  8
中心线
100
AcDbCircle
 10
3581.450290356415
 20
3072.576239762942
 30
0.0
 40
46.0
100
AcDbArc
 50
270.0
 51
0.0
  0
ARC
  5
63884
330
2
100
AcDbEntity
  8
0
100
AcDbCircle
 10
3581.450290356415
 20
3072.576239762942
 30
0.0
 40
36.0
100
AcDbArc
 50
270.0
 51
0.0
  0
ARC
  5
63885
330
2
100
AcDbEntity
  8
0
100
AcDbCircle
 10
3581.450290356415
 20
3072.576239762942
 30
0.0
 40
56.0
100
AcDbArc
 50
270.0
 51
0.0
  0
LINE
  5
63886
330
2
100
AcDbEntity
  8
0
100
AcDbLine
 10
3539.450290356413
 20
2998.076239762941
 30
0.0
 11
3539.450290356413
 21
3055.076239762941
 31
0.0
  0
LINE
  5
63887
330
2
100
AcDbEntity
  8
0
100
AcDbLine
 10
3552.450290356413
 20
2998.076239762941
 30
0.0
 11
3552.450290356413
 21
3055.076239762941
 31
0.0
  0
LINE
  5
63888
330
2
100
AcDbEntity
  8
0
100
AcDbLine
 10
3552.450290356413
 20
3055.076239762941
 30
0.0
 11
3539.450290356413
 21
3055.076239762941
 31
0.0
  0
LINE
  5
63889
330
2
100
AcDbEntity
  8
0
100
AcDbLine
 10
3552.450290356413
 20
2998.076239762941
 30
0.0
 11
3539.450290356413
 21
2998.076239762941
 31
0.0
  0
LINE
  5
6388A
330
2
100
AcDbEntity
  8
中心线
100
AcDbLine
 10
3627.450290356415
 20
3127.226097828175
 30
0.0
 11
3627.450290356415
 21
3072.576239762942
 31
0.0
  0
LINE
  5
6388B
330
2
100
AcDbEntity
  8
0
100
AcDbLine
 10
3617.450290356415
 20
3094.214605566767
 30
0.0
 11
3617.450290356415
 21
3072.576239762942
 31
0.0
  0
LINE
  5
6388C
330
2
100
AcDbEntity
  8
0
100
AcDbLine
 10
3637.450290356414
 20
3094.214605566768
 30
0.0
 11
3637.450290356414
 21
3072.576239762942
 31
0.0
  0
LINE
  5
6388D
330
2
100
AcDbEntity
  8
中心线
100
AcDbLine
 10
3581.450290356415
 20
3026.576239762942
 30
0.0
 11
3530.052843521723
 21
3026.576239762941
 31
0.0
  0
LINE
  5
6388E
330
2
100
AcDbEntity
  8
0
100
AcDbLine
 10
3581.450290356415
 20
3036.576239762942
 30
0.0
 11
3552.450290356413
 21
3036.576239762942
 31
0.0
  0
LINE
  5
6388F
330
2
100
AcDbEntity
  8
0
100
AcDbLine
 10
3581.450290356415
 20
3016.576239762942
 30
0.0
 11
3552.450290356413
 21
3016.576239762942
 31
0.0
  0
CIRCLE
  5
63916
330
2
100
AcDbEntity
  8
Hidden
100
AcDbCircle
 10
4312.285031492124
 20
4088.259581221065
 30
0.0
 40
9.999999999998181
  0
LINE
  5
63917
330
2
100
AcDbEntity
  8
Hidden
100
AcDbLine
 10
4322.285031492124
 20
4104.188993968651
 30
0.0
 11
4322.285031492122
 21
4088.259581221065
 31
0.0
  0
LINE
  5
63918
330
2
100
AcDbEntity
  8
Hidden
100
AcDbLine
 10
4302.386057364866
 20
4104.159581221067
 30
0.0
 11
4302.285031492126
 21
4088.259581221065
 31
0.0
  0
VIEWPORT
  5
99
330
C
100
AcDbEntity
 67
     1
  8
0
100
AcDbViewport
 10
254.0416914396113
 20
105.7466385643267
 30
0.0
 40
54.18609413403679
 41
40.92263228630241
 68
     1
 69
     1
 12
254.0416914396113
 22
105.7466385643267
 13
0.0
 23
0.0
 14
10.0
 24
10.0
 15
10.0
 25
10.0
 16
0.0
 26
0.0
 36
1.0
 17
0.0
 27
0.0
 37
0.0
 42
50.0
 43
0.0
 44
0.0
 45
40.92263228630241
 50
0.0
 51
0.0
 72
   100
 90
    38944
  1

281
     0
 71
     1
 74
     0
110
0.0
120
0.0
130
0.0
111
1.0
121
0.0
131
0.0
112
0.0
122
1.0
132
0.0
 79
     0
146
0.0
170
     2
 61
     5
348
984D
292
     1
282
     1
141
0.0
142
0.0
 63
   250
421
  3355443
  0
MTEXT
  5
2C09
102
{ACAD_XDICTIONARY
360
6398C
102
}
330
C
100
AcDbEntity
 67
     1
  8
ASHADE
 62
     5
100
AcDbMText
 10
231.8996211309493
 20
125.8491204523215
 30
0.0
 40
2.5
 41
66.6875
 46
0.0
 71
     1
 72
     5
  3
\pt24;技术要求:\P\ptz;1.注："☆"号为特注受控处.\P2.所注尺寸为电镀后尺寸.{\fSimSun|b0|i0|c134|p0;\P}3.未注公差为%%p0.1.\P4.未注缧纹倒角为{\fArial|b0|i0|c0|p32;C0.5}.\P5.无毛刺.\P6.壁厚为2.5{\fArial|b0|i0|c134|p32;mm.\P\fSimSun|b0|i0|c134|p0;7\fArial|b0|i0|c134|p32;.}未注铸造圆角{\fArial|b0|i0|c134|
  1
p32;R1\fSimSun|b0|i0|c134|p0;～\fArial|b0|i0|c134|p32;R3.}\P8.表面抛光电镀铬.
 73
     1
 44
1.0
  0
ENDSEC
  0
SECTION
  2
OBJECTS
  0
DICTIONARY
  5
7
330
0
100
AcDbDictionary
281
     1
  3
ACAD_CIP_PREVIOUS_PRODUCT_INFO
350
60639DF
  3
ACAD_COLOR
350
29
  3
ACAD_DETAILVIEWSTYLE
350
60639D4
  3
ACAD_GROUP
350
25
  3
ACAD_IMAGE_DICT
350
2BE1
  3
ACAD_IMAGE_VARS
350
2BE2
  3
ACAD_LAYOUT
350
B
  3
ACAD_MATERIAL
350
28
  3
ACAD_MLEADERSTYLE
350
987B
  3
ACAD_MLINESTYLE
350
26
  3
ACAD_PLOTSETTINGS
350
27
  3
ACAD_PLOTSTYLENAME
350
6
  3
ACAD_SCALELIST
350
9859
  3
ACAD_SECTIONVIEWSTYLE
350
60639D2
  3
ACAD_TABLESTYLE
350
46A6
  3
ACAD_VISUALSTYLE
350
9847
  3
AcadDim
350
61415
  3
ACDB_RECOMPOSE_DATA
350
60639EF
  3
ACDBHEADERROUNDTRIPXREC
350
6335C
  3
ACDBVARIABLEDICTIONARY
350
4557
  3
ASE_INDEX_DICTIONARY
350
62B1E
  0
DICTIONARY
  5
628B8
330
1A
100
AcDbDictionary
280
     1
281
     1
  0
DICTIONARY
  5
3FD7
330
10
100
AcDbDictionary
280
     1
281
     1
  3
ACAD_LAYERFILTERS
360
158C4
  3
ACAD_LAYERSTATES
360
3FD8
  3
ACLYDICTIONARY
360
158C3
  0
DICTIONARY
  5
9891
330
4
100
AcDbDictionary
280
     1
281
     1
  3
ADSK_XREC_LAYER_RECONCILED
360
9892
  0
DICTIONARY
  5
9893
330
400
100
AcDbDictionary
280
     1
281
     1
  3
ADSK_XREC_LAYER_RECONCILED
360
9894
  0
DICTIONARY
  5
9897
330
403
100
AcDbDictionary
280
     1
281
     1
  3
ADSK_XREC_LAYER_RECONCILED
360
9898
  0
DICTIONARY
  5
989B
330
405
100
AcDbDictionary
280
     1
281
     1
  3
ADSK_XREC_LAYER_RECONCILED
360
989C
  0
DICTIONARY
  5
989F
330
92F
100
AcDbDictionary
280
     1
281
     1
  3
ADSK_XREC_LAYER_RECONCILED
360
98A0
  0
DICTIONARY
  5
98A7
330
3FD5
100
AcDbDictionary
280
     1
281
     1
  3
ADSK_XREC_LAYER_RECONCILED
360
98A8
  0
DICTIONARY
  5
98A9
330
4563
100
AcDbDictionary
280
     1
281
     1
  3
ADSK_XREC_LAYER_RECONCILED
360
98AA
  0
DICTIONARY
  5
98C5
330
2
100
AcDbDictionary
280
     1
281
     1
  3
ACAD_SORTENTS
360
98C6
  0
DICTIONARY
  5
639C6
330
636B1
100
AcDbDictionary
280
     1
281
     1
  0
DICTIONARY
  5
639CA
330
63937
100
AcDbDictionary
280
     1
281
     1
  0
DICTIONARY
  5
639CC
330
6393F
100
AcDbDictionary
280
     1
281
     1
  0
DICTIONARY
  5
639C8
330
6384A
100
AcDbDictionary
280
     1
281
     1
  0
DICTIONARY
  5
6398C
330
2C09
100
AcDbDictionary
280
     1
281
     1
  0
XRECORD
  5
60639DF
102
{ACAD_REACTORS
330
7
102
}
330
7
100
AcDbXrecord
280
     1
300
ACD
300
2017
300
ACD_F_S
  0
DICTIONARY
  5
29
102
{ACAD_REACTORS
330
7
102
}
330
7
100
AcDbDictionary
281
     1
  0
DICTIONARY
  5
60639D4
102
{ACAD_REACTORS
330
7
102
}
330
7
100
AcDbDictionary
281
     1
  3
Metric50
350
60639D5
  0
DICTIONARY
  5
25
102
{ACAD_REACTORS
330
7
102
}
330
7
100
AcDbDictionary
281
     1
  0
DICTIONARY
  5
2BE1
102
{ACAD_REACTORS
330
7
102
}
330
7
100
AcDbDictionary
281
     1
  3
irunin
350
2BE3
  0
ACAD_PROXY_OBJECT
  5
2BE2
102
{ACAD_REACTORS
330
7
102
}
330
7
100
AcDbProxyObject
 90
      499
 91
      508
 95
       27
 70
     0
162
                 0
161
                40
310
409014050100
 94
        0
1001
ACAD
1000
AcRTDxfName
1000
RASTERVARIABLES
1000
AcRTDxfName
1000
RASTERVARIABLES
1000
AcRTDxfName
1000
RASTERVARIABLES
1000
AcRTDxfName
1000
RASTERVARIABLES
1000
AcRTDxfName
1000
RASTERVARIABLES
1000
AcRTDxfName
1000
RASTERVARIABLES
1000
AcRTDxfName
1000
RASTERVARIABLES
1000
AcRTDxfName
1000
RASTERVARIABLES
1000
AcRTDxfName
1000
RASTERVARIABLES
1000
AcRTDxfName
1000
RASTERVARIABLES
1000
AcRTDxfName
1000
RASTERVARIABLES
  0
DICTIONARY
  5
B
102
{ACAD_REACTORS
330
7
102
}
330
7
100
AcDbDictionary
281
     1
  3
Model
350
A
  3
布局1
350
F
1001
AcadStringInfo
1000
MIFCodePage
1070
     5
  0
DICTIONARY
  5
28
102
{ACAD_REACTORS
330
7
102
}
330
7
100
AcDbDictionary
281
     1
  3
ByBlock
350
9837
  3
ByLayer
350
982F
  3
Global
350
983F
  0
DICTIONARY
  5
987B
102
{ACAD_REACTORS
330
7
102
}
330
7
100
AcDbDictionary
281
     1
  3
Standard
350
987C
  0
DICTIONARY
  5
26
102
{ACAD_REACTORS
330
7
102
}
330
7
100
AcDbDictionary
281
     1
  3
Standard
350
2A
  0
DICTIONARY
  5
27
102
{ACAD_REACTORS
330
7
102
}
330
7
100
AcDbDictionary
281
     1
  3
设置1
350
30A40
1001
AcadStringInfo
1000
MIFCodePage
1070
     5
  0
ACDBDICTIONARYWDFLT
  5
6
102
{ACAD_REACTORS
330
7
102
}
330
7
100
AcDbDictionary
281
     1
  3
Normal
350
5
100
AcDbDictionaryWithDefault
340
5
  0
DICTIONARY
  5
9859
102
{ACAD_REACTORS
330
7
102
}
330
7
100
AcDbDictionary
281
     1
  3
A0
350
985A
  3
A1
350
985B
  3
A2
350
985C
  3
A3
350
985D
  3
A4
350
985E
  3
A5
350
985F
  3
A6
350
9860
  3
A7
350
9861
  3
A8
350
9862
  3
A9
350
9863
  3
B0
350
9864
  3
B1
350
9865
  3
B2
350
9866
  3
B3
350
9867
  3
B4
350
9868
  3
B5
350
9869
  3
B6
350
986A
  3
B7
350
986B
  3
B8
350
986C
  3
B9
350
986D
  3
C0
350
986E
  3
C1
350
986F
  3
C2
350
9870
  3
C3
350
9871
  3
C4
350
9872
  3
C5
350
9873
  3
C6
350
9874
  3
C7
350
9875
  3
C8
350
9876
  3
C9
350
9877
  3
D0
350
9878
  3
D1
350
9879
  3
D2
350
987A
  0
DICTIONARY
  5
60639D2
102
{ACAD_REACTORS
330
7
102
}
330
7
100
AcDbDictionary
281
     1
  3
Metric50
350
60639D3
  0
DICTIONARY
  5
46A6
102
{ACAD_REACTORS
330
7
102
}
330
7
100
AcDbDictionary
281
     1
  3
Standard
350
9858
  0
DICTIONARY
  5
9847
102
{ACAD_REACTORS
330
7
102
}
330
7
100
AcDbDictionary
281
     1
  3
2dWireframe
350
984D
  3
3D Hidden
350
984F
  3
3dWireframe
350
984E
  3
Basic
350
984C
  3
Brighten
350
9853
  3
ColorChange
350
9857
  3
Conceptual
350
9850
  3
Dim
350
9852
  3
EdgeColorOff
350
63372
  3
Facepattern
350
9856
  3
Flat
350
9848
  3
FlatWithEdges
350
9849
  3
Gouraud
350
984A
  3
GouraudWithEdges
350
984B
  3
Hidden
350
6336A
  3
JitterOff
350
63370
  3
Linepattern
350
9855
  3
OverhangOff
350
63371
  3
Realistic
350
9851
  3
Shaded
350
6336F
  3
Shaded with edges
350
6336E
  3
Shades of Gray
350
6336B
  3
Sketchy
350
6336C
  3
Thicken
350
9854
  3
Wireframe
350
63369
  3
X-Ray
350
6336D
  0
XRECORD
  5
61415
102
{ACAD_REACTORS
330
7
102
}
330
7
100
AcDbXrecord
280
     1
 90
   990106
  3

 60
     0
 61
     0
 62
     1
 63
     3
 64
     0
 65
     0
 66
     0
 67
     3
 68
     1
 69
     0
 70
     0
 71
     0
 72
     0
 40
13.70396488517739
170
     1
340
47027
  0
XRECORD
  5
60639EF
102
{ACAD_REACTORS
330
7
102
}
330
7
100
AcDbXrecord
280
     1
 90
        1
330
9858
330
6351F
330
635FC
330
60639D3
330
60639D5
  0
DICTIONARY
  5
6335C
102
{ACAD_REACTORS
330
7
102
}
330
7
100
AcDbDictionary
281
     1
  0
DICTIONARY
  5
4557
102
{ACAD_REACTORS
330
7
102
}
330
7
100
AcDbDictionary
281
     1
  3
CANNOSCALE
350
B806
  3
CMLEADERSTYLE
350
B804
  3
CTABLESTYLE
350
B803
  3
CVIEWDETAILSTYLE
350
60639E8
  3
CVIEWSECTIONSTYLE
350
60639E9
  3
DGNFRAME
350
628E9
  3
DIMASSOC
350
4558
  3
HIDETEXT
350
628E8
  3
INDEXCTL
350
628E7
  3
LAYEREVAL
350
6338E
  3
LAYERNOTIFY
350
6338F
  3
LIGHTINGUNITS
350
B807
  3
MSLTSCALE
350
B805
  3
PROJECTNAME
350
62987
  3
SORTENTS
350
628E6
  0
DICTIONARY
  5
62B1E
102
{ACAD_REACTORS
330
7
102
}
330
7
100
AcDbDictionary
281
     1
  3
ASEBlockHierarchyIndexRecord
350
62B1F
1001
DCO15
1040
1674647410.015
  0
DICTIONARY
  5
158C4
102
{ACAD_REACTORS
330
3FD7
102
}
330
3FD7
100
AcDbDictionary
281
     1
  0
DICTIONARY
  5
3FD8
102
{ACAD_REACTORS
330
3FD7
102
}
330
3FD7
100
AcDbDictionary
281
     1
  0
DICTIONARY
  5
158C3
102
{ACAD_REACTORS
330
3FD7
102
}
330
3FD7
100
AcDbDictionary
281
     1
1001
ACAD
1000
<All
  0
XRECORD
  5
9892
102
{ACAD_REACTORS
330
9891
102
}
330
9891
100
AcDbXrecord
280
     1
290
     1
  0
XRECORD
  5
9894
102
{ACAD_REACTORS
330
9893
102
}
330
9893
100
AcDbXrecord
280
     1
290
     1
  0
XRECORD
  5
9898
102
{ACAD_REACTORS
330
9897
102
}
330
9897
100
AcDbXrecord
280
     1
290
     1
  0
XRECORD
  5
989C
102
{ACAD_REACTORS
330
989B
102
}
330
989B
100
AcDbXrecord
280
     1
290
     1
  0
XRECORD
  5
98A0
102
{ACAD_REACTORS
330
989F
102
}
330
989F
100
AcDbXrecord
280
     1
290
     1
  0
XRECORD
  5
98A8
102
{ACAD_REACTORS
330
98A7
102
}
330
98A7
100
AcDbXrecord
280
     1
290
     1
  0
XRECORD
  5
98AA
102
{ACAD_REACTORS
330
98A9
102
}
330
98A9
100
AcDbXrecord
280
     1
290
     1
  0
SORTENTSTABLE
  5
98C6
102
{ACAD_REACTORS
330
98C5
102
}
330
98C5
100
AcDbSortentsTable
330
2
331
63775
  5
6377B
331
62A0D
  5
62A10
331
622E4
  5
62337
331
62587
  5
6258D
331
62583
  5
62589
331
6227C
  5
622BC
331
62BF5
  5
632FD
331
62A01
  5
62A04
331
6257F
  5
62585
331
6257B
  5
62581
331
47027
  5
4724F
331
47A0
  5
47A0
331
634D1
  5
6257E
331
62574
  5
62578
331
62275
  5
6227D
331
62570
  5
62574
331
62271
  5
6227B
331
6256C
  5
6256F
331
62A35
  5
62BF5
331
6226D
  5
6227A
331
62568
  5
6256B
331
62A31
  5
62A36
331
62269
  5
62273
331
6387D
  5
6387E
331
6380E
  5
63810
331
63879
  5
6387A
331
635FD
  5
63774
331
6378D
  5
6380C
331
6356D
  5
635FC
331
63789
  5
6378C
331
633C8
  5
63455
331
62A2D
  5
62A31
331
62265
  5
62270
331
62A29
  5
62A2E
331
62A25
  5
62A28
331
62394
  5
6248A
331
62A21
  5
62A24
331
62259
  5
62268
331
6259A
  5
6270A
331
62596
  5
626F2
331
63785
  5
63787
331
63565
  5
6356C
331
63781
  5
63783
331
6377D
  5
6377F
331
62A1E
  5
62A21
331
62A1A
  5
62A1D
331
6258C
  5
62593
331
62A16
  5
62A19
331
62588
  5
6258E
331
62A12
  5
62A16
331
629FD
  5
62A00
331
62584
  5
6258A
331
62A0E
  5
62A11
331
62580
  5
62586
331
62A0A
  5
62A0D
331
62A06
  5
62A0A
331
6257C
  5
62582
331
62A02
  5
62A05
331
62578
  5
6257D
331
81A8
  5
88B6
331
8184
  5
88B5
331
62575
  5
62579
331
62276
  5
6227E
331
62571
  5
62577
331
62A36
  5
632FA
331
6256D
  5
62570
331
62A32
  5
62B68
331
62569
  5
6256C
331
8151
  5
8822
331
6387E
  5
6387F
331
6380F
  5
63811
331
6380B
  5
6380D
331
62565
  5
62568
331
62266
  5
62271
331
62A2E
  5
62A32
331
62262
  5
6226D
331
62A2A
  5
62A2D
331
62A26
  5
62A29
331
62A22
  5
62A25
331
626F2
  5
629FA
331
6259B
  5
629F8
331
62597
  5
62708
331
8D7A
  5
9332
331
63866
  5
63867
331
63786
  5
63788
331
63782
  5
63784
331
6377E
  5
63780
331
6377A
  5
6377C
331
62A1F
  5
62A22
331
62A1B
  5
62A1E
331
6258D
  5
62594
331
62A17
  5
62A1A
331
62589
  5
6258F
331
7FDE
  5
86EB
331
62255
  5
62266
331
629FE
  5
62A01
331
629FA
  5
629FE
331
63847
  5
62571
331
63773
  5
63775
331
6351F
  5
63565
331
62585
  5
6258B
331
62A0F
  5
62A12
331
62581
  5
62587
331
62A0B
  5
62A0E
331
62A07
  5
62A08
331
6257D
  5
62583
331
62A03
  5
62A06
331
62579
  5
6257F
331
633FE
  5
634D0
331
62576
  5
6257A
331
6256E
  5
62572
331
62A33
  5
62B9F
331
6256A
  5
6256D
331
8ED7
  5
9333
331
63810
  5
63847
331
6380C
  5
6380E
331
6387F
  5
63880
331
6387B
  5
6387C
331
6378B
  5
6378D
331
6356F
  5
62A2C
331
62566
  5
62569
331
62A2F
  5
62A33
331
62267
  5
62272
331
62A2B
  5
62A2F
331
62263
  5
6226E
331
62A23
  5
62A26
331
6225B
  5
6226B
331
62598
  5
62709
331
62594
  5
6259B
331
62590
  5
62598
331
81C7
  5
88BB
331
63867
  5
63877
331
63787
  5
63789
331
63783
  5
63785
331
63567
  5
6356F
331
6377F
  5
63781
331
6377B
  5
6377D
331
62A1C
  5
62A1F
331
62A18
  5
62A1B
331
62A14
  5
62A17
331
6258E
  5
62595
331
62A10
  5
62A13
331
6231F
  5
6233E
331
6258A
  5
62590
331
62256
  5
6226A
331
629FF
  5
62A02
331
62252
  5
6225B
331
629FB
  5
629FF
331
63774
  5
63776
331
63520
  5
63567
331
62A0C
  5
62A0F
331
62586
  5
6258C
331
62A08
  5
62A0C
331
62582
  5
62588
331
62A04
  5
62A07
331
62A00
  5
62A03
331
6257E
  5
62584
331
6257A
  5
62580
331
6227B
  5
622A4
331
47AF
  5
47AF
331
634F4
  5
63521
331
62270
  5
62279
331
62577
  5
6257C
331
6226C
  5
62278
331
62A30
  5
62A35
331
62268
  5
62262
331
6256F
  5
62573
331
6256B
  5
6256E
331
8127
  5
87FF
331
63880
  5
6257B
331
63811
  5
63866
331
6387C
  5
6387D
331
6380D
  5
6380F
331
63878
  5
63879
331
635FC
  5
63604
331
6378C
  5
6380B
331
63788
  5
6378A
331
63568
  5
635FD
331
62A2C
  5
62A30
331
62264
  5
6225C
331
62A28
  5
62A2A
331
62260
  5
6226F
331
62567
  5
6256A
331
62A24
  5
62A27
331
6225C
  5
62267
331
62A20
  5
62A23
331
62B9F
  5
632FC
331
62258
  5
6226C
331
62595
  5
626E5
331
80BB
  5
87FB
331
62591
  5
6259A
331
807B
  5
87F7
331
63784
  5
63786
331
63564
  5
63568
331
63780
  5
63782
331
6377C
  5
6377E
331
62A1D
  5
62A20
331
62B68
  5
632FB
331
62A19
  5
62A1C
331
62A15
  5
62A18
331
626E5
  5
629F9
331
6258F
  5
62597
331
62A11
  5
62A15
331
6258B
  5
62591
331
629FC
  5
629FC
331
47C4
  5
47C4
331
629F8
  5
629FB
331
81BF
  5
88BA
331
62253
  5
62264
  0
ACDBDETAILVIEWSTYLE
  5
60639D5
102
{ACAD_XDICTIONARY
360
60639ED
102
}
102
{ACAD_REACTORS
330
60639D4
102
}
330
60639D4
100
AcDbModelDocViewStyle
 70
     0
  3
Metric50
290
     0
100
AcDbDetailViewStyle
 70
     0
 71
     0
 90
        3
 71
     1
340
12
 62
   256
 40
5.0
340
0
 62
   256
 40
5.0
300

 40
0.0
280
     1
 71
     2
340
8
 90
       25
 62
   256
 71
     3
340
12
 62
   256
 40
5.0
 90
        0
 40
15.0
 90
        1
300
%<\AcVar ViewDetailId>% (%<\AcVar ViewScale \f "%sn">%)
 71
     4
340
8
 90
       25
 62
   256
340
8
 90
       25
 62
   256
280
     0
  0
IMAGEDEF
  5
2BE3
102
{ACAD_REACTORS
330
2BE1
102
}
330
2BE1
100
AcDbRasterImageDef
 90
        0
  1
C:\boot\irunin.bmp
 10
111.0
 20
63.0
 11
0.009009009009009
 21
0.009009009009009
280
     1
281
     0
  0
LAYOUT
  5
A
102
{ACAD_XDICTIONARY
360
63383
102
}
102
{ACAD_REACTORS
330
B
102
}
330
B
100
AcDbPlotSettings
  1

  2
Adobe PDF
  4
A4
  6

 40
3.174999952316284
 41
3.174999952316284
 42
3.175003051757812
 43
3.17498779296875
 44
209.9733276367187
 45
297.0318298339844
 46
0.0
 47
0.0
 48
3740.595505750928
 49
3114.836639196294
140
6084.185847356919
141
4166.422525467189
142
1.0
143
8.062389878796981
 70
  3760
 72
     1
 73
     1
 74
     4
  7
grayscaleDS.ctb
 75
     0
147
0.1240327018456237
 76
     1
 77
     2
 78
   300
148
-3740.595505750928
149
-3114.836639196294
100
AcDbLayout
  1
Model
 70
     1
 71
     0
 10
0.0
 20
0.0
 11
12.0
 21
9.0
 12
0.0
 22
0.0
 32
0.0
 14
0.2380952380952381
 24
-0.6113291389338498
 34
0.0
 15
2371.078652631803
 25
1364.802114083393
 35
0.0
146
0.0
 13
0.0
 23
0.0
 33
0.0
 16
1.0
 26
0.0
 36
0.0
 17
0.0
 27
1.0
 37
0.0
 76
     0
330
2
331
6335A
1001
AcadStringInfo
1000
MIFCodePage
1070
     5
1001
ACAD_PSEXT
1000
Adobe PDF
1000
Adobe PDF Converter
1000
Documents\*.pdf
1000

1070
     0
  0
LAYOUT
  5
F
102
{ACAD_XDICTIONARY
360
6338C
102
}
102
{ACAD_REACTORS
330
B
102
}
330
B
100
AcDbPlotSettings
  1

  2
在 SKF 上自动 HP LaserJet 1020
  4
A4
  6

 40
4.773083209991455
 41
4.942401409149169
 42
4.815414428710936
 43
4.7730712890625
 44
210.0156707763672
 45
297.0106506347656
 46
0.0
 47
0.0
 48
0.0
 49
0.0
140
0.0
141
0.0
142
1.0
143
1.0
 70
   688
 72
     1
 73
     1
 74
     5
  7
acad.ctb
 75
    16
147
1.0
 76
     1
 77
     2
 78
   300
148
0.0
149
0.0
100
AcDbLayout
  1
布局1
 70
     0
 71
     1
 10
-4.7730712890625
 20
-4.773083209991455
 11
292.2375793457031
 21
205.2425875663757
 12
0.0
 22
0.0
 32
0.0
 14
231.5628581642607
 24
85.44559382699658
 34
-0.0015258207003583
 15
276.520524714962
 25
126.0476833016569
 35
0.0000000349246037
146
0.0
 13
0.0
 23
0.0
 33
0.0
 16
1.0
 26
0.0
 36
0.0
 17
0.0
 27
1.0
 37
0.0
 76
     0
330
C
331
99
1001
AcadStringInfo
1000
MIFCodePage
1070
     5
  0
MATERIAL
  5
9837
102
{ACAD_XDICTIONARY
360
9838
102
}
102
{ACAD_REACTORS
330
28
102
}
330
28
100
AcDbMaterial
  1
ByBlock
 72
     0
 43
0.0008202099737533
 43
0.0
 43
0.0
 43
0.0
 43
0.0
 43
0.0008202099737533
 43
0.0
 43
0.0
 43
0.0
 43
0.0
 43
1.0
 43
0.0
 43
0.0
 43
0.0
 43
0.0
 43
1.0
 77
     0
 47
0.0008202099737533
 47
0.0
 47
0.0
 47
0.0
 47
0.0
 47
0.0008202099737533
 47
0.0
 47
0.0
 47
0.0
 47
0.0
 47
1.0
 47
0.0
 47
0.0
 47
0.0
 47
0.0
 47
1.0
171
     0
 49
0.0008202099737533
 49
0.0
 49
0.0
 49
0.0
 49
0.0
 49
0.0008202099737533
 49
0.0
 49
0.0
 49
0.0
 49
0.0
 49
1.0
 49
0.0
 49
0.0
 49
0.0
 49
0.0
 49
1.0
175
     0
142
0.0008202099737533
142
0.0
142
0.0
142
0.0
142
0.0
142
0.0008202099737533
142
0.0
142
0.0
142
0.0
142
0.0
142
1.0
142
0.0
142
0.0
142
0.0
142
0.0
142
1.0
179
     0
144
0.0008202099737533
144
0.0
144
0.0
144
0.0
144
0.0
144
0.0008202099737533
144
0.0
144
0.0
144
0.0
144
0.0
144
1.0
144
0.0
144
0.0
144
0.0
144
0.0
144
1.0
147
0.0008202099737533
147
0.0
147
0.0
147
0.0
147
0.0
147
0.0008202099737533
147
0.0
147
0.0
147
0.0
147
0.0
147
1.0
147
0.0
147
0.0
147
0.0
147
0.0
147
1.0
  0
MATERIAL
  5
982F
102
{ACAD_XDICTIONARY
360
9830
102
}
102
{ACAD_REACTORS
330
28
102
}
330
28
100
AcDbMaterial
  1
ByLayer
 72
     0
 43
0.0008202099737533
 43
0.0
 43
0.0
 43
0.0
 43
0.0
 43
0.0008202099737533
 43
0.0
 43
0.0
 43
0.0
 43
0.0
 43
1.0
 43
0.0
 43
0.0
 43
0.0
 43
0.0
 43
1.0
 77
     0
 47
0.0008202099737533
 47
0.0
 47
0.0
 47
0.0
 47
0.0
 47
0.0008202099737533
 47
0.0
 47
0.0
 47
0.0
 47
0.0
 47
1.0
 47
0.0
 47
0.0
 47
0.0
 47
0.0
 47
1.0
171
     0
 49
0.0008202099737533
 49
0.0
 49
0.0
 49
0.0
 49
0.0
 49
0.0008202099737533
 49
0.0
 49
0.0
 49
0.0
 49
0.0
 49
1.0
 49
0.0
 49
0.0
 49
0.0
 49
0.0
 49
1.0
175
     0
142
0.0008202099737533
142
0.0
142
0.0
142
0.0
142
0.0
142
0.0008202099737533
142
0.0
142
0.0
142
0.0
142
0.0
142
1.0
142
0.0
142
0.0
142
0.0
142
0.0
142
1.0
179
     0
144
0.0008202099737533
144
0.0
144
0.0
144
0.0
144
0.0
144
0.0008202099737533
144
0.0
144
0.0
144
0.0
144
0.0
144
1.0
144
0.0
144
0.0
144
0.0
144
0.0
144
1.0
147
0.0008202099737533
147
0.0
147
0.0
147
0.0
147
0.0
147
0.0008202099737533
147
0.0
147
0.0
147
0.0
147
0.0
147
1.0
147
0.0
147
0.0
147
0.0
147
0.0
147
1.0
  0
MATERIAL
  5
983F
102
{ACAD_XDICTIONARY
360
9840
102
}
102
{ACAD_REACTORS
330
28
102
}
330
28
100
AcDbMaterial
  1
Global
 72
     0
 43
0.0008202099737533
 43
0.0
 43
0.0
 43
0.0
 43
0.0
 43
0.0008202099737533
 43
0.0
 43
0.0
 43
0.0
 43
0.0
 43
1.0
 43
0.0
 43
0.0
 43
0.0
 43
0.0
 43
1.0
 77
     0
 47
0.0008202099737533
 47
0.0
 47
0.0
 47
0.0
 47
0.0
 47
0.0008202099737533
 47
0.0
 47
0.0
 47
0.0
 47
0.0
 47
1.0
 47
0.0
 47
0.0
 47
0.0
 47
0.0
 47
1.0
171
     0
 49
0.0008202099737533
 49
0.0
 49
0.0
 49
0.0
 49
0.0
 49
0.0008202099737533
 49
0.0
 49
0.0
 49
0.0
 49
0.0
 49
1.0
 49
0.0
 49
0.0
 49
0.0
 49
0.0
 49
1.0
175
     0
142
0.0008202099737533
142
0.0
142
0.0
142
0.0
142
0.0
142
0.0008202099737533
142
0.0
142
0.0
142
0.0
142
0.0
142
1.0
142
0.0
142
0.0
142
0.0
142
0.0
142
1.0
179
     0
144
0.0008202099737533
144
0.0
144
0.0
144
0.0
144
0.0
144
0.0008202099737533
144
0.0
144
0.0
144
0.0
144
0.0
144
1.0
144
0.0
144
0.0
144
0.0
144
0.0
144
1.0
147
0.0008202099737533
147
0.0
147
0.0
147
0.0
147
0.0
147
0.0008202099737533
147
0.0
147
0.0
147
0.0
147
0.0
147
1.0
147
0.0
147
0.0
147
0.0
147
0.0
147
1.0
  0
MLEADERSTYLE
  5
987C
102
{ACAD_REACTORS
330
987B
102
}
330
987B
100
AcDbMLeaderStyle
179
     2
170
     2
171
     1
172
     0
 90
        2
 40
0.0
 41
0.0
173
     1
 91
-1056964608
340
16
 92
       -2
290
     1
 42
2.0
291
     1
 43
0.36
  3
Standard
 44
4.0
300

342
12
174
     1
178
     6
175
     1
176
     0
 93
-1056964608
 45
4.0
292
     0
297
     0
 46
4.0
 94
-1056964608
 47
1.0
 49
1.0
140
1.0
293
     1
141
0.0
294
     1
177
     0
142
1.0
295
     0
296
     0
143
0.125
271
     0
272
     9
273
     9
298
     0
1001
ACAD
1000
AcRTDxfName
1000
MLEADERSTYLE
1000
AcRTDxfName
1000
MLEADERSTYLE
1000
AcRTDxfName
1000
MLEADERSTYLE
1000
AcRTDxfName
1000
MLEADERSTYLE
1000
AcRTDxfName
1000
MLEADERSTYLE
1000
AcRTDxfName
1000
MLEADERSTYLE
  0
MLINESTYLE
  5
2A
102
{ACAD_REACTORS
330
26
102
}
330
26
100
AcDbMlineStyle
  2
STANDARD
 70
     0
  3

 62
   256
 51
90.0
 52
90.0
 71
     2
 49
0.5
 62
   256
  6
BYLAYER
 49
-0.5
 62
   256
  6
BYLAYER
  0
PLOTSETTINGS
  5
30A40
102
{ACAD_REACTORS
330
27
102
}
330
27
100
AcDbPlotSettings
  1
设置1
  2
\\192.168.1.102\HP LaserJet 1020
  4
A4
  6

 40
4.773083209991455
 41
4.942401409149169
 42
4.815414428710936
 43
4.7730712890625
 44
210.0156707763672
 45
297.0106506347656
 46
0.0
 47
8.162242915879204
 48
4678.397198801646
 49
199.7202550513075
140
4813.122570352224
141
299.3717161006835
142
1.0
143
0.4971953627312283
 70
  3764
 72
     1
 73
     1
 74
     4
  7
acad.ctb
 75
     0
147
2.01128183196788
 76
     1
 77
     2
 78
   300
148
-4678.397198801646
149
-199.7202550513075
1001
ACAD_PSEXT
1000
\\192.168.1.102\HP LaserJet 1020
1000
HP LaserJet 1020
1000
\\192.168.1.102
1000

1070
     0
1001
AcadStringInfo
1000
MIFCodePage
1070
     5
  0
ACDBPLACEHOLDER
  5
5
102
{ACAD_REACTORS
330
6
102
}
330
6
  0
SCALE
  5
985A
102
{ACAD_REACTORS
330
9859
102
}
330
9859
100
AcDbScale
 70
     0
300
1:1
140
1.0
141
1.0
290
     1
1001
ACAD
1000
AcRTDxfName
1000
SCALE
1000
AcRTDxfName
1000
SCALE
1000
AcRTDxfName
1000
SCALE
1000
AcRTDxfName
1000
SCALE
1000
AcRTDxfName
1000
SCALE
1000
AcRTDxfName
1000
SCALE
  0
SCALE
  5
985B
102
{ACAD_REACTORS
330
9859
102
}
330
9859
100
AcDbScale
 70
     0
300
1:2
140
1.0
141
2.0
290
     0
1001
ACAD
1000
AcRTDxfName
1000
SCALE
1000
AcRTDxfName
1000
SCALE
1000
AcRTDxfName
1000
SCALE
1000
AcRTDxfName
1000
SCALE
1000
AcRTDxfName
1000
SCALE
1000
AcRTDxfName
1000
SCALE
  0
SCALE
  5
985C
102
{ACAD_REACTORS
330
9859
102
}
330
9859
100
AcDbScale
 70
     0
300
1:4
140
1.0
141
4.0
290
     0
1001
ACAD
1000
AcRTDxfName
1000
SCALE
1000
AcRTDxfName
1000
SCALE
1000
AcRTDxfName
1000
SCALE
1000
AcRTDxfName
1000
SCALE
1000
AcRTDxfName
1000
SCALE
1000
AcRTDxfName
1000
SCALE
  0
SCALE
  5
985D
102
{ACAD_REACTORS
330
9859
102
}
330
9859
100
AcDbScale
 70
     0
300
1:5
140
1.0
141
5.0
290
     0
1001
ACAD
1000
AcRTDxfName
1000
SCALE
1000
AcRTDxfName
1000
SCALE
1000
AcRTDxfName
1000
SCALE
1000
AcRTDxfName
1000
SCALE
1000
AcRTDxfName
1000
SCALE
1000
AcRTDxfName
1000
SCALE
  0
SCALE
  5
985E
102
{ACAD_REACTORS
330
9859
102
}
330
9859
100
AcDbScale
 70
     0
300
1:8
140
1.0
141
8.0
290
     0
1001
ACAD
1000
AcRTDxfName
1000
SCALE
1000
AcRTDxfName
1000
SCALE
1000
AcRTDxfName
1000
SCALE
1000
AcRTDxfName
1000
SCALE
1000
AcRTDxfName
1000
SCALE
1000
AcRTDxfName
1000
SCALE
  0
SCALE
  5
985F
102
{ACAD_REACTORS
330
9859
102
}
330
9859
100
AcDbScale
 70
     0
300
1:10
140
1.0
141
10.0
290
     0
1001
ACAD
1000
AcRTDxfName
1000
SCALE
1000
AcRTDxfName
1000
SCALE
1000
AcRTDxfName
1000
SCALE
1000
AcRTDxfName
1000
SCALE
1000
AcRTDxfName
1000
SCALE
1000
AcRTDxfName
1000
SCALE
  0
SCALE
  5
9860
102
{ACAD_REACTORS
330
9859
102
}
330
9859
100
AcDbScale
 70
     0
300
1:16
140
1.0
141
16.0
290
     0
1001
ACAD
1000
AcRTDxfName
1000
SCALE
1000
AcRTDxfName
1000
SCALE
1000
AcRTDxfName
1000
SCALE
1000
AcRTDxfName
1000
SCALE
1000
AcRTDxfName
1000
SCALE
1000
AcRTDxfName
1000
SCALE
  0
SCALE
  5
9861
102
{ACAD_REACTORS
330
9859
102
}
330
9859
100
AcDbScale
 70
     0
300
1:20
140
1.0
141
20.0
290
     0
1001
ACAD
1000
AcRTDxfName
1000
SCALE
1000
AcRTDxfName
1000
SCALE
1000
AcRTDxfName
1000
SCALE
1000
AcRTDxfName
1000
SCALE
1000
AcRTDxfName
1000
SCALE
1000
AcRTDxfName
1000
SCALE
  0
SCALE
  5
9862
102
{ACAD_REACTORS
330
9859
102
}
330
9859
100
AcDbScale
 70
     0
300
1:30
140
1.0
141
30.0
290
     0
1001
ACAD
1000
AcRTDxfName
1000
SCALE
1000
AcRTDxfName
1000
SCALE
1000
AcRTDxfName
1000
SCALE
1000
AcRTDxfName
1000
SCALE
1000
AcRTDxfName
1000
SCALE
1000
AcRTDxfName
1000
SCALE
  0
SCALE
  5
9863
102
{ACAD_REACTORS
330
9859
102
}
330
9859
100
AcDbScale
 70
     0
300
1:40
140
1.0
141
40.0
290
     0
1001
ACAD
1000
AcRTDxfName
1000
SCALE
1000
AcRTDxfName
1000
SCALE
1000
AcRTDxfName
1000
SCALE
1000
AcRTDxfName
1000
SCALE
1000
AcRTDxfName
1000
SCALE
1000
AcRTDxfName
1000
SCALE
  0
SCALE
  5
9864
102
{ACAD_REACTORS
330
9859
102
}
330
9859
100
AcDbScale
 70
     0
300
1:50
140
1.0
141
50.0
290
     0
1001
ACAD
1000
AcRTDxfName
1000
SCALE
1000
AcRTDxfName
1000
SCALE
1000
AcRTDxfName
1000
SCALE
1000
AcRTDxfName
1000
SCALE
1000
AcRTDxfName
1000
SCALE
1000
AcRTDxfName
1000
SCALE
  0
SCALE
  5
9865
102
{ACAD_REACTORS
330
9859
102
}
330
9859
100
AcDbScale
 70
     0
300
1:100
140
1.0
141
100.0
290
     0
1001
ACAD
1000
AcRTDxfName
1000
SCALE
1000
AcRTDxfName
1000
SCALE
1000
AcRTDxfName
1000
SCALE
1000
AcRTDxfName
1000
SCALE
1000
AcRTDxfName
1000
SCALE
1000
AcRTDxfName
1000
SCALE
  0
SCALE
  5
9866
102
{ACAD_REACTORS
330
9859
102
}
330
9859
100
AcDbScale
 70
     0
300
2:1
140
2.0
141
1.0
290
     0
1001
ACAD
1000
AcRTDxfName
1000
SCALE
1000
AcRTDxfName
1000
SCALE
1000
AcRTDxfName
1000
SCALE
1000
AcRTDxfName
1000
SCALE
1000
AcRTDxfName
1000
SCALE
1000
AcRTDxfName
1000
SCALE
  0
SCALE
  5
9867
102
{ACAD_REACTORS
330
9859
102
}
330
9859
100
AcDbScale
 70
     0
300
4:1
140
4.0
141
1.0
290
     0
1001
ACAD
1000
AcRTDxfName
1000
SCALE
1000
AcRTDxfName
1000
SCALE
1000
AcRTDxfName
1000
SCALE
1000
AcRTDxfName
1000
SCALE
1000
AcRTDxfName
1000
SCALE
1000
AcRTDxfName
1000
SCALE
  0
SCALE
  5
9868
102
{ACAD_REACTORS
330
9859
102
}
330
9859
100
AcDbScale
 70
     0
300
8:1
140
8.0
141
1.0
290
     0
1001
ACAD
1000
AcRTDxfName
1000
SCALE
1000
AcRTDxfName
1000
SCALE
1000
AcRTDxfName
1000
SCALE
1000
AcRTDxfName
1000
SCALE
1000
AcRTDxfName
1000
SCALE
1000
AcRTDxfName
1000
SCALE
  0
SCALE
  5
9869
102
{ACAD_REACTORS
330
9859
102
}
330
9859
100
AcDbScale
 70
     0
300
10:1
140
10.0
141
1.0
290
     0
1001
ACAD
1000
AcRTDxfName
1000
SCALE
1000
AcRTDxfName
1000
SCALE
1000
AcRTDxfName
1000
SCALE
1000
AcRTDxfName
1000
SCALE
1000
AcRTDxfName
1000
SCALE
1000
AcRTDxfName
1000
SCALE
  0
SCALE
  5
986A
102
{ACAD_REACTORS
330
9859
102
}
330
9859
100
AcDbScale
 70
     0
300
100:1
140
100.0
141
1.0
290
     0
1001
ACAD
1000
AcRTDxfName
1000
SCALE
1000
AcRTDxfName
1000
SCALE
1000
AcRTDxfName
1000
SCALE
1000
AcRTDxfName
1000
SCALE
1000
AcRTDxfName
1000
SCALE
1000
AcRTDxfName
1000
SCALE
  0
SCALE
  5
986B
102
{ACAD_REACTORS
330
9859
102
}
330
9859
100
AcDbScale
 70
     0
300
1/128" = 1'-0"
140
0.0078125
141
12.0
290
     0
1001
ACAD
1000
AcRTDxfName
1000
SCALE
1000
AcRTDxfName
1000
SCALE
1000
AcRTDxfName
1000
SCALE
1000
AcRTDxfName
1000
SCALE
1000
AcRTDxfName
1000
SCALE
1000
AcRTDxfName
1000
SCALE
  0
SCALE
  5
986C
102
{ACAD_REACTORS
330
9859
102
}
330
9859
100
AcDbScale
 70
     0
300
1/64" = 1'-0"
140
0.015625
141
12.0
290
     0
1001
ACAD
1000
AcRTDxfName
1000
SCALE
1000
AcRTDxfName
1000
SCALE
1000
AcRTDxfName
1000
SCALE
1000
AcRTDxfName
1000
SCALE
1000
AcRTDxfName
1000
SCALE
1000
AcRTDxfName
1000
SCALE
  0
SCALE
  5
986D
102
{ACAD_REACTORS
330
9859
102
}
330
9859
100
AcDbScale
 70
     0
300
1/32" = 1'-0"
140
0.03125
141
12.0
290
     0
1001
ACAD
1000
AcRTDxfName
1000
SCALE
1000
AcRTDxfName
1000
SCALE
1000
AcRTDxfName
1000
SCALE
1000
AcRTDxfName
1000
SCALE
1000
AcRTDxfName
1000
SCALE
1000
AcRTDxfName
1000
SCALE
  0
SCALE
  5
986E
102
{ACAD_REACTORS
330
9859
102
}
330
9859
100
AcDbScale
 70
     0
300
1/16" = 1'-0"
140
0.0625
141
12.0
290
     0
1001
ACAD
1000
AcRTDxfName
1000
SCALE
1000
AcRTDxfName
1000
SCALE
1000
AcRTDxfName
1000
SCALE
1000
AcRTDxfName
1000
SCALE
1000
AcRTDxfName
1000
SCALE
1000
AcRTDxfName
1000
SCALE
  0
SCALE
  5
986F
102
{ACAD_REACTORS
330
9859
102
}
330
9859
100
AcDbScale
 70
     0
300
3/32" = 1'-0"
140
0.09375
141
12.0
290
     0
1001
ACAD
1000
AcRTDxfName
1000
SCALE
1000
AcRTDxfName
1000
SCALE
1000
AcRTDxfName
1000
SCALE
1000
AcRTDxfName
1000
SCALE
1000
AcRTDxfName
1000
SCALE
1000
AcRTDxfName
1000
SCALE
  0
SCALE
  5
9870
102
{ACAD_REACTORS
330
9859
102
}
330
9859
100
AcDbScale
 70
     0
300
1/8" = 1'-0"
140
0.125
141
12.0
290
     0
1001
ACAD
1000
AcRTDxfName
1000
SCALE
1000
AcRTDxfName
1000
SCALE
1000
AcRTDxfName
1000
SCALE
1000
AcRTDxfName
1000
SCALE
1000
AcRTDxfName
1000
SCALE
1000
AcRTDxfName
1000
SCALE
  0
SCALE
  5
9871
102
{ACAD_REACTORS
330
9859
102
}
330
9859
100
AcDbScale
 70
     0
300
3/16" = 1'-0"
140
0.1875
141
12.0
290
     0
1001
ACAD
1000
AcRTDxfName
1000
SCALE
1000
AcRTDxfName
1000
SCALE
1000
AcRTDxfName
1000
SCALE
1000
AcRTDxfName
1000
SCALE
1000
AcRTDxfName
1000
SCALE
1000
AcRTDxfName
1000
SCALE
  0
SCALE
  5
9872
102
{ACAD_REACTORS
330
9859
102
}
330
9859
100
AcDbScale
 70
     0
300
1/4" = 1'-0"
140
0.25
141
12.0
290
     0
1001
ACAD
1000
AcRTDxfName
1000
SCALE
1000
AcRTDxfName
1000
SCALE
1000
AcRTDxfName
1000
SCALE
1000
AcRTDxfName
1000
SCALE
1000
AcRTDxfName
1000
SCALE
1000
AcRTDxfName
1000
SCALE
  0
SCALE
  5
9873
102
{ACAD_REACTORS
330
9859
102
}
330
9859
100
AcDbScale
 70
     0
300
3/8" = 1'-0"
140
0.375
141
12.0
290
     0
1001
ACAD
1000
AcRTDxfName
1000
SCALE
1000
AcRTDxfName
1000
SCALE
1000
AcRTDxfName
1000
SCALE
1000
AcRTDxfName
1000
SCALE
1000
AcRTDxfName
1000
SCALE
1000
AcRTDxfName
1000
SCALE
  0
SCALE
  5
9874
102
{ACAD_REACTORS
330
9859
102
}
330
9859
100
AcDbScale
 70
     0
300
1/2" = 1'-0"
140
0.5
141
12.0
290
     0
1001
ACAD
1000
AcRTDxfName
1000
SCALE
1000
AcRTDxfName
1000
SCALE
1000
AcRTDxfName
1000
SCALE
1000
AcRTDxfName
1000
SCALE
1000
AcRTDxfName
1000
SCALE
1000
AcRTDxfName
1000
SCALE
  0
SCALE
  5
9875
102
{ACAD_REACTORS
330
9859
102
}
330
9859
100
AcDbScale
 70
     0
300
3/4" = 1'-0"
140
0.75
141
12.0
290
     0
1001
ACAD
1000
AcRTDxfName
1000
SCALE
1000
AcRTDxfName
1000
SCALE
1000
AcRTDxfName
1000
SCALE
1000
AcRTDxfName
1000
SCALE
1000
AcRTDxfName
1000
SCALE
1000
AcRTDxfName
1000
SCALE
  0
SCALE
  5
9876
102
{ACAD_REACTORS
330
9859
102
}
330
9859
100
AcDbScale
 70
     0
300
1" = 1'-0"
140
1.0
141
12.0
290
     0
1001
ACAD
1000
AcRTDxfName
1000
SCALE
1000
AcRTDxfName
1000
SCALE
1000
AcRTDxfName
1000
SCALE
1000
AcRTDxfName
1000
SCALE
1000
AcRTDxfName
1000
SCALE
1000
AcRTDxfName
1000
SCALE
  0
SCALE
  5
9877
102
{ACAD_REACTORS
330
9859
102
}
330
9859
100
AcDbScale
 70
     0
300
1-1/2" = 1'-0"
140
1.5
141
12.0
290
     0
1001
ACAD
1000
AcRTDxfName
1000
SCALE
1000
AcRTDxfName
1000
SCALE
1000
AcRTDxfName
1000
SCALE
1000
AcRTDxfName
1000
SCALE
1000
AcRTDxfName
1000
SCALE
1000
AcRTDxfName
1000
SCALE
  0
SCALE
  5
9878
102
{ACAD_REACTORS
330
9859
102
}
330
9859
100
AcDbScale
 70
     0
300
3" = 1'-0"
140
3.0
141
12.0
290
     0
1001
ACAD
1000
AcRTDxfName
1000
SCALE
1000
AcRTDxfName
1000
SCALE
1000
AcRTDxfName
1000
SCALE
1000
AcRTDxfName
1000
SCALE
1000
AcRTDxfName
1000
SCALE
1000
AcRTDxfName
1000
SCALE
  0
SCALE
  5
9879
102
{ACAD_REACTORS
330
9859
102
}
330
9859
100
AcDbScale
 70
     0
300
6" = 1'-0"
140
6.0
141
12.0
290
     0
1001
ACAD
1000
AcRTDxfName
1000
SCALE
1000
AcRTDxfName
1000
SCALE
1000
AcRTDxfName
1000
SCALE
1000
AcRTDxfName
1000
SCALE
1000
AcRTDxfName
1000
SCALE
1000
AcRTDxfName
1000
SCALE
  0
SCALE
  5
987A
102
{ACAD_REACTORS
330
9859
102
}
330
9859
100
AcDbScale
 70
     0
300
1'-0" = 1'-0"
140
12.0
141
12.0
290
     0
1001
ACAD
1000
AcRTDxfName
1000
SCALE
1000
AcRTDxfName
1000
SCALE
1000
AcRTDxfName
1000
SCALE
1000
AcRTDxfName
1000
SCALE
1000
AcRTDxfName
1000
SCALE
1000
AcRTDxfName
1000
SCALE
  0
ACDBSECTIONVIEWSTYLE
  5
60639D3
102
{ACAD_XDICTIONARY
360
60639EB
102
}
102
{ACAD_REACTORS
330
60639D2
102
}
330
60639D2
100
AcDbModelDocViewStyle
 70
     0
  3
Metric50
290
     0
100
AcDbSectionViewStyle
 70
     0
 71
     0
 90
      102
 71
     1
340
12
 62
   256
 40
5.0
340
0
340
0
 62
   256
 40
5.0
300
I, O, Q, S, X, Z
 40
10.0
 90
        0
 40
2.5
 90
        0
 71
     2
340
8
 90
       25
 62
   256
340
8
 90
       50
 62
   256
 40
5.0
 40
2.5
 40
5.0
 71
     3
340
12
 62
   256
 40
5.0
 90
        0
 40
15.0
 90
        1
300
%<\AcVar ViewSectionStartId>%-%<\AcVar ViewSectionEndId>% (%<\AcVar ViewScale \f "%sn">%)
 71
     4
 62
   256
 62
   257
300
ANSI31
 40
1.0
 90
        0
290
     0
290
     0
 90
        6
 40
0.0
 40
1.570796326794896
 40
0.2617993877991494
 40
1.308996938995747
 40
-0.2617993877991494
 40
1.832595714594046
  0
TABLESTYLE
  5
9858
102
{ACAD_XDICTIONARY
360
B800
102
}
102
{ACAD_REACTORS
330
46A6
102
}
330
46A6
100
AcDbTableStyle
280
     0
  3
Standard
 70
     0
 71
     0
 40
1.5
 41
1.5
280
     0
281
     0
  7
Standard
140
4.5
170
     2
 62
     0
 63
     7
283
     0
 90
      512
 91
        0
  1

274
    -2
284
     1
 64
     0
275
    -2
285
     1
 65
     0
276
    -2
286
     1
 66
     0
277
    -2
287
     1
 67
     0
278
    -2
288
     1
 68
     0
279
    -2
289
     1
 69
     0
  7
Standard
140
6.0
170
     5
 62
     0
 63
     7
283
     0
 90
      512
 91
        0
  1

274
    -2
284
     1
 64
     0
275
    -2
285
     1
 65
     0
276
    -2
286
     1
 66
     0
277
    -2
287
     1
 67
     0
278
    -2
288
     1
 68
     0
279
    -2
289
     1
 69
     0
  7
Standard
140
4.5
170
     5
 62
     0
 63
     7
283
     0
 90
      512
 91
        0
  1

274
    -2
284
     1
 64
     0
275
    -2
285
     1
 65
     0
276
    -2
286
     1
 66
     0
277
    -2
287
     1
 67
     0
278
    -2
288
     1
 68
     0
279
    -2
289
     1
 69
     0
  0
VISUALSTYLE
  5
984D
102
{ACAD_REACTORS
330
9847
102
}
330
9847
100
AcDbVisualStyle
  2
2dWireframe
 70
     4
177
     3
291
     0
 70
    58
 90
        0
176
     1
 90
        2
176
     1
 90
        0
176
     1
 90
        0
176
     1
 40
0.6
176
     1
 40
30.0
176
     1
 62
     7
176
     1
 90
        1
176
     1
 90
        4
176
     1
 62
     7
176
     1
 62
   257
176
     1
 90
        1
176
     1
 90
        1
176
     1
 40
1.0
176
     1
 90
        0
176
     1
 62
   257
176
     1
 40
1.0
176
     1
 90
        1
176
     1
 90
        6
176
     1
 90
        2
176
     1
 62
     7
176
     1
 90
        5
176
     1
 90
        0
176
     1
 90
        0
176
     1
290
     0
176
     1
 90
        1
176
     1
 40
0.0
176
     1
 90
        0
176
     1
290
     1
176
     1
290
     1
176
     1
290
     0
176
     1
290
     0
176
     1
290
     0
176
     1
290
     0
176
     1
290
     0
176
     1
290
     0
176
     1
290
     0
176
     1
 90
       50
176
     1
 40
0.0
176
     1
 40
1.0
176
     1
 90
        0
176
     1
 62
    18
420
        0
176
     1
 90
       50
176
     1
 90
        3
176
     1
 62
     5
420
      255
176
     1
290
     0
176
     1
 90
       50
176
     1
 90
       50
176
     1
 90
       50
176
     1
290
     0
176
     1
 90
       50
176
     1
 62
   256
176
     0
 40
1.0
176
     0
 90
        2
176
     1
  1
strokes_ogs.tif
176
     1
290
     0
176
     1
 40
1.0
176
     1
 40
1.0
176
     1
1001
ACAD
1000
AcRTDxfName
1000
VISUALSTYLE
1000
AcRTDxfName
1000
VISUALSTYLE
1000
AcRTDxfName
1000
VISUALSTYLE
1000
AcRTDxfName
1000
VISUALSTYLE
1000
AcRTDxfName
1000
VISUALSTYLE
1000
AcRTDxfName
1000
VISUALSTYLE
  0
VISUALSTYLE
  5
984F
102
{ACAD_REACTORS
330
9847
102
}
330
9847
100
AcDbVisualStyle
  2
3D Hidden
 70
     6
177
     3
291
     0
 70
    58
 90
        1
176
     1
 90
        2
176
     1
 90
        2
176
     1
 90
        0
176
     1
 40
0.6
176
     1
 40
30.0
176
     1
 62
     7
176
     1
 90
        2
176
     1
 90
        2
176
     1
 62
     7
176
     1
 62
   257
176
     1
 90
        2
176
     1
 90
        1
176
     1
 40
40.0
176
     1
 90
        0
176
     1
 62
   257
176
     1
 40
1.0
176
     1
 90
        1
176
     1
 90
        6
176
     1
 90
        2
176
     1
 62
     7
176
     1
 90
        3
176
     1
 90
        0
176
     1
 90
        0
176
     1
290
     0
176
     1
 90
        1
176
     1
 40
0.0
176
     1
 90
        0
176
     1
290
     0
176
     1
290
     1
176
     1
290
     1
176
     1
290
     0
176
     1
290
     0
176
     1
290
     0
176
     1
290
     0
176
     1
290
     0
176
     1
290
     0
176
     1
 90
       50
176
     1
 40
0.0
176
     1
 40
1.0
176
     1
 90
        0
176
     1
 62
    18
420
        0
176
     1
 90
       50
176
     1
 90
        3
176
     1
 62
     5
420
      255
176
     1
290
     0
176
     1
 90
       50
176
     1
 90
       50
176
     1
 90
       50
176
     1
290
     0
176
     1
 90
       50
176
     1
 62
   256
176
     0
 40
1.0
176
     0
 90
        2
176
     1
  1
strokes_ogs.tif
176
     1
290
     0
176
     1
 40
1.0
176
     1
 40
1.0
176
     1
1001
ACAD
1000
AcRTDxfName
1000
VISUALSTYLE
1000
AcRTDxfName
1000
VISUALSTYLE
1000
AcRTDxfName
1000
VISUALSTYLE
1000
AcRTDxfName
1000
VISUALSTYLE
1000
AcRTDxfName
1000
VISUALSTYLE
1000
AcRTDxfName
1000
VISUALSTYLE
  0
VISUALSTYLE
  5
984E
102
{ACAD_REACTORS
330
9847
102
}
330
9847
100
AcDbVisualStyle
  2
3dWireframe
 70
     5
177
     3
291
     0
 70
    58
 90
        0
176
     1
 90
        2
176
     1
 90
        0
176
     1
 90
        0
176
     1
 40
0.6
176
     1
 40
30.0
176
     1
 62
     7
176
     1
 90
        1
176
     1
 90
        4
176
     1
 62
     7
176
     1
 62
   257
176
     1
 90
        1
176
     1
 90
        1
176
     1
 40
1.0
176
     1
 90
        0
176
     1
 62
   257
176
     1
 40
1.0
176
     1
 90
        1
176
     1
 90
        6
176
     1
 90
        2
176
     1
 62
     7
176
     1
 90
        5
176
     1
 90
        0
176
     1
 90
        0
176
     1
290
     0
176
     1
 90
        1
176
     1
 40
0.0
176
     1
 90
        0
176
     1
290
     0
176
     1
290
     1
176
     1
290
     1
176
     1
290
     0
176
     1
290
     0
176
     1
290
     0
176
     1
290
     0
176
     1
290
     0
176
     1
290
     0
176
     1
 90
       50
176
     1
 40
0.0
176
     1
 40
1.0
176
     1
 90
        0
176
     1
 62
    18
420
        0
176
     1
 90
       50
176
     1
 90
        3
176
     1
 62
     5
420
      255
176
     1
290
     0
176
     1
 90
       50
176
     1
 90
       50
176
     1
 90
       50
176
     1
290
     0
176
     1
 90
       50
176
     1
 62
   256
176
     0
 40
1.0
176
     0
 90
        2
176
     1
  1
strokes_ogs.tif
176
     1
290
     0
176
     1
 40
1.0
176
     1
 40
1.0
176
     1
1001
ACAD
1000
AcRTDxfName
1000
VISUALSTYLE
1000
AcRTDxfName
1000
VISUALSTYLE
1000
AcRTDxfName
1000
VISUALSTYLE
1000
AcRTDxfName
1000
VISUALSTYLE
1000
AcRTDxfName
1000
VISUALSTYLE
1000
AcRTDxfName
1000
VISUALSTYLE
  0
VISUALSTYLE
  5
984C
102
{ACAD_REACTORS
330
9847
102
}
330
9847
100
AcDbVisualStyle
  2
Basic
 70
     7
177
     3
291
     1
 70
    58
 90
        1
176
     1
 90
        0
176
     1
 90
        1
176
     1
 90
        0
176
     1
 40
0.6
176
     1
 40
30.0
176
     1
 62
     7
176
     1
 90
        0
176
     1
 90
        4
176
     1
 62
     7
176
     1
 62
   257
176
     1
 90
        1
176
     1
 90
        1
176
     1
 40
1.0
176
     1
 90
        8
176
     1
 62
     7
176
     1
 40
1.0
176
     1
 90
        1
176
     1
 90
        6
176
     1
 90
        2
176
     1
 62
     7
176
     1
 90
        5
176
     1
 90
        0
176
     1
 90
        0
176
     1
290
     0
176
     1
 90
        1
176
     1
 40
0.0
176
     1
 90
        0
176
     1
290
     0
176
     1
290
     1
176
     1
290
     1
176
     1
290
     0
176
     1
290
     0
176
     1
290
     0
176
     1
290
     0
176
     1
290
     0
176
     1
290
     0
176
     1
 90
       50
176
     1
 40
0.0
176
     1
 40
1.0
176
     1
 90
        0
176
     1
 62
    18
420
        0
176
     1
 90
       50
176
     1
 90
        3
176
     1
 62
     5
420
      255
176
     1
290
     0
176
     1
 90
       50
176
     1
 90
       50
176
     1
 90
       50
176
     1
290
     0
176
     1
 90
       50
176
     1
 62
   256
176
     0
 40
1.0
176
     0
 90
        2
176
     1
  1
strokes_ogs.tif
176
     1
290
     0
176
     1
 40
1.0
176
     1
 40
1.0
176
     1
1001
ACAD
1000
AcRTDxfName
1000
VISUALSTYLE
1000
AcRTDxfName
1000
VISUALSTYLE
1000
AcRTDxfName
1000
VISUALSTYLE
1000
AcRTDxfName
1000
VISUALSTYLE
1000
AcRTDxfName
1000
VISUALSTYLE
1000
AcRTDxfName
1000
VISUALSTYLE
  0
VISUALSTYLE
  5
9853
102
{ACAD_REACTORS
330
9847
102
}
330
9847
100
AcDbVisualStyle
  2
Brighten
 70
    12
177
     3
291
     1
 70
    58
 90
        2
176
     1
 90
        2
176
     1
 90
        0
176
     1
 90
        0
176
     1
 40
0.6
176
     1
 40
30.0
176
     1
 62
     7
176
     1
 90
        1
176
     1
 90
        4
176
     1
 62
     7
176
     1
 62
   257
176
     1
 90
        1
176
     1
 90
        1
176
     1
 40
1.0
176
     1
 90
        8
176
     1
 62
     7
176
     1
 40
1.0
176
     1
 90
        1
176
     1
 90
        6
176
     1
 90
        2
176
     1
 62
     7
176
     1
 90
        5
176
     1
 90
        0
176
     1
 90
        0
176
     1
290
     0
176
     1
 90
        1
176
     1
 40
50.0
176
     1
 90
        0
176
     1
290
     0
176
     1
290
     1
176
     1
290
     1
176
     1
290
     0
176
     1
290
     0
176
     1
290
     0
176
     1
290
     0
176
     1
290
     0
176
     1
290
     0
176
     1
 90
       50
176
     1
 40
0.0
176
     1
 40
1.0
176
     1
 90
        0
176
     1
 62
    18
420
        0
176
     1
 90
       50
176
     1
 90
        3
176
     1
 62
     5
420
      255
176
     1
290
     0
176
     1
 90
       50
176
     1
 90
       50
176
     1
 90
       50
176
     1
290
     0
176
     1
 90
       50
176
     1
 62
   256
176
     0
 40
1.0
176
     0
 90
        2
176
     1
  1
strokes_ogs.tif
176
     1
290
     0
176
     1
 40
1.0
176
     1
 40
1.0
176
     1
1001
ACAD
1000
AcRTDxfName
1000
VISUALSTYLE
1000
AcRTDxfName
1000
VISUALSTYLE
1000
AcRTDxfName
1000
VISUALSTYLE
1000
AcRTDxfName
1000
VISUALSTYLE
1000
AcRTDxfName
1000
VISUALSTYLE
1000
AcRTDxfName
1000
VISUALSTYLE
  0
VISUALSTYLE
  5
9857
102
{ACAD_REACTORS
330
9847
102
}
330
9847
100
AcDbVisualStyle
  2
ColorChange
 70
    16
177
     3
291
     1
 70
    58
 90
        2
176
     1
 90
        2
176
     1
 90
        3
176
     1
 90
        0
176
     1
 40
0.6
176
     1
 40
30.0
176
     1
 62
     8
176
     1
 90
        1
176
     1
 90
        4
176
     1
 62
     7
176
     1
 62
   257
176
     1
 90
        1
176
     1
 90
        1
176
     1
 40
1.0
176
     1
 90
        8
176
     1
 62
     8
176
     1
 40
1.0
176
     1
 90
        1
176
     1
 90
        6
176
     1
 90
        2
176
     1
 62
     7
176
     1
 90
        5
176
     1
 90
        0
176
     1
 90
        0
176
     1
290
     0
176
     1
 90
        1
176
     1
 40
0.0
176
     1
 90
        0
176
     1
290
     0
176
     1
290
     1
176
     1
290
     1
176
     1
290
     0
176
     1
290
     0
176
     1
290
     0
176
     1
290
     0
176
     1
290
     0
176
     1
290
     0
176
     1
 90
       50
176
     1
 40
0.0
176
     1
 40
1.0
176
     1
 90
        0
176
     1
 62
    18
420
        0
176
     1
 90
       50
176
     1
 90
        3
176
     1
 62
     5
420
      255
176
     1
290
     0
176
     1
 90
       50
176
     1
 90
       50
176
     1
 90
       50
176
     1
290
     0
176
     1
 90
       50
176
     1
 62
   256
176
     0
 40
1.0
176
     0
 90
        2
176
     1
  1
strokes_ogs.tif
176
     1
290
     0
176
     1
 40
1.0
176
     1
 40
1.0
176
     1
1001
ACAD
1000
AcRTDxfName
1000
VISUALSTYLE
1000
AcRTDxfName
1000
VISUALSTYLE
1000
AcRTDxfName
1000
VISUALSTYLE
1000
AcRTDxfName
1000
VISUALSTYLE
1000
AcRTDxfName
1000
VISUALSTYLE
1000
AcRTDxfName
1000
VISUALSTYLE
  0
VISUALSTYLE
  5
9850
102
{ACAD_REACTORS
330
9847
102
}
330
9847
100
AcDbVisualStyle
  2
Conceptual
 70
     9
177
     3
291
     0
 70
    58
 90
        3
176
     1
 90
        2
176
     1
 90
        0
176
     1
 90
        0
176
     1
 40
0.6
176
     1
 40
30.0
176
     1
 62
     7
176
     1
 90
        2
176
     1
 90
        2
176
     1
 62
     7
176
     1
 62
   257
176
     1
 90
        1
176
     1
 90
        1
176
     1
 40
40.0
176
     1
 90
        8
176
     1
 62
     7
176
     1
 40
1.0
176
     1
 90
        1
176
     1
 90
        6
176
     1
 90
        2
176
     1
 62
     7
176
     1
 90
        3
176
     1
 90
        0
176
     1
 90
        0
176
     1
290
     0
176
     1
 90
        1
176
     1
 40
0.0
176
     1
 90
        0
176
     1
290
     0
176
     1
290
     1
176
     1
290
     1
176
     1
290
     0
176
     1
290
     0
176
     1
290
     0
176
     1
290
     0
176
     1
290
     0
176
     1
290
     0
176
     1
 90
       50
176
     1
 40
0.0
176
     1
 40
1.0
176
     1
 90
        0
176
     1
 62
    18
420
        0
176
     1
 90
       50
176
     1
 90
        3
176
     1
 62
     5
420
      255
176
     1
290
     0
176
     1
 90
       50
176
     1
 90
       50
176
     1
 90
       50
176
     1
290
     0
176
     1
 90
       50
176
     1
 62
   256
176
     0
 40
1.0
176
     0
 90
        2
176
     1
  1
strokes_ogs.tif
176
     1
290
     0
176
     1
 40
1.0
176
     1
 40
1.0
176
     1
1001
ACAD
1000
AcRTDxfName
1000
VISUALSTYLE
1000
AcRTDxfName
1000
VISUALSTYLE
1000
AcRTDxfName
1000
VISUALSTYLE
1000
AcRTDxfName
1000
VISUALSTYLE
1000
AcRTDxfName
1000
VISUALSTYLE
1000
AcRTDxfName
1000
VISUALSTYLE
  0
VISUALSTYLE
  5
9852
102
{ACAD_REACTORS
330
9847
102
}
330
9847
100
AcDbVisualStyle
  2
Dim
 70
    11
177
     3
291
     1
 70
    58
 90
        2
176
     1
 90
        2
176
     1
 90
        0
176
     1
 90
        0
176
     1
 40
0.6
176
     1
 40
30.0
176
     1
 62
     7
176
     1
 90
        1
176
     1
 90
        4
176
     1
 62
     7
176
     1
 62
   257
176
     1
 90
        1
176
     1
 90
        1
176
     1
 40
1.0
176
     1
 90
        8
176
     1
 62
     7
176
     1
 40
1.0
176
     1
 90
        1
176
     1
 90
        6
176
     1
 90
        2
176
     1
 62
     7
176
     1
 90
        5
176
     1
 90
        0
176
     1
 90
        0
176
     1
290
     0
176
     1
 90
        1
176
     1
 40
-50.0
176
     1
 90
        0
176
     1
290
     0
176
     1
290
     1
176
     1
290
     1
176
     1
290
     0
176
     1
290
     0
176
     1
290
     0
176
     1
290
     0
176
     1
290
     0
176
     1
290
     0
176
     1
 90
       50
176
     1
 40
0.0
176
     1
 40
1.0
176
     1
 90
        0
176
     1
 62
    18
420
        0
176
     1
 90
       50
176
     1
 90
        3
176
     1
 62
     5
420
      255
176
     1
290
     0
176
     1
 90
       50
176
     1
 90
       50
176
     1
 90
       50
176
     1
290
     0
176
     1
 90
       50
176
     1
 62
   256
176
     0
 40
1.0
176
     0
 90
        2
176
     1
  1
strokes_ogs.tif
176
     1
290
     0
176
     1
 40
1.0
176
     1
 40
1.0
176
     1
1001
ACAD
1000
AcRTDxfName
1000
VISUALSTYLE
1000
AcRTDxfName
1000
VISUALSTYLE
1000
AcRTDxfName
1000
VISUALSTYLE
1000
AcRTDxfName
1000
VISUALSTYLE
1000
AcRTDxfName
1000
VISUALSTYLE
1000
AcRTDxfName
1000
VISUALSTYLE
  0
VISUALSTYLE
  5
63372
102
{ACAD_REACTORS
330
9847
102
}
330
9847
100
AcDbVisualStyle
  2
EdgeColorOff
 70
    22
177
     3
291
     1
 70
    58
 90
        2
176
     0
 90
        2
176
     0
 90
        0
176
     0
 90
        0
176
     0
 40
0.6
176
     0
 40
30.0
176
     0
 62
     7
420
 16777215
176
     0
 90
        1
176
     0
 90
        4
176
     0
 62
     7
176
     0
 62
   257
176
     0
 90
        1
176
     0
 90
        1
176
     0
 40
1.0
176
     0
 90
        8
176
     2
 62
     7
176
     0
 40
1.0
176
     0
 90
        1
176
     0
 90
        6
176
     0
 90
        2
176
     0
 62
     7
176
     0
 90
        5
176
     0
 90
        0
176
     0
 90
        0
176
     0
290
     0
176
     0
 90
        1
176
     0
 40
0.0
176
     0
 90
        0
176
     0
290
     0
176
     1
290
     1
176
     1
290
     1
176
     1
290
     0
176
     1
290
     0
176
     1
290
     0
176
     1
290
     0
176
     1
290
     0
176
     1
290
     0
176
     1
 90
       50
176
     1
 40
0.0
176
     1
 40
1.0
176
     1
 90
        0
176
     1
 62
    18
420
        0
176
     1
 90
       50
176
     1
 90
        3
176
     1
 62
     5
420
      255
176
     1
290
     0
176
     1
 90
       50
176
     1
 90
       50
176
     1
 90
       50
176
     1
290
     0
176
     1
 90
       50
176
     1
 62
   256
176
     0
 40
1.0
176
     0
 90
        2
176
     1
  1
strokes_ogs.tif
176
     1
290
     0
176
     1
 40
1.0
176
     1
 40
1.0
176
     1
  0
VISUALSTYLE
  5
9856
102
{ACAD_REACTORS
330
9847
102
}
330
9847
100
AcDbVisualStyle
  2
Facepattern
 70
    15
177
     3
291
     1
 70
    58
 90
        2
176
     1
 90
        2
176
     1
 90
        0
176
     1
 90
        0
176
     1
 40
0.6
176
     1
 40
30.0
176
     1
 62
     7
176
     1
 90
        1
176
     1
 90
        4
176
     1
 62
     7
176
     1
 62
   257
176
     1
 90
        1
176
     1
 90
        1
176
     1
 40
1.0
176
     1
 90
        8
176
     1
 62
     7
176
     1
 40
1.0
176
     1
 90
        1
176
     1
 90
        6
176
     1
 90
        2
176
     1
 62
     7
176
     1
 90
        5
176
     1
 90
        0
176
     1
 90
        0
176
     1
290
     0
176
     1
 90
        1
176
     1
 40
0.0
176
     1
 90
        0
176
     1
290
     0
176
     1
290
     1
176
     1
290
     1
176
     1
290
     0
176
     1
290
     0
176
     1
290
     0
176
     1
290
     0
176
     1
290
     0
176
     1
290
     0
176
     1
 90
       50
176
     1
 40
0.0
176
     1
 40
1.0
176
     1
 90
        0
176
     1
 62
    18
420
        0
176
     1
 90
       50
176
     1
 90
        3
176
     1
 62
     5
420
      255
176
     1
290
     0
176
     1
 90
       50
176
     1
 90
       50
176
     1
 90
       50
176
     1
290
     0
176
     1
 90
       50
176
     1
 62
   256
176
     0
 40
1.0
176
     0
 90
        2
176
     1
  1
strokes_ogs.tif
176
     1
290
     0
176
     1
 40
1.0
176
     1
 40
1.0
176
     1
1001
ACAD
1000
AcRTDxfName
1000
VISUALSTYLE
1000
AcRTDxfName
1000
VISUALSTYLE
1000
AcRTDxfName
1000
VISUALSTYLE
1000
AcRTDxfName
1000
VISUALSTYLE
1000
AcRTDxfName
1000
VISUALSTYLE
1000
AcRTDxfName
1000
VISUALSTYLE
  0
VISUALSTYLE
  5
9848
102
{ACAD_REACTORS
330
9847
102
}
330
9847
100
AcDbVisualStyle
  2
Flat
 70
     0
177
     3
291
     1
 70
    58
 90
        2
176
     1
 90
        1
176
     1
 90
        1
176
     1
 90
        2
176
     1
 40
0.6
176
     1
 40
30.0
176
     1
 62
     7
176
     1
 90
        0
176
     1
 90
        4
176
     1
 62
     7
176
     1
 62
   257
176
     1
 90
        1
176
     1
 90
        1
176
     1
 40
1.0
176
     1
 90
        8
176
     1
 62
     7
176
     1
 40
1.0
176
     1
 90
        1
176
     1
 90
        6
176
     1
 90
        2
176
     1
 62
     7
176
     1
 90
        5
176
     1
 90
        0
176
     1
 90
        0
176
     1
290
     0
176
     1
 90
       13
176
     1
 40
0.0
176
     1
 90
        0
176
     1
290
     0
176
     1
290
     1
176
     1
290
     1
176
     1
290
     0
176
     1
290
     0
176
     1
290
     0
176
     1
290
     0
176
     1
290
     0
176
     1
290
     0
176
     1
 90
       50
176
     1
 40
0.0
176
     1
 40
1.0
176
     1
 90
        0
176
     1
 62
    18
420
        0
176
     1
 90
       50
176
     1
 90
        3
176
     1
 62
     5
420
      255
176
     1
290
     0
176
     1
 90
       50
176
     1
 90
       50
176
     1
 90
       50
176
     1
290
     0
176
     1
 90
       50
176
     1
 62
   256
176
     0
 40
1.0
176
     0
 90
        2
176
     1
  1
strokes_ogs.tif
176
     1
290
     0
176
     1
 40
1.0
176
     1
 40
1.0
176
     1
1001
ACAD
1000
AcRTDxfName
1000
VISUALSTYLE
1000
AcRTDxfName
1000
VISUALSTYLE
1000
AcRTDxfName
1000
VISUALSTYLE
1000
AcRTDxfName
1000
VISUALSTYLE
1000
AcRTDxfName
1000
VISUALSTYLE
1000
AcRTDxfName
1000
VISUALSTYLE
  0
VISUALSTYLE
  5
9849
102
{ACAD_REACTORS
330
9847
102
}
330
9847
100
AcDbVisualStyle
  2
FlatWithEdges
 70
     1
177
     3
291
     1
 70
    58
 90
        2
176
     1
 90
        1
176
     1
 90
        1
176
     1
 90
        2
176
     1
 40
0.6
176
     1
 40
30.0
176
     1
 62
     7
176
     1
 90
        1
176
     1
 90
        4
176
     1
 62
     7
176
     1
 62
   257
176
     1
 90
        1
176
     1
 90
        1
176
     1
 40
1.0
176
     1
 90
        0
176
     1
 62
   257
176
     1
 40
1.0
176
     1
 90
        1
176
     1
 90
        6
176
     1
 90
        2
176
     1
 62
     7
176
     1
 90
        5
176
     1
 90
        0
176
     1
 90
        0
176
     1
290
     0
176
     1
 90
       13
176
     1
 40
0.0
176
     1
 90
        0
176
     1
290
     0
176
     1
290
     1
176
     1
290
     1
176
     1
290
     0
176
     1
290
     0
176
     1
290
     0
176
     1
290
     0
176
     1
290
     0
176
     1
290
     0
176
     1
 90
       50
176
     1
 40
0.0
176
     1
 40
1.0
176
     1
 90
        0
176
     1
 62
    18
420
        0
176
     1
 90
       50
176
     1
 90
        3
176
     1
 62
     5
420
      255
176
     1
290
     0
176
     1
 90
       50
176
     1
 90
       50
176
     1
 90
       50
176
     1
290
     0
176
     1
 90
       50
176
     1
 62
   256
176
     0
 40
1.0
176
     0
 90
        2
176
     1
  1
strokes_ogs.tif
176
     1
290
     0
176
     1
 40
1.0
176
     1
 40
1.0
176
     1
1001
ACAD
1000
AcRTDxfName
1000
VISUALSTYLE
1000
AcRTDxfName
1000
VISUALSTYLE
1000
AcRTDxfName
1000
VISUALSTYLE
1000
AcRTDxfName
1000
VISUALSTYLE
1000
AcRTDxfName
1000
VISUALSTYLE
1000
AcRTDxfName
1000
VISUALSTYLE
  0
VISUALSTYLE
  5
984A
102
{ACAD_REACTORS
330
9847
102
}
330
9847
100
AcDbVisualStyle
  2
Gouraud
 70
     2
177
     3
291
     1
 70
    58
 90
        2
176
     1
 90
        2
176
     1
 90
        1
176
     1
 90
        2
176
     1
 40
0.6
176
     1
 40
30.0
176
     1
 62
     7
176
     1
 90
        0
176
     1
 90
        4
176
     1
 62
     7
176
     1
 62
   257
176
     1
 90
        1
176
     1
 90
        1
176
     1
 40
1.0
176
     1
 90
        0
176
     1
 62
     7
176
     1
 40
1.0
176
     1
 90
        1
176
     1
 90
        6
176
     1
 90
        2
176
     1
 62
     7
176
     1
 90
        5
176
     1
 90
        0
176
     1
 90
        0
176
     1
290
     0
176
     1
 90
       13
176
     1
 40
0.0
176
     1
 90
        0
176
     1
290
     0
176
     1
290
     1
176
     1
290
     1
176
     1
290
     0
176
     1
290
     0
176
     1
290
     0
176
     1
290
     0
176
     1
290
     0
176
     1
290
     0
176
     1
 90
       50
176
     1
 40
0.0
176
     1
 40
1.0
176
     1
 90
        0
176
     1
 62
    18
420
        0
176
     1
 90
       50
176
     1
 90
        3
176
     1
 62
     5
420
      255
176
     1
290
     0
176
     1
 90
       50
176
     1
 90
       50
176
     1
 90
       50
176
     1
290
     0
176
     1
 90
       50
176
     1
 62
   256
176
     0
 40
1.0
176
     0
 90
        2
176
     1
  1
strokes_ogs.tif
176
     1
290
     0
176
     1
 40
1.0
176
     1
 40
1.0
176
     1
1001
ACAD
1000
AcRTDxfName
1000
VISUALSTYLE
1000
AcRTDxfName
1000
VISUALSTYLE
1000
AcRTDxfName
1000
VISUALSTYLE
1000
AcRTDxfName
1000
VISUALSTYLE
1000
AcRTDxfName
1000
VISUALSTYLE
1000
AcRTDxfName
1000
VISUALSTYLE
  0
VISUALSTYLE
  5
984B
102
{ACAD_REACTORS
330
9847
102
}
330
9847
100
AcDbVisualStyle
  2
GouraudWithEdges
 70
     3
177
     3
291
     1
 70
    58
 90
        2
176
     1
 90
        2
176
     1
 90
        1
176
     1
 90
        2
176
     1
 40
0.6
176
     1
 40
30.0
176
     1
 62
     7
176
     1
 90
        1
176
     1
 90
        4
176
     1
 62
     7
176
     1
 62
   257
176
     1
 90
        1
176
     1
 90
        1
176
     1
 40
1.0
176
     1
 90
        0
176
     1
 62
   257
176
     1
 40
1.0
176
     1
 90
        1
176
     1
 90
        6
176
     1
 90
        2
176
     1
 62
     7
176
     1
 90
        5
176
     1
 90
        0
176
     1
 90
        0
176
     1
290
     0
176
     1
 90
       13
176
     1
 40
0.0
176
     1
 90
        0
176
     1
290
     0
176
     1
290
     1
176
     1
290
     1
176
     1
290
     0
176
     1
290
     0
176
     1
290
     0
176
     1
290
     0
176
     1
290
     0
176
     1
290
     0
176
     1
 90
       50
176
     1
 40
0.0
176
     1
 40
1.0
176
     1
 90
        0
176
     1
 62
    18
420
        0
176
     1
 90
       50
176
     1
 90
        3
176
     1
 62
     5
420
      255
176
     1
290
     0
176
     1
 90
       50
176
     1
 90
       50
176
     1
 90
       50
176
     1
290
     0
176
     1
 90
       50
176
     1
 62
   256
176
     0
 40
1.0
176
     0
 90
        2
176
     1
  1
strokes_ogs.tif
176
     1
290
     0
176
     1
 40
1.0
176
     1
 40
1.0
176
     1
1001
ACAD
1000
AcRTDxfName
1000
VISUALSTYLE
1000
AcRTDxfName
1000
VISUALSTYLE
1000
AcRTDxfName
1000
VISUALSTYLE
1000
AcRTDxfName
1000
VISUALSTYLE
1000
AcRTDxfName
1000
VISUALSTYLE
1000
AcRTDxfName
1000
VISUALSTYLE
  0
VISUALSTYLE
  5
6336A
102
{ACAD_REACTORS
330
9847
102
}
330
9847
100
AcDbVisualStyle
  2
Hidden
 70
     6
177
     3
291
     0
 70
    58
 90
        1
176
     1
 90
        2
176
     1
 90
        2
176
     1
 90
        0
176
     1
 40
0.6
176
     1
 40
30.0
176
     1
 62
     7
420
 16777215
176
     1
 90
        2
176
     1
 90
        2
176
     1
 62
     7
176
     1
 62
   257
176
     1
 90
        2
176
     1
 90
        1
176
     1
 40
40.0
176
     1
 90
        0
176
     1
 62
   257
176
     1
 40
1.0
176
     1
 90
        1
176
     1
 90
        6
176
     1
 90
        2
176
     1
 62
     7
176
     1
 90
        3
176
     1
 90
        0
176
     1
 90
        0
176
     1
290
     0
176
     1
 90
        1
176
     1
 40
0.0
176
     1
 90
        0
176
     1
290
     0
176
     1
290
     1
176
     1
290
     1
176
     1
290
     0
176
     1
290
     0
176
     1
290
     0
176
     1
290
     0
176
     1
290
     0
176
     1
290
     0
176
     1
 90
       50
176
     1
 40
0.0
176
     1
 40
1.0
176
     1
 90
        0
176
     1
 62
    18
420
        0
176
     1
 90
       50
176
     1
 90
        3
176
     1
 62
     5
420
      255
176
     1
290
     0
176
     1
 90
       50
176
     1
 90
       50
176
     1
 90
       50
176
     1
290
     0
176
     1
 90
       50
176
     1
 62
   256
176
     0
 40
1.0
176
     0
 90
        2
176
     1
  1
strokes_ogs.tif
176
     1
290
     0
176
     1
 40
1.0
176
     1
 40
1.0
176
     1
  0
VISUALSTYLE
  5
63370
102
{ACAD_REACTORS
330
9847
102
}
330
9847
100
AcDbVisualStyle
  2
JitterOff
 70
    20
177
     3
291
     1
 70
    58
 90
        2
176
     0
 90
        2
176
     0
 90
        0
176
     0
 90
        0
176
     0
 40
0.6
176
     0
 40
30.0
176
     0
 62
     7
420
 16777215
176
     0
 90
        1
176
     0
 90
        4
176
     0
 62
     7
176
     0
 62
   257
176
     0
 90
        1
176
     0
 90
        1
176
     0
 40
1.0
176
     0
 90
       10
176
     2
 62
     7
176
     0
 40
1.0
176
     0
 90
        1
176
     0
 90
        6
176
     0
 90
        2
176
     0
 62
     7
176
     0
 90
        5
176
     0
 90
        0
176
     0
 90
        0
176
     0
290
     0
176
     0
 90
        1
176
     0
 40
0.0
176
     0
 90
        0
176
     0
290
     0
176
     1
290
     1
176
     1
290
     1
176
     1
290
     0
176
     1
290
     0
176
     1
290
     0
176
     1
290
     0
176
     1
290
     0
176
     1
290
     0
176
     1
 90
       50
176
     1
 40
0.0
176
     1
 40
1.0
176
     1
 90
        0
176
     1
 62
    18
420
        0
176
     1
 90
       50
176
     1
 90
        3
176
     1
 62
     5
420
      255
176
     1
290
     0
176
     1
 90
       50
176
     1
 90
       50
176
     1
 90
       50
176
     1
290
     0
176
     1
 90
       50
176
     1
 62
   256
176
     0
 40
1.0
176
     0
 90
        2
176
     1
  1
strokes_ogs.tif
176
     1
290
     0
176
     1
 40
1.0
176
     1
 40
1.0
176
     1
  0
VISUALSTYLE
  5
9855
102
{ACAD_REACTORS
330
9847
102
}
330
9847
100
AcDbVisualStyle
  2
Linepattern
 70
    14
177
     3
291
     1
 70
    58
 90
        2
176
     1
 90
        2
176
     1
 90
        0
176
     1
 90
        0
176
     1
 40
0.6
176
     1
 40
30.0
176
     1
 62
     7
176
     1
 90
        1
176
     1
 90
        4
176
     1
 62
     7
176
     1
 62
   257
176
     1
 90
        7
176
     1
 90
        7
176
     1
 40
1.0
176
     1
 90
        8
176
     1
 62
     7
176
     1
 40
1.0
176
     1
 90
        1
176
     1
 90
        6
176
     1
 90
        2
176
     1
 62
     7
176
     1
 90
        5
176
     1
 90
        0
176
     1
 90
        0
176
     1
290
     0
176
     1
 90
        1
176
     1
 40
0.0
176
     1
 90
        0
176
     1
290
     0
176
     1
290
     1
176
     1
290
     1
176
     1
290
     0
176
     1
290
     0
176
     1
290
     0
176
     1
290
     0
176
     1
290
     0
176
     1
290
     0
176
     1
 90
       50
176
     1
 40
0.0
176
     1
 40
1.0
176
     1
 90
        0
176
     1
 62
    18
420
        0
176
     1
 90
       50
176
     1
 90
        3
176
     1
 62
     5
420
      255
176
     1
290
     0
176
     1
 90
       50
176
     1
 90
       50
176
     1
 90
       50
176
     1
290
     0
176
     1
 90
       50
176
     1
 62
   256
176
     0
 40
1.0
176
     0
 90
        2
176
     1
  1
strokes_ogs.tif
176
     1
290
     0
176
     1
 40
1.0
176
     1
 40
1.0
176
     1
1001
ACAD
1000
AcRTDxfName
1000
VISUALSTYLE
1000
AcRTDxfName
1000
VISUALSTYLE
1000
AcRTDxfName
1000
VISUALSTYLE
1000
AcRTDxfName
1000
VISUALSTYLE
1000
AcRTDxfName
1000
VISUALSTYLE
1000
AcRTDxfName
1000
VISUALSTYLE
  0
VISUALSTYLE
  5
63371
102
{ACAD_REACTORS
330
9847
102
}
330
9847
100
AcDbVisualStyle
  2
OverhangOff
 70
    21
177
     3
291
     1
 70
    58
 90
        2
176
     0
 90
        2
176
     0
 90
        0
176
     0
 90
        0
176
     0
 40
0.6
176
     0
 40
30.0
176
     0
 62
     7
420
 16777215
176
     0
 90
        1
176
     0
 90
        4
176
     0
 62
     7
176
     0
 62
   257
176
     0
 90
        1
176
     0
 90
        1
176
     0
 40
1.0
176
     0
 90
        9
176
     2
 62
     7
176
     0
 40
1.0
176
     0
 90
        1
176
     0
 90
        6
176
     0
 90
        2
176
     0
 62
     7
176
     0
 90
        5
176
     0
 90
        0
176
     0
 90
        0
176
     0
290
     0
176
     0
 90
        1
176
     0
 40
0.0
176
     0
 90
        0
176
     0
290
     0
176
     1
290
     1
176
     1
290
     1
176
     1
290
     0
176
     1
290
     0
176
     1
290
     0
176
     1
290
     0
176
     1
290
     0
176
     1
290
     0
176
     1
 90
       50
176
     1
 40
0.0
176
     1
 40
1.0
176
     1
 90
        0
176
     1
 62
    18
420
        0
176
     1
 90
       50
176
     1
 90
        3
176
     1
 62
     5
420
      255
176
     1
290
     0
176
     1
 90
       50
176
     1
 90
       50
176
     1
 90
       50
176
     1
290
     0
176
     1
 90
       50
176
     1
 62
   256
176
     0
 40
1.0
176
     0
 90
        2
176
     1
  1
strokes_ogs.tif
176
     1
290
     0
176
     1
 40
1.0
176
     1
 40
1.0
176
     1
  0
VISUALSTYLE
  5
9851
102
{ACAD_REACTORS
330
9847
102
}
330
9847
100
AcDbVisualStyle
  2
Realistic
 70
     8
177
     3
291
     0
 70
    58
 90
        2
176
     1
 90
        2
176
     1
 90
        0
176
     1
 90
        0
176
     1
 40
0.6
176
     1
 40
30.0
176
     1
 62
     7
176
     1
 90
        1
176
     1
 90
        0
176
     1
 62
     7
176
     1
 62
   257
176
     1
 90
        1
176
     1
 90
        1
176
     1
 40
1.0
176
     1
 90
        8
176
     1
 62
     8
176
     1
 40
1.0
176
     1
 90
        1
176
     1
 90
        6
176
     1
 90
        2
176
     1
 62
     7
176
     1
 90
        5
176
     1
 90
        0
176
     1
 90
        0
176
     1
290
     0
176
     1
 90
       13
176
     1
 40
0.0
176
     1
 90
        0
176
     1
290
     0
176
     1
290
     1
176
     1
290
     1
176
     1
290
     0
176
     1
290
     0
176
     1
290
     0
176
     1
290
     0
176
     1
290
     0
176
     1
290
     0
176
     1
 90
       50
176
     1
 40
0.0
176
     1
 40
1.0
176
     1
 90
        0
176
     1
 62
    18
420
        0
176
     1
 90
       50
176
     1
 90
        3
176
     1
 62
     5
420
      255
176
     1
290
     0
176
     1
 90
       50
176
     1
 90
       50
176
     1
 90
       50
176
     1
290
     0
176
     1
 90
       50
176
     1
 62
   256
176
     0
 40
1.0
176
     0
 90
        2
176
     1
  1
strokes_ogs.tif
176
     1
290
     0
176
     1
 40
1.0
176
     1
 40
1.0
176
     1
1001
ACAD
1000
AcRTDxfName
1000
VISUALSTYLE
1000
AcRTDxfName
1000
VISUALSTYLE
1000
AcRTDxfName
1000
VISUALSTYLE
1000
AcRTDxfName
1000
VISUALSTYLE
1000
AcRTDxfName
1000
VISUALSTYLE
1000
AcRTDxfName
1000
VISUALSTYLE
  0
VISUALSTYLE
  5
6336F
102
{ACAD_REACTORS
330
9847
102
}
330
9847
100
AcDbVisualStyle
  2
Shaded
 70
    27
177
     3
291
     0
 70
    58
 90
        2
176
     1
 90
        2
176
     1
 90
        1
176
     1
 90
        2
176
     1
 40
0.6
176
     1
 40
30.0
176
     1
 62
     7
420
 16777215
176
     1
 90
        0
176
     1
 90
        4
176
     1
 62
     7
176
     1
 62
   257
176
     1
 90
        1
176
     1
 90
        1
176
     1
 40
1.0
176
     1
 90
        8
176
     1
 62
   257
176
     1
 40
1.0
176
     1
 90
        1
176
     1
 90
        6
176
     1
 90
        2
176
     1
 62
     8
420
  7895160
176
     1
 90
        3
176
     1
 90
        0
176
     1
 90
        0
176
     1
290
     0
176
     1
 90
        5
176
     1
 40
0.0
176
     1
 90
        0
176
     1
290
     0
176
     1
290
     1
176
     1
290
     1
176
     1
290
     0
176
     1
290
     0
176
     1
290
     0
176
     1
290
     0
176
     1
290
     0
176
     1
290
     0
176
     1
 90
       50
176
     1
 40
0.0
176
     1
 40
1.0
176
     1
 90
        0
176
     1
 62
    18
420
        0
176
     1
 90
       50
176
     1
 90
        3
176
     1
 62
     5
420
      255
176
     1
290
     0
176
     1
 90
       50
176
     1
 90
       50
176
     1
 90
       50
176
     1
290
     0
176
     1
 90
       50
176
     1
 62
   256
176
     0
 40
1.0
176
     0
 90
        2
176
     1
  1
strokes_ogs.tif
176
     1
290
     0
176
     1
 40
1.0
176
     1
 40
1.0
176
     1
  0
VISUALSTYLE
  5
6336E
102
{ACAD_REACTORS
330
9847
102
}
330
9847
100
AcDbVisualStyle
  2
Shaded with edges
 70
    26
177
     3
291
     0
 70
    58
 90
        2
176
     1
 90
        2
176
     1
 90
        1
176
     1
 90
        2
176
     1
 40
0.6
176
     1
 40
30.0
176
     1
 62
     7
420
 16777215
176
     1
 90
        1
176
     1
 90
        2
176
     1
 62
     7
176
     1
 62
   257
176
     1
 90
        2
176
     1
 90
        1
176
     1
 40
1.0
176
     1
 90
        8
176
     1
 62
   257
176
     1
 40
1.0
176
     1
 90
        1
176
     1
 90
        6
176
     1
 90
        2
176
     1
 62
     7
176
     1
 90
        3
176
     1
 90
        0
176
     1
 90
        0
176
     1
290
     0
176
     1
 90
        5
176
     1
 40
0.0
176
     1
 90
        0
176
     1
290
     0
176
     1
290
     1
176
     1
290
     1
176
     1
290
     0
176
     1
290
     0
176
     1
290
     0
176
     1
290
     0
176
     1
290
     0
176
     1
290
     0
176
     1
 90
       50
176
     1
 40
0.0
176
     1
 40
1.0
176
     1
 90
        0
176
     1
 62
    18
420
        0
176
     1
 90
       50
176
     1
 90
        3
176
     1
 62
     5
420
      255
176
     1
290
     0
176
     1
 90
       50
176
     1
 90
       50
176
     1
 90
       50
176
     1
290
     0
176
     1
 90
       50
176
     1
 62
   256
176
     0
 40
1.0
176
     0
 90
        2
176
     1
  1
strokes_ogs.tif
176
     1
290
     0
176
     1
 40
1.0
176
     1
 40
1.0
176
     1
  0
VISUALSTYLE
  5
6336B
102
{ACAD_REACTORS
330
9847
102
}
330
9847
100
AcDbVisualStyle
  2
Shades of Gray
 70
    23
177
     3
291
     0
 70
    58
 90
        2
176
     1
 90
        2
176
     1
 90
        3
176
     1
 90
        0
176
     1
 40
0.6
176
     1
 40
30.0
176
     1
 62
     7
420
 16777215
176
     1
 90
        2
176
     1
 90
        2
176
     1
 62
     7
176
     1
 62
     7
176
     1
 90
        1
176
     1
 90
        1
176
     1
 40
40.0
176
     1
 90
        8
176
     1
 62
     7
176
     1
 40
1.0
176
     1
 90
        1
176
     1
 90
        6
176
     1
 90
        2
176
     1
 62
     7
176
     1
 90
        3
176
     1
 90
        0
176
     1
 90
        0
176
     1
290
     0
176
     1
 90
        1
176
     1
 40
0.0
176
     1
 90
        0
176
     1
290
     0
176
     1
290
     1
176
     1
290
     1
176
     1
290
     0
176
     1
290
     0
176
     1
290
     0
176
     1
290
     0
176
     1
290
     0
176
     1
290
     0
176
     1
 90
       50
176
     1
 40
0.0
176
     1
 40
1.0
176
     1
 90
        0
176
     1
 62
    18
420
        0
176
     1
 90
       50
176
     1
 90
        3
176
     1
 62
     5
420
      255
176
     1
290
     0
176
     1
 90
       50
176
     1
 90
       50
176
     1
 90
       50
176
     1
290
     0
176
     1
 90
       50
176
     1
 62
   256
176
     0
 40
1.0
176
     0
 90
        2
176
     1
  1
strokes_ogs.tif
176
     1
290
     0
176
     1
 40
1.0
176
     1
 40
1.0
176
     1
  0
VISUALSTYLE
  5
6336C
102
{ACAD_REACTORS
330
9847
102
}
330
9847
100
AcDbVisualStyle
  2
Sketchy
 70
    24
177
     3
291
     0
 70
    58
 90
        1
176
     1
 90
        2
176
     1
 90
        2
176
     1
 90
        0
176
     1
 40
0.6
176
     1
 40
30.0
176
     1
 62
     7
420
 16777215
176
     1
 90
        2
176
     1
 90
        2
176
     1
 62
     7
176
     1
 62
     7
176
     1
 90
        1
176
     1
 90
        1
176
     1
 40
40.0
176
     1
 90
       11
176
     1
 62
     7
176
     1
 40
1.0
176
     1
 90
        1
176
     1
 90
        6
176
     1
 90
        2
176
     1
 62
     7
176
     1
 90
        6
176
     1
 90
        0
176
     1
 90
        0
176
     1
290
     0
176
     1
 90
        1
176
     1
 40
0.0
176
     1
 90
        0
176
     1
290
     0
176
     1
290
     1
176
     1
290
     1
176
     1
290
     0
176
     1
290
     0
176
     1
290
     0
176
     1
290
     0
176
     1
290
     0
176
     1
290
     0
176
     1
 90
       50
176
     1
 40
0.0
176
     1
 40
1.0
176
     1
 90
        0
176
     1
 62
    18
420
        0
176
     1
 90
       50
176
     1
 90
        3
176
     1
 62
     5
420
      255
176
     1
290
     0
176
     1
 90
       50
176
     1
 90
       50
176
     1
 90
       50
176
     1
290
     0
176
     1
 90
       50
176
     1
 62
   256
176
     0
 40
1.0
176
     0
 90
        2
176
     1
  1
strokes_ogs.tif
176
     1
290
     0
176
     1
 40
1.0
176
     1
 40
1.0
176
     1
  0
VISUALSTYLE
  5
9854
102
{ACAD_REACTORS
330
9847
102
}
330
9847
100
AcDbVisualStyle
  2
Thicken
 70
    13
177
     3
291
     1
 70
    58
 90
        2
176
     1
 90
        2
176
     1
 90
        0
176
     1
 90
        0
176
     1
 40
0.6
176
     1
 40
30.0
176
     1
 62
     7
176
     1
 90
        1
176
     1
 90
        4
176
     1
 62
     7
176
     1
 62
   257
176
     1
 90
        1
176
     1
 90
        1
176
     1
 40
1.0
176
     1
 90
       12
176
     1
 62
     7
176
     1
 40
1.0
176
     1
 90
        1
176
     1
 90
        6
176
     1
 90
        2
176
     1
 62
     7
176
     1
 90
        5
176
     1
 90
        0
176
     1
 90
        0
176
     1
290
     0
176
     1
 90
        1
176
     1
 40
0.0
176
     1
 90
        0
176
     1
290
     0
176
     1
290
     1
176
     1
290
     1
176
     1
290
     0
176
     1
290
     0
176
     1
290
     0
176
     1
290
     0
176
     1
290
     0
176
     1
290
     0
176
     1
 90
       50
176
     1
 40
0.0
176
     1
 40
1.0
176
     1
 90
        0
176
     1
 62
    18
420
        0
176
     1
 90
       50
176
     1
 90
        3
176
     1
 62
     5
420
      255
176
     1
290
     0
176
     1
 90
       50
176
     1
 90
       50
176
     1
 90
       50
176
     1
290
     0
176
     1
 90
       50
176
     1
 62
   256
176
     0
 40
1.0
176
     0
 90
        2
176
     1
  1
strokes_ogs.tif
176
     1
290
     0
176
     1
 40
1.0
176
     1
 40
1.0
176
     1
1001
ACAD
1000
AcRTDxfName
1000
VISUALSTYLE
1000
AcRTDxfName
1000
VISUALSTYLE
1000
AcRTDxfName
1000
VISUALSTYLE
1000
AcRTDxfName
1000
VISUALSTYLE
1000
AcRTDxfName
1000
VISUALSTYLE
1000
AcRTDxfName
1000
VISUALSTYLE
  0
VISUALSTYLE
  5
63369
102
{ACAD_REACTORS
330
9847
102
}
330
9847
100
AcDbVisualStyle
  2
Wireframe
 70
     5
177
     3
291
     0
 70
    58
 90
        0
176
     1
 90
        2
176
     1
 90
        0
176
     1
 90
        0
176
     1
 40
0.6
176
     1
 40
30.0
176
     1
 62
     7
420
 16777215
176
     1
 90
        1
176
     1
 90
        4
176
     1
 62
     7
176
     1
 62
   257
176
     1
 90
        1
176
     1
 90
        1
176
     1
 40
1.0
176
     1
 90
        0
176
     1
 62
   257
176
     1
 40
1.0
176
     1
 90
        1
176
     1
 90
        6
176
     1
 90
        2
176
     1
 62
     7
176
     1
 90
        3
176
     1
 90
        0
176
     1
 90
        0
176
     1
290
     0
176
     1
 90
        1
176
     1
 40
0.0
176
     1
 90
        0
176
     1
290
     0
176
     1
290
     1
176
     1
290
     1
176
     1
290
     0
176
     1
290
     0
176
     1
290
     0
176
     1
290
     0
176
     1
290
     0
176
     1
290
     0
176
     1
 90
       50
176
     1
 40
0.0
176
     1
 40
1.0
176
     1
 90
        0
176
     1
 62
    18
420
        0
176
     1
 90
       50
176
     1
 90
        3
176
     1
 62
     5
420
      255
176
     1
290
     0
176
     1
 90
       50
176
     1
 90
       50
176
     1
 90
       50
176
     1
290
     0
176
     1
 90
       50
176
     1
 62
   256
176
     0
 40
1.0
176
     0
 90
        2
176
     1
  1
strokes_ogs.tif
176
     1
290
     0
176
     1
 40
1.0
176
     1
 40
1.0
176
     1
  0
VISUALSTYLE
  5
6336D
102
{ACAD_REACTORS
330
9847
102
}
330
9847
100
AcDbVisualStyle
  2
X-Ray
 70
    25
177
     3
291
     0
 70
    58
 90
        2
176
     1
 90
        2
176
     1
 90
        1
176
     1
 90
        1
176
     1
 40
0.5
176
     1
 40
30.0
176
     1
 62
     7
420
 16777215
176
     1
 90
        1
176
     1
 90
        0
176
     1
 62
     7
176
     1
 62
   257
176
     1
 90
        1
176
     1
 90
        1
176
     1
 40
1.0
176
     1
 90
        8
176
     1
 62
     7
176
     1
 40
1.0
176
     1
 90
        1
176
     1
 90
        6
176
     1
 90
        2
176
     1
 62
     7
176
     1
 90
        3
176
     1
 90
        0
176
     1
 90
        0
176
     1
290
     0
176
     1
 90
       13
176
     1
 40
0.0
176
     1
 90
        0
176
     1
290
     0
176
     1
290
     1
176
     1
290
     1
176
     1
290
     0
176
     1
290
     0
176
     1
290
     0
176
     1
290
     0
176
     1
290
     0
176
     1
290
     0
176
     1
 90
       50
176
     1
 40
0.0
176
     1
 40
1.0
176
     1
 90
        0
176
     1
 62
    18
420
        0
176
     1
 90
       50
176
     1
 90
        3
176
     1
 62
     5
420
      255
176
     1
290
     0
176
     1
 90
       50
176
     1
 90
       50
176
     1
 90
       50
176
     1
290
     0
176
     1
 90
       50
176
     1
 62
   256
176
     0
 40
1.0
176
     0
 90
        2
176
     1
  1
strokes_ogs.tif
176
     1
290
     0
176
     1
 40
1.0
176
     1
 40
1.0
176
     1
  0
DICTIONARYVAR
  5
B806
102
{ACAD_REACTORS
330
4557
102
}
330
4557
100
DictionaryVariables
280
     0
  1
1:1
  0
DICTIONARYVAR
  5
B804
102
{ACAD_REACTORS
330
4557
102
}
330
4557
100
DictionaryVariables
280
     0
  1
STANDARD
  0
DICTIONARYVAR
  5
B803
102
{ACAD_REACTORS
330
4557
102
}
330
4557
100
DictionaryVariables
280
     0
  1
STANDARD
  0
DICTIONARYVAR
  5
60639E8
102
{ACAD_REACTORS
330
4557
102
}
330
4557
100
DictionaryVariables
280
     0
  1
Metric50
  0
DICTIONARYVAR
  5
60639E9
102
{ACAD_REACTORS
330
4557
102
}
330
4557
100
DictionaryVariables
280
     0
  1
Metric50
  0
DICTIONARYVAR
  5
628E9
102
{ACAD_REACTORS
330
4557
102
}
330
4557
100
DictionaryVariables
280
     0
  1
2
  0
DICTIONARYVAR
  5
4558
102
{ACAD_REACTORS
330
4557
102
}
330
4557
100
DictionaryVariables
280
     0
  1
1
  0
DICTIONARYVAR
  5
628E8
102
{ACAD_REACTORS
330
4557
102
}
330
4557
100
DictionaryVariables
280
     0
  1
1
  0
DICTIONARYVAR
  5
628E7
102
{ACAD_REACTORS
330
4557
102
}
330
4557
100
DictionaryVariables
280
     0
  1
0
  0
DICTIONARYVAR
  5
6338E
102
{ACAD_REACTORS
330
4557
102
}
330
4557
100
DictionaryVariables
280
     0
  1
1
  0
DICTIONARYVAR
  5
6338F
102
{ACAD_REACTORS
330
4557
102
}
330
4557
100
DictionaryVariables
280
     0
  1
15
  0
DICTIONARYVAR
  5
B807
102
{ACAD_REACTORS
330
4557
102
}
330
4557
100
DictionaryVariables
280
     0
  1
0
  0
DICTIONARYVAR
  5
B805
102
{ACAD_REACTORS
330
4557
102
}
330
4557
100
DictionaryVariables
280
     0
  1
0
  0
DICTIONARYVAR
  5
62987
102
{ACAD_REACTORS
330
4557
102
}
330
4557
100
DictionaryVariables
280
     0
  1

  0
DICTIONARYVAR
  5
628E6
102
{ACAD_REACTORS
330
4557
102
}
330
4557
100
DictionaryVariables
280
     0
  1
127
  0
XRECORD
  5
62B1F
102
{ACAD_REACTORS
330
62B1E
102
}
330
62B1E
100
AcDbXrecord
280
     1
330
0
330
0
330
0
330
0
330
0
330
0
330
0
330
0
330
0
330
0
330
0
330
0
330
0
330
0
330
0
330
0
330
0
330
0
330
0
330
0
330
0
330
0
330
0
330
0
330
0
330
0
330
0
330
0
330
0
330
0
330
0
330
0
330
0
330
0
330
0
  0
DICTIONARY
  5
60639ED
330
60639D5
100
AcDbDictionary
280
     1
281
     1
  3
ACAD_XREC_ROUNDTRIP
360
60639EE
  0
DICTIONARY
  5
63383
330
A
100
AcDbDictionary
280
     1
281
     1
  0
DICTIONARY
  5
6338C
330
F
100
AcDbDictionary
280
     1
281
     1
  0
DICTIONARY
  5
9838
330
9837
100
AcDbDictionary
280
     1
281
     1
  3
BUMPTILE
360
983A
  3
DIFFUSETILE
360
9839
  3
OPACITYTILE
360
983D
  3
REFLECTIONTILE
360
983C
  3
REFRACTIONTILE
360
983E
  3
SPECULARTILE
360
983B
  0
DICTIONARY
  5
9830
330
982F
100
AcDbDictionary
280
     1
281
     1
  3
BUMPTILE
360
9832
  3
DIFFUSETILE
360
9831
  3
OPACITYTILE
360
9835
  3
REFLECTIONTILE
360
9834
  3
REFRACTIONTILE
360
9836
  3
SPECULARTILE
360
9833
  0
DICTIONARY
  5
9840
330
983F
100
AcDbDictionary
280
     1
281
     1
  3
BUMPTILE
360
9842
  3
DIFFUSETILE
360
9841
  3
OPACITYTILE
360
9845
  3
REFLECTIONTILE
360
9844
  3
REFRACTIONTILE
360
9846
  3
SPECULARTILE
360
9843
  0
DICTIONARY
  5
60639EB
330
60639D3
100
AcDbDictionary
280
     1
281
     1
  3
ACAD_XREC_ROUNDTRIP
360
60639EC
  0
DICTIONARY
  5
B800
330
9858
100
AcDbDictionary
280
     1
281
     1
  3
ACAD_ROUNDTRIP_2008_TABLESTYLE_CELLSTYLEMAP
360
60639EA
  0
XRECORD
  5
60639EE
102
{ACAD_REACTORS
330
60639ED
102
}
330
60639ED
100
AcDbXrecord
280
     1
102
DISPLAYNAME
  1
Metric50
102
FLAGS
 90
        0
  0
XRECORD
  5
983A
102
{ACAD_REACTORS
330
9838
102
}
330
9838
100
AcDbXrecord
280
     1
270
     1
271
     1
  0
XRECORD
  5
9839
102
{ACAD_REACTORS
330
9838
102
}
330
9838
100
AcDbXrecord
280
     1
270
     1
271
     1
  0
XRECORD
  5
983D
102
{ACAD_REACTORS
330
9838
102
}
330
9838
100
AcDbXrecord
280
     1
270
     1
271
     1
  0
XRECORD
  5
983C
102
{ACAD_REACTORS
330
9838
102
}
330
9838
100
AcDbXrecord
280
     1
270
     1
271
     1
  0
XRECORD
  5
983E
102
{ACAD_REACTORS
330
9838
102
}
330
9838
100
AcDbXrecord
280
     1
270
     1
271
     1
  0
XRECORD
  5
983B
102
{ACAD_REACTORS
330
9838
102
}
330
9838
100
AcDbXrecord
280
     1
270
     1
271
     1
  0
XRECORD
  5
9832
102
{ACAD_REACTORS
330
9830
102
}
330
9830
100
AcDbXrecord
280
     1
270
     1
271
     1
  0
XRECORD
  5
9831
102
{ACAD_REACTORS
330
9830
102
}
330
9830
100
AcDbXrecord
280
     1
270
     1
271
     1
  0
XRECORD
  5
9835
102
{ACAD_REACTORS
330
9830
102
}
330
9830
100
AcDbXrecord
280
     1
270
     1
271
     1
  0
XRECORD
  5
9834
102
{ACAD_REACTORS
330
9830
102
}
330
9830
100
AcDbXrecord
280
     1
270
     1
271
     1
  0
XRECORD
  5
9836
102
{ACAD_REACTORS
330
9830
102
}
330
9830
100
AcDbXrecord
280
     1
270
     1
271
     1
  0
XRECORD
  5
9833
102
{ACAD_REACTORS
330
9830
102
}
330
9830
100
AcDbXrecord
280
     1
270
     1
271
     1
  0
XRECORD
  5
9842
102
{ACAD_REACTORS
330
9840
102
}
330
9840
100
AcDbXrecord
280
     1
270
     1
271
     1
  0
XRECORD
  5
9841
102
{ACAD_REACTORS
330
9840
102
}
330
9840
100
AcDbXrecord
280
     1
270
     1
271
     1
  0
XRECORD
  5
9845
102
{ACAD_REACTORS
330
9840
102
}
330
9840
100
AcDbXrecord
280
     1
270
     1
271
     1
  0
XRECORD
  5
9844
102
{ACAD_REACTORS
330
9840
102
}
330
9840
100
AcDbXrecord
280
     1
270
     1
271
     1
  0
XRECORD
  5
9846
102
{ACAD_REACTORS
330
9840
102
}
330
9840
100
AcDbXrecord
280
     1
270
     1
271
     1
  0
XRECORD
  5
9843
102
{ACAD_REACTORS
330
9840
102
}
330
9840
100
AcDbXrecord
280
     1
270
     1
271
     1
  0
XRECORD
  5
60639EC
102
{ACAD_REACTORS
330
60639EB
102
}
330
60639EB
100
AcDbXrecord
280
     1
102
DISPLAYNAME
  1
Metric50
102
FLAGS
 90
        0
  0
CELLSTYLEMAP
  5
60639EA
102
{ACAD_REACTORS
330
B800
102
}
330
B800
100
AcDbCellStyleMap
 90
        3
300
CELLSTYLE
  1
TABLEFORMAT_BEGIN
 90
        5
170
     1
 91
        0
 92
    32768
 62
   257
 93
        1
300
CONTENTFORMAT
  1
CONTENTFORMAT_BEGIN
 90
        0
 91
        0
 92
      512
 93
        0
300

 40
0.0
140
1.0
 94
        5
 62
     0
340
12
144
6.0
309
CONTENTFORMAT_END
171
     1
301
MARGIN
  1
CELLMARGIN_BEGIN
 40
1.5
 40
1.5
 40
1.5
 40
1.5
 40
0.18
 40
0.18
309
CELLMARGIN_END
 94
        6
 95
        1
302
GRIDFORMAT
  1
GRIDFORMAT_BEGIN
 90
        0
 91
        1
 62
     0
 92
       -2
340
0
 93
        0
 40
1.125
309
GRIDFORMAT_END
 95
        2
302
GRIDFORMAT
  1
GRIDFORMAT_BEGIN
 90
        0
 91
        1
 62
     0
 92
       -2
340
0
 93
        0
 40
1.125
309
GRIDFORMAT_END
 95
        4
302
GRIDFORMAT
  1
GRIDFORMAT_BEGIN
 90
        0
 91
        1
 62
     0
 92
       -2
340
0
 93
        0
 40
1.125
309
GRIDFORMAT_END
 95
        8
302
GRIDFORMAT
  1
GRIDFORMAT_BEGIN
 90
        0
 91
        1
 62
     0
 92
       -2
340
0
 93
        0
 40
1.125
309
GRIDFORMAT_END
 95
       16
302
GRIDFORMAT
  1
GRIDFORMAT_BEGIN
 90
        0
 91
        1
 62
     0
 92
       -2
340
0
 93
        0
 40
1.125
309
GRIDFORMAT_END
 95
       32
302
GRIDFORMAT
  1
GRIDFORMAT_BEGIN
 90
        0
 91
        1
 62
     0
 92
       -2
340
0
 93
        0
 40
1.125
309
GRIDFORMAT_END
309
TABLEFORMAT_END
  1
CELLSTYLE_BEGIN
 90
        1
 91
        1
300
_TITLE
309
CELLSTYLE_END
300
CELLSTYLE
  1
TABLEFORMAT_BEGIN
 90
        5
170
     1
 91
        0
 92
        0
 62
   257
 93
        1
300
CONTENTFORMAT
  1
CONTENTFORMAT_BEGIN
 90
        0
 91
        0
 92
      512
 93
        0
300

 40
0.0
140
1.0
 94
        5
 62
     0
340
12
144
4.5
309
CONTENTFORMAT_END
171
     1
301
MARGIN
  1
CELLMARGIN_BEGIN
 40
1.5
 40
1.5
 40
1.5
 40
1.5
 40
0.18
 40
0.18
309
CELLMARGIN_END
 94
        6
 95
        1
302
GRIDFORMAT
  1
GRIDFORMAT_BEGIN
 90
        0
 91
        1
 62
     0
 92
       -2
340
0
 93
        0
 40
1.125
309
GRIDFORMAT_END
 95
        2
302
GRIDFORMAT
  1
GRIDFORMAT_BEGIN
 90
        0
 91
        1
 62
     0
 92
       -2
340
0
 93
        0
 40
1.125
309
GRIDFORMAT_END
 95
        4
302
GRIDFORMAT
  1
GRIDFORMAT_BEGIN
 90
        0
 91
        1
 62
     0
 92
       -2
340
0
 93
        0
 40
1.125
309
GRIDFORMAT_END
 95
        8
302
GRIDFORMAT
  1
GRIDFORMAT_BEGIN
 90
        0
 91
        1
 62
     0
 92
       -2
340
0
 93
        0
 40
1.125
309
GRIDFORMAT_END
 95
       16
302
GRIDFORMAT
  1
GRIDFORMAT_BEGIN
 90
        0
 91
        1
 62
     0
 92
       -2
340
0
 93
        0
 40
1.125
309
GRIDFORMAT_END
 95
       32
302
GRIDFORMAT
  1
GRIDFORMAT_BEGIN
 90
        0
 91
        1
 62
     0
 92
       -2
340
0
 93
        0
 40
1.125
309
GRIDFORMAT_END
309
TABLEFORMAT_END
  1
CELLSTYLE_BEGIN
 90
        2
 91
        1
300
_HEADER
309
CELLSTYLE_END
300
CELLSTYLE
  1
TABLEFORMAT_BEGIN
 90
        5
170
     1
 91
        0
 92
        0
 62
   257
 93
        1
300
CONTENTFORMAT
  1
CONTENTFORMAT_BEGIN
 90
        0
 91
        0
 92
      512
 93
        0
300

 40
0.0
140
1.0
 94
        2
 62
     0
340
12
144
4.5
309
CONTENTFORMAT_END
171
     1
301
MARGIN
  1
CELLMARGIN_BEGIN
 40
1.5
 40
1.5
 40
1.5
 40
1.5
 40
0.18
 40
0.18
309
CELLMARGIN_END
 94
        6
 95
        1
302
GRIDFORMAT
  1
GRIDFORMAT_BEGIN
 90
        0
 91
        1
 62
     0
 92
       -2
340
0
 93
        0
 40
1.125
309
GRIDFORMAT_END
 95
        2
302
GRIDFORMAT
  1
GRIDFORMAT_BEGIN
 90
        0
 91
        1
 62
     0
 92
       -2
340
0
 93
        0
 40
1.125
309
GRIDFORMAT_END
 95
        4
302
GRIDFORMAT
  1
GRIDFORMAT_BEGIN
 90
        0
 91
        1
 62
     0
 92
       -2
340
0
 93
        0
 40
1.125
309
GRIDFORMAT_END
 95
        8
302
GRIDFORMAT
  1
GRIDFORMAT_BEGIN
 90
        0
 91
        1
 62
     0
 92
       -2
340
0
 93
        0
 40
1.125
309
GRIDFORMAT_END
 95
       16
302
GRIDFORMAT
  1
GRIDFORMAT_BEGIN
 90
        0
 91
        1
 62
     0
 92
       -2
340
0
 93
        0
 40
1.125
309
GRIDFORMAT_END
 95
       32
302
GRIDFORMAT
  1
GRIDFORMAT_BEGIN
 90
        0
 91
        1
 62
     0
 92
       -2
340
0
 93
        0
 40
1.125
309
GRIDFORMAT_END
309
TABLEFORMAT_END
  1
CELLSTYLE_BEGIN
 90
        3
 91
        2
300
_DATA
309
CELLSTYLE_END
  0
ENDSEC
  0
SECTION
  2
ACDSDATA
 70
     2
 71
     8
  0
ACDSSCHEMA
 90
        0
  1
AcDb_Thumbnail_Schema
  2
AcDbDs::ID
280
    10
 91
        8
  2
Thumbnail_Data
280
    15
 91
        0
101
ACDSRECORD
 95
        0
 90
        1
  2
AcDbDs::TreatedAsObjectData
280
     1
291
     1
101
ACDSRECORD
 95
        0
 90
        2
  2
AcDbDs::Legacy
280
     1
291
     1
101
ACDSRECORD
  1
AcDbDs::ID
 90
        3
  2
AcDs:Indexable
280
     1
291
     1
101
ACDSRECORD
  1
AcDbDs::ID
 90
        4
  2
AcDbDs::HandleAttribute
280
     7
282
     1
  0
ACDSSCHEMA
 90
        1
  1
AcDbDs::TreatedAsObjectDataSchema
  2
AcDbDs::TreatedAsObjectData
280
     1
 91
        0
  0
ACDSSCHEMA
 90
        2
  1
AcDbDs::LegacySchema
  2
AcDbDs::Legacy
280
     1
 91
        0
  0
ACDSSCHEMA
 90
        3
  1
AcDbDs::IndexedPropertySchema
  2
AcDs:Indexable
280
     1
 91
        0
  0
ACDSSCHEMA
 90
        4
  1
AcDbDs::HandleAttributeSchema
  2
AcDbDs::HandleAttribute
280
     7
 91
        1
284
     1
  0
ACDSRECORD
 90
        0
  2
AcDbDs::ID
280
    10
320
A
  2
Thumbnail_Data
280
    15
 94
     2518
310
89504E470D0A1A0A0000000D4948445200000100000000C10803000000176F9EF100000300504C5445212830000000FFFFFF0000000000000000000000000000000000000000000000000000330000660000990000CC0000FF0033000033330033660033990033CC0033FF0066000066330066660066990066CC0066FF0099
310
000099330099660099990099CC0099FF00CC0000CC3300CC6600CC9900CCCC00CCFF00FF0000FF3300FF6600FF9900FFCC00FFFF3300003300333300663300993300CC3300FF3333003333333333663333993333CC3333FF3366003366333366663366993366CC3366FF3399003399333399663399993399CC3399FF33CC00
310
33CC3333CC6633CC9933CCCC33CCFF33FF0033FF3333FF6633FF9933FFCC33FFFF6600006600336600666600996600CC6600FF6633006633336633666633996633CC6633FF6666006666336666666666996666CC6666FF6699006699336699666699996699CC6699FF66CC0066CC3366CC6666CC9966CCCC66CCFF66FF0066
310
FF3366FF6666FF9966FFCC66FFFF9900009900339900669900999900CC9900FF9933009933339933669933999933CC9933FF9966009966339966669966999966CC9966FF9999009999339999669999999999CC9999FF99CC0099CC3399CC6699CC9999CCCC99CCFF99FF0099FF3399FF6699FF9999FFCC99FFFFCC0000CC00
310
33CC0066CC0099CC00CCCC00FFCC3300CC3333CC3366CC3399CC33CCCC33FFCC6600CC6633CC6666CC6699CC66CCCC66FFCC9900CC9933CC9966CC9999CC99CCCC99FFCCCC00CCCC33CCCC66CCCC99CCCCCCCCCCFFCCFF00CCFF33CCFF66CCFF99CCFFCCCCFFFFFF0000FF0033FF0066FF0099FF00CCFF00FFFF3300FF3333
310
FF3366FF3399FF33CCFF33FFFF6600FF6633FF6666FF6699FF66CCFF66FFFF9900FF9933FF9966FF9999FF99CCFF99FFFFCC00FFCC33FFCC66FFCC99FFCCCCFFCCFFFFFF00FFFF33FFFF66FFFF99FFFFCCFFFFFF0000000D0D0D1A1A1A2828283535354343435050505D5D5D6B6B6B787878868686939393A1A1A1AEAEAEBB
310
BBBBC9C9C9D6D6D6E4E4E4F1F1F1FFFFFF0000000000000000000000000000000000000000000000000000000000007BFF0FCC000006914944415478DAED9D5B9683200C86B39CEC7F01AEC46DE4BD55441111B90989E03973EDB4CAD7F0E7427000C60130777A1C00DAB1276AF8BE0F00ED01103524C0C402F800682344D4
310
4EFE2E003A727B03C00030000C0003C00030000C0003C00030000C006D0120E200D0F9141816F06900D3E98BF3D11604EA0098A6A5E449FB17FBC0FDF8AC05902AFA92BBF6DB6EFCFFA12E575401004CB491703EBC3CDA2D00EC1D0020F50D800891DA01A82482A03C00CD335D8EFFC8A9552454CF0B4CCAFDCDB3C7097ED8
310
0D827EB71D06B07AC6165120AB50189BC4819C72011CE9705102281300F60C209FC0FEEC8817E25510C9B480FDF95201643B02E54AA2228A6F5585517D2CC3EF17C03A7EE207A04A0B18EAE432FC6C952B42F500D0DB00FC3A838E639A3A027099826B3A5C0B00BC3F051ED3D786000863CE940CE0C16FE35D45A802008839
310
532A003ADB1C2B0084EF03D0328377117C5300AF5BC0B2C2332D9FE0560AE44C0155A74AB18085C01A74CA06903605FEA35910D0AD23F83C80A7F4FDFB00FE63A7093801D0EF47350B5800102700D03B806101C3020680DE0140D700F4490780016000180006808E01C48D7F00E00B2061A5F86B00B00E80A44ED197016CAB
310
FC9500BC6001D78B8F0290DA34C9C702F200A84A733D11640820B159888F08260358DAC6D37BC53E006069AA4EEF94120D40B5502C6B6E089953206A0A310180FB7ABB9A02D92218FC024C02A1ED7A97D5164AF682E7298061FDE79C00E86D331A403483B3068441E406800C029900C208B0C90556006AF750F2F86D2F200B
310
C03276DCFB9BD66C0052089C01A0180050A4997451511380240DC032DDB468F6484902506CD794D9252ACB024A6D99A1C394E40008F7DB412680E234E098C0058480B40D84F06405000BDD5B7779111209A0D0B6395246A097CB490A807C15C40300EDBB66FC46F5C1A531150C92568287DD130E00A71AA1200087F5D02AA7
310
AB3BD877A7DF03581E350050D07E934400C676F917C77F48293D07D88E66E9172DE0DDAD538897133F9F6F5E31D5D200EB728A6F984F2827D615C12B80D20498037026006D11B47683E51144EC1BAE0A40DD2AA912018600D69B6521B86EA787EE5F1708885ECC05548C150560BB5BD2E44E02CB6EABDC5619E04D00EBB6A9
310
5800EB3E23E79DA44AEF2B0D9E586900A6E3A6880F159ECB06EA9BE34F672ABABBFAE5FB07C485B46A9D877CC7446DEEA394A501A1655C658EB86BA1EBF526025100A6E744DB76745E00CD6E2596E90528428ED4A73BB997072054037639DEF6F6E32700ACC21DAA81BA460DEA396EB9176901097E89B606906F68408A63BE
310
23200D4042C882FB335D59703F00D09DB2360490DE2A9B0EE09AB2F60600A403805C00D2457000C801809D0240F0B4817401401308B9F3D43701783A817A13C18B1DF403C04892B1DF29E038BAF002890F7E0400D3A33A005FB7CAF91F90FBBF13FABFC79FFB95C8818A42F025BE0BF501DC57D3FA001040A7EEC108400F16
310
F02CC83D03E8610A0C0B1800C614F058009119291C8D95A60578C7A23F8605C41E5C3480846AC0B64343ED5048EF079F492C806DF8AA3F3FF93AE58AE00900F468016AECC7461D4AD480DE03A10E0A224F538036EF4FA62498DF850BC993056C7F534C040B88D10D00E80740B5294085A7402900251C6793AA70F7004A7A81
310
3CD3A6ED336D967EFCAB63115EE07853F7686A8E752397F4F0F022CE97FB1600B80700B20050228078C6EC00448F291500710570CEA8F334609FFF56BAB185574C019C22BE3700F0D680C72BD6B99CC3E5CF8EF421000049D28093BA7B2C00EC6F4400B88D53CA01709CA056AF70290B88D3009B803B76285411D2F7EFD97F
310
2810D96788200402285515D663D6F5318A2E8FDED72C8BC5015500E8459D680B988F1880327301B0D68A9CC250BC2C6EAC0F18DFA7580038EAD54900CC54C0571067B332A44BCAB900AE5EE04E1C382643A6DACB0010B90CD330196A5E127BB922D46A5DE01D0B98B3A79329D18E0B98F94D01739ABE03802C00FCBCC05D91
310
98E8B85728988E929CB78C9BEFDE1EFB6F9801807B00700E2BF6A1B8CD6A0EB512C6253107002233E802307F910280DD14F001D8B5C18EEE9C370D744F01B0A68020007B5CAFF38C63011508BC00E09411C805A03FEC19E04EBBC22C4092061428AEF017C1EA07C764E839CABA5AB5FDF85108F0D6A5D6B84320804B8E67FD
310
00765B893F801502004E3A66D300732514EC16A3FBEC192458C08BE7F30028D37E534FCC329EE804F05002CD7894BC3965F25373AE980B00920220A0052FEDB994613C5FB000A00C76050134D3A3B627857100FC0058DAD97B514CF18C0000000049454E44AE426082
  0
ACDSRECORD
 90
        0
  2
AcDbDs::ID
280
    10
320
F
  2
Thumbnail_Data
280
    15
 94
     1128
310
89504E470D0A1A0A0000000D4948445200000100000000B5080300000087DCD12600000300504C5445000000000000FFFFFF0000000000000000000000000000000000000000000000000000330000660000990000CC0000FF0033000033330033660033990033CC0033FF0066000066330066660066990066CC0066FF0099
310
000099330099660099990099CC0099FF00CC0000CC3300CC6600CC9900CCCC00CCFF00FF0000FF3300FF6600FF9900FFCC00FFFF3300003300333300663300993300CC3300FF3333003333333333663333993333CC3333FF3366003366333366663366993366CC3366FF3399003399333399663399993399CC3399FF33CC00
310
33CC3333CC6633CC9933CCCC33CCFF33FF0033FF3333FF6633FF9933FFCC33FFFF6600006600336600666600996600CC6600FF6633006633336633666633996633CC6633FF6666006666336666666666996666CC6666FF6699006699336699666699996699CC6699FF66CC0066CC3366CC6666CC9966CCCC66CCFF66FF0066
310
FF3366FF6666FF9966FFCC66FFFF9900009900339900669900999900CC9900FF9933009933339933669933999933CC9933FF9966009966339966669966999966CC9966FF9999009999339999669999999999CC9999FF99CC0099CC3399CC6699CC9999CCCC99CCFF99FF0099FF3399FF6699FF9999FFCC99FFFFCC0000CC00
310
33CC0066CC0099CC00CCCC00FFCC3300CC3333CC3366CC3399CC33CCCC33FFCC6600CC6633CC6666CC6699CC66CCCC66FFCC9900CC9933CC9966CC9999CC99CCCC99FFCCCC00CCCC33CCCC66CCCC99CCCCCCCCCCFFCCFF00CCFF33CCFF66CCFF99CCFFCCCCFFFFFF0000FF0033FF0066FF0099FF00CCFF00FFFF3300FF3333
310
FF3366FF3399FF33CCFF33FFFF6600FF6633FF6666FF6699FF66CCFF66FFFF9900FF9933FF9966FF9999FF99CCFF99FFFFCC00FFCC33FFCC66FFCC99FFCCCCFFCCFFFFFF00FFFF33FFFF66FFFF99FFFFCCFFFFFF0000000D0D0D1A1A1A2828283535354343435050505D5D5D6B6B6B787878868686939393A1A1A1AEAEAEBB
310
BBBBC9C9C9D6D6D6E4E4E4F1F1F1FFFFFF000000000000000000000000000000000000000000000000000000000000C11FEF66000001234944415478DAEDD8310AC020144441EF7F4B0F611F080968910384375B2A3623E2F2C76A678E35CA0190075837C0FB20B6F5335F1BBF3EB003242F1F000000000000508400000000
310
00000000F181882A0C000000000000000000000000000000E400BA0100000000000000E401546100000000000000000000000000001004C8CF0300000000000000005D005518000000000000000000000000000000E801740300000000000000D004010000000000000000000000000000801E403700000000000000803C80
310
2A0C00000000000000000000000000008200F9790000000000000000A00BA00A030000000000000000000000000000003D806E000000000000000079005518000000000094019E6CDFE399AF8D5F1F50840000B801E21973CE34C00584A5D741C17130A70000000049454E44AE426082
  0
ENDSEC
  0
EOF
