  0
SECTION
  2
HEADER
  9
$ACADVER
  1
AC1027
  9
$ACADMAINTVER
 70
   125
  9
$DWGCODEPAGE
  3
ANSI_1252
  9
$LASTSAVEDBY
  1
fleminab
  9
$REQUIREDVERSIONS
160
                 0
  9
$INSBASE
 10
8.0
 20
5.0
 30
0.0
  9
$EXTMIN
 10
807.9637528631646
 20
340.3827697704183
 30
0.0
  9
$EXTMAX
 10
9526.032506768293
 20
4984.517792782236
 30
0.0
  9
$LIMMIN
 10
0.0
 20
0.0
  9
$LIMMAX
 10
420.0
 20
297.0
  9
$ORTHOMODE
 70
     1
  9
$REGENMODE
 70
     1
  9
$FILLMODE
 70
     1
  9
$QTEXTMODE
 70
     0
  9
$MIRRTEXT
 70
     1
  9
$LTSCALE
 40
0.5
  9
$ATTMODE
 70
     1
  9
$TEXTSIZE
 40
6.0
  9
$TRACEWID
 40
1.0
  9
$TEXTSTYLE
  7
黑体
  9
$CLAYER
  8
0
  9
$CELTYPE
  6
ByLayer
  9
$CECOLOR
 62
   256
  9
$CELTSCALE
 40
1.0
  9
$DISPSILH
 70
     1
  9
$DIMSCALE
 40
1.0
  9
$DIMASZ
 40
12.0
  9
$DIMEXO
 40
0.0
  9
$DIMDLI
 40
3.75
  9
$DIMRND
 40
0.0
  9
$DIMDLE
 40
0.0
  9
$DIMEXE
 40
8.0
  9
$DIMTP
 40
0.0
  9
$DIMTM
 40
0.0
  9
$DIMTXT
 40
30.0
  9
$DIMCEN
 40
2.5
  9
$DIMTSZ
 40
0.0
  9
$DIMTOL
 70
     0
  9
$DIMLIM
 70
     0
  9
$DIMTIH
 70
     0
  9
$DIMTOH
 70
     0
  9
$DIMSE1
 70
     0
  9
$DIMSE2
 70
     0
  9
$DIMTAD
 70
     1
  9
$DIMZIN
 70
     8
  9
$DIMBLK
  1
ClosedBlank
  9
$DIMASO
 70
     1
  9
$DIMSHO
 70
     1
  9
$DIMPOST
  1

  9
$DIMAPOST
  1

  9
$DIMALT
 70
     0
  9
$DIMALTD
 70
     3
  9
$DIMALTF
 40
0.03937007874016
  9
$DIMLFAC
 40
1.0
  9
$DIMTOFL
 70
     1
  9
$DIMTVP
 40
0.0
  9
$DIMTIX
 70
     0
  9
$DIMSOXD
 70
     0
  9
$DIMSAH
 70
     0
  9
$DIMBLK1
  1

  9
$DIMBLK2
  1

  9
$DIMSTYLE
  2
线性标注
  9
$DIMCLRD
 70
     0
  9
$DIMCLRE
 70
     0
  9
$DIMCLRT
 70
     0
  9
$DIMTFAC
 40
1.0
  9
$DIMGAP
 40
0.625
  9
$DIMJUST
 70
     0
  9
$DIMSD1
 70
     0
  9
$DIMSD2
 70
     0
  9
$DIMTOLJ
 70
     0
  9
$DIMTZIN
 70
     8
  9
$DIMALTZ
 70
     0
  9
$DIMALTTZ
 70
     0
  9
$DIMUPT
 70
     0
  9
$DIMDEC
 70
     1
  9
$DIMTDEC
 70
     1
  9
$DIMALTU
 70
     2
  9
$DIMALTTD
 70
     3
  9
$DIMTXSTY
  7
样式 1
  9
$DIMAUNIT
 70
     0
  9
$DIMADEC
 70
     0
  9
$DIMALTRND
 40
0.0
  9
$DIMAZIN
 70
     0
  9
$DIMDSEP
 70
    46
  9
$DIMATFIT
 70
     3
  9
$DIMFRAC
 70
     0
  9
$DIMLDRBLK
  1

  9
$DIMLUNIT
 70
     2
  9
$DIMLWD
 70
    -2
  9
$DIMLWE
 70
    -2
  9
$DIMTMOVE
 70
     0
  9
$DIMFXL
 40
1.25
  9
$DIMFXLON
 70
     0
  9
$DIMJOGANG
 40
1.570796326794896
  9
$DIMTFILL
 70
     0
  9
$DIMTFILLCLR
 70
     0
  9
$DIMARCSYM
 70
     0
  9
$DIMLTYPE
  6

  9
$DIMLTEX1
  6

  9
$DIMLTEX2
  6

  9
$DIMTXTDIRECTION
 70
     0
  9
$LUNITS
 70
     2
  9
$LUPREC
 70
     4
  9
$SKETCHINC
 40
1.0
  9
$FILLETRAD
 40
55.0
  9
$AUNITS
 70
     0
  9
$AUPREC
 70
     0
  9
$MENU
  1
.
  9
$ELEVATION
 40
0.0
  9
$PELEVATION
 40
0.0
  9
$THICKNESS
 40
0.0
  9
$LIMCHECK
 70
     0
  9
$CHAMFERA
 40
1.0
  9
$CHAMFERB
 40
1.0
  9
$CHAMFERC
 40
0.5
  9
$CHAMFERD
 40
0.7853981633974483
  9
$SKPOLY
 70
     0
  9
$TDCREATE
 40
2454593.406203704
  9
$TDUCREATE
 40
2454592.989546620
  9
$TDUPDATE
 40
2458015.649351852
  9
$TDUUPDATE
 40
2458015.232685185
  9
$TDINDWG
 40
8.2071907407
  9
$TDUSRTIMER
 40
8.2071849537
  9
$USRTIMER
 70
     1
  9
$ANGBASE
 50
0.0
  9
$ANGDIR
 70
     0
  9
$PDMODE
 70
    34
  9
$PDSIZE
 40
-2.0
  9
$PLINEWID
 40
0.0
  9
$SPLFRAME
 70
     0
  9
$SPLINETYPE
 70
     6
  9
$SPLINESEGS
 70
     8
  9
$HANDSEED
  5
6062E9F
  9
$SURFTAB1
 70
     6
  9
$SURFTAB2
 70
     6
  9
$SURFTYPE
 70
     6
  9
$SURFU
 70
     6
  9
$SURFV
 70
     6
  9
$UCSBASE
  2

  9
$UCSNAME
  2

  9
$UCSORG
 10
0.0
 20
0.0
 30
0.0
  9
$UCSXDIR
 10
1.0
 20
0.0
 30
0.0
  9
$UCSYDIR
 10
0.0
 20
1.0
 30
0.0
  9
$UCSORTHOREF
  2

  9
$UCSORTHOVIEW
 70
     1
  9
$UCSORGTOP
 10
0.0
 20
0.0
 30
0.0
  9
$UCSORGBOTTOM
 10
0.0
 20
0.0
 30
0.0
  9
$UCSORGLEFT
 10
0.0
 20
0.0
 30
0.0
  9
$UCSORGRIGHT
 10
0.0
 20
0.0
 30
0.0
  9
$UCSORGFRONT
 10
0.0
 20
0.0
 30
0.0
  9
$UCSORGBACK
 10
0.0
 20
0.0
 30
0.0
  9
$PUCSBASE
  2

  9
$PUCSNAME
  2

  9
$PUCSORG
 10
0.0
 20
0.0
 30
0.0
  9
$PUCSXDIR
 10
1.0
 20
0.0
 30
0.0
  9
$PUCSYDIR
 10
0.0
 20
1.0
 30
0.0
  9
$PUCSORTHOREF
  2

  9
$PUCSORTHOVIEW
 70
     0
  9
$PUCSORGTOP
 10
0.0
 20
0.0
 30
0.0
  9
$PUCSORGBOTTOM
 10
0.0
 20
0.0
 30
0.0
  9
$PUCSORGLEFT
 10
0.0
 20
0.0
 30
0.0
  9
$PUCSORGRIGHT
 10
0.0
 20
0.0
 30
0.0
  9
$PUCSORGFRONT
 10
0.0
 20
0.0
 30
0.0
  9
$PUCSORGBACK
 10
0.0
 20
0.0
 30
0.0
  9
$USERI1
 70
     0
  9
$USERI2
 70
     0
  9
$USERI3
 70
     0
  9
$USERI4
 70
     0
  9
$USERI5
 70
     0
  9
$USERR1
 40
0.0
  9
$USERR2
 40
0.0
  9
$USERR3
 40
0.0
  9
$USERR4
 40
0.0
  9
$USERR5
 40
0.0
  9
$WORLDVIEW
 70
     1
  9
$SHADEDGE
 70
     3
  9
$SHADEDIF
 70
    70
  9
$TILEMODE
 70
     1
  9
$MAXACTVP
 70
    64
  9
$PINSBASE
 10
0.0
 20
0.0
 30
0.0
  9
$PLIMCHECK
 70
     0
  9
$PEXTMIN
 10
0.0451739414299368
 20
0.0000025706221436
 30
0.0
  9
$PEXTMAX
 10
287.29517394143
 20
200.4000025706222
 30
0.0
  9
$PLIMMIN
 10
-4.7730712890625
 20
-4.773083209991455
  9
$PLIMMAX
 10
292.2375793457031
 20
205.2425875663757
  9
$UNITMODE
 70
     0
  9
$VISRETAIN
 70
     1
  9
$PLINEGEN
 70
     0
  9
$PSLTSCALE
 70
     0
  9
$TREEDEPTH
 70
  3020
  9
$CMLSTYLE
  2
Standard
  9
$CMLJUST
 70
     0
  9
$CMLSCALE
 40
20.0
  9
$PROXYGRAPHICS
 70
     1
  9
$MEASUREMENT
 70
     1
  9
$CELWEIGHT
370
    -1
  9
$ENDCAPS
280
     0
  9
$JOINSTYLE
280
     0
  9
$LWDISPLAY
290
     0
  9
$INSUNITS
 70
     4
  9
$HYPERLINKBASE
  1

  9
$STYLESHEET
  1
acad.ctb
  9
$XEDIT
290
     1
  9
$CEPSNTYPE
380
     0
  9
$PSTYLEMODE
290
     1
  9
$FINGERPRINTGUID
  2
{FDEAD578-A652-11D2-9A35-0060089B3A3F}
  9
$VERSIONGUID
  2
{5205CCF3-22C5-4447-91B1-5C2D7396A051}
  9
$EXTNAMES
290
     1
  9
$PSVPSCALE
 40
1.0
  9
$OLESTARTUP
290
     0
  9
$SORTENTS
280
   127
  9
$INDEXCTL
280
     0
  9
$HIDETEXT
280
     1
  9
$XCLIPFRAME
280
     2
  9
$HALOGAP
280
     0
  9
$OBSCOLOR
 70
   257
  9
$OBSLTYPE
280
     0
  9
$INTERSECTIONDISPLAY
280
     0
  9
$INTERSECTIONCOLOR
 70
   257
  9
$DIMASSOC
280
     1
  9
$PROJECTNAME
  1

  9
$CAMERADISPLAY
290
     0
  9
$LENSLENGTH
 40
50.0
  9
$CAMERAHEIGHT
 40
0.0
  9
$STEPSPERSEC
 40
2.0
  9
$STEPSIZE
 40
6.0
  9
$3DDWFPREC
 40
2.0
  9
$PSOLWIDTH
 40
0.25
  9
$PSOLHEIGHT
 40
4.0
  9
$LOFTANG1
 40
1.570795999999999
  9
$LOFTANG2
 40
1.570795999999999
  9
$LOFTMAG1
 40
0.0
  9
$LOFTMAG2
 40
0.0
  9
$LOFTPARAM
 70
     7
  9
$LOFTNORMALS
280
     1
  9
$LATITUDE
 40
37.795
  9
$LONGITUDE
 40
-122.394
  9
$NORTHDIRECTION
 40
0.0
  9
$TIMEZONE
 70
 -8000
  9
$LIGHTGLYPHDISPLAY
280
     1
  9
$TILEMODELIGHTSYNCH
280
     1
  9
$CMATERIAL
347
982F
  9
$SOLIDHIST
280
     0
  9
$SHOWHIST
280
     1
  9
$DWFFRAME
280
     2
  9
$DGNFRAME
280
     2
  9
$REALWORLDSCALE
290
     1
  9
$INTERFERECOLOR
 62
   256
  9
$INTERFEREOBJVS
345
9851
  9
$INTERFEREVPVS
346
6062E76
  9
$CSHADOW
280
     0
  9
$SHADOWPLANELOCATION
 40
0.0
  0
ENDSEC
  0
SECTION
  2
CLASSES
  0
CLASS
  1
ACDBDICTIONARYWDFLT
  2
AcDbDictionaryWithDefault
  3
ObjectDBX Classes
 90
        0
 91
        1
280
     0
281
     0
  0
CLASS
  1
ACDBPLACEHOLDER
  2
AcDbPlaceHolder
  3
ObjectDBX Classes
 90
        0
 91
        1
280
     0
281
     0
  0
CLASS
  1
LAYOUT
  2
AcDbLayout
  3
ObjectDBX Classes
 90
        0
 91
        2
280
     0
281
     0
  0
CLASS
  1
PLOTSETTINGS
  2
AcDbPlotSettings
  3
ObjectDBX Classes
 90
        0
 91
        1
280
     0
281
     0
  0
CLASS
  1
DICTIONARYVAR
  2
AcDbDictionaryVar
  3
ObjectDBX Classes
 90
        0
 91
       21
280
     0
281
     0
  0
CLASS
  1
WIPEOUT
  2
AcDbWipeout
  3
WipeOut|Product Desc: Object Enabler for WipeOut entity | Company: Autodesk, Inc. | WEB Address: www.autodesk.com
 90
     2175
 91
        0
280
     0
281
     1
  0
CLASS
  1
WIPEOUTVARIABLES
  2
AcDbWipeoutVariables
  3
"WipeOut|Product Desc:     WipeOut Dbx Application|Company:          Autodesk, Inc.|WEB Address:      www.autodesk.com"
 90
        0
 91
        0
280
     0
281
     0
  0
CLASS
  1
DIMASSOC
  2
AcDbDimAssoc
  3
"AcDbDimAssoc|Product Desc:     AcDim ARX App For Dimension|Company:          Autodesk, Inc.|WEB Address:      www.autodesk.com"
 90
        0
 91
        0
280
     0
281
     0
  0
CLASS
  1
RASTERVARIABLES
  2
AcDbRasterVariables
  3
ISM
 90
        0
 91
        3
280
     0
281
     0
  0
CLASS
  1
IMAGEDEF
  2
AcDbRasterImageDef
  3
ISM
 90
        0
 91
        1
280
     0
281
     0
  0
CLASS
  1
IMAGEDEF_REACTOR
  2
AcDbRasterImageDefReactor
  3
ISM
 90
        1
 91
        0
280
     0
281
     0
  0
CLASS
  1
IMAGE
  2
AcDbRasterImage
  3
ISM
 90
     2175
 91
        0
280
     0
281
     1
  0
CLASS
  1
MATERIAL
  2
AcDbMaterial
  3
ObjectDBX Classes
 90
     1153
 91
        3
280
     0
281
     0
  0
CLASS
  1
VISUALSTYLE
  2
AcDbVisualStyle
  3
ObjectDBX Classes
 90
     4095
 91
       26
280
     0
281
     0
  0
CLASS
  1
TABLESTYLE
  2
AcDbTableStyle
  3
ObjectDBX Classes
 90
     4095
 91
        1
280
     0
281
     0
  0
CLASS
  1
SCALE
  2
AcDbScale
  3
ObjectDBX Classes
 90
     1153
 91
       33
280
     0
281
     0
  0
CLASS
  1
MLEADERSTYLE
  2
AcDbMLeaderStyle
  3
ACDB_MLEADERSTYLE_CLASS
 90
     4095
 91
        1
280
     0
281
     0
  0
CLASS
  1
CELLSTYLEMAP
  2
AcDbCellStyleMap
  3
ObjectDBX Classes
 90
     1152
 91
        2
280
     0
281
     0
  0
CLASS
  1
SORTENTSTABLE
  2
AcDbSortentsTable
  3
ObjectDBX Classes
 90
        0
 91
        1
280
     0
281
     0
  0
CLASS
  1
ACDBSECTIONVIEWSTYLE
  2
AcDbSectionViewStyle
  3
ObjectDBX Classes
 90
     1025
 91
        1
280
     0
281
     0
  0
CLASS
  1
ACDBDETAILVIEWSTYLE
  2
AcDbDetailViewStyle
  3
ObjectDBX Classes
 90
     1025
 91
        1
280
     0
281
     0
  0
ENDSEC
  0
SECTION
  2
TABLES
  0
TABLE
  2
VPORT
  5
1A
102
{ACAD_XDICTIONARY
360
62423
102
}
330
0
100
AcDbSymbolTable
 70
     1
1001
ACAD
1000
DbSaveVer
1071
        5
  0
VPORT
  5
62E67
330
1A
100
AcDbSymbolTableRecord
100
AcDbViewportTableRecord
  2
*Active
 70
     0
 10
0.0
 20
0.0
 11
1.0
 21
1.0
 12
8249.18069272836
 22
4008.730996024148
 13
0.0
 23
0.0
 14
10.0
 24
10.0
 15
10.0
 25
10.0
 16
0.0
 26
0.0
 36
1.0
 17
0.0
 27
0.0
 37
0.0
 40
1846.804706155299
 41
2.292712066905615
 42
50.0
 43
0.0
 44
0.0
 50
0.0
 51
0.0
 71
    16
 72
 20000
 73
     1
 74
     1
 75
     0
 76
     0
 77
     0
 78
     2
281
     0
 65
     1
110
0.0
120
0.0
130
0.0
111
1.0
121
0.0
131
0.0
112
0.0
122
1.0
132
0.0
 79
     0
146
0.0
348
984D
 60
     3
 61
     5
292
     1
282
     1
141
0.0
142
0.0
 63
   250
421
  3355443
1001
ACAD_NAV_VCDISPLAY
1070
     3
  0
ENDTAB
  0
TABLE
  2
LTYPE
  5
15
330
0
100
AcDbSymbolTable
 70
     2
  0
LTYPE
  5
16
330
15
100
AcDbSymbolTableRecord
100
AcDbLinetypeTableRecord
  2
ByBlock
 70
     0
  3

 72
    65
 73
     0
 40
0.0
  0
LTYPE
  5
17
330
15
100
AcDbSymbolTableRecord
100
AcDbLinetypeTableRecord
  2
ByLayer
 70
     0
  3

 72
    65
 73
     0
 40
0.0
  0
LTYPE
  5
8
330
15
100
AcDbSymbolTableRecord
100
AcDbLinetypeTableRecord
  2
Continuous
 70
     0
  3
Solid line
 72
    65
 73
     0
 40
0.0
  0
LTYPE
  5
3FE
330
15
100
AcDbSymbolTableRecord
100
AcDbLinetypeTableRecord
  2
CENTER
 70
     0
  3
Center ____ _ ____ _ ____ _ ____ _ ____ _ ____
 72
    65
 73
     4
 40
50.8
 49
31.75
 74
     0
 49
-6.349999999999998
 74
     0
 49
6.349999999999998
 74
     0
 49
-6.349999999999998
 74
     0
  0
ENDTAB
  0
TABLE
  2
LAYER
  5
10
102
{ACAD_XDICTIONARY
360
3FD7
102
}
330
0
100
AcDbSymbolTable
 70
     7
  0
LAYER
  5
4
102
{ACAD_XDICTIONARY
360
9891
102
}
330
10
100
AcDbSymbolTableRecord
100
AcDbLayerTableRecord
  2
0
 70
     0
 62
     7
  6
Continuous
370
    30
390
5
347
983F
348
0
  0
LAYER
  5
400
102
{ACAD_XDICTIONARY
360
9893
102
}
330
10
100
AcDbSymbolTableRecord
100
AcDbLayerTableRecord
  2
标注
 70
     0
 62
   221
  6
Continuous
370
     9
390
5
347
983F
348
0
1001
AcadStringInfo
1000
MIFCodePage
1070
     5
  0
LAYER
  5
401
330
10
100
AcDbSymbolTableRecord
100
AcDbLayerTableRecord
  2
Defpoints
 70
     0
 62
     7
  6
Continuous
290
     0
370
    -3
390
5
347
983F
348
0
  0
LAYER
  5
403
102
{ACAD_XDICTIONARY
360
9897
102
}
330
10
100
AcDbSymbolTableRecord
100
AcDbLayerTableRecord
  2
中心线
 70
     0
 62
     1
  6
CENTER
370
     9
390
5
347
983F
348
0
1001
AcadStringInfo
1000
MIFCodePage
1070
     5
  0
LAYER
  5
405
102
{ACAD_XDICTIONARY
360
989B
102
}
330
10
100
AcDbSymbolTableRecord
100
AcDbLayerTableRecord
  2
剖面线
 70
     0
 62
    50
  6
Continuous
370
     9
390
5
347
983F
348
0
1001
AcadStringInfo
1000
MIFCodePage
1070
     5
  0
LAYER
  5
92F
102
{ACAD_XDICTIONARY
360
989F
102
}
330
10
100
AcDbSymbolTableRecord
100
AcDbLayerTableRecord
  2
ASHADE
 70
     4
 62
    -7
  6
Continuous
370
    -3
390
5
347
983F
348
0
  0
LAYER
  5
4563
102
{ACAD_XDICTIONARY
360
98A9
102
}
330
10
100
AcDbSymbolTableRecord
100
AcDbLayerTableRecord
  2
图层1
 70
     0
 62
     7
  6
Continuous
370
    13
390
5
347
983F
348
0
1001
AcadStringInfo
1000
MIFCodePage
1070
     5
  0
ENDTAB
  0
TABLE
  2
STYLE
  5
11
330
0
100
AcDbSymbolTable
 70
     5
  0
STYLE
  5
12
330
11
100
AcDbSymbolTableRecord
100
AcDbTextStyleTableRecord
  2
Standard
 70
     0
 40
0.0
 41
1.0
 50
0.0
 71
     0
 42
4.5
  3
SIMHEI.TTF
  4

1001
ACAD
1000
SimHei
1071
    34306
  0
STYLE
  5
406
330
11
100
AcDbSymbolTableRecord
100
AcDbTextStyleTableRecord
  2
样式 1
 70
     0
 40
0.0
 41
1.0
 50
0.0
 71
     0
 42
4.5
  3

  4

1001
ACAD
1000
LiSu
1071
    34353
1001
AcadStringInfo
1000
MIFCodePage
1070
     5
  0
STYLE
  5
3FD6
330
11
100
AcDbSymbolTableRecord
100
AcDbTextStyleTableRecord
  2
黑体
 70
     0
 40
0.0
 41
1.0
 50
0.0
 71
     0
 42
6.0
  3
SIMHEI.TTF
  4

1001
ACAD
1000
SimHei
1071
    34306
1001
AcadStringInfo
1000
MIFCodePage
1070
     5
  0
STYLE
  5
62C09
330
11
100
AcDbSymbolTableRecord
100
AcDbTextStyleTableRecord
  2
GN3
 70
     0
 40
0.156
 41
1.0
 50
0.0
 71
     0
 42
0.2
  3
ROMANK
  4

  0
STYLE
  5
62C0A
330
11
100
AcDbSymbolTableRecord
100
AcDbTextStyleTableRecord
  2
GN4
 70
     0
 40
0.188
 41
1.0
 50
0.0
 71
     0
 42
0.2
  3
ROMAND
  4

  0
ENDTAB
  0
TABLE
  2
VIEW
  5
18
330
0
100
AcDbSymbolTable
 70
     0
  0
ENDTAB
  0
TABLE
  2
UCS
  5
19
330
0
100
AcDbSymbolTable
 70
     0
  0
ENDTAB
  0
TABLE
  2
APPID
  5
1C
330
0
100
AcDbSymbolTable
 70
    19
  0
APPID
  5
13
330
1C
100
AcDbSymbolTableRecord
100
AcDbRegAppTableRecord
  2
ACAD
 70
     0
  0
APPID
  5
2BE8
330
1C
100
AcDbSymbolTableRecord
100
AcDbRegAppTableRecord
  2
DCO15
 70
     0
  0
APPID
  5
987D
330
1C
100
AcDbSymbolTableRecord
100
AcDbRegAppTableRecord
  2
ACAD_MLEADERVER
 70
     0
  0
APPID
  5
988A
330
1C
100
AcDbSymbolTableRecord
100
AcDbRegAppTableRecord
  2
ACAD_EXEMPT_FROM_CAD_STANDARDS
 70
     0
  0
APPID
  5
A534
330
1C
100
AcDbSymbolTableRecord
100
AcDbRegAppTableRecord
  2
ACAD_DSTYLE_DIMRADIAL_EXTENSION
 70
     0
  0
APPID
  5
30A41
330
1C
100
AcDbSymbolTableRecord
100
AcDbRegAppTableRecord
  2
ACAD_PSEXT
 70
     0
  0
APPID
  5
46FFE
330
1C
100
AcDbSymbolTableRecord
100
AcDbRegAppTableRecord
  2
ACAD_DSTYLE_DIMJAG
 70
     0
  0
APPID
  5
46FFF
330
1C
100
AcDbSymbolTableRecord
100
AcDbRegAppTableRecord
  2
ACAD_DSTYLE_DIMTALN
 70
     0
  0
APPID
  5
62587
330
1C
100
AcDbSymbolTableRecord
100
AcDbRegAppTableRecord
  2
ACAD_DSTYLE_DIMTEXT_FILL
 70
     0
  0
APPID
  5
62588
330
1C
100
AcDbSymbolTableRecord
100
AcDbRegAppTableRecord
  2
ACAD_DSTYLE_DIMEXT_LENGTH
 70
     0
  0
APPID
  5
62589
330
1C
100
AcDbSymbolTableRecord
100
AcDbRegAppTableRecord
  2
ACAD_DSTYLE_DIMEXT_ENABLED
 70
     0
  0
APPID
  5
6258A
330
1C
100
AcDbSymbolTableRecord
100
AcDbRegAppTableRecord
  2
ACAD_DSTYLE_DIM_LINETYPE
 70
     0
  0
APPID
  5
6258B
330
1C
100
AcDbSymbolTableRecord
100
AcDbRegAppTableRecord
  2
ACAD_DSTYLE_DIM_EXT1_LINETYPE
 70
     0
  0
APPID
  5
6258C
330
1C
100
AcDbSymbolTableRecord
100
AcDbRegAppTableRecord
  2
ACAD_DSTYLE_DIM_EXT2_LINETYPE
 70
     0
  0
APPID
  5
62648
330
1C
100
AcDbSymbolTableRecord
100
AcDbRegAppTableRecord
  2
ACAD_DSTYLE_DIMJOGGED_JOGANGLE_SYMBOL
 70
     0
  0
APPID
  5
626DC
330
1C
100
AcDbSymbolTableRecord
100
AcDbRegAppTableRecord
  2
ACAD_DSTYLE_DIMARC_LENGTH_SYMBOL
 70
     0
  0
APPID
  5
62C0B
330
1C
100
AcDbSymbolTableRecord
100
AcDbRegAppTableRecord
  2
PSP
 70
     0
  0
APPID
  5
6062E81
330
1C
100
AcDbSymbolTableRecord
100
AcDbRegAppTableRecord
  2
AcadStringInfo
 70
     0
  0
APPID
  5
6062E8B
330
1C
100
AcDbSymbolTableRecord
100
AcDbRegAppTableRecord
  2
ACAD_NAV_VCDISPLAY
 70
     0
  0
ENDTAB
  0
TABLE
  2
DIMSTYLE
  5
1D
330
0
100
AcDbSymbolTable
 70
     2
100
AcDbDimStyleTable
 71
     1
340
18F2E
  0
DIMSTYLE
105
4564
330
1D
100
AcDbSymbolTableRecord
100
AcDbDimStyleTableRecord
  2
STANDARD
 70
     0
 41
15.0
 42
6.0
 44
5.0
140
15.0
271
     0
272
     0
340
12
  0
DIMSTYLE
105
18F2E
102
{ACAD_REACTORS
330
62266
330
622A2
330
622AE
330
622CA
330
622D7
330
62397
330
62568
330
62B74
330
62B81
102
}
330
1D
100
AcDbSymbolTableRecord
100
AcDbDimStyleTableRecord
  2
线性标注
 70
     0
 41
12.0
 42
0.0
 43
3.75
 44
8.0
 49
1.25
 50
90.0
 73
     0
 74
     0
 77
     1
 78
     8
140
30.0
141
2.5
143
0.03937007874016
147
0.625
171
     3
172
     1
271
     1
272
     1
274
     3
283
     0
284
     8
340
406
342
18F26
1001
ACAD_DSTYLE_DIMJAG
1070
   388
1040
1.5
1001
ACAD_DSTYLE_DIMTALN
1070
   392
1070
     0
1001
ACAD_DSTYLE_DIMJOGGED_JOGANGLE_SYMBOL
1070
   384
1040
1.570796326794896
1001
AcadStringInfo
1000
MIFCodePage
1070
     5
  0
ENDTAB
  0
TABLE
  2
BLOCK_RECORD
  5
1
330
0
100
AcDbSymbolTable
 70
    10
  0
BLOCK_RECORD
  5
2
102
{ACAD_XDICTIONARY
360
98C5
102
}
330
1
100
AcDbSymbolTableRecord
100
AcDbBlockTableRecord
  2
*Model_Space
340
A
 70
     0
280
     1
281
     0
  0
BLOCK_RECORD
  5
C
330
1
100
AcDbSymbolTableRecord
100
AcDbBlockTableRecord
  2
*Paper_Space
340
F
 70
     0
280
     1
281
     0
  0
BLOCK_RECORD
  5
18F26
330
1
100
AcDbSymbolTableRecord
100
AcDbBlockTableRecord
  2
_ClosedBlank
340
0
102
{BLKREFS
331
62E1F
331
62E20
331
62E29
331
62E2A
331
62E31
331
62E32
331
62E39
331
62E3A
331
62E40
331
62E46
331
62E47
331
62E4F
331
62E50
331
62E58
331
62E59
331
62E61
331
62E62
102
}
 70
     0
280
     1
281
     0
  0
BLOCK_RECORD
  5
62267
330
1
100
AcDbSymbolTableRecord
100
AcDbBlockTableRecord
  2
*D1
340
0
 70
     0
280
     1
281
     0
  0
BLOCK_RECORD
  5
622A3
330
1
100
AcDbSymbolTableRecord
100
AcDbBlockTableRecord
  2
*D2
340
0
 70
     0
280
     1
281
     0
  0
BLOCK_RECORD
  5
622AF
330
1
100
AcDbSymbolTableRecord
100
AcDbBlockTableRecord
  2
*D3
340
0
 70
     0
280
     1
281
     0
  0
BLOCK_RECORD
  5
622CB
330
1
100
AcDbSymbolTableRecord
100
AcDbBlockTableRecord
  2
*D4
340
0
 70
     0
280
     1
281
     0
  0
BLOCK_RECORD
  5
622D8
330
1
100
AcDbSymbolTableRecord
100
AcDbBlockTableRecord
  2
*D5
340
0
 70
     0
280
     1
281
     0
  0
BLOCK_RECORD
  5
62398
330
1
100
AcDbSymbolTableRecord
100
AcDbBlockTableRecord
  2
*D6
340
0
 70
     0
280
     1
281
     0
  0
BLOCK_RECORD
  5
62569
330
1
100
AcDbSymbolTableRecord
100
AcDbBlockTableRecord
  2
*D7
340
0
 70
     0
280
     1
281
     0
  0
BLOCK_RECORD
  5
62B75
330
1
100
AcDbSymbolTableRecord
100
AcDbBlockTableRecord
  2
*D8
340
0
 70
     0
280
     1
281
     0
  0
BLOCK_RECORD
  5
62B82
330
1
100
AcDbSymbolTableRecord
100
AcDbBlockTableRecord
  2
*D9
340
0
 70
     0
280
     1
281
     0
  0
ENDTAB
  0
ENDSEC
  0
SECTION
  2
BLOCKS
  0
BLOCK
  5
3
330
2
100
AcDbEntity
  8
0
100
AcDbBlockBegin
  2
*Model_Space
 70
     2
 10
0.0
 20
0.0
 30
0.0
  3
*Model_Space
  1

  0
ENDBLK
  5
9
330
2
100
AcDbEntity
  8
0
100
AcDbBlockEnd
  0
BLOCK
  5
D
330
C
100
AcDbEntity
 67
     1
  8
0
100
AcDbBlockBegin
  2
*Paper_Space
 70
     0
 10
0.0
 20
0.0
 30
0.0
  3
*Paper_Space
  1

  0
ENDBLK
  5
E
330
C
100
AcDbEntity
 67
     1
  8
0
100
AcDbBlockEnd
  0
BLOCK
  5
18F27
330
18F26
100
AcDbEntity
  8
0
 48
0.2
100
AcDbBlockBegin
  2
_ClosedBlank
 70
     0
 10
0.0
 20
0.0
 30
0.0
  3
_ClosedBlank
  1

  0
LINE
  5
18F28
330
18F26
100
AcDbEntity
  8
0
  6
ByBlock
 62
     0
370
    -2
100
AcDbLine
 10
-1.0
 20
0.1666666666666666
 30
0.0
 11
0.0
 21
0.0
 31
0.0
  0
LINE
  5
18F29
330
18F26
100
AcDbEntity
  8
0
  6
ByBlock
 62
     0
370
    -2
100
AcDbLine
 10
0.0
 20
0.0
 30
0.0
 11
-1.0
 21
-0.1666666666666666
 31
0.0
  0
LINE
  5
18F2A
330
18F26
100
AcDbEntity
  8
0
  6
ByBlock
 62
     0
370
    -2
100
AcDbLine
 10
-1.0
 20
0.1666666666666666
 30
0.0
 11
-1.0
 21
-0.1666666666666666
 31
0.0
  0
ENDBLK
  5
18F2B
330
18F26
100
AcDbEntity
  8
0
 48
0.2
100
AcDbBlockEnd
  0
BLOCK
  5
62268
330
62267
100
AcDbEntity
  8
0
100
AcDbBlockBegin
  2
*D1
 70
     1
 10
0.0
 20
0.0
 30
0.0
  3
*D1
  1

  0
LINE
  5
62E1A
330
62267
100
AcDbEntity
  8
标注
 62
     0
440
 16777216
370
    -2
100
AcDbLine
 10
7399.369260200164
 20
4317.215123807111
 30
0.0
 11
7399.369260200164
 21
4287.549682870211
 31
0.0
  0
LINE
  5
62E1B
330
62267
100
AcDbEntity
  8
标注
 62
     0
440
 16777216
370
    -2
100
AcDbLine
 10
7412.369260200165
 20
4317.215123807111
 30
0.0
 11
7412.369260200165
 21
4287.549682870211
 31
0.0
  0
LINE
  5
62E1C
330
62267
100
AcDbEntity
  8
标注
 62
     0
440
 16777216
370
    -2
100
AcDbLine
 10
7387.369260200165
 20
4295.549682870211
 30
0.0
 11
7375.369260200165
 21
4295.549682870211
 31
0.0
  0
LINE
  5
62E1D
330
62267
100
AcDbEntity
  8
标注
 62
     0
440
 16777216
370
    -2
100
AcDbLine
 10
7424.369260200164
 20
4295.549682870211
 30
0.0
 11
7480.476403057308
 21
4295.549682870211
 31
0.0
  0
LINE
  5
62E1E
330
62267
100
AcDbEntity
  8
标注
 62
     0
440
 16777216
370
    -2
100
AcDbLine
 10
7399.369260200164
 20
4295.549682870211
 30
0.0
 11
7412.369260200165
 21
4295.549682870211
 31
0.0
  0
INSERT
  5
62E1F
330
62267
100
AcDbEntity
  8
标注
 62
     0
440
 16777216
370
    -2
100
AcDbBlockReference
  2
_ClosedBlank
 10
7399.369260200164
 20
4295.549682870211
 30
0.0
 41
12.0
 42
12.0
 43
12.0
  0
INSERT
  5
62E20
330
62267
100
AcDbEntity
  8
标注
 62
     0
440
 16777216
370
    -2
100
AcDbBlockReference
  2
_ClosedBlank
 10
7412.369260200165
 20
4295.549682870211
 30
0.0
 41
12.0
 42
12.0
 43
12.0
 50
180.0
  0
MTEXT
  5
62E21
330
62267
100
AcDbEntity
  8
标注
 62
     0
440
 16777216
100
AcDbMText
 10
7458.422831628737
 20
4311.174682870211
 30
0.0
 40
30.0
 41
0.0
 46
0.0
 71
     5
 72
     1
  1
13
  7
样式 1
 73
     1
 44
1.0
  0
POINT
  5
62E22
330
62267
100
AcDbEntity
  8
Defpoints
 62
     0
440
 16777216
100
AcDbPoint
 10
7399.369260200164
 20
4317.215123807111
 30
0.0
  0
POINT
  5
62E23
330
62267
100
AcDbEntity
  8
Defpoints
 62
     0
440
 16777216
100
AcDbPoint
 10
7412.369260200165
 20
4317.215123807111
 30
0.0
  0
POINT
  5
62E24
330
62267
100
AcDbEntity
  8
Defpoints
 62
     0
440
 16777216
100
AcDbPoint
 10
7412.369260200165
 20
4295.549682870211
 30
0.0
  0
ENDBLK
  5
62269
330
62267
100
AcDbEntity
  8
0
100
AcDbBlockEnd
  0
BLOCK
  5
622A4
330
622A3
100
AcDbEntity
  8
0
100
AcDbBlockBegin
  2
*D2
 70
     1
 10
0.0
 20
0.0
 30
0.0
  3
*D2
  1

  0
LINE
  5
62E25
330
622A3
100
AcDbEntity
  8
标注
 62
     0
440
 16777216
370
    -2
100
AcDbLine
 10
7306.93828441699
 20
4195.358061770233
 30
0.0
 11
7334.231006343244
 21
4318.476374012758
 31
0.0
  0
LINE
  5
62E26
330
622A3
100
AcDbEntity
  8
标注
 62
     0
440
 16777216
370
    -2
100
AcDbLine
 10
7346.307514057089
 20
4372.953873601465
 30
0.0
 11
7348.904612490173
 21
4384.669464910865
 31
0.0
  0
MTEXT
  5
62E27
330
622A3
100
AcDbEntity
  8
标注
 62
     0
440
 16777216
100
AcDbMText
 10
7304.031419979461
 20
4254.441060821543
 30
0.0
 40
30.0
 41
0.0
 46
0.0
 71
     5
 72
     1
  1
∅31.8
  7
样式 1
 11
0.2164248694237254
 21
0.9762992757832627
 31
0.0
 73
     1
 44
1.0
  0
LINE
  5
62E28
330
622A3
100
AcDbEntity
  8
标注
 62
     0
440
 16777216
370
    -2
100
AcDbLine
 10
7343.710415624004
 20
4361.238282292066
 30
0.0
 11
7336.828104776329
 21
4330.191965322157
 31
0.0
  0
INSERT
  5
62E29
330
622A3
100
AcDbEntity
  8
标注
 62
     0
440
 16777216
370
    -2
100
AcDbBlockReference
  2
_ClosedBlank
 10
7343.710415624004
 20
4361.238282292066
 30
0.0
 41
12.0
 42
12.0
 43
12.0
 50
257.5008653082922
  0
INSERT
  5
62E2A
330
622A3
100
AcDbEntity
  8
标注
 62
     0
440
 16777216
370
    -2
100
AcDbBlockReference
  2
_ClosedBlank
 10
7336.828104776329
 20
4330.191965322157
 30
0.0
 41
12.0
 42
12.0
 43
12.0
 50
77.50086530829218
  0
POINT
  5
62E2B
330
622A3
100
AcDbEntity
  8
Defpoints
 62
     0
440
 16777216
100
AcDbPoint
 10
7336.828104776329
 20
4330.191965322157
 30
0.0
  0
POINT
  5
62E2C
330
622A3
100
AcDbEntity
  8
Defpoints
 62
     0
440
 16777216
100
AcDbPoint
 10
7343.710415624004
 20
4361.238282292066
 30
0.0
  0
ENDBLK
  5
622A5
330
622A3
100
AcDbEntity
  8
0
100
AcDbBlockEnd
  0
BLOCK
  5
622B0
330
622AF
100
AcDbEntity
  8
0
100
AcDbBlockBegin
  2
*D3
 70
     1
 10
0.0
 20
0.0
 30
0.0
  3
*D3
  1

  0
LINE
  5
62E2D
330
622AF
100
AcDbEntity
  8
标注
 62
     0
440
 16777216
370
    -2
100
AcDbLine
 10
7242.574321186237
 20
4468.862568879267
 30
0.0
 11
7323.613132096371
 21
4366.710680398685
 31
0.0
  0
LINE
  5
62E2E
330
622AF
100
AcDbEntity
  8
标注
 62
     0
440
 16777216
370
    -2
100
AcDbLine
 10
7356.925388303965
 20
4324.719567215544
 30
0.0
 11
7364.383356111637
 21
4315.318571726781
 31
0.0
  0
MTEXT
  5
62E2F
330
622AF
100
AcDbEntity
  8
标注
 62
     0
440
 16777216
100
AcDbMText
 10
7291.605622280129
 20
4432.198017966262
 30
0.0
 40
30.0
 41
0.0
 46
0.0
 71
     5
 72
     1
  1
∅29.6
  7
样式 1
 11
0.6214973173058701
 21
-0.7834162907302904
 31
0.0
 73
     1
 44
1.0
  0
LINE
  5
62E30
330
622AF
100
AcDbEntity
  8
标注
 62
     0
440
 16777216
370
    -2
100
AcDbLine
 10
7349.467420496295
 20
4334.120562704307
 30
0.0
 11
7331.071099904041
 21
4357.309684909922
 31
0.0
  0
INSERT
  5
62E31
330
622AF
100
AcDbEntity
  8
标注
 62
     0
440
 16777216
370
    -2
100
AcDbBlockReference
  2
_ClosedBlank
 10
7349.467420496295
 20
4334.120562704307
 30
0.0
 41
12.0
 42
12.0
 43
12.0
 50
128.4255591494539
  0
INSERT
  5
62E32
330
622AF
100
AcDbEntity
  8
标注
 62
     0
440
 16777216
370
    -2
100
AcDbBlockReference
  2
_ClosedBlank
 10
7331.071099904041
 20
4357.309684909922
 30
0.0
 41
12.0
 42
12.0
 43
12.0
 50
308.4255591494539
  0
POINT
  5
62E33
330
622AF
100
AcDbEntity
  8
Defpoints
 62
     0
440
 16777216
100
AcDbPoint
 10
7331.071099904041
 20
4357.309684909922
 30
0.0
  0
POINT
  5
62E34
330
622AF
100
AcDbEntity
  8
Defpoints
 62
     0
440
 16777216
100
AcDbPoint
 10
7349.467420496295
 20
4334.120562704307
 30
0.0
  0
ENDBLK
  5
622B1
330
622AF
100
AcDbEntity
  8
0
100
AcDbBlockEnd
  0
BLOCK
  5
622CC
330
622CB
100
AcDbEntity
  8
0
100
AcDbBlockBegin
  2
*D4
 70
     1
 10
0.0
 20
0.0
 30
0.0
  3
*D4
  1

  0
LINE
  5
62E35
330
622CB
100
AcDbEntity
  8
标注
 62
     0
440
 16777216
370
    -2
100
AcDbLine
 10
7771.327799478306
 20
4436.735543601536
 30
0.0
 11
7640.692945687989
 21
4365.172976505443
 31
0.0
  0
LINE
  5
62E36
330
622CB
100
AcDbEntity
  8
标注
 62
     0
440
 16777216
370
    -2
100
AcDbLine
 10
7569.653746132532
 20
4326.257271108779
 30
0.0
 11
7559.129420272466
 21
4320.491981420384
 31
0.0
  0
MTEXT
  5
62E37
330
622CB
100
AcDbEntity
  8
标注
 62
     0
440
 16777216
100
AcDbMText
 10
7708.264862748869
 20
4421.303266349962
 30
0.0
 40
30.0
 41
0.0
 46
0.0
 71
     5
 72
     1
  1
{\fGulim|b0|i0|c129|p34;2-∅57}
  7
样式 1
 11
0.8770271550056436
 21
0.4804408073662213
 31
0.0
 73
     1
 44
1.0
  0
LINE
  5
62E38
330
622CB
100
AcDbEntity
  8
标注
 62
     0
440
 16777216
370
    -2
100
AcDbLine
 10
7580.1780719926
 20
4332.022560797173
 30
0.0
 11
7630.168619827921
 21
4359.407686817049
 31
0.0
  0
INSERT
  5
62E39
330
622CB
100
AcDbEntity
  8
标注
 62
     0
440
 16777216
370
    -2
100
AcDbBlockReference
  2
_ClosedBlank
 10
7580.1780719926
 20
4332.022560797173
 30
0.0
 41
12.0
 42
12.0
 43
12.0
 50
28.71419579381303
  0
INSERT
  5
62E3A
330
622CB
100
AcDbEntity
  8
标注
 62
     0
440
 16777216
370
    -2
100
AcDbBlockReference
  2
_ClosedBlank
 10
7630.168619827921
 20
4359.407686817049
 30
0.0
 41
12.0
 42
12.0
 43
12.0
 50
208.714195793813
  0
POINT
  5
62E3B
330
622CB
100
AcDbEntity
  8
Defpoints
 62
     0
440
 16777216
100
AcDbPoint
 10
7630.168619827921
 20
4359.407686817049
 30
0.0
  0
POINT
  5
62E3C
330
622CB
100
AcDbEntity
  8
Defpoints
 62
     0
440
 16777216
100
AcDbPoint
 10
7580.1780719926
 20
4332.022560797173
 30
0.0
  0
ENDBLK
  5
622CD
330
622CB
100
AcDbEntity
  8
0
100
AcDbBlockEnd
  0
BLOCK
  5
622D9
330
622D8
100
AcDbEntity
  8
0
100
AcDbBlockBegin
  2
*D5
 70
     1
 10
0.0
 20
0.0
 30
0.0
  3
*D5
  1

  0
LINE
  5
62E3D
330
622D8
100
AcDbEntity
  8
标注
 62
     0
440
 16777216
370
    -2
100
AcDbLine
 10
7514.950194434141
 20
3682.118217878978
 30
0.0
 11
7610.778243626419
 21
3807.156157175467
 31
0.0
  0
MTEXT
  5
62E3E
330
622D8
100
AcDbEntity
  8
标注
 62
     0
440
 16777216
100
AcDbMText
 10
7546.812709008398
 20
3749.379513013462
 30
0.0
 40
30.0
 41
0.0
 46
0.0
 71
     5
 72
     1
  1
2-R55
  7
样式 1
 11
0.6082941231883377
 21
0.7937116980960603
 31
0.0
 73
     1
 44
1.0
  0
LINE
  5
62E3F
330
622D8
100
AcDbEntity
  8
标注
 62
     0
440
 16777216
370
    -2
100
AcDbLine
 10
7651.533949880037
 20
3860.334840947904
 30
0.0
 11
7618.077773104679
 21
3816.680697552619
 31
0.0
  0
INSERT
  5
62E40
330
622D8
100
AcDbEntity
  8
标注
 62
     0
440
 16777216
370
    -2
100
AcDbBlockReference
  2
_ClosedBlank
 10
7618.077773104679
 20
3816.680697552619
 30
0.0
 41
12.0
 42
12.0
 43
12.0
 50
52.53374108789301
  0
POINT
  5
62E41
330
622D8
100
AcDbEntity
  8
Defpoints
 62
     0
440
 16777216
100
AcDbPoint
 10
7618.077773104679
 20
3816.680697552619
 30
0.0
  0
POINT
  5
62E42
330
622D8
100
AcDbEntity
  8
Defpoints
 62
     0
440
 16777216
100
AcDbPoint
 10
7651.533949880037
 20
3860.334840947904
 30
0.0
  0
ENDBLK
  5
622DA
330
622D8
100
AcDbEntity
  8
0
100
AcDbBlockEnd
  0
BLOCK
  5
62399
330
62398
100
AcDbEntity
  8
0
100
AcDbBlockBegin
  2
*D6
 70
     1
 10
0.0
 20
0.0
 30
0.0
  3
*D6
  1

  0
LINE
  5
62E43
330
62398
100
AcDbEntity
  8
标注
 62
     0
440
 16777216
370
    -2
100
AcDbLine
 10
7596.533949880036
 20
3880.69283164253
 30
0.0
 11
7596.533949880036
 21
3922.832137385086
 31
0.0
  0
LINE
  5
62E44
330
62398
100
AcDbEntity
  8
标注
 62
     0
440
 16777216
370
    -2
100
AcDbLine
 10
8196.533949880038
 20
3877.434840947904
 30
0.0
 11
8196.533949880038
 21
3922.832137385086
 31
0.0
  0
LINE
  5
62E45
330
62398
100
AcDbEntity
  8
标注
 62
     0
440
 16777216
370
    -2
100
AcDbLine
 10
7608.533949880037
 20
3914.832137385086
 30
0.0
 11
8184.533949880037
 21
3914.832137385086
 31
0.0
  0
INSERT
  5
62E46
330
62398
100
AcDbEntity
  8
标注
 62
     0
440
 16777216
370
    -2
100
AcDbBlockReference
  2
_ClosedBlank
 10
7596.533949880036
 20
3914.832137385086
 30
0.0
 41
12.0
 42
12.0
 43
12.0
 50
180.0
  0
INSERT
  5
62E47
330
62398
100
AcDbEntity
  8
标注
 62
     0
440
 16777216
370
    -2
100
AcDbBlockReference
  2
_ClosedBlank
 10
8196.533949880038
 20
3914.832137385086
 30
0.0
 41
12.0
 42
12.0
 43
12.0
  0
MTEXT
  5
62E48
330
62398
100
AcDbEntity
  8
标注
 62
     0
440
 16777216
100
AcDbMText
 10
7896.533949880037
 20
3930.457137385086
 30
0.0
 40
30.0
 41
0.0
 46
0.0
 71
     5
 72
     1
  1
300
  7
样式 1
 73
     1
 44
1.0
  0
POINT
  5
62E49
330
62398
100
AcDbEntity
  8
Defpoints
 62
     0
440
 16777216
100
AcDbPoint
 10
7596.533949880036
 20
3880.69283164253
 30
0.0
  0
POINT
  5
62E4A
330
62398
100
AcDbEntity
  8
Defpoints
 62
     0
440
 16777216
100
AcDbPoint
 10
8196.533949880038
 20
3877.434840947904
 30
0.0
  0
POINT
  5
62E4B
330
62398
100
AcDbEntity
  8
Defpoints
 62
     0
440
 16777216
100
AcDbPoint
 10
8196.533949880038
 20
3914.832137385086
 30
0.0
  0
ENDBLK
  5
6239A
330
62398
100
AcDbEntity
  8
0
100
AcDbBlockEnd
  0
BLOCK
  5
62573
330
62569
100
AcDbEntity
  8
0
100
AcDbBlockBegin
  2
*D7
 70
     1
 10
0.0
 20
0.0
 30
0.0
  3
*D7
  1

  0
LINE
  5
62E4C
330
62569
100
AcDbEntity
  8
标注
 62
     0
440
 16777216
370
    -2
100
AcDbLine
 10
8713.176956870068
 20
3766.969960309173
 30
0.0
 11
8746.181726880056
 21
3774.875692889008
 31
0.0
  0
LINE
  5
62E4D
330
62569
100
AcDbEntity
  8
标注
 62
     0
440
 16777216
370
    -2
100
AcDbLine
 10
8958.195809827884
 20
3645.165384266781
 30
0.0
 11
8991.200579837874
 21
3653.071116846616
 31
0.0
  0
LINE
  5
62E4E
330
62569
100
AcDbEntity
  8
标注
 62
     0
440
 16777216
370
    -2
100
AcDbLine
 10
8744.799412231154
 20
3766.628870122686
 30
0.0
 11
8968.327340239467
 21
3655.507933198808
 31
0.0
  0
INSERT
  5
62E4F
330
62569
100
AcDbEntity
  8
标注
 62
     0
440
 16777216
370
    -2
100
AcDbBlockReference
  2
_ClosedBlank
 10
8734.053949756402
 20
3771.970689681944
 30
0.0
 41
12.0
 42
12.0
 43
12.0
 50
153.5669595875577
  0
INSERT
  5
62E50
330
62569
100
AcDbEntity
  8
标注
 62
     0
440
 16777216
370
    -2
100
AcDbBlockReference
  2
_ClosedBlank
 10
8979.072802714219
 20
3650.166113639551
 30
0.0
 41
12.0
 42
12.0
 43
12.0
 50
333.5669595875577
  0
MTEXT
  5
62E51
330
62569
100
AcDbEntity
  8
标注
 62
     0
440
 16777216
100
AcDbMText
 10
8835.105291067669
 20
3739.184941061685
 30
0.0
 40
30.0
 41
0.0
 46
0.0
 71
     5
 72
     1
  1
300
  7
样式 1
 11
0.8954552062294693
 21
-0.4451516299380906
 31
0.0
 73
     1
 44
1.0
  0
POINT
  5
62E52
330
62569
100
AcDbEntity
  8
Defpoints
 62
     0
440
 16777216
100
AcDbPoint
 10
8713.176956870068
 20
3766.969960309173
 30
0.0
  0
POINT
  5
62E53
330
62569
100
AcDbEntity
  8
Defpoints
 62
     0
440
 16777216
100
AcDbPoint
 10
8958.195809827884
 20
3645.165384266781
 30
0.0
  0
POINT
  5
62E54
330
62569
100
AcDbEntity
  8
Defpoints
 62
     0
440
 16777216
100
AcDbPoint
 10
8979.072802714219
 20
3650.166113639551
 30
0.0
  0
ENDBLK
  5
62574
330
62569
100
AcDbEntity
  8
0
100
AcDbBlockEnd
  0
BLOCK
  5
62B7F
330
62B75
100
AcDbEntity
  8
0
100
AcDbBlockBegin
  2
*D8
 70
     1
 10
0.0
 20
0.0
 30
0.0
  3
*D8
  1

  0
LINE
  5
62E55
330
62B75
100
AcDbEntity
  8
标注
 62
     0
440
 16777216
370
    -2
100
AcDbLine
 10
7651.533949880036
 20
3805.334840947903
 30
0.0
 11
7416.432072242844
 21
3805.334840947903
 31
0.0
  0
LINE
  5
62E56
330
62B75
100
AcDbEntity
  8
标注
 62
     0
440
 16777216
370
    -2
100
AcDbLine
 10
7596.533949880036
 20
3877.434840947904
 30
0.0
 11
7416.432072242844
 21
3877.434840947904
 31
0.0
  0
LINE
  5
62E57
330
62B75
100
AcDbEntity
  8
标注
 62
     0
440
 16777216
370
    -2
100
AcDbLine
 10
7424.432072242845
 20
3817.334840947904
 30
0.0
 11
7424.432072242845
 21
3865.434840947904
 31
0.0
  0
INSERT
  5
62E58
330
62B75
100
AcDbEntity
  8
标注
 62
     0
440
 16777216
370
    -2
100
AcDbBlockReference
  2
_ClosedBlank
 10
7424.432072242845
 20
3805.334840947903
 30
0.0
 41
12.0
 42
12.0
 43
12.0
 50
270.0
  0
INSERT
  5
62E59
330
62B75
100
AcDbEntity
  8
标注
 62
     0
440
 16777216
370
    -2
100
AcDbBlockReference
  2
_ClosedBlank
 10
7424.432072242845
 20
3877.434840947904
 30
0.0
 41
12.0
 42
12.0
 43
12.0
 50
90.0
  0
MTEXT
  5
62E5A
330
62B75
100
AcDbEntity
  8
标注
 62
     0
440
 16777216
100
AcDbMText
 10
7408.807072242844
 20
3841.384840947905
 30
0.0
 40
30.0
 41
0.0
 46
0.0
 71
     5
 72
     1
  1
88
  7
样式 1
 11
0.0000000000000001
 21
1.0
 31
0.0
 73
     1
 44
1.0
  0
POINT
  5
62E5B
330
62B75
100
AcDbEntity
  8
Defpoints
 62
     0
440
 16777216
100
AcDbPoint
 10
7651.533949880036
 20
3805.334840947903
 30
0.0
  0
POINT
  5
62E5C
330
62B75
100
AcDbEntity
  8
Defpoints
 62
     0
440
 16777216
100
AcDbPoint
 10
7596.533949880036
 20
3877.434840947904
 30
0.0
  0
POINT
  5
62E5D
330
62B75
100
AcDbEntity
  8
Defpoints
 62
     0
440
 16777216
100
AcDbPoint
 10
7424.432072242845
 20
3877.434840947904
 30
0.0
  0
ENDBLK
  5
62B80
330
62B75
100
AcDbEntity
  8
0
100
AcDbBlockEnd
  0
BLOCK
  5
62B8D
330
62B82
100
AcDbEntity
  8
0
100
AcDbBlockBegin
  2
*D9
 70
     1
 10
0.0
 20
0.0
 30
0.0
  3
*D9
  1

  0
LINE
  5
62E5E
330
62B82
100
AcDbEntity
  8
标注
 62
     0
440
 16777216
370
    -2
100
AcDbLine
 10
8947.269218096673
 20
3642.295876999206
 30
0.0
 11
9021.53805577398
 21
3607.066952078884
 31
0.0
  0
LINE
  5
62E5F
330
62B82
100
AcDbEntity
  8
标注
 62
     0
440
 16777216
370
    -2
100
AcDbLine
 10
8898.711508320053
 20
3633.020915324109
 30
0.0
 11
8972.980345997362
 21
3597.791990403786
 31
0.0
  0
LINE
  5
62E60
330
62B82
100
AcDbEntity
  8
标注
 62
     0
440
 16777216
370
    -2
100
AcDbLine
 10
8997.510070038082
 20
3610.622019963246
 30
0.0
 11
8972.526173866894
 21
3605.849869864974
 31
0.0
  0
INSERT
  5
62E61
330
62B82
100
AcDbEntity
  8
标注
 62
     0
440
 16777216
370
    -2
100
AcDbBlockReference
  2
_ClosedBlank
 10
9009.296976840799
 20
3612.873425751659
 30
0.0
 41
12.0
 42
12.0
 43
12.0
 50
10.81375628985515
  0
INSERT
  5
62E62
330
62B82
100
AcDbEntity
  8
标注
 62
     0
440
 16777216
370
    -2
100
AcDbBlockReference
  2
_ClosedBlank
 10
8960.739267064179
 20
3603.598464076561
 30
0.0
 41
12.0
 42
12.0
 43
12.0
 50
190.8137562898551
  0
MTEXT
  5
62E63
330
62B82
100
AcDbEntity
  8
标注
 62
     0
440
 16777216
100
AcDbMText
 10
8982.086603998824
 20
3623.583479813478
 30
0.0
 40
30.0
 41
0.0
 46
0.0
 71
     5
 72
     1
  1
88
  7
样式 1
 11
0.9822422335596282
 21
0.1876171490343899
 31
0.0
 73
     1
 44
1.0
  0
POINT
  5
62E64
330
62B82
100
AcDbEntity
  8
Defpoints
 62
     0
440
 16777216
100
AcDbPoint
 10
8947.269218096673
 20
3642.295876999206
 30
0.0
  0
POINT
  5
62E65
330
62B82
100
AcDbEntity
  8
Defpoints
 62
     0
440
 16777216
100
AcDbPoint
 10
8898.711508320053
 20
3633.020915324109
 30
0.0
  0
POINT
  5
62E66
330
62B82
100
AcDbEntity
  8
Defpoints
 62
     0
440
 16777216
100
AcDbPoint
 10
8960.739267064179
 20
3603.598464076561
 30
0.0
  0
ENDBLK
  5
62B8E
330
62B82
100
AcDbEntity
  8
0
100
AcDbBlockEnd
  0
ENDSEC
  0
SECTION
  2
ENTITIES
  0
HATCH
  5
47A0
330
2
100
AcDbEntity
  8
标注
100
AcDbHatch
 10
0.0
 20
0.0
 30
0.0
210
0.0
220
0.0
230
1.0
  2
ANSI31
 70
     0
 71
     0
 91
        1
 92
        7
 72
     0
 73
     1
 93
        6
 10
808.9637528631646
 20
341.4077636669027
 10
807.9637528631646
 20
340.4077636669027
 10
807.9637528631646
 20
340.3827697704183
 10
808.9637528631646
 20
340.3827697704183
 10
817.9637528631646
 20
340.3827697704183
 10
817.9637528631646
 20
341.4077636669027
 97
        0
 75
     0
 76
     1
 52
0.0
 41
1.0
 77
     0
 78
     1
 53
45.0
 43
0.0
 44
0.0
 45
-57.02462636878911
 46
57.02462636878912
 79
     0
 47
0.0
 98
        2
 10
811.6304195298312
 20
290.00483008513
 10
814.540916511757
 20
290.1885128832553
  0
HATCH
  5
47AF
330
2
100
AcDbEntity
  8
标注
100
AcDbHatch
 10
0.0
 20
0.0
 30
0.0
210
0.0
220
0.0
230
1.0
  2
ANSI31
 70
     0
 71
     0
 91
        1
 92
        7
 72
     0
 73
     1
 93
        6
 10
807.9637528631646
 20
340.4077636669027
 10
807.9637528631646
 20
340.3827697704183
 10
808.9637528631646
 20
340.3827697704183
 10
817.9637528631646
 20
340.3827697704183
 10
817.9637528631646
 20
341.4077636669027
 10
808.9637528631646
 20
341.4077636669027
 97
        0
 75
     0
 76
     1
 52
0.0
 41
1.0
 77
     0
 78
     1
 53
45.0
 43
0.0
 44
0.0
 45
-57.02462636878911
 46
57.02462636878912
 79
     0
 47
0.0
 98
        2
 10
811.6304195298312
 20
290.00483008513
 10
815.1155934479202
 20
290.0208102015142
  0
HATCH
  5
47C4
330
2
100
AcDbEntity
  8
标注
100
AcDbHatch
 10
0.0
 20
0.0
 30
0.0
210
0.0
220
0.0
230
1.0
  2
ANSI31
 70
     0
 71
     0
 91
        1
 92
        7
 72
     0
 73
     1
 93
        6
 10
807.9637528631646
 20
340.4077636669027
 10
807.9637528631646
 20
340.3827697704183
 10
808.9637528631646
 20
340.3827697704183
 10
817.9637528631646
 20
340.3827697704183
 10
817.9637528631646
 20
341.4077636669027
 10
808.9637528631646
 20
341.4077636669027
 97
        0
 75
     0
 76
     1
 52
0.0
 41
1.0
 77
     0
 78
     1
 53
45.0
 43
0.0
 44
0.0
 45
-57.02462636878911
 46
57.02462636878912
 79
     0
 47
0.0
 98
        2
 10
811.6304195298312
 20
290.00483008513
 10
811.6304195298312
 20
290.00483008513
  0
HATCH
  5
7FDE
330
2
100
AcDbEntity
  8
剖面线
100
AcDbHatch
 10
0.0
 20
0.0
 30
0.0
210
0.0
220
0.0
230
1.0
  2
ANSI31
 70
     0
 71
     1
 91
        0
 75
     0
 76
     1
 52
0.0
 41
0.25
 77
     0
 78
     1
 53
45.0
 43
0.0
 44
0.0
 45
-0.5612660075668221
 46
0.5612660075668221
 79
     0
 98
        1
 10
267.1978866720704
 20
1009.396111914461
  0
HATCH
  5
807B
330
2
100
AcDbEntity
  8
剖面线
100
AcDbHatch
 10
0.0
 20
0.0
 30
0.0
210
0.0
220
0.0
230
1.0
  2
ANSI31
 70
     0
 71
     1
 91
        0
 75
     0
 76
     1
 52
0.0
 41
0.25
 77
     0
 78
     1
 53
45.0
 43
0.0
 44
0.0
 45
-0.5612660075668221
 46
0.5612660075668221
 79
     0
 98
        1
 10
260.9063311437414
 20
1015.611866868925
  0
HATCH
  5
80BB
330
2
100
AcDbEntity
  8
0
100
AcDbHatch
 10
0.0
 20
0.0
 30
0.0
210
0.0
220
0.0
230
1.0
  2
ANSI31
 70
     0
 71
     1
 91
        0
 75
     0
 76
     1
 52
0.0
 41
0.25
 77
     0
 78
     1
 53
45.0
 43
0.0
 44
0.0
 45
-0.5612660075668221
 46
0.5612660075668221
 79
     0
 98
        1
 10
0.0
 20
0.0
  0
HATCH
  5
8127
330
2
100
AcDbEntity
  8
0
100
AcDbHatch
 10
0.0
 20
0.0
 30
0.0
210
0.0
220
0.0
230
1.0
  2
ANSI31
 70
     0
 71
     1
 91
        0
 75
     0
 76
     1
 52
0.0
 41
0.25
 77
     0
 78
     1
 53
45.0
 43
0.0
 44
0.0
 45
-0.5612660075668221
 46
0.5612660075668221
 79
     0
 98
        1
 10
0.0
 20
0.0
  0
HATCH
  5
8151
330
2
100
AcDbEntity
  8
0
100
AcDbHatch
 10
0.0
 20
0.0
 30
0.0
210
0.0
220
0.0
230
1.0
  2
ANSI31
 70
     0
 71
     1
 91
        0
 75
     0
 76
     1
 52
0.0
 41
0.25
 77
     0
 78
     1
 53
45.0
 43
0.0
 44
0.0
 45
-0.5612660075668221
 46
0.5612660075668221
 79
     0
 98
        1
 10
0.0
 20
0.0
  0
HATCH
  5
8184
330
2
100
AcDbEntity
  8
剖面线
100
AcDbHatch
 10
0.0
 20
0.0
 30
0.0
210
0.0
220
0.0
230
1.0
  2
ANSI31
 70
     0
 71
     0
 91
        0
 75
     0
 76
     1
 52
0.0
 41
0.25
 77
     0
 78
     1
 53
45.00000000000436
 43
1662.819978524104
 44
0.3206117319112991
 45
-0.5612660075669284
 46
0.5612660075668221
 79
     0
 98
        2
 10
2060.042234542995
 20
923.3992186555811
 10
2042.482776698473
 20
923.3050660666023
  0
HATCH
  5
81A8
330
2
100
AcDbEntity
  8
0
100
AcDbHatch
 10
0.0
 20
0.0
 30
0.0
210
0.0
220
0.0
230
1.0
  2
ANSI31
 70
     0
 71
     1
 91
        0
 75
     0
 76
     1
 52
0.0
 41
0.1
 77
     0
 78
     1
 53
45.0
 43
0.0
 44
0.0
 45
-0.2245064030267288
 46
0.2245064030267288
 79
     0
 98
        1
 10
0.0
 20
0.0
  0
HATCH
  5
81BF
330
2
100
AcDbEntity
  8
0
100
AcDbHatch
 10
0.0
 20
0.0
 30
0.0
210
0.0
220
0.0
230
1.0
  2
ANSI31
 70
     0
 71
     1
 91
        0
 75
     0
 76
     1
 52
0.0
 41
0.1
 77
     0
 78
     1
 53
45.0
 43
0.0
 44
0.0
 45
-0.2245064030267288
 46
0.2245064030267288
 79
     0
 98
        1
 10
0.0
 20
0.0
  0
HATCH
  5
81C7
330
2
100
AcDbEntity
  8
0
100
AcDbHatch
 10
0.0
 20
0.0
 30
0.0
210
0.0
220
0.0
230
1.0
  2
ANSI31
 70
     0
 71
     1
 91
        0
 75
     0
 76
     1
 52
0.0
 41
0.25
 77
     0
 78
     1
 53
45.0
 43
0.0
 44
0.0
 45
-0.5612660075668221
 46
0.5612660075668221
 79
     0
 98
        1
 10
0.0
 20
0.0
  0
HATCH
  5
8D7A
330
2
100
AcDbEntity
  8
标注
100
AcDbHatch
 10
0.0
 20
0.0
 30
0.0
210
0.0
220
0.0
230
1.0
  2
ANSI31
 70
     0
 71
     0
 91
        1
 92
       10
 72
     0
 73
     1
 93
        4
 10
2048.785847868912
 20
971.5216843808956
 10
2048.785847868912
 20
966.6558651718558
 10
2053.651667077952
 20
966.6558651718558
 10
2053.651667077952
 20
971.5216843808956
 97
        0
 75
     0
 76
     1
 52
0.0
 41
0.25
 77
     0
 78
     1
 53
45.0
 43
0.0
 44
0.0
 45
-0.5612660075668221
 46
0.5612660075668221
 79
     0
 98
        1
 10
0.0
 20
0.0
  0
HATCH
  5
8ED7
330
2
100
AcDbEntity
  8
标注
100
AcDbHatch
 10
0.0
 20
0.0
 30
0.0
210
0.0
220
0.0
230
1.0
  2
ANSI31
 70
     0
 71
     1
 91
        0
 75
     0
 76
     1
 52
0.0
 41
0.25
 77
     0
 78
     1
 53
45.0
 43
0.0
 44
0.0
 45
-0.5612660075668221
 46
0.5612660075668221
 79
     0
 98
        1
 10
0.0
 20
0.0
  0
MTEXT
  5
47027
330
2
100
AcDbEntity
  8
标注
100
AcDbMText
 10
851.2901663856801
 20
335.199601009439
 30
0.0
 40
6.0
 41
13.70396488517739
 46
0.0
 71
     1
 72
     1
  1

 73
     1
 44
1.0
  0
ARC
  5
62216
330
2
100
AcDbEntity
  8
0
100
AcDbCircle
 10
8205.173345910258
 20
4345.715123807111
 30
0.0
 40
15.9
100
AcDbArc
 50
270.0
 51
90.0
  0
ARC
  5
62219
330
2
100
AcDbEntity
  8
0
100
AcDbCircle
 10
7605.173345910261
 20
4345.715123807111
 30
0.0
 40
28.5
100
AcDbArc
 50
33.91032944275781
 51
326.0896705572415
  0
ARC
  5
6221A
330
2
100
AcDbEntity
  8
0
100
AcDbCircle
 10
8205.173345910258
 20
4345.715123807111
 30
0.0
 40
28.5
100
AcDbArc
 50
213.9103294427526
 51
146.0896705572467
  0
ARC
  5
6221C
330
2
100
AcDbEntity
  8
0
100
AcDbCircle
 10
7605.173345910261
 20
4345.715123807111
 30
0.0
 40
15.9
100
AcDbArc
 50
90.0
 51
270.0
  0
LINE
  5
6221E
330
2
100
AcDbEntity
  8
0
100
AcDbLine
 10
7399.369260200164
 20
4374.21512380711
 30
0.0
 11
7399.369260200164
 21
4317.215123807111
 31
0.0
  0
LINE
  5
6221F
330
2
100
AcDbEntity
  8
0
100
AcDbLine
 10
7412.369260200164
 20
4374.21512380711
 30
0.0
 11
7412.369260200165
 21
4317.215123807111
 31
0.0
  0
LINE
  5
62220
330
2
100
AcDbEntity
  8
0
100
AcDbLine
 10
7412.369260200165
 20
4317.215123807111
 30
0.0
 11
7399.369260200164
 21
4317.215123807111
 31
0.0
  0
LINE
  5
62224
330
2
100
AcDbEntity
  8
0
100
AcDbLine
 10
7399.369260200164
 20
4374.21512380711
 30
0.0
 11
7412.369260200164
 21
4374.21512380711
 31
0.0
  0
LINE
  5
62226
330
2
100
AcDbEntity
  8
0
100
AcDbLine
 10
7399.369260200164
 20
4361.61512380711
 30
0.0
 11
7340.26926020017
 21
4361.615123807116
 31
0.0
  0
LINE
  5
62227
330
2
100
AcDbEntity
  8
0
100
AcDbLine
 10
7399.369260200164
 20
4329.815123807113
 30
0.0
 11
7340.26926020017
 21
4329.815123807105
 31
0.0
  0
CIRCLE
  5
6222A
330
2
100
AcDbEntity
  8
0
100
AcDbCircle
 10
7340.269260200168
 20
4345.715123807114
 30
0.0
 40
15.9
  0
CIRCLE
  5
6222C
330
2
100
AcDbEntity
  8
0
100
AcDbCircle
 10
7340.269260200168
 20
4345.715123807114
 30
0.0
 40
14.8
  0
LINE
  5
6222D
330
2
100
AcDbEntity
  8
中心线
100
AcDbLine
 10
7605.173345910261
 20
4386.219858135433
 30
0.0
 11
7605.173345910261
 21
4309.798985537979
 31
0.0
  0
LINE
  5
6222E
330
2
100
AcDbEntity
  8
中心线
100
AcDbLine
 10
8205.173345910258
 20
4383.427632378126
 30
0.0
 11
8205.173345910258
 21
4309.017651061903
 31
0.0
  0
LINE
  5
62235
330
2
100
AcDbEntity
  8
中心线
100
AcDbLine
 10
7596.533949880036
 20
3880.69283164253
 30
0.0
 11
7596.533949880036
 21
3860.334840947904
 31
0.0
  0
LINE
  5
62236
330
2
100
AcDbEntity
  8
中心线
100
AcDbLine
 10
7651.533949880036
 20
3805.334840947903
 30
0.0
 11
8141.533949880036
 21
3805.334840947903
 31
0.0
  0
LINE
  5
62237
330
2
100
AcDbEntity
  8
中心线
100
AcDbLine
 10
8196.533949880038
 20
3860.334840947903
 30
0.0
 11
8196.533949880038
 21
3877.434840947905
 31
0.0
  0
ARC
  5
6223B
330
2
100
AcDbEntity
  8
中心线
100
AcDbCircle
 10
7651.533949880036
 20
3860.334840947904
 30
0.0
 40
55.0
100
AcDbArc
 50
180.0
 51
270.0
  0
ARC
  5
6223C
330
2
100
AcDbEntity
  8
中心线
100
AcDbCircle
 10
8141.533949880036
 20
3860.334840947903
 30
0.0
 40
55.0
100
AcDbArc
 50
270.0
 51
0.0
  0
ARC
  5
6223E
330
2
100
AcDbEntity
  8
0
100
AcDbCircle
 10
7651.533949880036
 20
3860.334840947904
 30
0.0
 40
39.1
100
AcDbArc
 50
180.0
 51
270.0
  0
ARC
  5
62241
330
2
100
AcDbEntity
  8
0
100
AcDbCircle
 10
7651.533949880036
 20
3860.334840947904
 30
0.0
 40
70.9
100
AcDbArc
 50
180.0
 51
270.0
  0
ARC
  5
62243
330
2
100
AcDbEntity
  8
0
100
AcDbCircle
 10
8141.533949880036
 20
3860.334840947903
 30
0.0
 40
39.1
100
AcDbArc
 50
270.0
 51
0.0
  0
ARC
  5
62244
330
2
100
AcDbEntity
  8
0
100
AcDbCircle
 10
8141.533949880036
 20
3860.334840947903
 30
0.0
 40
70.9
100
AcDbArc
 50
270.0
 51
0.0
  0
LINE
  5
62245
330
2
100
AcDbEntity
  8
0
100
AcDbLine
 10
8180.633949880036
 20
3860.334840947903
 30
0.0
 11
8180.633949880038
 21
3864.434840947904
 31
0.0
  0
LINE
  5
62246
330
2
100
AcDbEntity
  8
0
100
AcDbLine
 10
8212.433949880034
 20
3860.334840947903
 30
0.0
 11
8212.433949880034
 21
3864.434840947904
 31
0.0
  0
LINE
  5
6224C
330
2
100
AcDbEntity
  8
0
100
AcDbLine
 10
7596.533949880036
 20
3877.434840947904
 30
0.0
 11
7564.209513117022
 21
3877.434840947904
 31
0.0
  0
LINE
  5
6224D
330
2
100
AcDbEntity
  8
0
100
AcDbLine
 10
7596.533949880036
 20
3864.434840947904
 30
0.0
 11
7564.209513117022
 21
3864.434840947904
 31
0.0
  0
LINE
  5
6224E
330
2
100
AcDbEntity
  8
0
100
AcDbLine
 10
7564.209513117022
 20
3877.434840947904
 30
0.0
 11
7564.209513117022
 21
3864.434840947904
 31
0.0
  0
LINE
  5
6224F
330
2
100
AcDbEntity
  8
0
100
AcDbLine
 10
7596.533949880036
 20
3877.434840947904
 30
0.0
 11
7628.85838664305
 21
3877.434840947904
 31
0.0
  0
LINE
  5
62250
330
2
100
AcDbEntity
  8
0
100
AcDbLine
 10
7596.533949880036
 20
3864.434840947904
 30
0.0
 11
7628.85838664305
 21
3864.434840947904
 31
0.0
  0
LINE
  5
62251
330
2
100
AcDbEntity
  8
0
100
AcDbLine
 10
7628.85838664305
 20
3877.434840947904
 30
0.0
 11
7628.85838664305
 21
3864.434840947904
 31
0.0
  0
LINE
  5
62252
330
2
100
AcDbEntity
  8
0
100
AcDbLine
 10
7580.633949880037
 20
3864.434840947904
 30
0.0
 11
7580.633949880037
 21
3860.334840947904
 31
0.0
  0
LINE
  5
62253
330
2
100
AcDbEntity
  8
0
100
AcDbLine
 10
7612.433949880035
 20
3864.434840947904
 30
0.0
 11
7612.433949880035
 21
3860.334840947904
 31
0.0
  0
LINE
  5
62254
330
2
100
AcDbEntity
  8
0
100
AcDbLine
 10
8196.533949880038
 20
3877.434840947904
 30
0.0
 11
8164.209513117022
 21
3877.434840947904
 31
0.0
  0
LINE
  5
62255
330
2
100
AcDbEntity
  8
0
100
AcDbLine
 10
8196.533949880038
 20
3864.434840947904
 30
0.0
 11
8164.209513117022
 21
3864.434840947904
 31
0.0
  0
LINE
  5
62256
330
2
100
AcDbEntity
  8
0
100
AcDbLine
 10
8164.209513117022
 20
3877.434840947904
 30
0.0
 11
8164.209513117022
 21
3864.434840947904
 31
0.0
  0
LINE
  5
62257
330
2
100
AcDbEntity
  8
0
100
AcDbLine
 10
8196.533949880038
 20
3877.434840947904
 30
0.0
 11
8228.858386643052
 21
3877.434840947904
 31
0.0
  0
LINE
  5
62258
330
2
100
AcDbEntity
  8
0
100
AcDbLine
 10
8196.533949880038
 20
3864.434840947904
 30
0.0
 11
8228.858386643052
 21
3864.434840947904
 31
0.0
  0
LINE
  5
62259
330
2
100
AcDbEntity
  8
0
100
AcDbLine
 10
8228.858386643052
 20
3877.434840947904
 30
0.0
 11
8228.858386643052
 21
3864.434840947904
 31
0.0
  0
DIMENSION
  5
62266
330
2
100
AcDbEntity
  8
标注
100
AcDbDimension
280
     0
  2
*D1
 10
7412.369260200165
 20
4295.549682870211
 30
0.0
 11
7458.422831628737
 21
4311.174682870211
 31
0.0
 70
    32
 71
     5
 42
13.0
 73
     0
 74
     0
 75
     0
  3
线性标注
100
AcDbAlignedDimension
 13
7399.369260200164
 23
4317.215123807111
 33
0.0
 14
7412.369260200165
 24
4317.215123807111
 34
0.0
100
AcDbRotatedDimension
  0
DIMENSION
  5
622A2
330
2
100
AcDbEntity
  8
标注
100
AcDbDimension
280
     0
  2
*D2
 10
7343.710415624004
 20
4361.238282292066
 30
0.0
 11
7304.031419979461
 21
4254.441060821543
 31
0.0
 70
    35
 71
     5
 42
31.80000000000018
 73
     0
 74
     0
 75
     0
  3
线性标注
100
AcDbDiametricDimension
 15
7336.828104776329
 25
4330.191965322157
 35
0.0
 40
0.0
1001
ACAD
1000
DSTYLE
1002
{
1070
   288
1070
     1
1002
}
1001
ACAD_DSTYLE_DIMRADIAL_EXTENSION
1070
   387
1070
     1
1070
   388
1040
0.0
1070
   390
1040
0.0
  0
DIMENSION
  5
622AE
330
2
100
AcDbEntity
  8
标注
100
AcDbDimension
280
     0
  2
*D3
 10
7349.467420496295
 20
4334.120562704307
 30
0.0
 11
7291.605622280129
 21
4432.198017966262
 31
0.0
 70
    35
 71
     5
 42
29.59999999999946
 73
     0
 74
     0
 75
     0
  3
线性标注
100
AcDbDiametricDimension
 15
7331.071099904041
 25
4357.309684909922
 35
0.0
 40
0.0
1001
ACAD_DSTYLE_DIMRADIAL_EXTENSION
1070
   387
1070
     1
1070
   388
1040
0.0
1070
   390
1040
0.0
1001
ACAD
1000
DSTYLE
1002
{
1070
   340
1005
406
1070
   288
1070
     1
1002
}
  0
DIMENSION
  5
622CA
330
2
100
AcDbEntity
  8
标注
100
AcDbDimension
280
     0
  2
*D4
 10
7580.1780719926
 20
4332.022560797173
 30
0.0
 11
7716.318723586734
 21
4406.601237402494
 31
0.0
 70
   163
  1
{\fGulim|b0|i0|c129|p34;2-<>}
 71
     5
 42
57.0
 73
     0
 74
     0
 75
     0
  3
线性标注
100
AcDbDiametricDimension
 15
7630.168619827921
 25
4359.407686817049
 35
0.0
 40
0.0
1001
ACAD
1000
DSTYLE
1002
{
1070
   288
1070
     1
1002
}
1001
ACAD_DSTYLE_DIMRADIAL_EXTENSION
1070
   387
1070
     1
1070
   388
1040
0.5918468992120137
1070
   390
1040
5.691338407967572
  0
DIMENSION
  5
622D7
330
2
100
AcDbEntity
  8
标注
100
AcDbDimension
280
     0
  2
*D5
 10
7651.533949880037
 20
3860.334840947904
 30
0.0
 11
7546.812709008398
 21
3749.379513013462
 31
0.0
 70
    36
  1
2-<>
 71
     5
 42
55.00000000000091
 73
     0
 74
     0
 75
     0
  3
线性标注
100
AcDbRadialDimension
 15
7618.077773104679
 25
3816.680697552619
 35
0.0
 40
0.0
1001
ACAD
1000
DSTYLE
1002
{
1070
   288
1070
     1
1002
}
1001
ACAD_DSTYLE_DIMRADIAL_EXTENSION
1070
   387
1070
     1
1070
   388
1040
3.141592653589793
1070
   390
1040
4.712388980384689
  0
MTEXT
  5
62338
330
2
100
AcDbEntity
  8
标注
100
AcDbMText
 10
7351.625551410208
 20
4250.115808987413
 30
0.0
 40
30.0
 41
126.6122716843874
 46
0.0
 71
     1
 72
     5
  1
A-A
  7
黑体
 73
     1
 44
1.0
  0
LINE
  5
6233A
330
2
100
AcDbEntity
  8
0
100
AcDbLine
 10
7900.704936929097
 20
4412.522163220872
 30
0.0
 11
7900.704936929097
 21
4379.528536031105
 31
0.0
  0
LWPOLYLINE
  5
6233B
330
2
100
AcDbEntity
  8
0
100
AcDbPolyline
 90
        2
 70
     0
 10
7900.704936929097
 20
4412.522163220872
 40
3.0
 41
0.0
 10
7855.026715411435
 20
4412.522163220872
 40
0.0
 41
0.0
  0
MTEXT
  5
6233C
330
2
100
AcDbEntity
  8
0
100
AcDbMText
 10
7858.32875638411
 20
4454.863977208646
 30
0.0
 40
30.0
 41
59.43672557048194
 46
0.0
 71
     1
 72
     5
  1
A
  7
黑体
 73
     1
 44
1.0
  0
LINE
  5
6233D
330
2
100
AcDbEntity
  8
0
100
AcDbLine
 10
7900.704936929092
 20
4278.908084393349
 30
0.0
 11
7900.704936929094
 21
4311.901711583117
 31
0.0
  0
LWPOLYLINE
  5
6233E
330
2
100
AcDbEntity
  8
0
100
AcDbPolyline
 90
        2
 70
     0
 10
7900.704936929092
 20
4278.908084393349
 40
3.0
 41
0.0
 10
7855.026715411432
 20
4278.908084393352
 40
0.0
 41
0.0
  0
MTEXT
  5
62340
330
2
100
AcDbEntity
  8
0
100
AcDbMText
 10
7847.41671464826
 20
4275.560478562796
 30
0.0
 40
30.0
 41
77.05806818812743
 46
0.0
 71
     1
 72
     5
  1
A
  7
黑体
 73
     1
 44
1.0
  0
LINE
  5
62378
330
2
100
AcDbEntity
  8
0
100
AcDbLine
 10
7605.173345910261
 20
4329.815123807111
 30
0.0
 11
8205.173345910258
 21
4329.815123807111
 31
0.0
  0
LINE
  5
62379
330
2
100
AcDbEntity
  8
0
100
AcDbLine
 10
7605.173345910261
 20
4361.615123807112
 30
0.0
 11
8205.173345910258
 21
4361.61512380711
 31
0.0
  0
LINE
  5
6237A
330
2
100
AcDbEntity
  8
0
100
AcDbLine
 10
7651.533949880036
 20
3821.234840947905
 30
0.0
 11
8141.533949880036
 21
3821.234840947904
 31
0.0
  0
LINE
  5
6237B
330
2
100
AcDbEntity
  8
0
100
AcDbLine
 10
7651.533949880036
 20
3789.434840947904
 30
0.0
 11
8141.533949880036
 21
3789.434840947903
 31
0.0
  0
LINE
  5
6237C
330
2
100
AcDbEntity
  8
中心线
100
AcDbLine
 10
7571.73549685465
 20
4345.715123807111
 30
0.0
 11
8237.323618592808
 21
4345.715123807111
 31
0.0
  0
DIMENSION
  5
62397
330
2
100
AcDbEntity
  8
标注
100
AcDbDimension
280
     0
  2
*D6
 10
8196.533949880038
 20
3914.832137385086
 30
0.0
 11
7896.533949880037
 21
3930.457137385086
 31
0.0
 70
    32
  1
300
 71
     5
 42
600.0000000000008
 73
     0
 74
     0
 75
     0
  3
线性标注
100
AcDbAlignedDimension
 13
7596.533949880036
 23
3880.69283164253
 33
0.0
 14
8196.533949880038
 24
3877.434840947904
 34
0.0
100
AcDbRotatedDimension
1001
ACAD
1000
DSTYLE
1002
{
1070
   178
1070
     0
1002
}
  0
LINE
  5
624A6
330
2
100
AcDbEntity
  8
0
  6
Continuous
 62
     7
100
AcDbLine
 10
8935.497933558025
 20
3623.37410901936
 30
0.0
 11
8941.272466318107
 21
3624.757300338988
 31
0.0
  0
LINE
  5
624A7
330
2
100
AcDbEntity
  8
0
  6
Continuous
 62
     7
100
AcDbLine
 10
8933.850152199168
 20
3630.253249455042
 30
0.0
 11
8918.303333224285
 21
3626.529272802199
 31
0.0
  0
LINE
  5
624A8
330
2
100
AcDbEntity
  8
0
  6
Continuous
 62
     7
100
AcDbLine
 10
8929.518931358987
 20
3648.335185073798
 30
0.0
 11
8913.972112383875
 21
3644.611208420917
 31
0.0
  0
LINE
  5
624A9
330
2
100
AcDbEntity
  8
0
  6
Continuous
 62
     7
100
AcDbLine
 10
8927.871149997006
 20
3655.214325528316
 30
0.0
 11
8933.645682754194
 21
3656.597516866816
 31
0.0
  0
LINE
  5
624AA
330
2
100
AcDbEntity
  8
0
  6
Continuous
 62
     7
100
AcDbLine
 10
8879.862694727867
 20
3629.803462079318
 30
0.0
 11
8876.231965761345
 21
3631.525674015441
 31
0.0
  0
LINE
  5
624AB
330
2
100
AcDbEntity
  8
0
  6
Continuous
 62
     7
100
AcDbLine
 10
8652.240720948904
 20
3737.987418717689
 30
0.0
 11
8875.12952009432
 21
3632.261612090797
 31
0.0
  0
LINE
  5
624AC
330
2
100
AcDbEntity
  8
0
  6
Continuous
 62
     7
100
AcDbLine
 10
8660.044403615419
 20
3754.43896932629
 30
0.0
 11
8883.150125496479
 21
3648.610266850838
 31
0.0
  0
LINE
  5
624AD
330
2
100
AcDbEntity
  8
0
  6
Continuous
 62
     7
100
AcDbLine
 10
8887.831332779308
 20
3646.602767950113
 30
0.0
 11
8884.200603793948
 21
3648.324979883113
 31
0.0
  0
LINE
  5
624AE
330
2
100
AcDbEntity
  8
0
  6
Continuous
 62
     7
100
AcDbLine
 10
8660.044403615419
 20
3754.43896932629
 30
0.0
 11
8659.466019845655
 21
3754.749837744921
 31
0.0
  0
LINE
  5
624AF
330
2
100
AcDbEntity
  8
0
  6
Continuous
 62
     7
100
AcDbLine
 10
8682.358000624933
 20
3743.854664274991
 30
0.0
 11
8687.564751196264
 21
3745.101853024979
 31
0.0
  0
LINE
  5
624B0
330
2
100
AcDbEntity
  8
0
  6
Continuous
 62
     7
100
AcDbLine
 10
8671.89158002011
 20
3748.819340671817
 30
0.0
 11
8680.097607689706
 21
3750.784955356521
 31
0.0
  0
LINE
  5
624B1
330
2
100
AcDbEntity
  8
0
  6
Continuous
 62
     7
100
AcDbLine
 10
8656.586852786585
 20
3763.876976391068
 30
0.0
 11
8675.856045605662
 21
3768.492584541371
 31
0.0
  0
LINE
  5
624B2
330
2
100
AcDbEntity
  8
0
  6
Continuous
 62
     7
100
AcDbLine
 10
8674.163434874914
 20
3775.558878214384
 30
0.0
 11
8679.937967635225
 21
3776.94206953405
 31
0.0
  0
SPLINE
  5
624B3
330
2
100
AcDbEntity
  8
0
  6
Continuous
 62
     7
100
AcDbSpline
210
0.0
220
0.0
230
1.0
 70
  1064
 71
     3
 72
    11
 73
     7
 74
     5
 42
0.000000001
 43
0.0000000001
 44
0.0000000001
 12
-0.0527606874414245
 22
-0.9986071849634912
 32
0.0
 13
-0.971985864174125
 23
-0.235039315531847
 33
0.0
 40
0.0
 40
0.0
 40
0.0
 40
0.0
 40
4.167900563722521
 40
7.84480309143976
 40
11.02115341380065
 40
13.63117472334156
 40
13.63117472334156
 40
13.63117472334156
 40
13.63117472334156
 10
8947.80665214604
 20
3635.769104588159
 30
0.0
 10
8947.733351713063
 20
3634.381739438443
 30
0.0
 10
8947.353346524323
 20
3631.771379164451
 30
0.0
 10
8945.972869829333
 20
3628.321879785277
 30
0.0
 10
8943.905975430455
 20
3625.841624336234
 30
0.0
 10
8942.115469982995
 20
3624.961604665451
 30
0.0
 10
8941.269835376973
 20
3624.757118791411
 30
0.0
 11
8947.80665214604
 21
3635.769104588159
 31
0.0
 11
8947.159460981344
 21
3631.651758512661
 31
0.0
 11
8945.726402213981
 21
3628.265616937414
 31
0.0
 11
8943.623573714686
 21
3625.885004899951
 31
0.0
 11
8941.269835376973
 21
3624.757118791411
 31
0.0
  0
SPLINE
  5
624B4
330
2
100
AcDbEntity
  8
0
  6
Continuous
 62
     7
100
AcDbSpline
210
0.0
220
0.0
230
1.0
 70
  1064
 71
     3
 72
    11
 73
     7
 74
     5
 42
0.000000001
 43
0.0000000001
 44
0.0000000001
 12
-0.0527606874414245
 22
-0.9986071849634912
 32
0.0
 13
-0.971985864174125
 23
-0.235039315531847
 33
0.0
 40
0.0
 40
0.0
 40
0.0
 40
0.0
 40
4.167900557896393
 40
7.844803085489256
 40
11.02115340813754
 40
13.63117471748674
 40
13.63117471748674
 40
13.63117471748674
 40
13.63117471748674
 10
8694.098937005342
 20
3756.113657271142
 30
0.0
 10
8694.025636572469
 20
3754.726292123365
 30
0.0
 10
8693.645631408765
 20
3752.115931847536
 30
0.0
 10
8692.265154706021
 20
3748.666432471237
 30
0.0
 10
8690.198260308461
 20
3746.186177022479
 30
0.0
 10
8688.407754860861
 20
3745.306157351389
 30
0.0
 10
8687.5621202549
 20
3745.101671477364
 30
0.0
 11
8694.098937005342
 21
3756.113657271142
 31
0.0
 11
8693.45174585927
 21
3751.996311198614
 31
0.0
 11
8692.018687092138
 21
3748.610169623404
 31
0.0
 11
8689.915858592366
 21
3746.22955758598
 31
0.0
 11
8687.5621202549
 21
3745.101671477364
 31
0.0
  0
SPLINE
  5
624B5
330
2
100
AcDbEntity
  8
0
  6
Continuous
 62
     7
100
AcDbSpline
210
0.0
220
0.0
230
1.0
 70
  1064
 71
     3
 72
    14
 73
    10
 74
     8
 42
0.000000001
 43
0.0000000001
 44
0.0000000001
 12
0.0527606881254759
 22
0.9986071849273498
 32
0.0
 13
0.9772536699885415
 23
-0.2120737241949766
 33
0.0
 40
0.0
 40
0.0
 40
0.0
 40
0.0
 40
2.555757517168838
 40
5.196193036106619
 40
7.818677651670013
 40
10.3243649213977
 40
12.64065371565443
 40
14.74483029264382
 40
16.21882320230093
 40
16.21882320230093
 40
16.21882320230093
 40
16.21882320230093
 10
8873.026973888885
 20
3638.20324951998
 30
0.0
 10
8873.071921730648
 20
3639.053982126505
 30
0.0
 10
8873.369080990654
 20
3640.777030045172
 30
0.0
 10
8874.335303728111
 20
3643.215369955192
 30
0.0
 10
8875.76006225081
 20
3645.399695893338
 30
0.0
 10
8877.537253787258
 20
3647.161238751165
 30
0.0
 10
8879.538595830151
 20
3648.363365809768
 30
0.0
 10
8881.476121453443
 20
3648.860614341434
 30
0.0
 10
8882.684538146357
 20
3648.781594115958
 30
0.0
 10
8883.164693139859
 20
3648.677395727362
 30
0.0
 11
8873.026973888885
 21
3638.20324951998
 31
0.0
 11
8873.447695413355
 21
3640.724140212853
 31
0.0
 11
8874.416767782491
 21
3643.18031579148
 31
0.0
 11
8875.855682534021
 21
3645.372791537456
 31
0.0
 11
8877.64786734535
 21
3647.123946098231
 31
0.0
 11
8879.648130070505
 21
3648.291911341189
 31
0.0
 11
8881.694421295637
 21
3648.782065693505
 31
0.0
 11
8883.164693139859
 21
3648.677395727362
 31
0.0
  0
SPLINE
  5
624B6
330
2
100
AcDbEntity
  8
0
  6
Continuous
 62
     7
100
AcDbSpline
210
0.0
220
0.0
230
1.0
 70
  1064
 71
     3
 72
     8
 73
     4
 74
     2
 42
0.000000001
 43
0.0000000001
 44
0.0000000001
 12
0.977253673569427
 22
-0.2120737076939519
 32
0.0
 13
0.9515267941331208
 23
-0.3075658629411688
 33
0.0
 40
0.0
 40
0.0
 40
0.0
 40
0.0
 40
0.472478795285187
 40
0.472478795285187
 40
0.472478795285187
 40
0.472478795285187
 10
8883.164693139859
 20
3648.677395727362
 30
0.0
 10
8883.318603685983
 20
3648.643995617388
 30
0.0
 10
8883.471103945632
 20
3648.603139172312
 30
0.0
 10
8883.620962690091
 20
3648.554699722848
 30
0.0
 11
8883.164693139859
 21
3648.677395727362
 31
0.0
 11
8883.620962690091
 21
3648.554699722848
 31
0.0
  0
SPLINE
  5
624B7
330
2
100
AcDbEntity
  8
0
  6
Continuous
 62
     7
100
AcDbSpline
210
0.0
220
0.0
230
1.0
 70
  1064
 71
     3
 72
     8
 73
     4
 74
     2
 42
0.000000001
 43
0.0000000001
 44
0.0000000001
 12
0.9515267964075258
 22
-0.307565855904766
 32
0.0
 13
0.9030601986588832
 23
-0.4295140016322846
 33
0.0
 40
0.0
 40
0.0
 40
0.0
 40
0.0
 40
0.6214778555373376
 40
0.6214778555373376
 40
0.6214778555373376
 40
0.6214778555373376
 10
8883.620962690091
 20
3648.554699722848
 30
0.0
 10
8883.818080301065
 20
3648.490984599993
 30
0.0
 10
8884.011331092079
 20
3648.413914223097
 30
0.0
 10
8884.198408397308
 20
3648.324936409544
 30
0.0
 11
8883.620962690091
 21
3648.554699722848
 31
0.0
 11
8884.198408397308
 21
3648.324936409544
 31
0.0
  0
SPLINE
  5
624B8
330
2
100
AcDbEntity
  8
0
  6
Continuous
 62
     7
100
AcDbSpline
210
0.0
220
0.0
230
1.0
 70
  1064
 71
     3
 72
    11
 73
     7
 74
     5
 42
0.000000001
 43
0.0000000001
 44
0.0000000001
 12
0.1521585175014089
 22
0.988356102602586
 32
0.0
 13
0.9719858639275969
 23
0.2350393165513446
 33
0.0
 40
0.0
 40
0.0
 40
0.0
 40
0.0
 40
2.093933983184808
 40
5.770836510553882
 40
8.94718683309393
 40
11.55720814266959
 40
11.55720814266959
 40
11.55720814266959
 40
11.55720814266959
 10
8667.839940731996
 20
3766.616487490683
 30
0.0
 10
8667.946144028872
 20
3767.306338300926
 30
0.0
 10
8668.341874712526
 20
3769.191828742961
 30
0.0
 10
8669.463161111208
 20
3771.994892438484
 30
0.0
 10
8671.529897654824
 20
3774.474425607395
 30
0.0
 10
8673.320431210461
 20
3775.354573887068
 30
0.0
 10
8674.16606581628
 20
3775.559059761997
 30
0.0
 11
8667.839940731996
 21
3766.616487490683
 31
0.0
 11
8668.276440212139
 21
3768.664420040786
 31
0.0
 11
8669.709498979059
 21
3772.050561615842
 31
0.0
 11
8671.812327478583
 21
3774.431173653344
 31
0.0
 11
8674.16606581628
 21
3775.559059761997
 31
0.0
  0
SPLINE
  5
624B9
330
2
100
AcDbEntity
  8
0
  6
Continuous
 62
     7
100
AcDbSpline
210
0.0
220
0.0
230
1.0
 70
  1064
 71
     3
 72
    11
 73
     7
 74
     5
 42
0.000000001
 43
0.0000000001
 44
0.0000000001
 12
0.1629728201033371
 22
0.986630558977151
 32
0.0
 13
0.9719858641665549
 23
0.2350393155631528
 33
0.0
 40
0.0
 40
0.0
 40
0.0
 40
0.0
 40
1.884850774403412
 40
5.561753301996146
 40
8.738103624536194
 40
11.34812493407874
 40
11.34812493407874
 40
11.34812493407874
 40
11.34812493407874
 10
8921.580646890497
 20
3646.478714623972
 30
0.0
 10
8921.683040039225
 20
3647.098598415019
 30
0.0
 10
8922.075722239519
 20
3648.912510914313
 30
0.0
 10
8923.170896782206
 20
3651.65041812002
 30
0.0
 10
8925.237608325337
 20
3654.129855943848
 30
0.0
 10
8927.028146332355
 20
3655.010021201863
 30
0.0
 10
8927.873780938371
 20
3655.21450707593
 30
0.0
 11
8921.580646890497
 21
3646.478714623972
 31
0.0
 11
8921.984155334
 21
3648.31986735468
 31
0.0
 11
8923.417214101133
 21
3651.706008929889
 31
0.0
 11
8925.520042600657
 21
3654.08662096739
 31
0.0
 11
8927.873780938371
 21
3655.21450707593
 31
0.0
  0
SPLINE
  5
624BA
330
2
100
AcDbEntity
  8
0
  6
Continuous
 62
     7
100
AcDbSpline
210
0.0
220
0.0
230
1.0
 70
  1064
 71
     3
 72
    15
 73
    11
 74
     9
 42
0.000000001
 43
0.0000000001
 44
0.0000000001
 12
0.97198586416271
 22
0.2350393155790533
 32
0.0
 13
-0.0527606881633181
 23
-0.9986071849253505
 33
0.0
 40
0.0
 40
0.0
 40
0.0
 40
0.0
 40
0.2543717077880353
 40
3.147371194082679
 40
6.407142958369534
 40
10.17845776439714
 40
14.42317555258584
 40
18.98450493715807
 40
23.64303528034015
 40
28.16206571025397
 40
28.16206571025397
 40
28.16206571025397
 40
28.16206571025397
 10
8933.648313695348
 20
3656.597698414277
 30
0.0
 10
8933.730728930086
 20
3656.617627531644
 30
0.0
 10
8934.755617973374
 20
3656.842039555457
 30
0.0
 10
8936.973563880998
 20
3656.716114097879
 30
0.0
 10
8939.978870902722
 20
3655.184207688568
 30
0.0
 10
8942.713933052843
 20
3652.547304077941
 30
0.0
 10
8945.018895905098
 20
3649.01095860136
 30
0.0
 10
8946.737213691935
 20
3644.839008823487
 30
0.0
 10
8947.740526929706
 20
3640.349601775933
 30
0.0
 10
8947.886127864476
 20
3637.273350006895
 30
0.0
 10
8947.80665214604
 20
3635.769104588159
 30
0.0
 11
8933.648313695348
 21
3656.597698414277
 31
0.0
 11
8933.896814909127
 21
3656.652031760148
 31
0.0
 11
8936.78764754658
 21
3656.540082262886
 31
0.0
 11
8939.732875223235
 21
3655.143033270221
 31
0.0
 11
8942.493893067259
 21
3652.57406541695
 31
0.0
 11
8944.847019869886
 21
3649.041301151939
 31
0.0
 11
8946.601619281514
 21
3644.830944081658
 31
0.0
 11
8947.615544098477
 21
3640.284092267062
 31
0.0
 11
8947.80665214604
 21
3635.769104588159
 31
0.0
  0
SPLINE
  5
624BB
330
2
100
AcDbEntity
  8
0
  6
Continuous
 62
     7
100
AcDbSpline
210
0.0
220
0.0
230
1.0
 70
  1064
 71
     3
 72
    12
 73
     8
 74
     6
 42
0.000000001
 43
0.0000000001
 44
0.0000000001
 12
-0.9719858641574031
 22
-0.2350393156010003
 32
0.0
 13
-0.5921231150895148
 23
0.8058475144695114
 33
0.0
 40
0.0
 40
0.0
 40
0.0
 40
0.0
 40
0.2543717073238133
 40
3.147371197669444
 40
6.407142951195151
 40
10.17845777215515
 40
11.34968651463218
 40
11.34968651463218
 40
11.34968651463218
 40
11.34968651463218
 10
8935.495302619763
 20
3623.373927453026
 30
0.0
 10
8935.412887385176
 20
3623.353998335693
 30
0.0
 10
8934.388000755545
 20
3623.129583481082
 30
0.0
 10
8932.169938118024
 20
3623.255645763895
 30
0.0
 10
8929.165235560471
 20
3624.786843799116
 30
0.0
 10
8927.173688216958
 20
3626.707330241057
 30
0.0
 10
8926.157994566032
 20
3628.004466829548
 30
0.0
 10
8925.926824028874
 20
3628.319077419881
 30
0.0
 11
8935.495302619763
 21
3623.373927453026
 31
0.0
 11
8935.246801406444
 21
3623.319594107232
 31
0.0
 11
8932.35596876566
 21
3623.431543623175
 31
0.0
 11
8929.410741092089
 21
3624.828592597235
 31
0.0
 11
8926.649723244981
 21
3627.397560469112
 31
0.0
 11
8925.926824028874
 21
3628.319077419881
 31
0.0
  0
SPLINE
  5
624BC
330
2
100
AcDbEntity
  8
0
  6
Continuous
 62
     7
100
AcDbSpline
210
0.0
220
0.0
230
1.0
 70
  1064
 71
     3
 72
    13
 73
     9
 74
     7
 42
0.000000001
 43
0.0000000001
 44
0.0000000001
 12
-0.9724902608974108
 22
-0.2329435392100114
 32
0.0
 13
-0.9035073283340727
 23
0.428572639871733
 33
0.0
 40
0.0
 40
0.0
 40
0.0
 40
0.0
 40
6.481036762890092
 40
13.04090618800701
 40
19.6601476939896
 40
26.24197718615184
 40
32.71950456154913
 40
39.16493353858829
 40
39.16493353858829
 40
39.16493353858829
 40
39.16493353858829
 10
8918.303333224285
 20
3626.529272802199
 30
0.0
 10
8916.202418180143
 20
3626.0260342551
 30
0.0
 10
8911.897564427368
 20
3625.328626666018
 30
0.0
 10
8905.345623458114
 20
3624.969653639824
 30
0.0
 10
8898.754202474629
 20
3625.20081410032
 30
0.0
 10
8892.234363821863
 20
3626.003101550177
 30
0.0
 10
8885.879219996196
 20
3627.4195809795
 30
0.0
 10
8881.803858832872
 20
3628.882683908719
 30
0.0
 10
8879.862694727867
 20
3629.803462079318
 30
0.0
 11
8918.303333224285
 21
3626.529272802199
 31
0.0
 11
8911.913421736535
 21
3625.446282174049
 31
0.0
 11
8905.36443660447
 21
3625.068551298199
 31
0.0
 11
8898.749164098321
 21
3625.297740704386
 31
0.0
 11
8892.218022791102
 21
3626.113015313967
 31
0.0
 11
8885.902744501253
 21
3627.553716886391
 31
0.0
 11
8879.862694727867
 21
3629.803462079318
 31
0.0
  0
SPLINE
  5
624BD
330
2
100
AcDbEntity
  8
0
  6
Continuous
 62
     7
100
AcDbSpline
210
0.0
220
0.0
230
1.0
 70
  1064
 71
     3
 72
    14
 73
    10
 74
     8
 42
0.000000001
 43
0.0000000001
 44
0.0000000001
 12
-0.9724902608889511
 22
-0.2329435392453281
 32
0.0
 13
-0.9035073283378881
 23
0.4285726398636896
 33
0.0
 40
0.0
 40
0.0
 40
0.0
 40
0.0
 40
3.245972506005424
 40
7.348005125715197
 40
11.92970241427471
 40
16.55619997479321
 40
20.7865745717924
 40
24.21996385370683
 40
26.57003181145045
 40
26.57003181145045
 40
26.57003181145045
 40
26.57003181145045
 10
8913.972112383875
 20
3644.611208420917
 30
0.0
 10
8912.91988683414
 20
3644.359165646303
 30
0.0
 10
8910.50080253604
 20
3643.942961724448
 30
0.0
 10
8906.531938500227
 20
3643.631301059077
 30
0.0
 10
8902.090046861371
 20
3643.654763104514
 30
0.0
 10
8897.622160812858
 20
3644.038325904424
 30
0.0
 10
8893.577850296464
 20
3644.725396947585
 30
0.0
 10
8890.347092181329
 20
3645.582037233722
 30
0.0
 10
8888.539100653281
 20
3646.267043007277
 30
0.0
 10
8887.831332779308
 20
3646.602767950113
 30
0.0
 11
8913.972112383875
 21
3644.611208420917
 31
0.0
 11
8910.777654355996
 21
3644.035208926248
 31
0.0
 11
8906.68951610756
 21
3643.697870409575
 31
0.0
 11
8902.107853638746
 21
3643.7157328246
 31
0.0
 11
8897.498682346776
 21
3644.115757422281
 31
0.0
 11
8893.330620034705
 21
3644.839170024905
 31
0.0
 11
8890.017994318776
 21
3645.741762306796
 31
0.0
 11
8887.831332779308
 21
3646.602767950113
 31
0.0
  0
SPLINE
  5
624BE
330
2
100
AcDbEntity
  8
0
  6
Continuous
 62
     7
100
AcDbSpline
210
0.0
220
0.0
230
1.0
 70
  1064
 71
     3
 72
    15
 73
    11
 74
     9
 42
0.000000001
 43
0.0000000001
 44
0.0000000001
 12
0.97198586416271
 22
0.2350393155790533
 32
0.0
 13
-0.0527606881633181
 23
-0.9986071849253505
 33
0.0
 40
0.0
 40
0.0
 40
0.0
 40
0.0
 40
0.2543717082890444
 40
3.147371198865887
 40
6.407142952198855
 40
10.17845777325188
 40
14.42317554404374
 40
18.98450494714271
 40
23.64303529032429
 40
28.16206570358362
 40
28.16206570358362
 40
28.16206570358362
 40
28.16206570358362
 10
8679.940598576591
 20
3776.942251081663
 30
0.0
 10
8680.02301381149
 20
3776.962180199069
 30
0.0
 10
8681.047902829581
 20
3777.186592346635
 30
0.0
 10
8683.265848765278
 20
3777.060666700563
 30
0.0
 10
8686.271155790057
 20
3775.528760398674
 30
0.0
 10
8689.006217921294
 20
3772.891856739822
 30
0.0
 10
8691.311180793997
 20
3769.355511282756
 30
0.0
 10
8693.029498565982
 20
3765.183561494322
 30
0.0
 10
8694.032811820639
 20
3760.694154449719
 30
0.0
 10
8694.178412723488
 20
3757.617902684334
 30
0.0
 10
8694.098937005342
 20
3756.113657271142
 30
0.0
 11
8679.940598576591
 21
3776.942251081663
 31
0.0
 11
8680.189099786806
 21
3776.996584446177
 31
0.0
 11
8683.079932427823
 21
3776.884634930271
 31
0.0
 11
8686.025160101163
 21
3775.487585956174
 31
0.0
 11
8688.786177948292
 21
3772.918618084182
 31
0.0
 11
8691.139304747583
 21
3769.385853837854
 31
0.0
 11
8692.893904162545
 21
3765.17549674889
 31
0.0
 11
8693.90782897951
 21
3760.628644934295
 31
0.0
 11
8694.098937005342
 21
3756.113657271142
 31
0.0
  0
SPLINE
  5
624BF
330
2
100
AcDbEntity
  8
0
  6
Continuous
 62
     7
100
AcDbSpline
210
0.0
220
0.0
230
1.0
 70
  1064
 71
     3
 72
     8
 73
     4
 74
     2
 42
0.000000001
 43
0.0000000001
 44
0.0000000001
 12
-0.903060196207614
 22
0.4295140067861186
 32
0.0
 13
-0.7601609262646358
 23
0.6497348429786501
 33
0.0
 40
0.0
 40
0.0
 40
0.0
 40
0.0
 40
1.279570783204596
 40
1.279570783204596
 40
1.279570783204596
 40
1.279570783204596
 10
8876.234161139379
 20
3631.525717485926
 30
0.0
 10
8875.84898465853
 20
3631.708915343946
 30
0.0
 10
8875.485118788052
 20
3631.945293345952
 30
0.0
 10
8875.160892217458
 20
3632.222420586587
 30
0.0
 11
8876.234161139379
 21
3631.525717485926
 31
0.0
 11
8875.160892217458
 21
3632.222420586587
 31
0.0
  0
SPLINE
  5
624C0
330
2
100
AcDbEntity
  8
0
  6
Continuous
 62
     7
100
AcDbSpline
210
0.0
220
0.0
230
1.0
 70
  1064
 71
     3
 72
    10
 73
     6
 74
     4
 42
0.000000001
 43
0.0000000001
 44
0.0000000001
 12
-0.7601609252231914
 22
0.6497348441970941
 32
0.0
 13
0.052760686891099
 23
0.9986071849925673
 33
0.0
 40
0.0
 40
0.0
 40
0.0
 40
0.0
 40
1.986089562702126
 40
4.161540927785466
 40
6.548403616306733
 40
6.548403616306733
 40
6.548403616306733
 40
6.548403616306733
 10
8875.160892217458
 20
3632.222420586587
 30
0.0
 10
8874.657642990937
 20
3632.652564450782
 30
0.0
 10
8873.783779619987
 20
3633.776940098446
 30
0.0
 10
8873.073268432191
 20
3635.871965804459
 30
0.0
 10
8872.984996383898
 20
3637.40873677653
 30
0.0
 10
8873.026973888885
 20
3638.20324951998
 30
0.0
 11
8875.160892217458
 21
3632.222420586587
 31
0.0
 11
8873.919735414316
 21
3633.772930677198
 31
0.0
 11
8873.188687591442
 21
3635.821871311408
 31
0.0
 11
8873.026973888885
 21
3638.20324951998
 31
0.0
  0
SPLINE
  5
624C1
330
2
100
AcDbEntity
  8
0
  6
Continuous
 62
     7
100
AcDbSpline
210
0.0
220
0.0
230
1.0
 70
  1064
 71
     3
 72
    12
 73
     8
 74
     6
 42
0.000000001
 43
0.0000000001
 44
0.0000000001
 12
-0.9035073282426383
 22
0.4285726400644931
 32
0.0
 13
0.0532433320668361
 23
0.9985815678202861
 33
0.0
 40
0.0
 40
0.0
 40
0.0
 40
0.0
 40
4.569981298442784
 40
8.607570895071333
 40
12.29123926663634
 40
15.80889179442451
 40
16.97529271617171
 40
16.97529271617171
 40
16.97529271617171
 40
16.97529271617171
 10
8652.240720948904
 20
3737.987418717689
 30
0.0
 10
8650.864383751214
 20
3738.640275034395
 30
0.0
 10
8648.36172010961
 20
3740.092808305955
 30
0.0
 10
8645.381951733009
 20
3742.975594557557
 30
0.0
 10
8643.516261071749
 20
3746.287519641744
 30
0.0
 10
8642.935508040833
 20
3749.066192725428
 30
0.0
 10
8642.938908247222
 20
3750.629645920254
 30
0.0
 10
8642.959609271089
 20
3751.017894740635
 30
0.0
 11
8652.240720948904
 21
3737.987418717689
 31
0.0
 11
8648.324169137083
 21
3740.342275607914
 31
0.0
 11
8645.457514165654
 21
3743.185586886261
 31
0.0
 11
8643.670722691695
 21
3746.406889247148
 31
0.0
 11
8642.957584178116
 21
3749.851495576862
 31
0.0
 11
8642.959609271089
 21
3751.017894740635
 31
0.0
  0
SPLINE
  5
624C2
330
2
100
AcDbEntity
  8
0
  6
Continuous
 62
     7
100
AcDbSpline
210
0.0
220
0.0
230
1.0
 70
  1064
 71
     3
 72
    12
 73
     8
 74
     6
 42
0.000000001
 43
0.0000000001
 44
0.0000000001
 12
0.0532433317491228
 22
0.9985815678372263
 32
0.0
 13
0.9724902607445958
 23
0.2329435398479816
 33
0.0
 40
0.0
 40
0.0
 40
0.0
 40
0.0
 40
2.423604691399614
 40
6.179631606055876
 40
10.25721161091249
 40
14.77029719806505
 40
20.11554600613923
 40
20.11554600613923
 40
20.11554600613923
 40
20.11554600613923
 10
8642.959609271089
 20
3751.017894740635
 30
0.0
 10
8643.002622867294
 20
3751.824617064821
 30
0.0
 10
8643.331993206546
 20
3753.875151390492
 30
0.0
 10
8644.789790142437
 20
3757.036681474605
 30
0.0
 10
8647.650667956733
 20
3760.086449140569
 30
0.0
 10
8651.701080687962
 20
3762.459120613362
 30
0.0
 10
8654.854118650881
 20
3763.461929331495
 30
0.0
 10
8656.586852786585
 20
3763.876976391068
 30
0.0
 11
8642.959609271089
 21
3751.017894740635
 31
0.0
 11
8643.345405615951
 21
3753.410596326806
 31
0.0
 11
8644.905430936288
 21
3756.827328564418
 31
0.0
 11
8647.663818009858
 21
3759.830320314051
 31
0.0
 11
8651.519522636512
 21
3762.175844423704
 31
0.0
 11
8656.586852786585
 21
3763.876976391068
 31
0.0
  0
SPLINE
  5
624C3
330
2
100
AcDbEntity
  8
0
  6
Continuous
 62
     7
100
AcDbSpline
210
0.0
220
0.0
230
1.0
 70
  1064
 71
     3
 72
    11
 73
     7
 74
     5
 42
0.000000001
 43
0.0000000001
 44
0.0000000001
 12
-0.0527606872623662
 22
-0.9986071849729516
 32
0.0
 13
-0.9504716380326454
 23
-0.310811301750017
 33
0.0
 40
0.0
 40
0.0
 40
0.0
 40
0.0
 40
4.167900557786576
 40
7.844803085379439
 40
11.02115340784564
 40
13.16993944848263
 40
13.16993944848263
 40
13.16993944848263
 40
13.16993944848263
 10
8688.324404248156
 20
3754.730465932642
 30
0.0
 10
8688.251103815535
 20
3753.343100784888
 30
0.0
 10
8687.870692545855
 20
3750.732551202121
 30
0.0
 10
8686.491793030967
 20
3747.283787035398
 30
0.0
 10
8684.521255475166
 20
3744.92237506107
 30
0.0
 10
8682.919948596572
 20
3744.069461844988
 30
0.0
 10
8682.239161867295
 20
3743.846839516163
 30
0.0
 11
8688.324404248156
 21
3754.730465932642
 31
0.0
 11
8687.677213102062
 21
3750.613119860228
 31
0.0
 11
8686.24415433493
 21
3747.226978285019
 31
0.0
 11
8684.141325835389
 21
3744.846366247632
 31
0.0
 11
8682.239161867295
 21
3743.846839516163
 31
0.0
  0
SPLINE
  5
624C4
330
2
100
AcDbEntity
  8
0
  6
Continuous
 62
     7
100
AcDbSpline
210
0.0
220
0.0
230
1.0
 70
  1064
 71
     3
 72
    11
 73
     7
 74
     5
 42
0.000000001
 43
0.0000000001
 44
0.0000000001
 12
-0.9028849993550386
 22
0.429882167505995
 32
0.0
 13
0.0527606873403504
 23
0.9986071849688313
 33
0.0
 40
0.0
 40
0.0
 40
0.0
 40
0.0
 40
1.251176745351832
 40
3.196153106234004
 40
5.326571396368803
 40
7.664024655146248
 40
7.664024655146248
 40
7.664024655146248
 40
7.664024655146248
 10
8652.241134607205
 20
3737.988287543956
 30
0.0
 10
8651.864578368897
 20
3738.167573734364
 30
0.0
 10
8650.958960511999
 20
3738.75539463474
 30
0.0
 10
8649.844176071226
 20
3740.191223675469
 30
0.0
 10
8649.147095104462
 20
3742.244021143495
 30
0.0
 10
8649.060965722139
 20
3743.748698719622
 30
0.0
 10
8649.102074268991
 20
3744.526764592536
 30
0.0
 11
8652.241134607205
 21
3737.988287543956
 31
0.0
 11
8651.191819235137
 21
3738.669742236546
 31
0.0
 11
8649.976355097258
 21
3740.18815587384
 31
0.0
 11
8649.26044038912
 21
3742.194682280747
 31
0.0
 11
8649.102074268991
 21
3744.526764592536
 31
0.0
  0
SPLINE
  5
624C5
330
2
100
AcDbEntity
  8
0
  6
Continuous
 62
     7
100
AcDbSpline
210
0.0
220
0.0
230
1.0
 70
  1064
 71
     3
 72
    11
 73
     7
 74
     5
 42
0.000000001
 43
0.0000000001
 44
0.0000000001
 12
-0.0527606874414245
 22
-0.9986071849634912
 32
0.0
 13
-0.971985864174125
 23
-0.235039315531847
 33
0.0
 40
0.0
 40
0.0
 40
0.0
 40
0.0
 40
4.16790055778601
 40
7.844803085378454
 40
11.02115340784672
 40
13.63117471742075
 40
13.63117471742075
 40
13.63117471742075
 40
13.63117471742075
 10
8942.032119370226
 20
3634.385913246688
 30
0.0
 10
8941.958818937354
 20
3632.998548098949
 30
0.0
 10
8941.57881377362
 20
3630.388187823148
 30
0.0
 10
8940.198337070862
 20
3626.938688447005
 30
0.0
 10
8938.131442673499
 20
3624.458432998028
 30
0.0
 10
8936.340937225798
 20
3623.578413327068
 30
0.0
 10
8935.495302619763
 20
3623.373927453026
 30
0.0
 11
8942.032119370226
 21
3634.385913246688
 31
0.0
 11
8941.384928224136
 21
3630.268567174275
 31
0.0
 11
8939.951869457003
 21
3626.882425599066
 31
0.0
 11
8937.849040957459
 21
3624.50181356168
 31
0.0
 11
8935.495302619763
 21
3623.373927453026
 31
0.0
  0
SPLINE
  5
624C6
330
2
100
AcDbEntity
  8
0
  6
Continuous
 62
     7
100
AcDbSpline
210
0.0
220
0.0
230
1.0
 70
  1064
 71
     3
 72
    10
 73
     6
 74
     4
 42
0.000000001
 43
0.0000000001
 44
0.0000000001
 12
0.9719858636547105
 22
0.2350393176798439
 32
0.0
 13
0.893920365704116
 23
-0.4482258133791711
 33
0.0
 40
0.0
 40
0.0
 40
0.0
 40
0.0
 40
0.2543717075576528
 40
3.147371193848661
 40
4.919681920418986
 40
4.919681920418986
 40
4.919681920418986
 40
4.919681920418986
 10
8927.873780938371
 20
3655.21450707593
 30
0.0
 10
8927.95619617299
 20
3655.234436193457
 30
0.0
 10
8928.981014374478
 20
3655.458860541659
 30
0.0
 10
8930.686678832177
 20
3655.361712023252
 30
0.0
 10
8932.142634094715
 20
3654.79449053816
 30
0.0
 10
8932.670735645661
 20
3654.529692065835
 30
0.0
 11
8927.873780938371
 21
3655.21450707593
 31
0.0
 11
8928.122282151923
 21
3655.268840421762
 31
0.0
 11
8931.01311478937
 21
3655.1568909245
 31
0.0
 11
8932.670735645661
 21
3654.529692065835
 31
0.0
  0
SPLINE
  5
624C7
330
2
100
AcDbEntity
  8
0
  6
Continuous
 62
     7
100
AcDbSpline
210
0.0
220
0.0
230
1.0
 70
  1064
 71
     3
 72
    13
 73
     9
 74
     7
 42
0.000000001
 43
0.0000000001
 44
0.0000000001
 12
0.8939203654830883
 22
-0.4482258138199788
 32
0.0
 13
-0.0527606875693765
 23
-0.9986071849567309
 33
0.0
 40
0.0
 40
0.0
 40
0.0
 40
0.0
 40
1.500200158672119
 40
5.271514979632434
 40
9.516232750520565
 40
14.07756215356621
 40
18.73609249582537
 40
23.2551229256243
 40
23.2551229256243
 40
23.2551229256243
 40
23.2551229256243
 10
8932.670735645661
 20
3654.529692065835
 30
0.0
 10
8933.117755470375
 20
3654.305549253496
 30
0.0
 10
8934.626953540444
 20
3653.392632794137
 30
0.0
 10
8936.941105920258
 20
3651.162849392127
 30
0.0
 10
8939.243843862426
 20
3647.628151908997
 30
0.0
 10
8940.962828523822
 20
3643.45570817494
 30
0.0
 10
8941.965952962499
 20
3638.966440938846
 30
0.0
 10
8942.111595087766
 20
3635.890158665433
 30
0.0
 10
8942.032119370226
 20
3634.385913246688
 30
0.0
 11
8932.670735645661
 21
3654.529692065835
 31
0.0
 11
8933.958342462942
 21
3653.759841950441
 31
0.0
 11
8936.719360310052
 21
3651.190874078564
 31
0.0
 11
8939.072487109575
 21
3647.658109832274
 31
0.0
 11
8940.827086524306
 21
3643.447752743272
 31
0.0
 11
8941.841011322685
 21
3638.900900925477
 31
0.0
 11
8942.032119370226
 21
3634.385913246688
 31
0.0
  0
SPLINE
  5
624C8
330
2
100
AcDbEntity
  8
0
  6
Continuous
 62
     7
100
AcDbSpline
210
0.0
220
0.0
230
1.0
 70
  1064
 71
     3
 72
    11
 73
     7
 74
     5
 42
0.000000001
 43
0.0000000001
 44
0.0000000001
 12
0.9721460137593036
 22
0.2343760395857396
 32
0.0
 13
0.0527606883441322
 23
0.9986071849157974
 33
0.0
 40
0.0
 40
0.0
 40
0.0
 40
0.0
 40
0.9863535251331644
 40
2.903635967444767
 40
5.149870268214577
 40
7.737874220033224
 40
7.737874220033224
 40
7.737874220033224
 40
7.737874220033224
 10
8933.848419445887
 20
3630.257103064497
 30
0.0
 10
8934.168045995093
 20
3630.334162275448
 30
0.0
 10
8935.084101632252
 20
3630.690967807505
 30
0.0
 10
8936.344324481622
 20
3631.948184870838
 30
0.0
 10
8937.266921710145
 20
3634.035489734138
 30
0.0
 10
8937.515376061005
 20
3635.64534399469
 30
0.0
 10
8937.560891017652
 20
3636.506810441648
 30
0.0
 11
8933.848419445887
 21
3630.257103064497
 31
0.0
 11
8934.766692611665
 21
3630.617197037724
 31
0.0
 11
8936.168421119509
 21
3631.925298392319
 31
0.0
 11
8937.131236256533
 21
3633.954720858409
 31
0.0
 11
8937.560891017652
 21
3636.506810441648
 31
0.0
  0
SPLINE
  5
624C9
330
2
100
AcDbEntity
  8
0
  6
Continuous
 62
     7
100
AcDbSpline
210
0.0
220
0.0
230
1.0
 70
  1064
 71
     3
 72
    11
 73
     7
 74
     5
 42
0.000000001
 43
0.0000000001
 44
0.0000000001
 12
0.9718809499090353
 22
0.2354727568189399
 32
0.0
 13
0.0527606885666041
 23
0.9986071849040431
 33
0.0
 40
0.0
 40
0.0
 40
0.0
 40
0.0
 40
1.480776903668111
 40
3.284613941206764
 40
5.372712635734327
 40
7.739647219181573
 40
7.739647219181573
 40
7.739647219181573
 40
7.739647219181573
 10
8918.303274049096
 20
3626.529517020151
 30
0.0
 10
8918.782987003677
 20
3626.645744560065
 30
0.0
 10
8919.799195991309
 20
3627.145429683714
 30
0.0
 10
8920.972678335665
 20
3628.553585363966
 30
0.0
 10
8921.756640082534
 20
3630.512540395102
 30
0.0
 10
8921.972444994231
 20
3631.99495447322
 30
0.0
 10
8922.014072027035
 20
3632.782833766962
 30
0.0
 11
8918.303274049096
 21
3626.529517020151
 31
0.0
 11
8919.638518006044
 21
3627.169691850862
 31
0.0
 11
8920.832706155506
 21
3628.521632205196
 31
0.0
 11
8921.64653467806
 21
3630.444608880552
 31
0.0
 11
8922.014072027035
 21
3632.782833766962
 31
0.0
  0
SPLINE
  5
624CA
330
2
100
AcDbEntity
  8
0
  6
Continuous
 62
     7
100
AcDbSpline
210
0.0
220
0.0
230
1.0
 70
  1064
 71
     3
 72
    14
 73
    10
 74
     8
 42
0.000000001
 43
0.0000000001
 44
0.0000000001
 12
0.0527606877285313
 22
0.998607184948322
 32
0.0
 13
-0.9721460138983356
 23
-0.2343760390090618
 33
0.0
 40
0.0
 40
0.0
 40
0.0
 40
0.0
 40
2.828688179660082
 40
5.737078096378866
 40
8.546859906874876
 40
11.10132213465161
 40
13.30882782825687
 40
15.19810519482265
 40
15.989434803482
 40
15.989434803482
 40
15.989434803482
 40
15.989434803482
 10
8937.560891017652
 20
3636.506810441648
 30
0.0
 10
8937.610638862226
 20
3637.44839322171
 30
0.0
 10
8937.500482283564
 20
3639.372938833577
 30
0.0
 10
8936.805160387818
 20
3642.1514863708
 30
0.0
 10
8935.638101441092
 20
3644.670169980262
 30
0.0
 10
8934.098518653525
 20
3646.700425819564
 30
0.0
 10
8932.307478582481
 20
3648.065466764632
 30
0.0
 10
8930.672424887381
 20
3648.508369692253
 30
0.0
 10
8929.777093420495
 20
3648.393154364202
 30
0.0
 10
8929.520664112249
 20
3648.331331464458
 30
0.0
 11
8937.560891017652
 21
3636.506810441648
 31
0.0
 11
8937.415327750494
 21
3639.331750822082
 31
0.0
 11
8936.708795237064
 21
3642.153017153916
 31
0.0
 11
8935.510453780343
 21
3644.694444228553
 31
0.0
 11
8933.937605404528
 21
3646.707259485806
 31
0.0
 11
8932.144211452264
 21
3647.994434500822
 31
0.0
 11
8930.305821843109
 21
3648.429971655116
 31
0.0
 11
8929.520664112249
 21
3648.331331464458
 31
0.0
  0
SPLINE
  5
624CB
330
2
100
AcDbEntity
  8
0
  6
Continuous
 62
     7
100
AcDbSpline
210
0.0
220
0.0
230
1.0
 70
  1064
 71
     3
 72
    11
 73
     7
 74
     5
 42
0.000000001
 43
0.0000000001
 44
0.0000000001
 12
-0.9028849996012615
 22
0.4298821669888508
 32
0.0
 13
0.0527606886917461
 23
0.9986071848974313
 33
0.0
 40
0.0
 40
0.0
 40
0.0
 40
0.0
 40
1.27762431725717
 40
3.263713879959651
 40
5.439165241695761
 40
7.826027930217151
 40
7.826027930217151
 40
7.826027930217151
 40
7.826027930217151
 10
8879.863117148344
 20
3629.804349257624
 30
0.0
 10
8879.478601204619
 20
3629.987425227657
 30
0.0
 10
8878.553840263538
 20
3630.587671582293
 30
0.0
 10
8877.415491334657
 20
3632.053851379345
 30
0.0
 10
8876.703675392056
 20
3634.150041182503
 30
0.0
 10
8876.615725367612
 20
3635.686524843452
 30
0.0
 10
8876.657702874032
 20
3636.481037586826
 30
0.0
 11
8879.863117148344
 21
3629.804349257624
 31
0.0
 11
8878.791621184003
 21
3630.500208650349
 31
0.0
 11
8877.55046438086
 21
3632.050718740961
 31
0.0
 11
8876.819416576591
 21
3634.099659378254
 31
0.0
 11
8876.657702874032
 21
3636.481037586826
 31
0.0
  0
SPLINE
  5
624CC
330
2
100
AcDbEntity
  8
0
  6
Continuous
 62
     7
100
AcDbSpline
210
0.0
220
0.0
230
1.0
 70
  1064
 71
     3
 72
    15
 73
    11
 74
     9
 42
0.000000001
 43
0.0000000001
 44
0.0000000001
 12
0.0527606874480968
 22
0.9986071849631388
 32
0.0
 13
-0.9718809498323953
 23
-0.2354727571352609
 33
0.0
 40
0.0
 40
0.0
 40
0.0
 40
0.0
 40
2.566339880296851
 40
5.211901202694641
 40
7.802262498641918
 40
10.21282127909875
 40
12.35453635970818
 40
14.20574810979349
 40
15.84867131013266
 40
15.99460401915058
 40
15.99460401915058
 40
15.99460401915058
 40
15.99460401915058
 10
8922.014072027035
 20
3632.782833766962
 30
0.0
 10
8922.05920597914
 20
3633.637088914803
 30
0.0
 10
8921.976519796965
 20
3635.384080376397
 30
0.0
 10
8921.406742062197
 20
3637.93359724371
 30
0.0
 10
8920.430916139723
 20
3640.302831368798
 30
0.0
 10
8919.121936427023
 20
3642.311108255532
 30
0.0
 10
8917.568705916943
 20
3643.808595612745
 30
0.0
 10
8915.862001627976
 20
3644.678559317285
 30
0.0
 10
8914.601932513308
 20
3644.750100904193
 30
0.0
 10
8914.019447965664
 20
3644.622418595529
 30
0.0
 10
8913.972171559045
 20
3644.610964203079
 30
0.0
 11
8922.014072027035
 21
3632.782833766962
 31
0.0
 11
8921.905542518809
 21
3635.346877785119
 31
0.0
 11
8921.32973854537
 21
3637.929017303956
 31
0.0
 11
8920.333308344527
 21
3640.320062786248
 31
0.0
 11
8918.996976746408
 21
3642.326305915559
 31
0.0
 11
8917.429005403548
 21
3643.785212819539
 31
0.0
 11
8915.756422018564
 21
3644.578591520996
 31
0.0
 11
8914.114729363587
 21
3644.642167214561
 31
0.0
 11
8913.972171559045
 21
3644.610964203079
 31
0.0
  0
SPLINE
  5
624CD
330
2
100
AcDbEntity
  8
0
  6
Continuous
 62
     7
100
AcDbSpline
210
0.0
220
0.0
230
1.0
 70
  1064
 71
     3
 72
    10
 73
     6
 74
     4
 42
0.000000001
 43
0.0000000001
 44
0.0000000001
 12
0.9719858636547105
 22
0.2350393176798439
 32
0.0
 13
0.893920365704116
 23
-0.4482258133791711
 33
0.0
 40
0.0
 40
0.0
 40
0.0
 40
0.0
 40
0.2543717075576528
 40
3.14737119410065
 40
4.919681930138749
 40
4.919681930138749
 40
4.919681930138749
 40
4.919681930138749
 10
8674.16606581628
 20
3775.559059761997
 30
0.0
 10
8674.2484810509
 20
3775.578988879524
 30
0.0
 10
8675.273299252337
 20
3775.803413227408
 30
0.0
 10
8676.978963718109
 20
3775.70626472112
 30
0.0
 10
8678.434918973135
 20
3775.139043206961
 30
0.0
 10
8678.963020526902
 20
3774.874244733221
 30
0.0
 11
8674.16606581628
 21
3775.559059761997
 31
0.0
 11
8674.414567029831
 21
3775.61339310783
 31
0.0
 11
8677.305399667529
 21
3775.501443610491
 31
0.0
 11
8678.963020526902
 21
3774.874244733221
 31
0.0
  0
SPLINE
  5
624CE
330
2
100
AcDbEntity
  8
0
  6
Continuous
 62
     7
100
AcDbSpline
210
0.0
220
0.0
230
1.0
 70
  1064
 71
     3
 72
    13
 73
     9
 74
     7
 42
0.000000001
 43
0.0000000001
 44
0.0000000001
 12
0.8939203654830883
 22
-0.4482258138199788
 32
0.0
 13
-0.0527606875693765
 23
-0.9986071849567309
 33
0.0
 40
0.0
 40
0.0
 40
0.0
 40
0.0
 40
1.500200144109962
 40
5.271514976682157
 40
9.516232747570036
 40
14.07756213214171
 40
18.73609249323272
 40
23.25512290431192
 40
23.25512290431192
 40
23.25512290431192
 40
23.25512290431192
 10
8678.963020526902
 20
3774.874244733221
 30
0.0
 10
8679.410040347276
 20
3774.650101923059
 30
0.0
 10
8680.919238400681
 20
3773.737185438777
 30
0.0
 10
8683.233390806945
 20
3771.507402072706
 30
0.0
 10
8685.536128736796
 20
3767.972704577966
 30
0.0
 10
8687.255113407706
 20
3763.800260850611
 30
0.0
 10
8688.258237841756
 20
3759.310993618104
 30
0.0
 10
8688.403879965369
 20
3756.234711345155
 30
0.0
 10
8688.324404248156
 20
3754.730465932642
 30
0.0
 11
8678.963020526902
 21
3774.874244733221
 31
0.0
 11
8680.250627325349
 21
3774.104394614704
 31
0.0
 11
8683.011645191085
 21
3771.535426745797
 31
0.0
 11
8685.364771990604
 21
3768.002662499506
 31
0.0
 11
8687.119371402236
 21
3763.792305429226
 31
0.0
 11
8688.133296203698
 21
3759.245453592824
 31
0.0
 11
8688.324404248156
 21
3754.730465932642
 31
0.0
  0
SPLINE
  5
624CF
330
2
100
AcDbEntity
  8
0
  6
Continuous
 62
     7
100
AcDbSpline
210
0.0
220
0.0
230
1.0
 70
  1064
 71
     3
 72
    15
 73
    11
 74
     9
 42
0.000000001
 43
0.0000000001
 44
0.0000000001
 12
0.0527606882183944
 22
0.9986071849224407
 32
0.0
 13
0.9028849994959546
 23
-0.4298821672100277
 33
0.0
 40
0.0
 40
0.0
 40
0.0
 40
0.0
 40
2.555757517279176
 40
5.196193036216289
 40
7.818677651938751
 40
10.32436492140873
 40
12.64065371566524
 40
14.74483029265463
 40
16.68474189606214
 40
17.30817907223044
 40
17.30817907223044
 40
17.30817907223044
 40
17.30817907223044
 10
8876.657702874032
 20
3636.481037586826
 30
0.0
 10
8876.702650715875
 20
3637.331770193384
 30
0.0
 10
8876.999814994546
 20
3639.054817312381
 30
0.0
 10
8877.966014576283
 20
3641.493160912226
 30
0.0
 10
8879.390856764588
 20
3643.677473518709
 30
0.0
 10
8881.167757745599
 20
3645.439062674457
 30
0.0
 10
8883.170065794429
 20
3646.64103580703
 30
0.0
 10
8885.257589279747
 20
3647.178090693901
 30
0.0
 10
8886.847691287863
 20
3647.008997028301
 30
0.0
 10
8887.643279689063
 20
3646.691215597527
 30
0.0
 10
8887.830910380559
 20
3646.601880756057
 30
0.0
 11
8876.657702874032
 21
3636.481037586826
 31
0.0
 11
8877.078424398485
 21
3639.001928279814
 31
0.0
 11
8878.047496767619
 21
3641.458103858441
 31
0.0
 11
8879.486411519382
 21
3643.650579604456
 31
0.0
 11
8881.278596330497
 21
3645.401734165079
 31
0.0
 11
8883.278859055652
 21
3646.569699408035
 31
0.0
 11
8885.325150280785
 21
3647.059853760351
 31
0.0
 11
8887.251691675222
 21
3646.832487789809
 31
0.0
 11
8887.830910380559
 21
3646.601880756057
 31
0.0
  0
SPLINE
  5
624D0
330
2
100
AcDbEntity
  8
0
  6
Continuous
 62
     7
100
AcDbSpline
210
0.0
220
0.0
230
1.0
 70
  1064
 71
     3
 72
    14
 73
    10
 74
     8
 42
0.000000001
 43
0.0000000001
 44
0.0000000001
 12
0.9721460138300249
 22
0.2343760392924011
 32
0.0
 13
-0.0527606881548854
 23
-0.998607184925796
 33
0.0
 40
0.0
 40
0.0
 40
0.0
 40
0.0
 40
0.7749486247451842
 40
2.625116876259921
 40
4.786925938221228
 40
7.288509318724372
 40
10.04012703657104
 40
12.88831162010777
 40
15.65844433048549
 40
15.65844433048549
 40
15.65844433048549
 40
15.65844433048549
 10
8675.857742506696
 20
3768.488810696076
 30
0.0
 10
8676.108863578852
 20
3768.54935382585
 30
0.0
 10
8676.98566117226
 20
3768.662184115708
 30
0.0
 10
8678.586868329585
 20
3768.228449570229
 30
0.0
 10
8680.340832815778
 20
3766.891665711904
 30
0.0
 10
8681.848545390954
 20
3764.903437368732
 30
0.0
 10
8682.99144550134
 20
3762.436891929709
 30
0.0
 10
8683.672373853413
 20
3759.715861926802
 30
0.0
 10
8683.78025012573
 20
3757.831155509464
 30
0.0
 10
8683.731532089703
 20
3756.909064033537
 30
0.0
 11
8675.857742506696
 21
3768.488810696076
 31
0.0
 11
8676.626647015776
 21
3768.585408972003
 31
0.0
 11
8678.42698091875
 21
3768.158887698544
 31
0.0
 11
8680.183250578025
 21
3766.898357927264
 31
0.0
 11
8681.723540093512
 21
3764.92720912058
 31
0.0
 11
8682.897075175022
 21
3762.438391032082
 31
0.0
 11
8683.588982064895
 21
3759.67552652624
 31
0.0
 11
8683.731532089703
 21
3756.909064033537
 31
0.0
  0
SPLINE
  5
624D1
330
2
100
AcDbEntity
  8
0
  6
Continuous
 62
     7
100
AcDbSpline
210
0.0
220
0.0
230
1.0
 70
  1064
 71
     3
 72
    15
 73
    11
 74
     9
 42
0.000000001
 43
0.0000000001
 44
0.0000000001
 12
0.9718809500809619
 22
0.2354727561093358
 32
0.0
 13
-0.0527606878208571
 23
-0.9986071849434441
 33
0.0
 40
0.0
 40
0.0
 40
0.0
 40
0.0
 40
0.1429118249717377
 40
1.751825561823179
 40
3.564716175785816
 40
5.662096521775199
 40
8.022755341259884
 40
10.55949467375166
 40
13.15029137312045
 40
15.66350653584291
 40
15.66350653584291
 40
15.66350653584291
 40
15.66350653584291
 10
8656.586910740484
 20
3763.876737219359
 30
0.0
 10
8656.633208500561
 20
3763.887954499794
 30
0.0
 10
8657.203635265089
 20
3764.012993791102
 30
0.0
 10
8658.437620250976
 20
3763.942933056711
 30
0.0
 10
8660.108994763632
 20
3763.090978131043
 30
0.0
 10
8661.630072521608
 20
3761.624489619174
 30
0.0
 10
8662.91195559463
 20
3759.65778522076
 30
0.0
 10
8663.867581375809
 20
3757.337595603178
 30
0.0
 10
8664.425564356061
 20
3754.840855191576
 30
0.0
 10
8664.506538923921
 20
3753.130027456248
 30
0.0
 10
8664.462339270379
 20
3752.293455883313
 30
0.0
 11
8656.586910740484
 21
3763.876737219359
 31
0.0
 11
8656.726517520636
 21
3763.907294324133
 31
0.0
 11
8658.334226185107
 21
3763.845034683753
 31
0.0
 11
8659.972186139503
 21
3763.068079365869
 31
0.0
 11
8661.507699576658
 21
3761.639372677965
 31
0.0
 11
8662.816368338313
 21
3759.67465994215
 31
0.0
 11
8663.792171867168
 21
3757.33311047351
 31
0.0
 11
8664.3560563635
 21
3754.80442270863
 31
0.0
 11
8664.462339270379
 21
3752.293455883313
 31
0.0
  0
SPLINE
  5
624D2
330
2
100
AcDbEntity
  8
0
  6
Continuous
 62
     7
100
AcDbSpline
210
0.0
220
0.0
230
1.0
 70
  1064
 71
     3
 72
    15
 73
    11
 74
     9
 42
0.000000001
 43
0.0000000001
 44
0.0000000001
 12
0.0527606878076648
 22
0.9986071849441412
 32
0.0
 13
0.9028849991716446
 23
-0.4298821678911783
 33
0.0
 40
0.0
 40
0.0
 40
0.0
 40
0.0
 40
2.502851853190675
 40
5.088628853591281
 40
7.656826517924898
 40
10.11064463671563
 40
12.37898491117653
 40
14.43960382146449
 40
16.3393581526285
 40
16.94988980917488
 40
16.94988980917488
 40
16.94988980917488
 40
16.94988980917488
 10
8649.102074268991
 20
3744.526764592536
 30
0.0
 10
8649.146091664077
 20
3745.359886540352
 30
0.0
 10
8649.437104465139
 20
3747.047265595064
 30
0.0
 10
8650.383303166691
 20
3749.435134073408
 30
0.0
 10
8651.778650298432
 20
3751.5742301649
 30
0.0
 10
8653.518768418047
 20
3753.299353395468
 30
0.0
 10
8655.479627526094
 20
3754.476445022483
 30
0.0
 10
8657.52393808388
 20
3755.00238253129
 30
0.0
 10
8659.081124064497
 20
3754.836789223021
 30
0.0
 10
8659.860243332401
 20
3754.525586057268
 30
0.0
 10
8660.04398995714
 20
3754.438100499907
 30
0.0
 11
8649.102074268991
 21
3744.526764592536
 31
0.0
 11
8649.514086609542
 21
3746.995471385627
 31
0.0
 11
8650.463098631346
 21
3749.400802730426
 31
0.0
 11
8651.872227012226
 21
3751.547892958919
 31
0.0
 11
8653.627312583136
 21
3753.262797620669
 31
0.0
 11
8655.58616870525
 21
3754.406585316703
 31
0.0
 11
8657.590100526737
 21
3754.886593179416
 31
0.0
 11
8659.476761421538
 21
3754.663933827928
 31
0.0
 11
8660.04398995714
 21
3754.438100499907
 31
0.0
  0
SPLINE
  5
624D3
330
2
100
AcDbEntity
  8
0
  6
Continuous
 62
     7
100
AcDbSpline
210
0.0
220
0.0
230
1.0
 70
  1064
 71
     3
 72
    11
 73
     7
 74
     5
 42
0.000000001
 43
0.0000000001
 44
0.0000000001
 12
-0.052760688012721
 22
-0.9986071849333072
 32
0.0
 13
-0.9721460140221463
 23
-0.2343760384955184
 33
0.0
 40
0.0
 40
0.0
 40
0.0
 40
0.0
 40
2.534430779822631
 40
4.73416675142364
 40
6.611760346077645
 40
7.577695785187447
 40
7.577695785187447
 40
7.577695785187447
 40
7.577695785187447
 10
8683.731532089703
 20
3756.909064033537
 30
0.0
 10
8683.686959319148
 20
3756.065430438054
 30
0.0
 10
8683.443648142105
 20
3754.488901075891
 30
0.0
 10
8682.54014917008
 20
3752.44480463562
 30
0.0
 10
8681.306013666963
 20
3751.213612676576
 30
0.0
 10
8680.408920906023
 20
3750.864193226732
 30
0.0
 10
8680.095910810377
 20
3750.788729186179
 30
0.0
 11
8683.731532089703
 21
3756.909064033537
 31
0.0
 11
8683.310771443698
 21
3754.4098041718
 31
0.0
 11
8682.367887113532
 21
3752.422391913441
 31
0.0
 11
8680.995175193286
 21
3751.141369005487
 31
0.0
 11
8680.095910810377
 21
3750.788729186179
 31
0.0
  0
DIMENSION
  5
62568
330
2
100
AcDbEntity
  8
标注
100
AcDbDimension
280
     0
  2
*D7
 10
8979.072802714219
 20
3650.166113639551
 30
0.0
 11
8828.149796849888
 21
3725.19345346435
 31
0.0
 70
   161
  1
300
 71
     5
 42
273.6249130646402
 73
     0
 74
     0
 75
     0
  3
线性标注
100
AcDbAlignedDimension
 13
8713.176956870066
 23
3766.969960309173
 33
0.0
 14
8958.195809827884
 24
3645.16538426678
 34
0.0
  0
DIMENSION
  5
62B74
330
2
100
AcDbEntity
  8
标注
100
AcDbDimension
280
     0
  2
*D8
 10
7424.432072242845
 20
3877.434840947904
 30
0.0
 11
7408.807072242844
 21
3841.384840947905
 31
0.0
 70
    32
  1
88
 71
     5
 42
72.10000000000036
 73
     0
 74
     0
 75
     0
  3
线性标注
100
AcDbAlignedDimension
 13
7651.533949880036
 23
3805.334840947903
 33
0.0
 14
7596.533949880036
 24
3877.434840947904
 34
0.0
 50
90.0
100
AcDbRotatedDimension
  0
DIMENSION
  5
62B81
330
2
100
AcDbEntity
  8
标注
100
AcDbDimension
280
     0
  2
*D9
 10
8960.739267064179
 20
3603.598464076561
 30
0.0
 11
8985.018121952487
 21
3608.23594491411
 31
0.0
 70
   161
  1
88
 71
     5
 42
49.43557517441331
 73
     0
 74
     0
 75
     0
  3
线性标注
100
AcDbAlignedDimension
 13
8947.269218096673
 23
3642.295876999207
 33
0.0
 14
8898.711508320053
 24
3633.020915324108
 34
0.0
  0
VIEWPORT
  5
99
330
C
100
AcDbEntity
 67
     1
  8
0
100
AcDbViewport
 10
143.6764787904317
 20
100.2046656547372
 30
0.0
 40
390.1005202556985
 41
202.9375384062431
 68
     1
 69
     1
 12
116.7325519153533
 22
100.551332739372
 13
0.0
 23
0.0
 14
10.0
 24
10.0
 15
10.0
 25
10.0
 16
0.0
 26
0.0
 36
1.0
 17
0.0
 27
0.0
 37
0.0
 42
50.0
 43
0.0
 44
0.0
 45
831.2321573119717
 50
0.0
 51
0.0
 72
   100
 90
    38944
  1

281
     0
 71
     1
 74
     0
110
0.0
120
0.0
130
0.0
111
1.0
121
0.0
131
0.0
112
0.0
122
1.0
132
0.0
 79
     0
146
0.0
170
     2
 61
     5
348
984D
292
     1
282
     1
141
0.0
142
0.0
 63
   250
421
  3355443
  0
MTEXT
  5
2C09
102
{ACAD_XDICTIONARY
360
62E71
102
}
330
C
100
AcDbEntity
 67
     1
  8
ASHADE
 62
     5
100
AcDbMText
 10
231.8996211309493
 20
125.8491204523215
 30
0.0
 40
2.5
 41
66.6875
 46
0.0
 71
     1
 72
     5
  3
\pt24;技术要求:\P\ptz;1.注："☆"号为特注受控处.\P2.所注尺寸为电镀后尺寸.{\fSimSun|b0|i0|c134|p0;\P}3.未注公差为%%p0.1.\P4.未注缧纹倒角为{\fArial|b0|i0|c0|p32;C0.5}.\P5.无毛刺.\P6.壁厚为2.5{\fArial|b0|i0|c134|p32;mm.\P\fSimSun|b0|i0|c134|p0;7\fArial|b0|i0|c134|p32;.}未注铸造圆角{\fArial|b0|i0|c134|
  1
p32;R1\fSimSun|b0|i0|c134|p0;～\fArial|b0|i0|c134|p32;R3.}\P8.表面抛光电镀铬.
 73
     1
 44
1.0
  0
ENDSEC
  0
SECTION
  2
OBJECTS
  0
DICTIONARY
  5
7
330
0
100
AcDbDictionary
281
     1
  3
ACAD_CIP_PREVIOUS_PRODUCT_INFO
350
6062E8A
  3
ACAD_COLOR
350
29
  3
ACAD_DETAILVIEWSTYLE
350
6062E83
  3
ACAD_GROUP
350
25
  3
ACAD_IMAGE_DICT
350
2BE1
  3
ACAD_IMAGE_VARS
350
2BE2
  3
ACAD_LAYOUT
350
B
  3
ACAD_MATERIAL
350
28
  3
ACAD_MLEADERSTYLE
350
987B
  3
ACAD_MLINESTYLE
350
26
  3
ACAD_PLOTSETTINGS
350
27
  3
ACAD_PLOTSTYLENAME
350
6
  3
ACAD_SCALELIST
350
9859
  3
ACAD_SECTIONVIEWSTYLE
350
6062E80
  3
ACAD_TABLESTYLE
350
46A6
  3
ACAD_VISUALSTYLE
350
9847
  3
AcadDim
350
61415
  3
ACDB_RECOMPOSE_DATA
350
6062E9E
  3
ACDBHEADERROUNDTRIPXREC
350
62E69
  3
ACDBVARIABLEDICTIONARY
350
4557
  3
ASE_INDEX_DICTIONARY
350
62BB4
  0
DICTIONARY
  5
62423
330
1A
100
AcDbDictionary
280
     1
281
     1
  0
DICTIONARY
  5
3FD7
330
10
100
AcDbDictionary
280
     1
281
     1
  3
ACAD_LAYERFILTERS
360
158C4
  3
ACAD_LAYERSTATES
360
3FD8
  3
ACLYDICTIONARY
360
158C3
  0
DICTIONARY
  5
9891
330
4
100
AcDbDictionary
280
     1
281
     1
  3
ADSK_XREC_LAYER_RECONCILED
360
9892
  0
DICTIONARY
  5
9893
330
400
100
AcDbDictionary
280
     1
281
     1
  3
ADSK_XREC_LAYER_RECONCILED
360
9894
  0
DICTIONARY
  5
9897
330
403
100
AcDbDictionary
280
     1
281
     1
  3
ADSK_XREC_LAYER_RECONCILED
360
9898
  0
DICTIONARY
  5
989B
330
405
100
AcDbDictionary
280
     1
281
     1
  3
ADSK_XREC_LAYER_RECONCILED
360
989C
  0
DICTIONARY
  5
989F
330
92F
100
AcDbDictionary
280
     1
281
     1
  3
ADSK_XREC_LAYER_RECONCILED
360
98A0
  0
DICTIONARY
  5
98A9
330
4563
100
AcDbDictionary
280
     1
281
     1
  3
ADSK_XREC_LAYER_RECONCILED
360
98AA
  0
DICTIONARY
  5
98C5
330
2
100
AcDbDictionary
280
     1
281
     1
  3
ACAD_SORTENTS
360
98C6
  0
DICTIONARY
  5
62E71
330
2C09
100
AcDbDictionary
280
     1
281
     1
  0
XRECORD
  5
6062E8A
102
{ACAD_REACTORS
330
7
102
}
330
7
100
AcDbXrecord
280
     1
300
ACD
300
2017
300
ACD_F_S
  0
DICTIONARY
  5
29
102
{ACAD_REACTORS
330
7
102
}
330
7
100
AcDbDictionary
281
     1
  0
DICTIONARY
  5
6062E83
102
{ACAD_REACTORS
330
7
102
}
330
7
100
AcDbDictionary
281
     1
  3
Metric50
350
6062E84
  0
DICTIONARY
  5
25
102
{ACAD_REACTORS
330
7
102
}
330
7
100
AcDbDictionary
281
     1
  0
DICTIONARY
  5
2BE1
102
{ACAD_REACTORS
330
7
102
}
330
7
100
AcDbDictionary
281
     1
  3
irunin
350
2BE3
  0
ACAD_PROXY_OBJECT
  5
2BE2
102
{ACAD_REACTORS
330
7
102
}
330
7
100
AcDbProxyObject
 90
      499
 91
      508
 95
  1638427
 70
     0
162
                 0
161
                40
310
409014050100
 94
        0
1001
ACAD
1000
AcRTDxfName
1000
RASTERVARIABLES
1000
AcRTDxfName
1000
RASTERVARIABLES
1000
AcRTDxfName
1000
RASTERVARIABLES
1000
AcRTDxfName
1000
RASTERVARIABLES
1000
AcRTDxfName
1000
RASTERVARIABLES
1000
AcRTDxfName
1000
RASTERVARIABLES
1000
AcRTDxfName
1000
RASTERVARIABLES
1000
AcRTDxfName
1000
RASTERVARIABLES
  0
DICTIONARY
  5
B
102
{ACAD_REACTORS
330
7
102
}
330
7
100
AcDbDictionary
281
     1
  3
Model
350
A
  3
布局1
350
F
1001
AcadStringInfo
1000
MIFCodePage
1070
     5
  0
DICTIONARY
  5
28
102
{ACAD_REACTORS
330
7
102
}
330
7
100
AcDbDictionary
281
     1
  3
ByBlock
350
9837
  3
ByLayer
350
982F
  3
Global
350
983F
  0
DICTIONARY
  5
987B
102
{ACAD_REACTORS
330
7
102
}
330
7
100
AcDbDictionary
281
     1
  3
Standard
350
987C
  0
DICTIONARY
  5
26
102
{ACAD_REACTORS
330
7
102
}
330
7
100
AcDbDictionary
281
     1
  3
Standard
350
2A
  0
DICTIONARY
  5
27
102
{ACAD_REACTORS
330
7
102
}
330
7
100
AcDbDictionary
281
     1
  3
设置1
350
30A40
1001
AcadStringInfo
1000
MIFCodePage
1070
     5
  0
ACDBDICTIONARYWDFLT
  5
6
102
{ACAD_REACTORS
330
7
102
}
330
7
100
AcDbDictionary
281
     1
  3
Normal
350
5
100
AcDbDictionaryWithDefault
340
5
  0
DICTIONARY
  5
9859
102
{ACAD_REACTORS
330
7
102
}
330
7
100
AcDbDictionary
281
     1
  3
A0
350
985A
  3
A1
350
985B
  3
A2
350
985C
  3
A3
350
985D
  3
A4
350
985E
  3
A5
350
985F
  3
A6
350
9860
  3
A7
350
9861
  3
A8
350
9862
  3
A9
350
9863
  3
B0
350
9864
  3
B1
350
9865
  3
B2
350
9866
  3
B3
350
9867
  3
B4
350
9868
  3
B5
350
9869
  3
B6
350
986A
  3
B7
350
986B
  3
B8
350
986C
  3
B9
350
986D
  3
C0
350
986E
  3
C1
350
986F
  3
C2
350
9870
  3
C3
350
9871
  3
C4
350
9872
  3
C5
350
9873
  3
C6
350
9874
  3
C7
350
9875
  3
C8
350
9876
  3
C9
350
9877
  3
D0
350
9878
  3
D1
350
9879
  3
D2
350
987A
  0
DICTIONARY
  5
6062E80
102
{ACAD_REACTORS
330
7
102
}
330
7
100
AcDbDictionary
281
     1
  3
Metric50
350
6062E82
  0
DICTIONARY
  5
46A6
102
{ACAD_REACTORS
330
7
102
}
330
7
100
AcDbDictionary
281
     1
  3
Standard
350
9858
  0
DICTIONARY
  5
9847
102
{ACAD_REACTORS
330
7
102
}
330
7
100
AcDbDictionary
281
     1
  3
2dWireframe
350
984D
  3
3D Hidden
350
984F
  3
3dWireframe
350
984E
  3
Basic
350
984C
  3
Brighten
350
9853
  3
ColorChange
350
9857
  3
Conceptual
350
9850
  3
Dim
350
9852
  3
EdgeColorOff
350
6062E7F
  3
Facepattern
350
9856
  3
Flat
350
9848
  3
FlatWithEdges
350
9849
  3
Gouraud
350
984A
  3
GouraudWithEdges
350
984B
  3
Hidden
350
6062E77
  3
JitterOff
350
6062E7D
  3
Linepattern
350
9855
  3
OverhangOff
350
6062E7E
  3
Realistic
350
9851
  3
Shaded
350
6062E7C
  3
Shaded with edges
350
6062E7B
  3
Shades of Gray
350
6062E78
  3
Sketchy
350
6062E79
  3
Thicken
350
9854
  3
Wireframe
350
6062E76
  3
X-Ray
350
6062E7A
  0
XRECORD
  5
61415
102
{ACAD_REACTORS
330
7
102
}
330
7
100
AcDbXrecord
280
     1
 90
   990106
  3

 60
     0
 61
     0
 62
     1
 63
     3
 64
     0
 65
     0
 66
     0
 67
     3
 68
     1
 69
     0
 70
     0
 71
     0
 72
     0
 40
13.70396488517739
170
     1
340
47027
  0
XRECORD
  5
6062E9E
102
{ACAD_REACTORS
330
7
102
}
330
7
100
AcDbXrecord
280
     1
 90
        1
330
9858
330
6062E82
330
6062E84
  0
DICTIONARY
  5
62E69
102
{ACAD_REACTORS
330
7
102
}
330
7
100
AcDbDictionary
281
     1
  0
DICTIONARY
  5
4557
102
{ACAD_REACTORS
330
7
102
}
330
7
100
AcDbDictionary
281
     1
  3
CANNOSCALE
350
B806
  3
CMLEADERSTYLE
350
B804
  3
CTABLESTYLE
350
B803
  3
CVIEWDETAILSTYLE
350
6062E95
  3
CVIEWSECTIONSTYLE
350
6062E96
  3
DGNFRAME
350
6245A
  3
DIMASSOC
350
4558
  3
HIDETEXT
350
62459
  3
INDEXCTL
350
62458
  3
LAYEREVAL
350
6062E97
  3
LAYERNOTIFY
350
6062E98
  3
LIGHTINGUNITS
350
B807
  3
MSLTSCALE
350
B805
  3
PROJECTNAME
350
6250E
  3
SORTENTS
350
62457
  0
DICTIONARY
  5
62BB4
102
{ACAD_REACTORS
330
7
102
}
330
7
100
AcDbDictionary
281
     1
  3
ASEBlockHierarchyIndexRecord
350
62BB5
1001
DCO15
1040
1674708154.781
  0
DICTIONARY
  5
158C4
102
{ACAD_REACTORS
330
3FD7
102
}
330
3FD7
100
AcDbDictionary
281
     1
  0
DICTIONARY
  5
3FD8
102
{ACAD_REACTORS
330
3FD7
102
}
330
3FD7
100
AcDbDictionary
281
     1
  0
DICTIONARY
  5
158C3
102
{ACAD_REACTORS
330
3FD7
102
}
330
3FD7
100
AcDbDictionary
281
     1
1001
ACAD
1000
<All
  0
XRECORD
  5
9892
102
{ACAD_REACTORS
330
9891
102
}
330
9891
100
AcDbXrecord
280
     1
290
     1
  0
XRECORD
  5
9894
102
{ACAD_REACTORS
330
9893
102
}
330
9893
100
AcDbXrecord
280
     1
290
     1
  0
XRECORD
  5
9898
102
{ACAD_REACTORS
330
9897
102
}
330
9897
100
AcDbXrecord
280
     1
290
     1
  0
XRECORD
  5
989C
102
{ACAD_REACTORS
330
989B
102
}
330
989B
100
AcDbXrecord
280
     1
290
     1
  0
XRECORD
  5
98A0
102
{ACAD_REACTORS
330
989F
102
}
330
989F
100
AcDbXrecord
280
     1
290
     1
  0
XRECORD
  5
98AA
102
{ACAD_REACTORS
330
98A9
102
}
330
98A9
100
AcDbXrecord
280
     1
290
     1
  0
SORTENTSTABLE
  5
98C6
102
{ACAD_REACTORS
330
98C5
102
}
330
98C5
100
AcDbSortentsTable
330
2
331
80BB
  5
87FB
331
807B
  5
87F7
331
62243
  5
62257
331
6237B
  5
6224C
331
622AE
  5
62305
331
6223B
  5
6224F
331
47C4
  5
47C4
331
81BF
  5
88BA
331
62340
  5
6237C
331
6233C
  5
62379
331
6222C
  5
6223C
331
62338
  5
62376
331
47A0
  5
47A0
331
62224
  5
6222D
331
62220
  5
6222C
331
6221C
  5
62218
331
62254
  5
62295
331
62250
  5
6225C
331
6224C
  5
62258
331
62244
  5
62256
331
6237C
  5
62216
331
6223C
  5
62255
331
62378
  5
62220
331
62235
  5
6223F
331
6233D
  5
6237A
331
6222D
  5
6223D
331
62216
  5
6221A
331
81A8
  5
88B6
331
8184
  5
88B5
331
62258
  5
622D7
331
62219
  5
62226
331
8151
  5
8822
331
62255
  5
622A2
331
62251
  5
62266
331
6224D
  5
62259
331
8D7A
  5
9332
331
62245
  5
62254
331
62241
  5
62250
331
62379
  5
6221C
331
7FDE
  5
86EB
331
62236
  5
62243
331
6233E
  5
6237B
331
6222E
  5
6223E
331
6233A
  5
62377
331
6222A
  5
62237
331
62226
  5
6222E
331
6221E
  5
6222A
331
62259
  5
62301
331
6221A
  5
62227
331
47027
  5
4724F
331
8ED7
  5
9333
331
62256
  5
622AE
331
62252
  5
62240
331
6224E
  5
6225A
331
81C7
  5
88BB
331
62246
  5
62253
331
6237A
  5
6224E
331
6223E
  5
62251
331
62237
  5
62252
331
622A2
  5
62304
331
6233B
  5
62378
331
47AF
  5
47AF
331
62266
  5
62303
331
62227
  5
62235
331
622D7
  5
62307
331
6221F
  5
6222B
331
8127
  5
87FF
331
62257
  5
622CA
331
62253
  5
62241
331
6224F
  5
6225B
331
622CA
  5
62306
  0
ACDBDETAILVIEWSTYLE
  5
6062E84
102
{ACAD_XDICTIONARY
360
6062E9C
102
}
102
{ACAD_REACTORS
330
6062E83
102
}
330
6062E83
100
AcDbModelDocViewStyle
 70
     0
  3
Metric50
290
     0
100
AcDbDetailViewStyle
 70
     0
 71
     0
 90
        3
 71
     1
340
12
 62
   256
 40
5.0
340
0
 62
   256
 40
5.0
300

 40
0.0
280
     1
 71
     2
340
8
 90
       25
 62
   256
 71
     3
340
12
 62
   256
 40
5.0
 90
        0
 40
15.0
 90
        1
300
%<\AcVar ViewDetailId>% (%<\AcVar ViewScale \f "%sn">%)
 71
     4
340
8
 90
       25
 62
   256
340
8
 90
       25
 62
   256
280
     0
  0
IMAGEDEF
  5
2BE3
102
{ACAD_REACTORS
330
2BE1
102
}
330
2BE1
100
AcDbRasterImageDef
 90
        0
  1
C:\boot\irunin.bmp
 10
111.0
 20
63.0
 11
0.009009009009009
 21
0.009009009009009
280
     1
281
     0
  0
LAYOUT
  5
A
102
{ACAD_REACTORS
330
B
102
}
330
B
100
AcDbPlotSettings
  1
设置1
  2
\\192.168.1.102\HP LaserJet 1020
  4
A4
  6

 40
4.773083209991455
 41
4.942401409149169
 42
4.815414428710936
 43
4.7730712890625
 44
210.0156707763672
 45
297.0106506347656
 46
0.0
 47
8.162242915879204
 48
4678.397198801646
 49
199.7202550513075
140
4813.122570352224
141
299.3717161006835
142
1.0
143
0.4971953627312283
 70
  3764
 72
     1
 73
     1
 74
     4
  7
acad.ctb
 75
     0
147
2.01128183196788
 76
     1
 77
     2
 78
   300
148
-4678.397198801646
149
-199.7202550513075
100
AcDbLayout
  1
Model
 70
     1
 71
     0
 10
0.0
 20
0.0
 11
12.0
 21
9.0
 12
0.0
 22
0.0
 32
0.0
 14
0.2380952380952381
 24
-0.6113291389338498
 34
0.0
 15
2371.078652631803
 25
1364.802114083393
 35
0.0
146
0.0
 13
0.0
 23
0.0
 33
0.0
 16
1.0
 26
0.0
 36
0.0
 17
0.0
 27
1.0
 37
0.0
 76
     0
330
2
331
62E67
1001
ACAD_PSEXT
1000
\\192.168.1.102\HP LaserJet 1020
1000
HP LaserJet 1020
1000
\\192.168.1.102
1000

1070
     0
1001
AcadStringInfo
1000
MIFCodePage
1070
     5
  0
LAYOUT
  5
F
102
{ACAD_REACTORS
330
B
102
}
330
B
100
AcDbPlotSettings
  1

  2
在 SKF 上自动 HP LaserJet 1020
  4
A4
  6

 40
4.773083209991455
 41
4.942401409149169
 42
4.815414428710936
 43
4.7730712890625
 44
210.0156707763672
 45
297.0106506347656
 46
0.0
 47
0.0
 48
0.0
 49
0.0
140
0.0
141
0.0
142
1.0
143
1.0
 70
   688
 72
     1
 73
     1
 74
     5
  7
acad.ctb
 75
    16
147
1.0
 76
     1
 77
     2
 78
   300
148
0.0
149
0.0
100
AcDbLayout
  1
布局1
 70
     0
 71
     1
 10
-4.7730712890625
 20
-4.773083209991455
 11
292.2375793457031
 21
205.2425875663757
 12
0.0
 22
0.0
 32
0.0
 14
0.0451739414299368
 24
0.0000025706221436
 34
0.0
 15
287.29517394143
 25
200.4000025706222
 35
0.0
146
0.0
 13
0.0
 23
0.0
 33
0.0
 16
1.0
 26
0.0
 36
0.0
 17
0.0
 27
1.0
 37
0.0
 76
     0
330
C
331
99
1001
AcadStringInfo
1000
MIFCodePage
1070
     5
  0
MATERIAL
  5
9837
102
{ACAD_XDICTIONARY
360
9838
102
}
102
{ACAD_REACTORS
330
28
102
}
330
28
100
AcDbMaterial
  1
ByBlock
 72
     0
 43
0.0008202099737533
 43
0.0
 43
0.0
 43
0.0
 43
0.0
 43
0.0008202099737533
 43
0.0
 43
0.0
 43
0.0
 43
0.0
 43
1.0
 43
0.0
 43
0.0
 43
0.0
 43
0.0
 43
1.0
 77
     0
 47
0.0008202099737533
 47
0.0
 47
0.0
 47
0.0
 47
0.0
 47
0.0008202099737533
 47
0.0
 47
0.0
 47
0.0
 47
0.0
 47
1.0
 47
0.0
 47
0.0
 47
0.0
 47
0.0
 47
1.0
171
     0
 49
0.0008202099737533
 49
0.0
 49
0.0
 49
0.0
 49
0.0
 49
0.0008202099737533
 49
0.0
 49
0.0
 49
0.0
 49
0.0
 49
1.0
 49
0.0
 49
0.0
 49
0.0
 49
0.0
 49
1.0
175
     0
142
0.0008202099737533
142
0.0
142
0.0
142
0.0
142
0.0
142
0.0008202099737533
142
0.0
142
0.0
142
0.0
142
0.0
142
1.0
142
0.0
142
0.0
142
0.0
142
0.0
142
1.0
179
     0
144
0.0008202099737533
144
0.0
144
0.0
144
0.0
144
0.0
144
0.0008202099737533
144
0.0
144
0.0
144
0.0
144
0.0
144
1.0
144
0.0
144
0.0
144
0.0
144
0.0
144
1.0
147
0.0008202099737533
147
0.0
147
0.0
147
0.0
147
0.0
147
0.0008202099737533
147
0.0
147
0.0
147
0.0
147
0.0
147
1.0
147
0.0
147
0.0
147
0.0
147
0.0
147
1.0
  0
MATERIAL
  5
982F
102
{ACAD_XDICTIONARY
360
9830
102
}
102
{ACAD_REACTORS
330
28
102
}
330
28
100
AcDbMaterial
  1
ByLayer
 72
     0
 43
0.0008202099737533
 43
0.0
 43
0.0
 43
0.0
 43
0.0
 43
0.0008202099737533
 43
0.0
 43
0.0
 43
0.0
 43
0.0
 43
1.0
 43
0.0
 43
0.0
 43
0.0
 43
0.0
 43
1.0
 77
     0
 47
0.0008202099737533
 47
0.0
 47
0.0
 47
0.0
 47
0.0
 47
0.0008202099737533
 47
0.0
 47
0.0
 47
0.0
 47
0.0
 47
1.0
 47
0.0
 47
0.0
 47
0.0
 47
0.0
 47
1.0
171
     0
 49
0.0008202099737533
 49
0.0
 49
0.0
 49
0.0
 49
0.0
 49
0.0008202099737533
 49
0.0
 49
0.0
 49
0.0
 49
0.0
 49
1.0
 49
0.0
 49
0.0
 49
0.0
 49
0.0
 49
1.0
175
     0
142
0.0008202099737533
142
0.0
142
0.0
142
0.0
142
0.0
142
0.0008202099737533
142
0.0
142
0.0
142
0.0
142
0.0
142
1.0
142
0.0
142
0.0
142
0.0
142
0.0
142
1.0
179
     0
144
0.0008202099737533
144
0.0
144
0.0
144
0.0
144
0.0
144
0.0008202099737533
144
0.0
144
0.0
144
0.0
144
0.0
144
1.0
144
0.0
144
0.0
144
0.0
144
0.0
144
1.0
147
0.0008202099737533
147
0.0
147
0.0
147
0.0
147
0.0
147
0.0008202099737533
147
0.0
147
0.0
147
0.0
147
0.0
147
1.0
147
0.0
147
0.0
147
0.0
147
0.0
147
1.0
  0
MATERIAL
  5
983F
102
{ACAD_XDICTIONARY
360
9840
102
}
102
{ACAD_REACTORS
330
28
102
}
330
28
100
AcDbMaterial
  1
Global
 72
     0
 43
0.0008202099737533
 43
0.0
 43
0.0
 43
0.0
 43
0.0
 43
0.0008202099737533
 43
0.0
 43
0.0
 43
0.0
 43
0.0
 43
1.0
 43
0.0
 43
0.0
 43
0.0
 43
0.0
 43
1.0
 77
     0
 47
0.0008202099737533
 47
0.0
 47
0.0
 47
0.0
 47
0.0
 47
0.0008202099737533
 47
0.0
 47
0.0
 47
0.0
 47
0.0
 47
1.0
 47
0.0
 47
0.0
 47
0.0
 47
0.0
 47
1.0
171
     0
 49
0.0008202099737533
 49
0.0
 49
0.0
 49
0.0
 49
0.0
 49
0.0008202099737533
 49
0.0
 49
0.0
 49
0.0
 49
0.0
 49
1.0
 49
0.0
 49
0.0
 49
0.0
 49
0.0
 49
1.0
175
     0
142
0.0008202099737533
142
0.0
142
0.0
142
0.0
142
0.0
142
0.0008202099737533
142
0.0
142
0.0
142
0.0
142
0.0
142
1.0
142
0.0
142
0.0
142
0.0
142
0.0
142
1.0
179
     0
144
0.0008202099737533
144
0.0
144
0.0
144
0.0
144
0.0
144
0.0008202099737533
144
0.0
144
0.0
144
0.0
144
0.0
144
1.0
144
0.0
144
0.0
144
0.0
144
0.0
144
1.0
147
0.0008202099737533
147
0.0
147
0.0
147
0.0
147
0.0
147
0.0008202099737533
147
0.0
147
0.0
147
0.0
147
0.0
147
1.0
147
0.0
147
0.0
147
0.0
147
0.0
147
1.0
  0
MLEADERSTYLE
  5
987C
102
{ACAD_REACTORS
330
987B
102
}
330
987B
100
AcDbMLeaderStyle
179
     2
170
     2
171
     1
172
     0
 90
        2
 40
0.0
 41
0.0
173
     1
 91
-1056964608
340
16
 92
       -2
290
     1
 42
2.0
291
     1
 43
0.36
  3
Standard
 44
4.0
300

342
12
174
     1
178
     6
175
     1
176
     0
 93
-1056964608
 45
4.0
292
     0
297
     0
 46
4.0
 94
-1056964608
 47
1.0
 49
1.0
140
1.0
293
     1
141
0.0
294
     1
177
     0
142
1.0
295
     0
296
     0
143
0.125
271
     0
272
     9
273
     9
298
     0
1001
ACAD
1000
AcRTDxfName
1000
MLEADERSTYLE
1000
AcRTDxfName
1000
MLEADERSTYLE
1000
AcRTDxfName
1000
MLEADERSTYLE
1000
AcRTDxfName
1000
MLEADERSTYLE
1000
AcRTDxfName
1000
MLEADERSTYLE
1000
AcRTDxfName
1000
MLEADERSTYLE
  0
MLINESTYLE
  5
2A
102
{ACAD_REACTORS
330
26
102
}
330
26
100
AcDbMlineStyle
  2
STANDARD
 70
     0
  3

 62
   256
 51
90.0
 52
90.0
 71
     2
 49
0.5
 62
   256
  6
BYLAYER
 49
-0.5
 62
   256
  6
BYLAYER
  0
PLOTSETTINGS
  5
30A40
102
{ACAD_REACTORS
330
27
102
}
330
27
100
AcDbPlotSettings
  1
设置1
  2
\\192.168.1.102\HP LaserJet 1020
  4
A4
  6

 40
4.773083209991455
 41
4.942401409149169
 42
4.815414428710936
 43
4.7730712890625
 44
210.0156707763672
 45
297.0106506347656
 46
0.0
 47
8.162242915879204
 48
4678.397198801646
 49
199.7202550513075
140
4813.122570352224
141
299.3717161006835
142
1.0
143
0.4971953627312283
 70
  3764
 72
     1
 73
     1
 74
     4
  7
acad.ctb
 75
     0
147
2.01128183196788
 76
     1
 77
     2
 78
   300
148
-4678.397198801646
149
-199.7202550513075
1001
ACAD_PSEXT
1000
\\192.168.1.102\HP LaserJet 1020
1000
HP LaserJet 1020
1000
\\192.168.1.102
1000

1070
     0
1001
AcadStringInfo
1000
MIFCodePage
1070
     5
  0
ACDBPLACEHOLDER
  5
5
102
{ACAD_REACTORS
330
6
102
}
330
6
  0
SCALE
  5
985A
102
{ACAD_REACTORS
330
9859
102
}
330
9859
100
AcDbScale
 70
     0
300
1:1
140
1.0
141
1.0
290
     1
1001
ACAD
1000
AcRTDxfName
1000
SCALE
1000
AcRTDxfName
1000
SCALE
1000
AcRTDxfName
1000
SCALE
1000
AcRTDxfName
1000
SCALE
1000
AcRTDxfName
1000
SCALE
1000
AcRTDxfName
1000
SCALE
  0
SCALE
  5
985B
102
{ACAD_REACTORS
330
9859
102
}
330
9859
100
AcDbScale
 70
     0
300
1:2
140
1.0
141
2.0
290
     0
1001
ACAD
1000
AcRTDxfName
1000
SCALE
1000
AcRTDxfName
1000
SCALE
1000
AcRTDxfName
1000
SCALE
1000
AcRTDxfName
1000
SCALE
1000
AcRTDxfName
1000
SCALE
1000
AcRTDxfName
1000
SCALE
  0
SCALE
  5
985C
102
{ACAD_REACTORS
330
9859
102
}
330
9859
100
AcDbScale
 70
     0
300
1:4
140
1.0
141
4.0
290
     0
1001
ACAD
1000
AcRTDxfName
1000
SCALE
1000
AcRTDxfName
1000
SCALE
1000
AcRTDxfName
1000
SCALE
1000
AcRTDxfName
1000
SCALE
1000
AcRTDxfName
1000
SCALE
1000
AcRTDxfName
1000
SCALE
  0
SCALE
  5
985D
102
{ACAD_REACTORS
330
9859
102
}
330
9859
100
AcDbScale
 70
     0
300
1:5
140
1.0
141
5.0
290
     0
1001
ACAD
1000
AcRTDxfName
1000
SCALE
1000
AcRTDxfName
1000
SCALE
1000
AcRTDxfName
1000
SCALE
1000
AcRTDxfName
1000
SCALE
1000
AcRTDxfName
1000
SCALE
1000
AcRTDxfName
1000
SCALE
  0
SCALE
  5
985E
102
{ACAD_REACTORS
330
9859
102
}
330
9859
100
AcDbScale
 70
     0
300
1:8
140
1.0
141
8.0
290
     0
1001
ACAD
1000
AcRTDxfName
1000
SCALE
1000
AcRTDxfName
1000
SCALE
1000
AcRTDxfName
1000
SCALE
1000
AcRTDxfName
1000
SCALE
1000
AcRTDxfName
1000
SCALE
1000
AcRTDxfName
1000
SCALE
  0
SCALE
  5
985F
102
{ACAD_REACTORS
330
9859
102
}
330
9859
100
AcDbScale
 70
     0
300
1:10
140
1.0
141
10.0
290
     0
1001
ACAD
1000
AcRTDxfName
1000
SCALE
1000
AcRTDxfName
1000
SCALE
1000
AcRTDxfName
1000
SCALE
1000
AcRTDxfName
1000
SCALE
1000
AcRTDxfName
1000
SCALE
1000
AcRTDxfName
1000
SCALE
  0
SCALE
  5
9860
102
{ACAD_REACTORS
330
9859
102
}
330
9859
100
AcDbScale
 70
     0
300
1:16
140
1.0
141
16.0
290
     0
1001
ACAD
1000
AcRTDxfName
1000
SCALE
1000
AcRTDxfName
1000
SCALE
1000
AcRTDxfName
1000
SCALE
1000
AcRTDxfName
1000
SCALE
1000
AcRTDxfName
1000
SCALE
1000
AcRTDxfName
1000
SCALE
  0
SCALE
  5
9861
102
{ACAD_REACTORS
330
9859
102
}
330
9859
100
AcDbScale
 70
     0
300
1:20
140
1.0
141
20.0
290
     0
1001
ACAD
1000
AcRTDxfName
1000
SCALE
1000
AcRTDxfName
1000
SCALE
1000
AcRTDxfName
1000
SCALE
1000
AcRTDxfName
1000
SCALE
1000
AcRTDxfName
1000
SCALE
1000
AcRTDxfName
1000
SCALE
  0
SCALE
  5
9862
102
{ACAD_REACTORS
330
9859
102
}
330
9859
100
AcDbScale
 70
     0
300
1:30
140
1.0
141
30.0
290
     0
1001
ACAD
1000
AcRTDxfName
1000
SCALE
1000
AcRTDxfName
1000
SCALE
1000
AcRTDxfName
1000
SCALE
1000
AcRTDxfName
1000
SCALE
1000
AcRTDxfName
1000
SCALE
1000
AcRTDxfName
1000
SCALE
  0
SCALE
  5
9863
102
{ACAD_REACTORS
330
9859
102
}
330
9859
100
AcDbScale
 70
     0
300
1:40
140
1.0
141
40.0
290
     0
1001
ACAD
1000
AcRTDxfName
1000
SCALE
1000
AcRTDxfName
1000
SCALE
1000
AcRTDxfName
1000
SCALE
1000
AcRTDxfName
1000
SCALE
1000
AcRTDxfName
1000
SCALE
1000
AcRTDxfName
1000
SCALE
  0
SCALE
  5
9864
102
{ACAD_REACTORS
330
9859
102
}
330
9859
100
AcDbScale
 70
     0
300
1:50
140
1.0
141
50.0
290
     0
1001
ACAD
1000
AcRTDxfName
1000
SCALE
1000
AcRTDxfName
1000
SCALE
1000
AcRTDxfName
1000
SCALE
1000
AcRTDxfName
1000
SCALE
1000
AcRTDxfName
1000
SCALE
1000
AcRTDxfName
1000
SCALE
  0
SCALE
  5
9865
102
{ACAD_REACTORS
330
9859
102
}
330
9859
100
AcDbScale
 70
     0
300
1:100
140
1.0
141
100.0
290
     0
1001
ACAD
1000
AcRTDxfName
1000
SCALE
1000
AcRTDxfName
1000
SCALE
1000
AcRTDxfName
1000
SCALE
1000
AcRTDxfName
1000
SCALE
1000
AcRTDxfName
1000
SCALE
1000
AcRTDxfName
1000
SCALE
  0
SCALE
  5
9866
102
{ACAD_REACTORS
330
9859
102
}
330
9859
100
AcDbScale
 70
     0
300
2:1
140
2.0
141
1.0
290
     0
1001
ACAD
1000
AcRTDxfName
1000
SCALE
1000
AcRTDxfName
1000
SCALE
1000
AcRTDxfName
1000
SCALE
1000
AcRTDxfName
1000
SCALE
1000
AcRTDxfName
1000
SCALE
1000
AcRTDxfName
1000
SCALE
  0
SCALE
  5
9867
102
{ACAD_REACTORS
330
9859
102
}
330
9859
100
AcDbScale
 70
     0
300
4:1
140
4.0
141
1.0
290
     0
1001
ACAD
1000
AcRTDxfName
1000
SCALE
1000
AcRTDxfName
1000
SCALE
1000
AcRTDxfName
1000
SCALE
1000
AcRTDxfName
1000
SCALE
1000
AcRTDxfName
1000
SCALE
1000
AcRTDxfName
1000
SCALE
  0
SCALE
  5
9868
102
{ACAD_REACTORS
330
9859
102
}
330
9859
100
AcDbScale
 70
     0
300
8:1
140
8.0
141
1.0
290
     0
1001
ACAD
1000
AcRTDxfName
1000
SCALE
1000
AcRTDxfName
1000
SCALE
1000
AcRTDxfName
1000
SCALE
1000
AcRTDxfName
1000
SCALE
1000
AcRTDxfName
1000
SCALE
1000
AcRTDxfName
1000
SCALE
  0
SCALE
  5
9869
102
{ACAD_REACTORS
330
9859
102
}
330
9859
100
AcDbScale
 70
     0
300
10:1
140
10.0
141
1.0
290
     0
1001
ACAD
1000
AcRTDxfName
1000
SCALE
1000
AcRTDxfName
1000
SCALE
1000
AcRTDxfName
1000
SCALE
1000
AcRTDxfName
1000
SCALE
1000
AcRTDxfName
1000
SCALE
1000
AcRTDxfName
1000
SCALE
  0
SCALE
  5
986A
102
{ACAD_REACTORS
330
9859
102
}
330
9859
100
AcDbScale
 70
     0
300
100:1
140
100.0
141
1.0
290
     0
1001
ACAD
1000
AcRTDxfName
1000
SCALE
1000
AcRTDxfName
1000
SCALE
1000
AcRTDxfName
1000
SCALE
1000
AcRTDxfName
1000
SCALE
1000
AcRTDxfName
1000
SCALE
1000
AcRTDxfName
1000
SCALE
  0
SCALE
  5
986B
102
{ACAD_REACTORS
330
9859
102
}
330
9859
100
AcDbScale
 70
     0
300
1/128" = 1'-0"
140
0.0078125
141
12.0
290
     0
1001
ACAD
1000
AcRTDxfName
1000
SCALE
1000
AcRTDxfName
1000
SCALE
1000
AcRTDxfName
1000
SCALE
1000
AcRTDxfName
1000
SCALE
1000
AcRTDxfName
1000
SCALE
1000
AcRTDxfName
1000
SCALE
  0
SCALE
  5
986C
102
{ACAD_REACTORS
330
9859
102
}
330
9859
100
AcDbScale
 70
     0
300
1/64" = 1'-0"
140
0.015625
141
12.0
290
     0
1001
ACAD
1000
AcRTDxfName
1000
SCALE
1000
AcRTDxfName
1000
SCALE
1000
AcRTDxfName
1000
SCALE
1000
AcRTDxfName
1000
SCALE
1000
AcRTDxfName
1000
SCALE
1000
AcRTDxfName
1000
SCALE
  0
SCALE
  5
986D
102
{ACAD_REACTORS
330
9859
102
}
330
9859
100
AcDbScale
 70
     0
300
1/32" = 1'-0"
140
0.03125
141
12.0
290
     0
1001
ACAD
1000
AcRTDxfName
1000
SCALE
1000
AcRTDxfName
1000
SCALE
1000
AcRTDxfName
1000
SCALE
1000
AcRTDxfName
1000
SCALE
1000
AcRTDxfName
1000
SCALE
1000
AcRTDxfName
1000
SCALE
  0
SCALE
  5
986E
102
{ACAD_REACTORS
330
9859
102
}
330
9859
100
AcDbScale
 70
     0
300
1/16" = 1'-0"
140
0.0625
141
12.0
290
     0
1001
ACAD
1000
AcRTDxfName
1000
SCALE
1000
AcRTDxfName
1000
SCALE
1000
AcRTDxfName
1000
SCALE
1000
AcRTDxfName
1000
SCALE
1000
AcRTDxfName
1000
SCALE
1000
AcRTDxfName
1000
SCALE
  0
SCALE
  5
986F
102
{ACAD_REACTORS
330
9859
102
}
330
9859
100
AcDbScale
 70
     0
300
3/32" = 1'-0"
140
0.09375
141
12.0
290
     0
1001
ACAD
1000
AcRTDxfName
1000
SCALE
1000
AcRTDxfName
1000
SCALE
1000
AcRTDxfName
1000
SCALE
1000
AcRTDxfName
1000
SCALE
1000
AcRTDxfName
1000
SCALE
1000
AcRTDxfName
1000
SCALE
  0
SCALE
  5
9870
102
{ACAD_REACTORS
330
9859
102
}
330
9859
100
AcDbScale
 70
     0
300
1/8" = 1'-0"
140
0.125
141
12.0
290
     0
1001
ACAD
1000
AcRTDxfName
1000
SCALE
1000
AcRTDxfName
1000
SCALE
1000
AcRTDxfName
1000
SCALE
1000
AcRTDxfName
1000
SCALE
1000
AcRTDxfName
1000
SCALE
1000
AcRTDxfName
1000
SCALE
  0
SCALE
  5
9871
102
{ACAD_REACTORS
330
9859
102
}
330
9859
100
AcDbScale
 70
     0
300
3/16" = 1'-0"
140
0.1875
141
12.0
290
     0
1001
ACAD
1000
AcRTDxfName
1000
SCALE
1000
AcRTDxfName
1000
SCALE
1000
AcRTDxfName
1000
SCALE
1000
AcRTDxfName
1000
SCALE
1000
AcRTDxfName
1000
SCALE
1000
AcRTDxfName
1000
SCALE
  0
SCALE
  5
9872
102
{ACAD_REACTORS
330
9859
102
}
330
9859
100
AcDbScale
 70
     0
300
1/4" = 1'-0"
140
0.25
141
12.0
290
     0
1001
ACAD
1000
AcRTDxfName
1000
SCALE
1000
AcRTDxfName
1000
SCALE
1000
AcRTDxfName
1000
SCALE
1000
AcRTDxfName
1000
SCALE
1000
AcRTDxfName
1000
SCALE
1000
AcRTDxfName
1000
SCALE
  0
SCALE
  5
9873
102
{ACAD_REACTORS
330
9859
102
}
330
9859
100
AcDbScale
 70
     0
300
3/8" = 1'-0"
140
0.375
141
12.0
290
     0
1001
ACAD
1000
AcRTDxfName
1000
SCALE
1000
AcRTDxfName
1000
SCALE
1000
AcRTDxfName
1000
SCALE
1000
AcRTDxfName
1000
SCALE
1000
AcRTDxfName
1000
SCALE
1000
AcRTDxfName
1000
SCALE
  0
SCALE
  5
9874
102
{ACAD_REACTORS
330
9859
102
}
330
9859
100
AcDbScale
 70
     0
300
1/2" = 1'-0"
140
0.5
141
12.0
290
     0
1001
ACAD
1000
AcRTDxfName
1000
SCALE
1000
AcRTDxfName
1000
SCALE
1000
AcRTDxfName
1000
SCALE
1000
AcRTDxfName
1000
SCALE
1000
AcRTDxfName
1000
SCALE
1000
AcRTDxfName
1000
SCALE
  0
SCALE
  5
9875
102
{ACAD_REACTORS
330
9859
102
}
330
9859
100
AcDbScale
 70
     0
300
3/4" = 1'-0"
140
0.75
141
12.0
290
     0
1001
ACAD
1000
AcRTDxfName
1000
SCALE
1000
AcRTDxfName
1000
SCALE
1000
AcRTDxfName
1000
SCALE
1000
AcRTDxfName
1000
SCALE
1000
AcRTDxfName
1000
SCALE
1000
AcRTDxfName
1000
SCALE
  0
SCALE
  5
9876
102
{ACAD_REACTORS
330
9859
102
}
330
9859
100
AcDbScale
 70
     0
300
1" = 1'-0"
140
1.0
141
12.0
290
     0
1001
ACAD
1000
AcRTDxfName
1000
SCALE
1000
AcRTDxfName
1000
SCALE
1000
AcRTDxfName
1000
SCALE
1000
AcRTDxfName
1000
SCALE
1000
AcRTDxfName
1000
SCALE
1000
AcRTDxfName
1000
SCALE
  0
SCALE
  5
9877
102
{ACAD_REACTORS
330
9859
102
}
330
9859
100
AcDbScale
 70
     0
300
1-1/2" = 1'-0"
140
1.5
141
12.0
290
     0
1001
ACAD
1000
AcRTDxfName
1000
SCALE
1000
AcRTDxfName
1000
SCALE
1000
AcRTDxfName
1000
SCALE
1000
AcRTDxfName
1000
SCALE
1000
AcRTDxfName
1000
SCALE
1000
AcRTDxfName
1000
SCALE
  0
SCALE
  5
9878
102
{ACAD_REACTORS
330
9859
102
}
330
9859
100
AcDbScale
 70
     0
300
3" = 1'-0"
140
3.0
141
12.0
290
     0
1001
ACAD
1000
AcRTDxfName
1000
SCALE
1000
AcRTDxfName
1000
SCALE
1000
AcRTDxfName
1000
SCALE
1000
AcRTDxfName
1000
SCALE
1000
AcRTDxfName
1000
SCALE
1000
AcRTDxfName
1000
SCALE
  0
SCALE
  5
9879
102
{ACAD_REACTORS
330
9859
102
}
330
9859
100
AcDbScale
 70
     0
300
6" = 1'-0"
140
6.0
141
12.0
290
     0
1001
ACAD
1000
AcRTDxfName
1000
SCALE
1000
AcRTDxfName
1000
SCALE
1000
AcRTDxfName
1000
SCALE
1000
AcRTDxfName
1000
SCALE
1000
AcRTDxfName
1000
SCALE
1000
AcRTDxfName
1000
SCALE
  0
SCALE
  5
987A
102
{ACAD_REACTORS
330
9859
102
}
330
9859
100
AcDbScale
 70
     0
300
1'-0" = 1'-0"
140
12.0
141
12.0
290
     0
1001
ACAD
1000
AcRTDxfName
1000
SCALE
1000
AcRTDxfName
1000
SCALE
1000
AcRTDxfName
1000
SCALE
1000
AcRTDxfName
1000
SCALE
1000
AcRTDxfName
1000
SCALE
1000
AcRTDxfName
1000
SCALE
  0
ACDBSECTIONVIEWSTYLE
  5
6062E82
102
{ACAD_XDICTIONARY
360
6062E9A
102
}
102
{ACAD_REACTORS
330
6062E80
102
}
330
6062E80
100
AcDbModelDocViewStyle
 70
     0
  3
Metric50
290
     0
100
AcDbSectionViewStyle
 70
     0
 71
     0
 90
      102
 71
     1
340
12
 62
   256
 40
5.0
340
0
340
0
 62
   256
 40
5.0
300
I, O, Q, S, X, Z
 40
10.0
 90
        0
 40
2.5
 90
        0
 71
     2
340
8
 90
       25
 62
   256
340
8
 90
       50
 62
   256
 40
5.0
 40
2.5
 40
5.0
 71
     3
340
12
 62
   256
 40
5.0
 90
        0
 40
15.0
 90
        1
300
%<\AcVar ViewSectionStartId>%-%<\AcVar ViewSectionEndId>% (%<\AcVar ViewScale \f "%sn">%)
 71
     4
 62
   256
 62
   257
300
ANSI31
 40
1.0
 90
        0
290
     0
290
     0
 90
        6
 40
0.0
 40
1.570796326794896
 40
0.2617993877991494
 40
1.308996938995747
 40
-0.2617993877991494
 40
1.832595714594046
  0
TABLESTYLE
  5
9858
102
{ACAD_XDICTIONARY
360
B800
102
}
102
{ACAD_REACTORS
330
46A6
102
}
330
46A6
100
AcDbTableStyle
280
     0
  3
Standard
 70
     0
 71
     0
 40
1.5
 41
1.5
280
     0
281
     0
  7
Standard
140
4.5
170
     2
 62
     0
 63
     7
283
     0
 90
      512
 91
        0
  1

274
    -2
284
     1
 64
     0
275
    -2
285
     1
 65
     0
276
    -2
286
     1
 66
     0
277
    -2
287
     1
 67
     0
278
    -2
288
     1
 68
     0
279
    -2
289
     1
 69
     0
  7
Standard
140
6.0
170
     5
 62
     0
 63
     7
283
     0
 90
      512
 91
        0
  1

274
    -2
284
     1
 64
     0
275
    -2
285
     1
 65
     0
276
    -2
286
     1
 66
     0
277
    -2
287
     1
 67
     0
278
    -2
288
     1
 68
     0
279
    -2
289
     1
 69
     0
  7
Standard
140
4.5
170
     5
 62
     0
 63
     7
283
     0
 90
      512
 91
        0
  1

274
    -2
284
     1
 64
     0
275
    -2
285
     1
 65
     0
276
    -2
286
     1
 66
     0
277
    -2
287
     1
 67
     0
278
    -2
288
     1
 68
     0
279
    -2
289
     1
 69
     0
  0
VISUALSTYLE
  5
984D
102
{ACAD_REACTORS
330
9847
102
}
330
9847
100
AcDbVisualStyle
  2
2dWireframe
 70
     4
177
     3
291
     0
 70
    58
 90
        0
176
     1
 90
        2
176
     1
 90
        0
176
     1
 90
        0
176
     1
 40
0.6
176
     1
 40
30.0
176
     1
 62
     7
176
     1
 90
        1
176
     1
 90
        4
176
     1
 62
     7
176
     1
 62
   257
176
     1
 90
        1
176
     1
 90
        1
176
     1
 40
1.0
176
     1
 90
        0
176
     1
 62
   257
176
     1
 40
1.0
176
     1
 90
        1
176
     1
 90
        6
176
     1
 90
        2
176
     1
 62
     7
176
     1
 90
        5
176
     1
 90
        0
176
     1
 90
        0
176
     1
290
     0
176
     1
 90
        1
176
     1
 40
0.0
176
     1
 90
        0
176
     1
290
     1
176
     1
290
     1
176
     1
290
     0
176
     1
290
     0
176
     1
290
     0
176
     1
290
     0
176
     1
290
     0
176
     1
290
     0
176
     1
290
     0
176
     1
 90
       50
176
     1
 40
0.0
176
     1
 40
1.0
176
     1
 90
        0
176
     1
 62
    18
420
        0
176
     1
 90
       50
176
     1
 90
        3
176
     1
 62
     5
420
      255
176
     1
290
     0
176
     1
 90
       50
176
     1
 90
       50
176
     1
 90
       50
176
     1
290
     0
176
     1
 90
       50
176
     1
 62
   256
176
     0
 40
1.0
176
     0
 90
        2
176
     1
  1
strokes_ogs.tif
176
     1
290
     0
176
     1
 40
1.0
176
     1
 40
1.0
176
     1
1001
ACAD
1000
AcRTDxfName
1000
VISUALSTYLE
1000
AcRTDxfName
1000
VISUALSTYLE
1000
AcRTDxfName
1000
VISUALSTYLE
1000
AcRTDxfName
1000
VISUALSTYLE
1000
AcRTDxfName
1000
VISUALSTYLE
1000
AcRTDxfName
1000
VISUALSTYLE
  0
VISUALSTYLE
  5
984F
102
{ACAD_REACTORS
330
9847
102
}
330
9847
100
AcDbVisualStyle
  2
3D Hidden
 70
     6
177
     3
291
     0
 70
    58
 90
        1
176
     1
 90
        2
176
     1
 90
        2
176
     1
 90
        0
176
     1
 40
0.6
176
     1
 40
30.0
176
     1
 62
     7
176
     1
 90
        2
176
     1
 90
        2
176
     1
 62
     7
176
     1
 62
   257
176
     1
 90
        2
176
     1
 90
        1
176
     1
 40
40.0
176
     1
 90
        0
176
     1
 62
   257
176
     1
 40
1.0
176
     1
 90
        1
176
     1
 90
        6
176
     1
 90
        2
176
     1
 62
     7
176
     1
 90
        3
176
     1
 90
        0
176
     1
 90
        0
176
     1
290
     0
176
     1
 90
        1
176
     1
 40
0.0
176
     1
 90
        0
176
     1
290
     0
176
     1
290
     1
176
     1
290
     1
176
     1
290
     0
176
     1
290
     0
176
     1
290
     0
176
     1
290
     0
176
     1
290
     0
176
     1
290
     0
176
     1
 90
       50
176
     1
 40
0.0
176
     1
 40
1.0
176
     1
 90
        0
176
     1
 62
    18
420
        0
176
     1
 90
       50
176
     1
 90
        3
176
     1
 62
     5
420
      255
176
     1
290
     0
176
     1
 90
       50
176
     1
 90
       50
176
     1
 90
       50
176
     1
290
     0
176
     1
 90
       50
176
     1
 62
   256
176
     0
 40
1.0
176
     0
 90
        2
176
     1
  1
strokes_ogs.tif
176
     1
290
     0
176
     1
 40
1.0
176
     1
 40
1.0
176
     1
1001
ACAD
1000
AcRTDxfName
1000
VISUALSTYLE
1000
AcRTDxfName
1000
VISUALSTYLE
1000
AcRTDxfName
1000
VISUALSTYLE
1000
AcRTDxfName
1000
VISUALSTYLE
1000
AcRTDxfName
1000
VISUALSTYLE
1000
AcRTDxfName
1000
VISUALSTYLE
  0
VISUALSTYLE
  5
984E
102
{ACAD_REACTORS
330
9847
102
}
330
9847
100
AcDbVisualStyle
  2
3dWireframe
 70
     5
177
     3
291
     0
 70
    58
 90
        0
176
     1
 90
        2
176
     1
 90
        0
176
     1
 90
        0
176
     1
 40
0.6
176
     1
 40
30.0
176
     1
 62
     7
176
     1
 90
        1
176
     1
 90
        4
176
     1
 62
     7
176
     1
 62
   257
176
     1
 90
        1
176
     1
 90
        1
176
     1
 40
1.0
176
     1
 90
        0
176
     1
 62
   257
176
     1
 40
1.0
176
     1
 90
        1
176
     1
 90
        6
176
     1
 90
        2
176
     1
 62
     7
176
     1
 90
        5
176
     1
 90
        0
176
     1
 90
        0
176
     1
290
     0
176
     1
 90
        1
176
     1
 40
0.0
176
     1
 90
        0
176
     1
290
     0
176
     1
290
     1
176
     1
290
     1
176
     1
290
     0
176
     1
290
     0
176
     1
290
     0
176
     1
290
     0
176
     1
290
     0
176
     1
290
     0
176
     1
 90
       50
176
     1
 40
0.0
176
     1
 40
1.0
176
     1
 90
        0
176
     1
 62
    18
420
        0
176
     1
 90
       50
176
     1
 90
        3
176
     1
 62
     5
420
      255
176
     1
290
     0
176
     1
 90
       50
176
     1
 90
       50
176
     1
 90
       50
176
     1
290
     0
176
     1
 90
       50
176
     1
 62
   256
176
     0
 40
1.0
176
     0
 90
        2
176
     1
  1
strokes_ogs.tif
176
     1
290
     0
176
     1
 40
1.0
176
     1
 40
1.0
176
     1
1001
ACAD
1000
AcRTDxfName
1000
VISUALSTYLE
1000
AcRTDxfName
1000
VISUALSTYLE
1000
AcRTDxfName
1000
VISUALSTYLE
1000
AcRTDxfName
1000
VISUALSTYLE
1000
AcRTDxfName
1000
VISUALSTYLE
1000
AcRTDxfName
1000
VISUALSTYLE
  0
VISUALSTYLE
  5
984C
102
{ACAD_REACTORS
330
9847
102
}
330
9847
100
AcDbVisualStyle
  2
Basic
 70
     7
177
     3
291
     1
 70
    58
 90
        1
176
     1
 90
        0
176
     1
 90
        1
176
     1
 90
        0
176
     1
 40
0.6
176
     1
 40
30.0
176
     1
 62
     7
176
     1
 90
        0
176
     1
 90
        4
176
     1
 62
     7
176
     1
 62
   257
176
     1
 90
        1
176
     1
 90
        1
176
     1
 40
1.0
176
     1
 90
        8
176
     1
 62
     7
176
     1
 40
1.0
176
     1
 90
        1
176
     1
 90
        6
176
     1
 90
        2
176
     1
 62
     7
176
     1
 90
        5
176
     1
 90
        0
176
     1
 90
        0
176
     1
290
     0
176
     1
 90
        1
176
     1
 40
0.0
176
     1
 90
        0
176
     1
290
     0
176
     1
290
     1
176
     1
290
     1
176
     1
290
     0
176
     1
290
     0
176
     1
290
     0
176
     1
290
     0
176
     1
290
     0
176
     1
290
     0
176
     1
 90
       50
176
     1
 40
0.0
176
     1
 40
1.0
176
     1
 90
        0
176
     1
 62
    18
420
        0
176
     1
 90
       50
176
     1
 90
        3
176
     1
 62
     5
420
      255
176
     1
290
     0
176
     1
 90
       50
176
     1
 90
       50
176
     1
 90
       50
176
     1
290
     0
176
     1
 90
       50
176
     1
 62
   256
176
     0
 40
1.0
176
     0
 90
        2
176
     1
  1
strokes_ogs.tif
176
     1
290
     0
176
     1
 40
1.0
176
     1
 40
1.0
176
     1
1001
ACAD
1000
AcRTDxfName
1000
VISUALSTYLE
1000
AcRTDxfName
1000
VISUALSTYLE
1000
AcRTDxfName
1000
VISUALSTYLE
1000
AcRTDxfName
1000
VISUALSTYLE
1000
AcRTDxfName
1000
VISUALSTYLE
1000
AcRTDxfName
1000
VISUALSTYLE
  0
VISUALSTYLE
  5
9853
102
{ACAD_REACTORS
330
9847
102
}
330
9847
100
AcDbVisualStyle
  2
Brighten
 70
    12
177
     3
291
     1
 70
    58
 90
        2
176
     1
 90
        2
176
     1
 90
        0
176
     1
 90
        0
176
     1
 40
0.6
176
     1
 40
30.0
176
     1
 62
     7
176
     1
 90
        1
176
     1
 90
        4
176
     1
 62
     7
176
     1
 62
   257
176
     1
 90
        1
176
     1
 90
        1
176
     1
 40
1.0
176
     1
 90
        8
176
     1
 62
     7
176
     1
 40
1.0
176
     1
 90
        1
176
     1
 90
        6
176
     1
 90
        2
176
     1
 62
     7
176
     1
 90
        5
176
     1
 90
        0
176
     1
 90
        0
176
     1
290
     0
176
     1
 90
        1
176
     1
 40
50.0
176
     1
 90
        0
176
     1
290
     0
176
     1
290
     1
176
     1
290
     1
176
     1
290
     0
176
     1
290
     0
176
     1
290
     0
176
     1
290
     0
176
     1
290
     0
176
     1
290
     0
176
     1
 90
       50
176
     1
 40
0.0
176
     1
 40
1.0
176
     1
 90
        0
176
     1
 62
    18
420
        0
176
     1
 90
       50
176
     1
 90
        3
176
     1
 62
     5
420
      255
176
     1
290
     0
176
     1
 90
       50
176
     1
 90
       50
176
     1
 90
       50
176
     1
290
     0
176
     1
 90
       50
176
     1
 62
   256
176
     0
 40
1.0
176
     0
 90
        2
176
     1
  1
strokes_ogs.tif
176
     1
290
     0
176
     1
 40
1.0
176
     1
 40
1.0
176
     1
1001
ACAD
1000
AcRTDxfName
1000
VISUALSTYLE
1000
AcRTDxfName
1000
VISUALSTYLE
1000
AcRTDxfName
1000
VISUALSTYLE
1000
AcRTDxfName
1000
VISUALSTYLE
1000
AcRTDxfName
1000
VISUALSTYLE
1000
AcRTDxfName
1000
VISUALSTYLE
  0
VISUALSTYLE
  5
9857
102
{ACAD_REACTORS
330
9847
102
}
330
9847
100
AcDbVisualStyle
  2
ColorChange
 70
    16
177
     3
291
     1
 70
    58
 90
        2
176
     1
 90
        2
176
     1
 90
        3
176
     1
 90
        0
176
     1
 40
0.6
176
     1
 40
30.0
176
     1
 62
     8
176
     1
 90
        1
176
     1
 90
        4
176
     1
 62
     7
176
     1
 62
   257
176
     1
 90
        1
176
     1
 90
        1
176
     1
 40
1.0
176
     1
 90
        8
176
     1
 62
     8
176
     1
 40
1.0
176
     1
 90
        1
176
     1
 90
        6
176
     1
 90
        2
176
     1
 62
     7
176
     1
 90
        5
176
     1
 90
        0
176
     1
 90
        0
176
     1
290
     0
176
     1
 90
        1
176
     1
 40
0.0
176
     1
 90
        0
176
     1
290
     0
176
     1
290
     1
176
     1
290
     1
176
     1
290
     0
176
     1
290
     0
176
     1
290
     0
176
     1
290
     0
176
     1
290
     0
176
     1
290
     0
176
     1
 90
       50
176
     1
 40
0.0
176
     1
 40
1.0
176
     1
 90
        0
176
     1
 62
    18
420
        0
176
     1
 90
       50
176
     1
 90
        3
176
     1
 62
     5
420
      255
176
     1
290
     0
176
     1
 90
       50
176
     1
 90
       50
176
     1
 90
       50
176
     1
290
     0
176
     1
 90
       50
176
     1
 62
   256
176
     0
 40
1.0
176
     0
 90
        2
176
     1
  1
strokes_ogs.tif
176
     1
290
     0
176
     1
 40
1.0
176
     1
 40
1.0
176
     1
1001
ACAD
1000
AcRTDxfName
1000
VISUALSTYLE
1000
AcRTDxfName
1000
VISUALSTYLE
1000
AcRTDxfName
1000
VISUALSTYLE
1000
AcRTDxfName
1000
VISUALSTYLE
1000
AcRTDxfName
1000
VISUALSTYLE
1000
AcRTDxfName
1000
VISUALSTYLE
  0
VISUALSTYLE
  5
9850
102
{ACAD_REACTORS
330
9847
102
}
330
9847
100
AcDbVisualStyle
  2
Conceptual
 70
     9
177
     3
291
     0
 70
    58
 90
        3
176
     1
 90
        2
176
     1
 90
        0
176
     1
 90
        0
176
     1
 40
0.6
176
     1
 40
30.0
176
     1
 62
     7
176
     1
 90
        2
176
     1
 90
        2
176
     1
 62
     7
176
     1
 62
   257
176
     1
 90
        1
176
     1
 90
        1
176
     1
 40
40.0
176
     1
 90
        8
176
     1
 62
     7
176
     1
 40
1.0
176
     1
 90
        1
176
     1
 90
        6
176
     1
 90
        2
176
     1
 62
     7
176
     1
 90
        3
176
     1
 90
        0
176
     1
 90
        0
176
     1
290
     0
176
     1
 90
        1
176
     1
 40
0.0
176
     1
 90
        0
176
     1
290
     0
176
     1
290
     1
176
     1
290
     1
176
     1
290
     0
176
     1
290
     0
176
     1
290
     0
176
     1
290
     0
176
     1
290
     0
176
     1
290
     0
176
     1
 90
       50
176
     1
 40
0.0
176
     1
 40
1.0
176
     1
 90
        0
176
     1
 62
    18
420
        0
176
     1
 90
       50
176
     1
 90
        3
176
     1
 62
     5
420
      255
176
     1
290
     0
176
     1
 90
       50
176
     1
 90
       50
176
     1
 90
       50
176
     1
290
     0
176
     1
 90
       50
176
     1
 62
   256
176
     0
 40
1.0
176
     0
 90
        2
176
     1
  1
strokes_ogs.tif
176
     1
290
     0
176
     1
 40
1.0
176
     1
 40
1.0
176
     1
1001
ACAD
1000
AcRTDxfName
1000
VISUALSTYLE
1000
AcRTDxfName
1000
VISUALSTYLE
1000
AcRTDxfName
1000
VISUALSTYLE
1000
AcRTDxfName
1000
VISUALSTYLE
1000
AcRTDxfName
1000
VISUALSTYLE
1000
AcRTDxfName
1000
VISUALSTYLE
  0
VISUALSTYLE
  5
9852
102
{ACAD_REACTORS
330
9847
102
}
330
9847
100
AcDbVisualStyle
  2
Dim
 70
    11
177
     3
291
     1
 70
    58
 90
        2
176
     1
 90
        2
176
     1
 90
        0
176
     1
 90
        0
176
     1
 40
0.6
176
     1
 40
30.0
176
     1
 62
     7
176
     1
 90
        1
176
     1
 90
        4
176
     1
 62
     7
176
     1
 62
   257
176
     1
 90
        1
176
     1
 90
        1
176
     1
 40
1.0
176
     1
 90
        8
176
     1
 62
     7
176
     1
 40
1.0
176
     1
 90
        1
176
     1
 90
        6
176
     1
 90
        2
176
     1
 62
     7
176
     1
 90
        5
176
     1
 90
        0
176
     1
 90
        0
176
     1
290
     0
176
     1
 90
        1
176
     1
 40
-50.0
176
     1
 90
        0
176
     1
290
     0
176
     1
290
     1
176
     1
290
     1
176
     1
290
     0
176
     1
290
     0
176
     1
290
     0
176
     1
290
     0
176
     1
290
     0
176
     1
290
     0
176
     1
 90
       50
176
     1
 40
0.0
176
     1
 40
1.0
176
     1
 90
        0
176
     1
 62
    18
420
        0
176
     1
 90
       50
176
     1
 90
        3
176
     1
 62
     5
420
      255
176
     1
290
     0
176
     1
 90
       50
176
     1
 90
       50
176
     1
 90
       50
176
     1
290
     0
176
     1
 90
       50
176
     1
 62
   256
176
     0
 40
1.0
176
     0
 90
        2
176
     1
  1
strokes_ogs.tif
176
     1
290
     0
176
     1
 40
1.0
176
     1
 40
1.0
176
     1
1001
ACAD
1000
AcRTDxfName
1000
VISUALSTYLE
1000
AcRTDxfName
1000
VISUALSTYLE
1000
AcRTDxfName
1000
VISUALSTYLE
1000
AcRTDxfName
1000
VISUALSTYLE
1000
AcRTDxfName
1000
VISUALSTYLE
1000
AcRTDxfName
1000
VISUALSTYLE
  0
VISUALSTYLE
  5
6062E7F
102
{ACAD_REACTORS
330
9847
102
}
330
9847
100
AcDbVisualStyle
  2
EdgeColorOff
 70
    22
177
     3
291
     1
 70
    58
 90
        2
176
     0
 90
        2
176
     0
 90
        0
176
     0
 90
        0
176
     0
 40
0.6
176
     0
 40
30.0
176
     0
 62
     7
420
 16777215
176
     0
 90
        1
176
     0
 90
        4
176
     0
 62
     7
176
     0
 62
   257
176
     0
 90
        1
176
     0
 90
        1
176
     0
 40
1.0
176
     0
 90
        8
176
     2
 62
     7
176
     0
 40
1.0
176
     0
 90
        1
176
     0
 90
        6
176
     0
 90
        2
176
     0
 62
     7
176
     0
 90
        5
176
     0
 90
        0
176
     0
 90
        0
176
     0
290
     0
176
     0
 90
        1
176
     0
 40
0.0
176
     0
 90
        0
176
     0
290
     0
176
     0
290
     1
176
     0
290
     1
176
     0
290
     0
176
     0
290
     0
176
     0
290
     0
176
     0
290
     0
176
     0
290
     0
176
     0
290
     0
176
     0
 90
       50
176
     0
 40
0.0
176
     0
 40
1.0
176
     0
 90
        0
176
     0
 62
    18
420
        0
176
     0
 90
       50
176
     0
 90
        3
176
     0
 62
     5
420
      255
176
     0
290
     0
176
     0
 90
       50
176
     0
 90
       50
176
     0
 90
       50
176
     0
290
     0
176
     0
 90
       50
176
     0
 62
   256
176
     0
 40
1.0
176
     0
 90
        2
176
     0
  1
strokes_ogs.tif
176
     0
290
     0
176
     0
 40
1.0
176
     0
 40
1.0
176
     0
  0
VISUALSTYLE
  5
9856
102
{ACAD_REACTORS
330
9847
102
}
330
9847
100
AcDbVisualStyle
  2
Facepattern
 70
    15
177
     3
291
     1
 70
    58
 90
        2
176
     1
 90
        2
176
     1
 90
        0
176
     1
 90
        0
176
     1
 40
0.6
176
     1
 40
30.0
176
     1
 62
     7
176
     1
 90
        1
176
     1
 90
        4
176
     1
 62
     7
176
     1
 62
   257
176
     1
 90
        1
176
     1
 90
        1
176
     1
 40
1.0
176
     1
 90
        8
176
     1
 62
     7
176
     1
 40
1.0
176
     1
 90
        1
176
     1
 90
        6
176
     1
 90
        2
176
     1
 62
     7
176
     1
 90
        5
176
     1
 90
        0
176
     1
 90
        0
176
     1
290
     0
176
     1
 90
        1
176
     1
 40
0.0
176
     1
 90
        0
176
     1
290
     0
176
     1
290
     1
176
     1
290
     1
176
     1
290
     0
176
     1
290
     0
176
     1
290
     0
176
     1
290
     0
176
     1
290
     0
176
     1
290
     0
176
     1
 90
       50
176
     1
 40
0.0
176
     1
 40
1.0
176
     1
 90
        0
176
     1
 62
    18
420
        0
176
     1
 90
       50
176
     1
 90
        3
176
     1
 62
     5
420
      255
176
     1
290
     0
176
     1
 90
       50
176
     1
 90
       50
176
     1
 90
       50
176
     1
290
     0
176
     1
 90
       50
176
     1
 62
   256
176
     0
 40
1.0
176
     0
 90
        2
176
     1
  1
strokes_ogs.tif
176
     1
290
     0
176
     1
 40
1.0
176
     1
 40
1.0
176
     1
1001
ACAD
1000
AcRTDxfName
1000
VISUALSTYLE
1000
AcRTDxfName
1000
VISUALSTYLE
1000
AcRTDxfName
1000
VISUALSTYLE
1000
AcRTDxfName
1000
VISUALSTYLE
1000
AcRTDxfName
1000
VISUALSTYLE
1000
AcRTDxfName
1000
VISUALSTYLE
  0
VISUALSTYLE
  5
9848
102
{ACAD_REACTORS
330
9847
102
}
330
9847
100
AcDbVisualStyle
  2
Flat
 70
     0
177
     3
291
     1
 70
    58
 90
        2
176
     1
 90
        1
176
     1
 90
        1
176
     1
 90
        2
176
     1
 40
0.6
176
     1
 40
30.0
176
     1
 62
     7
176
     1
 90
        0
176
     1
 90
        4
176
     1
 62
     7
176
     1
 62
   257
176
     1
 90
        1
176
     1
 90
        1
176
     1
 40
1.0
176
     1
 90
        8
176
     1
 62
     7
176
     1
 40
1.0
176
     1
 90
        1
176
     1
 90
        6
176
     1
 90
        2
176
     1
 62
     7
176
     1
 90
        5
176
     1
 90
        0
176
     1
 90
        0
176
     1
290
     0
176
     1
 90
       13
176
     1
 40
0.0
176
     1
 90
        0
176
     1
290
     0
176
     1
290
     1
176
     1
290
     1
176
     1
290
     0
176
     1
290
     0
176
     1
290
     0
176
     1
290
     0
176
     1
290
     0
176
     1
290
     0
176
     1
 90
       50
176
     1
 40
0.0
176
     1
 40
1.0
176
     1
 90
        0
176
     1
 62
    18
420
        0
176
     1
 90
       50
176
     1
 90
        3
176
     1
 62
     5
420
      255
176
     1
290
     0
176
     1
 90
       50
176
     1
 90
       50
176
     1
 90
       50
176
     1
290
     0
176
     1
 90
       50
176
     1
 62
   256
176
     0
 40
1.0
176
     0
 90
        2
176
     1
  1
strokes_ogs.tif
176
     1
290
     0
176
     1
 40
1.0
176
     1
 40
1.0
176
     1
1001
ACAD
1000
AcRTDxfName
1000
VISUALSTYLE
1000
AcRTDxfName
1000
VISUALSTYLE
1000
AcRTDxfName
1000
VISUALSTYLE
1000
AcRTDxfName
1000
VISUALSTYLE
1000
AcRTDxfName
1000
VISUALSTYLE
1000
AcRTDxfName
1000
VISUALSTYLE
  0
VISUALSTYLE
  5
9849
102
{ACAD_REACTORS
330
9847
102
}
330
9847
100
AcDbVisualStyle
  2
FlatWithEdges
 70
     1
177
     3
291
     1
 70
    58
 90
        2
176
     1
 90
        1
176
     1
 90
        1
176
     1
 90
        2
176
     1
 40
0.6
176
     1
 40
30.0
176
     1
 62
     7
176
     1
 90
        1
176
     1
 90
        4
176
     1
 62
     7
176
     1
 62
   257
176
     1
 90
        1
176
     1
 90
        1
176
     1
 40
1.0
176
     1
 90
        0
176
     1
 62
   257
176
     1
 40
1.0
176
     1
 90
        1
176
     1
 90
        6
176
     1
 90
        2
176
     1
 62
     7
176
     1
 90
        5
176
     1
 90
        0
176
     1
 90
        0
176
     1
290
     0
176
     1
 90
       13
176
     1
 40
0.0
176
     1
 90
        0
176
     1
290
     0
176
     1
290
     1
176
     1
290
     1
176
     1
290
     0
176
     1
290
     0
176
     1
290
     0
176
     1
290
     0
176
     1
290
     0
176
     1
290
     0
176
     1
 90
       50
176
     1
 40
0.0
176
     1
 40
1.0
176
     1
 90
        0
176
     1
 62
    18
420
        0
176
     1
 90
       50
176
     1
 90
        3
176
     1
 62
     5
420
      255
176
     1
290
     0
176
     1
 90
       50
176
     1
 90
       50
176
     1
 90
       50
176
     1
290
     0
176
     1
 90
       50
176
     1
 62
   256
176
     0
 40
1.0
176
     0
 90
        2
176
     1
  1
strokes_ogs.tif
176
     1
290
     0
176
     1
 40
1.0
176
     1
 40
1.0
176
     1
1001
ACAD
1000
AcRTDxfName
1000
VISUALSTYLE
1000
AcRTDxfName
1000
VISUALSTYLE
1000
AcRTDxfName
1000
VISUALSTYLE
1000
AcRTDxfName
1000
VISUALSTYLE
1000
AcRTDxfName
1000
VISUALSTYLE
1000
AcRTDxfName
1000
VISUALSTYLE
  0
VISUALSTYLE
  5
984A
102
{ACAD_REACTORS
330
9847
102
}
330
9847
100
AcDbVisualStyle
  2
Gouraud
 70
     2
177
     3
291
     1
 70
    58
 90
        2
176
     1
 90
        2
176
     1
 90
        1
176
     1
 90
        2
176
     1
 40
0.6
176
     1
 40
30.0
176
     1
 62
     7
176
     1
 90
        0
176
     1
 90
        4
176
     1
 62
     7
176
     1
 62
   257
176
     1
 90
        1
176
     1
 90
        1
176
     1
 40
1.0
176
     1
 90
        0
176
     1
 62
     7
176
     1
 40
1.0
176
     1
 90
        1
176
     1
 90
        6
176
     1
 90
        2
176
     1
 62
     7
176
     1
 90
        5
176
     1
 90
        0
176
     1
 90
        0
176
     1
290
     0
176
     1
 90
       13
176
     1
 40
0.0
176
     1
 90
        0
176
     1
290
     0
176
     1
290
     1
176
     1
290
     1
176
     1
290
     0
176
     1
290
     0
176
     1
290
     0
176
     1
290
     0
176
     1
290
     0
176
     1
290
     0
176
     1
 90
       50
176
     1
 40
0.0
176
     1
 40
1.0
176
     1
 90
        0
176
     1
 62
    18
420
        0
176
     1
 90
       50
176
     1
 90
        3
176
     1
 62
     5
420
      255
176
     1
290
     0
176
     1
 90
       50
176
     1
 90
       50
176
     1
 90
       50
176
     1
290
     0
176
     1
 90
       50
176
     1
 62
   256
176
     0
 40
1.0
176
     0
 90
        2
176
     1
  1
strokes_ogs.tif
176
     1
290
     0
176
     1
 40
1.0
176
     1
 40
1.0
176
     1
1001
ACAD
1000
AcRTDxfName
1000
VISUALSTYLE
1000
AcRTDxfName
1000
VISUALSTYLE
1000
AcRTDxfName
1000
VISUALSTYLE
1000
AcRTDxfName
1000
VISUALSTYLE
1000
AcRTDxfName
1000
VISUALSTYLE
1000
AcRTDxfName
1000
VISUALSTYLE
  0
VISUALSTYLE
  5
984B
102
{ACAD_REACTORS
330
9847
102
}
330
9847
100
AcDbVisualStyle
  2
GouraudWithEdges
 70
     3
177
     3
291
     1
 70
    58
 90
        2
176
     1
 90
        2
176
     1
 90
        1
176
     1
 90
        2
176
     1
 40
0.6
176
     1
 40
30.0
176
     1
 62
     7
176
     1
 90
        1
176
     1
 90
        4
176
     1
 62
     7
176
     1
 62
   257
176
     1
 90
        1
176
     1
 90
        1
176
     1
 40
1.0
176
     1
 90
        0
176
     1
 62
   257
176
     1
 40
1.0
176
     1
 90
        1
176
     1
 90
        6
176
     1
 90
        2
176
     1
 62
     7
176
     1
 90
        5
176
     1
 90
        0
176
     1
 90
        0
176
     1
290
     0
176
     1
 90
       13
176
     1
 40
0.0
176
     1
 90
        0
176
     1
290
     0
176
     1
290
     1
176
     1
290
     1
176
     1
290
     0
176
     1
290
     0
176
     1
290
     0
176
     1
290
     0
176
     1
290
     0
176
     1
290
     0
176
     1
 90
       50
176
     1
 40
0.0
176
     1
 40
1.0
176
     1
 90
        0
176
     1
 62
    18
420
        0
176
     1
 90
       50
176
     1
 90
        3
176
     1
 62
     5
420
      255
176
     1
290
     0
176
     1
 90
       50
176
     1
 90
       50
176
     1
 90
       50
176
     1
290
     0
176
     1
 90
       50
176
     1
 62
   256
176
     0
 40
1.0
176
     0
 90
        2
176
     1
  1
strokes_ogs.tif
176
     1
290
     0
176
     1
 40
1.0
176
     1
 40
1.0
176
     1
1001
ACAD
1000
AcRTDxfName
1000
VISUALSTYLE
1000
AcRTDxfName
1000
VISUALSTYLE
1000
AcRTDxfName
1000
VISUALSTYLE
1000
AcRTDxfName
1000
VISUALSTYLE
1000
AcRTDxfName
1000
VISUALSTYLE
1000
AcRTDxfName
1000
VISUALSTYLE
  0
VISUALSTYLE
  5
6062E77
102
{ACAD_REACTORS
330
9847
102
}
330
9847
100
AcDbVisualStyle
  2
Hidden
 70
     6
177
     3
291
     0
 70
    58
 90
        1
176
     1
 90
        2
176
     1
 90
        2
176
     1
 90
        0
176
     1
 40
0.6
176
     1
 40
30.0
176
     1
 62
     7
420
 16777215
176
     1
 90
        2
176
     1
 90
        2
176
     1
 62
     7
176
     1
 62
   257
176
     1
 90
        2
176
     1
 90
        1
176
     1
 40
40.0
176
     1
 90
        0
176
     1
 62
   257
176
     1
 40
1.0
176
     1
 90
        1
176
     1
 90
        6
176
     1
 90
        2
176
     1
 62
     7
176
     1
 90
        3
176
     1
 90
        0
176
     1
 90
        0
176
     1
290
     0
176
     1
 90
        1
176
     1
 40
0.0
176
     1
 90
        0
176
     1
290
     0
176
     1
290
     1
176
     1
290
     1
176
     1
290
     0
176
     1
290
     0
176
     1
290
     0
176
     1
290
     0
176
     1
290
     0
176
     1
290
     0
176
     1
 90
       50
176
     1
 40
0.0
176
     1
 40
1.0
176
     1
 90
        0
176
     1
 62
    18
420
        0
176
     1
 90
       50
176
     1
 90
        3
176
     1
 62
     5
420
      255
176
     1
290
     0
176
     1
 90
       50
176
     1
 90
       50
176
     1
 90
       50
176
     1
290
     0
176
     1
 90
       50
176
     1
 62
   256
176
     0
 40
1.0
176
     0
 90
        2
176
     1
  1
strokes_ogs.tif
176
     1
290
     0
176
     1
 40
1.0
176
     1
 40
1.0
176
     1
  0
VISUALSTYLE
  5
6062E7D
102
{ACAD_REACTORS
330
9847
102
}
330
9847
100
AcDbVisualStyle
  2
JitterOff
 70
    20
177
     3
291
     1
 70
    58
 90
        2
176
     0
 90
        2
176
     0
 90
        0
176
     0
 90
        0
176
     0
 40
0.6
176
     0
 40
30.0
176
     0
 62
     7
420
 16777215
176
     0
 90
        1
176
     0
 90
        4
176
     0
 62
     7
176
     0
 62
   257
176
     0
 90
        1
176
     0
 90
        1
176
     0
 40
1.0
176
     0
 90
       10
176
     2
 62
     7
176
     0
 40
1.0
176
     0
 90
        1
176
     0
 90
        6
176
     0
 90
        2
176
     0
 62
     7
176
     0
 90
        5
176
     0
 90
        0
176
     0
 90
        0
176
     0
290
     0
176
     0
 90
        1
176
     0
 40
0.0
176
     0
 90
        0
176
     0
290
     0
176
     0
290
     1
176
     0
290
     1
176
     0
290
     0
176
     0
290
     0
176
     0
290
     0
176
     0
290
     0
176
     0
290
     0
176
     0
290
     0
176
     0
 90
       50
176
     0
 40
0.0
176
     0
 40
1.0
176
     0
 90
        0
176
     0
 62
    18
420
        0
176
     0
 90
       50
176
     0
 90
        3
176
     0
 62
     5
420
      255
176
     0
290
     0
176
     0
 90
       50
176
     0
 90
       50
176
     0
 90
       50
176
     0
290
     0
176
     0
 90
       50
176
     0
 62
   256
176
     0
 40
1.0
176
     0
 90
        2
176
     0
  1
strokes_ogs.tif
176
     0
290
     0
176
     0
 40
1.0
176
     0
 40
1.0
176
     0
  0
VISUALSTYLE
  5
9855
102
{ACAD_REACTORS
330
9847
102
}
330
9847
100
AcDbVisualStyle
  2
Linepattern
 70
    14
177
     3
291
     1
 70
    58
 90
        2
176
     1
 90
        2
176
     1
 90
        0
176
     1
 90
        0
176
     1
 40
0.6
176
     1
 40
30.0
176
     1
 62
     7
176
     1
 90
        1
176
     1
 90
        4
176
     1
 62
     7
176
     1
 62
   257
176
     1
 90
        7
176
     1
 90
        7
176
     1
 40
1.0
176
     1
 90
        8
176
     1
 62
     7
176
     1
 40
1.0
176
     1
 90
        1
176
     1
 90
        6
176
     1
 90
        2
176
     1
 62
     7
176
     1
 90
        5
176
     1
 90
        0
176
     1
 90
        0
176
     1
290
     0
176
     1
 90
        1
176
     1
 40
0.0
176
     1
 90
        0
176
     1
290
     0
176
     1
290
     1
176
     1
290
     1
176
     1
290
     0
176
     1
290
     0
176
     1
290
     0
176
     1
290
     0
176
     1
290
     0
176
     1
290
     0
176
     1
 90
       50
176
     1
 40
0.0
176
     1
 40
1.0
176
     1
 90
        0
176
     1
 62
    18
420
        0
176
     1
 90
       50
176
     1
 90
        3
176
     1
 62
     5
420
      255
176
     1
290
     0
176
     1
 90
       50
176
     1
 90
       50
176
     1
 90
       50
176
     1
290
     0
176
     1
 90
       50
176
     1
 62
   256
176
     0
 40
1.0
176
     0
 90
        2
176
     1
  1
strokes_ogs.tif
176
     1
290
     0
176
     1
 40
1.0
176
     1
 40
1.0
176
     1
1001
ACAD
1000
AcRTDxfName
1000
VISUALSTYLE
1000
AcRTDxfName
1000
VISUALSTYLE
1000
AcRTDxfName
1000
VISUALSTYLE
1000
AcRTDxfName
1000
VISUALSTYLE
1000
AcRTDxfName
1000
VISUALSTYLE
1000
AcRTDxfName
1000
VISUALSTYLE
  0
VISUALSTYLE
  5
6062E7E
102
{ACAD_REACTORS
330
9847
102
}
330
9847
100
AcDbVisualStyle
  2
OverhangOff
 70
    21
177
     3
291
     1
 70
    58
 90
        2
176
     0
 90
        2
176
     0
 90
        0
176
     0
 90
        0
176
     0
 40
0.6
176
     0
 40
30.0
176
     0
 62
     7
420
 16777215
176
     0
 90
        1
176
     0
 90
        4
176
     0
 62
     7
176
     0
 62
   257
176
     0
 90
        1
176
     0
 90
        1
176
     0
 40
1.0
176
     0
 90
        9
176
     2
 62
     7
176
     0
 40
1.0
176
     0
 90
        1
176
     0
 90
        6
176
     0
 90
        2
176
     0
 62
     7
176
     0
 90
        5
176
     0
 90
        0
176
     0
 90
        0
176
     0
290
     0
176
     0
 90
        1
176
     0
 40
0.0
176
     0
 90
        0
176
     0
290
     0
176
     0
290
     1
176
     0
290
     1
176
     0
290
     0
176
     0
290
     0
176
     0
290
     0
176
     0
290
     0
176
     0
290
     0
176
     0
290
     0
176
     0
 90
       50
176
     0
 40
0.0
176
     0
 40
1.0
176
     0
 90
        0
176
     0
 62
    18
420
        0
176
     0
 90
       50
176
     0
 90
        3
176
     0
 62
     5
420
      255
176
     0
290
     0
176
     0
 90
       50
176
     0
 90
       50
176
     0
 90
       50
176
     0
290
     0
176
     0
 90
       50
176
     0
 62
   256
176
     0
 40
1.0
176
     0
 90
        2
176
     0
  1
strokes_ogs.tif
176
     0
290
     0
176
     0
 40
1.0
176
     0
 40
1.0
176
     0
  0
VISUALSTYLE
  5
9851
102
{ACAD_REACTORS
330
9847
102
}
330
9847
100
AcDbVisualStyle
  2
Realistic
 70
     8
177
     3
291
     0
 70
    58
 90
        2
176
     1
 90
        2
176
     1
 90
        0
176
     1
 90
        0
176
     1
 40
0.6
176
     1
 40
30.0
176
     1
 62
     7
176
     1
 90
        1
176
     1
 90
        0
176
     1
 62
     7
176
     1
 62
   257
176
     1
 90
        1
176
     1
 90
        1
176
     1
 40
1.0
176
     1
 90
        8
176
     1
 62
     8
176
     1
 40
1.0
176
     1
 90
        1
176
     1
 90
        6
176
     1
 90
        2
176
     1
 62
     7
176
     1
 90
        5
176
     1
 90
        0
176
     1
 90
        0
176
     1
290
     0
176
     1
 90
       13
176
     1
 40
0.0
176
     1
 90
        0
176
     1
290
     0
176
     1
290
     1
176
     1
290
     1
176
     1
290
     0
176
     1
290
     0
176
     1
290
     0
176
     1
290
     0
176
     1
290
     0
176
     1
290
     0
176
     1
 90
       50
176
     1
 40
0.0
176
     1
 40
1.0
176
     1
 90
        0
176
     1
 62
    18
420
        0
176
     1
 90
       50
176
     1
 90
        3
176
     1
 62
     5
420
      255
176
     1
290
     0
176
     1
 90
       50
176
     1
 90
       50
176
     1
 90
       50
176
     1
290
     0
176
     1
 90
       50
176
     1
 62
   256
176
     0
 40
1.0
176
     0
 90
        2
176
     1
  1
strokes_ogs.tif
176
     1
290
     0
176
     1
 40
1.0
176
     1
 40
1.0
176
     1
1001
ACAD
1000
AcRTDxfName
1000
VISUALSTYLE
1000
AcRTDxfName
1000
VISUALSTYLE
1000
AcRTDxfName
1000
VISUALSTYLE
1000
AcRTDxfName
1000
VISUALSTYLE
1000
AcRTDxfName
1000
VISUALSTYLE
1000
AcRTDxfName
1000
VISUALSTYLE
  0
VISUALSTYLE
  5
6062E7C
102
{ACAD_REACTORS
330
9847
102
}
330
9847
100
AcDbVisualStyle
  2
Shaded
 70
    27
177
     3
291
     0
 70
    58
 90
        2
176
     1
 90
        2
176
     1
 90
        1
176
     1
 90
        2
176
     1
 40
0.6
176
     1
 40
30.0
176
     1
 62
     7
420
 16777215
176
     1
 90
        0
176
     1
 90
        4
176
     1
 62
     7
176
     1
 62
   257
176
     1
 90
        1
176
     1
 90
        1
176
     1
 40
1.0
176
     1
 90
        8
176
     1
 62
   257
176
     1
 40
1.0
176
     1
 90
        1
176
     1
 90
        6
176
     1
 90
        2
176
     1
 62
     8
420
  7895160
176
     1
 90
        3
176
     1
 90
        0
176
     1
 90
        0
176
     1
290
     0
176
     1
 90
        5
176
     1
 40
0.0
176
     1
 90
        0
176
     1
290
     0
176
     1
290
     1
176
     1
290
     1
176
     1
290
     0
176
     1
290
     0
176
     1
290
     0
176
     1
290
     0
176
     1
290
     0
176
     1
290
     0
176
     1
 90
       50
176
     1
 40
0.0
176
     1
 40
1.0
176
     1
 90
        0
176
     1
 62
    18
420
        0
176
     1
 90
       50
176
     1
 90
        3
176
     1
 62
     5
420
      255
176
     1
290
     0
176
     1
 90
       50
176
     1
 90
       50
176
     1
 90
       50
176
     1
290
     0
176
     1
 90
       50
176
     1
 62
   256
176
     0
 40
1.0
176
     0
 90
        2
176
     1
  1
strokes_ogs.tif
176
     1
290
     0
176
     1
 40
1.0
176
     1
 40
1.0
176
     1
  0
VISUALSTYLE
  5
6062E7B
102
{ACAD_REACTORS
330
9847
102
}
330
9847
100
AcDbVisualStyle
  2
Shaded with edges
 70
    26
177
     3
291
     0
 70
    58
 90
        2
176
     1
 90
        2
176
     1
 90
        1
176
     1
 90
        2
176
     1
 40
0.6
176
     1
 40
30.0
176
     1
 62
     7
420
 16777215
176
     1
 90
        1
176
     1
 90
        2
176
     1
 62
     7
176
     1
 62
   257
176
     1
 90
        2
176
     1
 90
        1
176
     1
 40
1.0
176
     1
 90
        8
176
     1
 62
   257
176
     1
 40
1.0
176
     1
 90
        1
176
     1
 90
        6
176
     1
 90
        2
176
     1
 62
     7
176
     1
 90
        3
176
     1
 90
        0
176
     1
 90
        0
176
     1
290
     0
176
     1
 90
        5
176
     1
 40
0.0
176
     1
 90
        0
176
     1
290
     0
176
     1
290
     1
176
     1
290
     1
176
     1
290
     0
176
     1
290
     0
176
     1
290
     0
176
     1
290
     0
176
     1
290
     0
176
     1
290
     0
176
     1
 90
       50
176
     1
 40
0.0
176
     1
 40
1.0
176
     1
 90
        0
176
     1
 62
    18
420
        0
176
     1
 90
       50
176
     1
 90
        3
176
     1
 62
     5
420
      255
176
     1
290
     0
176
     1
 90
       50
176
     1
 90
       50
176
     1
 90
       50
176
     1
290
     0
176
     1
 90
       50
176
     1
 62
   256
176
     0
 40
1.0
176
     0
 90
        2
176
     1
  1
strokes_ogs.tif
176
     1
290
     0
176
     1
 40
1.0
176
     1
 40
1.0
176
     1
  0
VISUALSTYLE
  5
6062E78
102
{ACAD_REACTORS
330
9847
102
}
330
9847
100
AcDbVisualStyle
  2
Shades of Gray
 70
    23
177
     3
291
     0
 70
    58
 90
        2
176
     1
 90
        2
176
     1
 90
        3
176
     1
 90
        0
176
     1
 40
0.6
176
     1
 40
30.0
176
     1
 62
     7
420
 16777215
176
     1
 90
        2
176
     1
 90
        2
176
     1
 62
     7
176
     1
 62
     7
176
     1
 90
        1
176
     1
 90
        1
176
     1
 40
40.0
176
     1
 90
        8
176
     1
 62
     7
176
     1
 40
1.0
176
     1
 90
        1
176
     1
 90
        6
176
     1
 90
        2
176
     1
 62
     7
176
     1
 90
        3
176
     1
 90
        0
176
     1
 90
        0
176
     1
290
     0
176
     1
 90
        1
176
     1
 40
0.0
176
     1
 90
        0
176
     1
290
     0
176
     1
290
     1
176
     1
290
     1
176
     1
290
     0
176
     1
290
     0
176
     1
290
     0
176
     1
290
     0
176
     1
290
     0
176
     1
290
     0
176
     1
 90
       50
176
     1
 40
0.0
176
     1
 40
1.0
176
     1
 90
        0
176
     1
 62
    18
420
        0
176
     1
 90
       50
176
     1
 90
        3
176
     1
 62
     5
420
      255
176
     1
290
     0
176
     1
 90
       50
176
     1
 90
       50
176
     1
 90
       50
176
     1
290
     0
176
     1
 90
       50
176
     1
 62
   256
176
     0
 40
1.0
176
     0
 90
        2
176
     1
  1
strokes_ogs.tif
176
     1
290
     0
176
     1
 40
1.0
176
     1
 40
1.0
176
     1
  0
VISUALSTYLE
  5
6062E79
102
{ACAD_REACTORS
330
9847
102
}
330
9847
100
AcDbVisualStyle
  2
Sketchy
 70
    24
177
     3
291
     0
 70
    58
 90
        1
176
     1
 90
        2
176
     1
 90
        2
176
     1
 90
        0
176
     1
 40
0.6
176
     1
 40
30.0
176
     1
 62
     7
420
 16777215
176
     1
 90
        2
176
     1
 90
        2
176
     1
 62
     7
176
     1
 62
     7
176
     1
 90
        1
176
     1
 90
        1
176
     1
 40
40.0
176
     1
 90
       11
176
     1
 62
     7
176
     1
 40
1.0
176
     1
 90
        1
176
     1
 90
        6
176
     1
 90
        2
176
     1
 62
     7
176
     1
 90
        6
176
     1
 90
        0
176
     1
 90
        0
176
     1
290
     0
176
     1
 90
        1
176
     1
 40
0.0
176
     1
 90
        0
176
     1
290
     0
176
     1
290
     1
176
     1
290
     1
176
     1
290
     0
176
     1
290
     0
176
     1
290
     0
176
     1
290
     0
176
     1
290
     0
176
     1
290
     0
176
     1
 90
       50
176
     1
 40
0.0
176
     1
 40
1.0
176
     1
 90
        0
176
     1
 62
    18
420
        0
176
     1
 90
       50
176
     1
 90
        3
176
     1
 62
     5
420
      255
176
     1
290
     0
176
     1
 90
       50
176
     1
 90
       50
176
     1
 90
       50
176
     1
290
     0
176
     1
 90
       50
176
     1
 62
   256
176
     0
 40
1.0
176
     0
 90
        2
176
     1
  1
strokes_ogs.tif
176
     1
290
     0
176
     1
 40
1.0
176
     1
 40
1.0
176
     1
  0
VISUALSTYLE
  5
9854
102
{ACAD_REACTORS
330
9847
102
}
330
9847
100
AcDbVisualStyle
  2
Thicken
 70
    13
177
     3
291
     1
 70
    58
 90
        2
176
     1
 90
        2
176
     1
 90
        0
176
     1
 90
        0
176
     1
 40
0.6
176
     1
 40
30.0
176
     1
 62
     7
176
     1
 90
        1
176
     1
 90
        4
176
     1
 62
     7
176
     1
 62
   257
176
     1
 90
        1
176
     1
 90
        1
176
     1
 40
1.0
176
     1
 90
       12
176
     1
 62
     7
176
     1
 40
1.0
176
     1
 90
        1
176
     1
 90
        6
176
     1
 90
        2
176
     1
 62
     7
176
     1
 90
        5
176
     1
 90
        0
176
     1
 90
        0
176
     1
290
     0
176
     1
 90
        1
176
     1
 40
0.0
176
     1
 90
        0
176
     1
290
     0
176
     1
290
     1
176
     1
290
     1
176
     1
290
     0
176
     1
290
     0
176
     1
290
     0
176
     1
290
     0
176
     1
290
     0
176
     1
290
     0
176
     1
 90
       50
176
     1
 40
0.0
176
     1
 40
1.0
176
     1
 90
        0
176
     1
 62
    18
420
        0
176
     1
 90
       50
176
     1
 90
        3
176
     1
 62
     5
420
      255
176
     1
290
     0
176
     1
 90
       50
176
     1
 90
       50
176
     1
 90
       50
176
     1
290
     0
176
     1
 90
       50
176
     1
 62
   256
176
     0
 40
1.0
176
     0
 90
        2
176
     1
  1
strokes_ogs.tif
176
     1
290
     0
176
     1
 40
1.0
176
     1
 40
1.0
176
     1
1001
ACAD
1000
AcRTDxfName
1000
VISUALSTYLE
1000
AcRTDxfName
1000
VISUALSTYLE
1000
AcRTDxfName
1000
VISUALSTYLE
1000
AcRTDxfName
1000
VISUALSTYLE
1000
AcRTDxfName
1000
VISUALSTYLE
1000
AcRTDxfName
1000
VISUALSTYLE
  0
VISUALSTYLE
  5
6062E76
102
{ACAD_REACTORS
330
9847
102
}
330
9847
100
AcDbVisualStyle
  2
Wireframe
 70
     5
177
     3
291
     0
 70
    58
 90
        0
176
     1
 90
        2
176
     1
 90
        0
176
     1
 90
        0
176
     1
 40
0.6
176
     1
 40
30.0
176
     1
 62
     7
420
 16777215
176
     1
 90
        1
176
     1
 90
        4
176
     1
 62
     7
176
     1
 62
   257
176
     1
 90
        1
176
     1
 90
        1
176
     1
 40
1.0
176
     1
 90
        0
176
     1
 62
   257
176
     1
 40
1.0
176
     1
 90
        1
176
     1
 90
        6
176
     1
 90
        2
176
     1
 62
     7
176
     1
 90
        3
176
     1
 90
        0
176
     1
 90
        0
176
     1
290
     0
176
     1
 90
        1
176
     1
 40
0.0
176
     1
 90
        0
176
     1
290
     0
176
     1
290
     1
176
     1
290
     1
176
     1
290
     0
176
     1
290
     0
176
     1
290
     0
176
     1
290
     0
176
     1
290
     0
176
     1
290
     0
176
     1
 90
       50
176
     1
 40
0.0
176
     1
 40
1.0
176
     1
 90
        0
176
     1
 62
    18
420
        0
176
     1
 90
       50
176
     1
 90
        3
176
     1
 62
     5
420
      255
176
     1
290
     0
176
     1
 90
       50
176
     1
 90
       50
176
     1
 90
       50
176
     1
290
     0
176
     1
 90
       50
176
     1
 62
   256
176
     0
 40
1.0
176
     0
 90
        2
176
     1
  1
strokes_ogs.tif
176
     1
290
     0
176
     1
 40
1.0
176
     1
 40
1.0
176
     1
  0
VISUALSTYLE
  5
6062E7A
102
{ACAD_REACTORS
330
9847
102
}
330
9847
100
AcDbVisualStyle
  2
X-Ray
 70
    25
177
     3
291
     0
 70
    58
 90
        2
176
     1
 90
        2
176
     1
 90
        1
176
     1
 90
        1
176
     1
 40
0.5
176
     1
 40
30.0
176
     1
 62
     7
420
 16777215
176
     1
 90
        1
176
     1
 90
        0
176
     1
 62
     7
176
     1
 62
   257
176
     1
 90
        1
176
     1
 90
        1
176
     1
 40
1.0
176
     1
 90
        8
176
     1
 62
     7
176
     1
 40
1.0
176
     1
 90
        1
176
     1
 90
        6
176
     1
 90
        2
176
     1
 62
     7
176
     1
 90
        3
176
     1
 90
        0
176
     1
 90
        0
176
     1
290
     0
176
     1
 90
       13
176
     1
 40
0.0
176
     1
 90
        0
176
     1
290
     0
176
     1
290
     1
176
     1
290
     1
176
     1
290
     0
176
     1
290
     0
176
     1
290
     0
176
     1
290
     0
176
     1
290
     0
176
     1
290
     0
176
     1
 90
       50
176
     1
 40
0.0
176
     1
 40
1.0
176
     1
 90
        0
176
     1
 62
    18
420
        0
176
     1
 90
       50
176
     1
 90
        3
176
     1
 62
     5
420
      255
176
     1
290
     0
176
     1
 90
       50
176
     1
 90
       50
176
     1
 90
       50
176
     1
290
     0
176
     1
 90
       50
176
     1
 62
   256
176
     0
 40
1.0
176
     0
 90
        2
176
     1
  1
strokes_ogs.tif
176
     1
290
     0
176
     1
 40
1.0
176
     1
 40
1.0
176
     1
  0
DICTIONARYVAR
  5
B806
102
{ACAD_REACTORS
330
4557
102
}
330
4557
100
DictionaryVariables
280
     0
  1
1:1
  0
DICTIONARYVAR
  5
B804
102
{ACAD_REACTORS
330
4557
102
}
330
4557
100
DictionaryVariables
280
     0
  1
STANDARD
  0
DICTIONARYVAR
  5
B803
102
{ACAD_REACTORS
330
4557
102
}
330
4557
100
DictionaryVariables
280
     0
  1
STANDARD
  0
DICTIONARYVAR
  5
6062E95
102
{ACAD_REACTORS
330
4557
102
}
330
4557
100
DictionaryVariables
280
     0
  1
Metric50
  0
DICTIONARYVAR
  5
6062E96
102
{ACAD_REACTORS
330
4557
102
}
330
4557
100
DictionaryVariables
280
     0
  1
Metric50
  0
DICTIONARYVAR
  5
6245A
102
{ACAD_REACTORS
330
4557
102
}
330
4557
100
DictionaryVariables
280
     0
  1
2
  0
DICTIONARYVAR
  5
4558
102
{ACAD_REACTORS
330
4557
102
}
330
4557
100
DictionaryVariables
280
     0
  1
1
  0
DICTIONARYVAR
  5
62459
102
{ACAD_REACTORS
330
4557
102
}
330
4557
100
DictionaryVariables
280
     0
  1
1
  0
DICTIONARYVAR
  5
62458
102
{ACAD_REACTORS
330
4557
102
}
330
4557
100
DictionaryVariables
280
     0
  1
0
  0
DICTIONARYVAR
  5
6062E97
102
{ACAD_REACTORS
330
4557
102
}
330
4557
100
DictionaryVariables
280
     0
  1
1
  0
DICTIONARYVAR
  5
6062E98
102
{ACAD_REACTORS
330
4557
102
}
330
4557
100
DictionaryVariables
280
     0
  1
15
  0
DICTIONARYVAR
  5
B807
102
{ACAD_REACTORS
330
4557
102
}
330
4557
100
DictionaryVariables
280
     0
  1
0
  0
DICTIONARYVAR
  5
B805
102
{ACAD_REACTORS
330
4557
102
}
330
4557
100
DictionaryVariables
280
     0
  1
0
  0
DICTIONARYVAR
  5
6250E
102
{ACAD_REACTORS
330
4557
102
}
330
4557
100
DictionaryVariables
280
     0
  1

  0
DICTIONARYVAR
  5
62457
102
{ACAD_REACTORS
330
4557
102
}
330
4557
100
DictionaryVariables
280
     0
  1
127
  0
XRECORD
  5
62BB5
102
{ACAD_REACTORS
330
62BB4
102
}
330
62BB4
100
AcDbXrecord
280
     1
330
0
330
0
330
0
330
0
330
0
330
0
330
0
330
0
330
0
330
0
330
0
330
0
330
0
330
0
330
0
330
0
330
0
  0
DICTIONARY
  5
6062E9C
330
6062E84
100
AcDbDictionary
280
     1
281
     1
  3
ACAD_XREC_ROUNDTRIP
360
6062E9D
  0
DICTIONARY
  5
9838
330
9837
100
AcDbDictionary
280
     1
281
     1
  3
BUMPTILE
360
983A
  3
DIFFUSETILE
360
9839
  3
OPACITYTILE
360
983D
  3
REFLECTIONTILE
360
983C
  3
REFRACTIONTILE
360
983E
  3
SPECULARTILE
360
983B
  0
DICTIONARY
  5
9830
330
982F
100
AcDbDictionary
280
     1
281
     1
  3
BUMPTILE
360
9832
  3
DIFFUSETILE
360
9831
  3
OPACITYTILE
360
9835
  3
REFLECTIONTILE
360
9834
  3
REFRACTIONTILE
360
9836
  3
SPECULARTILE
360
9833
  0
DICTIONARY
  5
9840
330
983F
100
AcDbDictionary
280
     1
281
     1
  3
BUMPTILE
360
9842
  3
DIFFUSETILE
360
9841
  3
OPACITYTILE
360
9845
  3
REFLECTIONTILE
360
9844
  3
REFRACTIONTILE
360
9846
  3
SPECULARTILE
360
9843
  0
DICTIONARY
  5
6062E9A
330
6062E82
100
AcDbDictionary
280
     1
281
     1
  3
ACAD_XREC_ROUNDTRIP
360
6062E9B
  0
DICTIONARY
  5
B800
330
9858
100
AcDbDictionary
280
     1
281
     1
  3
ACAD_ROUNDTRIP_2008_TABLESTYLE_CELLSTYLEMAP
360
6062E99
  0
XRECORD
  5
6062E9D
102
{ACAD_REACTORS
330
6062E9C
102
}
330
6062E9C
100
AcDbXrecord
280
     1
102
DISPLAYNAME
  1
Metric50
102
FLAGS
 90
        0
  0
XRECORD
  5
983A
102
{ACAD_REACTORS
330
9838
102
}
330
9838
100
AcDbXrecord
280
     1
270
     1
271
     1
  0
XRECORD
  5
9839
102
{ACAD_REACTORS
330
9838
102
}
330
9838
100
AcDbXrecord
280
     1
270
     1
271
     1
  0
XRECORD
  5
983D
102
{ACAD_REACTORS
330
9838
102
}
330
9838
100
AcDbXrecord
280
     1
270
     1
271
     1
  0
XRECORD
  5
983C
102
{ACAD_REACTORS
330
9838
102
}
330
9838
100
AcDbXrecord
280
     1
270
     1
271
     1
  0
XRECORD
  5
983E
102
{ACAD_REACTORS
330
9838
102
}
330
9838
100
AcDbXrecord
280
     1
270
     1
271
     1
  0
XRECORD
  5
983B
102
{ACAD_REACTORS
330
9838
102
}
330
9838
100
AcDbXrecord
280
     1
270
     1
271
     1
  0
XRECORD
  5
9832
102
{ACAD_REACTORS
330
9830
102
}
330
9830
100
AcDbXrecord
280
     1
270
     1
271
     1
  0
XRECORD
  5
9831
102
{ACAD_REACTORS
330
9830
102
}
330
9830
100
AcDbXrecord
280
     1
270
     1
271
     1
  0
XRECORD
  5
9835
102
{ACAD_REACTORS
330
9830
102
}
330
9830
100
AcDbXrecord
280
     1
270
     1
271
     1
  0
XRECORD
  5
9834
102
{ACAD_REACTORS
330
9830
102
}
330
9830
100
AcDbXrecord
280
     1
270
     1
271
     1
  0
XRECORD
  5
9836
102
{ACAD_REACTORS
330
9830
102
}
330
9830
100
AcDbXrecord
280
     1
270
     1
271
     1
  0
XRECORD
  5
9833
102
{ACAD_REACTORS
330
9830
102
}
330
9830
100
AcDbXrecord
280
     1
270
     1
271
     1
  0
XRECORD
  5
9842
102
{ACAD_REACTORS
330
9840
102
}
330
9840
100
AcDbXrecord
280
     1
270
     1
271
     1
  0
XRECORD
  5
9841
102
{ACAD_REACTORS
330
9840
102
}
330
9840
100
AcDbXrecord
280
     1
270
     1
271
     1
  0
XRECORD
  5
9845
102
{ACAD_REACTORS
330
9840
102
}
330
9840
100
AcDbXrecord
280
     1
270
     1
271
     1
  0
XRECORD
  5
9844
102
{ACAD_REACTORS
330
9840
102
}
330
9840
100
AcDbXrecord
280
     1
270
     1
271
     1
  0
XRECORD
  5
9846
102
{ACAD_REACTORS
330
9840
102
}
330
9840
100
AcDbXrecord
280
     1
270
     1
271
     1
  0
XRECORD
  5
9843
102
{ACAD_REACTORS
330
9840
102
}
330
9840
100
AcDbXrecord
280
     1
270
     1
271
     1
  0
XRECORD
  5
6062E9B
102
{ACAD_REACTORS
330
6062E9A
102
}
330
6062E9A
100
AcDbXrecord
280
     1
102
DISPLAYNAME
  1
Metric50
102
FLAGS
 90
        0
  0
CELLSTYLEMAP
  5
6062E99
102
{ACAD_REACTORS
330
B800
102
}
330
B800
100
AcDbCellStyleMap
 90
        3
300
CELLSTYLE
  1
TABLEFORMAT_BEGIN
 90
        5
170
     1
 91
        0
 92
    32768
 62
   257
 93
        1
300
CONTENTFORMAT
  1
CONTENTFORMAT_BEGIN
 90
        0
 91
        0
 92
      512
 93
        0
300

 40
0.0
140
1.0
 94
        5
 62
     0
340
12
144
6.0
309
CONTENTFORMAT_END
171
     1
301
MARGIN
  1
CELLMARGIN_BEGIN
 40
1.5
 40
1.5
 40
1.5
 40
1.5
 40
0.18
 40
0.18
309
CELLMARGIN_END
 94
        6
 95
        1
302
GRIDFORMAT
  1
GRIDFORMAT_BEGIN
 90
        0
 91
        1
 62
     0
 92
       -2
340
0
 93
        0
 40
1.125
309
GRIDFORMAT_END
 95
        2
302
GRIDFORMAT
  1
GRIDFORMAT_BEGIN
 90
        0
 91
        1
 62
     0
 92
       -2
340
0
 93
        0
 40
1.125
309
GRIDFORMAT_END
 95
        4
302
GRIDFORMAT
  1
GRIDFORMAT_BEGIN
 90
        0
 91
        1
 62
     0
 92
       -2
340
0
 93
        0
 40
1.125
309
GRIDFORMAT_END
 95
        8
302
GRIDFORMAT
  1
GRIDFORMAT_BEGIN
 90
        0
 91
        1
 62
     0
 92
       -2
340
0
 93
        0
 40
1.125
309
GRIDFORMAT_END
 95
       16
302
GRIDFORMAT
  1
GRIDFORMAT_BEGIN
 90
        0
 91
        1
 62
     0
 92
       -2
340
0
 93
        0
 40
1.125
309
GRIDFORMAT_END
 95
       32
302
GRIDFORMAT
  1
GRIDFORMAT_BEGIN
 90
        0
 91
        1
 62
     0
 92
       -2
340
0
 93
        0
 40
1.125
309
GRIDFORMAT_END
309
TABLEFORMAT_END
  1
CELLSTYLE_BEGIN
 90
        1
 91
        1
300
_TITLE
309
CELLSTYLE_END
300
CELLSTYLE
  1
TABLEFORMAT_BEGIN
 90
        5
170
     1
 91
        0
 92
        0
 62
   257
 93
        1
300
CONTENTFORMAT
  1
CONTENTFORMAT_BEGIN
 90
        0
 91
        0
 92
      512
 93
        0
300

 40
0.0
140
1.0
 94
        5
 62
     0
340
12
144
4.5
309
CONTENTFORMAT_END
171
     1
301
MARGIN
  1
CELLMARGIN_BEGIN
 40
1.5
 40
1.5
 40
1.5
 40
1.5
 40
0.18
 40
0.18
309
CELLMARGIN_END
 94
        6
 95
        1
302
GRIDFORMAT
  1
GRIDFORMAT_BEGIN
 90
        0
 91
        1
 62
     0
 92
       -2
340
0
 93
        0
 40
1.125
309
GRIDFORMAT_END
 95
        2
302
GRIDFORMAT
  1
GRIDFORMAT_BEGIN
 90
        0
 91
        1
 62
     0
 92
       -2
340
0
 93
        0
 40
1.125
309
GRIDFORMAT_END
 95
        4
302
GRIDFORMAT
  1
GRIDFORMAT_BEGIN
 90
        0
 91
        1
 62
     0
 92
       -2
340
0
 93
        0
 40
1.125
309
GRIDFORMAT_END
 95
        8
302
GRIDFORMAT
  1
GRIDFORMAT_BEGIN
 90
        0
 91
        1
 62
     0
 92
       -2
340
0
 93
        0
 40
1.125
309
GRIDFORMAT_END
 95
       16
302
GRIDFORMAT
  1
GRIDFORMAT_BEGIN
 90
        0
 91
        1
 62
     0
 92
       -2
340
0
 93
        0
 40
1.125
309
GRIDFORMAT_END
 95
       32
302
GRIDFORMAT
  1
GRIDFORMAT_BEGIN
 90
        0
 91
        1
 62
     0
 92
       -2
340
0
 93
        0
 40
1.125
309
GRIDFORMAT_END
309
TABLEFORMAT_END
  1
CELLSTYLE_BEGIN
 90
        2
 91
        1
300
_HEADER
309
CELLSTYLE_END
300
CELLSTYLE
  1
TABLEFORMAT_BEGIN
 90
        5
170
     1
 91
        0
 92
        0
 62
   257
 93
        1
300
CONTENTFORMAT
  1
CONTENTFORMAT_BEGIN
 90
        0
 91
        0
 92
      512
 93
        0
300

 40
0.0
140
1.0
 94
        2
 62
     0
340
12
144
4.5
309
CONTENTFORMAT_END
171
     1
301
MARGIN
  1
CELLMARGIN_BEGIN
 40
1.5
 40
1.5
 40
1.5
 40
1.5
 40
0.18
 40
0.18
309
CELLMARGIN_END
 94
        6
 95
        1
302
GRIDFORMAT
  1
GRIDFORMAT_BEGIN
 90
        0
 91
        1
 62
     0
 92
       -2
340
0
 93
        0
 40
1.125
309
GRIDFORMAT_END
 95
        2
302
GRIDFORMAT
  1
GRIDFORMAT_BEGIN
 90
        0
 91
        1
 62
     0
 92
       -2
340
0
 93
        0
 40
1.125
309
GRIDFORMAT_END
 95
        4
302
GRIDFORMAT
  1
GRIDFORMAT_BEGIN
 90
        0
 91
        1
 62
     0
 92
       -2
340
0
 93
        0
 40
1.125
309
GRIDFORMAT_END
 95
        8
302
GRIDFORMAT
  1
GRIDFORMAT_BEGIN
 90
        0
 91
        1
 62
     0
 92
       -2
340
0
 93
        0
 40
1.125
309
GRIDFORMAT_END
 95
       16
302
GRIDFORMAT
  1
GRIDFORMAT_BEGIN
 90
        0
 91
        1
 62
     0
 92
       -2
340
0
 93
        0
 40
1.125
309
GRIDFORMAT_END
 95
       32
302
GRIDFORMAT
  1
GRIDFORMAT_BEGIN
 90
        0
 91
        1
 62
     0
 92
       -2
340
0
 93
        0
 40
1.125
309
GRIDFORMAT_END
309
TABLEFORMAT_END
  1
CELLSTYLE_BEGIN
 90
        3
 91
        2
300
_DATA
309
CELLSTYLE_END
  0
ENDSEC
  0
EOF
