  0
SECTION
  2
HEADER
  9
$ACADVER
  1
AC1032
  9
$ACADMAINTVER
 90
      174
  9
$DWGCODEPAGE
  3
ANSI_1252
  9
$LASTSAVEDBY
  1
pengb
  9
$REQUIREDVERSIONS
160
                 0
  9
$INSBASE
 10
0.0
 20
0.0
 30
0.0
  9
$EXTMIN
 10
-167.0469271797892
 20
-162.0016509083166
 30
-0.0000000349181948
  9
$EXTMAX
 10
449.3174845684825
 20
466.4239979554729
 30
0.0000000814935747
  9
$LIMMIN
 10
0.0
 20
0.0
  9
$LIMMAX
 10
420.0
 20
297.0
  9
$ORTHOMODE
 70
     0
  9
$REGENMODE
 70
     1
  9
$FILLMODE
 70
     1
  9
$QTEXTMODE
 70
     0
  9
$MIRRTEXT
 70
     1
  9
$LTSCALE
 40
1.0
  9
$ATTMODE
 70
     1
  9
$TEXTSIZE
 40
3.5
  9
$TRACEWID
 40
1.0
  9
$TEXTSTYLE
  7
Standard
  9
$CLAYER
  8
0
  9
$CELTYPE
  6
ByLayer
  9
$CECOLOR
 62
   256
  9
$CELTSCALE
 40
1.0
  9
$DISPSILH
 70
     0
  9
$DIMSCALE
 40
1.0
  9
$DIMASZ
 40
3.302
  9
$DIMEXO
 40
1.0
  9
$DIMDLI
 40
3.75
  9
$DIMRND
 40
0.0
  9
$DIMDLE
 40
0.0
  9
$DIMEXE
 40
1.0
  9
$DIMTP
 40
0.0
  9
$DIMTM
 40
0.0
  9
$DIMTXT
 40
3.5
  9
$DIMCEN
 40
2.5
  9
$DIMTSZ
 40
0.0
  9
$DIMTOL
 70
     0
  9
$DIMLIM
 70
     0
  9
$DIMTIH
 70
     1
  9
$DIMTOH
 70
     1
  9
$DIMSE1
 70
     0
  9
$DIMSE2
 70
     0
  9
$DIMTAD
 70
     1
  9
$DIMZIN
 70
     1
  9
$DIMBLK
  1

  9
$DIMASO
 70
     1
  9
$DIMSHO
 70
     1
  9
$DIMPOST
  1

  9
$DIMAPOST
  1

  9
$DIMALT
 70
     0
  9
$DIMALTD
 70
     3
  9
$DIMALTF
 40
0.0393700787
  9
$DIMLFAC
 40
5.0
  9
$DIMTOFL
 70
     1
  9
$DIMTVP
 40
0.0
  9
$DIMTIX
 70
     0
  9
$DIMSOXD
 70
     0
  9
$DIMSAH
 70
     0
  9
$DIMBLK1
  1

  9
$DIMBLK2
  1

  9
$DIMSTYLE
  2
ISO-25
  9
$DIMCLRD
 70
     0
  9
$DIMCLRE
 70
     0
  9
$DIMCLRT
 70
     0
  9
$DIMTFAC
 40
1.0
  9
$DIMGAP
 40
1.524
  9
$DIMJUST
 70
     0
  9
$DIMSD1
 70
     0
  9
$DIMSD2
 70
     0
  9
$DIMTOLJ
 70
     0
  9
$DIMTZIN
 70
     1
  9
$DIMALTZ
 70
     0
  9
$DIMALTTZ
 70
     0
  9
$DIMUPT
 70
     0
  9
$DIMDEC
 70
     2
  9
$DIMTDEC
 70
     2
  9
$DIMALTU
 70
     2
  9
$DIMALTTD
 70
     3
  9
$DIMTXSTY
  7
Standard
  9
$DIMAUNIT
 70
     0
  9
$DIMADEC
 70
     2
  9
$DIMALTRND
 40
0.0
  9
$DIMAZIN
 70
     0
  9
$DIMDSEP
 70
    44
  9
$DIMATFIT
 70
     3
  9
$DIMFRAC
 70
     0
  9
$DIMLDRBLK
  1

  9
$DIMLUNIT
 70
     2
  9
$DIMLWD
 70
    -2
  9
$DIMLWE
 70
    -2
  9
$DIMTMOVE
 70
     0
  9
$DIMFXL
 40
1.0
  9
$DIMFXLON
 70
     0
  9
$DIMJOGANG
 40
0.7853981633974483
  9
$DIMTFILL
 70
     0
  9
$DIMTFILLCLR
 70
     0
  9
$DIMARCSYM
 70
     0
  9
$DIMLTYPE
  6

  9
$DIMLTEX1
  6

  9
$DIMLTEX2
  6

  9
$DIMTXTDIRECTION
 70
     0
  9
$LUNITS
 70
     2
  9
$LUPREC
 70
     2
  9
$SKETCHINC
 40
1.0
  9
$FILLETRAD
 40
10.0
  9
$AUNITS
 70
     0
  9
$AUPREC
 70
     2
  9
$MENU
  1
.
  9
$ELEVATION
 40
0.0
  9
$PELEVATION
 40
0.0
  9
$THICKNESS
 40
0.0
  9
$LIMCHECK
 70
     0
  9
$CHAMFERA
 40
0.0
  9
$CHAMFERB
 40
0.0
  9
$CHAMFERC
 40
0.0
  9
$CHAMFERD
 40
0.0
  9
$SKPOLY
 70
     0
  9
$TDCREATE
 40
2459999.641736111
  9
$TDUCREATE
 40
2459999.183413704
  9
$TDUPDATE
 40
2460011.711215278
  9
$TDUUPDATE
 40
2460011.252881945
  9
$TDINDWG
 40
0.0081018634
  9
$TDUSRTIMER
 40
0.0081018634
  9
$USRTIMER
 70
     1
  9
$ANGBASE
 50
0.0
  9
$ANGDIR
 70
     0
  9
$PDMODE
 70
     0
  9
$PDSIZE
 40
-1.0
  9
$PLINEWID
 40
0.0
  9
$SPLFRAME
 70
     0
  9
$SPLINETYPE
 70
     6
  9
$SPLINESEGS
 70
     8
  9
$HANDSEED
  5
326
  9
$SURFTAB1
 70
     6
  9
$SURFTAB2
 70
     6
  9
$SURFTYPE
 70
     6
  9
$SURFU
 70
     6
  9
$SURFV
 70
     6
  9
$UCSBASE
  2

  9
$UCSNAME
  2

  9
$UCSORG
 10
0.0
 20
0.0
 30
0.0
  9
$UCSXDIR
 10
1.0
 20
0.0
 30
0.0
  9
$UCSYDIR
 10
0.0
 20
1.0
 30
0.0
  9
$UCSORTHOREF
  2

  9
$UCSORTHOVIEW
 70
     0
  9
$UCSORGTOP
 10
0.0
 20
0.0
 30
0.0
  9
$UCSORGBOTTOM
 10
0.0
 20
0.0
 30
0.0
  9
$UCSORGLEFT
 10
0.0
 20
0.0
 30
0.0
  9
$UCSORGRIGHT
 10
0.0
 20
0.0
 30
0.0
  9
$UCSORGFRONT
 10
0.0
 20
0.0
 30
0.0
  9
$UCSORGBACK
 10
0.0
 20
0.0
 30
0.0
  9
$PUCSBASE
  2

  9
$PUCSNAME
  2

  9
$PUCSORG
 10
0.0
 20
0.0
 30
0.0
  9
$PUCSXDIR
 10
1.0
 20
0.0
 30
0.0
  9
$PUCSYDIR
 10
0.0
 20
1.0
 30
0.0
  9
$PUCSORTHOREF
  2

  9
$PUCSORTHOVIEW
 70
     0
  9
$PUCSORGTOP
 10
0.0
 20
0.0
 30
0.0
  9
$PUCSORGBOTTOM
 10
0.0
 20
0.0
 30
0.0
  9
$PUCSORGLEFT
 10
0.0
 20
0.0
 30
0.0
  9
$PUCSORGRIGHT
 10
0.0
 20
0.0
 30
0.0
  9
$PUCSORGFRONT
 10
0.0
 20
0.0
 30
0.0
  9
$PUCSORGBACK
 10
0.0
 20
0.0
 30
0.0
  9
$USERI1
 70
     0
  9
$USERI2
 70
     0
  9
$USERI3
 70
     0
  9
$USERI4
 70
     0
  9
$USERI5
 70
     0
  9
$USERR1
 40
0.0
  9
$USERR2
 40
0.0
  9
$USERR3
 40
0.0
  9
$USERR4
 40
0.0
  9
$USERR5
 40
0.0
  9
$WORLDVIEW
 70
     1
  9
$SHADEDGE
 70
     3
  9
$SHADEDIF
 70
    70
  9
$TILEMODE
 70
     1
  9
$MAXACTVP
 70
    64
  9
$PINSBASE
 10
0.0
 20
0.0
 30
0.0
  9
$PLIMCHECK
 70
     0
  9
$PEXTMIN
 10
1.000000000000000E+20
 20
1.000000000000000E+20
 30
1.000000000000000E+20
  9
$PEXTMAX
 10
-1.000000000000000E+20
 20
-1.000000000000000E+20
 30
-1.000000000000000E+20
  9
$PLIMMIN
 10
0.0
 20
0.0
  9
$PLIMMAX
 10
420.0
 20
297.0
  9
$UNITMODE
 70
     0
  9
$VISRETAIN
 70
     1
  9
$PLINEGEN
 70
     0
  9
$PSLTSCALE
 70
     1
  9
$TREEDEPTH
 70
  3020
  9
$CMLSTYLE
  2
Standard
  9
$CMLJUST
 70
     0
  9
$CMLSCALE
 40
20.0
  9
$PROXYGRAPHICS
 70
     1
  9
$MEASUREMENT
 70
     1
  9
$CELWEIGHT
370
    -1
  9
$ENDCAPS
280
     0
  9
$JOINSTYLE
280
     0
  9
$LWDISPLAY
290
     1
  9
$INSUNITS
 70
     4
  9
$HYPERLINKBASE
  1

  9
$STYLESHEET
  1

  9
$XEDIT
290
     1
  9
$CEPSNTYPE
380
     0
  9
$PSTYLEMODE
290
     1
  9
$FINGERPRINTGUID
  2
{A1CB3AFA-A7C2-42BF-BE96-3B225CE20DFC}
  9
$VERSIONGUID
  2
{E3A549E5-B477-E943-88DA-0F4C9CD80C93}
  9
$EXTNAMES
290
     1
  9
$PSVPSCALE
 40
0.0
  9
$OLESTARTUP
290
     0
  9
$SORTENTS
280
   127
  9
$INDEXCTL
280
     0
  9
$HIDETEXT
280
     0
  9
$XCLIPFRAME
280
     2
  9
$HALOGAP
280
     0
  9
$OBSCOLOR
 70
   257
  9
$OBSLTYPE
280
     0
  9
$INTERSECTIONDISPLAY
280
     0
  9
$INTERSECTIONCOLOR
 70
   257
  9
$DIMASSOC
280
     1
  9
$PROJECTNAME
  1

  9
$CAMERADISPLAY
290
     0
  9
$LENSLENGTH
 40
50.0
  9
$CAMERAHEIGHT
 40
0.0
  9
$STEPSPERSEC
 40
2.0
  9
$STEPSIZE
 40
6.0
  9
$3DDWFPREC
 40
2.0
  9
$PSOLWIDTH
 40
0.25
  9
$PSOLHEIGHT
 40
4.0
  9
$LOFTANG1
 40
1.570796326794896
  9
$LOFTANG2
 40
1.570796326794896
  9
$LOFTMAG1
 40
0.0
  9
$LOFTMAG2
 40
0.0
  9
$LOFTPARAM
 70
     7
  9
$LOFTNORMALS
280
     1
  9
$LATITUDE
 40
37.795
  9
$LONGITUDE
 40
-122.394
  9
$NORTHDIRECTION
 40
0.0
  9
$TIMEZONE
 70
 -8000
  9
$LIGHTGLYPHDISPLAY
280
     1
  9
$TILEMODELIGHTSYNCH
280
     1
  9
$CMATERIAL
347
13D
  9
$SOLIDHIST
280
     0
  9
$SHOWHIST
280
     1
  9
$DWFFRAME
280
     2
  9
$DGNFRAME
280
     0
  9
$REALWORLDSCALE
290
     1
  9
$INTERFERECOLOR
 62
     1
  9
$INTERFEREOBJVS
345
15F
  9
$INTERFEREVPVS
346
15C
  9
$CSHADOW
280
     0
  9
$SHADOWPLANELOCATION
 40
0.0
  0
ENDSEC
  0
SECTION
  2
CLASSES
  0
CLASS
  1
ACDBDICTIONARYWDFLT
  2
AcDbDictionaryWithDefault
  3
ObjectDBX Classes
 90
        0
 91
        1
280
     0
281
     0
  0
CLASS
  1
VISUALSTYLE
  2
AcDbVisualStyle
  3
ObjectDBX Classes
 90
     4095
 91
       24
280
     0
281
     0
  0
CLASS
  1
MATERIAL
  2
AcDbMaterial
  3
ObjectDBX Classes
 90
     1153
 91
        3
280
     0
281
     0
  0
CLASS
  1
SCALE
  2
AcDbScale
  3
ObjectDBX Classes
 90
     1153
 91
       33
280
     0
281
     0
  0
CLASS
  1
TABLESTYLE
  2
AcDbTableStyle
  3
ObjectDBX Classes
 90
     4095
 91
        1
280
     0
281
     0
  0
CLASS
  1
MLEADERSTYLE
  2
AcDbMLeaderStyle
  3
ACDB_MLEADERSTYLE_CLASS
 90
     4095
 91
        1
280
     0
281
     0
  0
CLASS
  1
SUN
  2
AcDbSun
  3
SCENEOE
 90
     1153
 91
        0
280
     0
281
     0
  0
CLASS
  1
ACDBSECTIONVIEWSTYLE
  2
AcDbSectionViewStyle
  3
ObjectDBX Classes
 90
     1025
 91
        1
280
     0
281
     0
  0
CLASS
  1
ACDBDETAILVIEWSTYLE
  2
AcDbDetailViewStyle
  3
ObjectDBX Classes
 90
     1025
 91
        1
280
     0
281
     0
  0
CLASS
  1
ACDB_ALDIMOBJECTCONTEXTDATA_CLASS
  2
AcDbAlignedDimensionObjectContextData
  3
ObjectDBX Classes
 90
     1153
 91
       13
280
     0
281
     0
  0
CLASS
  1
DICTIONARYVAR
  2
AcDbDictionaryVar
  3
ObjectDBX Classes
 90
        0
 91
        9
280
     0
281
     0
  0
CLASS
  1
CELLSTYLEMAP
  2
AcDbCellStyleMap
  3
ObjectDBX Classes
 90
     1152
 91
        2
280
     0
281
     0
  0
ENDSEC
  0
SECTION
  2
TABLES
  0
TABLE
  2
VPORT
  5
8
330
0
100
AcDbSymbolTable
 70
     1
  0
VPORT
  5
29
330
8
100
AcDbSymbolTableRecord
100
AcDbViewportTableRecord
  2
*Active
 70
     0
 10
0.0
 20
0.0
 11
1.0
 21
1.0
 12
141.1352786943466
 22
152.2111735235781
 13
0.0
 23
0.0
 14
10.0
 24
10.0
 15
10.0
 25
10.0
 16
0.0
 26
0.0
 36
1.0
 17
0.0
 27
0.0
 37
0.0
 40
631.1421862508088
 41
2.21268925739005
 42
50.0
 43
0.0
 44
0.0
 50
0.0
 51
0.0
 71
     0
 72
  2000
 73
     1
 74
     3
 75
     0
 76
     0
 77
     0
 78
     0
281
     0
 65
     1
110
0.0
120
0.0
130
0.0
111
1.0
121
0.0
131
0.0
112
0.0
122
1.0
132
0.0
 79
     0
146
0.0
348
15B
 60
     3
 61
     5
292
     1
282
     1
141
0.0
142
0.0
 63
   250
421
  3355443
1001
ACAD_NAV_VCDISPLAY
1070
     3
  0
ENDTAB
  0
TABLE
  2
LTYPE
  5
5
330
0
100
AcDbSymbolTable
 70
     6
  0
LTYPE
  5
14
330
5
100
AcDbSymbolTableRecord
100
AcDbLinetypeTableRecord
  2
ByBlock
 70
     0
  3

 72
    65
 73
     0
 40
0.0
  0
LTYPE
  5
15
330
5
100
AcDbSymbolTableRecord
100
AcDbLinetypeTableRecord
  2
ByLayer
 70
     0
  3

 72
    65
 73
     0
 40
0.0
  0
LTYPE
  5
16
330
5
100
AcDbSymbolTableRecord
100
AcDbLinetypeTableRecord
  2
Continuous
 70
     0
  3
Solid line
 72
    65
 73
     0
 40
0.0
  0
LTYPE
  5
6E
330
5
100
AcDbSymbolTableRecord
100
AcDbLinetypeTableRecord
  2
HIDDEN
 70
     0
  3
Hidden __ __ __ __ __ __ __ __ __ __ __ __ __ __
 72
    65
 73
     2
 40
1.905
 49
1.27
 74
     0
 49
-0.635
 74
     0
  0
LTYPE
  5
6F
330
5
100
AcDbSymbolTableRecord
100
AcDbLinetypeTableRecord
  2
PHANTOM
 70
     0
  3
Phantom ______  __  __  ______  __  __  ______
 72
    65
 73
     6
 40
12.7
 49
6.349999999999998
 74
     0
 49
-1.27
 74
     0
 49
1.27
 74
     0
 49
-1.27
 74
     0
 49
1.27
 74
     0
 49
-1.27
 74
     0
  0
LTYPE
  5
70
330
5
100
AcDbSymbolTableRecord
100
AcDbLinetypeTableRecord
  2
CENTER
 70
     0
  3
Center ____ _ ____ _ ____ _ ____ _ ____ _ ____
 72
    65
 73
     4
 40
10.16
 49
6.349999999999998
 74
     0
 49
-1.27
 74
     0
 49
1.27
 74
     0
 49
-1.27
 74
     0
  0
LTYPE
  5
71
330
5
100
AcDbSymbolTableRecord
100
AcDbLinetypeTableRecord
  2
CENTERX2
 70
     0
  3
Center (2x) ________  __  ________  __  _____
 72
    65
 73
     4
 40
20.32
 49
12.7
 74
     0
 49
-2.54
 74
     0
 49
2.54
 74
     0
 49
-2.54
 74
     0
  0
LTYPE
  5
72
330
5
100
AcDbSymbolTableRecord
100
AcDbLinetypeTableRecord
  2
DOT2
 70
     0
  3
Dot (.5x) ........................................
 72
    65
 73
     2
 40
0.635
 49
0.0
 74
     0
 49
-0.635
 74
     0
  0
ENDTAB
  0
TABLE
  2
LAYER
  5
2
102
{ACAD_XDICTIONARY
360
1A9
102
}
330
0
100
AcDbSymbolTable
 70
     4
  0
LAYER
  5
10
102
{ACAD_XDICTIONARY
360
293
102
}
330
2
100
AcDbSymbolTableRecord
100
AcDbLayerTableRecord
  2
0
 70
     0
 62
     7
  6
Continuous
370
    -3
390
F
347
14D
348
0
  0
LAYER
  5
73
102
{ACAD_XDICTIONARY
360
295
102
}
330
2
100
AcDbSymbolTableRecord
100
AcDbLayerTableRecord
  2
FORMAT
 70
     0
 62
     7
  6
Continuous
370
    -3
390
F
347
14D
348
0
  0
LAYER
  5
17B
330
2
100
AcDbSymbolTableRecord
100
AcDbLayerTableRecord
  2
Defpoints
 70
     0
 62
     7
  6
Continuous
290
     0
370
    -3
390
F
347
14D
348
0
  0
LAYER
  5
1A1
102
{ACAD_XDICTIONARY
360
297
102
}
330
2
100
AcDbSymbolTableRecord
100
AcDbLayerTableRecord
  2
DIMENSION
 70
     0
 62
   255
  6
Continuous
370
    -3
390
F
347
14D
348
0
  0
ENDTAB
  0
TABLE
  2
STYLE
  5
3
330
0
100
AcDbSymbolTable
 70
     2
  0
STYLE
  5
11
330
3
100
AcDbSymbolTableRecord
100
AcDbTextStyleTableRecord
  2
Standard
 70
     0
 40
0.0
 41
1.0
 50
0.0
 71
     0
 42
3.5
  3
txt
  4

  0
STYLE
  5
A7
330
3
100
AcDbSymbolTableRecord
100
AcDbTextStyleTableRecord
  2
SLDTEXTSTYLE0
 70
     0
 40
0.0
 41
0.75
 50
0.0
 71
     0
 42
3.5
  3
TXT
  4

  0
ENDTAB
  0
TABLE
  2
VIEW
  5
6
330
0
100
AcDbSymbolTable
 70
     0
  0
ENDTAB
  0
TABLE
  2
UCS
  5
7
330
0
100
AcDbSymbolTable
 70
     0
  0
ENDTAB
  0
TABLE
  2
APPID
  5
9
330
0
100
AcDbSymbolTable
 70
     7
  0
APPID
  5
12
330
9
100
AcDbSymbolTableRecord
100
AcDbRegAppTableRecord
  2
ACAD
 70
     0
  0
APPID
  5
1A3
330
9
100
AcDbSymbolTableRecord
100
AcDbRegAppTableRecord
  2
ACAD_PSEXT
 70
     0
  0
APPID
  5
1A4
330
9
100
AcDbSymbolTableRecord
100
AcDbRegAppTableRecord
  2
AcadAnnotative
 70
     0
  0
APPID
  5
1A5
330
9
100
AcDbSymbolTableRecord
100
AcDbRegAppTableRecord
  2
ACAD_DSTYLE_DIMJAG
 70
     0
  0
APPID
  5
1A6
330
9
100
AcDbSymbolTableRecord
100
AcDbRegAppTableRecord
  2
ACAD_DSTYLE_DIMTALN
 70
     0
  0
APPID
  5
1A7
330
9
100
AcDbSymbolTableRecord
100
AcDbRegAppTableRecord
  2
ACAD_NAV_VCDISPLAY
 70
     0
  0
APPID
  5
1A8
330
9
100
AcDbSymbolTableRecord
100
AcDbRegAppTableRecord
  2
ACAD_DSTYLE_DIMBREAK
 70
     0
  0
ENDTAB
  0
TABLE
  2
DIMSTYLE
  5
A
330
0
100
AcDbSymbolTable
 70
     3
100
AcDbDimStyleTable
 71
     2
340
1A2
340
27
  0
DIMSTYLE
105
27
330
A
100
AcDbSymbolTableRecord
100
AcDbDimStyleTableRecord
  2
ISO-25
 70
     0
 41
2.5
 42
0.625
 43
3.75
 44
1.25
 73
     0
 74
     0
 77
     1
 78
     8
140
2.5
141
2.5
143
0.0393700787
147
0.625
171
     3
172
     1
271
     2
272
     2
274
     3
278
    44
283
     0
284
     8
340
11
  0
DIMSTYLE
105
A8
330
A
100
AcDbSymbolTableRecord
100
AcDbDimStyleTableRecord
  2
SLDDIMSTYLE0
 70
     0
 41
3.302
 44
0.0
 45
0.000000001
 73
     0
 74
     0
 77
     1
 78
     4
 79
     1
140
5.2916666667
147
1.3229166667
173
     1
271
     2
272
     2
276
     2
284
    12
340
A7
341
A9
343
A9
344
A9
  0
DIMSTYLE
105
1A2
102
{ACAD_REACTORS
330
17A
330
130
330
128
330
11E
330
189
330
BB
330
B3
330
A6
330
F2
330
EA
330
E2
102
}
330
A
100
AcDbSymbolTableRecord
100
AcDbDimStyleTableRecord
  2
RG Dimension Lines
 70
     0
 40
12.0
 41
3.5
 42
1.0
 43
10.0
 44
5.0
 49
5.0
 77
     2
140
8.0
141
0.0
147
4.0
172
     1
176
   256
177
   256
178
     7
271
     0
272
     0
290
     1
340
11
341
A9
342
A9
371
     0
372
     0
1001
ACAD_DSTYLE_DIMBREAK
1070
   391
1040
0.125
1001
AcadAnnotative
1000
AnnotativeData
1002
{
1070
     1
1070
     1
1002
}
1001
ACAD_DSTYLE_DIMJAG
1070
   388
1040
1.5
1001
ACAD_DSTYLE_DIMTALN
1070
   392
1070
     0
  0
ENDTAB
  0
TABLE
  2
BLOCK_RECORD
  5
1
330
0
100
AcDbSymbolTable
 70
    32
  0
BLOCK_RECORD
  5
1F
330
1
100
AcDbSymbolTableRecord
100
AcDbBlockTableRecord
  2
*Model_Space
340
22
 70
     0
280
     1
281
     0
  0
BLOCK_RECORD
  5
1B
330
1
100
AcDbSymbolTableRecord
100
AcDbBlockTableRecord
  2
*Paper_Space
340
1E
 70
     0
280
     1
281
     0
  0
BLOCK_RECORD
  5
23
330
1
100
AcDbSymbolTableRecord
100
AcDbBlockTableRecord
  2
*Paper_Space0
340
26
 70
     0
280
     1
281
     0
  0
BLOCK_RECORD
  5
A9
330
1
100
AcDbSymbolTableRecord
100
AcDbBlockTableRecord
  2
_None
340
0
 70
     0
280
     1
281
     0
  0
BLOCK_RECORD
  5
AC
330
1
100
AcDbSymbolTableRecord
100
AcDbBlockTableRecord
  2
_D
340
0
 70
     0
280
     1
281
     0
  0
BLOCK_RECORD
  5
B4
330
1
100
AcDbSymbolTableRecord
100
AcDbBlockTableRecord
  2
_D_1
340
0
 70
     0
280
     1
281
     0
  0
BLOCK_RECORD
  5
BC
330
1
100
AcDbSymbolTableRecord
100
AcDbBlockTableRecord
  2
_D_2
340
0
 70
     0
280
     1
281
     0
  0
BLOCK_RECORD
  5
E3
330
1
100
AcDbSymbolTableRecord
100
AcDbBlockTableRecord
  2
_D_3
340
0
 70
     0
280
     1
281
     0
  0
BLOCK_RECORD
  5
EB
330
1
100
AcDbSymbolTableRecord
100
AcDbBlockTableRecord
  2
_D_4
340
0
 70
     0
280
     1
281
     0
  0
BLOCK_RECORD
  5
F3
330
1
100
AcDbSymbolTableRecord
100
AcDbBlockTableRecord
  2
_D_5
340
0
 70
     0
280
     1
281
     0
  0
BLOCK_RECORD
  5
11F
330
1
100
AcDbSymbolTableRecord
100
AcDbBlockTableRecord
  2
_D_6
340
0
 70
     0
280
     1
281
     0
  0
BLOCK_RECORD
  5
129
330
1
100
AcDbSymbolTableRecord
100
AcDbBlockTableRecord
  2
_D_7
340
0
 70
     0
280
     1
281
     0
  0
BLOCK_RECORD
  5
131
330
1
100
AcDbSymbolTableRecord
100
AcDbBlockTableRecord
  2
_D_8
340
0
 70
     0
280
     1
281
     0
  0
BLOCK_RECORD
  5
17C
330
1
100
AcDbSymbolTableRecord
100
AcDbBlockTableRecord
  2
*D11
340
0
 70
     0
280
     1
281
     0
  0
BLOCK_RECORD
  5
18A
330
1
100
AcDbSymbolTableRecord
100
AcDbBlockTableRecord
  2
*D12
340
0
 70
     0
280
     1
281
     0
  0
BLOCK_RECORD
  5
197
330
1
100
AcDbSymbolTableRecord
100
AcDbBlockTableRecord
  2
*D13
340
0
 70
     0
280
     1
281
     0
  0
BLOCK_RECORD
  5
1BA
330
1
100
AcDbSymbolTableRecord
100
AcDbBlockTableRecord
  2
*D14
340
0
 70
     0
280
     1
281
     0
  0
BLOCK_RECORD
  5
1FE
330
1
100
AcDbSymbolTableRecord
100
AcDbBlockTableRecord
  2
*D15
340
0
 70
     0
280
     1
281
     0
  0
BLOCK_RECORD
  5
20C
330
1
100
AcDbSymbolTableRecord
100
AcDbBlockTableRecord
  2
*D16
340
0
 70
     0
280
     1
281
     0
  0
BLOCK_RECORD
  5
21A
330
1
100
AcDbSymbolTableRecord
100
AcDbBlockTableRecord
  2
*D17
340
0
 70
     0
280
     1
281
     0
  0
BLOCK_RECORD
  5
228
330
1
100
AcDbSymbolTableRecord
100
AcDbBlockTableRecord
  2
*D18
340
0
 70
     0
280
     1
281
     0
  0
BLOCK_RECORD
  5
23F
330
1
100
AcDbSymbolTableRecord
100
AcDbBlockTableRecord
  2
*D19
340
0
 70
     0
280
     1
281
     0
  0
BLOCK_RECORD
  5
24D
330
1
100
AcDbSymbolTableRecord
100
AcDbBlockTableRecord
  2
*D20
340
0
 70
     0
280
     1
281
     0
  0
BLOCK_RECORD
  5
25B
330
1
100
AcDbSymbolTableRecord
100
AcDbBlockTableRecord
  2
*D21
340
0
 70
     0
280
     1
281
     0
  0
BLOCK_RECORD
  5
269
330
1
100
AcDbSymbolTableRecord
100
AcDbBlockTableRecord
  2
*D22
340
0
 70
     0
280
     1
281
     0
  0
BLOCK_RECORD
  5
277
330
1
100
AcDbSymbolTableRecord
100
AcDbBlockTableRecord
  2
*D23
340
0
 70
     0
280
     1
281
     0
  0
BLOCK_RECORD
  5
285
330
1
100
AcDbSymbolTableRecord
100
AcDbBlockTableRecord
  2
*D24
340
0
 70
     0
280
     1
281
     0
  0
BLOCK_RECORD
  5
2AA
330
1
100
AcDbSymbolTableRecord
100
AcDbBlockTableRecord
  2
*D25
340
0
 70
     0
280
     1
281
     0
  0
BLOCK_RECORD
  5
2C3
330
1
100
AcDbSymbolTableRecord
100
AcDbBlockTableRecord
  2
*D27
340
0
 70
     0
280
     1
281
     0
  0
BLOCK_RECORD
  5
2CD
330
1
100
AcDbSymbolTableRecord
100
AcDbBlockTableRecord
  2
*D28
340
0
 70
     0
280
     1
281
     0
  0
BLOCK_RECORD
  5
2DB
330
1
100
AcDbSymbolTableRecord
100
AcDbBlockTableRecord
  2
*D29
340
0
 70
     0
280
     1
281
     0
  0
BLOCK_RECORD
  5
2F9
330
1
100
AcDbSymbolTableRecord
100
AcDbBlockTableRecord
  2
*D30
340
0
 70
     0
280
     1
281
     0
  0
BLOCK_RECORD
  5
313
330
1
100
AcDbSymbolTableRecord
100
AcDbBlockTableRecord
  2
*D31
340
0
 70
     0
280
     1
281
     0
  0
ENDTAB
  0
ENDSEC
  0
SECTION
  2
BLOCKS
  0
BLOCK
  5
20
330
1F
100
AcDbEntity
  8
0
100
AcDbBlockBegin
  2
*Model_Space
 70
     0
 10
0.0
 20
0.0
 30
0.0
  3
*Model_Space
  1

  0
ENDBLK
  5
21
330
1F
100
AcDbEntity
  8
0
100
AcDbBlockEnd
  0
BLOCK
  5
1C
330
1B
100
AcDbEntity
 67
     1
  8
0
100
AcDbBlockBegin
  2
*Paper_Space
 70
     0
 10
0.0
 20
0.0
 30
0.0
  3
*Paper_Space
  1

  0
ENDBLK
  5
1D
330
1B
100
AcDbEntity
 67
     1
  8
0
100
AcDbBlockEnd
  0
BLOCK
  5
24
330
23
100
AcDbEntity
 67
     1
  8
0
100
AcDbBlockBegin
  2
*Paper_Space0
 70
     0
 10
0.0
 20
0.0
 30
0.0
  3
*Paper_Space0
  1

  0
ENDBLK
  5
25
330
23
100
AcDbEntity
 67
     1
  8
0
100
AcDbBlockEnd
  0
BLOCK
  5
AA
330
A9
100
AcDbEntity
  8
0
100
AcDbBlockBegin
  2
_None
 70
     0
 10
0.0
 20
0.0
 30
0.0
  3
_None
  1

  0
ENDBLK
  5
AB
330
A9
100
AcDbEntity
  8
0
100
AcDbBlockEnd
  0
BLOCK
  5
AD
330
AC
100
AcDbEntity
  8
0
100
AcDbBlockBegin
  2
_D
 70
     0
 10
0.0
 20
0.0
 30
0.0
  3
_D
  1

  0
LINE
  5
AF
330
AC
100
AcDbEntity
  8
0
  6
Continuous
 62
     7
440
 16777216
370
     0
100
AcDbLine
 10
268.6695074783
 20
-19.9792259323
 30
0.0
 11
247.8819681583
 21
-19.9792259323
 31
0.0
  0
LINE
  5
B0
330
AC
100
AcDbEntity
  8
0
  6
Continuous
 62
     7
440
 16777216
370
     0
100
AcDbLine
 10
288.378381193
 20
-109.982475513
 30
0.0
 11
247.8819681583
 21
-109.982475513
 31
0.0
  0
LINE
  5
B1
330
AC
100
AcDbEntity
  8
0
  6
Continuous
 62
     7
440
 16777216
370
     0
100
AcDbLine
 10
248.8819681583
 20
-19.9792259323
 30
0.0
 11
248.8819681583
 21
-109.982475513
 31
0.0
  0
MTEXT
  5
B2
330
AC
100
AcDbEntity
  8
0
  6
Continuous
 62
     7
440
 16777216
370
    18
100
AcDbMText
 10
242.0606514851
 20
-71.70640886370001
 30
0.0
 40
5.2916666667
 41
0.0
 46
0.0
 71
     1
 72
     1
  1
90.00
  7
SLDTEXTSTYLE0
 11
-0.000000000000007
 21
1.0
 31
0.0
 73
     1
 44
1.0
  0
ENDBLK
  5
AE
330
AC
100
AcDbEntity
  8
0
100
AcDbBlockEnd
  0
BLOCK
  5
B5
330
B4
100
AcDbEntity
  8
0
100
AcDbBlockBegin
  2
_D_1
 70
     0
 10
0.0
 20
0.0
 30
0.0
  3
_D_1
  1

  0
LINE
  5
B7
330
B4
100
AcDbEntity
  8
0
  6
Continuous
 62
     7
440
 16777216
370
     0
100
AcDbLine
 10
400.5982947930998
 20
20.085674925
 30
0.0
 11
432.9819681583
 21
20.085674925
 31
0.0
  0
LINE
  5
B8
330
B4
100
AcDbEntity
  8
0
  6
Continuous
 62
     7
440
 16777216
370
     0
100
AcDbLine
 10
404.6205139185
 20
-64.9142259323
 30
0.0
 11
432.9819681583
 21
-64.9142259323
 31
0.0
  0
LINE
  5
B9
330
B4
100
AcDbEntity
  8
0
  6
Continuous
 62
     7
440
 16777216
370
     0
100
AcDbLine
 10
431.9819681582998
 20
20.085674925
 30
0.0
 11
431.9819681582998
 21
-64.9142259323
 31
0.0
  0
MTEXT
  5
BA
330
B4
100
AcDbEntity
  8
0
  6
Continuous
 62
     7
440
 16777216
370
    18
100
AcDbMText
 10
425.1606514850998
 20
-32.8113067747
 30
0.0
 40
5.2916666667
 41
0.0
 46
0.0
 71
     1
 72
     1
  1
85.00
  7
SLDTEXTSTYLE0
 11
-0.000000000000007
 21
1.0
 31
0.0
 73
     1
 44
1.0
  0
ENDBLK
  5
B6
330
B4
100
AcDbEntity
  8
0
100
AcDbBlockEnd
  0
BLOCK
  5
BD
330
BC
100
AcDbEntity
  8
0
100
AcDbBlockBegin
  2
_D_2
 70
     0
 10
0.0
 20
0.0
 30
0.0
  3
_D_2
  1

  0
LINE
  5
BF
330
BC
100
AcDbEntity
  8
0
  6
Continuous
 62
     7
440
 16777216
370
     0
100
AcDbLine
 10
349.8819681583
 20
-117.3843623209
 30
0.0
 11
349.8819681583
 21
-145.8568111777
 31
0.0
  0
LINE
  5
C0
330
BC
100
AcDbEntity
  8
0
  6
Continuous
 62
     7
440
 16777216
370
     0
100
AcDbLine
 10
295.8819681583
 20
-118.1062003334
 30
0.0
 11
295.8819681583
 21
-145.8568111777
 31
0.0
  0
LINE
  5
C1
330
BC
100
AcDbEntity
  8
0
  6
Continuous
 62
     7
440
 16777216
370
     0
100
AcDbLine
 10
349.8819681583
 20
-144.8568111777
 30
0.0
 11
295.8819681583
 21
-144.8568111777
 31
0.0
  0
MTEXT
  5
C2
330
BC
100
AcDbEntity
  8
0
  6
Continuous
 62
     7
440
 16777216
370
    18
100
AcDbMText
 10
309.5217043524
 20
-138.0354945045
 30
0.0
 40
5.2916666667
 41
0.0
 46
0.0
 71
     1
 72
     1
  1
%%c
  7
SLDTEXTSTYLE0
 73
     1
 44
1.0
  0
MTEXT
  5
C3
330
BC
100
AcDbEntity
  8
0
  6
Continuous
 62
     7
440
 16777216
370
    18
100
AcDbMText
 10
317.5091812377
 20
-138.0354945045
 30
0.0
 40
5.2916666667
 41
0.0
 46
0.0
 71
     1
 72
     1
  1
54.00
  7
SLDTEXTSTYLE0
 73
     1
 44
1.0
  0
ENDBLK
  5
BE
330
BC
100
AcDbEntity
  8
0
100
AcDbBlockEnd
  0
BLOCK
  5
E4
330
E3
100
AcDbEntity
  8
0
100
AcDbBlockBegin
  2
_D_3
 70
     0
 10
0.0
 20
0.0
 30
0.0
  3
_D_3
  1

  0
LINE
  5
E6
330
E3
100
AcDbEntity
  8
0
  6
Continuous
 62
     7
440
 16777216
370
     0
100
AcDbLine
 10
-4.770230849199998
 20
220.1997637722
 30
0.0
 11
-144.039992407
 21
220.1997637722
 31
0.0
  0
LINE
  5
E7
330
E3
100
AcDbEntity
  8
0
  6
Continuous
 62
     7
440
 16777216
370
     0
100
AcDbLine
 10
-110.4414322901
 20
-109.982475513
 30
0.0
 11
-144.039992407
 21
-109.982475513
 31
0.0
  0
LINE
  5
E8
330
E3
100
AcDbEntity
  8
0
  6
Continuous
 62
     7
440
 16777216
370
     0
100
AcDbLine
 10
-143.039992407
 20
220.1997637722
 30
0.0
 11
-143.039992407
 21
-109.982475513
 31
0.0
  0
MTEXT
  5
E9
330
E3
100
AcDbEntity
  8
0
  6
Continuous
 62
     7
440
 16777216
370
    18
100
AcDbMText
 10
-149.8613090802
 20
45.2552318697
 30
0.0
 40
5.2916666667
 41
0.0
 46
0.0
 71
     1
 72
     1
  1
330.00
  7
SLDTEXTSTYLE0
 11
-0.000000000000007
 21
1.0
 31
0.0
 73
     1
 44
1.0
  0
ENDBLK
  5
E5
330
E3
100
AcDbEntity
  8
0
100
AcDbBlockEnd
  0
BLOCK
  5
EC
330
EB
100
AcDbEntity
  8
0
100
AcDbBlockBegin
  2
_D_4
 70
     0
 10
0.0
 20
0.0
 30
0.0
  3
_D_4
  1

  0
LINE
  5
EE
330
EB
100
AcDbEntity
  8
0
  6
Continuous
 62
     7
440
 16777216
370
     0
100
AcDbLine
 10
-70.039992407
 20
-118.8357927307
 30
0.0
 11
-70.039992407
 21
-150.982475513
 31
0.0
  0
LINE
  5
EF
330
EB
100
AcDbEntity
  8
0
  6
Continuous
 62
     7
440
 16777216
370
     0
100
AcDbLine
 10
139.9600075406
 20
69.94758961869999
 30
0.0
 11
139.9600075406
 21
-150.982475513
 31
0.0
  0
LINE
  5
F0
330
EB
100
AcDbEntity
  8
0
  6
Continuous
 62
     7
440
 16777216
370
     0
100
AcDbLine
 10
-70.039992407
 20
-149.982475513
 30
0.0
 11
139.9600075406
 21
-149.982475513
 31
0.0
  0
MTEXT
  5
F1
330
EB
100
AcDbEntity
  8
0
  6
Continuous
 62
     7
440
 16777216
370
    18
100
AcDbMText
 10
22.7557402304
 20
-143.1611588398
 30
0.0
 40
5.2916666667
 41
0.0
 46
0.0
 71
     1
 72
     1
  1
210.00
  7
SLDTEXTSTYLE0
 73
     1
 44
1.0
  0
ENDBLK
  5
ED
330
EB
100
AcDbEntity
  8
0
100
AcDbBlockEnd
  0
BLOCK
  5
F4
330
F3
100
AcDbEntity
  8
0
100
AcDbBlockBegin
  2
_D_5
 70
     0
 10
0.0
 20
0.0
 30
0.0
  3
_D_5
  1

  0
LINE
  5
F6
330
F3
100
AcDbEntity
  8
0
  6
Continuous
 62
     7
440
 16777216
370
     0
100
AcDbLine
 10
-27.6186977295
 20
-109.982475513
 30
0.0
 11
188.0230413483
 21
-109.982475513
 31
0.0
  0
LINE
  5
F7
330
F3
100
AcDbEntity
  8
0
  6
Continuous
 62
     7
440
 16777216
370
     0
100
AcDbLine
 10
162.1589110551
 20
79.9007740677
 30
0.0
 11
188.0230413483
 21
79.9007740677
 31
0.0
  0
LINE
  5
F8
330
F3
100
AcDbEntity
  8
0
  6
Continuous
 62
     7
440
 16777216
370
     0
100
AcDbLine
 10
187.0230413483
 20
-109.982475513
 30
0.0
 11
187.0230413483
 21
79.9007740677
 31
0.0
  0
MTEXT
  5
F9
330
F3
100
AcDbEntity
  8
0
  6
Continuous
 62
     7
440
 16777216
370
    18
100
AcDbMText
 10
180.2017246751
 20
-36.17959818260001
 30
0.0
 40
5.2916666667
 41
0.0
 46
0.0
 71
     1
 72
     1
  1
190.00
  7
SLDTEXTSTYLE0
 11
-0.0000000000000002
 21
1.0
 31
0.0
 73
     1
 44
1.0
  0
ENDBLK
  5
F5
330
F3
100
AcDbEntity
  8
0
100
AcDbBlockEnd
  0
BLOCK
  5
120
330
11F
100
AcDbEntity
  8
0
100
AcDbBlockBegin
  2
_D_6
 70
     0
 10
0.0
 20
0.0
 30
0.0
  3
_D_6
  1

  0
LINE
  5
122
330
11F
100
AcDbEntity
  8
0
  6
Continuous
 62
     7
440
 16777216
370
     0
100
AcDbLine
 10
148.8657954104
 20
364.678891289
 30
0.0
 11
168.0750075406
 21
364.678891289
 31
0.0
  0
LINE
  5
123
330
11F
100
AcDbEntity
  8
0
  6
Continuous
 62
     7
440
 16777216
370
     0
100
AcDbLine
 10
151.4014634477
 20
342.478891289
 30
0.0
 11
168.0750075406
 21
342.478891289
 31
0.0
  0
LINE
  5
124
330
11F
100
AcDbEntity
  8
0
  6
Continuous
 62
     7
440
 16777216
370
     0
100
AcDbLine
 10
167.0750075406
 20
364.678891289
 30
0.0
 11
167.0750075406
 21
342.478891289
 31
0.0
  0
LINE
  5
125
330
11F
100
AcDbEntity
  8
0
  6
Continuous
 62
     7
440
 16777216
370
     0
100
AcDbLine
 10
167.0750075406
 20
342.478891289
 30
0.0
 11
167.0750075406
 21
313.4533339165
 31
0.0
  0
MTEXT
  5
126
330
11F
100
AcDbEntity
  8
0
  6
Continuous
 62
     7
440
 16777216
370
    18
100
AcDbMText
 10
160.2536908674
 20
313.4533339165
 30
0.0
 40
5.2916666667
 41
0.0
 46
0.0
 71
     1
 72
     1
  1
%%c
  7
SLDTEXTSTYLE0
 11
-0.000000000000007
 21
1.0
 31
0.0
 73
     1
 44
1.0
  0
MTEXT
  5
127
330
11F
100
AcDbEntity
  8
0
  6
Continuous
 62
     7
440
 16777216
370
    18
100
AcDbMText
 10
160.2536908674
 20
321.4408108018
 30
0.0
 40
5.2916666667
 41
0.0
 46
0.0
 71
     1
 72
     1
  1
22.00
  7
SLDTEXTSTYLE0
 11
-0.000000000000007
 21
1.0
 31
0.0
 73
     1
 44
1.0
  0
ENDBLK
  5
121
330
11F
100
AcDbEntity
  8
0
100
AcDbBlockEnd
  0
BLOCK
  5
12A
330
129
100
AcDbEntity
  8
0
100
AcDbBlockBegin
  2
_D_7
 70
     0
 10
0.0
 20
0.0
 30
0.0
  3
_D_7
  1

  0
LINE
  5
12C
330
129
100
AcDbEntity
  8
0
  6
Continuous
 62
     7
440
 16777216
370
     0
100
AcDbLine
 10
-102.6637700776
 20
428.6741938006
 30
0.0
 11
-138.039992407
 21
428.6741938006
 31
0.0
  0
LINE
  5
12D
330
129
100
AcDbEntity
  8
0
  6
Continuous
 62
     7
440
 16777216
370
     0
100
AcDbLine
 10
-100.8163996591
 20
307.5741938006
 30
0.0
 11
-138.039992407
 21
307.5741938006
 31
0.0
  0
LINE
  5
12E
330
129
100
AcDbEntity
  8
0
  6
Continuous
 62
     7
440
 16777216
370
     0
100
AcDbLine
 10
-137.039992407
 20
428.6741938006
 30
0.0
 11
-137.039992407
 21
307.5741938006
 31
0.0
  0
MTEXT
  5
12F
330
129
100
AcDbEntity
  8
0
  6
Continuous
 62
     7
440
 16777216
370
    18
100
AcDbMText
 10
-143.8613090802
 20
353.6775896595
 30
0.0
 40
5.2916666667
 41
0.0
 46
0.0
 71
     1
 72
     1
  1
120.00
  7
SLDTEXTSTYLE0
 11
-0.0000000000000106
 21
1.0
 31
0.0
 73
     1
 44
1.0
  0
ENDBLK
  5
12B
330
129
100
AcDbEntity
  8
0
100
AcDbBlockEnd
  0
BLOCK
  5
132
330
131
100
AcDbEntity
  8
0
100
AcDbBlockBegin
  2
_D_8
 70
     0
 10
0.0
 20
0.0
 30
0.0
  3
_D_8
  1

  0
LINE
  5
134
330
131
100
AcDbEntity
  8
0
  6
Continuous
 62
     7
440
 16777216
370
     0
100
AcDbLine
 10
-92.5399921264
 20
433.4621440041998
 30
0.0
 11
-92.5399921264
 21
455.404819634
 31
0.0
  0
LINE
  5
135
330
131
100
AcDbEntity
  8
0
  6
Continuous
 62
     7
440
 16777216
370
     0
100
AcDbLine
 10
-47.5399921264
 20
433.8623225194
 30
0.0
 11
-47.5399921264
 21
455.404819634
 31
0.0
  0
LINE
  5
136
330
131
100
AcDbEntity
  8
0
  6
Continuous
 62
     7
440
 16777216
370
     0
100
AcDbLine
 10
-92.5399921264
 20
454.404819634
 30
0.0
 11
-47.5399921264
 21
454.404819634
 31
0.0
  0
MTEXT
  5
137
330
131
100
AcDbEntity
  8
0
  6
Continuous
 62
     7
440
 16777216
370
    18
100
AcDbMText
 10
-84.1011099065
 20
461.2261363072
 30
0.0
 40
5.2916666667
 41
0.0
 46
0.0
 71
     1
 72
     1
  1
%%c
  7
SLDTEXTSTYLE0
 73
     1
 44
1.0
  0
MTEXT
  5
138
330
131
100
AcDbEntity
  8
0
  6
Continuous
 62
     7
440
 16777216
370
    18
100
AcDbMText
 10
-76.1136330212
 20
461.2261363072
 30
0.0
 40
5.2916666667
 41
0.0
 46
0.0
 71
     1
 72
     1
  1
45.00
  7
SLDTEXTSTYLE0
 73
     1
 44
1.0
  0
ENDBLK
  5
133
330
131
100
AcDbEntity
  8
0
100
AcDbBlockEnd
  0
BLOCK
  5
17D
330
17C
100
AcDbEntity
  8
0
100
AcDbBlockBegin
  2
*D11
 70
     1
 10
0.0
 20
0.0
 30
0.0
  3
*D11
  1

  0
LINE
  5
17F
330
17C
100
AcDbEntity
  8
0
 62
     0
440
 16777216
370
    -2
100
AcDbLine
 10
-71.03998627045005
 20
428.6741938006001
 30
0.0
 11
-111.776060638306
 21
428.6741938006001
 31
0.0
  0
LINE
  5
180
330
17C
100
AcDbEntity
  8
0
 62
     0
440
 16777216
370
    -2
100
AcDbLine
 10
-71.03999240700002
 20
353.5741938006002
 30
0.0
 11
-111.776060638306
 21
353.5741938006002
 31
0.0
  0
LINE
  5
181
330
17C
100
AcDbEntity
  8
0
 62
     0
440
 16777216
370
    -2
100
AcDbLine
 10
-110.776060638306
 20
425.3721938006002
 30
0.0
 11
-110.776060638306
 21
394.6898604672668
 31
0.0
  0
LINE
  5
182
330
17C
100
AcDbEntity
  8
0
 62
     0
440
 16777216
370
    -2
100
AcDbLine
 10
-110.776060638306
 20
356.8761938006001
 30
0.0
 11
-110.776060638306
 21
387.5585271339335
 31
0.0
  0
SOLID
  5
183
330
17C
100
AcDbEntity
  8
0
 62
     0
440
 16777216
100
AcDbTrace
 10
-111.3263939716393
 20
425.3721938006002
 30
0.0
 11
-110.2257273049727
 21
425.3721938006002
 31
0.0
 12
-110.776060638306
 22
428.6741938006001
 32
0.0
 13
-110.776060638306
 23
428.6741938006001
 33
0.0
  0
SOLID
  5
184
330
17C
100
AcDbEntity
  8
0
 62
     0
440
 16777216
100
AcDbTrace
 10
-111.3263939716393
 20
356.8761938006001
 30
0.0
 11
-110.2257273049726
 21
356.8761938006001
 31
0.0
 12
-110.776060638306
 22
353.5741938006002
 32
0.0
 13
-110.776060638306
 23
353.5741938006002
 33
0.0
  0
MTEXT
  5
185
330
17C
100
AcDbEntity
  8
0
 62
     0
440
 16777216
100
AcDbMText
 10
-110.7760606383058
 20
391.1241938006002
 30
0.0
 40
3.5
 41
0.0
 46
0.0
 71
     5
 72
     1
  1
375,50
 73
     1
 44
1.0
  0
POINT
  5
186
330
17C
100
AcDbEntity
  8
Defpoints
 62
     0
440
 16777216
100
AcDbPoint
 10
-70.03998627045004
 20
428.6741938006001
 30
0.0
  0
POINT
  5
187
330
17C
100
AcDbEntity
  8
Defpoints
 62
     0
440
 16777216
100
AcDbPoint
 10
-70.03999240700003
 20
353.5741938006002
 30
0.0
  0
POINT
  5
188
330
17C
100
AcDbEntity
  8
Defpoints
 62
     0
440
 16777216
100
AcDbPoint
 10
-110.776060638306
 20
353.5741938006002
 30
0.0
  0
ENDBLK
  5
17E
330
17C
100
AcDbEntity
  8
0
100
AcDbBlockEnd
  0
BLOCK
  5
18B
330
18A
100
AcDbEntity
  8
0
100
AcDbBlockBegin
  2
*D12
 70
     1
 10
0.0
 20
0.0
 30
0.0
  3
*D12
  1

  0
LINE
  5
18D
330
18A
100
AcDbEntity
  8
0
 62
     0
440
 16777216
370
    -2
100
AcDbLine
 10
323.8819681583001
 20
-109.982475513
 30
0.0
 11
415.0162944398968
 21
-109.982475513
 31
0.0
  0
LINE
  5
18E
330
18A
100
AcDbEntity
  8
0
 62
     0
440
 16777216
370
    -2
100
AcDbLine
 10
369.8819681583001
 20
-42.47922593230001
 30
0.0
 11
415.0162944398968
 21
-42.4792259323
 31
0.0
  0
LINE
  5
18F
330
18A
100
AcDbEntity
  8
0
 62
     0
440
 16777216
370
    -2
100
AcDbLine
 10
414.0162944398968
 20
-106.680475513
 30
0.0
 11
414.0162944398968
 21
-79.79651738931668
 31
0.0
  0
LINE
  5
190
330
18A
100
AcDbEntity
  8
0
 62
     0
440
 16777216
370
    -2
100
AcDbLine
 10
414.0162944398968
 20
-45.78122593229999
 30
0.0
 11
414.0162944398968
 21
-72.66518405598334
 31
0.0
  0
SOLID
  5
191
330
18A
100
AcDbEntity
  8
0
 62
     0
440
 16777216
100
AcDbTrace
 10
413.4659611065634
 20
-106.680475513
 30
0.0
 11
414.5666277732302
 21
-106.680475513
 31
0.0
 12
414.0162944398968
 22
-109.982475513
 32
0.0
 13
414.0162944398968
 23
-109.982475513
 33
0.0
  0
SOLID
  5
192
330
18A
100
AcDbEntity
  8
0
 62
     0
440
 16777216
100
AcDbTrace
 10
413.4659611065634
 20
-45.78122593229999
 30
0.0
 11
414.5666277732302
 21
-45.78122593229999
 31
0.0
 12
414.0162944398968
 22
-42.4792259323
 32
0.0
 13
414.0162944398968
 23
-42.4792259323
 33
0.0
  0
MTEXT
  5
193
330
18A
100
AcDbEntity
  8
0
 62
     0
440
 16777216
100
AcDbMText
 10
414.0162944398968
 20
-76.23085072265013
 30
0.0
 40
3.5
 41
0.0
 46
0.0
 71
     5
 72
     1
  1
337,52
 73
     1
 44
1.0
  0
POINT
  5
194
330
18A
100
AcDbEntity
  8
Defpoints
 62
     0
440
 16777216
100
AcDbPoint
 10
322.8819681583001
 20
-109.982475513
 30
0.0
  0
POINT
  5
195
330
18A
100
AcDbEntity
  8
Defpoints
 62
     0
440
 16777216
100
AcDbPoint
 10
368.8819681583002
 20
-42.47922593230001
 30
0.0
  0
POINT
  5
196
330
18A
100
AcDbEntity
  8
Defpoints
 62
     0
440
 16777216
100
AcDbPoint
 10
414.0162944398968
 20
-42.4792259323
 30
0.0
  0
ENDBLK
  5
18C
330
18A
100
AcDbEntity
  8
0
100
AcDbBlockEnd
  0
BLOCK
  5
198
330
197
100
AcDbEntity
  8
0
100
AcDbBlockBegin
  2
*D13
 70
     1
 10
0.0
 20
0.0
 30
0.0
  3
*D13
  1

  0
LINE
  5
199
330
197
100
AcDbEntity
  8
DIMENSION
440
 16777216
370
     0
100
AcDbLine
 10
1092.625159377854
 20
969.7937323929263
 30
0.0
 11
1092.569709633547
 21
979.7935786580374
 31
0.0
  0
LINE
  5
19A
330
197
100
AcDbEntity
  8
DIMENSION
440
 16777216
370
     0
100
AcDbLine
 10
1454.657182624691
 20
971.8012215670347
 30
0.0
 11
1454.601732880384
 21
981.8010678321456
 31
0.0
  0
LINE
  5
19B
330
197
100
AcDbEntity
  8
DIMENSION
440
 16777216
370
     0
100
AcDbLine
 10
1092.597434505701
 20
974.793655525482
 30
0.0
 11
1454.629457752537
 21
976.8011446995902
 31
0.0
  0
MTEXT
  5
19C
330
197
100
AcDbEntity
  8
DIMENSION
 62
     7
440
 16777216
100
AcDbMText
 10
1273.568105608173
 20
983.9741418578537
 30
0.0
 40
8.0
 41
0.0
 46
0.0
 71
     5
 72
     1
  1
\A1;362
 73
     1
 44
1.0
  0
POINT
  5
19D
330
197
100
AcDbEntity
  8
Defpoints
 62
     0
440
 16777216
100
AcDbPoint
 10
1092.771920384362
 20
943.3267482592359
 30
0.0
  0
POINT
  5
19E
330
197
100
AcDbEntity
  8
Defpoints
 62
     0
440
 16777216
100
AcDbPoint
 10
1454.803943631198
 20
945.3342374333445
 30
0.0
  0
POINT
  5
19F
330
197
100
AcDbEntity
  8
Defpoints
 62
     0
440
 16777216
100
AcDbPoint
 10
1454.629457752537
 20
976.8011446995902
 30
0.0
  0
ENDBLK
  5
1A0
330
197
100
AcDbEntity
  8
0
100
AcDbBlockEnd
  0
BLOCK
  5
1BB
330
1BA
100
AcDbEntity
  8
0
100
AcDbBlockBegin
  2
*D14
 70
     1
 10
0.0
 20
0.0
 30
0.0
  3
*D14
  1

  0
LINE
  5
1BD
330
1BA
100
AcDbEntity
  8
DIMENSION
440
 16777216
370
     0
100
AcDbLine
 10
408.2604471958522
 20
438.9512465399056
 30
0.0
 11
408.2049974515454
 21
448.9510928050168
 31
0.0
  0
LINE
  5
1BE
330
1BA
100
AcDbEntity
  8
DIMENSION
440
 16777216
370
     0
100
AcDbLine
 10
770.2924704426889
 20
440.9587357140139
 30
0.0
 11
770.2370206983819
 21
450.9585819791252
 31
0.0
  0
LINE
  5
1BF
330
1BA
100
AcDbEntity
  8
DIMENSION
440
 16777216
370
     0
100
AcDbLine
 10
408.2327223236989
 20
443.9511696724614
 30
0.0
 11
770.2647455705354
 21
445.9586588465696
 31
0.0
  0
MTEXT
  5
1C0
330
1BA
100
AcDbEntity
  8
DIMENSION
 62
     7
440
 16777216
100
AcDbMText
 10
589.2039238814287
 20
453.0359933269653
 30
0.0
 40
8.0
 41
0.0
 46
0.0
 71
     5
 72
     1
  1
\A1;362
 73
     1
 44
1.0
  0
POINT
  5
1C1
330
1BA
100
AcDbEntity
  8
Defpoints
 62
     0
440
 16777216
100
AcDbPoint
 10
408.40720820236
 20
412.4842624062153
 30
0.0
  0
POINT
  5
1C2
330
1BA
100
AcDbEntity
  8
Defpoints
 62
     0
440
 16777216
100
AcDbPoint
 10
770.4392314491964
 20
414.4917515803236
 30
0.0
  0
POINT
  5
1C3
330
1BA
100
AcDbEntity
  8
Defpoints
 62
     0
440
 16777216
100
AcDbPoint
 10
770.2647455705354
 20
445.9586588465696
 30
0.0
  0
ENDBLK
  5
1BC
330
1BA
100
AcDbEntity
  8
0
100
AcDbBlockEnd
  0
BLOCK
  5
1FF
330
1FE
100
AcDbEntity
  8
0
100
AcDbBlockBegin
  2
*D15
 70
     1
 10
0.0
 20
0.0
 30
0.0
  3
*D15
  1

  0
LINE
  5
201
330
1FE
100
AcDbEntity
  8
DIMENSION
440
 16777216
370
     0
100
AcDbLine
 10
-105.776060638306
 20
428.6741938006001
 30
0.0
 11
-115.776060638306
 21
428.6741938006001
 31
0.0
  0
LINE
  5
202
330
1FE
100
AcDbEntity
  8
DIMENSION
440
 16777216
370
     0
100
AcDbLine
 10
-105.776060638306
 20
353.5741938006002
 30
0.0
 11
-115.776060638306
 21
353.5741938006002
 31
0.0
  0
LINE
  5
203
330
1FE
100
AcDbEntity
  8
DIMENSION
440
 16777216
370
     0
100
AcDbLine
 10
-110.776060638306
 20
428.6741938006001
 30
0.0
 11
-110.776060638306
 21
353.5741938006002
 31
0.0
  0
MTEXT
  5
204
330
1FE
100
AcDbEntity
  8
DIMENSION
 62
     7
440
 16777216
100
AcDbMText
 10
-121.4427273049726
 20
391.1241938006002
 30
0.0
 40
8.0
 41
0.0
 46
0.0
 71
     5
 72
     1
  1
\A1;75
 73
     1
 44
1.0
  0
POINT
  5
205
330
1FE
100
AcDbEntity
  8
Defpoints
 62
     0
440
 16777216
100
AcDbPoint
 10
-70.03998627045004
 20
428.6741938006001
 30
0.0
  0
POINT
  5
206
330
1FE
100
AcDbEntity
  8
Defpoints
 62
     0
440
 16777216
100
AcDbPoint
 10
-70.03999240700003
 20
353.5741938006002
 30
0.0
  0
POINT
  5
207
330
1FE
100
AcDbEntity
  8
Defpoints
 62
     0
440
 16777216
100
AcDbPoint
 10
-110.776060638306
 20
353.5741938006002
 30
0.0
  0
ENDBLK
  5
200
330
1FE
100
AcDbEntity
  8
0
100
AcDbBlockEnd
  0
BLOCK
  5
20D
330
20C
100
AcDbEntity
  8
0
100
AcDbBlockBegin
  2
*D16
 70
     1
 10
0.0
 20
0.0
 30
0.0
  3
*D16
  1

  0
LINE
  5
20F
330
20C
100
AcDbEntity
  8
DIMENSION
440
 16777216
370
     0
100
AcDbLine
 10
-92.5399921264
 20
449.404819634
 30
0.0
 11
-92.5399921264
 21
459.404819634
 31
0.0
  0
LINE
  5
210
330
20C
100
AcDbEntity
  8
DIMENSION
440
 16777216
370
     0
100
AcDbLine
 10
-47.5399921264
 20
449.404819634
 30
0.0
 11
-47.5399921264
 21
459.404819634
 31
0.0
  0
LINE
  5
211
330
20C
100
AcDbEntity
  8
DIMENSION
440
 16777216
370
     0
100
AcDbLine
 10
-92.5399921264
 20
454.404819634
 30
0.0
 11
-47.5399921264
 21
454.404819634
 31
0.0
  0
MTEXT
  5
212
330
20C
100
AcDbEntity
  8
DIMENSION
 62
     7
440
 16777216
100
AcDbMText
 10
-71.3124248678
 20
466.404819634
 30
0.0
 40
8.0
 41
0.0
 46
0.0
 71
     2
 72
     1
  1
\A1;%%c45
 73
     1
 44
1.0
  0
POINT
  5
213
330
20C
100
AcDbEntity
  8
Defpoints
 62
     0
440
 16777216
100
AcDbPoint
 10
-92.5399921264
 20
428.5741938005998
 30
0.0
  0
POINT
  5
214
330
20C
100
AcDbEntity
  8
Defpoints
 62
     0
440
 16777216
100
AcDbPoint
 10
-47.5399921264
 20
428.5741938005998
 30
0.0
  0
POINT
  5
215
330
20C
100
AcDbEntity
  8
Defpoints
 62
     0
440
 16777216
100
AcDbPoint
 10
-47.5399921264
 20
454.404819634
 30
0.0
  0
ENDBLK
  5
20E
330
20C
100
AcDbEntity
  8
0
100
AcDbBlockEnd
  0
BLOCK
  5
21B
330
21A
100
AcDbEntity
  8
0
100
AcDbBlockBegin
  2
*D17
 70
     1
 10
0.0
 20
0.0
 30
0.0
  3
*D17
  1

  0
LINE
  5
238
330
21A
100
AcDbEntity
  8
DIMENSION
440
 16777216
370
     0
100
AcDbLine
 10
-132.0399924070001
 20
428.6741938006001
 30
0.0
 11
-142.0399924070001
 21
428.6741938006001
 31
0.0
  0
LINE
  5
239
330
21A
100
AcDbEntity
  8
DIMENSION
440
 16777216
370
     0
100
AcDbLine
 10
-132.0399924070001
 20
307.5741938006002
 30
0.0
 11
-142.0399924070001
 21
307.5741938006002
 31
0.0
  0
LINE
  5
23A
330
21A
100
AcDbEntity
  8
DIMENSION
440
 16777216
370
     0
100
AcDbLine
 10
-137.0399924070001
 20
428.6741938006001
 30
0.0
 11
-137.0399924070001
 21
307.5741938006002
 31
0.0
  0
MTEXT
  5
23B
330
21A
100
AcDbEntity
  8
DIMENSION
 62
     7
440
 16777216
100
AcDbMText
 10
-149.7066590736666
 20
368.4275127248
 30
0.0
 40
8.0
 41
0.0
 46
0.0
 71
     2
 72
     1
  1
\A1;120
 73
     1
 44
1.0
  0
POINT
  5
23C
330
21A
100
AcDbEntity
  8
Defpoints
 62
     0
440
 16777216
100
AcDbPoint
 10
-92.43999212640005
 20
428.6741938006001
 30
0.0
  0
POINT
  5
23D
330
21A
100
AcDbEntity
  8
Defpoints
 62
     0
440
 16777216
100
AcDbPoint
 10
-92.53999240700004
 20
307.5741938006002
 30
0.0
  0
POINT
  5
23E
330
21A
100
AcDbEntity
  8
Defpoints
 62
     0
440
 16777216
100
AcDbPoint
 10
-137.0399924070001
 20
307.5741938006002
 30
0.0
  0
ENDBLK
  5
21C
330
21A
100
AcDbEntity
  8
0
100
AcDbBlockEnd
  0
BLOCK
  5
229
330
228
100
AcDbEntity
  8
0
100
AcDbBlockBegin
  2
*D18
 70
     1
 10
0.0
 20
0.0
 30
0.0
  3
*D18
  1

  0
LINE
  5
22B
330
228
100
AcDbEntity
  8
DIMENSION
440
 16777216
370
     0
100
AcDbLine
 10
176.7416742072665
 20
364.6788912890002
 30
0.0
 11
186.7416742072665
 21
364.6788912890002
 31
0.0
  0
LINE
  5
22C
330
228
100
AcDbEntity
  8
DIMENSION
440
 16777216
370
     0
100
AcDbLine
 10
176.7416742072665
 20
342.4788912890001
 30
0.0
 11
186.7416742072665
 21
342.4788912890001
 31
0.0
  0
LINE
  5
22D
330
228
100
AcDbEntity
  8
DIMENSION
440
 16777216
370
     0
100
AcDbLine
 10
181.7416742072665
 20
364.6788912890002
 30
0.0
 11
181.7416742072665
 21
342.4788912890001
 31
0.0
  0
LINE
  5
22E
330
228
100
AcDbEntity
  8
DIMENSION
440
 16777216
370
     0
100
AcDbLine
 10
181.7416742072665
 20
342.4788912890001
 30
0.0
 11
181.7416742072665
 21
326.2420189552001
 31
0.0
  0
LINE
  5
22F
330
228
100
AcDbEntity
  8
DIMENSION
440
 16777216
370
     0
100
AcDbLine
 10
181.7416742072665
 20
326.2420189552001
 30
0.0
 11
156.4083408739332
 21
326.2420189552001
 31
0.0
  0
MTEXT
  5
230
330
228
100
AcDbEntity
  8
DIMENSION
 62
     7
440
 16777216
100
AcDbMText
 10
167.0750075406
 20
322.2420189552
 30
0.0
 40
8.0
 41
0.0
 46
0.0
 71
     2
 72
     1
  1
\A1;%%c22
 73
     1
 44
1.0
  0
POINT
  5
231
330
228
100
AcDbEntity
  8
Defpoints
 62
     0
440
 16777216
100
AcDbPoint
 10
139.9600075406
 20
364.6788912890002
 30
0.0
  0
POINT
  5
232
330
228
100
AcDbEntity
  8
Defpoints
 62
     0
440
 16777216
100
AcDbPoint
 10
139.9600075406
 20
342.4788912890001
 30
0.0
  0
POINT
  5
233
330
228
100
AcDbEntity
  8
Defpoints
 62
     0
440
 16777216
100
AcDbPoint
 10
181.7416742072665
 20
342.4788912890001
 30
0.0
  0
ENDBLK
  5
22A
330
228
100
AcDbEntity
  8
0
100
AcDbBlockEnd
  0
BLOCK
  5
240
330
23F
100
AcDbEntity
  8
0
100
AcDbBlockBegin
  2
*D19
 70
     1
 10
0.0
 20
0.0
 30
0.0
  3
*D19
  1

  0
LINE
  5
242
330
23F
100
AcDbEntity
  8
DIMENSION
440
 16777216
370
     0
100
AcDbLine
 10
409.0162944398971
 20
-109.982475513
 30
0.0
 11
419.0162944398971
 21
-109.982475513
 31
0.0
  0
LINE
  5
243
330
23F
100
AcDbEntity
  8
DIMENSION
440
 16777216
370
     0
100
AcDbLine
 10
409.0162944398971
 20
-42.4792259323
 30
0.0
 11
419.0162944398971
 21
-42.4792259323
 31
0.0
  0
LINE
  5
244
330
23F
100
AcDbEntity
  8
DIMENSION
440
 16777216
370
     0
100
AcDbLine
 10
414.0162944398971
 20
-109.982475513
 30
0.0
 11
414.0162944398971
 21
-42.4792259323
 31
0.0
  0
MTEXT
  5
245
330
23F
100
AcDbEntity
  8
DIMENSION
 62
     7
440
 16777216
100
AcDbMText
 10
424.6829611065637
 20
-76.23085072265013
 30
0.0
 40
8.0
 41
0.0
 46
0.0
 71
     5
 72
     1
  1
\A1;68
 73
     1
 44
1.0
  0
POINT
  5
246
330
23F
100
AcDbEntity
  8
Defpoints
 62
     0
440
 16777216
100
AcDbPoint
 10
322.8819681583001
 20
-109.982475513
 30
0.0
  0
POINT
  5
247
330
23F
100
AcDbEntity
  8
Defpoints
 62
     0
440
 16777216
100
AcDbPoint
 10
368.8819681583002
 20
-42.47922593230001
 30
0.0
  0
POINT
  5
248
330
23F
100
AcDbEntity
  8
Defpoints
 62
     0
440
 16777216
100
AcDbPoint
 10
414.0162944398971
 20
-42.4792259323
 30
0.0
  0
ENDBLK
  5
241
330
23F
100
AcDbEntity
  8
0
100
AcDbBlockEnd
  0
BLOCK
  5
24E
330
24D
100
AcDbEntity
  8
0
100
AcDbBlockBegin
  2
*D20
 70
     1
 10
0.0
 20
0.0
 30
0.0
  3
*D20
  1

  0
LINE
  5
250
330
24D
100
AcDbEntity
  8
DIMENSION
440
 16777216
370
     0
100
AcDbLine
 10
349.8819681583
 20
-139.8568111777
 30
0.0
 11
349.8819681583
 21
-149.8568111777
 31
0.0
  0
LINE
  5
251
330
24D
100
AcDbEntity
  8
DIMENSION
440
 16777216
370
     0
100
AcDbLine
 10
295.8819681583
 20
-139.8568111777
 30
0.0
 11
295.8819681583
 21
-149.8568111777
 31
0.0
  0
LINE
  5
252
330
24D
100
AcDbEntity
  8
DIMENSION
440
 16777216
370
     0
100
AcDbLine
 10
349.8819681583
 20
-144.8568111777
 30
0.0
 11
295.8819681583
 21
-144.8568111777
 31
0.0
  0
MTEXT
  5
253
330
24D
100
AcDbEntity
  8
DIMENSION
 62
     7
440
 16777216
100
AcDbMText
 10
322.3103893911
 20
-148.8568111777
 30
0.0
 40
8.0
 41
0.0
 46
0.0
 71
     2
 72
     1
  1
\A1;%%c54
 73
     1
 44
1.0
  0
POINT
  5
254
330
24D
100
AcDbEntity
  8
Defpoints
 62
     0
440
 16777216
100
AcDbPoint
 10
349.8819681583
 20
-109.982475513
 30
0.0
  0
POINT
  5
255
330
24D
100
AcDbEntity
  8
Defpoints
 62
     0
440
 16777216
100
AcDbPoint
 10
295.8819681583
 20
-109.982475513
 30
0.0
  0
POINT
  5
256
330
24D
100
AcDbEntity
  8
Defpoints
 62
     0
440
 16777216
100
AcDbPoint
 10
295.8819681583
 20
-144.8568111777
 30
0.0
  0
ENDBLK
  5
24F
330
24D
100
AcDbEntity
  8
0
100
AcDbBlockEnd
  0
BLOCK
  5
25C
330
25B
100
AcDbEntity
  8
0
100
AcDbBlockBegin
  2
*D21
 70
     1
 10
0.0
 20
0.0
 30
0.0
  3
*D21
  1

  0
LINE
  5
25E
330
25B
100
AcDbEntity
  8
DIMENSION
440
 16777216
370
     0
100
AcDbLine
 10
426.9819681582999
 20
20.08567492500001
 30
0.0
 11
436.9819681583001
 21
20.08567492500001
 31
0.0
  0
LINE
  5
25F
330
25B
100
AcDbEntity
  8
DIMENSION
440
 16777216
370
     0
100
AcDbLine
 10
426.9819681582999
 20
-64.91422593230002
 30
0.0
 11
436.9819681583001
 21
-64.91422593230002
 31
0.0
  0
LINE
  5
260
330
25B
100
AcDbEntity
  8
DIMENSION
440
 16777216
370
     0
100
AcDbLine
 10
431.9819681583001
 20
20.08567492500001
 30
0.0
 11
431.9819681583001
 21
-64.91422593230002
 31
0.0
  0
MTEXT
  5
261
330
25B
100
AcDbEntity
  8
DIMENSION
 62
     7
440
 16777216
100
AcDbMText
 10
442.6486348249667
 20
-20.0163601787
 30
0.0
 40
8.0
 41
0.0
 46
0.0
 71
     2
 72
     1
  1
\A1;85
 73
     1
 44
1.0
  0
POINT
  5
262
330
25B
100
AcDbEntity
  8
Defpoints
 62
     0
440
 16777216
100
AcDbPoint
 10
387.5819681583002
 20
20.085674925
 30
0.0
  0
POINT
  5
263
330
25B
100
AcDbEntity
  8
Defpoints
 62
     0
440
 16777216
100
AcDbPoint
 10
397.8819681583003
 20
-64.91422593230002
 30
0.0
  0
POINT
  5
264
330
25B
100
AcDbEntity
  8
Defpoints
 62
     0
440
 16777216
100
AcDbPoint
 10
431.9819681583001
 20
-64.91422593230002
 30
0.0
  0
ENDBLK
  5
25D
330
25B
100
AcDbEntity
  8
0
100
AcDbBlockEnd
  0
BLOCK
  5
26A
330
269
100
AcDbEntity
  8
0
100
AcDbBlockBegin
  2
*D22
 70
     1
 10
0.0
 20
0.0
 30
0.0
  3
*D22
  1

  0
LINE
  5
26C
330
269
100
AcDbEntity
  8
DIMENSION
440
 16777216
370
     0
100
AcDbLine
 10
253.8819681583001
 20
-19.97922593230001
 30
0.0
 11
243.8819681583001
 21
-19.97922593230001
 31
0.0
  0
LINE
  5
26D
330
269
100
AcDbEntity
  8
DIMENSION
440
 16777216
370
     0
100
AcDbLine
 10
253.8819681583001
 20
-109.982475513
 30
0.0
 11
243.8819681583001
 21
-109.982475513
 31
0.0
  0
LINE
  5
26E
330
269
100
AcDbEntity
  8
DIMENSION
440
 16777216
370
     0
100
AcDbLine
 10
248.8819681583001
 20
-19.97922593230001
 30
0.0
 11
248.8819681583001
 21
-109.982475513
 31
0.0
  0
MTEXT
  5
26F
330
269
100
AcDbEntity
  8
DIMENSION
 62
     7
440
 16777216
100
AcDbMText
 10
238.8819681583
 20
-58.9114622677
 30
0.0
 40
8.0
 41
0.0
 46
0.0
 71
     2
 72
     1
  1
\A1;90
 73
     1
 44
1.0
  0
POINT
  5
270
330
269
100
AcDbEntity
  8
Defpoints
 62
     0
440
 16777216
100
AcDbPoint
 10
276.8819681583001
 20
-19.97922593230001
 30
0.0
  0
POINT
  5
271
330
269
100
AcDbEntity
  8
Defpoints
 62
     0
440
 16777216
100
AcDbPoint
 10
295.8819681583001
 20
-109.982475513
 30
0.0
  0
POINT
  5
272
330
269
100
AcDbEntity
  8
Defpoints
 62
     0
440
 16777216
100
AcDbPoint
 10
248.8819681583001
 20
-109.982475513
 30
0.0
  0
ENDBLK
  5
26B
330
269
100
AcDbEntity
  8
0
100
AcDbBlockEnd
  0
BLOCK
  5
278
330
277
100
AcDbEntity
  8
0
100
AcDbBlockBegin
  2
*D23
 70
     1
 10
0.0
 20
0.0
 30
0.0
  3
*D23
  1

  0
LINE
  5
27A
330
277
100
AcDbEntity
  8
DIMENSION
440
 16777216
370
     0
100
AcDbLine
 10
182.0230413483001
 20
-109.982475513
 30
0.0
 11
192.0230413483001
 21
-109.982475513
 31
0.0
  0
LINE
  5
27B
330
277
100
AcDbEntity
  8
DIMENSION
440
 16777216
370
     0
100
AcDbLine
 10
182.0230413483
 20
79.90077406770004
 30
0.0
 11
192.0230413483
 21
79.90077406770004
 31
0.0
  0
LINE
  5
27C
330
277
100
AcDbEntity
  8
DIMENSION
440
 16777216
370
     0
100
AcDbLine
 10
187.0230413483001
 20
-109.982475513
 30
0.0
 11
187.0230413483
 21
79.90077406770004
 31
0.0
  0
MTEXT
  5
27D
330
277
100
AcDbEntity
  8
DIMENSION
 62
     7
440
 16777216
100
AcDbMText
 10
199.6897080149667
 20
-21.4296751172
 30
0.0
 40
8.0
 41
0.0
 46
0.0
 71
     2
 72
     1
  1
\A1;190
 73
     1
 44
1.0
  0
POINT
  5
27E
330
277
100
AcDbEntity
  8
Defpoints
 62
     0
440
 16777216
100
AcDbPoint
 10
-43.039992407
 20
-109.982475513
 30
0.0
  0
POINT
  5
27F
330
277
100
AcDbEntity
  8
Defpoints
 62
     0
440
 16777216
100
AcDbPoint
 10
151.0750075406
 20
79.90077406770001
 30
0.0
  0
POINT
  5
280
330
277
100
AcDbEntity
  8
Defpoints
 62
     0
440
 16777216
100
AcDbPoint
 10
187.0230413483
 20
79.90077406770004
 30
0.0
  0
ENDBLK
  5
279
330
277
100
AcDbEntity
  8
0
100
AcDbBlockEnd
  0
BLOCK
  5
286
330
285
100
AcDbEntity
  8
0
100
AcDbBlockBegin
  2
*D24
 70
     1
 10
0.0
 20
0.0
 30
0.0
  3
*D24
  1

  0
LINE
  5
288
330
285
100
AcDbEntity
  8
DIMENSION
440
 16777216
370
     0
100
AcDbLine
 10
-70.039992407
 20
-144.982475513
 30
0.0
 11
-70.039992407
 21
-154.982475513
 31
0.0
  0
LINE
  5
289
330
285
100
AcDbEntity
  8
DIMENSION
440
 16777216
370
     0
100
AcDbLine
 10
139.9600075406
 20
-144.982475513
 30
0.0
 11
139.9600075406
 21
-154.982475513
 31
0.0
  0
LINE
  5
28A
330
285
100
AcDbEntity
  8
DIMENSION
440
 16777216
370
     0
100
AcDbLine
 10
-70.039992407
 20
-149.982475513
 30
0.0
 11
139.9600075406
 21
-149.982475513
 31
0.0
  0
MTEXT
  5
28B
330
285
100
AcDbEntity
  8
DIMENSION
 62
     7
440
 16777216
100
AcDbMText
 10
33.5056632957
 20
-153.982475513
 30
0.0
 40
8.0
 41
0.0
 46
0.0
 71
     2
 72
     1
  1
\A1;210
 73
     1
 44
1.0
  0
POINT
  5
28C
330
285
100
AcDbEntity
  8
Defpoints
 62
     0
440
 16777216
100
AcDbPoint
 10
-70.039992407
 20
-109.982475513
 30
0.0
  0
POINT
  5
28D
330
285
100
AcDbEntity
  8
Defpoints
 62
     0
440
 16777216
100
AcDbPoint
 10
139.9600075406
 20
79.9007740677
 30
0.0
  0
POINT
  5
28E
330
285
100
AcDbEntity
  8
Defpoints
 62
     0
440
 16777216
100
AcDbPoint
 10
139.9600075406
 20
-149.982475513
 30
0.0
  0
ENDBLK
  5
287
330
285
100
AcDbEntity
  8
0
100
AcDbBlockEnd
  0
BLOCK
  5
2AB
330
2AA
100
AcDbEntity
  8
0
100
AcDbBlockBegin
  2
*D25
 70
     1
 10
0.0
 20
0.0
 30
0.0
  3
*D25
  1

  0
LINE
  5
2AC
330
2AA
100
AcDbEntity
  8
DIMENSION
440
 16777216
370
     0
100
AcDbLine
 10
1172.888482669961
 20
873.5437678414225
 30
0.0
 11
1173.543862461803
 21
863.5652670858759
 31
0.0
  0
LINE
  5
2AD
330
2AA
100
AcDbEntity
  8
DIMENSION
440
 16777216
370
     0
100
AcDbLine
 10
1389.96165926289
 20
887.8009570500323
 30
0.0
 11
1390.617039054732
 21
877.8224562944856
 31
0.0
  0
LINE
  5
2AE
330
2AA
100
AcDbEntity
  8
DIMENSION
440
 16777216
370
     0
100
AcDbLine
 10
1173.216172565882
 20
868.5545174636491
 30
0.0
 11
1390.289349158811
 21
882.8117066722589
 31
0.0
  0
MTEXT
  5
2AF
330
2AA
100
AcDbEntity
  8
DIMENSION
 62
     7
440
 16777216
100
AcDbMText
 10
1282.338398572325
 20
866.7664710542403
 30
0.0
 40
8.0
 41
0.0
 46
0.0
 71
     5
 72
     1
  1
\A1;218
 73
     1
 44
1.0
  0
POINT
  5
2B0
330
2AA
100
AcDbEntity
  8
Defpoints
 62
     0
440
 16777216
100
AcDbPoint
 10
1170.676986263
 20
907.2149594808593
 30
0.0
  0
POINT
  5
2B1
330
2AA
100
AcDbEntity
  8
Defpoints
 62
     0
440
 16777216
100
AcDbPoint
 10
1387.750162855929
 20
921.472148689469
 30
0.0
  0
POINT
  5
2B2
330
2AA
100
AcDbEntity
  8
Defpoints
 62
     0
440
 16777216
100
AcDbPoint
 10
1390.289349158811
 20
882.8117066722589
 30
0.0
  0
ENDBLK
  5
2B3
330
2AA
100
AcDbEntity
  8
0
100
AcDbBlockEnd
  0
BLOCK
  5
2C4
330
2C3
100
AcDbEntity
  8
0
100
AcDbBlockBegin
  2
*D27
 70
     1
 10
0.0
 20
0.0
 30
0.0
  3
*D27
  1

  0
LINE
  5
2C6
330
2C3
100
AcDbEntity
  8
DIMENSION
440
 16777216
370
     0
100
AcDbLine
 10
479.2199677977978
 20
135.880249367863
 30
0.0
 11
479.8753475896405
 21
125.9017486123164
 31
0.0
  0
LINE
  5
2C7
330
2C3
100
AcDbEntity
  8
DIMENSION
440
 16777216
370
     0
100
AcDbLine
 10
696.2931443907274
 20
150.1374385764729
 30
0.0
 11
696.9485241825699
 21
140.1589378209262
 31
0.0
  0
LINE
  5
2C8
330
2C3
100
AcDbEntity
  8
DIMENSION
440
 16777216
370
     0
100
AcDbLine
 10
479.5476576937192
 20
130.8909989900897
 30
0.0
 11
696.6208342866487
 21
145.1481881986996
 31
0.0
  0
MTEXT
  5
2C9
330
2C3
100
AcDbEntity
  8
DIMENSION
 62
     7
440
 16777216
100
AcDbMText
 10
588.6646922995704
 20
129.1819943750429
 30
0.0
 40
8.0
 41
0.0
 46
0.0
 71
     5
 72
     1
  1
\A1;218
 73
     1
 44
1.0
  0
POINT
  5
2CA
330
2C3
100
AcDbEntity
  8
Defpoints
 62
     0
440
 16777216
100
AcDbPoint
 10
477.0084713908372
 20
169.5514410073
 30
0.0
  0
POINT
  5
2CB
330
2C3
100
AcDbEntity
  8
Defpoints
 62
     0
440
 16777216
100
AcDbPoint
 10
694.0816479837666
 20
183.8086302159098
 30
0.0
  0
POINT
  5
2CC
330
2C3
100
AcDbEntity
  8
Defpoints
 62
     0
440
 16777216
100
AcDbPoint
 10
696.6208342866487
 20
145.1481881986996
 30
0.0
  0
ENDBLK
  5
2C5
330
2C3
100
AcDbEntity
  8
0
100
AcDbBlockEnd
  0
BLOCK
  5
2CE
330
2CD
100
AcDbEntity
  8
0
100
AcDbBlockBegin
  2
*D28
 70
     1
 10
0.0
 20
0.0
 30
0.0
  3
*D28
  1

  0
LINE
  5
2D0
330
2CD
100
AcDbEntity
  8
DIMENSION
440
 16777216
370
     0
100
AcDbLine
 10
-138.0399924070001
 20
220.1997637722001
 30
0.0
 11
-148.0399924070001
 21
220.1997637722001
 31
0.0
  0
LINE
  5
2D1
330
2CD
100
AcDbEntity
  8
DIMENSION
440
 16777216
370
     0
100
AcDbLine
 10
-138.039992407
 20
-109.982475513
 30
0.0
 11
-148.039992407
 21
-109.982475513
 31
0.0
  0
LINE
  5
2D2
330
2CD
100
AcDbEntity
  8
DIMENSION
440
 16777216
370
     0
100
AcDbLine
 10
-143.0399924070001
 20
220.1997637722001
 30
0.0
 11
-143.039992407
 21
-109.982475513
 31
0.0
  0
MTEXT
  5
2D3
330
2CD
100
AcDbEntity
  8
DIMENSION
 62
     7
440
 16777216
100
AcDbMText
 10
-157.039992407
 20
60.005154935
 30
0.0
 40
8.0
 41
0.0
 46
0.0
 71
     2
 72
     1
  1
\A1;330
 73
     1
 44
1.0
  0
POINT
  5
2D4
330
2CD
100
AcDbEntity
  8
Defpoints
 62
     0
440
 16777216
100
AcDbPoint
 10
35.44403276450001
 20
220.1997637722001
 30
0.0
  0
POINT
  5
2D5
330
2CD
100
AcDbEntity
  8
Defpoints
 62
     0
440
 16777216
100
AcDbPoint
 10
-97.03999240700007
 20
-109.982475513
 30
0.0
  0
POINT
  5
2D6
330
2CD
100
AcDbEntity
  8
Defpoints
 62
     0
440
 16777216
100
AcDbPoint
 10
-143.039992407
 20
-109.982475513
 30
0.0
  0
ENDBLK
  5
2CF
330
2CD
100
AcDbEntity
  8
0
100
AcDbBlockEnd
  0
BLOCK
  5
2DC
330
2DB
100
AcDbEntity
  8
0
100
AcDbBlockBegin
  2
*D29
 70
     1
 10
0.0
 20
0.0
 30
0.0
  3
*D29
  1

  0
LINE
  5
303
330
2DB
100
AcDbEntity
  8
DIMENSION
440
 16777216
370
     0
100
AcDbLine
 10
176.7416742072665
 20
364.6788912890002
 30
0.0
 11
186.7416742072665
 21
364.6788912890002
 31
0.0
  0
LINE
  5
304
330
2DB
100
AcDbEntity
  8
DIMENSION
440
 16777216
370
     0
100
AcDbLine
 10
176.7416742072665
 20
342.4788912890001
 30
0.0
 11
186.7416742072665
 21
342.4788912890001
 31
0.0
  0
LINE
  5
305
330
2DB
100
AcDbEntity
  8
DIMENSION
440
 16777216
370
     0
100
AcDbLine
 10
181.7416742072665
 20
364.6788912890002
 30
0.0
 11
181.7416742072665
 21
342.4788912890001
 31
0.0
  0
LINE
  5
306
330
2DB
100
AcDbEntity
  8
DIMENSION
440
 16777216
370
     0
100
AcDbLine
 10
181.7416742072665
 20
342.4788912890001
 30
0.0
 11
181.7416742072665
 21
326.2420189552001
 31
0.0
  0
LINE
  5
307
330
2DB
100
AcDbEntity
  8
DIMENSION
440
 16777216
370
     0
100
AcDbLine
 10
181.7416742072665
 20
326.2420189552001
 30
0.0
 11
156.4083408739332
 21
326.2420189552001
 31
0.0
  0
MTEXT
  5
308
330
2DB
100
AcDbEntity
  8
DIMENSION
 62
     7
440
 16777216
100
AcDbMText
 10
167.0750075406
 20
322.2420189552
 30
0.0
 40
8.0
 41
0.0
 46
0.0
 71
     2
 72
     1
  1
\A1;%%c22
 73
     1
 44
1.0
  0
POINT
  5
309
330
2DB
100
AcDbEntity
  8
Defpoints
 62
     0
440
 16777216
100
AcDbPoint
 10
139.9600075406
 20
364.6788912890002
 30
0.0
  0
POINT
  5
30A
330
2DB
100
AcDbEntity
  8
Defpoints
 62
     0
440
 16777216
100
AcDbPoint
 10
139.9600075406
 20
342.4788912890001
 30
0.0
  0
POINT
  5
30B
330
2DB
100
AcDbEntity
  8
Defpoints
 62
     0
440
 16777216
100
AcDbPoint
 10
181.7416742072665
 20
342.4788912890001
 30
0.0
  0
ENDBLK
  5
2DD
330
2DB
100
AcDbEntity
  8
0
100
AcDbBlockEnd
  0
BLOCK
  5
2FA
330
2F9
100
AcDbEntity
  8
0
100
AcDbBlockBegin
  2
*D30
 70
     1
 10
0.0
 20
0.0
 30
0.0
  3
*D30
  1

  0
LINE
  5
30C
330
2F9
100
AcDbEntity
  8
DIMENSION
440
 16777216
370
     0
100
AcDbLine
 10
-92.5399921264
 20
449.404819634
 30
0.0
 11
-92.5399921264
 21
459.404819634
 31
0.0
  0
LINE
  5
30D
330
2F9
100
AcDbEntity
  8
DIMENSION
440
 16777216
370
     0
100
AcDbLine
 10
-47.5399921264
 20
449.404819634
 30
0.0
 11
-47.5399921264
 21
459.404819634
 31
0.0
  0
LINE
  5
30E
330
2F9
100
AcDbEntity
  8
DIMENSION
440
 16777216
370
     0
100
AcDbLine
 10
-92.5399921264
 20
454.404819634
 30
0.0
 11
-47.5399921264
 21
454.404819634
 31
0.0
  0
MTEXT
  5
30F
330
2F9
100
AcDbEntity
  8
DIMENSION
 62
     7
440
 16777216
100
AcDbMText
 10
-71.3124248678
 20
466.404819634
 30
0.0
 40
8.0
 41
0.0
 46
0.0
 71
     2
 72
     1
  1
\A1;%%c45
 73
     1
 44
1.0
  0
POINT
  5
310
330
2F9
100
AcDbEntity
  8
Defpoints
 62
     0
440
 16777216
100
AcDbPoint
 10
-92.5399921264
 20
428.5741938005998
 30
0.0
  0
POINT
  5
311
330
2F9
100
AcDbEntity
  8
Defpoints
 62
     0
440
 16777216
100
AcDbPoint
 10
-47.5399921264
 20
428.5741938005998
 30
0.0
  0
POINT
  5
312
330
2F9
100
AcDbEntity
  8
Defpoints
 62
     0
440
 16777216
100
AcDbPoint
 10
-47.5399921264
 20
454.404819634
 30
0.0
  0
ENDBLK
  5
2FB
330
2F9
100
AcDbEntity
  8
0
100
AcDbBlockEnd
  0
BLOCK
  5
314
330
313
100
AcDbEntity
  8
0
100
AcDbBlockBegin
  2
*D31
 70
     1
 10
0.0
 20
0.0
 30
0.0
  3
*D31
  1

  0
LINE
  5
31D
330
313
100
AcDbEntity
  8
DIMENSION
440
 16777216
370
     0
100
AcDbLine
 10
349.8819681583
 20
-139.8568111777
 30
0.0
 11
349.8819681583
 21
-149.8568111777
 31
0.0
  0
LINE
  5
31E
330
313
100
AcDbEntity
  8
DIMENSION
440
 16777216
370
     0
100
AcDbLine
 10
295.8819681583
 20
-139.8568111777
 30
0.0
 11
295.8819681583
 21
-149.8568111777
 31
0.0
  0
LINE
  5
31F
330
313
100
AcDbEntity
  8
DIMENSION
440
 16777216
370
     0
100
AcDbLine
 10
349.8819681583
 20
-144.8568111777
 30
0.0
 11
295.8819681583
 21
-144.8568111777
 31
0.0
  0
MTEXT
  5
320
330
313
100
AcDbEntity
  8
DIMENSION
 62
     7
440
 16777216
100
AcDbMText
 10
322.3103893911
 20
-148.8568111777
 30
0.0
 40
8.0
 41
0.0
 46
0.0
 71
     2
 72
     1
  1
\A1;%%c54
 73
     1
 44
1.0
  0
POINT
  5
321
330
313
100
AcDbEntity
  8
Defpoints
 62
     0
440
 16777216
100
AcDbPoint
 10
349.8819681583
 20
-109.982475513
 30
0.0
  0
POINT
  5
322
330
313
100
AcDbEntity
  8
Defpoints
 62
     0
440
 16777216
100
AcDbPoint
 10
295.8819681583
 20
-109.982475513
 30
0.0
  0
POINT
  5
323
330
313
100
AcDbEntity
  8
Defpoints
 62
     0
440
 16777216
100
AcDbPoint
 10
295.8819681583
 20
-144.8568111777
 30
0.0
  0
ENDBLK
  5
315
330
313
100
AcDbEntity
  8
0
100
AcDbBlockEnd
  0
ENDSEC
  0
SECTION
  2
ENTITIES
  0
LINE
  5
74
330
1F
100
AcDbEntity
  8
DIMENSION
100
AcDbLine
 10
345.3819681583
 20
-105.982475513
 30
0.0
 11
345.3819681583
 21
-64.9792259323
 31
0.0
  0
LINE
  5
75
330
1F
100
AcDbEntity
  8
DIMENSION
100
AcDbLine
 10
300.3819681583
 20
-64.9792259323
 30
0.0
 11
300.3819681583
 21
-105.982475513
 31
0.0
  0
LINE
  5
76
330
1F
100
AcDbEntity
  8
0
  6
Continuous
 62
     7
370
    25
100
AcDbLine
 10
334.0016656467
 20
79.9007740677
 30
0.0
 11
334.0016656467
 21
99.9007740677
 31
0.0
  0
LINE
  5
77
330
1F
100
AcDbEntity
  8
0
  6
Continuous
 62
     7
370
    25
100
AcDbLine
 10
311.7716656467
 20
99.9007740677
 30
0.0
 11
311.7716656467
 21
79.9007740677
 31
0.0
  0
LINE
  5
78
330
1F
100
AcDbEntity
  8
DIMENSION
100
AcDbLine
 10
276.8819681583
 20
-64.9792259323
 30
0.0
 11
300.3819681583
 21
-64.9792259323
 31
0.0
  0
LINE
  5
79
330
1F
100
AcDbEntity
  8
DIMENSION
100
AcDbLine
 10
345.3819681583
 20
-64.9792259323
 30
0.0
 11
368.8819681583
 21
-64.9792259323
 31
0.0
  0
LINE
  5
7A
330
1F
100
AcDbEntity
  8
DIMENSION
100
AcDbLine
 10
368.8819681583
 20
-19.9792259323
 30
0.0
 11
334.0069681583
 21
-19.9792259323
 31
0.0
  0
LINE
  5
7B
330
1F
100
AcDbEntity
  8
DIMENSION
100
AcDbLine
 10
311.7569681583
 20
-19.9792259323
 30
0.0
 11
276.8819681583
 21
-19.9792259323
 31
0.0
  0
LINE
  5
7C
330
1F
100
AcDbEntity
  8
0
  6
Continuous
 62
     7
370
    25
100
AcDbLine
 10
333.9866656467
 20
100.1007740677
 30
0.0
 11
333.9866656467
 21
104.1007740677
 31
0.0
  0
LINE
  5
7D
330
1F
100
AcDbEntity
  8
0
  6
Continuous
 62
     7
370
    25
100
AcDbLine
 10
311.7866656467
 20
104.1007740677
 30
0.0
 11
311.7866656467
 21
100.1007740677
 31
0.0
  0
SPLINE
  5
7E
330
1F
100
AcDbEntity
  8
0
  6
Continuous
 62
     7
370
    25
100
AcDbSpline
210
0.0
220
0.0
230
1.0
 70
     8
 71
     3
 72
    40
 73
    36
 74
     0
 42
0.00000001
 43
0.0000000001
 40
0.0
 40
0.0
 40
0.0
 40
0.0
 40
0.0073910683249485
 40
0.0280757535662351
 40
0.0583684097709908
 40
0.0904113554925326
 40
0.1226317110022052
 40
0.1548818702741898
 40
0.1871405772907347
 40
0.2194026127455637
 40
0.2516662083348422
 40
0.2839306319348713
 40
0.3161955360007863
 40
0.3484607382692419
 40
0.3807261356073285
 40
0.412991666046765
 40
0.4452572904943576
 40
0.4775229832706794
 40
0.5097887269214754
 40
0.5420545092299514
 40
0.5743203214235133
 40
0.6065861570585424
 40
0.6388520113046798
 40
0.6711178804729271
 40
0.7033837616966812
 40
0.7356496527113908
 40
0.7679155516991323
 40
0.8001814571769546
 40
0.8324473679151051
 40
0.8647132828760474
 40
0.896979201168132
 40
0.9292451220095433
 40
0.9615110446996563
 40
0.9920804522491378
 40
1.0
 40
1.0
 40
1.0
 40
1.0
 10
311.7843668773193
 20
209.0703896916913
 30
0.0
 10
311.7843705582338
 20
209.067693344223
 30
0.0
 10
311.7843845405766
 20
209.0574509836169
 30
0.0
 10
311.7844678321545
 20
208.9191425523909
 30
0.0
 10
311.7845621341544
 20
208.5610736634957
 30
0.0
 10
311.7846784020695
 20
207.8958476075606
 30
0.0
 10
311.7847936483877
 20
206.9584660613131
 30
0.0
 10
311.7849086687644
 20
205.7589966389197
 30
0.0
 10
311.7850220680904
 20
204.3025786840693
 30
0.0
 10
311.7851337579094
 20
202.5929545911029
 30
0.0
 10
311.7852433813327
 20
200.6345762555923
 30
0.0
 10
311.785350674099
 20
198.4324093970902
 30
0.0
 10
311.7854553586647
 20
195.9920358482762
 30
0.0
 10
311.7855571708467
 20
193.319626397953
 30
0.0
 10
311.7856558526392
 20
190.4219350869103
 30
0.0
 10
311.7857511545994
 20
187.3062822536272
 30
0.0
 10
311.7858428358438
 20
183.9805373611197
 30
0.0
 10
311.7859306647405
 20
180.4530994880651
 30
0.0
 10
311.7860144194262
 20
176.7328764314038
 30
0.0
 10
311.7860938883579
 20
172.829262376906
 30
0.0
 10
311.7861688708343
 20
168.7521142907795
 30
0.0
 10
311.7862391774962
 20
164.511727103096
 30
0.0
 10
311.7863046307997
 20
160.118807763642
 30
0.0
 10
311.7863650654631
 20
155.5844482414471
 30
0.0
 10
311.7864203288788
 20
150.9200975469005
 30
0.0
 10
311.7864702815074
 20
146.1375328296385
 30
0.0
 10
311.7865147971931
 20
141.2488297037902
 30
0.0
 10
311.7865537636155
 20
136.2663315910976
 30
0.0
 10
311.7865870820726
 20
131.2026192266205
 30
0.0
 10
311.7866146695967
 20
126.070476424814
 30
0.0
 10
311.7866364521946
 20
120.8828670458138
 30
0.0
 10
311.7866523910423
 20
115.652867788424
 30
0.0
 10
311.7866622103558
 20
110.4859370114991
 30
0.0
 10
311.7866654274394
 20
106.630288645333
 30
0.0
 10
311.786665609261
 20
104.5324322804376
 30
0.0
 10
311.7866656466729
 20
104.10077406767
 30
0.0
  0
SPLINE
  5
7F
330
1F
100
AcDbEntity
  8
0
  6
Continuous
 62
     7
370
    25
100
AcDbSpline
210
0.0
220
0.0
230
1.0
 70
     8
 71
     3
 72
   109
 73
   105
 74
     0
 42
0.00000001
 43
0.0000000001
 40
0.0
 40
0.0
 40
0.0
 40
0.0
 40
0.0076230714043128
 40
0.0221112943330814
 40
0.0366006196450534
 40
0.0510899456345812
 40
0.0655792723457682
 40
0.0800686000739013
 40
0.0945579291428475
 40
0.109047259915864
 40
0.1235365928089066
 40
0.1380259283073659
 40
0.1525152669876373
 40
0.1670046095455014
 40
0.1814939568341489
 40
0.1959833099161088
 40
0.2104726701353883
 40
0.2249620392196944
 40
0.2394514194281789
 40
0.2539408137697549
 40
0.2684302263337121
 40
0.2829196628043076
 40
0.2974091312869498
 40
0.3118986436830454
 40
0.3263882180746719
 40
0.3408778830683206
 40
0.3553676861844286
 40
0.3698577112634372
 40
0.3843481179677514
 40
0.3988392424695489
 40
0.4133318978689925
 40
0.4278285011348561
 40
0.4423392418068202
 40
0.44964799186966
 40
0.451835212501405
 40
0.4522070459602985
 40
0.4524553920540414
 40
0.452698086971351
 40
0.4532518148138677
 40
0.4542172503426352
 40
0.4561745223583036
 40
0.4603849748075195
 40
0.4636792339864808
 40
0.4680925482094065
 40
0.4719478696748334
 40
0.475964957762754
 40
0.4801770898518564
 40
0.4845010326568678
 40
0.4888923436420923
 40
0.4933238060168287
 40
0.4977780867159754
 40
0.5025891166992317
 40
0.5071805159552097
 40
0.5115702096843048
 40
0.5157784046728262
 40
0.5198140191893553
 40
0.5236779877974387
 40
0.527364523008583
 40
0.5308612098753409
 40
0.5341482763726059
 40
0.5371971573751759
 40
0.539968479748712
 40
0.5424099458372345
 40
0.5444555974930493
 40
0.5460279317899497
 40
0.5470116095079121
 40
0.5473743998749138
 40
0.5475875282277018
 40
0.5477842701492989
 40
0.5480789358186055
 40
0.5486857816373041
 40
0.5504201715631579
 40
0.5545384265989873
 40
0.5683794808975661
 40
0.5831182704806496
 40
0.5976374664235135
 40
0.6121357444049274
 40
0.6266289275404371
 40
0.6411202601259948
 40
0.6556107602730601
 40
0.6701008306646737
 40
0.6845906566169529
 40
0.6990803331397168
 40
0.7135699130698673
 40
0.7280594277214624
 40
0.7425488966292571
 40
0.7570383325061218
 40
0.771527743924923
 40
0.7860171368453433
 40
0.8005065155214207
 40
0.814995883061313
 40
0.8294852417838679
 40
0.8439745934522346
 40
0.8584639394308654
 40
0.8729532807933997
 40
0.8874426183983795
 40
0.9019319529434223
 40
0.9164212850047011
 40
0.9309106150662504
 40
0.945399943542143
 40
0.9598892707936219
 40
0.9743785971426552
 40
0.9888679228829639
 40
1.0
 40
1.0
 40
1.0
 40
1.0
 10
333.986665646673
 20
104.10077406767
 30
0.0
 10
333.9866654815243
 20
105.0260590921613
 30
0.0
 10
333.9866650024981
 20
107.7099181869278
 30
0.0
 10
333.9866596793243
 20
112.1485368051295
 30
0.0
 10
333.9866477428183
 20
117.3992883421036
 30
0.0
 10
333.9866298405429
 20
122.61665861532
 30
0.0
 10
333.9866061199647
 20
127.7872628527275
 30
0.0
 10
333.9865766136514
 20
132.8980672568709
 30
0.0
 10
333.9865414034195
 20
137.9361623195441
 30
0.0
 10
333.986500576204
 20
142.8888292892341
 30
0.0
 10
333.9864542356079
 20
147.7435632051802
 30
0.0
 10
333.9864024984868
 20
152.4881069089589
 30
0.0
 10
333.9863454954985
 20
157.1104813456656
 30
0.0
 10
333.9862833705461
 20
161.5990159912795
 30
0.0
 10
333.9862162804748
 20
165.9423782815446
 30
0.0
 10
333.9861443946582
 20
170.1296022497993
 30
0.0
 10
333.9860678945744
 20
174.1501162272912
 30
0.0
 10
333.9859869733427
 20
177.9937695581793
 30
0.0
 10
333.9859018352395
 20
181.6508582581718
 30
0.0
 10
333.9858126951552
 20
185.1121495607965
 30
0.0
 10
333.9857197781286
 20
188.3689052837483
 30
0.0
 10
333.9856233184542
 20
191.4129040117149
 30
0.0
 10
333.9855235602417
 20
194.2364618935154
 30
0.0
 10
333.9854207524006
 20
196.8324526512628
 30
0.0
 10
333.9853151642538
 20
199.1943245150872
 30
0.0
 10
333.9852070239141
 20
201.3161227507636
 30
0.0
 10
333.9850967445244
 20
203.1924859611532
 30
0.0
 10
333.9849840753747
 20
204.8187363476772
 30
0.0
 10
333.9848712637385
 20
206.1906191413873
 30
0.0
 10
333.9847512426742
 20
207.3053618763801
 30
0.0
 10
333.9846516916639
 20
208.1578525808723
 30
0.0
 10
333.9844704382699
 20
208.755230207185
 30
0.0
 10
333.9845699940891
 20
209.0121274965574
 30
0.0
 10
333.984165986117
 20
209.1172466981305
 30
0.0
 10
333.9844242504967
 20
209.1190072939592
 30
0.0
 10
333.983978466406
 20
209.1905266395644
 30
0.0
 10
333.9835035999162
 20
209.2390454305927
 30
0.0
 10
333.9820137337313
 20
209.3391645663004
 30
0.0
 10
333.9762587619774
 20
209.5548713047065
 30
0.0
 10
333.9543492320557
 20
209.9726903925686
 30
0.0
 10
333.8679093721922
 20
210.8369376475163
 30
0.0
 10
333.6375485914629
 20
211.9650738131719
 30
0.0
 10
333.1757171963518
 20
213.3388343493129
 30
0.0
 10
332.5618346743492
 20
214.6067576821899
 30
0.0
 10
331.7342291796155
 20
215.8518140933908
 30
0.0
 10
330.7688422590102
 20
216.9618295093312
 30
0.0
 10
329.6195510080394
 20
217.9695811075562
 30
0.0
 10
328.3024211577679
 20
218.8320502666089
 30
0.0
 10
326.851424821991
 20
219.5092680368962
 30
0.0
 10
325.3025417158614
 20
219.9745555511622
 30
0.0
 10
323.6519561263583
 20
220.2172173216145
 30
0.0
 10
321.9629405063485
 20
220.2068134599262
 30
0.0
 10
320.3041807269835
 20
219.9381659850709
 30
0.0
 10
318.7733304103505
 20
219.4511760036452
 30
0.0
 10
317.3875889138829
 20
218.783255647812
 30
0.0
 10
316.1583238289073
 20
217.9700216054202
 30
0.0
 10
315.0927762297226
 20
217.0464875278169
 30
0.0
 10
314.1936469591668
 20
216.0473204327225
 30
0.0
 10
313.4589490600827
 20
215.0069300521444
 30
0.0
 10
312.8819592968183
 20
213.9595596848426
 30
0.0
 10
312.4512194565119
 20
212.939521302583
 30
0.0
 10
312.1505770773931
 20
211.9813768256996
 30
0.0
 10
311.9593788206809
 20
211.1205224036871
 30
0.0
 10
311.8530821527971
 20
210.3918754367661
 30
0.0
 10
311.8053635274055
 20
209.8360983716585
 30
0.0
 10
311.7898841205612
 20
209.4811349047793
 30
0.0
 10
311.7859770263645
 20
209.2992556043255
 30
0.0
 10
311.7850721376003
 20
209.2326071823091
 30
0.0
 10
311.7846931044811
 20
209.1943481275655
 30
0.0
 10
311.7844627346201
 20
209.1612089455102
 30
0.0
 10
311.7843319733624
 20
209.1288732133661
 30
0.0
 10
311.7842968899584
 20
209.1069506618722
 30
0.0
 10
311.7842222315344
 20
209.0505486085202
 30
0.0
 10
311.7841451276483
 20
208.853487642404
 30
0.0
 10
311.7840238796652
 20
208.3320762521464
 30
0.0
 10
311.7839075205395
 20
207.5372818927314
 30
0.0
 10
311.7837913440451
 20
206.4850192373389
 30
0.0
 10
311.7836769984734
 20
205.1749340819183
 30
0.0
 10
311.7835641856129
 20
203.6098263816027
 30
0.0
 10
311.7834533148988
 20
201.793579787278
 30
0.0
 10
311.7833446227517
 20
199.7307290488934
 30
0.0
 10
311.7832383910498
 20
197.4264644400719
 30
0.0
 10
311.7831348839693
 20
194.8865916520045
 30
0.0
 10
311.7830343628295
 20
192.1175165990667
 30
0.0
 10
311.7829370807951
 20
189.1262261354948
 30
0.0
 10
311.7828432832645
 20
185.9202696926957
 30
0.0
 10
311.7827532068681
 20
182.5077395942338
 30
0.0
 10
311.7826670789174
 20
178.8972503296741
 30
0.0
 10
311.7825851167871
 20
175.0979166075173
 30
0.0
 10
311.7825075273594
 20
171.1193302223101
 30
0.0
 10
311.7824345064919
 20
166.9715357568577
 30
0.0
 10
311.7823662385193
 20
162.6650051675533
 30
0.0
 10
311.7823028957827
 20
158.2106113063581
 30
0.0
 10
311.7822446381978
 20
153.6196004434539
 30
0.0
 10
311.7821916128292
 20
148.9035638466296
 30
0.0
 10
311.7821439535942
 20
144.0744085232962
 30
0.0
 10
311.7821017806412
 20
139.1443270617302
 30
0.0
 10
311.7820652010975
 20
134.125767153391
 30
0.0
 10
311.7820343048756
 20
129.0313989815378
 30
0.0
 10
311.7820091790878
 20
123.8740876154082
 30
0.0
 10
311.7819898531774
 20
118.6668441406949
 30
0.0
 10
311.7819765027984
 20
113.4228539464647
 30
0.0
 10
311.7819692917648
 20
108.5620612069787
 30
0.0
 10
311.7819685016572
 20
105.4520309421396
 30
0.0
 10
311.7819681583684
 20
104.1007740676715
 30
0.0
  0
LINE
  5
80
330
1F
100
AcDbEntity
  8
0
  6
Continuous
 62
     7
370
    25
100
AcDbLine
 10
333.9819681584
 20
-6.4792259323
 30
0.0
 11
333.9819681584
 21
79.9007740677
 31
0.0
  0
LINE
  5
81
330
1F
100
AcDbEntity
  8
0
  6
Continuous
 62
     7
370
    25
100
AcDbLine
 10
333.9819681584
 20
99.9007740677
 30
0.0
 11
333.9819681584
 21
100.1007740677
 31
0.0
  0
LINE
  5
82
330
1F
100
AcDbEntity
  8
0
  6
Continuous
 62
     7
370
    25
100
AcDbLine
 10
311.7819681584
 20
104.1007740677
 30
0.0
 11
311.7819681584
 21
99.9007740677
 31
0.0
  0
LINE
  5
83
330
1F
100
AcDbEntity
  8
0
  6
Continuous
 62
     7
370
    25
100
AcDbLine
 10
311.7819681584
 20
79.9007740677
 30
0.0
 11
311.7819681584
 21
-6.4792259323
 31
0.0
  0
ARC
  5
84
330
1F
100
AcDbEntity
  8
DIMENSION
100
AcDbCircle
 10
367.8328857397
 20
-42.997088016
 30
0.0
 40
19.99999999999999
100
AcDbArc
 50
273.0067796503
 51
301.1021211899
  0
LWPOLYLINE
  5
85
330
1F
100
AcDbEntity
  8
DIMENSION
100
AcDbPolyline
 90
        3
 70
   128
 43
0.0
 10
370.9819681583
 20
-22.2108377817
 10
370.2305276751
 20
-22.1056011297
 10
368.8819681583
 20
-21.9888971487
  0
LINE
  5
86
330
1F
100
AcDbEntity
  8
DIMENSION
100
AcDbLine
 10
383.4855679967
 20
-19.9142259323
 30
0.0
 11
370.9819681583
 21
-19.9142259323
 31
0.0
  0
LINE
  5
87
330
1F
100
AcDbEntity
  8
DIMENSION
100
AcDbLine
 10
397.8819681583
 20
-19.9142259323
 30
0.0
 11
391.6395710901
 21
-19.9142259323
 31
0.0
  0
LINE
  5
88
330
1F
100
AcDbEntity
  8
DIMENSION
100
AcDbLine
 10
379.9811465585
 20
-64.9142259323
 30
0.0
 11
397.8819681583
 21
-64.9142259323
 31
0.0
  0
ARC
  5
89
330
1F
100
AcDbEntity
  8
DIMENSION
100
AcDbCircle
 10
397.8819681583
 20
-64.81422593229999
 30
0.0
 40
0.1000000000000227
100
AcDbArc
 50
270.0
 51
0.0
  0
ARC
  5
8A
330
1F
100
AcDbEntity
  8
DIMENSION
100
AcDbCircle
 10
397.8819681583
 20
-20.0142259323
 30
0.0
 40
0.1000000000000227
100
AcDbArc
 50
0.0
 51
90.0
  0
LINE
  5
8B
330
1F
100
AcDbEntity
  8
DIMENSION
100
AcDbLine
 10
383.5819681583
 20
20.085674925
 30
0.0
 11
383.5819681583
 21
-19.9143041609
 31
0.0
  0
LINE
  5
8C
330
1F
100
AcDbEntity
  8
DIMENSION
100
AcDbLine
 10
391.5819681583
 20
-19.9143041609
 30
0.0
 11
391.5819681583
 21
20.085674925
 31
0.0
  0
LINE
  5
8D
330
1F
100
AcDbEntity
  8
DIMENSION
100
AcDbLine
 10
334.0069681583
 20
-19.9792259323
 30
0.0
 11
334.0069681583
 21
-6.4792259323
 31
0.0
  0
LINE
  5
8E
330
1F
100
AcDbEntity
  8
DIMENSION
100
AcDbLine
 10
311.7569681583
 20
-6.4792259323
 30
0.0
 11
311.7569681583
 21
-19.9792259323
 31
0.0
  0
LINE
  5
8F
330
1F
100
AcDbEntity
  8
DIMENSION
100
AcDbLine
 10
349.8819681583
 20
-109.982475513
 30
0.0
 11
349.8819681583
 21
-105.982475513
 31
0.0
  0
LINE
  5
90
330
1F
100
AcDbEntity
  8
DIMENSION
100
AcDbLine
 10
295.8819681583
 20
-105.982475513
 30
0.0
 11
295.8819681583
 21
-109.982475513
 31
0.0
  0
SPLINE
  5
91
330
1F
100
AcDbEntity
  8
DIMENSION
100
AcDbSpline
210
0.0
220
0.0
230
1.0
 70
    24
 71
     3
 72
    11
 73
     7
 74
     0
 42
0.00000001
 43
0.0000000001
 40
0.0
 40
0.0
 40
0.0
 40
0.0
 40
0.1175225082504568
 40
0.406566572545584
 40
0.7006639091782465
 40
1.0
 40
1.0
 40
1.0
 40
1.0
 10
345.3009059132402
 20
-64.89816368724588
 30
0.0
 10
345.319876385301
 20
-64.91713415930667
 30
0.0
 10
345.3855043226225
 20
-64.98276209662825
 30
0.0
 10
344.742022286998
 20
-64.3392800610037
 30
0.0
 10
343.4635277374213
 20
-63.06078551142697
 30
0.0
 10
342.168465286901
 20
-61.76572306090672
 30
0.0
 10
341.5152177390309
 20
-61.11247551303659
 30
0.0
  0
SPLINE
  5
92
330
1F
100
AcDbEntity
  8
DIMENSION
100
AcDbSpline
210
0.0
220
0.0
230
1.0
 70
     8
 71
     3
 72
    46
 73
    42
 74
     0
 42
0.00000001
 43
0.0000000001
 40
0.0
 40
0.0
 40
0.0
 40
0.0
 40
0.0084831200380263
 40
0.0171125258896952
 40
0.0258888168079856
 40
0.0348125280317561
 40
0.043884131982585
 40
0.0531040392835533
 40
0.0624725996119665
 40
0.0920406283749099
 40
0.12452597620086
 40
0.1516024892893814
 40
0.1870369964472416
 40
0.224871328290312
 40
0.2494342156584679
 40
0.2828265778527566
 40
0.3115755855861159
 40
0.3446409434995718
 40
0.3742668940578071
 40
0.4069827043463839
 40
0.4369874306222298
 40
0.4689196631244599
 40
0.4996649736857528
 40
0.5304496582156304
 40
0.5624063572886495
 40
0.5924274378110593
 40
0.6251620523315424
 40
0.6546806200947027
 40
0.6876127805388489
 40
0.7165528686077978
 40
0.7501860705525397
 40
0.7747499695788812
 40
0.8122715330752058
 40
0.8477208865304126
 40
0.8746409135811548
 40
0.9074774282990231
 40
0.9373323639092715
 40
0.9536821440628347
 40
0.9695750735837956
 40
0.9850134094907659
 40
1.0
 40
1.0
 40
1.0
 40
1.0
 10
341.5152177390309
 20
-61.11247551303658
 30
0.0
 10
341.4462846136275
 20
-61.04279804919806
 30
0.0
 10
341.3072296565086
 20
-60.90224157958312
 30
0.0
 10
341.0912485627308
 20
-60.68493564367265
 30
0.0
 10
340.8674425992689
 20
-60.46065109897842
 30
0.0
 10
340.635252034294
 20
-60.22903629245892
 30
0.0
 10
340.3946508590357
 20
-59.9901928707959
 30
0.0
 10
340.1454752063441
 20
-59.74409267565478
 30
0.0
 10
339.7036528948397
 20
-59.31004671084323
 30
0.0
 10
339.0240726920782
 20
-58.64943748894352
 30
0.0
 10
338.1297273317082
 20
-57.80074426346879
 30
0.0
 10
337.1328904764428
 20
-56.87622760184541
 30
0.0
 10
336.0307981672394
 20
-55.88832062747132
 30
0.0
 10
334.9011835876287
 20
-54.92286437139356
 30
0.0
 10
333.7511218020998
 20
-53.98310337563001
 30
0.0
 10
332.6677668672601
 20
-53.15045361347066
 30
0.0
 10
331.4287995176528
 20
-52.2658201765603
 30
0.0
 10
330.184942984975
 20
-51.46345274347559
 30
0.0
 10
328.8268241311842
 20
-50.69633915115057
 30
0.0
 10
327.4472015836761
 20
-50.05186568648142
 30
0.0
 10
325.9664370015037
 20
-49.52830575554457
 30
0.0
 10
324.4568706365819
 20
-49.19367520312468
 30
0.0
 10
322.8982022419363
 20
-49.0738420999444
 30
0.0
 10
321.3386933515784
 20
-49.18884699654693
 30
0.0
 10
319.8268064435823
 20
-49.51979184818856
 30
0.0
 10
318.3438471724561
 20
-50.04063665346682
 30
0.0
 10
316.9640677239227
 20
-50.68246552924517
 30
0.0
 10
315.6078133838395
 20
-51.44605281017245
 30
0.0
 10
314.3633012838517
 20
-52.24663251517001
 30
0.0
 10
313.1192317403005
 20
-53.13316991879549
 30
0.0
 10
312.0297416446257
 20
-53.96963851152178
 30
0.0
 10
310.8799281013832
 20
-54.9084932646097
 30
0.0
 10
309.7529784672683
 20
-55.87098870228447
 30
0.0
 10
308.6548047609488
 20
-56.85455129861082
 30
0.0
 10
307.6546823451439
 20
-57.78151359183397
 30
0.0
 10
306.7545157230886
 20
-58.63527700059896
 30
0.0
 10
306.0020241542043
 20
-59.3666078016496
 30
0.0
 10
305.4357679982782
 20
-59.92395704099999
 30
0.0
 10
305.0152546104698
 20
-60.34169602348129
 30
0.0
 10
304.6194783498808
 20
-60.73798415609084
 30
0.0
 10
304.3710757517477
 20
-60.98888685104565
 30
0.0
 10
304.2487185776094
 20
-61.11247551303656
 30
0.0
  0
SPLINE
  5
93
330
1F
100
AcDbEntity
  8
DIMENSION
100
AcDbSpline
210
0.0
220
0.0
230
1.0
 70
    24
 71
     3
 72
    11
 73
     7
 74
     0
 42
0.00000001
 43
0.0000000001
 40
0.0
 40
0.0
 40
0.0
 40
0.0
 40
0.2858382411517011
 40
0.5669595759193831
 40
0.8433208663201964
 40
1.0
 40
1.0
 40
1.0
 40
1.0
 10
304.2487185776094
 20
-61.11247551303659
 30
0.0
 10
303.6239196331234
 20
-61.73727445752251
 30
0.0
 10
302.3846321844835
 20
-62.97656190616243
 30
0.0
 10
301.1188748663807
 20
-64.24231922426516
 30
0.0
 10
300.4226678869384
 20
-64.93852620370744
 30
0.0
 10
300.4523067229164
 20
-64.90888736772942
 30
0.0
 10
300.4630304034001
 20
-64.89816368724588
 30
0.0
  0
LINE
  5
94
330
1F
100
AcDbEntity
  8
0
  6
Continuous
 62
     7
370
    25
100
AcDbLine
 10
334.0016656467
 20
99.9007740677
 30
0.0
 11
311.7716656467
 21
99.9007740677
 31
0.0
  0
LINE
  5
95
330
1F
100
AcDbEntity
  8
0
  6
Continuous
 62
     7
370
    25
100
AcDbLine
 10
334.0016656467
 20
79.9007740677
 30
0.0
 11
311.7716656467
 21
79.9007740677
 31
0.0
  0
LINE
  5
96
330
1F
100
AcDbEntity
  8
DIMENSION
100
AcDbLine
 10
276.8819681583
 20
-64.9792259323
 30
0.0
 11
276.8819681583
 21
-19.9792259323
 31
0.0
  0
LINE
  5
97
330
1F
100
AcDbEntity
  8
DIMENSION
100
AcDbLine
 10
368.8819681583
 20
-64.9792259323
 30
0.0
 11
368.8819681583
 21
-19.9792259323
 31
0.0
  0
LINE
  5
98
330
1F
100
AcDbEntity
  8
0
  6
Continuous
 62
     7
370
    25
100
AcDbLine
 10
333.9866656467
 20
100.1007740677
 30
0.0
 11
311.7866656467
 21
100.1007740677
 31
0.0
  0
LINE
  5
99
330
1F
100
AcDbEntity
  8
DIMENSION
100
AcDbLine
 10
370.9819681583
 20
-41.4467161739
 30
0.0
 11
370.9819681583
 21
-41.44543672909999
 31
0.0
  0
SPLINE
  5
9A
330
1F
100
AcDbEntity
  8
DIMENSION
100
AcDbSpline
210
0.0
220
0.0
230
1.0
 70
     8
 71
     3
 72
    16
 73
    12
 74
     0
 42
0.00000001
 43
0.0000000001
 40
0.0
 40
0.0
 40
0.0
 40
0.0
 40
0.1198035564230648
 40
0.246728041977468
 40
0.3781283840795578
 40
0.5108255769109339
 40
0.6416231272507527
 40
0.7678114878159671
 40
0.8874528363301346
 40
0.999390058662327
 40
1.0
 40
1.0
 40
1.0
 40
1.0
 10
370.9819681583202
 20
-41.44543672908336
 30
0.0
 10
371.5211502342273
 20
-42.85007087848986
 30
0.0
 10
372.6315624943454
 20
-45.74282835351779
 30
0.0
 10
374.2955310993818
 20
-50.07876463372212
 30
0.0
 10
375.9081905195913
 20
-54.2819289211763
 30
0.0
 10
377.3585144667321
 20
-58.06313005751031
 30
0.0
 10
378.5391673832205
 20
-61.14256218215264
 30
0.0
 10
379.3958251655463
 20
-63.37845161621192
 30
0.0
 10
379.8523503106319
 20
-64.57213577341295
 30
0.0
 10
380.0322052222412
 20
-65.04366710484749
 30
0.0
 10
379.9814217757886
 20
-64.91280634329871
 30
0.0
 10
379.9811465585174
 20
-64.91209715272167
 30
0.0
  0
SPLINE
  5
9B
330
1F
100
AcDbEntity
  8
DIMENSION
100
AcDbSpline
210
0.0
220
0.0
230
1.0
 70
     8
 71
     3
 72
    22
 73
    18
 74
     0
 42
0.00000001
 43
0.0000000001
 40
0.0
 40
0.0
 40
0.0
 40
0.0
 40
0.0003394135080256
 40
0.1238478158639439
 40
0.2493329376675298
 40
0.3096767890417642
 40
0.3710743462037722
 40
0.4986895107444289
 40
0.556009011179278
 40
0.615964057185523
 40
0.7460702006994603
 40
0.7836334169260005
 40
0.8231326353311708
 40
0.8651048384163752
 40
0.8986919785574983
 40
0.9435232936651422
 40
1.0
 40
1.0
 40
1.0
 40
1.0
 10
379.0431226806946
 20
-62.46849112374898
 30
0.0
 10
379.0432654894418
 20
-62.46885884026935
 30
0.0
 10
379.0953746453741
 20
-62.60303407734838
 30
0.0
 10
378.9149461918281
 20
-62.13152156373445
 30
0.0
 10
378.5578064166803
 20
-61.19564448374427
 30
0.0
 10
378.1035396617066
 20
-60.0110655167128
 30
0.0
 10
377.560247314912
 20
-58.59547314745322
 30
0.0
 10
376.8929052663749
 20
-56.85013230828842
 30
0.0
 10
376.1241041331861
 20
-54.84890570526988
 30
0.0
 10
375.2874101947244
 20
-52.67123602827626
 30
0.0
 10
374.4391871970595
 20
-50.45395926714035
 30
0.0
 10
373.626985014924
 20
-48.33870841719779
 30
0.0
 10
373.15164038625
 20
-47.09939900590057
 30
0.0
 10
372.6847392325629
 20
-45.88291298279208
 30
0.0
 10
372.1904567817587
 20
-44.59782895964227
 30
0.0
 10
371.6344016660276
 20
-43.14661352083667
 30
0.0
 10
371.2154970691144
 20
-42.05516925179089
 30
0.0
 10
370.9819681583202
 20
-41.4467161738799
 30
0.0
  0
LINE
  5
9C
330
1F
100
AcDbEntity
  8
DIMENSION
100
AcDbLine
 10
370.9819681583
 20
-19.9142259323
 30
0.0
 11
370.9819681583
 21
-41.44543672909999
 31
0.0
  0
SPLINE
  5
9D
330
1F
100
AcDbEntity
  8
DIMENSION
100
AcDbSpline
210
0.0
220
0.0
230
1.0
 70
     8
 71
     3
 72
    21
 73
    17
 74
     0
 42
0.00000001
 43
0.0000000001
 40
0.0
 40
0.0
 40
0.0
 40
0.0
 40
0.0025768251676612
 40
0.0730179921059022
 40
0.1434711417218877
 40
0.2344036811789756
 40
0.2818443046155492
 40
0.296665416782401
 40
0.4145466915648274
 40
0.5219991537493822
 40
0.6331517465195156
 40
0.7521292052016625
 40
0.8123135379351504
 40
0.8886295351899546
 40
0.9559014722579883
 40
1.0
 40
1.0
 40
1.0
 40
1.0
 10
383.4855679966823
 20
-19.91569242504825
 30
0.0
 10
383.4844559559864
 20
-19.91548690597999
 30
0.0
 10
383.4529447072675
 20
-19.90966323199104
 30
0.0
 10
383.5760413141091
 20
-19.92978156868493
 30
0.0
 10
383.8924904264473
 20
-19.98734482075281
 30
0.0
 10
384.4055001080869
 20
-20.06427956331471
 30
0.0
 10
384.8796202408832
 20
-20.12361105281717
 30
0.0
 10
385.4843431830228
 20
-20.19240538564637
 30
0.0
 10
386.4282145039969
 20
-20.2726471441798
 30
0.0
 10
387.8850052130772
 20
-20.29686098121199
 30
0.0
 10
389.3127280682485
 20
-20.23458671231016
 30
0.0
 10
390.3530328657499
 20
-20.11972267633812
 30
0.0
 10
391.0475431580634
 20
-20.02034840333237
 30
0.0
 10
391.4375884125296
 20
-19.95787228368532
 30
0.0
 10
391.6686750684681
 20
-19.9158809168988
 30
0.0
 10
391.6478263864254
 20
-19.92059828139118
 30
0.0
 10
391.639571090149
 20
-19.92246618083195
 30
0.0
  0
LINE
  5
9E
330
1F
100
AcDbEntity
  8
DIMENSION
100
AcDbLine
 10
397.9819681583
 20
-20.0142259323
 30
0.0
 11
397.9819681583
 21
-64.81422593229999
 31
0.0
  0
LWPOLYLINE
  5
9F
330
1F
100
AcDbEntity
  8
DIMENSION
100
AcDbPolyline
 90
       24
 70
   128
 43
0.0
 10
389.4925824998001
 20
-19.9107105545
 10
388.4736137973001
 20
-19.9103166889
 10
387.3885158168
 20
-19.9102185558
 10
386.3177653115
 20
-19.9104234334
 10
385.340774948
 20
-19.9109161268
 10
384.5300036321
 20
-19.9116600952
 10
383.9455825633
 20
-19.9126001618
 10
383.6308555787001
 20
-19.9136666062
 10
383.6091645391001
 20
-19.9147803352
 10
383.8821181695
 20
-19.9158587485
 10
384.4294727479
 20
-19.9168218651
 10
385.2106334891
 20
-19.9175982552
 10
386.1676652747
 20
-19.9181303373
 10
387.2295894351
 20
-19.9183786494
 10
388.3176479134
 20
-19.9183247754
 10
389.3511443898
 20
-19.9179727107
 10
390.2534291585
 20
-19.9173485665
 10
390.957583886
 20
-19.9164986327
 10
391.4113846374
 20
-19.9154859449
 10
391.5811750869
 20
-19.9143856096
 10
391.4543626537
 20
-19.9132792337
 10
391.0403524358
 20
-19.9122488719
 10
390.369849677
 20
-19.9113709414
 10
389.4925824998001
 20
-19.9107105545
  0
LWPOLYLINE
  5
A0
330
1F
100
AcDbEntity
  8
0
  6
Continuous
 62
     7
370
    25
100
AcDbPolyline
 90
        9
 70
   128
 43
0.0
 10
389.4925824998001
 20
20.0892685314
 10
388.4736137973001
 20
20.089662397
 10
387.3885158168
 20
20.08976053
 10
386.3177653115
 20
20.0895556525
 10
385.340774948
 20
20.0890629591
 10
384.5300036321
 20
20.0883189907
 10
383.9455825633
 20
20.0873789241
 10
383.6308555787001
 20
20.0863124796
 10
383.5819681583
 20
20.085674925
  0
ARC
  5
A1
330
1F
100
AcDbEntity
  8
0
  6
Continuous
 62
     7
370
    25
100
AcDbCircle
 10
389.8750801529
 20
-364.9243954744
 30
0.0
 40
385.0138540047351
100
AcDbArc
 50
89.74598888290001
 51
90.0569213408
  0
LINE
  5
A2
330
1F
100
AcDbEntity
  8
0
  6
Continuous
 62
     7
370
    25
100
AcDbLine
 10
334.0069681583
 20
-6.4792259323
 30
0.0
 11
311.7569681583
 21
-6.4792259323
 31
0.0
  0
SPLINE
  5
A3
330
1F
100
AcDbEntity
  8
DIMENSION
100
AcDbSpline
210
0.0
220
0.0
230
1.0
 70
     8
 71
     3
 72
    25
 73
    21
 74
     0
 42
0.00000001
 43
0.0000000001
 40
0.0
 40
0.0
 40
0.0
 40
0.0
 40
0.0188679308533078
 40
0.0661052398049393
 40
0.1146829870271895
 40
0.2115799605042142
 40
0.2640442184825189
 40
0.3178575582555017
 40
0.3732968793114307
 40
0.4306081716026345
 40
0.4815794602465522
 40
0.5344026177075511
 40
0.6268988428887348
 40
0.7237691169784908
 40
0.7775838281174088
 40
0.8328768480713453
 40
0.887780248107566
 40
0.9445953409105506
 40
0.994544551291
 40
1.0
 40
1.0
 40
1.0
 40
1.0
 10
311.7937449891902
 20
-19.9973788699667
 30
0.0
 10
311.7836938972799
 20
-19.99241947645586
 30
0.0
 10
311.7484791275099
 20
-19.97504386172255
 30
0.0
 10
311.9764823839138
 20
-20.08770029651124
 30
0.0
 10
312.6017262162224
 20
-20.38877170498952
 30
0.0
 10
313.7628192471864
 20
-20.91809925157039
 30
0.0
 10
315.3483640502999
 20
-21.53369237113555
 30
0.0
 10
316.818431707484
 20
-22.02217600403588
 30
0.0
 10
318.5207317346831
 20
-22.46768204150024
 30
0.0
 10
320.3496649021662
 20
-22.78812979884556
 30
0.0
 10
322.2408098237043
 20
-22.94055804683431
 30
0.0
 10
324.5751335245208
 20
-22.90757165495717
 30
0.0
 10
327.3666577534197
 20
-22.48993026908335
 30
0.0
 10
329.7705192720294
 20
-21.77136811087363
 30
0.0
 10
331.4383645406508
 20
-21.14175056219327
 30
0.0
 10
332.529277034014
 20
-20.67774677418898
 30
0.0
 10
333.3727806620495
 20
-20.28850254602848
 30
0.0
 10
333.850446922713
 20
-20.05677972844742
 30
0.0
 10
334.0445440759383
 20
-19.96071835513015
 30
0.0
 10
333.9973741002648
 20
-19.98395256480479
 30
0.0
 10
333.9927294839614
 20
-19.98624033340143
 30
0.0
  0
LINE
  5
A4
330
1F
100
AcDbEntity
  8
DIMENSION
100
AcDbLine
 10
295.8819681583
 20
-109.982475513
 30
0.0
 11
349.8819681583
 21
-109.982475513
 31
0.0
  0
LINE
  5
A5
330
1F
100
AcDbEntity
  8
DIMENSION
100
AcDbLine
 10
295.8819681583
 20
-105.982475513
 30
0.0
 11
349.8819681583
 21
-105.982475513
 31
0.0
  0
DIMENSION
  5
A6
102
{ACAD_XDICTIONARY
360
273
102
}
330
1F
100
AcDbEntity
  8
DIMENSION
100
AcDbDimension
280
     0
  2
*D22
 10
248.8819681583001
 20
-109.982475513
 30
0.0
 11
248.8819681583
 21
-62.9114622677
 31
0.0
 70
   128
  1
<>
 71
     2
 42
90.00324958070001
 73
     0
 74
     0
 75
     0
  3
RG Dimension Lines
100
AcDbAlignedDimension
 13
276.8819681583
 23
-19.9792259323
 33
0.0
 14
295.8819681583
 24
-109.982475513
 34
0.0
 50
90.0
100
AcDbRotatedDimension
1001
AcadAnnotative
1000
AnnotativeData
1002
{
1070
     1
1070
     1
1002
}
  0
DIMENSION
  5
B3
102
{ACAD_XDICTIONARY
360
265
102
}
330
1F
100
AcDbEntity
  8
DIMENSION
100
AcDbDimension
280
     0
  2
*D21
 10
431.9819681583001
 20
-64.91422593230002
 30
0.0
 11
431.9819681582998
 21
-24.0163601787
 31
0.0
 70
   128
  1
<>
 71
     2
 42
84.99990085730003
 73
     0
 74
     0
 75
     0
  3
RG Dimension Lines
100
AcDbAlignedDimension
 13
387.5819681583
 23
20.085674925
 33
0.0
 14
397.8819681583
 24
-64.9142259323
 34
0.0
 50
90.0
100
AcDbRotatedDimension
1001
AcadAnnotative
1000
AnnotativeData
1002
{
1070
     1
1070
     1
1002
}
  0
DIMENSION
  5
BB
102
{ACAD_XDICTIONARY
360
257
102
}
330
1F
100
AcDbEntity
  8
DIMENSION
100
AcDbDimension
280
     0
  2
*D31
 10
295.8819681583
 20
-144.8568111777
 30
0.0
 11
322.3103893911
 21
-144.8568111777
 31
0.0
 70
   160
 71
     2
 42
54.0
 73
     0
 74
     0
 75
     0
  3
RG Dimension Lines
100
AcDbAlignedDimension
 13
349.8819681583
 23
-109.982475513
 33
0.0
 14
295.8819681583
 24
-109.982475513
 34
0.0
100
AcDbRotatedDimension
1001
AcadAnnotative
1000
AnnotativeData
1002
{
1070
     1
1070
     1
1002
}
1001
ACAD
1000
DSTYLE
1002
{
1070
     3
1000
%%c<>
1002
}
  0
LINE
  5
C4
330
1F
100
AcDbEntity
  8
0
  6
Continuous
 62
     7
370
    25
100
AcDbLine
 10
-47.53999240699998
 20
-105.982475513
 30
0.0
 11
-47.53999240699998
 21
-61.11247551299999
 31
0.0
  0
LINE
  5
C5
330
1F
100
AcDbEntity
  8
0
  6
Continuous
 62
     7
370
    25
100
AcDbLine
 10
-92.53999240700002
 20
-61.11247551299999
 30
0.0
 11
-92.53999240700002
 21
-105.982475513
 31
0.0
  0
ARC
  5
C6
330
1F
100
AcDbEntity
  8
0
  6
Continuous
 62
     7
370
    25
100
AcDbCircle
 10
-112.5369851196
 20
-60.4872249058
 30
0.0
 40
65.00000000000003
100
AcDbArc
 50
359.4488496396
 51
10.078117913
  0
ARC
  5
C7
330
1F
100
AcDbEntity
  8
0
  6
Continuous
 62
     7
370
    25
100
AcDbCircle
 10
-27.5429996944
 20
-60.4872249058
 30
0.0
 40
65.00000000000001
100
AcDbArc
 50
169.9232415479
 51
180.5511503604
  0
LINE
  5
C8
330
1F
100
AcDbEntity
  8
0
  6
Continuous
 62
     7
370
    25
100
AcDbLine
 10
151.0750075406
 20
79.9007740677
 30
0.0
 11
151.0750075406
 21
99.9007740677
 31
0.0
  0
LINE
  5
C9
330
1F
100
AcDbEntity
  8
0
  6
Continuous
 62
     7
370
    25
100
AcDbLine
 10
128.8450075406
 20
99.9007740677
 30
0.0
 11
128.8450075406
 21
79.9007740677
 31
0.0
  0
LINE
  5
CA
330
1F
100
AcDbEntity
  8
0
  6
Continuous
 62
     7
370
    25
100
AcDbLine
 10
-58.9399924069
 20
-6.4792259323
 30
0.0
 11
-58.9399924069
 21
104.1007740677
 31
0.0
  0
LINE
  5
CB
330
1F
100
AcDbEntity
  8
0
  6
Continuous
 62
     7
370
    25
100
AcDbLine
 10
-81.13999240689999
 20
104.1007740677
 30
0.0
 11
-81.13999240689999
 21
-6.4792259323
 31
0.0
  0
SPLINE
  5
CC
330
1F
100
AcDbEntity
  8
0
  6
Continuous
 62
     7
370
    25
100
AcDbSpline
210
0.0
220
0.0
230
1.0
 70
     8
 71
     3
 72
    67
 73
    63
 74
     0
 42
0.00000001
 43
0.0000000001
 40
0.0
 40
0.0
 40
0.0
 40
0.0
 40
0.0084159010780784
 40
0.0253297405534643
 40
0.0422450770618426
 40
0.059160413922526
 40
0.0760757507833016
 40
0.0929910876440894
 40
0.1099064245048942
 40
0.1268217613657219
 40
0.1437370982265753
 40
0.1606524350874597
 40
0.177567771948375
 40
0.1944831088093261
 40
0.2113984456703176
 40
0.2283137825313486
 40
0.2452291193924242
 40
0.2621444562535438
 40
0.2790597931147082
 40
0.2959751299759164
 40
0.3128904668371664
 40
0.3298058036984622
 40
0.3467211405598021
 40
0.3636364774211776
 40
0.3805518142825979
 40
0.3974671511440495
 40
0.4143824880055364
 40
0.4312978248670525
 40
0.4482131617285967
 40
0.4651284985901575
 40
0.4820438354517396
 40
0.4989591723133341
 40
0.5158745091749346
 40
0.5327898460365362
 40
0.5497051828981343
 40
0.5666205197597303
 40
0.5835358566213143
 40
0.6004511934828805
 40
0.617366530344424
 40
0.6342818672059446
 40
0.6511972040674358
 40
0.6681125409288937
 40
0.685027877790318
 40
0.7019432146517014
 40
0.71885855151305
 40
0.7357738883743498
 40
0.7526892252356109
 40
0.7696045620968249
 40
0.7865198989579954
 40
0.8034352358191208
 40
0.8203505726802015
 40
0.8372659095412402
 40
0.8541812464022433
 40
0.8710965832632011
 40
0.8880119201241251
 40
0.9049272569850144
 40
0.9218425938458732
 40
0.938757930706704
 40
0.9556732675675135
 40
0.9725886044283067
 40
0.9895039412890833
 40
1.0
 40
1.0
 40
1.0
 40
1.0
 10
-58.93999240687531
 20
104.1007740676714
 30
0.0
 10
-58.93336637233023
 20
104.9282398276482
 30
0.0
 10
-58.91342367880668
 20
107.4187031568429
 30
0.0
 10
-58.68475505197414
 20
111.5685470054525
 30
0.0
 10
-58.15866208945053
 20
116.5319704896076
 30
0.0
 10
-57.36617904304782
 20
121.4605128898373
 30
0.0
 10
-56.31395957611772
 20
126.3400245448596
 30
0.0
 10
-55.00379527846185
 20
131.156752677228
 30
0.0
 10
-53.43970112070802
 20
135.8970917753704
 30
0.0
 10
-51.62600838115046
 20
140.5476600439628
 30
0.0
 10
-49.56786038000079
 20
145.0953269836923
 30
0.0
 10
-47.27106184991634
 20
149.5272531962977
 30
0.0
 10
-44.74209901747136
 20
153.8309259018822
 30
0.0
 10
-41.98811151833057
 20
157.9941944627504
 30
0.0
 10
-39.01687485820551
 20
162.0053046359636
 30
0.0
 10
-35.83677775850418
 20
165.8529317734245
 30
0.0
 10
-32.45679866027925
 20
169.526212791208
 30
0.0
 10
-28.88648032483949
 20
173.0147768405408
 30
0.0
 10
-25.13590290497629
 20
176.3087745877551
 30
0.0
 10
-21.21565548184702
 20
179.3989060221873
 30
0.0
 10
-17.13680616957591
 20
182.2764467130662
 30
0.0
 10
-12.91087086616355
 20
184.9332724413813
 30
0.0
 10
-8.549780740488298
 20
187.3618821371526
 30
0.0
 10
-4.065848546776297
 20
189.5554190573552
 30
0.0
 10
0.5282661382420458
 20
191.5076901447
 30
0.0
 10
5.219592657374138
 20
193.2131835126189
 30
0.0
 10
9.99488589328282
 20
194.6670840070853
 30
0.0
 10
14.84066366369695
 20
195.8652868013364
 30
0.0
 10
19.74324478592778
 20
196.8044089851135
 30
0.0
 10
24.68878770323199
 20
197.4817991157029
 30
0.0
 10
29.66332956395773
 20
197.8955447038052
 30
0.0
 10
34.65282564314841
 20
198.0444776131071
 30
0.0
 10
39.64318899529806
 20
197.928177358304
 30
0.0
 10
44.62033022631195
 20
197.5469722922648
 30
0.0
 10
49.57019727237859
 20
196.9019386789855
 30
0.0
 10
54.47881507344604
 20
195.9948976549526
 30
0.0
 10
59.3323250292921
 20
194.828410087491
 30
0.0
 10
64.11702412679165
 20
193.4057693446152
 30
0.0
 10
68.81940362791275
 20
191.7309919967967
 30
0.0
 10
73.4261872092098
 20
189.8088064768991
 30
0.0
 10
77.92436844513756
 20
187.6446397302975
 30
0.0
 10
82.30124752935465
 20
185.2446018928733
 30
0.0
 10
86.54446713034777
 20
182.6154690401451
 30
0.0
 10
90.64204728012942
 20
179.7646640562342
 30
0.0
 10
94.58241919754609
 20
176.7002356766887
 30
0.0
 10
98.35445795057379
 20
173.4308357643231
 30
0.0
 10
101.9475138658604
 20
169.9656948822363
 30
0.0
 10
105.3514425950575
 20
166.3145962329893
 30
0.0
 10
108.5566337597003
 20
162.4878480374372
 30
0.0
 10
111.5540380689438
 20
158.4962544315223
 30
0.0
 10
114.33519292624
 20
154.3510849619803
 30
0.0
 10
116.8922461068738
 20
150.0640427716316
 30
0.0
 10
119.2179787300148
 20
145.6472315470882
 30
0.0
 10
121.3058226441904
 20
141.1131213856377
 30
0.0
 10
123.1498901515314
 20
136.4745134408586
 30
0.0
 10
124.7449489053676
 20
131.744504330621
 30
0.0
 10
126.0865924036148
 20
126.9364471094147
 30
0.0
 10
127.1706712718141
 20
122.0639212255461
 30
0.0
 10
127.9954738890603
 20
117.1406656051431
 30
0.0
 10
128.5536367347196
 20
112.1806465130694
 30
0.0
 10
128.8233194802863
 20
107.8279638864119
 30
0.0
 10
128.8498491154901
 20
105.1327822545716
 30
0.0
 10
128.8600075405856
 20
104.1007740676701
 30
0.0
  0
SPLINE
  5
CD
330
1F
100
AcDbEntity
  8
0
  6
Continuous
 62
     7
370
    25
100
AcDbSpline
210
0.0
220
0.0
230
1.0
 70
     8
 71
     3
 72
    74
 73
    70
 74
     0
 42
0.00000001
 43
0.0000000001
 40
0.0
 40
0.0
 40
0.0
 40
0.0
 40
0.0084157157652945
 40
0.0236267624023085
 40
0.0388388132644073
 40
0.0540508643176347
 40
0.0692629153708924
 40
0.0844749664241447
 40
0.0996870174773898
 40
0.1148990685306234
 40
0.1301111195838441
 40
0.145323170637051
 40
0.1605352216902407
 40
0.1757472727434145
 40
0.1909593237965661
 40
0.2061713748497001
 40
0.2213834259028114
 40
0.2365954769559004
 40
0.2518075280089645
 40
0.2670195790620082
 40
0.2822316301150257
 40
0.2974436811680199
 40
0.3126557322209899
 40
0.3278677832739391
 40
0.3430798343268651
 40
0.3582918853797698
 40
0.3735039364326511
 40
0.3887159874855142
 40
0.4039280385383628
 40
0.4191400895911923
 40
0.4343521406440078
 40
0.4495641916968097
 40
0.4647762427496021
 40
0.4799882938023856
 40
0.4952003448551629
 40
0.5104123959079338
 40
0.5256244469607017
 40
0.5408364980134702
 40
0.5560485490662421
 40
0.5712606001190165
 40
0.5864726511717949
 40
0.6016847022245848
 40
0.6168967532773864
 40
0.6321088043301956
 40
0.6473208553830219
 40
0.6625329064358626
 40
0.6777449574887246
 40
0.6929570085415994
 40
0.7081690595945012
 40
0.7233811106474246
 40
0.7385931617003642
 40
0.7538052127533294
 40
0.7690172638063197
 40
0.7842293148593323
 40
0.799441365912371
 40
0.8146534169654298
 40
0.8298654680185133
 40
0.8450775190716182
 40
0.8602895701247458
 40
0.8755016211778944
 40
0.8907136722310642
 40
0.9059257232842499
 40
0.9211377743374532
 40
0.9363498253906708
 40
0.9515618764439027
 40
0.9667739274971447
 40
0.9819859785503972
 40
0.9963980874979936
 40
1.0
 40
1.0
 40
1.0
 40
1.0
 10
151.0600075405856
 20
104.1007740676698
 30
0.0
 10
151.0518707642981
 20
105.1238740563332
 30
0.0
 10
151.0290271125605
 20
107.9961835568084
 30
0.0
 10
150.7821059268047
 20
112.7137031770318
 30
0.0
 10
150.2413545781546
 20
118.2368599703585
 30
0.0
 10
149.4336426156223
 20
123.7279146871184
 30
0.0
 10
148.3655282514335
 20
129.1741367387525
 30
0.0
 10
147.0381906054931
 20
134.5631087434403
 30
0.0
 10
145.4549981849846
 20
139.8825201385211
 30
0.0
 10
143.6194756920608
 20
145.1202256128255
 30
0.0
 10
141.5358387074434
 20
150.2642647091902
 30
0.0
 10
139.2088386396775
 20
155.3028913143366
 30
0.0
 10
136.6437908418915
 20
160.2245998968929
 30
0.0
 10
133.8465520333769
 20
165.018151936238
 30
0.0
 10
130.8235097236652
 20
169.6726015433124
 30
0.0
 10
127.5815668772689
 20
174.1773204663509
 30
0.0
 10
124.128126351897
 20
178.5220223570698
 30
0.0
 10
120.4710739405017
 20
182.6967862599436
 30
0.0
 10
116.6187603787996
 20
186.6920792660998
 30
0.0
 10
112.5799822728342
 20
190.4987782813988
 30
0.0
 10
108.3639620133059
 20
194.1081908586442
 30
0.0
 10
103.9803267163308
 20
197.5120750464474
 30
0.0
 10
99.43908624037243
 20
200.7026582093986
 30
0.0
 10
94.75061032910671
 20
203.6726547765724
 30
0.0
 10
89.92560493252467
 20
206.4152828778426
 30
0.0
 10
84.9750877603177
 20
208.9242798300154
 30
0.0
 10
79.91036312336994
 20
211.1939164374201
 30
0.0
 10
74.74299612081061
 20
213.2190100742999
 30
0.0
 10
69.48478623156664
 20
214.9949365191366
 30
0.0
 10
64.14774037071675
 20
216.5176405138748
 30
0.0
 10
58.74404547217465
 20
217.783645023946
 30
0.0
 10
53.28604066030422
 20
218.7900591779399
 30
0.0
 10
47.78618907401703
 20
219.5345848687947
 30
0.0
 10
42.25704940768451
 20
220.015522001434
 30
0.0
 10
36.71124723385532
 20
220.2317723748676
 30
0.0
 10
31.16144617325702
 20
220.1828421898889
 30
0.0
 10
25.62031897791755
 20
219.8688431766482
 30
0.0
 10
20.10051859343475
 20
219.2904923395184
 30
0.0
 10
14.61464926647484
 20
218.4491103198461
 30
0.0
 10
9.175237763471679
 20
217.3466183803182
 30
0.0
 10
3.794704766247966
 20
215.9855340178343
 30
0.0
 10
-1.514663490121453
 20
214.3689652149007
 30
0.0
 10
-6.740743272442445
 20
212.5006033426776
 30
0.0
 10
-11.87160103346958
 20
210.3847147318758
 30
0.0
 10
-16.89552066169056
 20
208.0261309307596
 30
0.0
 10
-21.80103023460661
 20
205.430237672497
 30
0.0
 10
-26.57692821441181
 20
202.6029625770501
 30
0.0
 10
-31.21230902626826
 20
199.550761615688
 30
0.0
 10
-35.69658796075179
 20
196.2806043690319
 30
0.0
 10
-40.01952534362215
 20
192.7999581122906
 30
0.0
 10
-44.17124991771165
 20
189.1167707640347
 30
0.0
 10
-48.142281383564
 20
185.2394527374345
 30
0.0
 10
-51.92355204728232
 20
181.1768577354155
 30
0.0
 10
-55.50642752640587
 20
176.9382625335722
 30
0.0
 10
-58.88272646560338
 20
172.5333457970338
 30
0.0
 10
-62.04473922063439
 20
167.9721659795495
 30
0.0
 10
-64.98524545496549
 20
163.2651383556439
 30
0.0
 10
-67.69753065717319
 20
158.4230112368601
 30
0.0
 10
-70.17540136112483
 20
153.4568414317268
 30
0.0
 10
-72.41319970702902
 20
148.3779689856087
 30
0.0
 10
-74.40581479902016
 20
143.1979913322978
 30
0.0
 10
-76.14870020483191
 20
137.9287366395453
 30
0.0
 10
-77.63786258273826
 20
132.5822374425041
 30
0.0
 10
-78.86995198967756
 20
127.1707007697073
 30
0.0
 10
-79.84196652743221
 20
121.706489219005
 30
0.0
 10
-80.55239002099126
 20
116.2020593254413
 30
0.0
 10
-80.9891821925707
 20
110.7670265327766
 30
0.0
 10
-81.13063591695841
 20
106.7285753258617
 30
0.0
 10
-81.13843331356562
 20
104.5386506001337
 30
0.0
 10
-81.13999240687531
 20
104.1007740676714
 30
0.0
  0
LINE
  5
CE
330
1F
100
AcDbEntity
  8
0
  6
Continuous
 62
     7
370
    25
100
AcDbLine
 10
151.0600075406
 20
100.1007740677
 30
0.0
 11
151.0600075406
 21
104.1007740677
 31
0.0
  0
LINE
  5
CF
330
1F
100
AcDbEntity
  8
0
  6
Continuous
 62
     7
370
    25
100
AcDbLine
 10
128.8600075406
 20
104.1007740677
 30
0.0
 11
128.8600075406
 21
100.1007740677
 31
0.0
  0
LINE
  5
D0
330
1F
100
AcDbEntity
  8
0
  6
Continuous
 62
     7
370
    25
100
AcDbLine
 10
-58.91499240699999
 20
-22.9015850178
 30
0.0
 11
-58.91499240699999
 21
-6.4792259323
 31
0.0
  0
LINE
  5
D1
330
1F
100
AcDbEntity
  8
0
  6
Continuous
 62
     7
370
    25
100
AcDbLine
 10
-81.16499240699999
 20
-6.4792259323
 30
0.0
 11
-81.16499240699999
 21
-22.9220181817
 31
0.0
  0
LINE
  5
D2
330
1F
100
AcDbEntity
  8
0
  6
Continuous
 62
     7
370
    25
100
AcDbLine
 10
-43.039992407
 20
-109.982475513
 30
0.0
 11
-43.039992407
 21
-105.982475513
 31
0.0
  0
LINE
  5
D3
330
1F
100
AcDbEntity
  8
0
  6
Continuous
 62
     7
370
    25
100
AcDbLine
 10
-97.03999240700001
 20
-105.982475513
 30
0.0
 11
-97.03999240700001
 21
-109.982475513
 31
0.0
  0
LINE
  5
D4
330
1F
100
AcDbEntity
  8
0
  6
Continuous
 62
     7
370
    25
100
AcDbLine
 10
151.0750075406
 20
99.9007740677
 30
0.0
 11
128.8450075406
 21
99.9007740677
 31
0.0
  0
LINE
  5
D5
330
1F
100
AcDbEntity
  8
0
  6
Continuous
 62
     7
370
    25
100
AcDbLine
 10
151.0750075406
 20
79.9007740677
 30
0.0
 11
128.8450075406
 21
79.9007740677
 31
0.0
  0
CIRCLE
  5
D6
330
1F
100
AcDbEntity
  8
0
  6
Continuous
 62
     7
370
    25
100
AcDbCircle
 10
-70.039992407
 20
-42.4792259323
 30
0.0
 40
22.50000000000001
  0
LINE
  5
D7
330
1F
100
AcDbEntity
  8
0
  6
Continuous
 62
     7
370
    25
100
AcDbLine
 10
151.0600075406
 20
100.1007740677
 30
0.0
 11
128.8600075434
 21
100.1007740677
 31
0.0
  0
LINE
  5
D8
330
1F
100
AcDbEntity
  8
0
  6
Continuous
 62
     7
370
    25
100
AcDbLine
 10
-47.56375415399999
 20
-41.4454396901
 30
0.0
 11
-47.5608585248
 21
-41.44543672909999
 31
0.0
  0
LINE
  5
D9
330
1F
100
AcDbEntity
  8
0
  6
Continuous
 62
     7
370
    25
100
AcDbLine
 10
-92.5210600774
 20
-41.49141296009999
 30
0.0
 11
-92.518297947
 21
-41.4914101356
 31
0.0
  0
ARC
  5
DA
330
1F
100
AcDbEntity
  8
0
  6
Continuous
 62
     7
370
    25
100
AcDbCircle
 10
-70.03999212640001
 20
-42.4142259323
 30
0.0
 40
22.5
100
AcDbArc
 50
119.6331238685
 51
177.6494167464
  0
ARC
  5
DB
330
1F
100
AcDbEntity
  8
0
  6
Continuous
 62
     7
370
    25
100
AcDbCircle
 10
-70.03999212640001
 20
-42.4142259323
 30
0.0
 40
22.50000000000001
100
AcDbArc
 50
2.467764359799998
 51
60.3668777754
  0
LINE
  5
DC
330
1F
100
AcDbEntity
  8
0
  6
Continuous
 62
     7
370
    25
100
AcDbLine
 10
-58.91499240699999
 20
-6.4792259323
 30
0.0
 11
-81.16499240699999
 21
-6.4792259323
 31
0.0
  0
LINE
  5
DD
330
1F
100
AcDbEntity
  8
0
  6
Continuous
 62
     7
370
    25
100
AcDbLine
 10
-97.03999240700001
 20
-109.982475513
 30
0.0
 11
-43.039992407
 21
-109.982475513
 31
0.0
  0
LINE
  5
DE
330
1F
100
AcDbEntity
  8
0
  6
Continuous
 62
     7
370
    25
100
AcDbLine
 10
-97.03999240700001
 20
-105.982475513
 30
0.0
 11
-43.039992407
 21
-105.982475513
 31
0.0
  0
POINT
  5
DF
330
1F
100
AcDbEntity
  8
0
  6
Continuous
 62
     7
370
     0
100
AcDbPoint
 10
139.9600075406
 20
79.9007740677
 30
0.0
  0
POINT
  5
E0
330
1F
100
AcDbEntity
  8
0
  6
Continuous
 62
     7
370
     0
100
AcDbPoint
 10
35.4440327645
 20
220.1997637722
 30
0.0
  0
POINT
  5
E1
330
1F
100
AcDbEntity
  8
0
  6
Continuous
 62
     7
370
     0
100
AcDbPoint
 10
-70.039992407
 20
-109.982475513
 30
0.0
  0
DIMENSION
  5
E2
102
{ACAD_XDICTIONARY
360
2D7
102
}
330
1F
100
AcDbEntity
  8
DIMENSION
100
AcDbDimension
280
     0
  2
*D28
 10
-143.039992407
 20
-109.982475513
 30
0.0
 11
-143.039992407
 21
56.005154935
 31
0.0
 70
   160
  1
<>
 71
     2
 42
330.1822392852001
 73
     0
 74
     0
 75
     0
  3
RG Dimension Lines
100
AcDbAlignedDimension
 13
35.4440327645
 23
220.1997637722
 33
0.0
 14
-97.03999240700001
 24
-109.982475513
 34
0.0
 50
90.0
100
AcDbRotatedDimension
1001
AcadAnnotative
1000
AnnotativeData
1002
{
1070
     1
1070
     1
1002
}
  0
DIMENSION
  5
EA
102
{ACAD_XDICTIONARY
360
28F
102
}
330
1F
100
AcDbEntity
  8
DIMENSION
100
AcDbDimension
280
     0
  2
*D24
 10
139.9600075406
 20
-149.982475513
 30
0.0
 11
33.5056632957
 21
-149.982475513
 31
0.0
 70
   128
  1
<>
 71
     2
 42
209.9999999476
 73
     0
 74
     0
 75
     0
  3
RG Dimension Lines
100
AcDbAlignedDimension
 13
-70.039992407
 23
-109.982475513
 33
0.0
 14
139.9600075406
 24
79.9007740677
 34
0.0
100
AcDbRotatedDimension
1001
AcadAnnotative
1000
AnnotativeData
1002
{
1070
     1
1070
     1
1002
}
  0
DIMENSION
  5
F2
102
{ACAD_XDICTIONARY
360
281
102
}
330
1F
100
AcDbEntity
  8
DIMENSION
100
AcDbDimension
280
     0
  2
*D23
 10
187.0230413483
 20
79.90077406770004
 30
0.0
 11
187.0230413483
 21
-25.4296751172
 31
0.0
 70
   128
  1
<>
 71
     2
 42
189.8832495807
 73
     0
 74
     0
 75
     0
  3
RG Dimension Lines
100
AcDbAlignedDimension
 13
-43.039992407
 23
-109.982475513
 33
0.0
 14
151.0750075406
 24
79.9007740677
 34
0.0
 50
90.0
100
AcDbRotatedDimension
1001
AcadAnnotative
1000
AnnotativeData
1002
{
1070
     1
1070
     1
1002
}
  0
LWPOLYLINE
  5
FA
330
1F
100
AcDbEntity
  8
DIMENSION
100
AcDbPolyline
 90
        3
 70
   128
 43
0.0
 10
-92.53999240700002
 20
353.9420755453
 10
-92.54299757970001
 20
353.5644381158001
 10
-92.53999240700002
 20
353.206312056
  0
LINE
  5
FB
330
1F
100
AcDbEntity
  8
DIMENSION
100
AcDbLine
 10
-47.53999240699998
 20
307.5741938006
 30
0.0
 11
-47.53999240699998
 21
342.4746971002
 31
0.0
  0
LINE
  5
FC
330
1F
100
AcDbEntity
  8
DIMENSION
100
AcDbLine
 10
-47.53999240699998
 20
364.6746971058
 30
0.0
 11
-47.53999240699998
 21
399.5741938006
 31
0.0
  0
LINE
  5
FD
330
1F
100
AcDbEntity
  8
DIMENSION
100
AcDbLine
 10
-92.53999240700002
 20
399.5741938006
 30
0.0
 11
-92.53999240700002
 21
307.5741938006
 31
0.0
  0
LINE
  5
FE
330
1F
100
AcDbEntity
  8
DIMENSION
100
AcDbLine
 10
-70.03974411109999
 20
342.4741938035
 30
0.0
 11
139.9602558364
 21
342.4788912918
 31
0.0
  0
LINE
  5
FF
330
1F
100
AcDbEntity
  8
DIMENSION
100
AcDbLine
 10
139.9597592447999
 20
364.6788912862001
 30
0.0
 11
-70.0402407027
 21
364.6741937979
 31
0.0
  0
LWPOLYLINE
  5
100
330
1F
100
AcDbEntity
  8
DIMENSION
100
AcDbPolyline
 90
        3
 70
   128
 43
0.0
 10
-49.5496636234
 20
399.5741938006
 10
-49.6663676044
 20
400.9227533173999
 10
-49.7716042563
 20
401.6741938005998
  0
LWPOLYLINE
  5
101
330
1F
100
AcDbEntity
  8
DIMENSION
100
AcDbPolyline
 90
        3
 70
   128
 43
0.0
 10
-90.3083805576
 20
401.6741938005998
 10
-90.41361720959999
 20
400.9227533173999
 10
-90.53032119059999
 20
399.5741938006
  0
LINE
  5
102
330
1F
100
AcDbEntity
  8
DIMENSION
100
AcDbLine
 10
-92.5399921264
 20
428.5741938005998
 30
0.0
 11
-92.5399921264
 21
402.0270892614
 31
0.0
  0
LINE
  5
103
330
1F
100
AcDbEntity
  8
DIMENSION
100
AcDbLine
 10
-47.5399921264
 20
402.0447066572
 30
0.0
 11
-47.5399921264
 21
428.5741938005998
 31
0.0
  0
ARC
  5
104
330
1F
100
AcDbEntity
  8
DIMENSION
100
AcDbCircle
 10
-47.6399921264
 20
428.5741938005998
 30
0.0
 40
0.1000000000000014
100
AcDbArc
 50
0.0
 51
90.0
  0
ARC
  5
105
330
1F
100
AcDbEntity
  8
DIMENSION
100
AcDbCircle
 10
-92.4399921264
 20
428.5741938005998
 30
0.0
 40
0.1000000000000085
100
AcDbArc
 50
90.0
 51
180.0
  0
LINE
  5
106
330
1F
100
AcDbEntity
  8
DIMENSION
100
AcDbLine
 10
-70.1689000458
 20
414.2741938005999
 30
0.0
 11
-70.12799613039999
 21
414.2741938005999
 31
0.0
  0
LINE
  5
107
330
1F
100
AcDbEntity
  8
DIMENSION
100
AcDbLine
 10
-70.12799613050001
 20
422.2741938006
 30
0.0
 11
-70.1689000458
 21
422.2741938006
 31
0.0
  0
ARC
  5
108
330
1F
100
AcDbEntity
  8
DIMENSION
100
AcDbCircle
 10
139.9600075406
 20
353.578891289
 30
0.0
 40
11.115
100
AcDbArc
 50
267.0242916269
 51
92.97827167580001
  0
LINE
  5
109
330
1F
100
AcDbEntity
  8
DIMENSION
100
AcDbLine
 10
-70.039992407
 20
399.5741938006
 30
0.0
 11
-92.53999240700002
 21
399.5741938006
 31
0.0
  0
LINE
  5
10A
330
1F
100
AcDbEntity
  8
DIMENSION
100
AcDbLine
 10
-47.53999240699998
 20
399.5741938006
 30
0.0
 11
-70.039992407
 21
399.5741938006
 31
0.0
  0
LINE
  5
10B
330
1F
100
AcDbEntity
  8
DIMENSION
100
AcDbLine
 10
-70.039992407
 20
307.5741938006
 30
0.0
 11
-92.53999240700002
 21
307.5741938006
 31
0.0
  0
LINE
  5
10C
330
1F
100
AcDbEntity
  8
DIMENSION
100
AcDbLine
 10
-47.53999240699998
 20
307.5741938006
 30
0.0
 11
-70.039992407
 21
307.5741938006
 31
0.0
  0
ARC
  5
10D
330
1F
100
AcDbEntity
  8
DIMENSION
100
AcDbCircle
 10
139.9600075406
 20
353.578891289
 30
0.0
 40
11.1
100
AcDbArc
 50
270.0012816488
 51
90.00128164879999
  0
ARC
  5
10E
330
1F
100
AcDbEntity
  8
DIMENSION
100
AcDbCircle
 10
-70.03999240689999
 20
353.5741938007
 30
0.0
 40
11.1
100
AcDbArc
 50
90.00128164879999
 51
270.0012816488
  0
LINE
  5
10F
330
1F
100
AcDbEntity
  8
DIMENSION
100
AcDbLine
 10
-47.5608585248
 20
401.6741938005998
 30
0.0
 11
-47.6096404368
 21
402.0447066572
 31
0.0
  0
LINE
  5
110
330
1F
100
AcDbEntity
  8
DIMENSION
100
AcDbLine
 10
-92.47271748299999
 20
402.0270892614
 30
0.0
 11
-92.5210600774
 21
401.6741938005998
 31
0.0
  0
LINE
  5
111
330
1F
100
AcDbEntity
  8
DIMENSION
100
AcDbLine
 10
-92.5210600774
 20
401.6741938005998
 30
0.0
 11
-47.5608585248
 21
401.6741938005998
 31
0.0
  0
SPLINE
  5
112
330
1F
100
AcDbEntity
  8
DIMENSION
100
AcDbSpline
210
0.0
220
0.0
230
1.0
 70
     8
 71
     3
 72
    21
 73
    17
 74
     0
 42
0.00000001
 43
0.0000000001
 40
0.0
 40
0.0
 40
0.0
 40
0.0
 40
0.0043232219463648
 40
0.0745146664078902
 40
0.1447180510671148
 40
0.2353282236476407
 40
0.2826006643226779
 40
0.297369233850064
 40
0.4148326052220762
 40
0.5219041354012109
 40
0.6326626787544139
 40
0.7512183479213263
 40
0.8111893198988397
 40
0.8872347676912221
 40
0.9542682175866511
 40
1.0
 40
1.0
 40
1.0
 40
1.0
 10
-70.06243044232054
 20
414.1799943730636
 30
0.0
 10
-70.04399329323753
 20
414.1780800166756
 30
0.0
 10
-69.72621224232776
 20
414.1450843413626
 30
0.0
 10
-69.10249170134732
 20
414.2676386955313
 30
0.0
 10
-68.16619405436464
 20
414.5849439243064
 30
0.0
 10
-67.419520499924
 20
415.0976912109784
 30
0.0
 10
-66.97011035674549
 20
415.5718474969778
 30
0.0
 10
-66.49932060421289
 20
416.1765665461929
 30
0.0
 10
-66.03783953705498
 20
417.1204402219276
 30
0.0
 10
-65.89258399754924
 20
418.5772332598197
 30
0.0
 10
-66.24623331894999
 20
420.0049432470532
 30
0.0
 10
-66.96702526795757
 20
421.0452919477494
 30
0.0
 10
-67.81155582008612
 20
421.7397039997335
 30
0.0
 10
-68.59209384385943
 20
422.1301208737901
 30
0.0
 10
-69.38086616953771
 20
422.3622539854341
 30
0.0
 10
-69.86617567984568
 20
422.3405847440306
 30
0.0
 10
-70.06299227370293
 20
422.3317968134546
 30
0.0
  0
ARC
  5
113
330
1F
100
AcDbEntity
  8
DIMENSION
100
AcDbCircle
 10
-70.0619773545
 20
418.2741918098
 30
0.0
 40
4.099998009204162
100
AcDbArc
 50
200.4637349201
 51
269.9999912462
  0
ARC
  5
114
330
1F
100
AcDbEntity
  8
DIMENSION
100
AcDbCircle
 10
-70.0619773545
 20
418.2741957914
 30
0.0
 40
4.099998009203723
100
AcDbArc
 50
90.0000087541
 51
159.5362607159
  0
LINE
  5
115
330
1F
100
AcDbEntity
  8
DIMENSION
100
AcDbLine
 10
-92.43998041450002
 20
428.6741938006
 30
0.0
 11
-47.6399921264
 21
428.6741938006
 31
0.0
  0
CIRCLE
  5
116
330
1F
100
AcDbEntity
  8
DIMENSION
100
AcDbCircle
 10
-70.16890145079999
 20
418.274195223
 30
0.0
 40
3.999998940720219
  0
ARC
  5
117
330
1F
100
AcDbEntity
  8
DIMENSION
100
AcDbCircle
 10
-70.12799774
 20
418.2741936651998
 30
0.0
 40
3.999999864536033
100
AcDbArc
 50
270.0000230555
 51
28.532269052
  0
ARC
  5
118
330
1F
100
AcDbEntity
  8
DIMENSION
100
AcDbCircle
 10
-70.12799654220001
 20
418.2741961986
 30
0.0
 40
3.999997602075305
100
AcDbArc
 50
28.5322453667
 51
89.9999941029
  0
ARC
  5
119
330
1F
100
AcDbEntity
  8
DIMENSION
100
AcDbCircle
 10
-70.039992407
 20
353.5741938006
 30
0.0
 40
11.125
100
AcDbArc
 50
86.15944419260001
 51
180.0
  0
ARC
  5
11A
330
1F
100
AcDbEntity
  8
DIMENSION
100
AcDbCircle
 10
-70.039992407
 20
353.5741938006
 30
0.0
 40
11.12500000000001
100
AcDbArc
 50
180.0
 51
273.8431191125
  0
ARC
  5
11B
330
1F
100
AcDbEntity
  8
DIMENSION
100
AcDbCircle
 10
-70.039992407
 20
353.5741938006
 30
0.0
 40
26.99999999999999
100
AcDbArc
 50
146.4426902381
 51
213.5573097619
  0
LWPOLYLINE
  5
11C
330
1F
100
AcDbEntity
  8
DIMENSION
100
AcDbPolyline
 90
        3
 70
   128
 43
0.0
 10
-47.53999240699998
 20
338.649382244
 10
-46.65730650479999
 20
340.0741938006
 10
-45.4269425701
 20
342.474744367
  0
LWPOLYLINE
  5
11D
330
1F
100
AcDbEntity
  8
DIMENSION
100
AcDbPolyline
 90
        3
 70
   128
 43
0.0
 10
-45.4274391618
 20
364.6747443615
 10
-46.65730650479999
 20
367.0741938006
 10
-47.53999240699998
 20
368.4990053572
  0
DIMENSION
  5
11E
102
{ACAD_XDICTIONARY
360
234
102
}
330
1F
100
AcDbEntity
  8
DIMENSION
100
AcDbDimension
280
     0
  2
*D29
 10
181.7416742072665
 20
342.4788912890001
 30
0.0
 11
167.0750075406
 21
326.2420189552
 31
0.0
 70
   160
 71
     2
 42
22.20000000000005
 73
     0
 74
     0
 75
     0
  3
RG Dimension Lines
100
AcDbAlignedDimension
 13
139.9600075406
 23
364.678891289
 33
0.0
 14
139.9600075406
 24
342.478891289
 34
0.0
 50
90.0
100
AcDbRotatedDimension
1001
AcadAnnotative
1000
AnnotativeData
1002
{
1070
     1
1070
     1
1002
}
1001
ACAD
1000
DSTYLE
1002
{
1070
     3
1000
%%c<>
1002
}
  0
DIMENSION
  5
128
102
{ACAD_XDICTIONARY
360
224
102
}
330
1F
100
AcDbEntity
  8
DIMENSION
100
AcDbDimension
280
     0
  2
*D17
 10
-137.0399924070001
 20
307.5741938006002
 30
0.0
 11
-137.039992407
 21
364.4275127248
 31
0.0
 70
   128
  1
<>
 71
     2
 42
121.1
 73
     0
 74
     0
 75
     0
  3
RG Dimension Lines
100
AcDbAlignedDimension
 13
-92.4399921264
 23
428.6741938006
 33
0.0
 14
-92.53999240700002
 24
307.5741938006
 34
0.0
 50
90.0
100
AcDbRotatedDimension
1001
AcadAnnotative
1000
AnnotativeData
1002
{
1070
     1
1070
     1
1002
}
1001
ACAD
1000
DSTYLE
1002
{
1070
    45
1040
5.0
1002
}
  0
DIMENSION
  5
130
102
{ACAD_XDICTIONARY
360
216
102
}
330
1F
100
AcDbEntity
  8
DIMENSION
100
AcDbDimension
280
     0
  2
*D30
 10
-47.5399921264
 20
454.404819634
 30
0.0
 11
-71.3124248678
 21
454.404819634
 31
0.0
 70
   160
 71
     2
 42
44.99999999999999
 73
     0
 74
     0
 75
     0
  3
RG Dimension Lines
100
AcDbAlignedDimension
 13
-92.5399921264
 23
428.5741938005998
 33
0.0
 14
-47.5399921264
 24
428.5741938005998
 34
0.0
100
AcDbRotatedDimension
1001
AcadAnnotative
1000
AnnotativeData
1002
{
1070
     1
1070
     1
1002
}
1001
ACAD
1000
DSTYLE
1002
{
1070
     3
1000
%%c<>
1002
}
  0
DIMENSION
  5
17A
102
{ACAD_XDICTIONARY
360
208
102
}
330
1F
100
AcDbEntity
  8
DIMENSION
100
AcDbDimension
280
     0
  2
*D15
 10
-110.776060638306
 20
353.5741938006002
 30
0.0
 11
-121.4427273049726
 21
391.1241938006002
 31
0.0
 71
     5
 42
75.10000000000008
 73
     0
 74
     0
 75
     0
  3
RG Dimension Lines
100
AcDbAlignedDimension
 13
-70.03998627045001
 23
428.6741938006
 33
0.0
 14
-70.039992407
 24
353.5741938006
 34
0.0
 50
90.0
100
AcDbRotatedDimension
1001
AcadAnnotative
1000
AnnotativeData
1002
{
1070
     1
1070
     1
1002
}
  0
DIMENSION
  5
189
102
{ACAD_XDICTIONARY
360
249
102
}
330
1F
100
AcDbEntity
  8
DIMENSION
100
AcDbDimension
280
     0
  2
*D19
 10
414.0162944398971
 20
-42.4792259323
 30
0.0
 11
424.6829611065637
 21
-76.23085072265013
 31
0.0
 71
     5
 42
67.5032495807
 73
     0
 74
     0
 75
     0
  3
RG Dimension Lines
100
AcDbAlignedDimension
 13
322.8819681583
 23
-109.982475513
 33
0.0
 14
368.8819681583
 24
-42.4792259323
 34
0.0
 50
90.0
100
AcDbRotatedDimension
1001
AcadAnnotative
1000
AnnotativeData
1002
{
1070
     1
1070
     1
1002
}
  0
ENDSEC
  0
SECTION
  2
OBJECTS
  0
DICTIONARY
  5
C
330
0
100
AcDbDictionary
281
     1
  3
ACAD_CIP_PREVIOUS_PRODUCT_INFO
350
179
  3
ACAD_COLOR
350
16E
  3
ACAD_DETAILVIEWSTYLE
350
175
  3
ACAD_GROUP
350
D
  3
ACAD_LAYOUT
350
1A
  3
ACAD_MATERIAL
350
13C
  3
ACAD_MLEADERSTYLE
350
171
  3
ACAD_MLINESTYLE
350
17
  3
ACAD_PLOTSETTINGS
350
19
  3
ACAD_PLOTSTYLENAME
350
E
  3
ACAD_SCALELIST
350
47
  3
ACAD_SECTIONVIEWSTYLE
350
173
  3
ACAD_TABLESTYLE
350
16F
  3
ACAD_VISUALSTYLE
350
155
  3
ACDB_RECOMPOSE_DATA
350
325
  3
AcDbVariableDictionary
350
299
  0
DICTIONARY
  5
1A9
330
2
100
AcDbDictionary
280
     1
281
     1
  3
ACAD_LAYERSTATES
360
1AA
  0
DICTIONARY
  5
293
330
10
100
AcDbDictionary
280
     1
281
     1
  3
ADSK_XREC_LAYER_RECONCILED
360
294
  0
DICTIONARY
  5
295
330
73
100
AcDbDictionary
280
     1
281
     1
  3
ADSK_XREC_LAYER_RECONCILED
360
296
  0
DICTIONARY
  5
297
330
1A1
100
AcDbDictionary
280
     1
281
     1
  3
ADSK_XREC_LAYER_RECONCILED
360
298
  0
DICTIONARY
  5
273
330
A6
100
AcDbDictionary
280
     1
281
     1
  3
AcDbContextDataManager
360
274
  0
DICTIONARY
  5
265
330
B3
100
AcDbDictionary
280
     1
281
     1
  3
AcDbContextDataManager
360
266
  0
DICTIONARY
  5
257
330
BB
100
AcDbDictionary
280
     1
281
     1
  3
AcDbContextDataManager
360
258
  0
DICTIONARY
  5
2D7
330
E2
100
AcDbDictionary
280
     1
281
     1
  3
AcDbContextDataManager
360
2D8
  0
DICTIONARY
  5
28F
330
EA
100
AcDbDictionary
280
     1
281
     1
  3
AcDbContextDataManager
360
290
  0
DICTIONARY
  5
281
330
F2
100
AcDbDictionary
280
     1
281
     1
  3
AcDbContextDataManager
360
282
  0
DICTIONARY
  5
234
330
11E
100
AcDbDictionary
280
     1
281
     1
  3
AcDbContextDataManager
360
235
  0
DICTIONARY
  5
224
330
128
100
AcDbDictionary
280
     1
281
     1
  3
AcDbContextDataManager
360
225
  0
DICTIONARY
  5
216
330
130
100
AcDbDictionary
280
     1
281
     1
  3
AcDbContextDataManager
360
217
  0
DICTIONARY
  5
208
330
17A
100
AcDbDictionary
280
     1
281
     1
  3
AcDbContextDataManager
360
209
  0
DICTIONARY
  5
249
330
189
100
AcDbDictionary
280
     1
281
     1
  3
AcDbContextDataManager
360
24A
  0
XRECORD
  5
179
102
{ACAD_REACTORS
330
C
102
}
330
C
100
AcDbXrecord
280
     1
300
ACD
300
2021
300

  0
DICTIONARY
  5
16E
102
{ACAD_REACTORS
330
C
102
}
330
C
100
AcDbDictionary
281
     1
  0
DICTIONARY
  5
175
102
{ACAD_REACTORS
330
C
102
}
330
C
100
AcDbDictionary
281
     1
  3
Metric50
350
176
  0
DICTIONARY
  5
D
102
{ACAD_REACTORS
330
C
102
}
330
C
100
AcDbDictionary
281
     1
  0
DICTIONARY
  5
1A
102
{ACAD_REACTORS
330
C
102
}
330
C
100
AcDbDictionary
281
     1
  3
Layout1
350
1E
  3
Layout2
350
26
  3
Model
350
22
  0
DICTIONARY
  5
13C
102
{ACAD_REACTORS
330
C
102
}
330
C
100
AcDbDictionary
281
     1
  3
ByBlock
350
145
  3
ByLayer
350
13D
  3
Global
350
14D
  0
DICTIONARY
  5
171
102
{ACAD_REACTORS
330
C
102
}
330
C
100
AcDbDictionary
281
     1
  3
Standard
350
172
  0
DICTIONARY
  5
17
102
{ACAD_REACTORS
330
C
102
}
330
C
100
AcDbDictionary
281
     1
  3
Standard
350
18
  0
DICTIONARY
  5
19
102
{ACAD_REACTORS
330
C
102
}
330
C
100
AcDbDictionary
281
     1
  0
ACDBDICTIONARYWDFLT
  5
E
102
{ACAD_REACTORS
330
C
102
}
330
C
100
AcDbDictionary
281
     1
  3
Normal
350
F
100
AcDbDictionaryWithDefault
340
F
  0
DICTIONARY
  5
47
102
{ACAD_REACTORS
330
C
102
}
330
C
100
AcDbDictionary
281
     1
  3
A0
350
48
  3
A1
350
49
  3
A2
350
4A
  3
A3
350
4B
  3
A4
350
4C
  3
A5
350
4D
  3
A6
350
4E
  3
A7
350
4F
  3
A8
350
50
  3
A9
350
51
  3
B0
350
52
  3
B1
350
53
  3
B2
350
54
  3
B3
350
55
  3
B4
350
56
  3
B5
350
57
  3
B6
350
58
  3
B7
350
59
  3
B8
350
5A
  3
B9
350
5B
  3
C0
350
5C
  3
C1
350
5D
  3
C2
350
5E
  3
C3
350
5F
  3
C4
350
60
  3
C5
350
61
  3
C6
350
62
  3
C7
350
63
  3
C8
350
64
  3
C9
350
65
  3
D0
350
66
  3
D1
350
67
  3
D2
350
68
  0
DICTIONARY
  5
173
102
{ACAD_REACTORS
330
C
102
}
330
C
100
AcDbDictionary
281
     1
  3
Metric50
350
174
  0
DICTIONARY
  5
16F
102
{ACAD_REACTORS
330
C
102
}
330
C
100
AcDbDictionary
281
     1
  3
Standard
350
170
  0
DICTIONARY
  5
155
102
{ACAD_REACTORS
330
C
102
}
330
C
100
AcDbDictionary
281
     1
  3
2dWireframe
350
15B
  3
Basic
350
15A
  3
Brighten
350
161
  3
ColorChange
350
165
  3
Conceptual
350
15E
  3
Dim
350
160
  3
EdgeColorOff
350
16D
  3
Facepattern
350
164
  3
Flat
350
156
  3
FlatWithEdges
350
157
  3
Gouraud
350
158
  3
GouraudWithEdges
350
159
  3
Hidden
350
15D
  3
JitterOff
350
16B
  3
Linepattern
350
163
  3
OverhangOff
350
16C
  3
Realistic
350
15F
  3
Shaded
350
16A
  3
Shaded with edges
350
169
  3
Shades of Gray
350
166
  3
Sketchy
350
167
  3
Thicken
350
162
  3
Wireframe
350
15C
  3
X-Ray
350
168
  0
XRECORD
  5
325
102
{ACAD_REACTORS
330
C
102
}
330
C
100
AcDbXrecord
280
     1
 90
        1
330
170
  0
DICTIONARY
  5
299
102
{ACAD_REACTORS
330
C
102
}
330
C
100
AcDbDictionary
281
     1
  3
CANNOSCALE
350
29F
  3
CMLEADERSTYLE
350
29B
  3
CTABLESTYLE
350
29A
  3
CVIEWDETAILSTYLE
350
29C
  3
CVIEWSECTIONSTYLE
350
29D
  3
LAYEREVAL
350
2A1
  3
LAYERNOTIFY
350
2A2
  3
LIGHTINGUNITS
350
2A0
  3
MSLTSCALE
350
29E
  0
DICTIONARY
  5
1AA
102
{ACAD_REACTORS
330
1A9
102
}
330
1A9
100
AcDbDictionary
281
     1
  0
XRECORD
  5
294
102
{ACAD_REACTORS
330
293
102
}
330
293
100
AcDbXrecord
280
     1
290
     1
  0
XRECORD
  5
296
102
{ACAD_REACTORS
330
295
102
}
330
295
100
AcDbXrecord
280
     1
290
     1
  0
XRECORD
  5
298
102
{ACAD_REACTORS
330
297
102
}
330
297
100
AcDbXrecord
280
     1
290
     1
  0
DICTIONARY
  5
274
102
{ACAD_REACTORS
330
273
102
}
330
273
100
AcDbDictionary
281
     1
  3
ACDB_ANNOTATIONSCALES
350
275
  0
DICTIONARY
  5
266
102
{ACAD_REACTORS
330
265
102
}
330
265
100
AcDbDictionary
281
     1
  3
ACDB_ANNOTATIONSCALES
350
267
  0
DICTIONARY
  5
258
102
{ACAD_REACTORS
330
257
102
}
330
257
100
AcDbDictionary
281
     1
  3
ACDB_ANNOTATIONSCALES
350
259
  0
DICTIONARY
  5
2D8
102
{ACAD_REACTORS
330
2D7
102
}
330
2D7
100
AcDbDictionary
281
     1
  3
ACDB_ANNOTATIONSCALES
350
2D9
  0
DICTIONARY
  5
290
102
{ACAD_REACTORS
330
28F
102
}
330
28F
100
AcDbDictionary
281
     1
  3
ACDB_ANNOTATIONSCALES
350
291
  0
DICTIONARY
  5
282
102
{ACAD_REACTORS
330
281
102
}
330
281
100
AcDbDictionary
281
     1
  3
ACDB_ANNOTATIONSCALES
350
283
  0
DICTIONARY
  5
235
102
{ACAD_REACTORS
330
234
102
}
330
234
100
AcDbDictionary
281
     1
  3
ACDB_ANNOTATIONSCALES
350
236
  0
DICTIONARY
  5
225
102
{ACAD_REACTORS
330
224
102
}
330
224
100
AcDbDictionary
281
     1
  3
ACDB_ANNOTATIONSCALES
350
226
  0
DICTIONARY
  5
217
102
{ACAD_REACTORS
330
216
102
}
330
216
100
AcDbDictionary
281
     1
  3
ACDB_ANNOTATIONSCALES
350
218
  0
DICTIONARY
  5
209
102
{ACAD_REACTORS
330
208
102
}
330
208
100
AcDbDictionary
281
     1
  3
ACDB_ANNOTATIONSCALES
350
20A
  0
DICTIONARY
  5
24A
102
{ACAD_REACTORS
330
249
102
}
330
249
100
AcDbDictionary
281
     1
  3
ACDB_ANNOTATIONSCALES
350
24B
  0
ACDBDETAILVIEWSTYLE
  5
176
102
{ACAD_REACTORS
330
175
102
}
330
175
100
AcDbModelDocViewStyle
 70
     0
  3
Metric50
290
     0
300
Metric50
 90
        0
100
AcDbDetailViewStyle
 70
     0
 71
     0
 90
        3
 71
     1
340
11
 62
   256
 40
5.0
340
0
 62
   256
 40
5.0
300

 40
0.0
280
     1
 71
     2
340
16
 90
       25
 62
   256
 71
     3
340
11
 62
   256
 40
5.0
 90
        0
 40
15.0
 90
        1
300
%<\AcVar ViewDetailId>% (%<\AcVar ViewScale \f "%sn">%)
 71
     4
340
16
 90
       25
 62
   256
340
16
 90
       25
 62
   256
280
     0
  0
LAYOUT
  5
1E
102
{ACAD_REACTORS
330
1A
102
}
330
1A
100
AcDbPlotSettings
  1

  2
none_device
  4

  6

 40
0.0
 41
0.0
 42
0.0
 43
0.0
 44
0.0
 45
0.0
 46
0.0
 47
0.0
 48
0.0
 49
0.0
140
0.0
141
0.0
142
1.0
143
1.0
 70
   688
 72
     1
 73
     0
 74
     5
  7

 75
    16
147
1.0
 76
     0
 77
     2
 78
   300
148
0.0
149
0.0
100
AcDbLayout
  1
Layout1
 70
     1
 71
     1
 10
0.0
 20
0.0
 11
420.0
 21
297.0
 12
0.0
 22
0.0
 32
0.0
 14
1.000000000000000E+20
 24
1.000000000000000E+20
 34
1.000000000000000E+20
 15
-1.000000000000000E+20
 25
-1.000000000000000E+20
 35
-1.000000000000000E+20
146
0.0
 13
0.0
 23
0.0
 33
0.0
 16
1.0
 26
0.0
 36
0.0
 17
0.0
 27
1.0
 37
0.0
 76
     0
330
1B
  0
LAYOUT
  5
26
102
{ACAD_REACTORS
330
1A
102
}
330
1A
100
AcDbPlotSettings
  1

  2
none_device
  4

  6

 40
0.0
 41
0.0
 42
0.0
 43
0.0
 44
0.0
 45
0.0
 46
0.0
 47
0.0
 48
0.0
 49
0.0
140
0.0
141
0.0
142
1.0
143
1.0
 70
   688
 72
     1
 73
     0
 74
     5
  7

 75
    16
147
1.0
 76
     0
 77
     2
 78
   300
148
0.0
149
0.0
100
AcDbLayout
  1
Layout2
 70
     1
 71
     2
 10
0.0
 20
0.0
 11
0.0
 21
0.0
 12
0.0
 22
0.0
 32
0.0
 14
0.0
 24
0.0
 34
0.0
 15
0.0
 25
0.0
 35
0.0
146
0.0
 13
0.0
 23
0.0
 33
0.0
 16
1.0
 26
0.0
 36
0.0
 17
0.0
 27
1.0
 37
0.0
 76
     0
330
23
  0
LAYOUT
  5
22
102
{ACAD_REACTORS
330
1A
102
}
330
1A
100
AcDbPlotSettings
  1

  2
none_device
  4
Letter_(8.50_x_11.00_Inches)
  6

 40
6.349999999999998
 41
6.349999999999998
 42
6.350005079999998
 43
6.350005079999998
 44
215.9
 45
279.4
 46
0.0
 47
0.0
 48
0.0
 49
0.0
140
0.0
141
0.0
142
1.0
143
1.0
 70
  1712
 72
     1
 73
     0
 74
     0
  7

 75
     0
147
1.0
 76
     0
 77
     2
 78
   300
148
0.0
149
0.0
100
AcDbLayout
  1
Model
 70
     1
 71
     0
 10
0.0
 20
0.0
 11
420.0
 21
297.0
 12
0.0
 22
0.0
 32
0.0
 14
0.0
 24
0.0
 34
0.0
 15
420.0
 25
297.0
 35
0.0
146
0.0
 13
0.0
 23
0.0
 33
0.0
 16
1.0
 26
0.0
 36
0.0
 17
0.0
 27
1.0
 37
0.0
 76
     0
330
1F
331
29
  0
MATERIAL
  5
145
102
{ACAD_XDICTIONARY
360
146
102
}
102
{ACAD_REACTORS
330
13C
102
}
330
13C
100
AcDbMaterial
  1
ByBlock
 72
     0
 43
0.0008202099737533
 43
0.0
 43
0.0
 43
0.0
 43
0.0
 43
0.0008202099737533
 43
0.0
 43
0.0
 43
0.0
 43
0.0
 43
1.0
 43
0.0
 43
0.0
 43
0.0
 43
0.0
 43
1.0
 77
     0
 47
0.0008202099737533
 47
0.0
 47
0.0
 47
0.0
 47
0.0
 47
0.0008202099737533
 47
0.0
 47
0.0
 47
0.0
 47
0.0
 47
1.0
 47
0.0
 47
0.0
 47
0.0
 47
0.0
 47
1.0
171
     0
 49
0.0008202099737533
 49
0.0
 49
0.0
 49
0.0
 49
0.0
 49
0.0008202099737533
 49
0.0
 49
0.0
 49
0.0
 49
0.0
 49
1.0
 49
0.0
 49
0.0
 49
0.0
 49
0.0
 49
1.0
175
     0
142
0.0008202099737533
142
0.0
142
0.0
142
0.0
142
0.0
142
0.0008202099737533
142
0.0
142
0.0
142
0.0
142
0.0
142
1.0
142
0.0
142
0.0
142
0.0
142
0.0
142
1.0
179
     0
144
0.0008202099737533
144
0.0
144
0.0
144
0.0
144
0.0
144
0.0008202099737533
144
0.0
144
0.0
144
0.0
144
0.0
144
1.0
144
0.0
144
0.0
144
0.0
144
0.0
144
1.0
147
0.0008202099737533
147
0.0
147
0.0
147
0.0
147
0.0
147
0.0008202099737533
147
0.0
147
0.0
147
0.0
147
0.0
147
1.0
147
0.0
147
0.0
147
0.0
147
0.0
147
1.0
  0
MATERIAL
  5
13D
102
{ACAD_XDICTIONARY
360
13E
102
}
102
{ACAD_REACTORS
330
13C
102
}
330
13C
100
AcDbMaterial
  1
ByLayer
 72
     0
 43
0.0008202099737533
 43
0.0
 43
0.0
 43
0.0
 43
0.0
 43
0.0008202099737533
 43
0.0
 43
0.0
 43
0.0
 43
0.0
 43
1.0
 43
0.0
 43
0.0
 43
0.0
 43
0.0
 43
1.0
 77
     0
 47
0.0008202099737533
 47
0.0
 47
0.0
 47
0.0
 47
0.0
 47
0.0008202099737533
 47
0.0
 47
0.0
 47
0.0
 47
0.0
 47
1.0
 47
0.0
 47
0.0
 47
0.0
 47
0.0
 47
1.0
171
     0
 49
0.0008202099737533
 49
0.0
 49
0.0
 49
0.0
 49
0.0
 49
0.0008202099737533
 49
0.0
 49
0.0
 49
0.0
 49
0.0
 49
1.0
 49
0.0
 49
0.0
 49
0.0
 49
0.0
 49
1.0
175
     0
142
0.0008202099737533
142
0.0
142
0.0
142
0.0
142
0.0
142
0.0008202099737533
142
0.0
142
0.0
142
0.0
142
0.0
142
1.0
142
0.0
142
0.0
142
0.0
142
0.0
142
1.0
179
     0
144
0.0008202099737533
144
0.0
144
0.0
144
0.0
144
0.0
144
0.0008202099737533
144
0.0
144
0.0
144
0.0
144
0.0
144
1.0
144
0.0
144
0.0
144
0.0
144
0.0
144
1.0
147
0.0008202099737533
147
0.0
147
0.0
147
0.0
147
0.0
147
0.0008202099737533
147
0.0
147
0.0
147
0.0
147
0.0
147
1.0
147
0.0
147
0.0
147
0.0
147
0.0
147
1.0
  0
MATERIAL
  5
14D
102
{ACAD_XDICTIONARY
360
14E
102
}
102
{ACAD_REACTORS
330
13C
102
}
330
13C
100
AcDbMaterial
  1
Global
 72
     0
 43
0.0008202099737533
 43
0.0
 43
0.0
 43
0.0
 43
0.0
 43
0.0008202099737533
 43
0.0
 43
0.0
 43
0.0
 43
0.0
 43
1.0
 43
0.0
 43
0.0
 43
0.0
 43
0.0
 43
1.0
 77
     0
 47
0.0008202099737533
 47
0.0
 47
0.0
 47
0.0
 47
0.0
 47
0.0008202099737533
 47
0.0
 47
0.0
 47
0.0
 47
0.0
 47
1.0
 47
0.0
 47
0.0
 47
0.0
 47
0.0
 47
1.0
171
     0
 49
0.0008202099737533
 49
0.0
 49
0.0
 49
0.0
 49
0.0
 49
0.0008202099737533
 49
0.0
 49
0.0
 49
0.0
 49
0.0
 49
1.0
 49
0.0
 49
0.0
 49
0.0
 49
0.0
 49
1.0
175
     0
142
0.0008202099737533
142
0.0
142
0.0
142
0.0
142
0.0
142
0.0008202099737533
142
0.0
142
0.0
142
0.0
142
0.0
142
1.0
142
0.0
142
0.0
142
0.0
142
0.0
142
1.0
179
     0
144
0.0008202099737533
144
0.0
144
0.0
144
0.0
144
0.0
144
0.0008202099737533
144
0.0
144
0.0
144
0.0
144
0.0
144
1.0
144
0.0
144
0.0
144
0.0
144
0.0
144
1.0
147
0.0008202099737533
147
0.0
147
0.0
147
0.0
147
0.0
147
0.0008202099737533
147
0.0
147
0.0
147
0.0
147
0.0
147
1.0
147
0.0
147
0.0
147
0.0
147
0.0
147
1.0
  0
MLEADERSTYLE
  5
172
102
{ACAD_REACTORS
330
171
102
}
330
171
100
AcDbMLeaderStyle
179
     2
170
     2
171
     1
172
     0
 90
        2
 40
0.0
 41
0.0
173
     1
 91
-1056964608
340
14
 92
       -2
290
     1
 42
2.0
291
     1
 43
0.36
  3
Standard
 44
4.0
300

342
11
174
     1
178
     6
175
     1
176
     0
 93
-1056964608
 45
4.0
292
     0
297
     0
 46
4.0
 94
-1056964608
 47
1.0
 49
1.0
140
1.0
293
     1
141
0.0
294
     1
177
     0
142
1.0
295
     0
296
     0
143
0.125
271
     0
272
     9
273
     9
298
     0
  0
MLINESTYLE
  5
18
102
{ACAD_REACTORS
330
17
102
}
330
17
100
AcDbMlineStyle
  2
STANDARD
 70
     0
  3

 62
   256
 51
90.0
 52
90.0
 71
     2
 49
0.5
 62
   256
  6
BYLAYER
 49
-0.5
 62
   256
  6
BYLAYER
  0
ACDBPLACEHOLDER
  5
F
102
{ACAD_REACTORS
330
E
102
}
330
E
  0
SCALE
  5
48
102
{ACAD_REACTORS
330
47
102
}
330
47
100
AcDbScale
 70
     0
300
1:1
140
1.0
141
1.0
290
     1
  0
SCALE
  5
49
102
{ACAD_REACTORS
330
47
102
}
330
47
100
AcDbScale
 70
     0
300
1:2
140
1.0
141
2.0
290
     0
  0
SCALE
  5
4A
102
{ACAD_REACTORS
330
47
102
}
330
47
100
AcDbScale
 70
     0
300
1:4
140
1.0
141
4.0
290
     0
  0
SCALE
  5
4B
102
{ACAD_REACTORS
330
47
102
}
330
47
100
AcDbScale
 70
     0
300
1:5
140
1.0
141
5.0
290
     0
  0
SCALE
  5
4C
102
{ACAD_REACTORS
330
47
102
}
330
47
100
AcDbScale
 70
     0
300
1:8
140
1.0
141
8.0
290
     0
  0
SCALE
  5
4D
102
{ACAD_REACTORS
330
47
102
}
330
47
100
AcDbScale
 70
     0
300
1:10
140
1.0
141
10.0
290
     0
  0
SCALE
  5
4E
102
{ACAD_REACTORS
330
47
102
}
330
47
100
AcDbScale
 70
     0
300
1:16
140
1.0
141
16.0
290
     0
  0
SCALE
  5
4F
102
{ACAD_REACTORS
330
47
102
}
330
47
100
AcDbScale
 70
     0
300
1:20
140
1.0
141
20.0
290
     0
  0
SCALE
  5
50
102
{ACAD_REACTORS
330
47
102
}
330
47
100
AcDbScale
 70
     0
300
1:30
140
1.0
141
30.0
290
     0
  0
SCALE
  5
51
102
{ACAD_REACTORS
330
47
102
}
330
47
100
AcDbScale
 70
     0
300
1:40
140
1.0
141
40.0
290
     0
  0
SCALE
  5
52
102
{ACAD_REACTORS
330
47
102
}
330
47
100
AcDbScale
 70
     0
300
1:50
140
1.0
141
50.0
290
     0
  0
SCALE
  5
53
102
{ACAD_REACTORS
330
47
102
}
330
47
100
AcDbScale
 70
     0
300
1:100
140
1.0
141
100.0
290
     0
  0
SCALE
  5
54
102
{ACAD_REACTORS
330
47
102
}
330
47
100
AcDbScale
 70
     0
300
2:1
140
2.0
141
1.0
290
     0
  0
SCALE
  5
55
102
{ACAD_REACTORS
330
47
102
}
330
47
100
AcDbScale
 70
     0
300
4:1
140
4.0
141
1.0
290
     0
  0
SCALE
  5
56
102
{ACAD_REACTORS
330
47
102
}
330
47
100
AcDbScale
 70
     0
300
8:1
140
8.0
141
1.0
290
     0
  0
SCALE
  5
57
102
{ACAD_REACTORS
330
47
102
}
330
47
100
AcDbScale
 70
     0
300
10:1
140
10.0
141
1.0
290
     0
  0
SCALE
  5
58
102
{ACAD_REACTORS
330
47
102
}
330
47
100
AcDbScale
 70
     0
300
100:1
140
100.0
141
1.0
290
     0
  0
SCALE
  5
59
102
{ACAD_REACTORS
330
47
102
}
330
47
100
AcDbScale
 70
     0
300
1/128" = 1'-0"
140
0.0078125
141
12.0
290
     0
  0
SCALE
  5
5A
102
{ACAD_REACTORS
330
47
102
}
330
47
100
AcDbScale
 70
     0
300
1/64" = 1'-0"
140
0.015625
141
12.0
290
     0
  0
SCALE
  5
5B
102
{ACAD_REACTORS
330
47
102
}
330
47
100
AcDbScale
 70
     0
300
1/32" = 1'-0"
140
0.03125
141
12.0
290
     0
  0
SCALE
  5
5C
102
{ACAD_REACTORS
330
47
102
}
330
47
100
AcDbScale
 70
     0
300
1/16" = 1'-0"
140
0.0625
141
12.0
290
     0
  0
SCALE
  5
5D
102
{ACAD_REACTORS
330
47
102
}
330
47
100
AcDbScale
 70
     0
300
3/32" = 1'-0"
140
0.09375
141
12.0
290
     0
  0
SCALE
  5
5E
102
{ACAD_REACTORS
330
47
102
}
330
47
100
AcDbScale
 70
     0
300
1/8" = 1'-0"
140
0.125
141
12.0
290
     0
  0
SCALE
  5
5F
102
{ACAD_REACTORS
330
47
102
}
330
47
100
AcDbScale
 70
     0
300
3/16" = 1'-0"
140
0.1875
141
12.0
290
     0
  0
SCALE
  5
60
102
{ACAD_REACTORS
330
47
102
}
330
47
100
AcDbScale
 70
     0
300
1/4" = 1'-0"
140
0.25
141
12.0
290
     0
  0
SCALE
  5
61
102
{ACAD_REACTORS
330
47
102
}
330
47
100
AcDbScale
 70
     0
300
3/8" = 1'-0"
140
0.375
141
12.0
290
     0
  0
SCALE
  5
62
102
{ACAD_REACTORS
330
47
102
}
330
47
100
AcDbScale
 70
     0
300
1/2" = 1'-0"
140
0.5
141
12.0
290
     0
  0
SCALE
  5
63
102
{ACAD_REACTORS
330
47
102
}
330
47
100
AcDbScale
 70
     0
300
3/4" = 1'-0"
140
0.75
141
12.0
290
     0
  0
SCALE
  5
64
102
{ACAD_REACTORS
330
47
102
}
330
47
100
AcDbScale
 70
     0
300
1" = 1'-0"
140
1.0
141
12.0
290
     0
  0
SCALE
  5
65
102
{ACAD_REACTORS
330
47
102
}
330
47
100
AcDbScale
 70
     0
300
1-1/2" = 1'-0"
140
1.5
141
12.0
290
     0
  0
SCALE
  5
66
102
{ACAD_REACTORS
330
47
102
}
330
47
100
AcDbScale
 70
     0
300
3" = 1'-0"
140
3.0
141
12.0
290
     0
  0
SCALE
  5
67
102
{ACAD_REACTORS
330
47
102
}
330
47
100
AcDbScale
 70
     0
300
6" = 1'-0"
140
6.0
141
12.0
290
     0
  0
SCALE
  5
68
102
{ACAD_REACTORS
330
47
102
}
330
47
100
AcDbScale
 70
     0
300
1'-0" = 1'-0"
140
12.0
141
12.0
290
     0
  0
ACDBSECTIONVIEWSTYLE
  5
174
102
{ACAD_REACTORS
330
173
102
}
330
173
100
AcDbModelDocViewStyle
 70
     0
  3
Metric50
290
     0
300
Metric50
 90
        0
100
AcDbSectionViewStyle
 70
     0
 71
     0
 90
      102
 71
     1
340
11
 62
   256
 40
5.0
340
0
340
0
 62
   256
 40
5.0
300
I, O, Q, S, X, Z
 40
10.0
 90
        0
 40
2.5
 90
        0
 71
     2
340
16
 90
       25
 62
   256
340
16
 90
       50
 62
   256
 40
5.0
 40
2.5
 40
5.0
 71
     3
340
11
 62
   256
 40
5.0
 90
        0
 40
15.0
 90
        1
300
%<\AcVar ViewSectionStartId>%-%<\AcVar ViewSectionEndId>% (%<\AcVar ViewScale \f "%sn">%)
 71
     4
 62
   256
 62
   257
300
ANSI31
 40
1.0
 90
        0
290
     0
290
     0
 90
        6
 40
0.0
 40
1.570796326794896
 40
0.2617993877991494
 40
1.308996938995747
 40
-0.2617993877991494
 40
1.832595714594045
  0
TABLESTYLE
  5
170
102
{ACAD_XDICTIONARY
360
2A3
102
}
102
{ACAD_REACTORS
330
16F
102
}
330
16F
100
AcDbTableStyle
280
     0
  3
Standard
 70
     0
 71
     0
 40
1.5
 41
1.5
280
     0
281
     0
  7
Standard
140
4.5
170
     2
 62
     0
 63
     7
283
     0
 90
      512
 91
        0
  1

274
    -2
284
     1
 64
     0
275
    -2
285
     1
 65
     0
276
    -2
286
     1
 66
     0
277
    -2
287
     1
 67
     0
278
    -2
288
     1
 68
     0
279
    -2
289
     1
 69
     0
  7
Standard
140
6.0
170
     5
 62
     0
 63
     7
283
     0
 90
      512
 91
        0
  1

274
    -2
284
     1
 64
     0
275
    -2
285
     1
 65
     0
276
    -2
286
     1
 66
     0
277
    -2
287
     1
 67
     0
278
    -2
288
     1
 68
     0
279
    -2
289
     1
 69
     0
  7
Standard
140
4.5
170
     5
 62
     0
 63
     7
283
     0
 90
      512
 91
        0
  1

274
    -2
284
     1
 64
     0
275
    -2
285
     1
 65
     0
276
    -2
286
     1
 66
     0
277
    -2
287
     1
 67
     0
278
    -2
288
     1
 68
     0
279
    -2
289
     1
 69
     0
  0
VISUALSTYLE
  5
15B
102
{ACAD_REACTORS
330
155
102
}
330
155
100
AcDbVisualStyle
  2
2dWireframe
 70
     4
177
     3
291
     0
 70
    58
 90
        0
176
     1
 90
        2
176
     1
 90
        0
176
     1
 90
        0
176
     1
 40
0.6
176
     1
 40
30.0
176
     1
 62
     7
420
 16777215
176
     1
 90
        1
176
     1
 90
        4
176
     1
 62
     7
176
     1
 62
   257
176
     1
 90
        1
176
     1
 90
        1
176
     1
 40
1.0
176
     1
 90
        0
176
     1
 62
   257
176
     1
 40
1.0
176
     1
 90
        1
176
     1
 90
        6
176
     1
 90
        2
176
     1
 62
     7
176
     1
 90
        5
176
     1
 90
        0
176
     1
 90
        0
176
     1
290
     0
176
     1
 90
        1
176
     1
 40
0.0
176
     1
 90
        0
176
     1
290
     1
176
     1
290
     1
176
     1
290
     0
176
     1
290
     0
176
     1
290
     0
176
     1
290
     0
176
     1
290
     0
176
     1
290
     0
176
     1
290
     0
176
     1
 90
       50
176
     1
 40
0.0
176
     1
 40
1.0
176
     1
 90
        0
176
     1
 62
    18
176
     1
 90
       50
176
     1
 90
        3
176
     1
 62
     5
420
      255
176
     1
290
     0
176
     1
 90
       50
176
     1
 90
       50
176
     1
 90
       50
176
     1
290
     0
176
     1
 90
       50
176
     1
 62
   256
176
     0
 40
1.0
176
     0
 90
        2
176
     1
  1
strokes_ogs.tif
176
     1
290
     0
176
     1
 40
1.0
176
     1
 40
1.0
176
     1
  0
VISUALSTYLE
  5
15A
102
{ACAD_REACTORS
330
155
102
}
330
155
100
AcDbVisualStyle
  2
Basic
 70
     7
177
     3
291
     1
 70
    58
 90
        1
176
     1
 90
        0
176
     1
 90
        1
176
     1
 90
        0
176
     1
 40
0.6
176
     1
 40
30.0
176
     1
 62
     7
420
 16777215
176
     1
 90
        0
176
     1
 90
        4
176
     1
 62
     7
176
     1
 62
   257
176
     1
 90
        1
176
     1
 90
        1
176
     1
 40
1.0
176
     1
 90
        8
176
     1
 62
     7
176
     1
 40
1.0
176
     1
 90
        1
176
     1
 90
        6
176
     1
 90
        2
176
     1
 62
     7
176
     1
 90
        5
176
     1
 90
        0
176
     1
 90
        0
176
     1
290
     0
176
     1
 90
        1
176
     1
 40
0.0
176
     1
 90
        0
176
     1
290
     0
176
     1
290
     1
176
     1
290
     1
176
     1
290
     0
176
     1
290
     0
176
     1
290
     0
176
     1
290
     0
176
     1
290
     0
176
     1
290
     0
176
     1
 90
       50
176
     1
 40
0.0
176
     1
 40
1.0
176
     1
 90
        0
176
     1
 62
    18
176
     1
 90
       50
176
     1
 90
        3
176
     1
 62
     5
420
      255
176
     1
290
     0
176
     1
 90
       50
176
     1
 90
       50
176
     1
 90
       50
176
     1
290
     0
176
     1
 90
       50
176
     1
 62
   256
176
     0
 40
1.0
176
     0
 90
        2
176
     1
  1
strokes_ogs.tif
176
     1
290
     0
176
     1
 40
1.0
176
     1
 40
1.0
176
     1
  0
VISUALSTYLE
  5
161
102
{ACAD_REACTORS
330
155
102
}
330
155
100
AcDbVisualStyle
  2
Brighten
 70
    12
177
     3
291
     1
 70
    58
 90
        2
176
     1
 90
        2
176
     1
 90
        0
176
     1
 90
        0
176
     1
 40
0.6
176
     1
 40
30.0
176
     1
 62
     7
420
 16777215
176
     1
 90
        1
176
     1
 90
        4
176
     1
 62
     7
176
     1
 62
   257
176
     1
 90
        1
176
     1
 90
        1
176
     1
 40
1.0
176
     1
 90
        8
176
     1
 62
     7
176
     1
 40
1.0
176
     1
 90
        1
176
     1
 90
        6
176
     1
 90
        2
176
     1
 62
     7
176
     1
 90
        5
176
     1
 90
        0
176
     1
 90
        0
176
     1
290
     0
176
     1
 90
        1
176
     1
 40
50.0
176
     1
 90
        0
176
     1
290
     0
176
     1
290
     1
176
     1
290
     1
176
     1
290
     0
176
     1
290
     0
176
     1
290
     0
176
     1
290
     0
176
     1
290
     0
176
     1
290
     0
176
     1
 90
       50
176
     1
 40
0.0
176
     1
 40
1.0
176
     1
 90
        0
176
     1
 62
    18
176
     1
 90
       50
176
     1
 90
        3
176
     1
 62
     5
420
      255
176
     1
290
     0
176
     1
 90
       50
176
     1
 90
       50
176
     1
 90
       50
176
     1
290
     0
176
     1
 90
       50
176
     1
 62
   256
176
     0
 40
1.0
176
     0
 90
        2
176
     1
  1
strokes_ogs.tif
176
     1
290
     0
176
     1
 40
1.0
176
     1
 40
1.0
176
     1
  0
VISUALSTYLE
  5
165
102
{ACAD_REACTORS
330
155
102
}
330
155
100
AcDbVisualStyle
  2
ColorChange
 70
    16
177
     3
291
     1
 70
    58
 90
        2
176
     1
 90
        2
176
     1
 90
        3
176
     1
 90
        0
176
     1
 40
0.6
176
     1
 40
30.0
176
     1
 62
     8
420
  8421504
176
     1
 90
        1
176
     1
 90
        4
176
     1
 62
     7
176
     1
 62
   257
176
     1
 90
        1
176
     1
 90
        1
176
     1
 40
1.0
176
     1
 90
        8
176
     1
 62
     8
420
  8421504
176
     1
 40
1.0
176
     1
 90
        1
176
     1
 90
        6
176
     1
 90
        2
176
     1
 62
     7
176
     1
 90
        5
176
     1
 90
        0
176
     1
 90
        0
176
     1
290
     0
176
     1
 90
        1
176
     1
 40
0.0
176
     1
 90
        0
176
     1
290
     0
176
     1
290
     1
176
     1
290
     1
176
     1
290
     0
176
     1
290
     0
176
     1
290
     0
176
     1
290
     0
176
     1
290
     0
176
     1
290
     0
176
     1
 90
       50
176
     1
 40
0.0
176
     1
 40
1.0
176
     1
 90
        0
176
     1
 62
    18
176
     1
 90
       50
176
     1
 90
        3
176
     1
 62
     5
420
      255
176
     1
290
     0
176
     1
 90
       50
176
     1
 90
       50
176
     1
 90
       50
176
     1
290
     0
176
     1
 90
       50
176
     1
 62
   256
176
     0
 40
1.0
176
     0
 90
        2
176
     1
  1
strokes_ogs.tif
176
     1
290
     0
176
     1
 40
1.0
176
     1
 40
1.0
176
     1
  0
VISUALSTYLE
  5
15E
102
{ACAD_REACTORS
330
155
102
}
330
155
100
AcDbVisualStyle
  2
Conceptual
 70
     9
177
     3
291
     0
 70
    58
 90
        3
176
     1
 90
        2
176
     1
 90
        0
176
     1
 90
        0
176
     1
 40
0.6
176
     1
 40
30.0
176
     1
 62
     7
420
 16777215
176
     1
 90
        2
176
     1
 90
        2
176
     1
 62
     7
176
     1
 62
   257
176
     1
 90
        1
176
     1
 90
        1
176
     1
 40
179.0
176
     1
 90
        8
176
     1
 62
     7
176
     1
 40
1.0
176
     1
 90
        1
176
     1
 90
        6
176
     1
 90
        2
176
     1
 62
     7
176
     1
 90
        3
176
     1
 90
        0
176
     1
 90
        0
176
     1
290
     0
176
     1
 90
        1
176
     1
 40
0.0
176
     1
 90
        0
176
     1
290
     0
176
     1
290
     1
176
     1
290
     1
176
     1
290
     0
176
     1
290
     0
176
     1
290
     0
176
     1
290
     0
176
     1
290
     0
176
     1
290
     0
176
     1
 90
       50
176
     1
 40
0.0
176
     1
 40
1.0
176
     1
 90
        0
176
     1
 62
    18
176
     1
 90
       50
176
     1
 90
        3
176
     1
 62
     5
420
      255
176
     1
290
     0
176
     1
 90
       50
176
     1
 90
       50
176
     1
 90
       50
176
     1
290
     0
176
     1
 90
       50
176
     1
 62
   256
176
     0
 40
1.0
176
     0
 90
        2
176
     1
  1
strokes_ogs.tif
176
     1
290
     0
176
     1
 40
1.0
176
     1
 40
1.0
176
     1
  0
VISUALSTYLE
  5
160
102
{ACAD_REACTORS
330
155
102
}
330
155
100
AcDbVisualStyle
  2
Dim
 70
    11
177
     3
291
     1
 70
    58
 90
        2
176
     1
 90
        2
176
     1
 90
        0
176
     1
 90
        0
176
     1
 40
0.6
176
     1
 40
30.0
176
     1
 62
     7
420
 16777215
176
     1
 90
        1
176
     1
 90
        4
176
     1
 62
     7
176
     1
 62
   257
176
     1
 90
        1
176
     1
 90
        1
176
     1
 40
1.0
176
     1
 90
        8
176
     1
 62
     7
176
     1
 40
1.0
176
     1
 90
        1
176
     1
 90
        6
176
     1
 90
        2
176
     1
 62
     7
176
     1
 90
        5
176
     1
 90
        0
176
     1
 90
        0
176
     1
290
     0
176
     1
 90
        1
176
     1
 40
-50.0
176
     1
 90
        0
176
     1
290
     0
176
     1
290
     1
176
     1
290
     1
176
     1
290
     0
176
     1
290
     0
176
     1
290
     0
176
     1
290
     0
176
     1
290
     0
176
     1
290
     0
176
     1
 90
       50
176
     1
 40
0.0
176
     1
 40
1.0
176
     1
 90
        0
176
     1
 62
    18
176
     1
 90
       50
176
     1
 90
        3
176
     1
 62
     5
420
      255
176
     1
290
     0
176
     1
 90
       50
176
     1
 90
       50
176
     1
 90
       50
176
     1
290
     0
176
     1
 90
       50
176
     1
 62
   256
176
     0
 40
1.0
176
     0
 90
        2
176
     1
  1
strokes_ogs.tif
176
     1
290
     0
176
     1
 40
1.0
176
     1
 40
1.0
176
     1
  0
VISUALSTYLE
  5
16D
102
{ACAD_REACTORS
330
155
102
}
330
155
100
AcDbVisualStyle
  2
EdgeColorOff
 70
    22
177
     3
291
     1
 70
    58
 90
        2
176
     0
 90
        2
176
     0
 90
        0
176
     0
 90
        0
176
     0
 40
0.6
176
     0
 40
30.0
176
     0
 62
     7
420
 16777215
176
     0
 90
        1
176
     0
 90
        4
176
     0
 62
     7
176
     0
 62
   257
176
     0
 90
        1
176
     0
 90
        1
176
     0
 40
1.0
176
     0
 90
        8
176
     2
 62
     7
176
     0
 40
1.0
176
     0
 90
        1
176
     0
 90
        6
176
     0
 90
        2
176
     0
 62
     7
176
     0
 90
        5
176
     0
 90
        0
176
     0
 90
        0
176
     0
290
     0
176
     0
 90
        1
176
     0
 40
0.0
176
     0
 90
        0
176
     0
290
     0
176
     1
290
     1
176
     1
290
     1
176
     1
290
     0
176
     1
290
     0
176
     1
290
     0
176
     1
290
     0
176
     1
290
     0
176
     1
290
     0
176
     1
 90
       50
176
     0
 40
0.0
176
     0
 40
1.0
176
     0
 90
        0
176
     0
 62
    18
176
     0
 90
       50
176
     0
 90
        3
176
     0
 62
     5
420
      255
176
     0
290
     0
176
     1
 90
       50
176
     0
 90
       50
176
     0
 90
       50
176
     0
290
     0
176
     1
 90
       50
176
     0
 62
   256
176
     0
 40
1.0
176
     0
 90
        2
176
     0
  1
strokes_ogs.tif
176
     0
290
     0
176
     1
 40
1.0
176
     0
 40
1.0
176
     0
  0
VISUALSTYLE
  5
164
102
{ACAD_REACTORS
330
155
102
}
330
155
100
AcDbVisualStyle
  2
Facepattern
 70
    15
177
     3
291
     1
 70
    58
 90
        2
176
     1
 90
        2
176
     1
 90
        0
176
     1
 90
        0
176
     1
 40
0.6
176
     1
 40
30.0
176
     1
 62
     7
420
 16777215
176
     1
 90
        1
176
     1
 90
        4
176
     1
 62
     7
176
     1
 62
   257
176
     1
 90
        1
176
     1
 90
        1
176
     1
 40
1.0
176
     1
 90
        8
176
     1
 62
     7
176
     1
 40
1.0
176
     1
 90
        1
176
     1
 90
        6
176
     1
 90
        2
176
     1
 62
     7
176
     1
 90
        5
176
     1
 90
        0
176
     1
 90
        0
176
     1
290
     0
176
     1
 90
        1
176
     1
 40
0.0
176
     1
 90
        0
176
     1
290
     0
176
     1
290
     1
176
     1
290
     1
176
     1
290
     0
176
     1
290
     0
176
     1
290
     0
176
     1
290
     0
176
     1
290
     0
176
     1
290
     0
176
     1
 90
       50
176
     1
 40
0.0
176
     1
 40
1.0
176
     1
 90
        0
176
     1
 62
    18
176
     1
 90
       50
176
     1
 90
        3
176
     1
 62
     5
420
      255
176
     1
290
     0
176
     1
 90
       50
176
     1
 90
       50
176
     1
 90
       50
176
     1
290
     0
176
     1
 90
       50
176
     1
 62
   256
176
     0
 40
1.0
176
     0
 90
        2
176
     1
  1
strokes_ogs.tif
176
     1
290
     0
176
     1
 40
1.0
176
     1
 40
1.0
176
     1
  0
VISUALSTYLE
  5
156
102
{ACAD_REACTORS
330
155
102
}
330
155
100
AcDbVisualStyle
  2
Flat
 70
     0
177
     3
291
     1
 70
    58
 90
        2
176
     1
 90
        1
176
     1
 90
        1
176
     1
 90
        2
176
     1
 40
0.6
176
     1
 40
30.0
176
     1
 62
     7
420
 16777215
176
     1
 90
        0
176
     1
 90
        0
176
     1
 62
     7
176
     1
 62
   257
176
     1
 90
        1
176
     1
 90
        1
176
     1
 40
1.0
176
     1
 90
        8
176
     1
 62
     7
176
     1
 40
1.0
176
     1
 90
        1
176
     1
 90
        6
176
     1
 90
        2
176
     1
 62
     7
176
     1
 90
        5
176
     1
 90
        0
176
     1
 90
        0
176
     1
290
     0
176
     1
 90
       13
176
     1
 40
0.0
176
     1
 90
        0
176
     1
290
     0
176
     1
290
     1
176
     1
290
     1
176
     1
290
     0
176
     1
290
     0
176
     1
290
     0
176
     1
290
     0
176
     1
290
     0
176
     1
290
     0
176
     1
 90
       50
176
     1
 40
0.0
176
     1
 40
1.0
176
     1
 90
        0
176
     1
 62
    18
176
     1
 90
       50
176
     1
 90
        3
176
     1
 62
     5
420
      255
176
     1
290
     0
176
     1
 90
       50
176
     1
 90
       50
176
     1
 90
       50
176
     1
290
     0
176
     1
 90
       50
176
     1
 62
   256
176
     0
 40
1.0
176
     0
 90
        2
176
     1
  1
strokes_ogs.tif
176
     1
290
     0
176
     1
 40
1.0
176
     1
 40
1.0
176
     1
  0
VISUALSTYLE
  5
157
102
{ACAD_REACTORS
330
155
102
}
330
155
100
AcDbVisualStyle
  2
FlatWithEdges
 70
     1
177
     3
291
     1
 70
    58
 90
        2
176
     1
 90
        1
176
     1
 90
        1
176
     1
 90
        2
176
     1
 40
0.6
176
     1
 40
30.0
176
     1
 62
     7
420
 16777215
176
     1
 90
        1
176
     1
 90
        0
176
     1
 62
     7
176
     1
 62
   257
176
     1
 90
        1
176
     1
 90
        1
176
     1
 40
1.0
176
     1
 90
        0
176
     1
 62
   257
176
     1
 40
1.0
176
     1
 90
        1
176
     1
 90
        6
176
     1
 90
        2
176
     1
 62
     7
176
     1
 90
        5
176
     1
 90
        0
176
     1
 90
        0
176
     1
290
     0
176
     1
 90
       13
176
     1
 40
0.0
176
     1
 90
        0
176
     1
290
     0
176
     1
290
     1
176
     1
290
     1
176
     1
290
     0
176
     1
290
     0
176
     1
290
     0
176
     1
290
     0
176
     1
290
     0
176
     1
290
     0
176
     1
 90
       50
176
     1
 40
0.0
176
     1
 40
1.0
176
     1
 90
        0
176
     1
 62
    18
176
     1
 90
       50
176
     1
 90
        3
176
     1
 62
     5
420
      255
176
     1
290
     0
176
     1
 90
       50
176
     1
 90
       50
176
     1
 90
       50
176
     1
290
     0
176
     1
 90
       50
176
     1
 62
   256
176
     0
 40
1.0
176
     0
 90
        2
176
     1
  1
strokes_ogs.tif
176
     1
290
     0
176
     1
 40
1.0
176
     1
 40
1.0
176
     1
  0
VISUALSTYLE
  5
158
102
{ACAD_REACTORS
330
155
102
}
330
155
100
AcDbVisualStyle
  2
Gouraud
 70
     2
177
     3
291
     1
 70
    58
 90
        2
176
     1
 90
        2
176
     1
 90
        1
176
     1
 90
        2
176
     1
 40
0.6
176
     1
 40
30.0
176
     1
 62
     7
420
 16777215
176
     1
 90
        0
176
     1
 90
        0
176
     1
 62
     7
176
     1
 62
   257
176
     1
 90
        1
176
     1
 90
        1
176
     1
 40
1.0
176
     1
 90
        0
176
     1
 62
     7
176
     1
 40
1.0
176
     1
 90
        1
176
     1
 90
        6
176
     1
 90
        2
176
     1
 62
     7
176
     1
 90
        5
176
     1
 90
        0
176
     1
 90
        0
176
     1
290
     0
176
     1
 90
       13
176
     1
 40
0.0
176
     1
 90
        0
176
     1
290
     0
176
     1
290
     1
176
     1
290
     1
176
     1
290
     0
176
     1
290
     0
176
     1
290
     0
176
     1
290
     0
176
     1
290
     0
176
     1
290
     0
176
     1
 90
       50
176
     1
 40
0.0
176
     1
 40
1.0
176
     1
 90
        0
176
     1
 62
    18
176
     1
 90
       50
176
     1
 90
        3
176
     1
 62
     5
420
      255
176
     1
290
     0
176
     1
 90
       50
176
     1
 90
       50
176
     1
 90
       50
176
     1
290
     0
176
     1
 90
       50
176
     1
 62
   256
176
     0
 40
1.0
176
     0
 90
        2
176
     1
  1
strokes_ogs.tif
176
     1
290
     0
176
     1
 40
1.0
176
     1
 40
1.0
176
     1
  0
VISUALSTYLE
  5
159
102
{ACAD_REACTORS
330
155
102
}
330
155
100
AcDbVisualStyle
  2
GouraudWithEdges
 70
     3
177
     3
291
     1
 70
    58
 90
        2
176
     1
 90
        2
176
     1
 90
        1
176
     1
 90
        2
176
     1
 40
0.6
176
     1
 40
30.0
176
     1
 62
     7
420
 16777215
176
     1
 90
        1
176
     1
 90
        0
176
     1
 62
     7
176
     1
 62
   257
176
     1
 90
        1
176
     1
 90
        1
176
     1
 40
1.0
176
     1
 90
        0
176
     1
 62
   257
176
     1
 40
1.0
176
     1
 90
        1
176
     1
 90
        6
176
     1
 90
        2
176
     1
 62
     7
176
     1
 90
        5
176
     1
 90
        0
176
     1
 90
        0
176
     1
290
     0
176
     1
 90
       13
176
     1
 40
0.0
176
     1
 90
        0
176
     1
290
     0
176
     1
290
     1
176
     1
290
     1
176
     1
290
     0
176
     1
290
     0
176
     1
290
     0
176
     1
290
     0
176
     1
290
     0
176
     1
290
     0
176
     1
 90
       50
176
     1
 40
0.0
176
     1
 40
1.0
176
     1
 90
        0
176
     1
 62
    18
176
     1
 90
       50
176
     1
 90
        3
176
     1
 62
     5
420
      255
176
     1
290
     0
176
     1
 90
       50
176
     1
 90
       50
176
     1
 90
       50
176
     1
290
     0
176
     1
 90
       50
176
     1
 62
   256
176
     0
 40
1.0
176
     0
 90
        2
176
     1
  1
strokes_ogs.tif
176
     1
290
     0
176
     1
 40
1.0
176
     1
 40
1.0
176
     1
  0
VISUALSTYLE
  5
15D
102
{ACAD_REACTORS
330
155
102
}
330
155
100
AcDbVisualStyle
  2
Hidden
 70
     6
177
     3
291
     0
 70
    58
 90
        1
176
     1
 90
        2
176
     1
 90
        2
176
     1
 90
        0
176
     1
 40
0.6
176
     1
 40
30.0
176
     1
 62
     7
420
 16777215
176
     1
 90
        2
176
     1
 90
        2
176
     1
 62
     7
176
     1
 62
   257
176
     1
 90
        2
176
     1
 90
        1
176
     1
 40
40.0
176
     1
 90
        0
176
     1
 62
   257
176
     1
 40
1.0
176
     1
 90
        1
176
     1
 90
        6
176
     1
 90
        2
176
     1
 62
     7
176
     1
 90
        3
176
     1
 90
        0
176
     1
 90
        0
176
     1
290
     0
176
     1
 90
        1
176
     1
 40
0.0
176
     1
 90
        0
176
     1
290
     0
176
     1
290
     1
176
     1
290
     1
176
     1
290
     0
176
     1
290
     0
176
     1
290
     0
176
     1
290
     0
176
     1
290
     0
176
     1
290
     0
176
     1
 90
       50
176
     1
 40
0.0
176
     1
 40
1.0
176
     1
 90
        0
176
     1
 62
    18
176
     1
 90
       50
176
     1
 90
        3
176
     1
 62
     5
420
      255
176
     1
290
     0
176
     1
 90
       50
176
     1
 90
       50
176
     1
 90
       50
176
     1
290
     0
176
     1
 90
       50
176
     1
 62
   256
176
     0
 40
1.0
176
     0
 90
        2
176
     1
  1
strokes_ogs.tif
176
     1
290
     0
176
     1
 40
1.0
176
     1
 40
1.0
176
     1
  0
VISUALSTYLE
  5
16B
102
{ACAD_REACTORS
330
155
102
}
330
155
100
AcDbVisualStyle
  2
JitterOff
 70
    20
177
     3
291
     1
 70
    58
 90
        2
176
     0
 90
        2
176
     0
 90
        0
176
     0
 90
        0
176
     0
 40
0.6
176
     0
 40
30.0
176
     0
 62
     7
420
 16777215
176
     0
 90
        1
176
     0
 90
        4
176
     0
 62
     7
176
     0
 62
   257
176
     0
 90
        1
176
     0
 90
        1
176
     0
 40
1.0
176
     0
 90
       10
176
     2
 62
     7
176
     0
 40
1.0
176
     0
 90
        1
176
     0
 90
        6
176
     0
 90
        2
176
     0
 62
     7
176
     0
 90
        5
176
     0
 90
        0
176
     0
 90
        0
176
     0
290
     0
176
     0
 90
        1
176
     0
 40
0.0
176
     0
 90
        0
176
     0
290
     0
176
     1
290
     1
176
     1
290
     1
176
     1
290
     0
176
     1
290
     0
176
     1
290
     0
176
     1
290
     0
176
     1
290
     0
176
     1
290
     0
176
     1
 90
       50
176
     0
 40
0.0
176
     0
 40
1.0
176
     0
 90
        0
176
     0
 62
    18
176
     0
 90
       50
176
     0
 90
        3
176
     0
 62
     5
420
      255
176
     0
290
     0
176
     1
 90
       50
176
     0
 90
       50
176
     0
 90
       50
176
     0
290
     0
176
     1
 90
       50
176
     0
 62
   256
176
     0
 40
1.0
176
     0
 90
        2
176
     0
  1
strokes_ogs.tif
176
     0
290
     0
176
     1
 40
1.0
176
     0
 40
1.0
176
     0
  0
VISUALSTYLE
  5
163
102
{ACAD_REACTORS
330
155
102
}
330
155
100
AcDbVisualStyle
  2
Linepattern
 70
    14
177
     3
291
     1
 70
    58
 90
        2
176
     1
 90
        2
176
     1
 90
        0
176
     1
 90
        0
176
     1
 40
0.6
176
     1
 40
30.0
176
     1
 62
     7
420
 16777215
176
     1
 90
        1
176
     1
 90
        4
176
     1
 62
     7
176
     1
 62
   257
176
     1
 90
        7
176
     1
 90
        7
176
     1
 40
1.0
176
     1
 90
        8
176
     1
 62
     7
176
     1
 40
1.0
176
     1
 90
        1
176
     1
 90
        6
176
     1
 90
        2
176
     1
 62
     7
176
     1
 90
        5
176
     1
 90
        0
176
     1
 90
        0
176
     1
290
     0
176
     1
 90
        1
176
     1
 40
0.0
176
     1
 90
        0
176
     1
290
     0
176
     1
290
     1
176
     1
290
     1
176
     1
290
     0
176
     1
290
     0
176
     1
290
     0
176
     1
290
     0
176
     1
290
     0
176
     1
290
     0
176
     1
 90
       50
176
     1
 40
0.0
176
     1
 40
1.0
176
     1
 90
        0
176
     1
 62
    18
176
     1
 90
       50
176
     1
 90
        3
176
     1
 62
     5
420
      255
176
     1
290
     0
176
     1
 90
       50
176
     1
 90
       50
176
     1
 90
       50
176
     1
290
     0
176
     1
 90
       50
176
     1
 62
   256
176
     0
 40
1.0
176
     0
 90
        2
176
     1
  1
strokes_ogs.tif
176
     1
290
     0
176
     1
 40
1.0
176
     1
 40
1.0
176
     1
  0
VISUALSTYLE
  5
16C
102
{ACAD_REACTORS
330
155
102
}
330
155
100
AcDbVisualStyle
  2
OverhangOff
 70
    21
177
     3
291
     1
 70
    58
 90
        2
176
     0
 90
        2
176
     0
 90
        0
176
     0
 90
        0
176
     0
 40
0.6
176
     0
 40
30.0
176
     0
 62
     7
420
 16777215
176
     0
 90
        1
176
     0
 90
        4
176
     0
 62
     7
176
     0
 62
   257
176
     0
 90
        1
176
     0
 90
        1
176
     0
 40
1.0
176
     0
 90
        9
176
     2
 62
     7
176
     0
 40
1.0
176
     0
 90
        1
176
     0
 90
        6
176
     0
 90
        2
176
     0
 62
     7
176
     0
 90
        5
176
     0
 90
        0
176
     0
 90
        0
176
     0
290
     0
176
     0
 90
        1
176
     0
 40
0.0
176
     0
 90
        0
176
     0
290
     0
176
     1
290
     1
176
     1
290
     1
176
     1
290
     0
176
     1
290
     0
176
     1
290
     0
176
     1
290
     0
176
     1
290
     0
176
     1
290
     0
176
     1
 90
       50
176
     0
 40
0.0
176
     0
 40
1.0
176
     0
 90
        0
176
     0
 62
    18
176
     0
 90
       50
176
     0
 90
        3
176
     0
 62
     5
420
      255
176
     0
290
     0
176
     1
 90
       50
176
     0
 90
       50
176
     0
 90
       50
176
     0
290
     0
176
     1
 90
       50
176
     0
 62
   256
176
     0
 40
1.0
176
     0
 90
        2
176
     0
  1
strokes_ogs.tif
176
     0
290
     0
176
     1
 40
1.0
176
     0
 40
1.0
176
     0
  0
VISUALSTYLE
  5
15F
102
{ACAD_REACTORS
330
155
102
}
330
155
100
AcDbVisualStyle
  2
Realistic
 70
     8
177
     3
291
     0
 70
    58
 90
        2
176
     1
 90
        3
176
     1
 90
        0
176
     1
 90
        2
176
     1
 40
0.6
176
     1
 40
30.0
176
     1
 62
     7
420
 16777215
176
     1
 90
        0
176
     1
 90
        0
176
     1
 62
     7
176
     1
 62
   257
176
     1
 90
        1
176
     1
 90
        1
176
     1
 40
1.0
176
     1
 90
        8
176
     1
 62
   257
176
     1
 40
1.0
176
     1
 90
        1
176
     1
 90
        6
176
     1
 90
        2
176
     1
 62
     7
176
     1
 90
        3
176
     1
 90
        0
176
     1
 90
        0
176
     1
290
     0
176
     1
 90
       13
176
     1
 40
0.0
176
     1
 90
        0
176
     1
290
     0
176
     1
290
     1
176
     1
290
     1
176
     1
290
     0
176
     1
290
     0
176
     1
290
     0
176
     1
290
     0
176
     1
290
     0
176
     1
290
     0
176
     1
 90
       50
176
     1
 40
0.0
176
     1
 40
1.0
176
     1
 90
        0
176
     1
 62
    18
176
     1
 90
       50
176
     1
 90
        3
176
     1
 62
     5
420
      255
176
     1
290
     0
176
     1
 90
       50
176
     1
 90
       50
176
     1
 90
       50
176
     1
290
     0
176
     1
 90
       50
176
     1
 62
   256
176
     0
 40
1.0
176
     0
 90
        2
176
     1
  1
strokes_ogs.tif
176
     1
290
     0
176
     1
 40
1.0
176
     1
 40
1.0
176
     1
  0
VISUALSTYLE
  5
16A
102
{ACAD_REACTORS
330
155
102
}
330
155
100
AcDbVisualStyle
  2
Shaded
 70
    27
177
     3
291
     0
 70
    58
 90
        2
176
     1
 90
        2
176
     1
 90
        1
176
     1
 90
        2
176
     1
 40
0.6
176
     1
 40
30.0
176
     1
 62
     7
420
 16777215
176
     1
 90
        0
176
     1
 90
        4
176
     1
 62
     7
176
     1
 62
   257
176
     1
 90
        1
176
     1
 90
        1
176
     1
 40
1.0
176
     1
 90
        8
176
     1
 62
   257
176
     1
 40
1.0
176
     1
 90
        1
176
     1
 90
        6
176
     1
 90
        2
176
     1
 62
     8
420
  7895160
176
     1
 90
        3
176
     1
 90
        0
176
     1
 90
        0
176
     1
290
     0
176
     1
 90
        5
176
     1
 40
0.0
176
     1
 90
        0
176
     1
290
     0
176
     1
290
     1
176
     1
290
     1
176
     1
290
     0
176
     1
290
     0
176
     1
290
     0
176
     1
290
     0
176
     1
290
     0
176
     1
290
     0
176
     1
 90
       50
176
     1
 40
0.0
176
     1
 40
1.0
176
     1
 90
        0
176
     1
 62
    18
176
     1
 90
       50
176
     1
 90
        3
176
     1
 62
     5
420
      255
176
     1
290
     0
176
     1
 90
       50
176
     1
 90
       50
176
     1
 90
       50
176
     1
290
     0
176
     1
 90
       50
176
     1
 62
   256
176
     0
 40
1.0
176
     0
 90
        2
176
     1
  1
strokes_ogs.tif
176
     1
290
     0
176
     1
 40
1.0
176
     1
 40
1.0
176
     1
  0
VISUALSTYLE
  5
169
102
{ACAD_REACTORS
330
155
102
}
330
155
100
AcDbVisualStyle
  2
Shaded with edges
 70
    26
177
     3
291
     0
 70
    58
 90
        2
176
     1
 90
        2
176
     1
 90
        1
176
     1
 90
        2
176
     1
 40
0.6
176
     1
 40
30.0
176
     1
 62
     7
420
 16777215
176
     1
 90
        1
176
     1
 90
        2
176
     1
 62
     7
176
     1
 62
   257
176
     1
 90
        2
176
     1
 90
        1
176
     1
 40
1.0
176
     1
 90
        8
176
     1
 62
   257
176
     1
 40
1.0
176
     1
 90
        1
176
     1
 90
        6
176
     1
 90
        2
176
     1
 62
     7
176
     1
 90
        3
176
     1
 90
        0
176
     1
 90
        0
176
     1
290
     0
176
     1
 90
        5
176
     1
 40
0.0
176
     1
 90
        0
176
     1
290
     0
176
     1
290
     1
176
     1
290
     1
176
     1
290
     0
176
     1
290
     0
176
     1
290
     0
176
     1
290
     0
176
     1
290
     0
176
     1
290
     0
176
     1
 90
       50
176
     1
 40
0.0
176
     1
 40
1.0
176
     1
 90
        0
176
     1
 62
    18
176
     1
 90
       50
176
     1
 90
        3
176
     1
 62
     5
420
      255
176
     1
290
     0
176
     1
 90
       50
176
     1
 90
       50
176
     1
 90
       50
176
     1
290
     0
176
     1
 90
       50
176
     1
 62
   256
176
     0
 40
1.0
176
     0
 90
        2
176
     1
  1
strokes_ogs.tif
176
     1
290
     0
176
     1
 40
1.0
176
     1
 40
1.0
176
     1
  0
VISUALSTYLE
  5
166
102
{ACAD_REACTORS
330
155
102
}
330
155
100
AcDbVisualStyle
  2
Shades of Gray
 70
    23
177
     3
291
     0
 70
    58
 90
        2
176
     1
 90
        2
176
     1
 90
        3
176
     1
 90
        0
176
     1
 40
0.6
176
     1
 40
30.0
176
     1
 62
     7
420
 16777215
176
     1
 90
        2
176
     1
 90
        2
176
     1
 62
     7
176
     1
 62
     7
176
     1
 90
        1
176
     1
 90
        1
176
     1
 40
40.0
176
     1
 90
        8
176
     1
 62
     7
176
     1
 40
1.0
176
     1
 90
        1
176
     1
 90
        6
176
     1
 90
        2
176
     1
 62
     7
176
     1
 90
        3
176
     1
 90
        0
176
     1
 90
        0
176
     1
290
     0
176
     1
 90
        1
176
     1
 40
0.0
176
     1
 90
        0
176
     1
290
     0
176
     1
290
     1
176
     1
290
     1
176
     1
290
     0
176
     1
290
     0
176
     1
290
     0
176
     1
290
     0
176
     1
290
     0
176
     1
290
     0
176
     1
 90
       50
176
     1
 40
0.0
176
     1
 40
1.0
176
     1
 90
        0
176
     1
 62
    18
176
     1
 90
       50
176
     1
 90
        3
176
     1
 62
     5
420
      255
176
     1
290
     0
176
     1
 90
       50
176
     1
 90
       50
176
     1
 90
       50
176
     1
290
     0
176
     1
 90
       50
176
     1
 62
   256
176
     0
 40
1.0
176
     0
 90
        2
176
     1
  1
strokes_ogs.tif
176
     1
290
     0
176
     1
 40
1.0
176
     1
 40
1.0
176
     1
  0
VISUALSTYLE
  5
167
102
{ACAD_REACTORS
330
155
102
}
330
155
100
AcDbVisualStyle
  2
Sketchy
 70
    24
177
     3
291
     0
 70
    58
 90
        1
176
     1
 90
        2
176
     1
 90
        2
176
     1
 90
        0
176
     1
 40
0.6
176
     1
 40
30.0
176
     1
 62
     7
420
 16777215
176
     1
 90
        2
176
     1
 90
        2
176
     1
 62
     7
176
     1
 62
     7
176
     1
 90
        1
176
     1
 90
        1
176
     1
 40
40.0
176
     1
 90
       11
176
     1
 62
     7
176
     1
 40
1.0
176
     1
 90
        1
176
     1
 90
        6
176
     1
 90
        2
176
     1
 62
     7
176
     1
 90
        6
176
     1
 90
        0
176
     1
 90
        0
176
     1
290
     0
176
     1
 90
        1
176
     1
 40
0.0
176
     1
 90
        0
176
     1
290
     0
176
     1
290
     1
176
     1
290
     1
176
     1
290
     0
176
     1
290
     0
176
     1
290
     0
176
     1
290
     0
176
     1
290
     0
176
     1
290
     0
176
     1
 90
       50
176
     1
 40
0.0
176
     1
 40
1.0
176
     1
 90
        0
176
     1
 62
    18
176
     1
 90
       50
176
     1
 90
        3
176
     1
 62
     5
420
      255
176
     1
290
     0
176
     1
 90
       50
176
     1
 90
       50
176
     1
 90
       50
176
     1
290
     0
176
     1
 90
       50
176
     1
 62
   256
176
     0
 40
1.0
176
     0
 90
        2
176
     1
  1
strokes_ogs.tif
176
     1
290
     0
176
     1
 40
1.0
176
     1
 40
1.0
176
     1
  0
VISUALSTYLE
  5
162
102
{ACAD_REACTORS
330
155
102
}
330
155
100
AcDbVisualStyle
  2
Thicken
 70
    13
177
     3
291
     1
 70
    58
 90
        2
176
     1
 90
        2
176
     1
 90
        0
176
     1
 90
        0
176
     1
 40
0.6
176
     1
 40
30.0
176
     1
 62
     7
420
 16777215
176
     1
 90
        1
176
     1
 90
        4
176
     1
 62
     7
176
     1
 62
   257
176
     1
 90
        1
176
     1
 90
        1
176
     1
 40
1.0
176
     1
 90
       12
176
     1
 62
     7
176
     1
 40
1.0
176
     1
 90
        1
176
     1
 90
        6
176
     1
 90
        2
176
     1
 62
     7
176
     1
 90
        5
176
     1
 90
        0
176
     1
 90
        0
176
     1
290
     0
176
     1
 90
        1
176
     1
 40
0.0
176
     1
 90
        0
176
     1
290
     0
176
     1
290
     1
176
     1
290
     1
176
     1
290
     0
176
     1
290
     0
176
     1
290
     0
176
     1
290
     0
176
     1
290
     0
176
     1
290
     0
176
     1
 90
       50
176
     1
 40
0.0
176
     1
 40
1.0
176
     1
 90
        0
176
     1
 62
    18
176
     1
 90
       50
176
     1
 90
        3
176
     1
 62
     5
420
      255
176
     1
290
     0
176
     1
 90
       50
176
     1
 90
       50
176
     1
 90
       50
176
     1
290
     0
176
     1
 90
       50
176
     1
 62
   256
176
     0
 40
1.0
176
     0
 90
        2
176
     1
  1
strokes_ogs.tif
176
     1
290
     0
176
     1
 40
1.0
176
     1
 40
1.0
176
     1
  0
VISUALSTYLE
  5
15C
102
{ACAD_REACTORS
330
155
102
}
330
155
100
AcDbVisualStyle
  2
Wireframe
 70
     5
177
     3
291
     0
 70
    58
 90
        0
176
     1
 90
        2
176
     1
 90
        0
176
     1
 90
        0
176
     1
 40
0.6
176
     1
 40
30.0
176
     1
 62
     7
420
 16777215
176
     1
 90
        1
176
     1
 90
        4
176
     1
 62
     7
176
     1
 62
   257
176
     1
 90
        1
176
     1
 90
        1
176
     1
 40
1.0
176
     1
 90
        0
176
     1
 62
   257
176
     1
 40
1.0
176
     1
 90
        1
176
     1
 90
        6
176
     1
 90
        2
176
     1
 62
     7
176
     1
 90
        3
176
     1
 90
        0
176
     1
 90
        0
176
     1
290
     0
176
     1
 90
        1
176
     1
 40
0.0
176
     1
 90
        0
176
     1
290
     0
176
     1
290
     1
176
     1
290
     1
176
     1
290
     0
176
     1
290
     0
176
     1
290
     0
176
     1
290
     0
176
     1
290
     0
176
     1
290
     0
176
     1
 90
       50
176
     1
 40
0.0
176
     1
 40
1.0
176
     1
 90
        0
176
     1
 62
    18
176
     1
 90
       50
176
     1
 90
        3
176
     1
 62
     5
420
      255
176
     1
290
     0
176
     1
 90
       50
176
     1
 90
       50
176
     1
 90
       50
176
     1
290
     0
176
     1
 90
       50
176
     1
 62
   256
176
     0
 40
1.0
176
     0
 90
        2
176
     1
  1
strokes_ogs.tif
176
     1
290
     0
176
     1
 40
1.0
176
     1
 40
1.0
176
     1
  0
VISUALSTYLE
  5
168
102
{ACAD_REACTORS
330
155
102
}
330
155
100
AcDbVisualStyle
  2
X-Ray
 70
    25
177
     3
291
     0
 70
    58
 90
        2
176
     1
 90
        2
176
     1
 90
        1
176
     1
 90
        1
176
     1
 40
0.5
176
     1
 40
30.0
176
     1
 62
     7
420
 16777215
176
     1
 90
        1
176
     1
 90
        0
176
     1
 62
     7
176
     1
 62
   257
176
     1
 90
        1
176
     1
 90
        1
176
     1
 40
1.0
176
     1
 90
        8
176
     1
 62
     7
176
     1
 40
1.0
176
     1
 90
        1
176
     1
 90
        6
176
     1
 90
        2
176
     1
 62
     7
176
     1
 90
        3
176
     1
 90
        0
176
     1
 90
        0
176
     1
290
     0
176
     1
 90
       13
176
     1
 40
0.0
176
     1
 90
        0
176
     1
290
     0
176
     1
290
     1
176
     1
290
     1
176
     1
290
     0
176
     1
290
     0
176
     1
290
     0
176
     1
290
     0
176
     1
290
     0
176
     1
290
     0
176
     1
 90
       50
176
     1
 40
0.0
176
     1
 40
1.0
176
     1
 90
        0
176
     1
 62
    18
176
     1
 90
       50
176
     1
 90
        3
176
     1
 62
     5
420
      255
176
     1
290
     0
176
     1
 90
       50
176
     1
 90
       50
176
     1
 90
       50
176
     1
290
     0
176
     1
 90
       50
176
     1
 62
   256
176
     0
 40
1.0
176
     0
 90
        2
176
     1
  1
strokes_ogs.tif
176
     1
290
     0
176
     1
 40
1.0
176
     1
 40
1.0
176
     1
  0
DICTIONARYVAR
  5
29F
102
{ACAD_REACTORS
330
299
102
}
330
299
100
DictionaryVariables
280
     0
  1
1:1
  0
DICTIONARYVAR
  5
29B
102
{ACAD_REACTORS
330
299
102
}
330
299
100
DictionaryVariables
280
     0
  1
STANDARD
  0
DICTIONARYVAR
  5
29A
102
{ACAD_REACTORS
330
299
102
}
330
299
100
DictionaryVariables
280
     0
  1
STANDARD
  0
DICTIONARYVAR
  5
29C
102
{ACAD_REACTORS
330
299
102
}
330
299
100
DictionaryVariables
280
     0
  1
Metric50
  0
DICTIONARYVAR
  5
29D
102
{ACAD_REACTORS
330
299
102
}
330
299
100
DictionaryVariables
280
     0
  1
Metric50
  0
DICTIONARYVAR
  5
2A1
102
{ACAD_REACTORS
330
299
102
}
330
299
100
DictionaryVariables
280
     0
  1
1
  0
DICTIONARYVAR
  5
2A2
102
{ACAD_REACTORS
330
299
102
}
330
299
100
DictionaryVariables
280
     0
  1
15
  0
DICTIONARYVAR
  5
2A0
102
{ACAD_REACTORS
330
299
102
}
330
299
100
DictionaryVariables
280
     0
  1
0
  0
DICTIONARYVAR
  5
29E
102
{ACAD_REACTORS
330
299
102
}
330
299
100
DictionaryVariables
280
     0
  1
0
  0
DICTIONARY
  5
275
102
{ACAD_REACTORS
330
274
102
}
330
274
100
AcDbDictionary
281
     1
  3
*A1
350
276
  0
DICTIONARY
  5
267
102
{ACAD_REACTORS
330
266
102
}
330
266
100
AcDbDictionary
281
     1
  3
*A1
350
268
  0
DICTIONARY
  5
259
102
{ACAD_REACTORS
330
258
102
}
330
258
100
AcDbDictionary
281
     1
  3
*A1
350
25A
  0
DICTIONARY
  5
2D9
102
{ACAD_REACTORS
330
2D8
102
}
330
2D8
100
AcDbDictionary
281
     1
  3
*A1
350
2DA
  0
DICTIONARY
  5
291
102
{ACAD_REACTORS
330
290
102
}
330
290
100
AcDbDictionary
281
     1
  3
*A1
350
292
  0
DICTIONARY
  5
283
102
{ACAD_REACTORS
330
282
102
}
330
282
100
AcDbDictionary
281
     1
  3
*A1
350
284
  0
DICTIONARY
  5
236
102
{ACAD_REACTORS
330
235
102
}
330
235
100
AcDbDictionary
281
     1
  3
*A1
350
237
  0
DICTIONARY
  5
226
102
{ACAD_REACTORS
330
225
102
}
330
225
100
AcDbDictionary
281
     1
  3
*A1
350
227
  0
DICTIONARY
  5
218
102
{ACAD_REACTORS
330
217
102
}
330
217
100
AcDbDictionary
281
     1
  3
*A1
350
219
  0
DICTIONARY
  5
20A
102
{ACAD_REACTORS
330
209
102
}
330
209
100
AcDbDictionary
281
     1
  3
*A1
350
20B
  0
DICTIONARY
  5
24B
102
{ACAD_REACTORS
330
24A
102
}
330
24A
100
AcDbDictionary
281
     1
  3
*A1
350
24C
  0
DICTIONARY
  5
146
330
145
100
AcDbDictionary
280
     1
281
     1
  3
BUMPTILE
360
148
  3
DIFFUSETILE
360
147
  3
OPACITYTILE
360
14B
  3
REFLECTIONTILE
360
14A
  3
REFRACTIONTILE
360
14C
  3
SPECULARTILE
360
149
  0
DICTIONARY
  5
13E
330
13D
100
AcDbDictionary
280
     1
281
     1
  3
BUMPTILE
360
140
  3
DIFFUSETILE
360
13F
  3
OPACITYTILE
360
143
  3
REFLECTIONTILE
360
142
  3
REFRACTIONTILE
360
144
  3
SPECULARTILE
360
141
  0
DICTIONARY
  5
14E
330
14D
100
AcDbDictionary
280
     1
281
     1
  3
BUMPTILE
360
150
  3
DIFFUSETILE
360
14F
  3
OPACITYTILE
360
153
  3
REFLECTIONTILE
360
152
  3
REFRACTIONTILE
360
154
  3
SPECULARTILE
360
151
  0
DICTIONARY
  5
2A3
330
170
100
AcDbDictionary
280
     1
281
     1
  3
ACAD_ROUNDTRIP_2008_TABLESTYLE_CELLSTYLEMAP
360
324
  0
ACDB_ALDIMOBJECTCONTEXTDATA_CLASS
  5
276
102
{ACAD_REACTORS
330
275
102
}
330
275
100
AcDbObjectContextData
 70
     4
290
     1
100
AcDbAnnotScaleObjectContextData
340
48
100
AcDbDimensionObjectContextData
  2
*D22
293
     0
 10
248.8819681583
 20
-62.9114622677
294
     0
140
0.0
298
     0
291
     0
 70
     0
292
     0
 71
     0
280
     0
295
     0
296
     0
297
     0
100
AcDbAlignedDimensionObjectContextData
 11
248.8819681583001
 21
-109.982475513
 31
0.0
  0
ACDB_ALDIMOBJECTCONTEXTDATA_CLASS
  5
268
102
{ACAD_REACTORS
330
267
102
}
330
267
100
AcDbObjectContextData
 70
     4
290
     1
100
AcDbAnnotScaleObjectContextData
340
48
100
AcDbDimensionObjectContextData
  2
*D21
293
     0
 10
431.9819681582998
 20
-24.0163601787
294
     0
140
0.0
298
     0
291
     0
 70
     0
292
     0
 71
     0
280
     0
295
     0
296
     0
297
     0
100
AcDbAlignedDimensionObjectContextData
 11
431.9819681583001
 21
-64.91422593230002
 31
0.0
  0
ACDB_ALDIMOBJECTCONTEXTDATA_CLASS
  5
25A
102
{ACAD_REACTORS
330
259
102
}
330
259
100
AcDbObjectContextData
 70
     4
290
     1
100
AcDbAnnotScaleObjectContextData
340
48
100
AcDbDimensionObjectContextData
  2
*D31
293
     0
 10
322.3103893911
 20
-144.8568111777
294
     0
140
0.0
298
     0
291
     0
 70
     0
292
     0
 71
     0
280
     0
295
     0
296
     0
297
     0
100
AcDbAlignedDimensionObjectContextData
 11
295.8819681583
 21
-144.8568111777
 31
0.0
  0
ACDB_ALDIMOBJECTCONTEXTDATA_CLASS
  5
2DA
102
{ACAD_REACTORS
330
2D9
102
}
330
2D9
100
AcDbObjectContextData
 70
     4
290
     1
100
AcDbAnnotScaleObjectContextData
340
48
100
AcDbDimensionObjectContextData
  2
*D28
293
     0
 10
-143.039992407
 20
56.005154935
294
     0
140
0.0
298
     0
291
     0
 70
     0
292
     0
 71
     0
280
     0
295
     0
296
     0
297
     0
100
AcDbAlignedDimensionObjectContextData
 11
-143.039992407
 21
-109.982475513
 31
0.0
  0
ACDB_ALDIMOBJECTCONTEXTDATA_CLASS
  5
292
102
{ACAD_REACTORS
330
291
102
}
330
291
100
AcDbObjectContextData
 70
     4
290
     1
100
AcDbAnnotScaleObjectContextData
340
48
100
AcDbDimensionObjectContextData
  2
*D24
293
     0
 10
33.5056632957
 20
-149.982475513
294
     0
140
0.0
298
     0
291
     0
 70
     0
292
     0
 71
     0
280
     0
295
     0
296
     0
297
     0
100
AcDbAlignedDimensionObjectContextData
 11
139.9600075406
 21
-149.982475513
 31
0.0
  0
ACDB_ALDIMOBJECTCONTEXTDATA_CLASS
  5
284
102
{ACAD_REACTORS
330
283
102
}
330
283
100
AcDbObjectContextData
 70
     4
290
     1
100
AcDbAnnotScaleObjectContextData
340
48
100
AcDbDimensionObjectContextData
  2
*D23
293
     0
 10
187.0230413483
 20
-25.4296751172
294
     0
140
0.0
298
     0
291
     0
 70
     0
292
     0
 71
     0
280
     0
295
     0
296
     0
297
     0
100
AcDbAlignedDimensionObjectContextData
 11
187.0230413483
 21
79.90077406770004
 31
0.0
  0
ACDB_ALDIMOBJECTCONTEXTDATA_CLASS
  5
237
102
{ACAD_REACTORS
330
236
102
}
330
236
100
AcDbObjectContextData
 70
     4
290
     1
100
AcDbAnnotScaleObjectContextData
340
48
100
AcDbDimensionObjectContextData
  2
*D29
293
     0
 10
167.0750075406
 20
326.2420189552
294
     0
140
0.0
298
     0
291
     0
 70
     0
292
     0
 71
     0
280
     0
295
     0
296
     0
297
     0
100
AcDbAlignedDimensionObjectContextData
 11
181.7416742072665
 21
342.4788912890001
 31
0.0
  0
ACDB_ALDIMOBJECTCONTEXTDATA_CLASS
  5
227
102
{ACAD_REACTORS
330
226
102
}
330
226
100
AcDbObjectContextData
 70
     4
290
     1
100
AcDbAnnotScaleObjectContextData
340
48
100
AcDbDimensionObjectContextData
  2
*D17
293
     0
 10
-137.039992407
 20
364.4275127248
294
     0
140
0.0
298
     0
291
     0
 70
     0
292
     0
 71
     0
280
     0
295
     0
296
     0
297
     0
100
AcDbAlignedDimensionObjectContextData
 11
-137.0399924070001
 21
307.5741938006002
 31
0.0
  0
ACDB_ALDIMOBJECTCONTEXTDATA_CLASS
  5
219
102
{ACAD_REACTORS
330
218
102
}
330
218
100
AcDbObjectContextData
 70
     4
290
     1
100
AcDbAnnotScaleObjectContextData
340
48
100
AcDbDimensionObjectContextData
  2
*D30
293
     0
 10
-71.3124248678
 20
454.404819634
294
     0
140
0.0
298
     0
291
     0
 70
     0
292
     0
 71
     0
280
     0
295
     0
296
     0
297
     0
100
AcDbAlignedDimensionObjectContextData
 11
-47.5399921264
 21
454.404819634
 31
0.0
  0
ACDB_ALDIMOBJECTCONTEXTDATA_CLASS
  5
20B
102
{ACAD_REACTORS
330
20A
102
}
330
20A
100
AcDbObjectContextData
 70
     4
290
     1
100
AcDbAnnotScaleObjectContextData
340
48
100
AcDbDimensionObjectContextData
  2
*D15
293
     0
 10
-121.4427273049726
 20
391.1241938006002
294
     1
140
0.0
298
     0
291
     0
 70
     0
292
     0
 71
     0
280
     0
295
     0
296
     0
297
     0
100
AcDbAlignedDimensionObjectContextData
 11
-110.776060638306
 21
353.5741938006002
 31
0.0
  0
ACDB_ALDIMOBJECTCONTEXTDATA_CLASS
  5
24C
102
{ACAD_REACTORS
330
24B
102
}
330
24B
100
AcDbObjectContextData
 70
     4
290
     1
100
AcDbAnnotScaleObjectContextData
340
48
100
AcDbDimensionObjectContextData
  2
*D19
293
     0
 10
424.6829611065637
 20
-76.23085072265013
294
     1
140
0.0
298
     0
291
     0
 70
     0
292
     0
 71
     0
280
     0
295
     0
296
     0
297
     0
100
AcDbAlignedDimensionObjectContextData
 11
414.0162944398971
 21
-42.4792259323
 31
0.0
  0
XRECORD
  5
148
102
{ACAD_REACTORS
330
146
102
}
330
146
100
AcDbXrecord
280
     1
270
     1
271
     1
  0
XRECORD
  5
147
102
{ACAD_REACTORS
330
146
102
}
330
146
100
AcDbXrecord
280
     1
270
     1
271
     1
  0
XRECORD
  5
14B
102
{ACAD_REACTORS
330
146
102
}
330
146
100
AcDbXrecord
280
     1
270
     1
271
     1
  0
XRECORD
  5
14A
102
{ACAD_REACTORS
330
146
102
}
330
146
100
AcDbXrecord
280
     1
270
     1
271
     1
  0
XRECORD
  5
14C
102
{ACAD_REACTORS
330
146
102
}
330
146
100
AcDbXrecord
280
     1
270
     1
271
     1
  0
XRECORD
  5
149
102
{ACAD_REACTORS
330
146
102
}
330
146
100
AcDbXrecord
280
     1
270
     1
271
     1
  0
XRECORD
  5
140
102
{ACAD_REACTORS
330
13E
102
}
330
13E
100
AcDbXrecord
280
     1
270
     1
271
     1
  0
XRECORD
  5
13F
102
{ACAD_REACTORS
330
13E
102
}
330
13E
100
AcDbXrecord
280
     1
270
     1
271
     1
  0
XRECORD
  5
143
102
{ACAD_REACTORS
330
13E
102
}
330
13E
100
AcDbXrecord
280
     1
270
     1
271
     1
  0
XRECORD
  5
142
102
{ACAD_REACTORS
330
13E
102
}
330
13E
100
AcDbXrecord
280
     1
270
     1
271
     1
  0
XRECORD
  5
144
102
{ACAD_REACTORS
330
13E
102
}
330
13E
100
AcDbXrecord
280
     1
270
     1
271
     1
  0
XRECORD
  5
141
102
{ACAD_REACTORS
330
13E
102
}
330
13E
100
AcDbXrecord
280
     1
270
     1
271
     1
  0
XRECORD
  5
150
102
{ACAD_REACTORS
330
14E
102
}
330
14E
100
AcDbXrecord
280
     1
270
     1
271
     1
  0
XRECORD
  5
14F
102
{ACAD_REACTORS
330
14E
102
}
330
14E
100
AcDbXrecord
280
     1
270
     1
271
     1
  0
XRECORD
  5
153
102
{ACAD_REACTORS
330
14E
102
}
330
14E
100
AcDbXrecord
280
     1
270
     1
271
     1
  0
XRECORD
  5
152
102
{ACAD_REACTORS
330
14E
102
}
330
14E
100
AcDbXrecord
280
     1
270
     1
271
     1
  0
XRECORD
  5
154
102
{ACAD_REACTORS
330
14E
102
}
330
14E
100
AcDbXrecord
280
     1
270
     1
271
     1
  0
XRECORD
  5
151
102
{ACAD_REACTORS
330
14E
102
}
330
14E
100
AcDbXrecord
280
     1
270
     1
271
     1
  0
CELLSTYLEMAP
  5
324
102
{ACAD_REACTORS
330
2A3
102
}
330
2A3
100
AcDbCellStyleMap
 90
        3
300
CELLSTYLE
  1
TABLEFORMAT_BEGIN
 90
        5
170
     1
 91
        0
 92
    32768
 62
   257
 93
        1
300
CONTENTFORMAT
  1
CONTENTFORMAT_BEGIN
 90
        0
 91
        0
 92
      512
 93
        0
300

 40
0.0
140
1.0
 94
        5
 62
     0
340
11
144
6.0
309
CONTENTFORMAT_END
171
     1
301
MARGIN
  1
CELLMARGIN_BEGIN
 40
1.5
 40
1.5
 40
1.5
 40
1.5
 40
0.18
 40
0.18
309
CELLMARGIN_END
 94
        6
 95
        1
302
GRIDFORMAT
  1
GRIDFORMAT_BEGIN
 90
        0
 91
        1
 62
     0
 92
       -2
340
0
 93
        0
 40
1.125
309
GRIDFORMAT_END
 95
        2
302
GRIDFORMAT
  1
GRIDFORMAT_BEGIN
 90
        0
 91
        1
 62
     0
 92
       -2
340
0
 93
        0
 40
1.125
309
GRIDFORMAT_END
 95
        4
302
GRIDFORMAT
  1
GRIDFORMAT_BEGIN
 90
        0
 91
        1
 62
     0
 92
       -2
340
0
 93
        0
 40
1.125
309
GRIDFORMAT_END
 95
        8
302
GRIDFORMAT
  1
GRIDFORMAT_BEGIN
 90
        0
 91
        1
 62
     0
 92
       -2
340
0
 93
        0
 40
1.125
309
GRIDFORMAT_END
 95
       16
302
GRIDFORMAT
  1
GRIDFORMAT_BEGIN
 90
        0
 91
        1
 62
     0
 92
       -2
340
0
 93
        0
 40
1.125
309
GRIDFORMAT_END
 95
       32
302
GRIDFORMAT
  1
GRIDFORMAT_BEGIN
 90
        0
 91
        1
 62
     0
 92
       -2
340
0
 93
        0
 40
1.125
309
GRIDFORMAT_END
309
TABLEFORMAT_END
  1
CELLSTYLE_BEGIN
 90
        1
 91
        1
300
_TITLE
309
CELLSTYLE_END
300
CELLSTYLE
  1
TABLEFORMAT_BEGIN
 90
        5
170
     1
 91
        0
 92
        0
 62
   257
 93
        1
300
CONTENTFORMAT
  1
CONTENTFORMAT_BEGIN
 90
        0
 91
        0
 92
      512
 93
        0
300

 40
0.0
140
1.0
 94
        5
 62
     0
340
11
144
4.5
309
CONTENTFORMAT_END
171
     1
301
MARGIN
  1
CELLMARGIN_BEGIN
 40
1.5
 40
1.5
 40
1.5
 40
1.5
 40
0.18
 40
0.18
309
CELLMARGIN_END
 94
        6
 95
        1
302
GRIDFORMAT
  1
GRIDFORMAT_BEGIN
 90
        0
 91
        1
 62
     0
 92
       -2
340
0
 93
        0
 40
1.125
309
GRIDFORMAT_END
 95
        2
302
GRIDFORMAT
  1
GRIDFORMAT_BEGIN
 90
        0
 91
        1
 62
     0
 92
       -2
340
0
 93
        0
 40
1.125
309
GRIDFORMAT_END
 95
        4
302
GRIDFORMAT
  1
GRIDFORMAT_BEGIN
 90
        0
 91
        1
 62
     0
 92
       -2
340
0
 93
        0
 40
1.125
309
GRIDFORMAT_END
 95
        8
302
GRIDFORMAT
  1
GRIDFORMAT_BEGIN
 90
        0
 91
        1
 62
     0
 92
       -2
340
0
 93
        0
 40
1.125
309
GRIDFORMAT_END
 95
       16
302
GRIDFORMAT
  1
GRIDFORMAT_BEGIN
 90
        0
 91
        1
 62
     0
 92
       -2
340
0
 93
        0
 40
1.125
309
GRIDFORMAT_END
 95
       32
302
GRIDFORMAT
  1
GRIDFORMAT_BEGIN
 90
        0
 91
        1
 62
     0
 92
       -2
340
0
 93
        0
 40
1.125
309
GRIDFORMAT_END
309
TABLEFORMAT_END
  1
CELLSTYLE_BEGIN
 90
        2
 91
        1
300
_HEADER
309
CELLSTYLE_END
300
CELLSTYLE
  1
TABLEFORMAT_BEGIN
 90
        5
170
     1
 91
        0
 92
        0
 62
   257
 93
        1
300
CONTENTFORMAT
  1
CONTENTFORMAT_BEGIN
 90
        0
 91
        0
 92
      512
 93
        0
300

 40
0.0
140
1.0
 94
        2
 62
     0
340
11
144
4.5
309
CONTENTFORMAT_END
171
     1
301
MARGIN
  1
CELLMARGIN_BEGIN
 40
1.5
 40
1.5
 40
1.5
 40
1.5
 40
0.18
 40
0.18
309
CELLMARGIN_END
 94
        6
 95
        1
302
GRIDFORMAT
  1
GRIDFORMAT_BEGIN
 90
        0
 91
        1
 62
     0
 92
       -2
340
0
 93
        0
 40
1.125
309
GRIDFORMAT_END
 95
        2
302
GRIDFORMAT
  1
GRIDFORMAT_BEGIN
 90
        0
 91
        1
 62
     0
 92
       -2
340
0
 93
        0
 40
1.125
309
GRIDFORMAT_END
 95
        4
302
GRIDFORMAT
  1
GRIDFORMAT_BEGIN
 90
        0
 91
        1
 62
     0
 92
       -2
340
0
 93
        0
 40
1.125
309
GRIDFORMAT_END
 95
        8
302
GRIDFORMAT
  1
GRIDFORMAT_BEGIN
 90
        0
 91
        1
 62
     0
 92
       -2
340
0
 93
        0
 40
1.125
309
GRIDFORMAT_END
 95
       16
302
GRIDFORMAT
  1
GRIDFORMAT_BEGIN
 90
        0
 91
        1
 62
     0
 92
       -2
340
0
 93
        0
 40
1.125
309
GRIDFORMAT_END
 95
       32
302
GRIDFORMAT
  1
GRIDFORMAT_BEGIN
 90
        0
 91
        1
 62
     0
 92
       -2
340
0
 93
        0
 40
1.125
309
GRIDFORMAT_END
309
TABLEFORMAT_END
  1
CELLSTYLE_BEGIN
 90
        3
 91
        2
300
_DATA
309
CELLSTYLE_END
  0
ENDSEC
  0
EOF
