  0
SECTION
  2
HEADER
  9
$ACADVER
  1
AC1027
  9
$ACADMAINTVER
 70
   125
  9
$DWGCODEPAGE
  3
ANSI_1252
  9
$LASTSAVEDBY
  1
fleminab
  9
$REQUIREDVERSIONS
160
                 0
  9
$INSBASE
 10
0.0
 20
0.0
 30
0.0
  9
$EXTMIN
 10
-57.18440081250787
 20
-1158.760923878332
 30
-0.0000000349181948
  9
$EXTMAX
 10
243.9634421530065
 20
-990.350170533556
 30
0.0000000814935746
  9
$LIMMIN
 10
0.0
 20
0.0
  9
$LIMMAX
 10
0.0
 20
0.0
  9
$ORTHOMODE
 70
     0
  9
$REGENMODE
 70
     1
  9
$FILLMODE
 70
     1
  9
$QTEXTMODE
 70
     0
  9
$MIRRTEXT
 70
     1
  9
$LTSCALE
 40
0.5
  9
$ATTMODE
 70
     1
  9
$TEXTSIZE
 40
2.5
  9
$TRACEWID
 40
1.0
  9
$TEXTSTYLE
  7
Standard
  9
$CLAYER
  8
0
  9
$CELTYPE
  6
ByLayer
  9
$CECOLOR
 62
   256
  9
$CELTSCALE
 40
0.5
  9
$DISPSILH
 70
     0
  9
$DIMSCALE
 40
1.0
  9
$DIMASZ
 40
2.5
  9
$DIMEXO
 40
1.0
  9
$DIMDLI
 40
3.75
  9
$DIMRND
 40
0.0
  9
$DIMDLE
 40
0.0
  9
$DIMEXE
 40
1.0
  9
$DIMTP
 40
0.0
  9
$DIMTM
 40
0.0
  9
$DIMTXT
 40
2.5
  9
$DIMCEN
 40
2.5
  9
$DIMTSZ
 40
0.0
  9
$DIMTOL
 70
     0
  9
$DIMLIM
 70
     0
  9
$DIMTIH
 70
     0
  9
$DIMTOH
 70
     0
  9
$DIMSE1
 70
     0
  9
$DIMSE2
 70
     0
  9
$DIMTAD
 70
     1
  9
$DIMZIN
 70
     8
  9
$DIMBLK
  1
Open30
  9
$DIMASO
 70
     1
  9
$DIMSHO
 70
     1
  9
$DIMPOST
  1

  9
$DIMAPOST
  1

  9
$DIMALT
 70
     0
  9
$DIMALTD
 70
     3
  9
$DIMALTF
 40
0.0393700787401575
  9
$DIMLFAC
 40
1.0
  9
$DIMTOFL
 70
     1
  9
$DIMTVP
 40
0.0
  9
$DIMTIX
 70
     0
  9
$DIMSOXD
 70
     0
  9
$DIMSAH
 70
     0
  9
$DIMBLK1
  1

  9
$DIMBLK2
  1

  9
$DIMSTYLE
  2
ISO-25
  9
$DIMCLRD
 70
     0
  9
$DIMCLRE
 70
     0
  9
$DIMCLRT
 70
     0
  9
$DIMTFAC
 40
1.0
  9
$DIMGAP
 40
0.526
  9
$DIMJUST
 70
     0
  9
$DIMSD1
 70
     0
  9
$DIMSD2
 70
     0
  9
$DIMTOLJ
 70
     0
  9
$DIMTZIN
 70
     0
  9
$DIMALTZ
 70
     0
  9
$DIMALTTZ
 70
     0
  9
$DIMUPT
 70
     0
  9
$DIMDEC
 70
     1
  9
$DIMTDEC
 70
     1
  9
$DIMALTU
 70
     2
  9
$DIMALTTD
 70
     3
  9
$DIMTXSTY
  7
Standard
  9
$DIMAUNIT
 70
     0
  9
$DIMADEC
 70
     0
  9
$DIMALTRND
 40
0.0
  9
$DIMAZIN
 70
     0
  9
$DIMDSEP
 70
    46
  9
$DIMATFIT
 70
     3
  9
$DIMFRAC
 70
     0
  9
$DIMLDRBLK
  1

  9
$DIMLUNIT
 70
     2
  9
$DIMLWD
 70
    -2
  9
$DIMLWE
 70
    -2
  9
$DIMTMOVE
 70
     0
  9
$DIMFXL
 40
1.0
  9
$DIMFXLON
 70
     0
  9
$DIMJOGANG
 40
0.7853981633974483
  9
$DIMTFILL
 70
     0
  9
$DIMTFILLCLR
 70
     0
  9
$DIMARCSYM
 70
     0
  9
$DIMLTYPE
  6

  9
$DIMLTEX1
  6

  9
$DIMLTEX2
  6

  9
$DIMTXTDIRECTION
 70
     0
  9
$LUNITS
 70
     2
  9
$LUPREC
 70
     4
  9
$SKETCHINC
 40
1.0
  9
$FILLETRAD
 40
1.5
  9
$AUNITS
 70
     0
  9
$AUPREC
 70
     0
  9
$MENU
  1
.
  9
$ELEVATION
 40
0.0
  9
$PELEVATION
 40
0.0
  9
$THICKNESS
 40
0.0
  9
$LIMCHECK
 70
     0
  9
$CHAMFERA
 40
0.5
  9
$CHAMFERB
 40
0.5
  9
$CHAMFERC
 40
20.0
  9
$CHAMFERD
 40
0.0
  9
$SKPOLY
 70
     0
  9
$TDCREATE
 40
2454454.816539352
  9
$TDUCREATE
 40
2454454.358216864
  9
$TDUPDATE
 40
2458219.409803241
  9
$TDUUPDATE
 40
2458218.993136574
  9
$TDINDWG
 40
8.1908070949
  9
$TDUSRTIMER
 40
8.1908070949
  9
$USRTIMER
 70
     1
  9
$ANGBASE
 50
0.0
  9
$ANGDIR
 70
     0
  9
$PDMODE
 70
     0
  9
$PDSIZE
 40
-1.0
  9
$PLINEWID
 40
0.0
  9
$SPLFRAME
 70
     0
  9
$SPLINETYPE
 70
     6
  9
$SPLINESEGS
 70
     8
  9
$HANDSEED
  5
101AF97
  9
$SURFTAB1
 70
     6
  9
$SURFTAB2
 70
     6
  9
$SURFTYPE
 70
     6
  9
$SURFU
 70
     6
  9
$SURFV
 70
     6
  9
$UCSBASE
  2

  9
$UCSNAME
  2

  9
$UCSORG
 10
0.0
 20
0.0
 30
0.0
  9
$UCSXDIR
 10
1.0
 20
0.0
 30
0.0
  9
$UCSYDIR
 10
0.0
 20
1.0
 30
0.0
  9
$UCSORTHOREF
  2

  9
$UCSORTHOVIEW
 70
     0
  9
$UCSORGTOP
 10
0.0
 20
0.0
 30
0.0
  9
$UCSORGBOTTOM
 10
0.0
 20
0.0
 30
0.0
  9
$UCSORGLEFT
 10
0.0
 20
0.0
 30
0.0
  9
$UCSORGRIGHT
 10
0.0
 20
0.0
 30
0.0
  9
$UCSORGFRONT
 10
0.0
 20
0.0
 30
0.0
  9
$UCSORGBACK
 10
0.0
 20
0.0
 30
0.0
  9
$PUCSBASE
  2

  9
$PUCSNAME
  2

  9
$PUCSORG
 10
0.0
 20
0.0
 30
0.0
  9
$PUCSXDIR
 10
1.0
 20
0.0
 30
0.0
  9
$PUCSYDIR
 10
0.0
 20
1.0
 30
0.0
  9
$PUCSORTHOREF
  2

  9
$PUCSORTHOVIEW
 70
     0
  9
$PUCSORGTOP
 10
0.0
 20
0.0
 30
0.0
  9
$PUCSORGBOTTOM
 10
0.0
 20
0.0
 30
0.0
  9
$PUCSORGLEFT
 10
0.0
 20
0.0
 30
0.0
  9
$PUCSORGRIGHT
 10
0.0
 20
0.0
 30
0.0
  9
$PUCSORGFRONT
 10
0.0
 20
0.0
 30
0.0
  9
$PUCSORGBACK
 10
0.0
 20
0.0
 30
0.0
  9
$USERI1
 70
     0
  9
$USERI2
 70
     0
  9
$USERI3
 70
     0
  9
$USERI4
 70
     0
  9
$USERI5
 70
     0
  9
$USERR1
 40
0.0
  9
$USERR2
 40
0.0
  9
$USERR3
 40
0.0
  9
$USERR4
 40
0.0
  9
$USERR5
 40
0.0
  9
$WORLDVIEW
 70
     1
  9
$SHADEDGE
 70
     3
  9
$SHADEDIF
 70
    70
  9
$TILEMODE
 70
     1
  9
$MAXACTVP
 70
    64
  9
$PINSBASE
 10
0.0
 20
0.0
 30
0.0
  9
$PLIMCHECK
 70
     0
  9
$PEXTMIN
 10
1.000000000000000E+20
 20
1.000000000000000E+20
 30
1.000000000000000E+20
  9
$PEXTMAX
 10
-1.000000000000000E+20
 20
-1.000000000000000E+20
 30
-1.000000000000000E+20
  9
$PLIMMIN
 10
0.0
 20
0.0
  9
$PLIMMAX
 10
420.0
 20
297.0
  9
$UNITMODE
 70
     0
  9
$VISRETAIN
 70
     1
  9
$PLINEGEN
 70
     0
  9
$PSLTSCALE
 70
     1
  9
$TREEDEPTH
 70
  3020
  9
$CMLSTYLE
  2
Standard
  9
$CMLJUST
 70
     0
  9
$CMLSCALE
 40
20.0
  9
$PROXYGRAPHICS
 70
     1
  9
$MEASUREMENT
 70
     1
  9
$CELWEIGHT
370
    -1
  9
$ENDCAPS
280
     0
  9
$JOINSTYLE
280
     0
  9
$LWDISPLAY
290
     0
  9
$INSUNITS
 70
     4
  9
$HYPERLINKBASE
  1

  9
$STYLESHEET
  1

  9
$XEDIT
290
     1
  9
$CEPSNTYPE
380
     0
  9
$PSTYLEMODE
290
     1
  9
$FINGERPRINTGUID
  2
{A12051D7-B147-4678-A729-AB49B70941BD}
  9
$VERSIONGUID
  2
{9E4BA8A4-5D09-6244-9349-3FE518F0A309}
  9
$EXTNAMES
290
     1
  9
$PSVPSCALE
 40
0.0
  9
$OLESTARTUP
290
     0
  9
$SORTENTS
280
   127
  9
$INDEXCTL
280
     0
  9
$HIDETEXT
280
     0
  9
$XCLIPFRAME
280
     2
  9
$HALOGAP
280
     0
  9
$OBSCOLOR
 70
   257
  9
$OBSLTYPE
280
     0
  9
$INTERSECTIONDISPLAY
280
     0
  9
$INTERSECTIONCOLOR
 70
   257
  9
$DIMASSOC
280
     1
  9
$PROJECTNAME
  1

  9
$CAMERADISPLAY
290
     0
  9
$LENSLENGTH
 40
50.0
  9
$CAMERAHEIGHT
 40
0.0
  9
$STEPSPERSEC
 40
2.0
  9
$STEPSIZE
 40
6.0
  9
$3DDWFPREC
 40
2.0
  9
$PSOLWIDTH
 40
0.25
  9
$PSOLHEIGHT
 40
4.0
  9
$LOFTANG1
 40
1.570796326794896
  9
$LOFTANG2
 40
1.570796326794896
  9
$LOFTMAG1
 40
0.0
  9
$LOFTMAG2
 40
0.0
  9
$LOFTPARAM
 70
     7
  9
$LOFTNORMALS
280
     1
  9
$LATITUDE
 40
37.795
  9
$LONGITUDE
 40
-122.394
  9
$NORTHDIRECTION
 40
0.0
  9
$TIMEZONE
 70
 -8000
  9
$LIGHTGLYPHDISPLAY
280
     1
  9
$TILEMODELIGHTSYNCH
280
     1
  9
$CMATERIAL
347
101AF19
  9
$SOLIDHIST
280
     0
  9
$SHOWHIST
280
     1
  9
$DWFFRAME
280
     2
  9
$DGNFRAME
280
     0
  9
$REALWORLDSCALE
290
     1
  9
$INTERFERECOLOR
 62
     1
  9
$INTERFEREOBJVS
345
101AF3B
  9
$INTERFEREVPVS
346
101AF38
  9
$CSHADOW
280
     0
  9
$SHADOWPLANELOCATION
 40
0.0
  0
ENDSEC
  0
SECTION
  2
CLASSES
  0
CLASS
  1
ACDBDICTIONARYWDFLT
  2
AcDbDictionaryWithDefault
  3
ObjectDBX Classes
 90
        0
 91
        1
280
     0
281
     0
  0
CLASS
  1
TABLESTYLE
  2
AcDbTableStyle
  3
ObjectDBX Classes
 90
     4095
 91
        1
280
     0
281
     0
  0
CLASS
  1
SORTENTSTABLE
  2
AcDbSortentsTable
  3
ObjectDBX Classes
 90
        0
 91
        2
280
     0
281
     0
  0
CLASS
  1
DICTIONARYVAR
  2
AcDbDictionaryVar
  3
ObjectDBX Classes
 90
        0
 91
       19
280
     0
281
     0
  0
CLASS
  1
DIMASSOC
  2
AcDbDimAssoc
  3
"AcDbDimAssoc|Product Desc:     AcDim ARX App For Dimension|Company:          Autodesk, Inc.|WEB Address:      www.autodesk.com"
 90
        0
 91
        0
280
     0
281
     0
  0
CLASS
  1
ARC_DIMENSION
  2
AcDbArcDimension
  3
ObjectDBX Classes
 90
     1025
 91
        0
280
     0
281
     1
  0
CLASS
  1
MATERIAL
  2
AcDbMaterial
  3
ObjectDBX Classes
 90
     1153
 91
        3
280
     0
281
     0
  0
CLASS
  1
VISUALSTYLE
  2
AcDbVisualStyle
  3
ObjectDBX Classes
 90
     4095
 91
       24
280
     0
281
     0
  0
CLASS
  1
SCALE
  2
AcDbScale
  3
ObjectDBX Classes
 90
     1153
 91
       17
280
     0
281
     0
  0
CLASS
  1
MLEADERSTYLE
  2
AcDbMLeaderStyle
  3
ACDB_MLEADERSTYLE_CLASS
 90
     4095
 91
        1
280
     0
281
     0
  0
CLASS
  1
ACDBSECTIONVIEWSTYLE
  2
AcDbSectionViewStyle
  3
ObjectDBX Classes
 90
     1025
 91
        1
280
     0
281
     0
  0
CLASS
  1
ACDBDETAILVIEWSTYLE
  2
AcDbDetailViewStyle
  3
ObjectDBX Classes
 90
     1025
 91
        1
280
     0
281
     0
  0
CLASS
  1
CELLSTYLEMAP
  2
AcDbCellStyleMap
  3
ObjectDBX Classes
 90
     1152
 91
        1
280
     0
281
     0
  0
ENDSEC
  0
SECTION
  2
TABLES
  0
TABLE
  2
VPORT
  5
8
330
0
100
AcDbSymbolTable
 70
     1
1001
ACAD
1000
DbSaveVer
1071
        5
  0
VPORT
  5
1AF10
330
8
100
AcDbSymbolTableRecord
100
AcDbViewportTableRecord
  2
*Active
 70
     0
 10
0.0
 20
0.0
 11
1.0
 21
1.0
 12
93.38952067024933
 22
-1074.555547205944
 13
0.0
 23
0.0
 14
10.0
 24
10.0
 15
10.0
 25
10.0
 16
0.0
 26
0.0
 36
1.0
 17
0.0
 27
0.0
 37
0.0
 40
169.6165582613256
 41
2.292712066905615
 42
50.0
 43
0.0
 44
0.0
 50
0.0
 51
0.0
 71
     0
 72
  2000
 73
     1
 74
     3
 75
     0
 76
     0
 77
     0
 78
     0
281
     0
 65
     1
110
0.0
120
0.0
130
0.0
111
1.0
121
0.0
131
0.0
112
0.0
122
1.0
132
0.0
 79
     0
146
0.0
348
101AF37
 60
     3
 61
     5
292
     1
282
     1
141
0.0
142
0.0
 63
   250
421
  3355443
1001
ACAD_NAV_VCDISPLAY
1070
     3
  0
ENDTAB
  0
TABLE
  2
LTYPE
  5
5
330
0
100
AcDbSymbolTable
 70
     4
  0
LTYPE
  5
14
330
5
100
AcDbSymbolTableRecord
100
AcDbLinetypeTableRecord
  2
ByBlock
 70
     0
  3

 72
    65
 73
     0
 40
0.0
  0
LTYPE
  5
15
330
5
100
AcDbSymbolTableRecord
100
AcDbLinetypeTableRecord
  2
ByLayer
 70
     0
  3

 72
    65
 73
     0
 40
0.0
  0
LTYPE
  5
16
330
5
100
AcDbSymbolTableRecord
100
AcDbLinetypeTableRecord
  2
Continuous
 70
     0
  3
Solid line
 72
    65
 73
     0
 40
0.0
  0
LTYPE
  5
40E
330
5
100
AcDbSymbolTableRecord
100
AcDbLinetypeTableRecord
  2
CENTER2
 70
     0
  3
Center (.5x) ___ _ ___ _ ___ _ ___ _ ___ _ ___
 72
    65
 73
     4
 40
28.575
 49
19.05
 74
     0
 49
-3.174999999999999
 74
     0
 49
3.174999999999999
 74
     0
 49
-3.174999999999999
 74
     0
  0
LTYPE
  5
281C
330
5
100
AcDbSymbolTableRecord
100
AcDbLinetypeTableRecord
  2
PHANTOM
 70
     0
  3
Phantom ______  __  __  ______  __  __  ______
 72
    65
 73
     6
 40
63.5
 49
31.75
 74
     0
 49
-6.349999999999999
 74
     0
 49
6.349999999999999
 74
     0
 49
-6.349999999999999
 74
     0
 49
6.349999999999999
 74
     0
 49
-6.349999999999999
 74
     0
  0
LTYPE
  5
2EF9
330
5
100
AcDbSymbolTableRecord
100
AcDbLinetypeTableRecord
  2
ACAD_ISO02W100
 70
     0
  3
ISO dash __ __ __ __ __ __ __ __ __ __ __ __ __
 72
    65
 73
     2
 40
15.0
 49
12.0
 74
     0
 49
-3.0
 74
     0
  0
ENDTAB
  0
TABLE
  2
LAYER
  5
2
102
{ACAD_XDICTIONARY
360
411
102
}
330
0
100
AcDbSymbolTable
 70
    10
  0
LAYER
  5
10
102
{ACAD_XDICTIONARY
360
101AF68
102
}
330
2
100
AcDbSymbolTableRecord
100
AcDbLayerTableRecord
  2
0
 70
     0
 62
     7
  6
Continuous
370
    50
390
F
347
101AF29
348
0
  0
LAYER
  5
20A
330
2
100
AcDbSymbolTableRecord
100
AcDbLayerTableRecord
  2
Defpoints
 70
     0
 62
     7
  6
Continuous
290
     0
370
    -3
390
F
347
101AF29
348
0
  0
LAYER
  5
40A
102
{ACAD_XDICTIONARY
360
101AF6A
102
}
330
2
100
AcDbSymbolTableRecord
100
AcDbLayerTableRecord
  2
中心线
 70
     0
 62
     1
  6
CENTER2
370
    -3
390
F
347
101AF29
348
0
1001
AcAecLayerStandard
1000

1000

1001
AcadStringInfo
1000
MIFCodePage
1070
     5
  0
LAYER
  5
40F
102
{ACAD_XDICTIONARY
360
101AF6C
102
}
330
2
100
AcDbSymbolTableRecord
100
AcDbLayerTableRecord
  2
尺寸线
 70
     0
 62
     5
  6
Continuous
370
    -3
390
F
347
101AF29
348
0
1001
AcAecLayerStandard
1000

1000

1001
AcadStringInfo
1000
MIFCodePage
1070
     5
  0
LAYER
  5
410
102
{ACAD_XDICTIONARY
360
101AF6E
102
}
330
2
100
AcDbSymbolTableRecord
100
AcDbLayerTableRecord
  2
细实线
 70
     0
 62
     7
  6
Continuous
370
    -3
390
F
347
101AF29
348
0
1001
AcAecLayerStandard
1000

1000

1001
AcadStringInfo
1000
MIFCodePage
1070
     5
  0
LAYER
  5
281D
102
{ACAD_XDICTIONARY
360
101AF70
102
}
330
2
100
AcDbSymbolTableRecord
100
AcDbLayerTableRecord
  2
双点划线
 70
     0
 62
     7
  6
PHANTOM
370
    -3
390
F
347
101AF29
348
0
1001
AcadStringInfo
1000
MIFCodePage
1070
     5
  0
LAYER
  5
4262
102
{ACAD_XDICTIONARY
360
101AF72
102
}
330
2
100
AcDbSymbolTableRecord
100
AcDbLayerTableRecord
  2
虚线
 70
     0
 62
     7
  6
ACAD_ISO02W100
370
    -3
390
F
347
101AF29
348
0
1001
AcAecLayerStandard
1000

1000

1001
AcadStringInfo
1000
MIFCodePage
1070
     5
  0
LAYER
  5
CAEE
102
{ACAD_XDICTIONARY
360
101AF74
102
}
330
2
100
AcDbSymbolTableRecord
100
AcDbLayerTableRecord
  2
图层3
 70
     0
 62
     5
  6
Continuous
370
    15
390
F
347
101AF29
348
0
1001
AcadStringInfo
1000
MIFCodePage
1070
     5
  0
LAYER
  5
CAF2
102
{ACAD_XDICTIONARY
360
101AF76
102
}
330
2
100
AcDbSymbolTableRecord
100
AcDbLayerTableRecord
  2
图层7
 70
     0
 62
     7
  6
Continuous
370
    15
390
F
347
101AF29
348
0
1001
AcadStringInfo
1000
MIFCodePage
1070
     5
  0
LAYER
  5
1AE08
102
{ACAD_XDICTIONARY
360
101AF78
102
}
330
2
100
AcDbSymbolTableRecord
100
AcDbLayerTableRecord
  2
02___PRT_ALL_AXES
 70
     0
 62
     7
  6
Continuous
370
    -3
390
F
347
101AF29
348
0
  0
ENDTAB
  0
TABLE
  2
STYLE
  5
3
330
0
100
AcDbSymbolTable
 70
     3
  0
STYLE
  5
11
330
3
100
AcDbSymbolTableRecord
100
AcDbTextStyleTableRecord
  2
Standard
 70
     0
 40
0.0
 41
1.0
 50
0.0
 71
     0
 42
2.5
  3
txt
  4

  0
STYLE
  5
281F
330
3
100
AcDbSymbolTableRecord
100
AcDbTextStyleTableRecord
  2
样式 1
 70
     0
 40
2.5
 41
1.0
 50
0.0
 71
     0
 42
2.5
  3
SimSun.ttf
  4

1001
ACAD
1000
SimSun
1071
    34306
1001
AcadStringInfo
1000
MIFCodePage
1070
     5
  0
STYLE
  5
CAF4
330
3
100
AcDbSymbolTableRecord
100
AcDbTextStyleTableRecord
  2
样式 2
 70
     0
 40
3.2
 41
1.0
 50
0.0
 71
     0
 42
3.2
  3
SimSun.ttf
  4

1001
ACAD
1000
SimSun
1071
    34306
1001
AcadStringInfo
1000
MIFCodePage
1070
     5
  0
ENDTAB
  0
TABLE
  2
VIEW
  5
6
330
0
100
AcDbSymbolTable
 70
     0
  0
ENDTAB
  0
TABLE
  2
UCS
  5
7
330
0
100
AcDbSymbolTable
 70
     0
  0
ENDTAB
  0
TABLE
  2
APPID
  5
9
330
0
100
AcDbSymbolTable
 70
    15
  0
APPID
  5
12
330
9
100
AcDbSymbolTableRecord
100
AcDbRegAppTableRecord
  2
ACAD
 70
     0
  0
APPID
  5
26F
330
9
100
AcDbSymbolTableRecord
100
AcDbRegAppTableRecord
  2
ACAD_DSTYLE_DIMTEXT_FILL
 70
     0
  0
APPID
  5
270
330
9
100
AcDbSymbolTableRecord
100
AcDbRegAppTableRecord
  2
ACAD_DSTYLE_DIMEXT_LENGTH
 70
     0
  0
APPID
  5
271
330
9
100
AcDbSymbolTableRecord
100
AcDbRegAppTableRecord
  2
ACAD_DSTYLE_DIMEXT_ENABLED
 70
     0
  0
APPID
  5
272
330
9
100
AcDbSymbolTableRecord
100
AcDbRegAppTableRecord
  2
ACAD_DSTYLE_DIM_LINETYPE
 70
     0
  0
APPID
  5
273
330
9
100
AcDbSymbolTableRecord
100
AcDbRegAppTableRecord
  2
ACAD_DSTYLE_DIM_EXT1_LINETYPE
 70
     0
  0
APPID
  5
274
330
9
100
AcDbSymbolTableRecord
100
AcDbRegAppTableRecord
  2
ACAD_DSTYLE_DIM_EXT2_LINETYPE
 70
     0
  0
APPID
  5
330
330
9
100
AcDbSymbolTableRecord
100
AcDbRegAppTableRecord
  2
ACAD_DSTYLE_DIMJOGGED_JOGANGLE_SYMBOL
 70
     0
  0
APPID
  5
3C4
330
9
100
AcDbSymbolTableRecord
100
AcDbRegAppTableRecord
  2
ACAD_DSTYLE_DIMARC_LENGTH_SYMBOL
 70
     0
  0
APPID
  5
3FB
330
9
100
AcDbSymbolTableRecord
100
AcDbRegAppTableRecord
  2
ACAD_EXEMPT_FROM_CAD_STANDARDS
 70
     0
  0
APPID
  5
40B
330
9
100
AcDbSymbolTableRecord
100
AcDbRegAppTableRecord
  2
AcAecLayerStandard
 70
     0
  0
APPID
  5
5D3
330
9
100
AcDbSymbolTableRecord
100
AcDbRegAppTableRecord
  2
ACAD_PSEXT
 70
     0
  0
APPID
  5
AB62
330
9
100
AcDbSymbolTableRecord
100
AcDbRegAppTableRecord
  2
DCO15
 70
     0
  0
APPID
  5
101AF5F
330
9
100
AcDbSymbolTableRecord
100
AcDbRegAppTableRecord
  2
AcadStringInfo
 70
     0
  0
APPID
  5
101AF7A
330
9
100
AcDbSymbolTableRecord
100
AcDbRegAppTableRecord
  2
ACAD_NAV_VCDISPLAY
 70
     0
  0
ENDTAB
  0
TABLE
  2
DIMSTYLE
  5
A
330
0
100
AcDbSymbolTable
 70
     2
100
AcDbDimStyleTable
 71
     1
340
27
  0
DIMSTYLE
105
27
102
{ACAD_REACTORS
330
DACE
330
DAF9
330
DB22
330
DB2B
330
DB34
330
DB3D
330
DB46
330
DB53
330
DB60
330
DB06
330
1AED0
102
}
330
A
100
AcDbSymbolTableRecord
100
AcDbDimStyleTableRecord
  2
ISO-25
 70
     0
 41
2.5
 42
0.625
 43
3.75
 44
1.25
 73
     0
 74
     0
 77
     1
 78
     8
140
2.5
141
2.5
143
0.03937007874016
147
0.625
171
     3
172
     1
271
     2
272
     2
274
     3
278
    44
283
     0
284
     8
340
11
  0
DIMSTYLE
105
AB60
330
A
100
AcDbSymbolTableRecord
100
AcDbDimStyleTableRecord
  2
STANDARD
 70
     0
 41
0.1875
 47
0.01
 48
0.01
 78
     4
140
0.15625
271
     2
272
     2
284
     4
340
11
  0
ENDTAB
  0
TABLE
  2
BLOCK_RECORD
  5
1
330
0
100
AcDbSymbolTable
 70
    15
  0
BLOCK_RECORD
  5
1F
102
{ACAD_XDICTIONARY
360
206
102
}
330
1
100
AcDbSymbolTableRecord
100
AcDbBlockTableRecord
  2
*Model_Space
340
22
 70
     0
280
     1
281
     0
  0
BLOCK_RECORD
  5
1B
330
1
100
AcDbSymbolTableRecord
100
AcDbBlockTableRecord
  2
*Paper_Space
340
1E
 70
     0
280
     1
281
     0
  0
BLOCK_RECORD
  5
23
330
1
100
AcDbSymbolTableRecord
100
AcDbBlockTableRecord
  2
*Paper_Space0
340
26
 70
     0
280
     1
281
     0
  0
BLOCK_RECORD
  5
111D
330
1
100
AcDbSymbolTableRecord
100
AcDbBlockTableRecord
  2
_Open30
340
0
102
{BLKREFS
331
1AE8B
331
1AE8C
331
1AE94
331
1AE95
331
1AE9B
331
1AE9C
331
1AEA3
331
1AEA8
331
1AEAD
331
1AEB2
331
1AEB8
331
1AEB9
331
1AECA
331
1AECB
331
1AED5
331
1AEDD
331
1AEDE
102
}
 70
     0
280
     1
281
     0
  0
BLOCK_RECORD
  5
12E9
330
1
100
AcDbSymbolTableRecord
100
AcDbBlockTableRecord
  2
_DotSmall
340
0
 70
     0
280
     1
281
     0
  0
BLOCK_RECORD
  5
DACF
330
1
100
AcDbSymbolTableRecord
100
AcDbBlockTableRecord
  2
*D3
340
0
 70
     0
280
     1
281
     0
  0
BLOCK_RECORD
  5
DAFA
330
1
100
AcDbSymbolTableRecord
100
AcDbBlockTableRecord
  2
*D4
340
0
 70
     0
280
     1
281
     0
  0
BLOCK_RECORD
  5
DB07
330
1
100
AcDbSymbolTableRecord
100
AcDbBlockTableRecord
  2
*D5
340
0
 70
     0
280
     1
281
     0
  0
BLOCK_RECORD
  5
DB23
330
1
100
AcDbSymbolTableRecord
100
AcDbBlockTableRecord
  2
*D6
340
0
 70
     0
280
     1
281
     0
  0
BLOCK_RECORD
  5
DB2C
330
1
100
AcDbSymbolTableRecord
100
AcDbBlockTableRecord
  2
*D7
340
0
 70
     0
280
     1
281
     0
  0
BLOCK_RECORD
  5
DB35
330
1
100
AcDbSymbolTableRecord
100
AcDbBlockTableRecord
  2
*D8
340
0
 70
     0
280
     1
281
     0
  0
BLOCK_RECORD
  5
DB3E
330
1
100
AcDbSymbolTableRecord
100
AcDbBlockTableRecord
  2
*D9
340
0
 70
     0
280
     1
281
     0
  0
BLOCK_RECORD
  5
DB47
330
1
100
AcDbSymbolTableRecord
100
AcDbBlockTableRecord
  2
*D10
340
0
 70
     0
280
     1
281
     0
  0
BLOCK_RECORD
  5
DB54
330
1
100
AcDbSymbolTableRecord
100
AcDbBlockTableRecord
  2
*D11
340
0
 70
     0
280
     1
281
     0
  0
BLOCK_RECORD
  5
DB61
330
1
100
AcDbSymbolTableRecord
100
AcDbBlockTableRecord
  2
*D12
340
0
 70
     0
280
     1
281
     0
  0
BLOCK_RECORD
  5
1AED1
330
1
100
AcDbSymbolTableRecord
100
AcDbBlockTableRecord
  2
*D13
340
0
 70
     0
280
     1
281
     0
  0
BLOCK_RECORD
  5
1AEE3
102
{ACAD_XDICTIONARY
360
1AEE6
102
}
330
1
100
AcDbSymbolTableRecord
100
AcDbBlockTableRecord
  2
A$C4C5A6619
340
0
 70
     4
280
     1
281
     0
  0
ENDTAB
  0
ENDSEC
  0
SECTION
  2
BLOCKS
  0
BLOCK
  5
20
330
1F
100
AcDbEntity
  8
0
100
AcDbBlockBegin
  2
*Model_Space
 70
     0
 10
0.0
 20
0.0
 30
0.0
  3
*Model_Space
  1

  0
ENDBLK
  5
21
330
1F
100
AcDbEntity
  8
0
100
AcDbBlockEnd
  0
BLOCK
  5
1C
330
1B
100
AcDbEntity
 67
     1
  8
0
100
AcDbBlockBegin
  2
*Paper_Space
 70
     0
 10
0.0
 20
0.0
 30
0.0
  3
*Paper_Space
  1

  0
ENDBLK
  5
1D
330
1B
100
AcDbEntity
 67
     1
  8
0
100
AcDbBlockEnd
  0
BLOCK
  5
24
330
23
100
AcDbEntity
 67
     1
  8
0
100
AcDbBlockBegin
  2
*Paper_Space0
 70
     0
 10
0.0
 20
0.0
 30
0.0
  3
*Paper_Space0
  1

  0
ENDBLK
  5
25
330
23
100
AcDbEntity
 67
     1
  8
0
100
AcDbBlockEnd
  0
BLOCK
  5
1121
330
111D
100
AcDbEntity
  8
0
 48
0.5
100
AcDbBlockBegin
  2
_Open30
 70
     0
 10
0.0
 20
0.0
 30
0.0
  3
_Open30
  1

  0
LINE
  5
111E
330
111D
100
AcDbEntity
  8
0
  6
ByBlock
 62
     0
370
    -2
100
AcDbLine
 10
-1.0
 20
0.26794919
 30
0.0
 11
0.0
 21
0.0
 31
0.0
  0
LINE
  5
111F
330
111D
100
AcDbEntity
  8
0
  6
ByBlock
 62
     0
370
    -2
100
AcDbLine
 10
0.0
 20
0.0
 30
0.0
 11
-1.0
 21
-0.26794919
 31
0.0
  0
LINE
  5
1120
330
111D
100
AcDbEntity
  8
0
  6
ByBlock
 62
     0
370
    -2
100
AcDbLine
 10
0.0
 20
0.0
 30
0.0
 11
-1.0
 21
0.0
 31
0.0
  0
ENDBLK
  5
1122
330
111D
100
AcDbEntity
  8
0
 48
0.5
100
AcDbBlockEnd
  0
BLOCK
  5
12EB
330
12E9
100
AcDbEntity
  8
0
 48
0.5
100
AcDbBlockBegin
  2
_DotSmall
 70
     0
 10
0.0
 20
0.0
 30
0.0
  3
_DotSmall
  1

  0
LWPOLYLINE
  5
12EA
330
12E9
100
AcDbEntity
  8
0
  6
ByBlock
 62
     0
100
AcDbPolyline
 90
        2
 70
     1
 43
0.5
 10
-0.0625
 20
0.0
 42
1.0
 10
0.0625
 20
0.0
 42
1.0
  0
ENDBLK
  5
12EC
330
12E9
100
AcDbEntity
  8
0
 48
0.5
100
AcDbBlockEnd
  0
BLOCK
  5
DAD9
330
DACF
100
AcDbEntity
  8
0
 48
0.5
100
AcDbBlockBegin
  2
*D3
 70
     1
 10
0.0
 20
0.0
 30
0.0
  3
*D3
  1

  0
LINE
  5
1AE88
330
DACF
100
AcDbEntity
  8
尺寸线
 62
     0
440
 16777216
 48
0.5
370
    -2
100
AcDbLine
 10
22.16278498182465
 20
-1001.131285038985
 30
0.0
 11
22.16278498182465
 21
-992.3862839858614
 31
0.0
  0
LINE
  5
1AE89
330
DACF
100
AcDbEntity
  8
尺寸线
 62
     0
440
 16777216
 48
0.5
370
    -2
100
AcDbLine
 10
-48.3372150181749
 20
-1010.881285038986
 30
0.0
 11
-48.3372150181749
 21
-992.3862839858614
 31
0.0
  0
LINE
  5
1AE8A
330
DACF
100
AcDbEntity
  8
尺寸线
 62
     0
440
 16777216
 48
0.5
370
    -2
100
AcDbLine
 10
19.66278498182464
 20
-993.3862839858615
 30
0.0
 11
-45.8372150181749
 21
-993.3862839858615
 31
0.0
  0
INSERT
  5
1AE8B
330
DACF
100
AcDbEntity
  8
尺寸线
 62
     0
440
 16777216
 48
0.5
370
    -2
100
AcDbBlockReference
  2
_Open30
 10
22.16278498182465
 20
-993.3862839858615
 30
0.0
 41
2.5
 42
2.5
 43
2.5
  0
INSERT
  5
1AE8C
330
DACF
100
AcDbEntity
  8
尺寸线
 62
     0
440
 16777216
 48
0.5
370
    -2
100
AcDbBlockReference
  2
_Open30
 10
-48.3372150181749
 20
-993.3862839858615
 30
0.0
 41
2.5
 42
2.5
 43
2.5
 50
180.0
  0
MTEXT
  5
1AE8D
330
DACF
100
AcDbEntity
  8
尺寸线
 62
     0
440
 16777216
 48
0.5
100
AcDbMText
 10
-13.08721501817513
 20
-991.6102839858615
 30
0.0
 40
2.5
 41
0.0
 46
0.0
 71
     5
 72
     1
  1
70.5
 73
     1
 44
1.0
  0
POINT
  5
1AE8E
330
DACF
100
AcDbEntity
  8
Defpoints
 62
     0
440
 16777216
 48
0.5
100
AcDbPoint
 10
22.16278498182465
 20
-1002.131285038985
 30
0.0
  0
POINT
  5
1AE8F
330
DACF
100
AcDbEntity
  8
Defpoints
 62
     0
440
 16777216
 48
0.5
100
AcDbPoint
 10
-48.3372150181749
 20
-1011.881285038986
 30
0.0
  0
POINT
  5
1AE90
330
DACF
100
AcDbEntity
  8
Defpoints
 62
     0
440
 16777216
 48
0.5
100
AcDbPoint
 10
-48.3372150181749
 20
-993.3862839858615
 30
0.0
  0
ENDBLK
  5
DADA
330
DACF
100
AcDbEntity
  8
0
 48
0.5
100
AcDbBlockEnd
  0
BLOCK
  5
DB04
330
DAFA
100
AcDbEntity
  8
0
 48
0.5
100
AcDbBlockBegin
  2
*D4
 70
     1
 10
0.0
 20
0.0
 30
0.0
  3
*D4
  1

  0
LINE
  5
1AE91
330
DAFA
100
AcDbEntity
  8
尺寸线
 62
     0
440
 16777216
 48
0.5
370
    -2
100
AcDbLine
 10
-46.58721501817535
 20
-1001.881285038985
 30
0.0
 11
-55.14754307803695
 21
-1001.881285038985
 31
0.0
  0
LINE
  5
1AE92
330
DAFA
100
AcDbEntity
  8
尺寸线
 62
     0
440
 16777216
 48
0.5
370
    -2
100
AcDbLine
 10
-46.8372150181749
 20
-1036.881285038985
 30
0.0
 11
-55.14754307803696
 21
-1036.881285038985
 31
0.0
  0
LINE
  5
1AE93
330
DAFA
100
AcDbEntity
  8
尺寸线
 62
     0
440
 16777216
 48
0.5
370
    -2
100
AcDbLine
 10
-54.14754307803695
 20
-1004.381285038985
 30
0.0
 11
-54.14754307803696
 21
-1034.381285038985
 31
0.0
  0
INSERT
  5
1AE94
330
DAFA
100
AcDbEntity
  8
尺寸线
 62
     0
440
 16777216
 48
0.5
370
    -2
100
AcDbBlockReference
  2
_Open30
 10
-54.14754307803695
 20
-1001.881285038985
 30
0.0
 41
2.5
 42
2.5
 43
2.5
 50
90.0
  0
INSERT
  5
1AE95
330
DAFA
100
AcDbEntity
  8
尺寸线
 62
     0
440
 16777216
 48
0.5
370
    -2
100
AcDbBlockReference
  2
_Open30
 10
-54.14754307803696
 20
-1036.881285038985
 30
0.0
 41
2.5
 42
2.5
 43
2.5
 50
270.0
  0
MTEXT
  5
1AE96
330
DAFA
100
AcDbEntity
  8
尺寸线
 62
     0
440
 16777216
 48
0.5
100
AcDbMText
 10
-55.9235430780368
 20
-1019.381285038986
 30
0.0
 40
2.5
 41
0.0
 46
0.0
 71
     5
 72
     1
  1
35
 11
0.0000000000000001
 21
1.0
 31
0.0
 73
     1
 44
1.0
  0
POINT
  5
1AE97
330
DAFA
100
AcDbEntity
  8
Defpoints
 62
     0
440
 16777216
 48
0.5
100
AcDbPoint
 10
-45.58721501817536
 20
-1001.881285038985
 30
0.0
  0
POINT
  5
1AE98
330
DAFA
100
AcDbEntity
  8
Defpoints
 62
     0
440
 16777216
 48
0.5
100
AcDbPoint
 10
-45.8372150181749
 20
-1036.881285038985
 30
0.0
  0
POINT
  5
1AE99
330
DAFA
100
AcDbEntity
  8
Defpoints
 62
     0
440
 16777216
 48
0.5
100
AcDbPoint
 10
-54.14754307803696
 20
-1036.881285038985
 30
0.0
  0
ENDBLK
  5
DB05
330
DAFA
100
AcDbEntity
  8
0
 48
0.5
100
AcDbBlockEnd
  0
BLOCK
  5
DB0F
330
DB07
100
AcDbEntity
  8
0
 48
0.5
100
AcDbBlockBegin
  2
*D5
 70
     1
 10
0.0
 20
0.0
 30
0.0
  3
*D5
  1

  0
LINE
  5
1AE9A
330
DB07
100
AcDbEntity
  8
尺寸线
 62
     0
440
 16777216
 48
0.5
370
    -2
100
AcDbLine
 10
-33.33721501817581
 20
-1140.138215248314
 30
0.0
 11
-26.33721501818354
 21
-1140.138215248314
 31
0.0
  0
INSERT
  5
1AE9B
330
DB07
100
AcDbEntity
  8
尺寸线
 62
     0
440
 16777216
 48
0.5
370
    -2
100
AcDbBlockReference
  2
_Open30
 10
-35.83721501817581
 20
-1140.138215248314
 30
0.0
 41
2.5
 42
2.5
 43
2.5
 50
180.0
  0
INSERT
  5
1AE9C
330
DB07
100
AcDbEntity
  8
尺寸线
 62
     0
440
 16777216
 48
0.5
370
    -2
100
AcDbBlockReference
  2
_Open30
 10
-23.83721501818354
 20
-1140.138215248314
 30
0.0
 41
2.5
 42
2.5
 43
2.5
  0
MTEXT
  5
1AE9D
330
DB07
100
AcDbEntity
  8
尺寸线
 62
     0
440
 16777216
 48
0.5
100
AcDbMText
 10
-29.83721501817968
 20
-1138.362215248314
 30
0.0
 40
2.5
 41
0.0
 46
0.0
 71
     5
 72
     1
  1
12
 73
     1
 44
1.0
  0
POINT
  5
1AE9E
330
DB07
100
AcDbEntity
  8
Defpoints
 62
     0
440
 16777216
 48
0.5
100
AcDbPoint
 10
-35.83721501817581
 20
-1140.138215248313
 30
0.0
  0
POINT
  5
1AE9F
330
DB07
100
AcDbEntity
  8
Defpoints
 62
     0
440
 16777216
 48
0.5
100
AcDbPoint
 10
-23.83721501818354
 20
-1140.138215248314
 30
0.0
  0
POINT
  5
1AEA0
330
DB07
100
AcDbEntity
  8
Defpoints
 62
     0
440
 16777216
 48
0.5
100
AcDbPoint
 10
-23.83721501818354
 20
-1140.138215248314
 30
0.0
  0
ENDBLK
  5
DB10
330
DB07
100
AcDbEntity
  8
0
 48
0.5
100
AcDbBlockEnd
  0
BLOCK
  5
DB29
330
DB23
100
AcDbEntity
  8
0
 48
0.5
100
AcDbBlockBegin
  2
*D6
 70
     1
 10
0.0
 20
0.0
 30
0.0
  3
*D6
  1

  0
LINE
  5
1AEA1
330
DB23
100
AcDbEntity
  8
尺寸线
 62
     0
440
 16777216
 48
0.5
370
    -2
100
AcDbLine
 10
64.76025997908999
 20
-1042.189902387771
 30
0.0
 11
56.51518589580013
 21
-1032.505727919141
 31
0.0
  0
MTEXT
  5
1AEA2
330
DB23
100
AcDbEntity
  8
尺寸线
 62
     0
440
 16777216
 48
0.5
100
AcDbMText
 10
62.80032670569102
 20
-1037.148263301626
 30
0.0
 40
2.5
 41
0.0
 46
0.0
 71
     5
 72
     1
  1
R13.5
 11
0.6482656004263808
 21
-0.7614142836221449
 31
0.0
 73
     1
 44
1.0
  0
INSERT
  5
1AEA3
330
DB23
100
AcDbEntity
  8
尺寸线
 62
     0
440
 16777216
 48
0.5
370
    -2
100
AcDbBlockReference
  2
_Open30
 10
54.89452189473417
 20
-1030.602192210086
 30
0.0
 41
2.5
 42
2.5
 43
2.5
 50
130.4109628607153
  0
POINT
  5
1AEA4
330
DB23
100
AcDbEntity
  8
Defpoints
 62
     0
440
 16777216
 48
0.5
100
AcDbPoint
 10
54.89452189473417
 20
-1030.602192210086
 30
0.0
  0
POINT
  5
1AEA5
330
DB23
100
AcDbEntity
  8
Defpoints
 62
     0
440
 16777216
 48
0.5
100
AcDbPoint
 10
63.6461075004891
 20
-1040.881285038984
 30
0.0
  0
ENDBLK
  5
DB2A
330
DB23
100
AcDbEntity
  8
0
 48
0.5
100
AcDbBlockEnd
  0
BLOCK
  5
DB32
330
DB2C
100
AcDbEntity
  8
0
 48
0.5
100
AcDbBlockBegin
  2
*D7
 70
     1
 10
0.0
 20
0.0
 30
0.0
  3
*D7
  1

  0
LINE
  5
1AEA6
330
DB2C
100
AcDbEntity
  8
尺寸线
 62
     0
440
 16777216
 48
0.5
370
    -2
100
AcDbLine
 10
64.79758857742343
 20
-1130.605390670093
 30
0.0
 11
56.27627128272422
 21
-1140.047404932995
 31
0.0
  0
MTEXT
  5
1AEA7
330
DB2C
100
AcDbEntity
  8
尺寸线
 62
     0
440
 16777216
 48
0.5
100
AcDbMText
 10
60.0559541428421
 20
-1133.208536075156
 30
0.0
 40
2.5
 41
0.0
 46
0.0
 71
     5
 72
     1
  1
R13.5
 11
0.6699851107059719
 21
0.7423745358188862
 31
0.0
 73
     1
 44
1.0
  0
INSERT
  5
1AEA8
330
DB2C
100
AcDbEntity
  8
尺寸线
 62
     0
440
 16777216
 48
0.5
370
    -2
100
AcDbBlockReference
  2
_Open30
 10
54.6013085059593
 20
-1141.903341272542
 30
0.0
 41
2.5
 42
2.5
 43
2.5
 50
227.9340843498363
  0
POINT
  5
1AEA9
330
DB2C
100
AcDbEntity
  8
Defpoints
 62
     0
440
 16777216
 48
0.5
100
AcDbPoint
 10
54.6013085059593
 20
-1141.903341272542
 30
0.0
  0
POINT
  5
1AEAA
330
DB2C
100
AcDbEntity
  8
Defpoints
 62
     0
440
 16777216
 48
0.5
100
AcDbPoint
 10
63.64610750049042
 20
-1131.881285038986
 30
0.0
  0
ENDBLK
  5
DB33
330
DB2C
100
AcDbEntity
  8
0
 48
0.5
100
AcDbBlockEnd
  0
BLOCK
  5
DB3B
330
DB35
100
AcDbEntity
  8
0
 48
0.5
100
AcDbBlockBegin
  2
*D8
 70
     1
 10
0.0
 20
0.0
 30
0.0
  3
*D8
  1

  0
LINE
  5
1AEAB
330
DB35
100
AcDbEntity
  8
尺寸线
 62
     0
440
 16777216
 48
0.5
370
    -2
100
AcDbLine
 10
203.2236900725067
 20
-1130.546440299069
 30
0.0
 11
212.6672780413364
 21
-1139.408623423479
 31
0.0
  0
MTEXT
  5
1AEAC
330
DB35
100
AcDbEntity
  8
尺寸线
 62
     0
440
 16777216
 48
0.5
100
AcDbMText
 10
208.1647252531938
 20
-1132.747720484398
 30
0.0
 40
2.5
 41
0.0
 46
0.0
 71
     5
 72
     1
  1
R13.5
 11
0.7291973218951294
 21
-0.6843034894993383
 31
0.0
 73
     1
 44
1.0
  0
INSERT
  5
1AEAD
330
DB35
100
AcDbEntity
  8
尺寸线
 62
     0
440
 16777216
 48
0.5
370
    -2
100
AcDbBlockReference
  2
_Open30
 10
214.4902713460742
 20
-1141.119382147228
 30
0.0
 41
2.5
 42
2.5
 43
2.5
 50
316.8191448622134
  0
POINT
  5
1AEAE
330
DB35
100
AcDbEntity
  8
Defpoints
 62
     0
440
 16777216
 48
0.5
100
AcDbPoint
 10
214.4902713460742
 20
-1141.119382147228
 30
0.0
  0
POINT
  5
1AEAF
330
DB35
100
AcDbEntity
  8
Defpoints
 62
     0
440
 16777216
 48
0.5
100
AcDbPoint
 10
204.6461075004897
 20
-1131.881285038986
 30
0.0
  0
ENDBLK
  5
DB3C
330
DB35
100
AcDbEntity
  8
0
 48
0.5
100
AcDbBlockEnd
  0
BLOCK
  5
DB44
330
DB3E
100
AcDbEntity
  8
0
 48
0.5
100
AcDbBlockBegin
  2
*D9
 70
     1
 10
0.0
 20
0.0
 30
0.0
  3
*D9
  1

  0
LINE
  5
1AEB0
330
DB3E
100
AcDbEntity
  8
尺寸线
 62
     0
440
 16777216
 48
0.5
370
    -2
100
AcDbLine
 10
203.4163651704965
 20
-1042.08193024592
 30
0.0
 11
212.5168400237176
 21
-1033.196783132694
 31
0.0
  0
MTEXT
  5
1AEB1
330
DB3E
100
AcDbEntity
  8
尺寸线
 62
     0
440
 16777216
 48
0.5
100
AcDbMText
 10
205.8315034116881
 20
-1037.241830000363
 30
0.0
 40
2.5
 41
0.0
 46
0.0
 71
     5
 72
     1
  1
R13.5
 11
0.7155211384752809
 21
0.6985910823901476
 31
0.0
 73
     1
 44
1.0
  0
INSERT
  5
1AEB2
330
DB3E
100
AcDbEntity
  8
尺寸线
 62
     0
440
 16777216
 48
0.5
370
    -2
100
AcDbBlockReference
  2
_Open30
 10
214.3056428699058
 20
-1031.450305426718
 30
0.0
 41
2.5
 42
2.5
 43
2.5
 50
44.31407535792544
  0
POINT
  5
1AEB3
330
DB3E
100
AcDbEntity
  8
Defpoints
 62
     0
440
 16777216
 48
0.5
100
AcDbPoint
 10
214.3056428699058
 20
-1031.450305426718
 30
0.0
  0
POINT
  5
1AEB4
330
DB3E
100
AcDbEntity
  8
Defpoints
 62
     0
440
 16777216
 48
0.5
100
AcDbPoint
 10
204.6461075004895
 20
-1040.881285038985
 30
0.0
  0
ENDBLK
  5
DB45
330
DB3E
100
AcDbEntity
  8
0
 48
0.5
100
AcDbBlockEnd
  0
BLOCK
  5
DB51
330
DB47
100
AcDbEntity
  8
0
 48
0.5
100
AcDbBlockBegin
  2
*D10
 70
     1
 10
0.0
 20
0.0
 30
0.0
  3
*D10
  1

  0
LINE
  5
1AEB5
330
DB47
100
AcDbEntity
  8
尺寸线
 62
     0
440
 16777216
 48
0.5
370
    -2
100
AcDbLine
 10
205.64610750049
 20
-1021.381285038986
 30
0.0
 11
234.8112760583266
 21
-1021.381285038986
 31
0.0
  0
LINE
  5
1AEB6
330
DB47
100
AcDbEntity
  8
尺寸线
 62
     0
440
 16777216
 48
0.5
370
    -2
100
AcDbLine
 10
205.64610750049
 20
-1151.381285038986
 30
0.0
 11
234.8112760583266
 21
-1151.381285038986
 31
0.0
  0
LINE
  5
1AEB7
330
DB47
100
AcDbEntity
  8
尺寸线
 62
     0
440
 16777216
 48
0.5
370
    -2
100
AcDbLine
 10
233.8112760583266
 20
-1023.881285038986
 30
0.0
 11
233.8112760583266
 21
-1148.881285038986
 31
0.0
  0
INSERT
  5
1AEB8
330
DB47
100
AcDbEntity
  8
尺寸线
 62
     0
440
 16777216
 48
0.5
370
    -2
100
AcDbBlockReference
  2
_Open30
 10
233.8112760583266
 20
-1021.381285038986
 30
0.0
 41
2.5
 42
2.5
 43
2.5
 50
90.0
  0
INSERT
  5
1AEB9
330
DB47
100
AcDbEntity
  8
尺寸线
 62
     0
440
 16777216
 48
0.5
370
    -2
100
AcDbBlockReference
  2
_Open30
 10
233.8112760583266
 20
-1151.381285038986
 30
0.0
 41
2.5
 42
2.5
 43
2.5
 50
270.0
  0
MTEXT
  5
1AEBA
330
DB47
100
AcDbEntity
  8
尺寸线
 62
     0
440
 16777216
 48
0.5
100
AcDbMText
 10
232.0352760583268
 20
-1086.381285038986
 30
0.0
 40
2.5
 41
0.0
 46
0.0
 71
     5
 72
     1
  1
130
 11
0.0000000000000001
 21
1.0
 31
0.0
 73
     1
 44
1.0
  0
POINT
  5
1AEBB
330
DB47
100
AcDbEntity
  8
Defpoints
 62
     0
440
 16777216
 48
0.5
100
AcDbPoint
 10
204.6461075004899
 20
-1021.381285038986
 30
0.0
  0
POINT
  5
1AEBC
330
DB47
100
AcDbEntity
  8
Defpoints
 62
     0
440
 16777216
 48
0.5
100
AcDbPoint
 10
204.6461075004899
 20
-1151.381285038986
 30
0.0
  0
POINT
  5
1AEBD
330
DB47
100
AcDbEntity
  8
Defpoints
 62
     0
440
 16777216
 48
0.5
100
AcDbPoint
 10
233.8112760583266
 20
-1151.381285038986
 30
0.0
  0
ENDBLK
  5
DB52
330
DB47
100
AcDbEntity
  8
0
 48
0.5
100
AcDbBlockEnd
  0
BLOCK
  5
DB5E
330
DB54
100
AcDbEntity
  8
0
 48
0.5
100
AcDbBlockBegin
  2
*D11
 70
     1
 10
0.0
 20
0.0
 30
0.0
  3
*D11
  1

  0
LINE
  5
1AEDA
330
DB54
100
AcDbEntity
  8
尺寸线
 62
     0
440
 16777216
 48
0.5
370
    -2
100
AcDbLine
 10
135.1461075004899
 20
-1001.881285038986
 30
0.0
 11
243.9626218282413
 21
-1001.881285038986
 31
0.0
  0
LINE
  5
1AEDB
330
DB54
100
AcDbEntity
  8
尺寸线
 62
     0
440
 16777216
 48
0.5
370
    -2
100
AcDbLine
 10
205.64610750049
 20
-1151.381285038986
 30
0.0
 11
243.9626218282413
 21
-1151.381285038986
 31
0.0
  0
LINE
  5
1AEDC
330
DB54
100
AcDbEntity
  8
尺寸线
 62
     0
440
 16777216
 48
0.5
370
    -2
100
AcDbLine
 10
242.9626218282413
 20
-1004.381285038985
 30
0.0
 11
242.9626218282413
 21
-1148.881285038986
 31
0.0
  0
INSERT
  5
1AEDD
330
DB54
100
AcDbEntity
  8
尺寸线
 62
     0
440
 16777216
 48
0.5
370
    -2
100
AcDbBlockReference
  2
_Open30
 10
242.9626218282413
 20
-1001.881285038986
 30
0.0
 41
2.5
 42
2.5
 43
2.5
 50
90.0
  0
INSERT
  5
1AEDE
330
DB54
100
AcDbEntity
  8
尺寸线
 62
     0
440
 16777216
 48
0.5
370
    -2
100
AcDbBlockReference
  2
_Open30
 10
242.9626218282413
 20
-1151.381285038986
 30
0.0
 41
2.5
 42
2.5
 43
2.5
 50
270.0
  0
MTEXT
  5
1AEDF
330
DB54
100
AcDbEntity
  8
尺寸线
 62
     0
440
 16777216
 48
0.5
100
AcDbMText
 10
241.1866218282415
 20
-1075.381285038986
 30
0.0
 40
2.5
 41
0.0
 46
0.0
 71
     5
 72
     1
  1
149.5
 11
0.0000000000000001
 21
1.0
 31
0.0
 73
     1
 44
1.0
  0
POINT
  5
1AEE0
330
DB54
100
AcDbEntity
  8
Defpoints
 62
     0
440
 16777216
 48
0.5
100
AcDbPoint
 10
134.1461075004899
 20
-1001.881285038986
 30
0.0
  0
POINT
  5
1AEE1
330
DB54
100
AcDbEntity
  8
Defpoints
 62
     0
440
 16777216
 48
0.5
100
AcDbPoint
 10
204.6461075004899
 20
-1151.381285038986
 30
0.0
  0
POINT
  5
1AEE2
330
DB54
100
AcDbEntity
  8
Defpoints
 62
     0
440
 16777216
 48
0.5
100
AcDbPoint
 10
242.9626218282413
 20
-1151.381285038986
 30
0.0
  0
ENDBLK
  5
DB5F
330
DB54
100
AcDbEntity
  8
0
 48
0.5
100
AcDbBlockEnd
  0
BLOCK
  5
DB6B
330
DB61
100
AcDbEntity
  8
0
 48
0.5
100
AcDbBlockBegin
  2
*D12
 70
     1
 10
0.0
 20
0.0
 30
0.0
  3
*D12
  1

  0
LINE
  5
1AEC7
330
DB61
100
AcDbEntity
  8
尺寸线
 62
     0
440
 16777216
 48
0.5
370
    -2
100
AcDbLine
 10
44.14610750048905
 20
-1132.881285038986
 30
0.0
 11
44.14610750048905
 21
-1158.696108883824
 31
0.0
  0
LINE
  5
1AEC8
330
DB61
100
AcDbEntity
  8
尺寸线
 62
     0
440
 16777216
 48
0.5
370
    -2
100
AcDbLine
 10
224.1461075004904
 20
-1132.881285038986
 30
0.0
 11
224.1461075004904
 21
-1158.696108883824
 31
0.0
  0
LINE
  5
1AEC9
330
DB61
100
AcDbEntity
  8
尺寸线
 62
     0
440
 16777216
 48
0.5
370
    -2
100
AcDbLine
 10
46.64610750048905
 20
-1157.696108883824
 30
0.0
 11
221.6461075004904
 21
-1157.696108883824
 31
0.0
  0
INSERT
  5
1AECA
330
DB61
100
AcDbEntity
  8
尺寸线
 62
     0
440
 16777216
 48
0.5
370
    -2
100
AcDbBlockReference
  2
_Open30
 10
44.14610750048905
 20
-1157.696108883824
 30
0.0
 41
2.5
 42
2.5
 43
2.5
 50
180.0
  0
INSERT
  5
1AECB
330
DB61
100
AcDbEntity
  8
尺寸线
 62
     0
440
 16777216
 48
0.5
370
    -2
100
AcDbBlockReference
  2
_Open30
 10
224.1461075004904
 20
-1157.696108883824
 30
0.0
 41
2.5
 42
2.5
 43
2.5
  0
MTEXT
  5
1AECC
330
DB61
100
AcDbEntity
  8
尺寸线
 62
     0
440
 16777216
 48
0.5
100
AcDbMText
 10
134.1461075004897
 20
-1155.920108883824
 30
0.0
 40
2.5
 41
0.0
 46
0.0
 71
     5
 72
     1
  1
180
 73
     1
 44
1.0
  0
POINT
  5
1AECD
330
DB61
100
AcDbEntity
  8
Defpoints
 62
     0
440
 16777216
 48
0.5
100
AcDbPoint
 10
44.14610750048905
 20
-1131.881285038986
 30
0.0
  0
POINT
  5
1AECE
330
DB61
100
AcDbEntity
  8
Defpoints
 62
     0
440
 16777216
 48
0.5
100
AcDbPoint
 10
224.1461075004904
 20
-1131.881285038986
 30
0.0
  0
POINT
  5
1AECF
330
DB61
100
AcDbEntity
  8
Defpoints
 62
     0
440
 16777216
 48
0.5
100
AcDbPoint
 10
224.1461075004904
 20
-1157.696108883824
 30
0.0
  0
ENDBLK
  5
DB6C
330
DB61
100
AcDbEntity
  8
0
 48
0.5
100
AcDbBlockEnd
  0
BLOCK
  5
1AED8
330
1AED1
100
AcDbEntity
  8
0
 48
0.5
100
AcDbBlockBegin
  2
*D13
 70
     1
 10
0.0
 20
0.0
 30
0.0
  3
*D13
  1

  0
LINE
  5
1AED2
330
1AED1
100
AcDbEntity
  8
尺寸线
 62
     0
440
 16777216
 48
0.5
370
    -2
100
AcDbLine
 10
117.5862217864668
 20
-998.2184217379449
 30
0.0
 11
124.5042152190896
 21
-1003.926166357667
 31
0.0
  0
MTEXT
  5
1AED3
330
1AED1
100
AcDbEntity
  8
尺寸线
 62
     0
440
 16777216
 48
0.5
100
AcDbMText
 10
121.2112925368799
 20
-998.9068621243328
 30
0.0
 40
2.5
 41
0.0
 46
0.0
 71
     5
 72
     1
  1
R10
 11
0.7713513825120272
 21
-0.6364094945055302
 31
0.0
 73
     1
 44
1.0
  0
LINE
  5
1AED4
330
1AED1
100
AcDbEntity
  8
尺寸线
 62
     0
440
 16777216
 48
0.5
370
    -2
100
AcDbLine
 10
134.1461075004899
 20
-1011.881285038986
 30
0.0
 11
126.4325936753697
 21
-1005.517190093931
 31
0.0
  0
INSERT
  5
1AED5
330
1AED1
100
AcDbEntity
  8
尺寸线
 62
     0
440
 16777216
 48
0.5
370
    -2
100
AcDbBlockReference
  2
_Open30
 10
126.4325936753697
 20
-1005.517190093931
 30
0.0
 41
2.5
 42
2.5
 43
2.5
 50
320.4753973940744
  0
POINT
  5
1AED6
330
1AED1
100
AcDbEntity
  8
Defpoints
 62
     0
440
 16777216
 48
0.5
100
AcDbPoint
 10
126.4325936753697
 20
-1005.517190093931
 30
0.0
  0
POINT
  5
1AED7
330
1AED1
100
AcDbEntity
  8
Defpoints
 62
     0
440
 16777216
 48
0.5
100
AcDbPoint
 10
134.1461075004899
 20
-1011.881285038986
 30
0.0
  0
ENDBLK
  5
1AED9
330
1AED1
100
AcDbEntity
  8
0
 48
0.5
100
AcDbBlockEnd
  0
BLOCK
  5
1AEE8
330
1AEE3
100
AcDbEntity
  8
0
 48
0.5
100
AcDbBlockBegin
  2
A$C4C5A6619
 70
     0
 10
0.0
 20
0.0
 30
0.0
  3
A$C4C5A6619
  1

  0
MTEXT
  5
1AEE4
330
1AEE3
100
AcDbEntity
  8
0
370
    13
100
AcDbMText
 10
60.27382412543875
 20
73.49892536277252
 30
0.0
 40
12.6
 41
134.753868520847
 46
0.0
 71
     1
 72
     5
  1
{\fSimSun|b0|i0|c134|p2;技术要求}
 73
     1
 44
1.0
1001
ACAD
1000
ACAD_MTEXT_DEFINED_HEIGHT_BEGIN
1070
    46
1040
0.0
1000
ACAD_MTEXT_DEFINED_HEIGHT_END
  0
MTEXT
  5
1AEE5
330
1AEE3
100
AcDbEntity
  8
0
370
    13
100
AcDbMText
 10
6.221280124481381
 20
36.55017061601848
 30
0.0
 40
10.84687167292257
 41
211.58008065661
 46
9.688487395674886
 71
     1
 72
     5
  1
{\fSimSun|b0|i0|c134|p2;1、装配牢固、到位，外形美观，外表无划伤、拧伤等缺陷}
 73
     1
 44
1.0
1001
ACAD
1000
ACAD_MTEXT_DEFINED_HEIGHT_BEGIN
1070
    46
1040
9.688487395674886
1000
ACAD_MTEXT_DEFINED_HEIGHT_END
  0
ENDBLK
  5
1AEE9
330
1AEE3
100
AcDbEntity
  8
0
 48
0.5
100
AcDbBlockEnd
  0
ENDSEC
  0
SECTION
  2
ENTITIES
  0
LINE
  5
C789
330
1F
100
AcDbEntity
  8
0
 48
0.5
100
AcDbLine
 10
-45.83721501817535
 20
-1036.881285038985
 30
0.0
 11
-45.8372150181758
 21
-1002.131285038985
 31
0.0
  0
ARC
  5
C792
330
1F
100
AcDbEntity
  8
0
 48
0.5
100
AcDbCircle
 10
-45.58721501817536
 20
-1002.131285038985
 30
0.0
 40
0.25
100
AcDbArc
 50
90.0
 51
180.0
  0
ARC
  5
C794
330
1F
100
AcDbEntity
  8
0
 48
0.5
100
AcDbCircle
 10
21.91278498182464
 20
-1002.131285038985
 30
0.0
 40
0.25
100
AcDbArc
 50
0.0
 51
90.0
  0
LINE
  5
C796
330
1F
100
AcDbEntity
  8
0
 48
0.5
100
AcDbLine
 10
21.91278498182464
 20
-1001.881285038985
 30
0.0
 11
-45.58721501817536
 21
-1001.881285038985
 31
0.0
  0
LINE
  5
C7A2
330
1F
100
AcDbEntity
  8
中心线
 48
0.5
100
AcDbLine
 10
-29.83721501817536
 20
-1012.419780195112
 30
0.0
 11
-29.83721501817536
 21
-1037.644768954166
 31
0.0
  0
LINE
  5
C81F
330
1F
100
AcDbEntity
  8
中心线
 48
0.5
100
AcDbLine
 10
-39.63664301440258
 20
-1024.381285038985
 30
0.0
 11
-19.48942567778101
 21
-1024.381285038985
 31
0.0
  0
LINE
  5
C84F
330
1F
100
AcDbEntity
  8
0
 48
0.5
100
AcDbLine
 10
124.1461075004904
 20
-1036.881285038985
 30
0.0
 11
144.1461075004909
 21
-1036.881285038985
 31
0.0
  0
LINE
  5
C850
330
1F
100
AcDbEntity
  8
0
 48
0.5
100
AcDbLine
 10
124.1461075004904
 20
-1011.881285038985
 30
0.0
 11
124.1461075004904
 21
-1036.881285038985
 31
0.0
  0
LINE
  5
C851
330
1F
100
AcDbEntity
  8
0
 48
0.5
100
AcDbLine
 10
144.1461075004904
 20
-1011.881285038985
 30
0.0
 11
144.1461075004904
 21
-1036.881285038985
 31
0.0
  0
ARC
  5
C852
330
1F
100
AcDbEntity
  8
0
 48
0.5
100
AcDbCircle
 10
134.1461075004899
 20
-1011.881285038985
 30
0.0
 40
9.999999999999543
100
AcDbArc
 50
0.0
 51
180.0
  0
LINE
  5
C853
330
1F
100
AcDbEntity
  8
0
 48
0.5
100
AcDbLine
 10
144.1461075004904
 20
-1021.381285038986
 30
0.0
 11
204.6461075004899
 21
-1021.381285038985
 31
0.0
  0
LINE
  5
C855
330
1F
100
AcDbEntity
  8
中心线
 48
0.5
100
AcDbLine
 10
134.1461075004899
 20
-995.4755199921477
 30
0.0
 11
134.1461075004899
 21
-1044.669756582314
 31
0.0
  0
LINE
  5
C856
330
1F
100
AcDbEntity
  8
中心线
 48
0.5
100
AcDbLine
 10
120.524304744888
 20
-1011.881285038985
 30
0.0
 11
148.0410043574579
 21
-1011.881285038985
 31
0.0
  0
LINE
  5
C857
330
1F
100
AcDbEntity
  8
0
 48
0.5
100
AcDbLine
 10
224.14610750049
 20
-1040.881285038985
 30
0.0
 11
224.1461075004904
 21
-1131.881285038986
 31
0.0
  0
LINE
  5
C859
330
1F
100
AcDbEntity
  8
0
 48
0.5
100
AcDbLine
 10
218.14610750049
 20
-1040.881285038985
 30
0.0
 11
218.14610750049
 21
-1131.881285038986
 31
0.0
  0
ARC
  5
C85A
330
1F
100
AcDbEntity
  8
0
 48
0.5
100
AcDbCircle
 10
204.6461075004899
 20
-1040.881285038985
 30
0.0
 40
13.5
100
AcDbArc
 50
0.0
 51
90.0
  0
ARC
  5
C85B
330
1F
100
AcDbEntity
  8
0
 48
0.5
100
AcDbCircle
 10
204.6461075004899
 20
-1040.881285038985
 30
0.0
 40
19.5
100
AcDbArc
 50
0.0
 51
90.0
  0
LINE
  5
C85C
330
1F
100
AcDbEntity
  8
0
 48
0.5
100
AcDbLine
 10
204.6461075004899
 20
-1151.381285038986
 30
0.0
 11
63.6461075004895
 21
-1151.381285038986
 31
0.0
  0
LINE
  5
C85D
330
1F
100
AcDbEntity
  8
0
 48
0.5
100
AcDbLine
 10
204.6461075004899
 20
-1145.381285038986
 30
0.0
 11
63.6461075004895
 21
-1145.381285038986
 31
0.0
  0
ARC
  5
C85E
330
1F
100
AcDbEntity
  8
0
 48
0.5
100
AcDbCircle
 10
204.6461075004899
 20
-1131.881285038986
 30
0.0
 40
13.5
100
AcDbArc
 50
270.0
 51
0.0
  0
ARC
  5
C85F
330
1F
100
AcDbEntity
  8
0
 48
0.5
100
AcDbCircle
 10
204.6461075004899
 20
-1131.881285038986
 30
0.0
 40
19.5
100
AcDbArc
 50
270.0
 51
0.0
  0
LINE
  5
C860
330
1F
100
AcDbEntity
  8
0
 48
0.5
100
AcDbLine
 10
44.1461075004895
 20
-1040.881285038985
 30
0.0
 11
44.14610750048905
 21
-1131.881285038986
 31
0.0
  0
LINE
  5
C861
330
1F
100
AcDbEntity
  8
0
 48
0.5
100
AcDbLine
 10
50.14610750048951
 20
-1040.881285038985
 30
0.0
 11
50.14610750048951
 21
-1131.881285038986
 31
0.0
  0
ARC
  5
C862
330
1F
100
AcDbEntity
  8
0
 48
0.5
100
AcDbCircle
 10
63.6461075004895
 20
-1131.881285038986
 30
0.0
 40
13.5
100
AcDbArc
 50
180.0
 51
270.0
  0
ARC
  5
C863
330
1F
100
AcDbEntity
  8
0
 48
0.5
100
AcDbCircle
 10
63.6461075004895
 20
-1131.881285038986
 30
0.0
 40
19.50000000000001
100
AcDbArc
 50
180.0
 51
270.0
  0
ARC
  5
C864
330
1F
100
AcDbEntity
  8
0
 48
0.5
100
AcDbCircle
 10
63.6461075004895
 20
-1040.881285038985
 30
0.0
 40
13.5
100
AcDbArc
 50
90.0
 51
180.0
  0
ARC
  5
C865
330
1F
100
AcDbEntity
  8
0
 48
0.5
100
AcDbCircle
 10
63.6461075004895
 20
-1040.881285038985
 30
0.0
 40
19.50000000000001
100
AcDbArc
 50
90.0
 51
180.0
  0
LINE
  5
D81A
330
1F
100
AcDbEntity
  8
0
 48
0.5
100
AcDbLine
 10
-35.83721501817581
 20
-1021.381285038986
 30
0.0
 11
-35.83721501817581
 21
-1151.381285038986
 31
0.0
  0
LINE
  5
D81B
330
1F
100
AcDbEntity
  8
0
 48
0.5
100
AcDbLine
 10
-23.83721501817536
 20
-1021.381285038986
 30
0.0
 11
-23.83721501818491
 21
-1151.381285038986
 31
0.0
  0
LINE
  5
D81C
330
1F
100
AcDbEntity
  8
0
 48
0.5
100
AcDbLine
 10
-35.83721501817581
 20
-1151.381285038986
 30
0.0
 11
-23.83721501818491
 21
-1151.381285038986
 31
0.0
  0
LINE
  5
D81D
330
1F
100
AcDbEntity
  8
0
 48
0.5
100
AcDbLine
 10
-45.8372150181749
 20
-1036.881285038985
 30
0.0
 11
-35.83721501817581
 21
-1036.881285038985
 31
0.0
  0
LINE
  5
D893
330
1F
100
AcDbEntity
  8
0
 48
0.5
100
AcDbLine
 10
22.16278498182465
 20
-1002.131285038985
 30
0.0
 11
22.16278498182465
 21
-1036.881285038985
 31
0.0
  0
LINE
  5
D978
330
1F
100
AcDbEntity
  8
0
100
AcDbLine
 10
22.16278498182465
 20
-1011.881285038986
 30
0.0
 11
22.16278498182465
 21
-1003.581285038985
 31
0.0
  0
LINE
  5
D979
330
1F
100
AcDbEntity
  8
0
100
AcDbLine
 10
22.16278498182465
 20
-1003.581285038985
 30
0.0
 11
22.16278498182465
 21
-1011.881285038986
 31
0.0
  0
LINE
  5
D97B
330
1F
100
AcDbEntity
  8
0
100
AcDbLine
 10
22.16278498182419
 20
-1002.131285038985
 30
0.0
 11
22.16278498182465
 21
-1036.581285038985
 31
0.0
  0
LINE
  5
D97D
330
1F
100
AcDbEntity
  8
中心线
 48
0.5
100
AcDbLine
 10
17.16278498182464
 20
-1027.192614232437
 30
0.0
 11
17.16278498182464
 21
-1039.727827408595
 31
0.0
  0
DIMENSION
  5
DACE
330
1F
100
AcDbEntity
  8
尺寸线
 48
0.5
100
AcDbDimension
280
     0
  2
*D3
 10
-48.3372150181749
 20
-993.3862839858615
 30
0.0
 11
-13.08721501817513
 21
-991.6102839858615
 31
0.0
 70
    32
 71
     5
 42
70.49999999999954
 73
     0
 74
     0
 75
     0
  3
ISO-25
100
AcDbAlignedDimension
 13
22.16278498182465
 23
-1002.131285038985
 33
0.0
 14
-48.3372150181749
 24
-1011.881285038986
 34
0.0
100
AcDbRotatedDimension
1001
ACAD
1000
DSTYLE
1002
{
1070
    42
1040
1.0
1070
    44
1040
1.0
1070
   143
1040
0.0393700787401575
1070
   147
1040
0.526
1070
   271
1070
     1
1070
   272
1070
     1
1070
   278
1070
    46
1070
   284
1070
     0
1070
   341
1005
12E9
1070
   342
1005
111D
1002
}
  0
DIMENSION
  5
DAF9
330
1F
100
AcDbEntity
  8
尺寸线
 48
0.5
100
AcDbDimension
280
     0
  2
*D4
 10
-54.14754307803696
 20
-1036.881285038985
 30
0.0
 11
-55.9235430780368
 21
-1019.381285038986
 31
0.0
 70
    32
 71
     5
 42
35.00000000000011
 73
     0
 74
     0
 75
     0
  3
ISO-25
100
AcDbAlignedDimension
 13
-45.58721501817536
 23
-1001.881285038985
 33
0.0
 14
-45.8372150181749
 24
-1036.881285038985
 34
0.0
 50
90.0
100
AcDbRotatedDimension
1001
ACAD
1000
DSTYLE
1002
{
1070
    42
1040
1.0
1070
    44
1040
1.0
1070
   143
1040
0.0393700787401575
1070
   147
1040
0.526
1070
   271
1070
     1
1070
   272
1070
     1
1070
   278
1070
    46
1070
   284
1070
     0
1070
   341
1005
12E9
1070
   342
1005
111D
1002
}
  0
DIMENSION
  5
DB06
330
1F
100
AcDbEntity
  8
尺寸线
 48
0.5
100
AcDbDimension
280
     0
  2
*D5
 10
-23.83721501818354
 20
-1140.138215248314
 30
0.0
 11
-29.83721501817968
 21
-1138.362215248314
 31
0.0
 70
    32
 71
     5
 42
11.99999999999227
 73
     0
 74
     0
 75
     0
  3
ISO-25
100
AcDbAlignedDimension
 13
-35.83721501817581
 23
-1140.138215248313
 33
0.0
 14
-23.83721501818354
 24
-1140.138215248314
 34
0.0
100
AcDbRotatedDimension
1001
ACAD
1000
DSTYLE
1002
{
1070
    42
1040
1.0
1070
    44
1040
1.0
1070
   143
1040
0.0393700787401575
1070
   147
1040
0.526
1070
   271
1070
     1
1070
   272
1070
     1
1070
   278
1070
    46
1070
   284
1070
     0
1070
   341
1005
12E9
1070
   342
1005
111D
1002
}
  0
DIMENSION
  5
DB22
330
1F
100
AcDbEntity
  8
尺寸线
 48
0.5
100
AcDbDimension
280
     0
  2
*D6
 10
63.6461075004891
 20
-1040.881285038984
 30
0.0
 11
61.44805493797815
 21
-1038.299583007984
 31
0.0
 70
   164
 71
     5
 42
13.49999999999818
 73
     0
 74
     0
 75
     0
  3
ISO-25
100
AcDbRadialDimension
 15
54.89452189473417
 25
-1030.602192210086
 35
0.0
 40
0.0
1001
ACAD
1000
DSTYLE
1002
{
1070
    42
1040
1.0
1070
    44
1040
1.0
1070
   143
1040
0.0393700787401575
1070
   147
1040
0.526
1070
   271
1070
     1
1070
   272
1070
     1
1070
   278
1070
    46
1070
   284
1070
     0
1070
   288
1070
     1
1070
   341
1005
12E9
1070
   342
1005
111D
1002
}
  0
DIMENSION
  5
DB2B
330
1F
100
AcDbEntity
  8
尺寸线
 48
0.5
100
AcDbDimension
280
     0
  2
*D7
 10
63.64610750049042
 20
-1131.881285038986
 30
0.0
 11
61.3744113184564
 21
-1134.39842963177
 31
0.0
 70
   164
 71
     5
 42
13.50000000000057
 73
     0
 74
     0
 75
     0
  3
ISO-25
100
AcDbRadialDimension
 15
54.6013085059593
 25
-1141.903341272542
 35
0.0
 40
0.0
1001
ACAD
1000
DSTYLE
1002
{
1070
    42
1040
1.0
1070
    44
1040
1.0
1070
   143
1040
0.0393700787401575
1070
   147
1040
0.526
1070
   271
1070
     1
1070
   272
1070
     1
1070
   278
1070
    46
1070
   284
1070
     0
1070
   288
1070
     1
1070
   341
1005
12E9
1070
   342
1005
111D
1002
}
  0
DIMENSION
  5
DB34
330
1F
100
AcDbEntity
  8
尺寸线
 48
0.5
100
AcDbDimension
280
     0
  2
*D8
 10
204.6461075004897
 20
-1131.881285038986
 30
0.0
 11
206.949402255843
 21
-1134.042774928084
 31
0.0
 70
   164
 71
     5
 42
13.50000000000045
 73
     0
 74
     0
 75
     0
  3
ISO-25
100
AcDbRadialDimension
 15
214.4902713460742
 25
-1141.119382147228
 35
0.0
 40
0.0
1001
ACAD
1000
DSTYLE
1002
{
1070
    42
1040
1.0
1070
    44
1040
1.0
1070
   143
1040
0.0393700787401575
1070
   147
1040
0.526
1070
   271
1070
     1
1070
   272
1070
     1
1070
   278
1070
    46
1070
   284
1070
     0
1070
   288
1070
     1
1070
   341
1005
12E9
1070
   342
1005
111D
1002
}
  0
DIMENSION
  5
DB3D
330
1F
100
AcDbEntity
  8
尺寸线
 48
0.5
100
AcDbDimension
280
     0
  2
*D9
 10
204.6461075004895
 20
-1040.881285038985
 30
0.0
 11
207.072201174013
 21
-1038.512595542295
 31
0.0
 70
   164
 71
     5
 42
13.5
 73
     0
 74
     0
 75
     0
  3
ISO-25
100
AcDbRadialDimension
 15
214.3056428699058
 25
-1031.450305426718
 35
0.0
 40
0.0
1001
ACAD
1000
DSTYLE
1002
{
1070
    42
1040
1.0
1070
    44
1040
1.0
1070
   143
1040
0.0393700787401575
1070
   147
1040
0.526
1070
   271
1070
     1
1070
   272
1070
     1
1070
   278
1070
    46
1070
   284
1070
     0
1070
   288
1070
     1
1070
   341
1005
12E9
1070
   342
1005
111D
1002
}
  0
DIMENSION
  5
DB46
330
1F
100
AcDbEntity
  8
尺寸线
 48
0.5
100
AcDbDimension
280
     0
  2
*D10
 10
233.8112760583266
 20
-1151.381285038986
 30
0.0
 11
233.8112760583268
 21
-1086.381285038986
 31
0.0
 70
   160
 71
     5
 42
130.0000000000007
 73
     0
 74
     0
 75
     0
  3
ISO-25
100
AcDbAlignedDimension
 13
204.6461075004899
 23
-1021.381285038986
 33
0.0
 14
204.6461075004899
 24
-1151.381285038986
 34
0.0
 50
90.0
100
AcDbRotatedDimension
1001
ACAD
1000
DSTYLE
1002
{
1070
    42
1040
1.0
1070
    44
1040
1.0
1070
   143
1040
0.0393700787401575
1070
   147
1040
0.526
1070
   271
1070
     1
1070
   272
1070
     1
1070
   278
1070
    46
1070
   284
1070
     0
1070
   341
1005
12E9
1070
   342
1005
111D
1002
}
  0
DIMENSION
  5
DB53
330
1F
100
AcDbEntity
  8
尺寸线
 48
0.5
100
AcDbDimension
280
     0
  2
*D11
 10
242.9626218282413
 20
-1151.381285038986
 30
0.0
 11
242.9626218282415
 21
-1075.381285038986
 31
0.0
 70
   160
 71
     5
 42
149.5000000000005
 73
     0
 74
     0
 75
     0
  3
ISO-25
100
AcDbAlignedDimension
 13
134.1461075004899
 23
-1001.881285038986
 33
0.0
 14
204.6461075004899
 24
-1151.381285038986
 34
0.0
 50
90.0
100
AcDbRotatedDimension
1001
ACAD
1000
DSTYLE
1002
{
1070
    42
1040
1.0
1070
    44
1040
1.0
1070
   143
1040
0.0393700787401575
1070
   147
1040
0.526
1070
   271
1070
     1
1070
   272
1070
     1
1070
   278
1070
    46
1070
   284
1070
     0
1070
   341
1005
12E9
1070
   342
1005
111D
1002
}
  0
DIMENSION
  5
DB60
330
1F
100
AcDbEntity
  8
尺寸线
 48
0.5
100
AcDbDimension
280
     0
  2
*D12
 10
224.1461075004904
 20
-1157.696108883824
 30
0.0
 11
134.1461075004897
 21
-1155.920108883824
 31
0.0
 70
    32
 71
     5
 42
180.0000000000013
 73
     0
 74
     0
 75
     0
  3
ISO-25
100
AcDbAlignedDimension
 13
44.14610750048905
 23
-1131.881285038986
 33
0.0
 14
224.1461075004904
 24
-1131.881285038986
 34
0.0
100
AcDbRotatedDimension
1001
ACAD
1000
DSTYLE
1002
{
1070
    42
1040
1.0
1070
    44
1040
1.0
1070
   143
1040
0.0393700787401575
1070
   147
1040
0.526
1070
   271
1070
     1
1070
   272
1070
     1
1070
   278
1070
    46
1070
   284
1070
     0
1070
   341
1005
12E9
1070
   342
1005
111D
1002
}
  0
LINE
  5
1AD24
330
1F
100
AcDbEntity
  8
0
 48
0.5
100
AcDbLine
 10
144.1461075004904
 20
-1027.381285038986
 30
0.0
 11
204.6461075004899
 21
-1027.381285038986
 31
0.0
  0
LINE
  5
1AD25
330
1F
100
AcDbEntity
  8
0
 48
0.5
100
AcDbLine
 10
124.1461075004895
 20
-1021.381285038986
 30
0.0
 11
63.64610750048996
 21
-1021.381285038985
 31
0.0
  0
LINE
  5
1AD26
330
1F
100
AcDbEntity
  8
0
 48
0.5
100
AcDbLine
 10
124.1461075004895
 20
-1027.381285038986
 30
0.0
 11
63.64610750048996
 21
-1027.381285038986
 31
0.0
  0
LINE
  5
1AD27
330
1F
100
AcDbEntity
  8
0
 48
0.5
100
AcDbLine
 10
-23.83721501817524
 20
-1021.381285038986
 30
0.0
 11
-35.83721501817581
 21
-1021.381285038986
 31
0.0
  0
LINE
  5
1AD44
330
1F
100
AcDbEntity
  8
0
 48
0.5
100
AcDbLine
 10
-23.83721501817638
 20
-1036.881285038985
 30
0.0
 11
22.16278498182465
 21
-1036.881285038985
 31
0.0
  0
ARC
  5
1AD4C
330
1F
100
AcDbEntity
  8
0
 48
0.5
100
AcDbCircle
 10
-29.83721501817536
 20
-1024.381285038985
 30
0.0
 40
7.5
100
AcDbArc
 50
323.13010235415
 51
216.8698976458385
  0
LINE
  5
1ADFB
330
1F
100
AcDbEntity
  8
0
 48
0.5
100
AcDbLine
 10
-47.3372150181749
 20
-1001.881285038986
 30
0.0
 11
-45.8372150181749
 21
-1001.881285038986
 31
0.0
  0
LINE
  5
1ADFC
330
1F
100
AcDbEntity
  8
0
 48
0.5
100
AcDbLine
 10
-48.3372150181749
 20
-1036.881285038986
 30
0.0
 11
-45.8372150181749
 21
-1036.881285038985
 31
0.0
  0
LINE
  5
1ADFD
330
1F
100
AcDbEntity
  8
0
 48
0.5
100
AcDbLine
 10
-48.3372150181749
 20
-1011.881285038986
 30
0.0
 11
-48.3372150181749
 21
-1036.881285038986
 31
0.0
  0
ARC
  5
1ADFE
330
1F
100
AcDbEntity
  8
0
 48
0.5
100
AcDbCircle
 10
2.162784981825097
 20
-1011.881285038986
 30
0.0
 40
50.5
100
AcDbArc
 50
168.5788137249945
 51
180.0
  0
DIMENSION
  5
1AED0
330
1F
100
AcDbEntity
  8
尺寸线
 48
0.5
100
AcDbDimension
280
     0
  2
*D13
 10
134.1461075004899
 20
-1011.881285038986
 30
0.0
 11
120.0810292746381
 21
-1000.276782179674
 31
0.0
 70
    36
 71
     5
 42
10.0
 73
     0
 74
     0
 75
     0
  3
ISO-25
100
AcDbRadialDimension
 15
126.4325936753697
 25
-1005.517190093931
 35
0.0
 40
0.0
1001
ACAD
1000
DSTYLE
1002
{
1070
    42
1040
1.0
1070
    44
1040
1.0
1070
   143
1040
0.0393700787401575
1070
   147
1040
0.526
1070
   271
1070
     1
1070
   272
1070
     1
1070
   278
1070
    46
1070
   284
1070
     0
1070
   288
1070
     1
1070
   342
1005
111D
1002
}
  0
ENDSEC
  0
SECTION
  2
OBJECTS
  0
DICTIONARY
  5
C
330
0
100
AcDbDictionary
281
     1
  3
ACAD_CIP_PREVIOUS_PRODUCT_INFO
350
101AF67
  3
ACAD_COLOR
350
1D4
  3
ACAD_DETAILVIEWSTYLE
350
101AF61
  3
ACAD_GROUP
350
D
  3
ACAD_LAYOUT
350
1A
  3
ACAD_MATERIAL
350
1D3
  3
ACAD_MLEADERSTYLE
350
101AF5C
  3
ACAD_MLINESTYLE
350
17
  3
ACAD_PLOTSETTINGS
350
19
  3
ACAD_PLOTSTYLENAME
350
E
  3
ACAD_SCALELIST
350
101AF4A
  3
ACAD_SECTIONVIEWSTYLE
350
101AF5E
  3
ACAD_TABLESTYLE
350
1D5
  3
ACAD_VISUALSTYLE
350
101AF31
  3
AcadDim
350
158D3
  3
ACDB_RECOMPOSE_DATA
350
101AF96
  3
AcDbVariableDictionary
350
265
  0
DICTIONARY
  5
411
330
2
100
AcDbDictionary
280
     1
281
     1
  3
ACAD_LAYERFILTERS
360
4264
  3
ACLYDICTIONARY
360
4263
  0
DICTIONARY
  5
101AF68
330
10
100
AcDbDictionary
280
     1
281
     1
  3
ADSK_XREC_LAYER_RECONCILED
360
101AF69
  0
DICTIONARY
  5
101AF6A
330
40A
100
AcDbDictionary
280
     1
281
     1
  3
ADSK_XREC_LAYER_RECONCILED
360
101AF6B
  0
DICTIONARY
  5
101AF6C
330
40F
100
AcDbDictionary
280
     1
281
     1
  3
ADSK_XREC_LAYER_RECONCILED
360
101AF6D
  0
DICTIONARY
  5
101AF6E
330
410
100
AcDbDictionary
280
     1
281
     1
  3
ADSK_XREC_LAYER_RECONCILED
360
101AF6F
  0
DICTIONARY
  5
101AF70
330
281D
100
AcDbDictionary
280
     1
281
     1
  3
ADSK_XREC_LAYER_RECONCILED
360
101AF71
  0
DICTIONARY
  5
101AF72
330
4262
100
AcDbDictionary
280
     1
281
     1
  3
ADSK_XREC_LAYER_RECONCILED
360
101AF73
  0
DICTIONARY
  5
101AF74
330
CAEE
100
AcDbDictionary
280
     1
281
     1
  3
ADSK_XREC_LAYER_RECONCILED
360
101AF75
  0
DICTIONARY
  5
101AF76
330
CAF2
100
AcDbDictionary
280
     1
281
     1
  3
ADSK_XREC_LAYER_RECONCILED
360
101AF77
  0
DICTIONARY
  5
101AF78
330
1AE08
100
AcDbDictionary
280
     1
281
     1
  3
ADSK_XREC_LAYER_RECONCILED
360
101AF79
  0
DICTIONARY
  5
206
330
1F
100
AcDbDictionary
280
     1
281
     1
  3
ACAD_SORTENTS
360
207
  0
DICTIONARY
  5
1AEE6
330
1AEE3
100
AcDbDictionary
280
     1
281
     1
  3
ACAD_SORTENTS
360
1AEE7
  0
XRECORD
  5
101AF67
102
{ACAD_REACTORS
330
C
102
}
330
C
100
AcDbXrecord
280
     1
300
ACD
300
2017
300
ACD_F_S
  0
DICTIONARY
  5
1D4
102
{ACAD_REACTORS
330
C
102
}
330
C
100
AcDbDictionary
281
     1
  0
DICTIONARY
  5
101AF61
102
{ACAD_REACTORS
330
C
102
}
330
C
100
AcDbDictionary
281
     1
  3
Metric50
350
101AF62
  0
DICTIONARY
  5
D
102
{ACAD_REACTORS
330
C
102
}
330
C
100
AcDbDictionary
281
     1
  0
DICTIONARY
  5
1A
102
{ACAD_REACTORS
330
C
102
}
330
C
100
AcDbDictionary
281
     1
  3
Layout1
350
1E
  3
Layout2
350
26
  3
Model
350
22
  0
DICTIONARY
  5
1D3
102
{ACAD_REACTORS
330
C
102
}
330
C
100
AcDbDictionary
281
     1
  3
ByBlock
350
101AF21
  3
ByLayer
350
101AF19
  3
Global
350
101AF29
  0
DICTIONARY
  5
101AF5C
102
{ACAD_REACTORS
330
C
102
}
330
C
100
AcDbDictionary
281
     1
  3
Standard
350
101AF5D
  0
DICTIONARY
  5
17
102
{ACAD_REACTORS
330
C
102
}
330
C
100
AcDbDictionary
281
     1
  3
Standard
350
18
  0
DICTIONARY
  5
19
102
{ACAD_REACTORS
330
C
102
}
330
C
100
AcDbDictionary
281
     1
  0
ACDBDICTIONARYWDFLT
  5
E
102
{ACAD_REACTORS
330
C
102
}
330
C
100
AcDbDictionary
281
     1
  3
Normal
350
F
100
AcDbDictionaryWithDefault
340
F
  0
DICTIONARY
  5
101AF4A
102
{ACAD_REACTORS
330
C
102
}
330
C
100
AcDbDictionary
281
     1
  3
A0
350
101AF4B
  3
A1
350
101AF4C
  3
A2
350
101AF4D
  3
A3
350
101AF4E
  3
A4
350
101AF4F
  3
A5
350
101AF50
  3
A6
350
101AF51
  3
A7
350
101AF52
  3
A8
350
101AF53
  3
A9
350
101AF54
  3
B0
350
101AF55
  3
B1
350
101AF56
  3
B2
350
101AF57
  3
B3
350
101AF58
  3
B4
350
101AF59
  3
B5
350
101AF5A
  3
B6
350
101AF5B
  0
DICTIONARY
  5
101AF5E
102
{ACAD_REACTORS
330
C
102
}
330
C
100
AcDbDictionary
281
     1
  3
Metric50
350
101AF60
  0
DICTIONARY
  5
1D5
102
{ACAD_REACTORS
330
C
102
}
330
C
100
AcDbDictionary
281
     1
  3
Standard
350
1D6
  0
DICTIONARY
  5
101AF31
102
{ACAD_REACTORS
330
C
102
}
330
C
100
AcDbDictionary
281
     1
  3
2dWireframe
350
101AF37
  3
Basic
350
101AF36
  3
Brighten
350
101AF3D
  3
ColorChange
350
101AF41
  3
Conceptual
350
101AF3A
  3
Dim
350
101AF3C
  3
EdgeColorOff
350
101AF49
  3
Facepattern
350
101AF40
  3
Flat
350
101AF32
  3
FlatWithEdges
350
101AF33
  3
Gouraud
350
101AF34
  3
GouraudWithEdges
350
101AF35
  3
Hidden
350
101AF39
  3
JitterOff
350
101AF47
  3
Linepattern
350
101AF3F
  3
OverhangOff
350
101AF48
  3
Realistic
350
101AF3B
  3
Shaded
350
101AF46
  3
Shaded with edges
350
101AF45
  3
Shades of Gray
350
101AF42
  3
Sketchy
350
101AF43
  3
Thicken
350
101AF3E
  3
Wireframe
350
101AF38
  3
X-Ray
350
101AF44
  0
XRECORD
  5
158D3
102
{ACAD_REACTORS
330
C
102
}
330
C
100
AcDbXrecord
280
     1
 90
   990106
  3

 60
     0
 61
     0
 62
     1
 63
     3
 64
     0
 65
     0
 66
     0
 67
     3
 68
     1
 69
     0
 70
     0
 71
     0
 72
     0
 40
51.92405077377407
170
     0
340
0
  0
XRECORD
  5
101AF96
102
{ACAD_REACTORS
330
C
102
}
330
C
100
AcDbXrecord
280
     1
 90
        1
330
1D6
330
101AF60
330
101AF62
  0
DICTIONARY
  5
265
102
{ACAD_REACTORS
330
C
102
}
330
C
100
AcDbDictionary
281
     1
  3
CANNOSCALE
350
101AF8C
  3
CMLEADERSTYLE
350
101AF88
  3
CTABLESTYLE
350
266
  3
CVIEWDETAILSTYLE
350
101AF89
  3
CVIEWSECTIONSTYLE
350
101AF8A
  3
DIMASSOC
350
1A744
  3
LAYEREVAL
350
101AF8E
  3
LAYERNOTIFY
350
101AF8F
  3
LIGHTINGUNITS
350
101AF8D
  3
MSLTSCALE
350
101AF8B
  3
PROJECTNAME
350
1A745
  0
DICTIONARY
  5
4264
102
{ACAD_REACTORS
330
411
102
}
330
411
100
AcDbDictionary
281
     1
  0
DICTIONARY
  5
4263
102
{ACAD_REACTORS
330
411
102
}
330
411
100
AcDbDictionary
281
     1
1001
ACAD
1000
<All
  0
XRECORD
  5
101AF69
102
{ACAD_REACTORS
330
101AF68
102
}
330
101AF68
100
AcDbXrecord
280
     1
290
     1
  0
XRECORD
  5
101AF6B
102
{ACAD_REACTORS
330
101AF6A
102
}
330
101AF6A
100
AcDbXrecord
280
     1
290
     1
  0
XRECORD
  5
101AF6D
102
{ACAD_REACTORS
330
101AF6C
102
}
330
101AF6C
100
AcDbXrecord
280
     1
290
     1
  0
XRECORD
  5
101AF6F
102
{ACAD_REACTORS
330
101AF6E
102
}
330
101AF6E
100
AcDbXrecord
280
     1
290
     1
  0
XRECORD
  5
101AF71
102
{ACAD_REACTORS
330
101AF70
102
}
330
101AF70
100
AcDbXrecord
280
     1
290
     1
  0
XRECORD
  5
101AF73
102
{ACAD_REACTORS
330
101AF72
102
}
330
101AF72
100
AcDbXrecord
280
     1
290
     1
  0
XRECORD
  5
101AF75
102
{ACAD_REACTORS
330
101AF74
102
}
330
101AF74
100
AcDbXrecord
280
     1
290
     1
  0
XRECORD
  5
101AF77
102
{ACAD_REACTORS
330
101AF76
102
}
330
101AF76
100
AcDbXrecord
280
     1
290
     1
  0
XRECORD
  5
101AF79
102
{ACAD_REACTORS
330
101AF78
102
}
330
101AF78
100
AcDbXrecord
280
     1
290
     1
  0
SORTENTSTABLE
  5
207
102
{ACAD_REACTORS
330
206
102
}
330
206
100
AcDbSortentsTable
330
1F
331
C85C
  5
C8D9
331
C864
  5
C8F2
331
C860
  5
C8E8
331
D81D
  5
C898
331
1AD44
  5
C899
331
D97D
  5
DBB9
331
D979
  5
D9B3
331
DACE
  5
DC28
331
DB3D
  5
DC57
331
C850
  5
C8B1
331
DB06
  5
DC44
331
1AD26
  5
1AD27
331
C85D
  5
C8DB
331
C859
  5
C8C4
331
C865
  5
CCAF
331
C861
  5
C8E9
331
D81A
  5
C8AB
331
C794
  5
C89E
331
C855
  5
C8C2
331
C851
  5
C8BB
331
DB46
  5
DC58
331
1AD27
  5
1AD44
331
C85E
  5
C8C5
331
C85A
  5
C8D4
331
C862
  5
C8EA
331
C789
  5
C89A
331
D81B
  5
C8AA
331
DB53
  5
DC59
331
DB22
  5
DC54
331
D893
  5
D9B1
331
D97B
  5
D9B5
331
C856
  5
C8D8
331
C852
  5
C8BD
331
1AD24
  5
1AD25
331
C85F
  5
C8C6
331
C85B
  5
C8D5
331
C863
  5
C8EE
331
D81C
  5
D994
331
C796
  5
C8A7
331
C792
  5
C89B
331
C7A2
  5
C8A9
331
D978
  5
D9B2
331
DB2B
  5
DC55
331
DB60
  5
1AD03
331
C81F
  5
C8AD
331
C84F
  5
C8AF
331
DB34
  5
DC56
331
C857
  5
C8C3
331
C853
  5
C8BF
331
DAF9
  5
DC2A
331
1AD25
  5
1AD26
  0
SORTENTSTABLE
  5
1AEE7
102
{ACAD_REACTORS
330
1AEE6
102
}
330
1AEE6
100
AcDbSortentsTable
330
1AEE3
  0
ACDBDETAILVIEWSTYLE
  5
101AF62
102
{ACAD_XDICTIONARY
360
101AF94
102
}
102
{ACAD_REACTORS
330
101AF61
102
}
330
101AF61
100
AcDbModelDocViewStyle
 70
     0
  3
Metric50
290
     0
100
AcDbDetailViewStyle
 70
     0
 71
     0
 90
        3
 71
     1
340
11
 62
   256
 40
5.0
340
0
 62
   256
 40
5.0
300

 40
0.0
280
     1
 71
     2
340
16
 90
       25
 62
   256
 71
     3
340
11
 62
   256
 40
5.0
 90
        0
 40
15.0
 90
        1
300
%<\AcVar ViewDetailId>% (%<\AcVar ViewScale \f "%sn">%)
 71
     4
340
16
 90
       25
 62
   256
340
16
 90
       25
 62
   256
280
     0
  0
LAYOUT
  5
1E
102
{ACAD_REACTORS
330
1A
102
}
330
1A
100
AcDbPlotSettings
  1

  2

  4

  6

 40
0.0
 41
0.0
 42
0.0
 43
0.0
 44
0.0
 45
0.0
 46
0.0
 47
0.0
 48
0.0
 49
0.0
140
0.0
141
0.0
142
1.0
143
1.0
 70
   688
 72
     0
 73
     0
 74
     5
  7

 75
    16
147
1.0
 76
     0
 77
     2
 78
   300
148
0.0
149
0.0
100
AcDbLayout
  1
Layout1
 70
     1
 71
     1
 10
0.0
 20
0.0
 11
420.0
 21
297.0
 12
0.0
 22
0.0
 32
0.0
 14
1.000000000000000E+20
 24
1.000000000000000E+20
 34
1.000000000000000E+20
 15
-1.000000000000000E+20
 25
-1.000000000000000E+20
 35
-1.000000000000000E+20
146
0.0
 13
0.0
 23
0.0
 33
0.0
 16
1.0
 26
0.0
 36
0.0
 17
0.0
 27
1.0
 37
0.0
 76
     0
330
1B
  0
LAYOUT
  5
26
102
{ACAD_REACTORS
330
1A
102
}
330
1A
100
AcDbPlotSettings
  1

  2

  4

  6

 40
0.0
 41
0.0
 42
0.0
 43
0.0
 44
0.0
 45
0.0
 46
0.0
 47
0.0
 48
0.0
 49
0.0
140
0.0
141
0.0
142
1.0
143
1.0
 70
   688
 72
     0
 73
     0
 74
     5
  7

 75
    16
147
1.0
 76
     0
 77
     2
 78
   300
148
0.0
149
0.0
100
AcDbLayout
  1
Layout2
 70
     1
 71
     2
 10
0.0
 20
0.0
 11
0.0
 21
0.0
 12
0.0
 22
0.0
 32
0.0
 14
0.0
 24
0.0
 34
0.0
 15
0.0
 25
0.0
 35
0.0
146
0.0
 13
0.0
 23
0.0
 33
0.0
 16
1.0
 26
0.0
 36
0.0
 17
0.0
 27
1.0
 37
0.0
 76
     0
330
23
  0
LAYOUT
  5
22
102
{ACAD_REACTORS
330
1A
102
}
330
1A
100
AcDbPlotSettings
  1

  2
Adobe PDF
  4
A4
  6

 40
3.174999952316284
 41
3.174999952316284
 42
3.175003051757812
 43
3.17498779296875
 44
209.9733276367187
 45
297.0318298339844
 46
0.0
 47
0.0
 48
0.0
 49
0.0
140
0.0
141
0.0
142
1.0
143
0.7475498042581874
 70
 11952
 72
     1
 73
     1
 74
     0
  7

 75
     0
147
1.337703513938212
 76
     0
 77
     2
 78
   300
148
-62.04520941299825
149
-114.2038463351312
100
AcDbLayout
  1
Model
 70
     1
 71
     0
 10
0.0
 20
0.0
 11
0.0
 21
0.0
 12
0.0
 22
0.0
 32
0.0
 14
0.0
 24
0.0
 34
0.0
 15
297.0
 25
210.0
 35
0.0
146
0.0
 13
0.0
 23
0.0
 33
0.0
 16
1.0
 26
0.0
 36
0.0
 17
0.0
 27
1.0
 37
0.0
 76
     0
330
1F
331
1AF10
1001
ACAD_PSEXT
1000
Adobe PDF
1000
Adobe PDF Converter
1000
My Documents
1000

1070
     0
  0
MATERIAL
  5
101AF21
102
{ACAD_XDICTIONARY
360
101AF22
102
}
102
{ACAD_REACTORS
330
1D3
102
}
330
1D3
100
AcDbMaterial
  1
ByBlock
 72
     0
 43
0.0008202099737533
 43
0.0
 43
0.0
 43
0.0
 43
0.0
 43
0.0008202099737533
 43
0.0
 43
0.0
 43
0.0
 43
0.0
 43
1.0
 43
0.0
 43
0.0
 43
0.0
 43
0.0
 43
1.0
 77
     0
 47
0.0008202099737533
 47
0.0
 47
0.0
 47
0.0
 47
0.0
 47
0.0008202099737533
 47
0.0
 47
0.0
 47
0.0
 47
0.0
 47
1.0
 47
0.0
 47
0.0
 47
0.0
 47
0.0
 47
1.0
171
     0
 49
0.0008202099737533
 49
0.0
 49
0.0
 49
0.0
 49
0.0
 49
0.0008202099737533
 49
0.0
 49
0.0
 49
0.0
 49
0.0
 49
1.0
 49
0.0
 49
0.0
 49
0.0
 49
0.0
 49
1.0
175
     0
142
0.0008202099737533
142
0.0
142
0.0
142
0.0
142
0.0
142
0.0008202099737533
142
0.0
142
0.0
142
0.0
142
0.0
142
1.0
142
0.0
142
0.0
142
0.0
142
0.0
142
1.0
179
     0
144
0.0008202099737533
144
0.0
144
0.0
144
0.0
144
0.0
144
0.0008202099737533
144
0.0
144
0.0
144
0.0
144
0.0
144
1.0
144
0.0
144
0.0
144
0.0
144
0.0
144
1.0
147
0.0008202099737533
147
0.0
147
0.0
147
0.0
147
0.0
147
0.0008202099737533
147
0.0
147
0.0
147
0.0
147
0.0
147
1.0
147
0.0
147
0.0
147
0.0
147
0.0
147
1.0
  0
MATERIAL
  5
101AF19
102
{ACAD_XDICTIONARY
360
101AF1A
102
}
102
{ACAD_REACTORS
330
1D3
102
}
330
1D3
100
AcDbMaterial
  1
ByLayer
 72
     0
 43
0.0008202099737533
 43
0.0
 43
0.0
 43
0.0
 43
0.0
 43
0.0008202099737533
 43
0.0
 43
0.0
 43
0.0
 43
0.0
 43
1.0
 43
0.0
 43
0.0
 43
0.0
 43
0.0
 43
1.0
 77
     0
 47
0.0008202099737533
 47
0.0
 47
0.0
 47
0.0
 47
0.0
 47
0.0008202099737533
 47
0.0
 47
0.0
 47
0.0
 47
0.0
 47
1.0
 47
0.0
 47
0.0
 47
0.0
 47
0.0
 47
1.0
171
     0
 49
0.0008202099737533
 49
0.0
 49
0.0
 49
0.0
 49
0.0
 49
0.0008202099737533
 49
0.0
 49
0.0
 49
0.0
 49
0.0
 49
1.0
 49
0.0
 49
0.0
 49
0.0
 49
0.0
 49
1.0
175
     0
142
0.0008202099737533
142
0.0
142
0.0
142
0.0
142
0.0
142
0.0008202099737533
142
0.0
142
0.0
142
0.0
142
0.0
142
1.0
142
0.0
142
0.0
142
0.0
142
0.0
142
1.0
179
     0
144
0.0008202099737533
144
0.0
144
0.0
144
0.0
144
0.0
144
0.0008202099737533
144
0.0
144
0.0
144
0.0
144
0.0
144
1.0
144
0.0
144
0.0
144
0.0
144
0.0
144
1.0
147
0.0008202099737533
147
0.0
147
0.0
147
0.0
147
0.0
147
0.0008202099737533
147
0.0
147
0.0
147
0.0
147
0.0
147
1.0
147
0.0
147
0.0
147
0.0
147
0.0
147
1.0
  0
MATERIAL
  5
101AF29
102
{ACAD_XDICTIONARY
360
101AF2A
102
}
102
{ACAD_REACTORS
330
1D3
102
}
330
1D3
100
AcDbMaterial
  1
Global
 72
     0
 43
0.0008202099737533
 43
0.0
 43
0.0
 43
0.0
 43
0.0
 43
0.0008202099737533
 43
0.0
 43
0.0
 43
0.0
 43
0.0
 43
1.0
 43
0.0
 43
0.0
 43
0.0
 43
0.0
 43
1.0
 77
     0
 47
0.0008202099737533
 47
0.0
 47
0.0
 47
0.0
 47
0.0
 47
0.0008202099737533
 47
0.0
 47
0.0
 47
0.0
 47
0.0
 47
1.0
 47
0.0
 47
0.0
 47
0.0
 47
0.0
 47
1.0
171
     0
 49
0.0008202099737533
 49
0.0
 49
0.0
 49
0.0
 49
0.0
 49
0.0008202099737533
 49
0.0
 49
0.0
 49
0.0
 49
0.0
 49
1.0
 49
0.0
 49
0.0
 49
0.0
 49
0.0
 49
1.0
175
     0
142
0.0008202099737533
142
0.0
142
0.0
142
0.0
142
0.0
142
0.0008202099737533
142
0.0
142
0.0
142
0.0
142
0.0
142
1.0
142
0.0
142
0.0
142
0.0
142
0.0
142
1.0
179
     0
144
0.0008202099737533
144
0.0
144
0.0
144
0.0
144
0.0
144
0.0008202099737533
144
0.0
144
0.0
144
0.0
144
0.0
144
1.0
144
0.0
144
0.0
144
0.0
144
0.0
144
1.0
147
0.0008202099737533
147
0.0
147
0.0
147
0.0
147
0.0
147
0.0008202099737533
147
0.0
147
0.0
147
0.0
147
0.0
147
1.0
147
0.0
147
0.0
147
0.0
147
0.0
147
1.0
  0
MLEADERSTYLE
  5
101AF5D
102
{ACAD_REACTORS
330
101AF5C
102
}
330
101AF5C
100
AcDbMLeaderStyle
179
     2
170
     2
171
     1
172
     0
 90
        2
 40
0.0
 41
0.0
173
     1
 91
-1056964608
340
14
 92
       -2
290
     1
 42
2.0
291
     1
 43
0.36
  3
Standard
 44
4.0
300

342
11
174
     1
178
     6
175
     1
176
     0
 93
-1056964608
 45
4.0
292
     0
297
     0
 46
4.0
 94
-1056964608
 47
1.0
 49
1.0
140
1.0
293
     1
141
0.0
294
     1
177
     0
142
1.0
295
     1
296
     0
143
0.125
271
     0
272
     9
273
     9
298
     1
  0
MLINESTYLE
  5
18
102
{ACAD_REACTORS
330
17
102
}
330
17
100
AcDbMlineStyle
  2
STANDARD
 70
     0
  3

 62
   256
 51
90.0
 52
90.0
 71
     2
 49
0.5
 62
   256
  6
BYLAYER
 49
-0.5
 62
   256
  6
BYLAYER
  0
ACDBPLACEHOLDER
  5
F
102
{ACAD_REACTORS
330
E
102
}
330
E
  0
SCALE
  5
101AF4B
102
{ACAD_REACTORS
330
101AF4A
102
}
330
101AF4A
100
AcDbScale
 70
     0
300
1:1
140
1.0
141
1.0
290
     1
  0
SCALE
  5
101AF4C
102
{ACAD_REACTORS
330
101AF4A
102
}
330
101AF4A
100
AcDbScale
 70
     0
300
1:2
140
1.0
141
2.0
290
     0
  0
SCALE
  5
101AF4D
102
{ACAD_REACTORS
330
101AF4A
102
}
330
101AF4A
100
AcDbScale
 70
     0
300
1:4
140
1.0
141
4.0
290
     0
  0
SCALE
  5
101AF4E
102
{ACAD_REACTORS
330
101AF4A
102
}
330
101AF4A
100
AcDbScale
 70
     0
300
1:5
140
1.0
141
5.0
290
     0
  0
SCALE
  5
101AF4F
102
{ACAD_REACTORS
330
101AF4A
102
}
330
101AF4A
100
AcDbScale
 70
     0
300
1:8
140
1.0
141
8.0
290
     0
  0
SCALE
  5
101AF50
102
{ACAD_REACTORS
330
101AF4A
102
}
330
101AF4A
100
AcDbScale
 70
     0
300
1:10
140
1.0
141
10.0
290
     0
  0
SCALE
  5
101AF51
102
{ACAD_REACTORS
330
101AF4A
102
}
330
101AF4A
100
AcDbScale
 70
     0
300
1:16
140
1.0
141
16.0
290
     0
  0
SCALE
  5
101AF52
102
{ACAD_REACTORS
330
101AF4A
102
}
330
101AF4A
100
AcDbScale
 70
     0
300
1:20
140
1.0
141
20.0
290
     0
  0
SCALE
  5
101AF53
102
{ACAD_REACTORS
330
101AF4A
102
}
330
101AF4A
100
AcDbScale
 70
     0
300
1:30
140
1.0
141
30.0
290
     0
  0
SCALE
  5
101AF54
102
{ACAD_REACTORS
330
101AF4A
102
}
330
101AF4A
100
AcDbScale
 70
     0
300
1:40
140
1.0
141
40.0
290
     0
  0
SCALE
  5
101AF55
102
{ACAD_REACTORS
330
101AF4A
102
}
330
101AF4A
100
AcDbScale
 70
     0
300
1:50
140
1.0
141
50.0
290
     0
  0
SCALE
  5
101AF56
102
{ACAD_REACTORS
330
101AF4A
102
}
330
101AF4A
100
AcDbScale
 70
     0
300
1:100
140
1.0
141
100.0
290
     0
  0
SCALE
  5
101AF57
102
{ACAD_REACTORS
330
101AF4A
102
}
330
101AF4A
100
AcDbScale
 70
     0
300
2:1
140
2.0
141
1.0
290
     0
  0
SCALE
  5
101AF58
102
{ACAD_REACTORS
330
101AF4A
102
}
330
101AF4A
100
AcDbScale
 70
     0
300
4:1
140
4.0
141
1.0
290
     0
  0
SCALE
  5
101AF59
102
{ACAD_REACTORS
330
101AF4A
102
}
330
101AF4A
100
AcDbScale
 70
     0
300
8:1
140
8.0
141
1.0
290
     0
  0
SCALE
  5
101AF5A
102
{ACAD_REACTORS
330
101AF4A
102
}
330
101AF4A
100
AcDbScale
 70
     0
300
10:1
140
10.0
141
1.0
290
     0
  0
SCALE
  5
101AF5B
102
{ACAD_REACTORS
330
101AF4A
102
}
330
101AF4A
100
AcDbScale
 70
     0
300
100:1
140
100.0
141
1.0
290
     0
  0
ACDBSECTIONVIEWSTYLE
  5
101AF60
102
{ACAD_XDICTIONARY
360
101AF92
102
}
102
{ACAD_REACTORS
330
101AF5E
102
}
330
101AF5E
100
AcDbModelDocViewStyle
 70
     0
  3
Metric50
290
     0
100
AcDbSectionViewStyle
 70
     0
 71
     0
 90
      102
 71
     1
340
11
 62
   256
 40
5.0
340
0
340
0
 62
   256
 40
5.0
300
I, O, Q, S, X, Z
 40
10.0
 90
        0
 40
2.5
 90
        0
 71
     2
340
16
 90
       25
 62
   256
340
16
 90
       50
 62
   256
 40
5.0
 40
2.5
 40
5.0
 71
     3
340
11
 62
   256
 40
5.0
 90
        0
 40
15.0
 90
        1
300
%<\AcVar ViewSectionStartId>%-%<\AcVar ViewSectionEndId>% (%<\AcVar ViewScale \f "%sn">%)
 71
     4
 62
   256
 62
   257
300
ANSI31
 40
1.0
 90
        0
290
     0
290
     0
 90
        6
 40
0.0
 40
1.570796326794896
 40
0.2617993877991494
 40
1.308996938995747
 40
-0.2617993877991494
 40
1.832595714594046
  0
TABLESTYLE
  5
1D6
102
{ACAD_XDICTIONARY
360
101AF90
102
}
102
{ACAD_REACTORS
330
1D5
102
}
330
1D5
100
AcDbTableStyle
280
     0
  3
Standard
 70
     0
 71
     0
 40
1.5
 41
1.5
280
     0
281
     0
  7
Standard
140
4.5
170
     2
 62
     0
 63
     7
283
     0
 90
        4
 91
        0
  1

274
    -2
284
     1
 64
     0
275
    -2
285
     1
 65
     0
276
    -2
286
     1
 66
     0
277
    -2
287
     1
 67
     0
278
    -2
288
     1
 68
     0
279
    -2
289
     1
 69
     0
  7
Standard
140
6.0
170
     5
 62
     0
 63
     7
283
     0
 90
        4
 91
        0
  1

274
    -2
284
     1
 64
     0
275
    -2
285
     1
 65
     0
276
    -2
286
     1
 66
     0
277
    -2
287
     1
 67
     0
278
    -2
288
     1
 68
     0
279
    -2
289
     1
 69
     0
  7
Standard
140
4.5
170
     5
 62
     0
 63
     7
283
     0
 90
        4
 91
        0
  1

274
    -2
284
     1
 64
     0
275
    -2
285
     1
 65
     0
276
    -2
286
     1
 66
     0
277
    -2
287
     1
 67
     0
278
    -2
288
     1
 68
     0
279
    -2
289
     1
 69
     0
  0
VISUALSTYLE
  5
101AF37
102
{ACAD_REACTORS
330
101AF31
102
}
330
101AF31
100
AcDbVisualStyle
  2
2dWireframe
 70
     4
177
     3
291
     0
 70
    58
 90
        0
176
     1
 90
        2
176
     1
 90
        0
176
     1
 90
        0
176
     1
 40
0.6
176
     1
 40
30.0
176
     1
 62
     7
420
 16777215
176
     1
 90
        1
176
     1
 90
        4
176
     1
 62
     7
176
     1
 62
   257
176
     1
 90
        1
176
     1
 90
        1
176
     1
 40
1.0
176
     1
 90
        0
176
     1
 62
   257
176
     1
 40
1.0
176
     1
 90
        1
176
     1
 90
        6
176
     1
 90
        2
176
     1
 62
     7
176
     1
 90
        5
176
     1
 90
        0
176
     1
 90
        0
176
     1
290
     0
176
     1
 90
        1
176
     1
 40
0.0
176
     1
 90
        0
176
     1
290
     1
176
     1
290
     1
176
     1
290
     0
176
     1
290
     0
176
     1
290
     0
176
     1
290
     0
176
     1
290
     0
176
     1
290
     0
176
     1
290
     0
176
     1
 90
       50
176
     1
 40
0.0
176
     1
 40
1.0
176
     1
 90
        0
176
     1
 62
    18
420
        0
176
     1
 90
       50
176
     1
 90
        3
176
     1
 62
     5
420
      255
176
     1
290
     0
176
     1
 90
       50
176
     1
 90
       50
176
     1
 90
       50
176
     1
290
     0
176
     1
 90
       50
176
     1
 62
   256
176
     0
 40
1.0
176
     0
 90
        2
176
     1
  1
strokes_ogs.tif
176
     1
290
     0
176
     1
 40
1.0
176
     1
 40
1.0
176
     1
  0
VISUALSTYLE
  5
101AF36
102
{ACAD_REACTORS
330
101AF31
102
}
330
101AF31
100
AcDbVisualStyle
  2
Basic
 70
     7
177
     3
291
     1
 70
    58
 90
        1
176
     1
 90
        0
176
     1
 90
        1
176
     1
 90
        0
176
     1
 40
0.6
176
     1
 40
30.0
176
     1
 62
     7
420
 16777215
176
     1
 90
        0
176
     1
 90
        4
176
     1
 62
     7
176
     1
 62
   257
176
     1
 90
        1
176
     1
 90
        1
176
     1
 40
1.0
176
     1
 90
        8
176
     1
 62
     7
176
     1
 40
1.0
176
     1
 90
        1
176
     1
 90
        6
176
     1
 90
        2
176
     1
 62
     7
176
     1
 90
        5
176
     1
 90
        0
176
     1
 90
        0
176
     1
290
     0
176
     1
 90
        1
176
     1
 40
0.0
176
     1
 90
        0
176
     1
290
     0
176
     1
290
     1
176
     1
290
     1
176
     1
290
     0
176
     1
290
     0
176
     1
290
     0
176
     1
290
     0
176
     1
290
     0
176
     1
290
     0
176
     1
 90
       50
176
     1
 40
0.0
176
     1
 40
1.0
176
     1
 90
        0
176
     1
 62
    18
420
        0
176
     1
 90
       50
176
     1
 90
        3
176
     1
 62
     5
420
      255
176
     1
290
     0
176
     1
 90
       50
176
     1
 90
       50
176
     1
 90
       50
176
     1
290
     0
176
     1
 90
       50
176
     1
 62
   256
176
     0
 40
1.0
176
     0
 90
        2
176
     1
  1
strokes_ogs.tif
176
     1
290
     0
176
     1
 40
1.0
176
     1
 40
1.0
176
     1
  0
VISUALSTYLE
  5
101AF3D
102
{ACAD_REACTORS
330
101AF31
102
}
330
101AF31
100
AcDbVisualStyle
  2
Brighten
 70
    12
177
     3
291
     1
 70
    58
 90
        2
176
     1
 90
        2
176
     1
 90
        0
176
     1
 90
        0
176
     1
 40
0.6
176
     1
 40
30.0
176
     1
 62
     7
420
 16777215
176
     1
 90
        1
176
     1
 90
        4
176
     1
 62
     7
176
     1
 62
   257
176
     1
 90
        1
176
     1
 90
        1
176
     1
 40
1.0
176
     1
 90
        8
176
     1
 62
     7
176
     1
 40
1.0
176
     1
 90
        1
176
     1
 90
        6
176
     1
 90
        2
176
     1
 62
     7
176
     1
 90
        5
176
     1
 90
        0
176
     1
 90
        0
176
     1
290
     0
176
     1
 90
        1
176
     1
 40
50.0
176
     1
 90
        0
176
     1
290
     0
176
     1
290
     1
176
     1
290
     1
176
     1
290
     0
176
     1
290
     0
176
     1
290
     0
176
     1
290
     0
176
     1
290
     0
176
     1
290
     0
176
     1
 90
       50
176
     1
 40
0.0
176
     1
 40
1.0
176
     1
 90
        0
176
     1
 62
    18
420
        0
176
     1
 90
       50
176
     1
 90
        3
176
     1
 62
     5
420
      255
176
     1
290
     0
176
     1
 90
       50
176
     1
 90
       50
176
     1
 90
       50
176
     1
290
     0
176
     1
 90
       50
176
     1
 62
   256
176
     0
 40
1.0
176
     0
 90
        2
176
     1
  1
strokes_ogs.tif
176
     1
290
     0
176
     1
 40
1.0
176
     1
 40
1.0
176
     1
  0
VISUALSTYLE
  5
101AF41
102
{ACAD_REACTORS
330
101AF31
102
}
330
101AF31
100
AcDbVisualStyle
  2
ColorChange
 70
    16
177
     3
291
     1
 70
    58
 90
        2
176
     1
 90
        2
176
     1
 90
        3
176
     1
 90
        0
176
     1
 40
0.6
176
     1
 40
30.0
176
     1
 62
     8
420
  8421504
176
     1
 90
        1
176
     1
 90
        4
176
     1
 62
     7
176
     1
 62
   257
176
     1
 90
        1
176
     1
 90
        1
176
     1
 40
1.0
176
     1
 90
        8
176
     1
 62
     8
420
  8421504
176
     1
 40
1.0
176
     1
 90
        1
176
     1
 90
        6
176
     1
 90
        2
176
     1
 62
     7
176
     1
 90
        5
176
     1
 90
        0
176
     1
 90
        0
176
     1
290
     0
176
     1
 90
        1
176
     1
 40
0.0
176
     1
 90
        0
176
     1
290
     0
176
     1
290
     1
176
     1
290
     1
176
     1
290
     0
176
     1
290
     0
176
     1
290
     0
176
     1
290
     0
176
     1
290
     0
176
     1
290
     0
176
     1
 90
       50
176
     1
 40
0.0
176
     1
 40
1.0
176
     1
 90
        0
176
     1
 62
    18
420
        0
176
     1
 90
       50
176
     1
 90
        3
176
     1
 62
     5
420
      255
176
     1
290
     0
176
     1
 90
       50
176
     1
 90
       50
176
     1
 90
       50
176
     1
290
     0
176
     1
 90
       50
176
     1
 62
   256
176
     0
 40
1.0
176
     0
 90
        2
176
     1
  1
strokes_ogs.tif
176
     1
290
     0
176
     1
 40
1.0
176
     1
 40
1.0
176
     1
  0
VISUALSTYLE
  5
101AF3A
102
{ACAD_REACTORS
330
101AF31
102
}
330
101AF31
100
AcDbVisualStyle
  2
Conceptual
 70
     9
177
     3
291
     0
 70
    58
 90
        3
176
     1
 90
        2
176
     1
 90
        0
176
     1
 90
        0
176
     1
 40
0.6
176
     1
 40
30.0
176
     1
 62
     7
420
 16777215
176
     1
 90
        2
176
     1
 90
        2
176
     1
 62
     7
176
     1
 62
   257
176
     1
 90
        1
176
     1
 90
        1
176
     1
 40
179.0
176
     1
 90
        8
176
     1
 62
     7
176
     1
 40
1.0
176
     1
 90
        1
176
     1
 90
        6
176
     1
 90
        2
176
     1
 62
     7
176
     1
 90
        3
176
     1
 90
        0
176
     1
 90
        0
176
     1
290
     0
176
     1
 90
        1
176
     1
 40
0.0
176
     1
 90
        0
176
     1
290
     0
176
     1
290
     1
176
     1
290
     1
176
     1
290
     0
176
     1
290
     0
176
     1
290
     0
176
     1
290
     0
176
     1
290
     0
176
     1
290
     0
176
     1
 90
       50
176
     1
 40
0.0
176
     1
 40
1.0
176
     1
 90
        0
176
     1
 62
    18
420
        0
176
     1
 90
       50
176
     1
 90
        3
176
     1
 62
     5
420
      255
176
     1
290
     0
176
     1
 90
       50
176
     1
 90
       50
176
     1
 90
       50
176
     1
290
     0
176
     1
 90
       50
176
     1
 62
   256
176
     0
 40
1.0
176
     0
 90
        2
176
     1
  1
strokes_ogs.tif
176
     1
290
     0
176
     1
 40
1.0
176
     1
 40
1.0
176
     1
  0
VISUALSTYLE
  5
101AF3C
102
{ACAD_REACTORS
330
101AF31
102
}
330
101AF31
100
AcDbVisualStyle
  2
Dim
 70
    11
177
     3
291
     1
 70
    58
 90
        2
176
     1
 90
        2
176
     1
 90
        0
176
     1
 90
        0
176
     1
 40
0.6
176
     1
 40
30.0
176
     1
 62
     7
420
 16777215
176
     1
 90
        1
176
     1
 90
        4
176
     1
 62
     7
176
     1
 62
   257
176
     1
 90
        1
176
     1
 90
        1
176
     1
 40
1.0
176
     1
 90
        8
176
     1
 62
     7
176
     1
 40
1.0
176
     1
 90
        1
176
     1
 90
        6
176
     1
 90
        2
176
     1
 62
     7
176
     1
 90
        5
176
     1
 90
        0
176
     1
 90
        0
176
     1
290
     0
176
     1
 90
        1
176
     1
 40
-50.0
176
     1
 90
        0
176
     1
290
     0
176
     1
290
     1
176
     1
290
     1
176
     1
290
     0
176
     1
290
     0
176
     1
290
     0
176
     1
290
     0
176
     1
290
     0
176
     1
290
     0
176
     1
 90
       50
176
     1
 40
0.0
176
     1
 40
1.0
176
     1
 90
        0
176
     1
 62
    18
420
        0
176
     1
 90
       50
176
     1
 90
        3
176
     1
 62
     5
420
      255
176
     1
290
     0
176
     1
 90
       50
176
     1
 90
       50
176
     1
 90
       50
176
     1
290
     0
176
     1
 90
       50
176
     1
 62
   256
176
     0
 40
1.0
176
     0
 90
        2
176
     1
  1
strokes_ogs.tif
176
     1
290
     0
176
     1
 40
1.0
176
     1
 40
1.0
176
     1
  0
VISUALSTYLE
  5
101AF49
102
{ACAD_REACTORS
330
101AF31
102
}
330
101AF31
100
AcDbVisualStyle
  2
EdgeColorOff
 70
    22
177
     3
291
     1
 70
    58
 90
        2
176
     0
 90
        2
176
     0
 90
        0
176
     0
 90
        0
176
     0
 40
0.6
176
     0
 40
30.0
176
     0
 62
     7
420
 16777215
176
     0
 90
        1
176
     0
 90
        4
176
     0
 62
     7
176
     0
 62
   257
176
     0
 90
        1
176
     0
 90
        1
176
     0
 40
1.0
176
     0
 90
        8
176
     2
 62
     7
176
     0
 40
1.0
176
     0
 90
        1
176
     0
 90
        6
176
     0
 90
        2
176
     0
 62
     7
176
     0
 90
        5
176
     0
 90
        0
176
     0
 90
        0
176
     0
290
     0
176
     0
 90
        1
176
     0
 40
0.0
176
     0
 90
        0
176
     0
290
     0
176
     0
290
     1
176
     0
290
     1
176
     0
290
     0
176
     0
290
     0
176
     0
290
     0
176
     0
290
     0
176
     0
290
     0
176
     0
290
     0
176
     0
 90
       50
176
     0
 40
0.0
176
     0
 40
1.0
176
     0
 90
        0
176
     0
 62
    18
420
        0
176
     0
 90
       50
176
     0
 90
        3
176
     0
 62
     5
420
      255
176
     0
290
     0
176
     0
 90
       50
176
     0
 90
       50
176
     0
 90
       50
176
     0
290
     0
176
     0
 90
       50
176
     0
 62
   256
176
     0
 40
1.0
176
     0
 90
        2
176
     0
  1
strokes_ogs.tif
176
     0
290
     0
176
     0
 40
1.0
176
     0
 40
1.0
176
     0
  0
VISUALSTYLE
  5
101AF40
102
{ACAD_REACTORS
330
101AF31
102
}
330
101AF31
100
AcDbVisualStyle
  2
Facepattern
 70
    15
177
     3
291
     1
 70
    58
 90
        2
176
     1
 90
        2
176
     1
 90
        0
176
     1
 90
        0
176
     1
 40
0.6
176
     1
 40
30.0
176
     1
 62
     7
420
 16777215
176
     1
 90
        1
176
     1
 90
        4
176
     1
 62
     7
176
     1
 62
   257
176
     1
 90
        1
176
     1
 90
        1
176
     1
 40
1.0
176
     1
 90
        8
176
     1
 62
     7
176
     1
 40
1.0
176
     1
 90
        1
176
     1
 90
        6
176
     1
 90
        2
176
     1
 62
     7
176
     1
 90
        5
176
     1
 90
        0
176
     1
 90
        0
176
     1
290
     0
176
     1
 90
        1
176
     1
 40
0.0
176
     1
 90
        0
176
     1
290
     0
176
     1
290
     1
176
     1
290
     1
176
     1
290
     0
176
     1
290
     0
176
     1
290
     0
176
     1
290
     0
176
     1
290
     0
176
     1
290
     0
176
     1
 90
       50
176
     1
 40
0.0
176
     1
 40
1.0
176
     1
 90
        0
176
     1
 62
    18
420
        0
176
     1
 90
       50
176
     1
 90
        3
176
     1
 62
     5
420
      255
176
     1
290
     0
176
     1
 90
       50
176
     1
 90
       50
176
     1
 90
       50
176
     1
290
     0
176
     1
 90
       50
176
     1
 62
   256
176
     0
 40
1.0
176
     0
 90
        2
176
     1
  1
strokes_ogs.tif
176
     1
290
     0
176
     1
 40
1.0
176
     1
 40
1.0
176
     1
  0
VISUALSTYLE
  5
101AF32
102
{ACAD_REACTORS
330
101AF31
102
}
330
101AF31
100
AcDbVisualStyle
  2
Flat
 70
     0
177
     3
291
     1
 70
    58
 90
        2
176
     1
 90
        1
176
     1
 90
        1
176
     1
 90
        2
176
     1
 40
0.6
176
     1
 40
30.0
176
     1
 62
     7
420
 16777215
176
     1
 90
        0
176
     1
 90
        0
176
     1
 62
     7
176
     1
 62
   257
176
     1
 90
        1
176
     1
 90
        1
176
     1
 40
1.0
176
     1
 90
        8
176
     1
 62
     7
176
     1
 40
1.0
176
     1
 90
        1
176
     1
 90
        6
176
     1
 90
        2
176
     1
 62
     7
176
     1
 90
        5
176
     1
 90
        0
176
     1
 90
        0
176
     1
290
     0
176
     1
 90
       13
176
     1
 40
0.0
176
     1
 90
        0
176
     1
290
     0
176
     1
290
     1
176
     1
290
     1
176
     1
290
     0
176
     1
290
     0
176
     1
290
     0
176
     1
290
     0
176
     1
290
     0
176
     1
290
     0
176
     1
 90
       50
176
     1
 40
0.0
176
     1
 40
1.0
176
     1
 90
        0
176
     1
 62
    18
420
        0
176
     1
 90
       50
176
     1
 90
        3
176
     1
 62
     5
420
      255
176
     1
290
     0
176
     1
 90
       50
176
     1
 90
       50
176
     1
 90
       50
176
     1
290
     0
176
     1
 90
       50
176
     1
 62
   256
176
     0
 40
1.0
176
     0
 90
        2
176
     1
  1
strokes_ogs.tif
176
     1
290
     0
176
     1
 40
1.0
176
     1
 40
1.0
176
     1
  0
VISUALSTYLE
  5
101AF33
102
{ACAD_REACTORS
330
101AF31
102
}
330
101AF31
100
AcDbVisualStyle
  2
FlatWithEdges
 70
     1
177
     3
291
     1
 70
    58
 90
        2
176
     1
 90
        1
176
     1
 90
        1
176
     1
 90
        2
176
     1
 40
0.6
176
     1
 40
30.0
176
     1
 62
     7
420
 16777215
176
     1
 90
        1
176
     1
 90
        0
176
     1
 62
     7
176
     1
 62
   257
176
     1
 90
        1
176
     1
 90
        1
176
     1
 40
1.0
176
     1
 90
        0
176
     1
 62
   257
176
     1
 40
1.0
176
     1
 90
        1
176
     1
 90
        6
176
     1
 90
        2
176
     1
 62
     7
176
     1
 90
        5
176
     1
 90
        0
176
     1
 90
        0
176
     1
290
     0
176
     1
 90
       13
176
     1
 40
0.0
176
     1
 90
        0
176
     1
290
     0
176
     1
290
     1
176
     1
290
     1
176
     1
290
     0
176
     1
290
     0
176
     1
290
     0
176
     1
290
     0
176
     1
290
     0
176
     1
290
     0
176
     1
 90
       50
176
     1
 40
0.0
176
     1
 40
1.0
176
     1
 90
        0
176
     1
 62
    18
420
        0
176
     1
 90
       50
176
     1
 90
        3
176
     1
 62
     5
420
      255
176
     1
290
     0
176
     1
 90
       50
176
     1
 90
       50
176
     1
 90
       50
176
     1
290
     0
176
     1
 90
       50
176
     1
 62
   256
176
     0
 40
1.0
176
     0
 90
        2
176
     1
  1
strokes_ogs.tif
176
     1
290
     0
176
     1
 40
1.0
176
     1
 40
1.0
176
     1
  0
VISUALSTYLE
  5
101AF34
102
{ACAD_REACTORS
330
101AF31
102
}
330
101AF31
100
AcDbVisualStyle
  2
Gouraud
 70
     2
177
     3
291
     1
 70
    58
 90
        2
176
     1
 90
        2
176
     1
 90
        1
176
     1
 90
        2
176
     1
 40
0.6
176
     1
 40
30.0
176
     1
 62
     7
420
 16777215
176
     1
 90
        0
176
     1
 90
        0
176
     1
 62
     7
176
     1
 62
   257
176
     1
 90
        1
176
     1
 90
        1
176
     1
 40
1.0
176
     1
 90
        0
176
     1
 62
     7
176
     1
 40
1.0
176
     1
 90
        1
176
     1
 90
        6
176
     1
 90
        2
176
     1
 62
     7
176
     1
 90
        5
176
     1
 90
        0
176
     1
 90
        0
176
     1
290
     0
176
     1
 90
       13
176
     1
 40
0.0
176
     1
 90
        0
176
     1
290
     0
176
     1
290
     1
176
     1
290
     1
176
     1
290
     0
176
     1
290
     0
176
     1
290
     0
176
     1
290
     0
176
     1
290
     0
176
     1
290
     0
176
     1
 90
       50
176
     1
 40
0.0
176
     1
 40
1.0
176
     1
 90
        0
176
     1
 62
    18
420
        0
176
     1
 90
       50
176
     1
 90
        3
176
     1
 62
     5
420
      255
176
     1
290
     0
176
     1
 90
       50
176
     1
 90
       50
176
     1
 90
       50
176
     1
290
     0
176
     1
 90
       50
176
     1
 62
   256
176
     0
 40
1.0
176
     0
 90
        2
176
     1
  1
strokes_ogs.tif
176
     1
290
     0
176
     1
 40
1.0
176
     1
 40
1.0
176
     1
  0
VISUALSTYLE
  5
101AF35
102
{ACAD_REACTORS
330
101AF31
102
}
330
101AF31
100
AcDbVisualStyle
  2
GouraudWithEdges
 70
     3
177
     3
291
     1
 70
    58
 90
        2
176
     1
 90
        2
176
     1
 90
        1
176
     1
 90
        2
176
     1
 40
0.6
176
     1
 40
30.0
176
     1
 62
     7
420
 16777215
176
     1
 90
        1
176
     1
 90
        0
176
     1
 62
     7
176
     1
 62
   257
176
     1
 90
        1
176
     1
 90
        1
176
     1
 40
1.0
176
     1
 90
        0
176
     1
 62
   257
176
     1
 40
1.0
176
     1
 90
        1
176
     1
 90
        6
176
     1
 90
        2
176
     1
 62
     7
176
     1
 90
        5
176
     1
 90
        0
176
     1
 90
        0
176
     1
290
     0
176
     1
 90
       13
176
     1
 40
0.0
176
     1
 90
        0
176
     1
290
     0
176
     1
290
     1
176
     1
290
     1
176
     1
290
     0
176
     1
290
     0
176
     1
290
     0
176
     1
290
     0
176
     1
290
     0
176
     1
290
     0
176
     1
 90
       50
176
     1
 40
0.0
176
     1
 40
1.0
176
     1
 90
        0
176
     1
 62
    18
420
        0
176
     1
 90
       50
176
     1
 90
        3
176
     1
 62
     5
420
      255
176
     1
290
     0
176
     1
 90
       50
176
     1
 90
       50
176
     1
 90
       50
176
     1
290
     0
176
     1
 90
       50
176
     1
 62
   256
176
     0
 40
1.0
176
     0
 90
        2
176
     1
  1
strokes_ogs.tif
176
     1
290
     0
176
     1
 40
1.0
176
     1
 40
1.0
176
     1
  0
VISUALSTYLE
  5
101AF39
102
{ACAD_REACTORS
330
101AF31
102
}
330
101AF31
100
AcDbVisualStyle
  2
Hidden
 70
     6
177
     3
291
     0
 70
    58
 90
        1
176
     1
 90
        2
176
     1
 90
        2
176
     1
 90
        0
176
     1
 40
0.6
176
     1
 40
30.0
176
     1
 62
     7
420
 16777215
176
     1
 90
        2
176
     1
 90
        2
176
     1
 62
     7
176
     1
 62
   257
176
     1
 90
        2
176
     1
 90
        1
176
     1
 40
40.0
176
     1
 90
        0
176
     1
 62
   257
176
     1
 40
1.0
176
     1
 90
        1
176
     1
 90
        6
176
     1
 90
        2
176
     1
 62
     7
176
     1
 90
        3
176
     1
 90
        0
176
     1
 90
        0
176
     1
290
     0
176
     1
 90
        1
176
     1
 40
0.0
176
     1
 90
        0
176
     1
290
     0
176
     1
290
     1
176
     1
290
     1
176
     1
290
     0
176
     1
290
     0
176
     1
290
     0
176
     1
290
     0
176
     1
290
     0
176
     1
290
     0
176
     1
 90
       50
176
     1
 40
0.0
176
     1
 40
1.0
176
     1
 90
        0
176
     1
 62
    18
420
        0
176
     1
 90
       50
176
     1
 90
        3
176
     1
 62
     5
420
      255
176
     1
290
     0
176
     1
 90
       50
176
     1
 90
       50
176
     1
 90
       50
176
     1
290
     0
176
     1
 90
       50
176
     1
 62
   256
176
     0
 40
1.0
176
     0
 90
        2
176
     1
  1
strokes_ogs.tif
176
     1
290
     0
176
     1
 40
1.0
176
     1
 40
1.0
176
     1
  0
VISUALSTYLE
  5
101AF47
102
{ACAD_REACTORS
330
101AF31
102
}
330
101AF31
100
AcDbVisualStyle
  2
JitterOff
 70
    20
177
     3
291
     1
 70
    58
 90
        2
176
     0
 90
        2
176
     0
 90
        0
176
     0
 90
        0
176
     0
 40
0.6
176
     0
 40
30.0
176
     0
 62
     7
420
 16777215
176
     0
 90
        1
176
     0
 90
        4
176
     0
 62
     7
176
     0
 62
   257
176
     0
 90
        1
176
     0
 90
        1
176
     0
 40
1.0
176
     0
 90
       10
176
     2
 62
     7
176
     0
 40
1.0
176
     0
 90
        1
176
     0
 90
        6
176
     0
 90
        2
176
     0
 62
     7
176
     0
 90
        5
176
     0
 90
        0
176
     0
 90
        0
176
     0
290
     0
176
     0
 90
        1
176
     0
 40
0.0
176
     0
 90
        0
176
     0
290
     0
176
     0
290
     1
176
     0
290
     1
176
     0
290
     0
176
     0
290
     0
176
     0
290
     0
176
     0
290
     0
176
     0
290
     0
176
     0
290
     0
176
     0
 90
       50
176
     0
 40
0.0
176
     0
 40
1.0
176
     0
 90
        0
176
     0
 62
    18
420
        0
176
     0
 90
       50
176
     0
 90
        3
176
     0
 62
     5
420
      255
176
     0
290
     0
176
     0
 90
       50
176
     0
 90
       50
176
     0
 90
       50
176
     0
290
     0
176
     0
 90
       50
176
     0
 62
   256
176
     0
 40
1.0
176
     0
 90
        2
176
     0
  1
strokes_ogs.tif
176
     0
290
     0
176
     0
 40
1.0
176
     0
 40
1.0
176
     0
  0
VISUALSTYLE
  5
101AF3F
102
{ACAD_REACTORS
330
101AF31
102
}
330
101AF31
100
AcDbVisualStyle
  2
Linepattern
 70
    14
177
     3
291
     1
 70
    58
 90
        2
176
     1
 90
        2
176
     1
 90
        0
176
     1
 90
        0
176
     1
 40
0.6
176
     1
 40
30.0
176
     1
 62
     7
420
 16777215
176
     1
 90
        1
176
     1
 90
        4
176
     1
 62
     7
176
     1
 62
   257
176
     1
 90
        7
176
     1
 90
        7
176
     1
 40
1.0
176
     1
 90
        8
176
     1
 62
     7
176
     1
 40
1.0
176
     1
 90
        1
176
     1
 90
        6
176
     1
 90
        2
176
     1
 62
     7
176
     1
 90
        5
176
     1
 90
        0
176
     1
 90
        0
176
     1
290
     0
176
     1
 90
        1
176
     1
 40
0.0
176
     1
 90
        0
176
     1
290
     0
176
     1
290
     1
176
     1
290
     1
176
     1
290
     0
176
     1
290
     0
176
     1
290
     0
176
     1
290
     0
176
     1
290
     0
176
     1
290
     0
176
     1
 90
       50
176
     1
 40
0.0
176
     1
 40
1.0
176
     1
 90
        0
176
     1
 62
    18
420
        0
176
     1
 90
       50
176
     1
 90
        3
176
     1
 62
     5
420
      255
176
     1
290
     0
176
     1
 90
       50
176
     1
 90
       50
176
     1
 90
       50
176
     1
290
     0
176
     1
 90
       50
176
     1
 62
   256
176
     0
 40
1.0
176
     0
 90
        2
176
     1
  1
strokes_ogs.tif
176
     1
290
     0
176
     1
 40
1.0
176
     1
 40
1.0
176
     1
  0
VISUALSTYLE
  5
101AF48
102
{ACAD_REACTORS
330
101AF31
102
}
330
101AF31
100
AcDbVisualStyle
  2
OverhangOff
 70
    21
177
     3
291
     1
 70
    58
 90
        2
176
     0
 90
        2
176
     0
 90
        0
176
     0
 90
        0
176
     0
 40
0.6
176
     0
 40
30.0
176
     0
 62
     7
420
 16777215
176
     0
 90
        1
176
     0
 90
        4
176
     0
 62
     7
176
     0
 62
   257
176
     0
 90
        1
176
     0
 90
        1
176
     0
 40
1.0
176
     0
 90
        9
176
     2
 62
     7
176
     0
 40
1.0
176
     0
 90
        1
176
     0
 90
        6
176
     0
 90
        2
176
     0
 62
     7
176
     0
 90
        5
176
     0
 90
        0
176
     0
 90
        0
176
     0
290
     0
176
     0
 90
        1
176
     0
 40
0.0
176
     0
 90
        0
176
     0
290
     0
176
     0
290
     1
176
     0
290
     1
176
     0
290
     0
176
     0
290
     0
176
     0
290
     0
176
     0
290
     0
176
     0
290
     0
176
     0
290
     0
176
     0
 90
       50
176
     0
 40
0.0
176
     0
 40
1.0
176
     0
 90
        0
176
     0
 62
    18
420
        0
176
     0
 90
       50
176
     0
 90
        3
176
     0
 62
     5
420
      255
176
     0
290
     0
176
     0
 90
       50
176
     0
 90
       50
176
     0
 90
       50
176
     0
290
     0
176
     0
 90
       50
176
     0
 62
   256
176
     0
 40
1.0
176
     0
 90
        2
176
     0
  1
strokes_ogs.tif
176
     0
290
     0
176
     0
 40
1.0
176
     0
 40
1.0
176
     0
  0
VISUALSTYLE
  5
101AF3B
102
{ACAD_REACTORS
330
101AF31
102
}
330
101AF31
100
AcDbVisualStyle
  2
Realistic
 70
     8
177
     3
291
     0
 70
    58
 90
        2
176
     1
 90
        3
176
     1
 90
        0
176
     1
 90
        2
176
     1
 40
0.6
176
     1
 40
30.0
176
     1
 62
     7
420
 16777215
176
     1
 90
        0
176
     1
 90
        0
176
     1
 62
     7
176
     1
 62
   257
176
     1
 90
        1
176
     1
 90
        1
176
     1
 40
1.0
176
     1
 90
        8
176
     1
 62
   257
176
     1
 40
1.0
176
     1
 90
        1
176
     1
 90
        6
176
     1
 90
        2
176
     1
 62
     7
176
     1
 90
        3
176
     1
 90
        0
176
     1
 90
        0
176
     1
290
     0
176
     1
 90
       13
176
     1
 40
0.0
176
     1
 90
        0
176
     1
290
     0
176
     1
290
     1
176
     1
290
     1
176
     1
290
     0
176
     1
290
     0
176
     1
290
     0
176
     1
290
     0
176
     1
290
     0
176
     1
290
     0
176
     1
 90
       50
176
     1
 40
0.0
176
     1
 40
1.0
176
     1
 90
        0
176
     1
 62
    18
420
        0
176
     1
 90
       50
176
     1
 90
        3
176
     1
 62
     5
420
      255
176
     1
290
     0
176
     1
 90
       50
176
     1
 90
       50
176
     1
 90
       50
176
     1
290
     0
176
     1
 90
       50
176
     1
 62
   256
176
     0
 40
1.0
176
     0
 90
        2
176
     1
  1
strokes_ogs.tif
176
     1
290
     0
176
     1
 40
1.0
176
     1
 40
1.0
176
     1
  0
VISUALSTYLE
  5
101AF46
102
{ACAD_REACTORS
330
101AF31
102
}
330
101AF31
100
AcDbVisualStyle
  2
Shaded
 70
    27
177
     3
291
     0
 70
    58
 90
        2
176
     1
 90
        2
176
     1
 90
        1
176
     1
 90
        2
176
     1
 40
0.6
176
     1
 40
30.0
176
     1
 62
     7
420
 16777215
176
     1
 90
        0
176
     1
 90
        4
176
     1
 62
     7
176
     1
 62
   257
176
     1
 90
        1
176
     1
 90
        1
176
     1
 40
1.0
176
     1
 90
        8
176
     1
 62
   257
176
     1
 40
1.0
176
     1
 90
        1
176
     1
 90
        6
176
     1
 90
        2
176
     1
 62
     8
420
  7895160
176
     1
 90
        3
176
     1
 90
        0
176
     1
 90
        0
176
     1
290
     0
176
     1
 90
        5
176
     1
 40
0.0
176
     1
 90
        0
176
     1
290
     0
176
     1
290
     1
176
     1
290
     1
176
     1
290
     0
176
     1
290
     0
176
     1
290
     0
176
     1
290
     0
176
     1
290
     0
176
     1
290
     0
176
     1
 90
       50
176
     1
 40
0.0
176
     1
 40
1.0
176
     1
 90
        0
176
     1
 62
    18
420
        0
176
     1
 90
       50
176
     1
 90
        3
176
     1
 62
     5
420
      255
176
     1
290
     0
176
     1
 90
       50
176
     1
 90
       50
176
     1
 90
       50
176
     1
290
     0
176
     1
 90
       50
176
     1
 62
   256
176
     0
 40
1.0
176
     0
 90
        2
176
     1
  1
strokes_ogs.tif
176
     1
290
     0
176
     1
 40
1.0
176
     1
 40
1.0
176
     1
  0
VISUALSTYLE
  5
101AF45
102
{ACAD_REACTORS
330
101AF31
102
}
330
101AF31
100
AcDbVisualStyle
  2
Shaded with edges
 70
    26
177
     3
291
     0
 70
    58
 90
        2
176
     1
 90
        2
176
     1
 90
        1
176
     1
 90
        2
176
     1
 40
0.6
176
     1
 40
30.0
176
     1
 62
     7
420
 16777215
176
     1
 90
        1
176
     1
 90
        2
176
     1
 62
     7
176
     1
 62
   257
176
     1
 90
        2
176
     1
 90
        1
176
     1
 40
1.0
176
     1
 90
        8
176
     1
 62
   257
176
     1
 40
1.0
176
     1
 90
        1
176
     1
 90
        6
176
     1
 90
        2
176
     1
 62
     7
176
     1
 90
        3
176
     1
 90
        0
176
     1
 90
        0
176
     1
290
     0
176
     1
 90
        5
176
     1
 40
0.0
176
     1
 90
        0
176
     1
290
     0
176
     1
290
     1
176
     1
290
     1
176
     1
290
     0
176
     1
290
     0
176
     1
290
     0
176
     1
290
     0
176
     1
290
     0
176
     1
290
     0
176
     1
 90
       50
176
     1
 40
0.0
176
     1
 40
1.0
176
     1
 90
        0
176
     1
 62
    18
420
        0
176
     1
 90
       50
176
     1
 90
        3
176
     1
 62
     5
420
      255
176
     1
290
     0
176
     1
 90
       50
176
     1
 90
       50
176
     1
 90
       50
176
     1
290
     0
176
     1
 90
       50
176
     1
 62
   256
176
     0
 40
1.0
176
     0
 90
        2
176
     1
  1
strokes_ogs.tif
176
     1
290
     0
176
     1
 40
1.0
176
     1
 40
1.0
176
     1
  0
VISUALSTYLE
  5
101AF42
102
{ACAD_REACTORS
330
101AF31
102
}
330
101AF31
100
AcDbVisualStyle
  2
Shades of Gray
 70
    23
177
     3
291
     0
 70
    58
 90
        2
176
     1
 90
        2
176
     1
 90
        3
176
     1
 90
        0
176
     1
 40
0.6
176
     1
 40
30.0
176
     1
 62
     7
420
 16777215
176
     1
 90
        2
176
     1
 90
        2
176
     1
 62
     7
176
     1
 62
     7
176
     1
 90
        1
176
     1
 90
        1
176
     1
 40
40.0
176
     1
 90
        8
176
     1
 62
     7
176
     1
 40
1.0
176
     1
 90
        1
176
     1
 90
        6
176
     1
 90
        2
176
     1
 62
     7
176
     1
 90
        3
176
     1
 90
        0
176
     1
 90
        0
176
     1
290
     0
176
     1
 90
        1
176
     1
 40
0.0
176
     1
 90
        0
176
     1
290
     0
176
     1
290
     1
176
     1
290
     1
176
     1
290
     0
176
     1
290
     0
176
     1
290
     0
176
     1
290
     0
176
     1
290
     0
176
     1
290
     0
176
     1
 90
       50
176
     1
 40
0.0
176
     1
 40
1.0
176
     1
 90
        0
176
     1
 62
    18
420
        0
176
     1
 90
       50
176
     1
 90
        3
176
     1
 62
     5
420
      255
176
     1
290
     0
176
     1
 90
       50
176
     1
 90
       50
176
     1
 90
       50
176
     1
290
     0
176
     1
 90
       50
176
     1
 62
   256
176
     0
 40
1.0
176
     0
 90
        2
176
     1
  1
strokes_ogs.tif
176
     1
290
     0
176
     1
 40
1.0
176
     1
 40
1.0
176
     1
  0
VISUALSTYLE
  5
101AF43
102
{ACAD_REACTORS
330
101AF31
102
}
330
101AF31
100
AcDbVisualStyle
  2
Sketchy
 70
    24
177
     3
291
     0
 70
    58
 90
        1
176
     1
 90
        2
176
     1
 90
        2
176
     1
 90
        0
176
     1
 40
0.6
176
     1
 40
30.0
176
     1
 62
     7
420
 16777215
176
     1
 90
        2
176
     1
 90
        2
176
     1
 62
     7
176
     1
 62
     7
176
     1
 90
        1
176
     1
 90
        1
176
     1
 40
40.0
176
     1
 90
       11
176
     1
 62
     7
176
     1
 40
1.0
176
     1
 90
        1
176
     1
 90
        6
176
     1
 90
        2
176
     1
 62
     7
176
     1
 90
        6
176
     1
 90
        0
176
     1
 90
        0
176
     1
290
     0
176
     1
 90
        1
176
     1
 40
0.0
176
     1
 90
        0
176
     1
290
     0
176
     1
290
     1
176
     1
290
     1
176
     1
290
     0
176
     1
290
     0
176
     1
290
     0
176
     1
290
     0
176
     1
290
     0
176
     1
290
     0
176
     1
 90
       50
176
     1
 40
0.0
176
     1
 40
1.0
176
     1
 90
        0
176
     1
 62
    18
420
        0
176
     1
 90
       50
176
     1
 90
        3
176
     1
 62
     5
420
      255
176
     1
290
     0
176
     1
 90
       50
176
     1
 90
       50
176
     1
 90
       50
176
     1
290
     0
176
     1
 90
       50
176
     1
 62
   256
176
     0
 40
1.0
176
     0
 90
        2
176
     1
  1
strokes_ogs.tif
176
     1
290
     0
176
     1
 40
1.0
176
     1
 40
1.0
176
     1
  0
VISUALSTYLE
  5
101AF3E
102
{ACAD_REACTORS
330
101AF31
102
}
330
101AF31
100
AcDbVisualStyle
  2
Thicken
 70
    13
177
     3
291
     1
 70
    58
 90
        2
176
     1
 90
        2
176
     1
 90
        0
176
     1
 90
        0
176
     1
 40
0.6
176
     1
 40
30.0
176
     1
 62
     7
420
 16777215
176
     1
 90
        1
176
     1
 90
        4
176
     1
 62
     7
176
     1
 62
   257
176
     1
 90
        1
176
     1
 90
        1
176
     1
 40
1.0
176
     1
 90
       12
176
     1
 62
     7
176
     1
 40
1.0
176
     1
 90
        1
176
     1
 90
        6
176
     1
 90
        2
176
     1
 62
     7
176
     1
 90
        5
176
     1
 90
        0
176
     1
 90
        0
176
     1
290
     0
176
     1
 90
        1
176
     1
 40
0.0
176
     1
 90
        0
176
     1
290
     0
176
     1
290
     1
176
     1
290
     1
176
     1
290
     0
176
     1
290
     0
176
     1
290
     0
176
     1
290
     0
176
     1
290
     0
176
     1
290
     0
176
     1
 90
       50
176
     1
 40
0.0
176
     1
 40
1.0
176
     1
 90
        0
176
     1
 62
    18
420
        0
176
     1
 90
       50
176
     1
 90
        3
176
     1
 62
     5
420
      255
176
     1
290
     0
176
     1
 90
       50
176
     1
 90
       50
176
     1
 90
       50
176
     1
290
     0
176
     1
 90
       50
176
     1
 62
   256
176
     0
 40
1.0
176
     0
 90
        2
176
     1
  1
strokes_ogs.tif
176
     1
290
     0
176
     1
 40
1.0
176
     1
 40
1.0
176
     1
  0
VISUALSTYLE
  5
101AF38
102
{ACAD_REACTORS
330
101AF31
102
}
330
101AF31
100
AcDbVisualStyle
  2
Wireframe
 70
     5
177
     3
291
     0
 70
    58
 90
        0
176
     1
 90
        2
176
     1
 90
        0
176
     1
 90
        0
176
     1
 40
0.6
176
     1
 40
30.0
176
     1
 62
     7
420
 16777215
176
     1
 90
        1
176
     1
 90
        4
176
     1
 62
     7
176
     1
 62
   257
176
     1
 90
        1
176
     1
 90
        1
176
     1
 40
1.0
176
     1
 90
        0
176
     1
 62
   257
176
     1
 40
1.0
176
     1
 90
        1
176
     1
 90
        6
176
     1
 90
        2
176
     1
 62
     7
176
     1
 90
        3
176
     1
 90
        0
176
     1
 90
        0
176
     1
290
     0
176
     1
 90
        1
176
     1
 40
0.0
176
     1
 90
        0
176
     1
290
     0
176
     1
290
     1
176
     1
290
     1
176
     1
290
     0
176
     1
290
     0
176
     1
290
     0
176
     1
290
     0
176
     1
290
     0
176
     1
290
     0
176
     1
 90
       50
176
     1
 40
0.0
176
     1
 40
1.0
176
     1
 90
        0
176
     1
 62
    18
420
        0
176
     1
 90
       50
176
     1
 90
        3
176
     1
 62
     5
420
      255
176
     1
290
     0
176
     1
 90
       50
176
     1
 90
       50
176
     1
 90
       50
176
     1
290
     0
176
     1
 90
       50
176
     1
 62
   256
176
     0
 40
1.0
176
     0
 90
        2
176
     1
  1
strokes_ogs.tif
176
     1
290
     0
176
     1
 40
1.0
176
     1
 40
1.0
176
     1
  0
VISUALSTYLE
  5
101AF44
102
{ACAD_REACTORS
330
101AF31
102
}
330
101AF31
100
AcDbVisualStyle
  2
X-Ray
 70
    25
177
     3
291
     0
 70
    58
 90
        2
176
     1
 90
        2
176
     1
 90
        1
176
     1
 90
        1
176
     1
 40
0.5
176
     1
 40
30.0
176
     1
 62
     7
420
 16777215
176
     1
 90
        1
176
     1
 90
        0
176
     1
 62
     7
176
     1
 62
   257
176
     1
 90
        1
176
     1
 90
        1
176
     1
 40
1.0
176
     1
 90
        8
176
     1
 62
     7
176
     1
 40
1.0
176
     1
 90
        1
176
     1
 90
        6
176
     1
 90
        2
176
     1
 62
     7
176
     1
 90
        3
176
     1
 90
        0
176
     1
 90
        0
176
     1
290
     0
176
     1
 90
       13
176
     1
 40
0.0
176
     1
 90
        0
176
     1
290
     0
176
     1
290
     1
176
     1
290
     1
176
     1
290
     0
176
     1
290
     0
176
     1
290
     0
176
     1
290
     0
176
     1
290
     0
176
     1
290
     0
176
     1
 90
       50
176
     1
 40
0.0
176
     1
 40
1.0
176
     1
 90
        0
176
     1
 62
    18
420
        0
176
     1
 90
       50
176
     1
 90
        3
176
     1
 62
     5
420
      255
176
     1
290
     0
176
     1
 90
       50
176
     1
 90
       50
176
     1
 90
       50
176
     1
290
     0
176
     1
 90
       50
176
     1
 62
   256
176
     0
 40
1.0
176
     0
 90
        2
176
     1
  1
strokes_ogs.tif
176
     1
290
     0
176
     1
 40
1.0
176
     1
 40
1.0
176
     1
  0
DICTIONARYVAR
  5
101AF8C
102
{ACAD_REACTORS
330
265
102
}
330
265
100
DictionaryVariables
280
     0
  1
1:1
  0
DICTIONARYVAR
  5
101AF88
102
{ACAD_REACTORS
330
265
102
}
330
265
100
DictionaryVariables
280
     0
  1
STANDARD
  0
DICTIONARYVAR
  5
266
102
{ACAD_REACTORS
330
265
102
}
330
265
100
DictionaryVariables
280
     0
  1
STANDARD
  0
DICTIONARYVAR
  5
101AF89
102
{ACAD_REACTORS
330
265
102
}
330
265
100
DictionaryVariables
280
     0
  1
Metric50
  0
DICTIONARYVAR
  5
101AF8A
102
{ACAD_REACTORS
330
265
102
}
330
265
100
DictionaryVariables
280
     0
  1
Metric50
  0
DICTIONARYVAR
  5
1A744
102
{ACAD_REACTORS
330
265
102
}
330
265
100
DictionaryVariables
280
     0
  1
1
  0
DICTIONARYVAR
  5
101AF8E
102
{ACAD_REACTORS
330
265
102
}
330
265
100
DictionaryVariables
280
     0
  1
1
  0
DICTIONARYVAR
  5
101AF8F
102
{ACAD_REACTORS
330
265
102
}
330
265
100
DictionaryVariables
280
     0
  1
15
  0
DICTIONARYVAR
  5
101AF8D
102
{ACAD_REACTORS
330
265
102
}
330
265
100
DictionaryVariables
280
     0
  1
0
  0
DICTIONARYVAR
  5
101AF8B
102
{ACAD_REACTORS
330
265
102
}
330
265
100
DictionaryVariables
280
     0
  1
0
  0
DICTIONARYVAR
  5
1A745
102
{ACAD_REACTORS
330
265
102
}
330
265
100
DictionaryVariables
280
     0
  1

  0
DICTIONARY
  5
101AF94
330
101AF62
100
AcDbDictionary
280
     1
281
     1
  3
ACAD_XREC_ROUNDTRIP
360
101AF95
  0
DICTIONARY
  5
101AF22
330
101AF21
100
AcDbDictionary
280
     1
281
     1
  3
BUMPTILE
360
101AF24
  3
DIFFUSETILE
360
101AF23
  3
OPACITYTILE
360
101AF27
  3
REFLECTIONTILE
360
101AF26
  3
REFRACTIONTILE
360
101AF28
  3
SPECULARTILE
360
101AF25
  0
DICTIONARY
  5
101AF1A
330
101AF19
100
AcDbDictionary
280
     1
281
     1
  3
BUMPTILE
360
101AF1C
  3
DIFFUSETILE
360
101AF1B
  3
OPACITYTILE
360
101AF1F
  3
REFLECTIONTILE
360
101AF1E
  3
REFRACTIONTILE
360
101AF20
  3
SPECULARTILE
360
101AF1D
  0
DICTIONARY
  5
101AF2A
330
101AF29
100
AcDbDictionary
280
     1
281
     1
  3
BUMPTILE
360
101AF2C
  3
DIFFUSETILE
360
101AF2B
  3
OPACITYTILE
360
101AF2F
  3
REFLECTIONTILE
360
101AF2E
  3
REFRACTIONTILE
360
101AF30
  3
SPECULARTILE
360
101AF2D
  0
DICTIONARY
  5
101AF92
330
101AF60
100
AcDbDictionary
280
     1
281
     1
  3
ACAD_XREC_ROUNDTRIP
360
101AF93
  0
DICTIONARY
  5
101AF90
330
1D6
100
AcDbDictionary
280
     1
281
     1
  3
ACAD_ROUNDTRIP_2008_TABLESTYLE_CELLSTYLEMAP
360
101AF91
  0
XRECORD
  5
101AF95
102
{ACAD_REACTORS
330
101AF94
102
}
330
101AF94
100
AcDbXrecord
280
     1
102
DISPLAYNAME
  1
Metric50
102
FLAGS
 90
        0
  0
XRECORD
  5
101AF24
102
{ACAD_REACTORS
330
101AF22
102
}
330
101AF22
100
AcDbXrecord
280
     1
270
     1
271
     1
  0
XRECORD
  5
101AF23
102
{ACAD_REACTORS
330
101AF22
102
}
330
101AF22
100
AcDbXrecord
280
     1
270
     1
271
     1
  0
XRECORD
  5
101AF27
102
{ACAD_REACTORS
330
101AF22
102
}
330
101AF22
100
AcDbXrecord
280
     1
270
     1
271
     1
  0
XRECORD
  5
101AF26
102
{ACAD_REACTORS
330
101AF22
102
}
330
101AF22
100
AcDbXrecord
280
     1
270
     1
271
     1
  0
XRECORD
  5
101AF28
102
{ACAD_REACTORS
330
101AF22
102
}
330
101AF22
100
AcDbXrecord
280
     1
270
     1
271
     1
  0
XRECORD
  5
101AF25
102
{ACAD_REACTORS
330
101AF22
102
}
330
101AF22
100
AcDbXrecord
280
     1
270
     1
271
     1
  0
XRECORD
  5
101AF1C
102
{ACAD_REACTORS
330
101AF1A
102
}
330
101AF1A
100
AcDbXrecord
280
     1
270
     1
271
     1
  0
XRECORD
  5
101AF1B
102
{ACAD_REACTORS
330
101AF1A
102
}
330
101AF1A
100
AcDbXrecord
280
     1
270
     1
271
     1
  0
XRECORD
  5
101AF1F
102
{ACAD_REACTORS
330
101AF1A
102
}
330
101AF1A
100
AcDbXrecord
280
     1
270
     1
271
     1
  0
XRECORD
  5
101AF1E
102
{ACAD_REACTORS
330
101AF1A
102
}
330
101AF1A
100
AcDbXrecord
280
     1
270
     1
271
     1
  0
XRECORD
  5
101AF20
102
{ACAD_REACTORS
330
101AF1A
102
}
330
101AF1A
100
AcDbXrecord
280
     1
270
     1
271
     1
  0
XRECORD
  5
101AF1D
102
{ACAD_REACTORS
330
101AF1A
102
}
330
101AF1A
100
AcDbXrecord
280
     1
270
     1
271
     1
  0
XRECORD
  5
101AF2C
102
{ACAD_REACTORS
330
101AF2A
102
}
330
101AF2A
100
AcDbXrecord
280
     1
270
     1
271
     1
  0
XRECORD
  5
101AF2B
102
{ACAD_REACTORS
330
101AF2A
102
}
330
101AF2A
100
AcDbXrecord
280
     1
270
     1
271
     1
  0
XRECORD
  5
101AF2F
102
{ACAD_REACTORS
330
101AF2A
102
}
330
101AF2A
100
AcDbXrecord
280
     1
270
     1
271
     1
  0
XRECORD
  5
101AF2E
102
{ACAD_REACTORS
330
101AF2A
102
}
330
101AF2A
100
AcDbXrecord
280
     1
270
     1
271
     1
  0
XRECORD
  5
101AF30
102
{ACAD_REACTORS
330
101AF2A
102
}
330
101AF2A
100
AcDbXrecord
280
     1
270
     1
271
     1
  0
XRECORD
  5
101AF2D
102
{ACAD_REACTORS
330
101AF2A
102
}
330
101AF2A
100
AcDbXrecord
280
     1
270
     1
271
     1
  0
XRECORD
  5
101AF93
102
{ACAD_REACTORS
330
101AF92
102
}
330
101AF92
100
AcDbXrecord
280
     1
102
DISPLAYNAME
  1
Metric50
102
FLAGS
 90
        0
  0
CELLSTYLEMAP
  5
101AF91
102
{ACAD_REACTORS
330
101AF90
102
}
330
101AF90
100
AcDbCellStyleMap
 90
        3
300
CELLSTYLE
  1
TABLEFORMAT_BEGIN
 90
        5
170
     1
 91
        0
 92
    32768
 62
   257
 93
        1
300
CONTENTFORMAT
  1
CONTENTFORMAT_BEGIN
 90
        0
 91
        0
 92
        4
 93
        0
300

 40
0.0
140
1.0
 94
        5
 62
     0
340
11
144
6.0
309
CONTENTFORMAT_END
171
     1
301
MARGIN
  1
CELLMARGIN_BEGIN
 40
1.5
 40
1.5
 40
1.5
 40
1.5
 40
0.18
 40
0.18
309
CELLMARGIN_END
 94
        6
 95
        1
302
GRIDFORMAT
  1
GRIDFORMAT_BEGIN
 90
        0
 91
        1
 62
     0
 92
       -2
340
0
 93
        0
 40
0.045
309
GRIDFORMAT_END
 95
        2
302
GRIDFORMAT
  1
GRIDFORMAT_BEGIN
 90
        0
 91
        1
 62
     0
 92
       -2
340
0
 93
        0
 40
0.045
309
GRIDFORMAT_END
 95
        4
302
GRIDFORMAT
  1
GRIDFORMAT_BEGIN
 90
        0
 91
        1
 62
     0
 92
       -2
340
0
 93
        0
 40
0.045
309
GRIDFORMAT_END
 95
        8
302
GRIDFORMAT
  1
GRIDFORMAT_BEGIN
 90
        0
 91
        1
 62
     0
 92
       -2
340
0
 93
        0
 40
0.045
309
GRIDFORMAT_END
 95
       16
302
GRIDFORMAT
  1
GRIDFORMAT_BEGIN
 90
        0
 91
        1
 62
     0
 92
       -2
340
0
 93
        0
 40
0.045
309
GRIDFORMAT_END
 95
       32
302
GRIDFORMAT
  1
GRIDFORMAT_BEGIN
 90
        0
 91
        1
 62
     0
 92
       -2
340
0
 93
        0
 40
0.045
309
GRIDFORMAT_END
309
TABLEFORMAT_END
  1
CELLSTYLE_BEGIN
 90
        1
 91
        1
300
_TITLE
309
CELLSTYLE_END
300
CELLSTYLE
  1
TABLEFORMAT_BEGIN
 90
        5
170
     1
 91
        0
 92
        0
 62
   257
 93
        1
300
CONTENTFORMAT
  1
CONTENTFORMAT_BEGIN
 90
        0
 91
        0
 92
        4
 93
        0
300

 40
0.0
140
1.0
 94
        5
 62
     0
340
11
144
4.5
309
CONTENTFORMAT_END
171
     1
301
MARGIN
  1
CELLMARGIN_BEGIN
 40
1.5
 40
1.5
 40
1.5
 40
1.5
 40
0.18
 40
0.18
309
CELLMARGIN_END
 94
        6
 95
        1
302
GRIDFORMAT
  1
GRIDFORMAT_BEGIN
 90
        0
 91
        1
 62
     0
 92
       -2
340
0
 93
        0
 40
0.045
309
GRIDFORMAT_END
 95
        2
302
GRIDFORMAT
  1
GRIDFORMAT_BEGIN
 90
        0
 91
        1
 62
     0
 92
       -2
340
0
 93
        0
 40
0.045
309
GRIDFORMAT_END
 95
        4
302
GRIDFORMAT
  1
GRIDFORMAT_BEGIN
 90
        0
 91
        1
 62
     0
 92
       -2
340
0
 93
        0
 40
0.045
309
GRIDFORMAT_END
 95
        8
302
GRIDFORMAT
  1
GRIDFORMAT_BEGIN
 90
        0
 91
        1
 62
     0
 92
       -2
340
0
 93
        0
 40
0.045
309
GRIDFORMAT_END
 95
       16
302
GRIDFORMAT
  1
GRIDFORMAT_BEGIN
 90
        0
 91
        1
 62
     0
 92
       -2
340
0
 93
        0
 40
0.045
309
GRIDFORMAT_END
 95
       32
302
GRIDFORMAT
  1
GRIDFORMAT_BEGIN
 90
        0
 91
        1
 62
     0
 92
       -2
340
0
 93
        0
 40
0.045
309
GRIDFORMAT_END
309
TABLEFORMAT_END
  1
CELLSTYLE_BEGIN
 90
        2
 91
        1
300
_HEADER
309
CELLSTYLE_END
300
CELLSTYLE
  1
TABLEFORMAT_BEGIN
 90
        5
170
     1
 91
        0
 92
        0
 62
   257
 93
        1
300
CONTENTFORMAT
  1
CONTENTFORMAT_BEGIN
 90
        0
 91
        0
 92
        4
 93
        0
300

 40
0.0
140
1.0
 94
        2
 62
     0
340
11
144
4.5
309
CONTENTFORMAT_END
171
     1
301
MARGIN
  1
CELLMARGIN_BEGIN
 40
1.5
 40
1.5
 40
1.5
 40
1.5
 40
0.18
 40
0.18
309
CELLMARGIN_END
 94
        6
 95
        1
302
GRIDFORMAT
  1
GRIDFORMAT_BEGIN
 90
        0
 91
        1
 62
     0
 92
       -2
340
0
 93
        0
 40
0.045
309
GRIDFORMAT_END
 95
        2
302
GRIDFORMAT
  1
GRIDFORMAT_BEGIN
 90
        0
 91
        1
 62
     0
 92
       -2
340
0
 93
        0
 40
0.045
309
GRIDFORMAT_END
 95
        4
302
GRIDFORMAT
  1
GRIDFORMAT_BEGIN
 90
        0
 91
        1
 62
     0
 92
       -2
340
0
 93
        0
 40
0.045
309
GRIDFORMAT_END
 95
        8
302
GRIDFORMAT
  1
GRIDFORMAT_BEGIN
 90
        0
 91
        1
 62
     0
 92
       -2
340
0
 93
        0
 40
0.045
309
GRIDFORMAT_END
 95
       16
302
GRIDFORMAT
  1
GRIDFORMAT_BEGIN
 90
        0
 91
        1
 62
     0
 92
       -2
340
0
 93
        0
 40
0.045
309
GRIDFORMAT_END
 95
       32
302
GRIDFORMAT
  1
GRIDFORMAT_BEGIN
 90
        0
 91
        1
 62
     0
 92
       -2
340
0
 93
        0
 40
0.045
309
GRIDFORMAT_END
309
TABLEFORMAT_END
  1
CELLSTYLE_BEGIN
 90
        3
 91
        2
300
_DATA
309
CELLSTYLE_END
  0
ENDSEC
  0
EOF
