  0
SECTION
  2
HEADER
  9
$ACADVER
  1
AC1027
  9
$ACADMAINTVER
 70
   125
  9
$DWGCODEPAGE
  3
ANSI_1252
  9
$AUTHOR
  1
JOEL
  9
$LASTSAVEDBY
  1
fleminab
  9
$REVISIONNUMBER
  1
00
  9
$CUSTOMPROPERTYTAG
  1
Manager
  9
$CUSTOMPROPERTY
  1

  9
$CUSTOMPROPERTYTAG
  1
Company
  9
$CUSTOMPROPERTY
  1
Ramtaps Pty. Ltd.
  9
$CUSTOMPROPERTYTAG
  1
Category
  9
$CUSTOMPROPERTY
  1

  9
$CUSTOMPROPERTYTAG
  1
Part Number
  9
$CUSTOMPROPERTY
  1
YBHS
  9
$CUSTOMPROPERTYTAG
  1
Description
  9
$CUSTOMPROPERTY
  1
YEVA BATH SET
  9
$CUSTOMPROPERTYTAG
  1
Project
  9
$CUSTOMPROPERTY
  1

  9
$CUSTOMPROPERTYTAG
  1
Designer
  9
$CUSTOMPROPERTY
  1
JOEL
  9
$CUSTOMPROPERTYTAG
  1
Engineer
  9
$CUSTOMPROPERTY
  1

  9
$CUSTOMPROPERTYTAG
  1
Authority
  9
$CUSTOMPROPERTY
  1

  9
$CUSTOMPROPERTYTAG
  1
Cost Center
  9
$CUSTOMPROPERTY
  1

  9
$CUSTOMPROPERTYTAG
  1
Vendor
  9
$CUSTOMPROPERTY
  1

  9
$CUSTOMPROPERTYTAG
  1
User Status
  9
$CUSTOMPROPERTY
  1

  9
$CUSTOMPROPERTYTAG
  1
Design Status
  9
$CUSTOMPROPERTY
  1
Released
  9
$CUSTOMPROPERTYTAG
  1
Checked by
  9
$CUSTOMPROPERTY
  1

  9
$CUSTOMPROPERTYTAG
  1
Engr Approved by
  9
$CUSTOMPROPERTY
  1

  9
$CUSTOMPROPERTYTAG
  1
Mfg Approved by
  9
$CUSTOMPROPERTY
  1

  9
$CUSTOMPROPERTYTAG
  1
Client
  9
$CUSTOMPROPERTY
  1

  9
$REQUIREDVERSIONS
160
                 0
  9
$INSBASE
 10
0.0
 20
0.0
 30
0.0
  9
$EXTMIN
 10
7.877885072815615
 20
99.21722505150501
 30
-0.0015258207003583
  9
$EXTMAX
 10
465.2936565134369
 20
224.18670721141
 30
0.0000000349246037
  9
$LIMMIN
 10
0.0
 20
0.0
  9
$LIMMAX
 10
495.0
 20
350.0
  9
$ORTHOMODE
 70
     0
  9
$REGENMODE
 70
     1
  9
$FILLMODE
 70
     1
  9
$QTEXTMODE
 70
     0
  9
$MIRRTEXT
 70
     0
  9
$LTSCALE
 40
1.666666666666666
  9
$ATTMODE
 70
     1
  9
$TEXTSIZE
 40
0.2
  9
$TRACEWID
 40
0.05
  9
$TEXTSTYLE
  7
Standard
  9
$CLAYER
  8
0
  9
$CELTYPE
  6
ByLayer
  9
$CECOLOR
 62
   256
  9
$CELTSCALE
 40
1.0
  9
$DISPSILH
 70
     0
  9
$DIMSCALE
 40
1.0
  9
$DIMASZ
 40
1.799999999999999
  9
$DIMEXO
 40
0.0625
  9
$DIMDLI
 40
0.38
  9
$DIMRND
 40
0.0
  9
$DIMDLE
 40
0.0
  9
$DIMEXE
 40
0.18
  9
$DIMTP
 40
0.0
  9
$DIMTM
 40
0.0
  9
$DIMTXT
 40
0.25
  9
$DIMCEN
 40
0.09
  9
$DIMTSZ
 40
0.0
  9
$DIMTOL
 70
     0
  9
$DIMLIM
 70
     0
  9
$DIMTIH
 70
     1
  9
$DIMTOH
 70
     1
  9
$DIMSE1
 70
     0
  9
$DIMSE2
 70
     0
  9
$DIMTAD
 70
     0
  9
$DIMZIN
 70
     0
  9
$DIMBLK
  1

  9
$DIMASO
 70
     1
  9
$DIMSHO
 70
     1
  9
$DIMPOST
  1

  9
$DIMAPOST
  1

  9
$DIMALT
 70
     0
  9
$DIMALTD
 70
     2
  9
$DIMALTF
 40
25.4
  9
$DIMLFAC
 40
1.0
  9
$DIMTOFL
 70
     0
  9
$DIMTVP
 40
0.0
  9
$DIMTIX
 70
     0
  9
$DIMSOXD
 70
     0
  9
$DIMSAH
 70
     0
  9
$DIMBLK1
  1

  9
$DIMBLK2
  1

  9
$DIMSTYLE
  2
Standard
  9
$DIMCLRD
 70
     0
  9
$DIMCLRE
 70
     0
  9
$DIMCLRT
 70
     0
  9
$DIMTFAC
 40
1.0
  9
$DIMGAP
 40
0.09
  9
$DIMJUST
 70
     0
  9
$DIMSD1
 70
     0
  9
$DIMSD2
 70
     0
  9
$DIMTOLJ
 70
     1
  9
$DIMTZIN
 70
     0
  9
$DIMALTZ
 70
     0
  9
$DIMALTTZ
 70
     0
  9
$DIMUPT
 70
     0
  9
$DIMDEC
 70
     4
  9
$DIMTDEC
 70
     4
  9
$DIMALTU
 70
     2
  9
$DIMALTTD
 70
     2
  9
$DIMTXSTY
  7
Standard
  9
$DIMAUNIT
 70
     0
  9
$DIMADEC
 70
     0
  9
$DIMALTRND
 40
0.0
  9
$DIMAZIN
 70
     0
  9
$DIMDSEP
 70
    46
  9
$DIMATFIT
 70
     3
  9
$DIMFRAC
 70
     0
  9
$DIMLDRBLK
  1

  9
$DIMLUNIT
 70
     2
  9
$DIMLWD
 70
    -2
  9
$DIMLWE
 70
    -2
  9
$DIMTMOVE
 70
     0
  9
$DIMFXL
 40
1.0
  9
$DIMFXLON
 70
     0
  9
$DIMJOGANG
 40
0.7853981633974483
  9
$DIMTFILL
 70
     0
  9
$DIMTFILLCLR
 70
     0
  9
$DIMARCSYM
 70
     0
  9
$DIMLTYPE
  6

  9
$DIMLTEX1
  6

  9
$DIMLTEX2
  6

  9
$DIMTXTDIRECTION
 70
     0
  9
$LUNITS
 70
     2
  9
$LUPREC
 70
     4
  9
$SKETCHINC
 40
0.1
  9
$FILLETRAD
 40
0.0
  9
$AUNITS
 70
     0
  9
$AUPREC
 70
     0
  9
$MENU
  1
.
  9
$ELEVATION
 40
0.0
  9
$PELEVATION
 40
0.0
  9
$THICKNESS
 40
0.0
  9
$LIMCHECK
 70
     0
  9
$CHAMFERA
 40
0.0
  9
$CHAMFERB
 40
0.0
  9
$CHAMFERC
 40
0.0
  9
$CHAMFERD
 40
0.0
  9
$SKPOLY
 70
     0
  9
$TDCREATE
 40
2456849.523182871
  9
$TDUCREATE
 40
2456849.106519294
  9
$TDUPDATE
 40
2458071.344942130
  9
$TDUUPDATE
 40
2458070.886608796
  9
$TDINDWG
 40
0.0001720486
  9
$TDUSRTIMER
 40
0.0001720486
  9
$USRTIMER
 70
     1
  9
$ANGBASE
 50
0.0
  9
$ANGDIR
 70
     0
  9
$PDMODE
 70
     0
  9
$PDSIZE
 40
0.0
  9
$PLINEWID
 40
0.0
  9
$SPLFRAME
 70
     0
  9
$SPLINETYPE
 70
     6
  9
$SPLINESEGS
 70
     8
  9
$HANDSEED
  5
80D
  9
$SURFTAB1
 70
     6
  9
$SURFTAB2
 70
     6
  9
$SURFTYPE
 70
     6
  9
$SURFU
 70
     6
  9
$SURFV
 70
     6
  9
$UCSBASE
  2

  9
$UCSNAME
  2

  9
$UCSORG
 10
0.0
 20
0.0
 30
0.0
  9
$UCSXDIR
 10
1.0
 20
0.0
 30
0.0
  9
$UCSYDIR
 10
0.0
 20
1.0
 30
0.0
  9
$UCSORTHOREF
  2

  9
$UCSORTHOVIEW
 70
     0
  9
$UCSORGTOP
 10
0.0
 20
0.0
 30
0.0
  9
$UCSORGBOTTOM
 10
0.0
 20
0.0
 30
0.0
  9
$UCSORGLEFT
 10
0.0
 20
0.0
 30
0.0
  9
$UCSORGRIGHT
 10
0.0
 20
0.0
 30
0.0
  9
$UCSORGFRONT
 10
0.0
 20
0.0
 30
0.0
  9
$UCSORGBACK
 10
0.0
 20
0.0
 30
0.0
  9
$PUCSBASE
  2

  9
$PUCSNAME
  2

  9
$PUCSORG
 10
0.0
 20
0.0
 30
0.0
  9
$PUCSXDIR
 10
1.0
 20
0.0
 30
0.0
  9
$PUCSYDIR
 10
0.0
 20
1.0
 30
0.0
  9
$PUCSORTHOREF
  2

  9
$PUCSORTHOVIEW
 70
     0
  9
$PUCSORGTOP
 10
0.0
 20
0.0
 30
0.0
  9
$PUCSORGBOTTOM
 10
0.0
 20
0.0
 30
0.0
  9
$PUCSORGLEFT
 10
0.0
 20
0.0
 30
0.0
  9
$PUCSORGRIGHT
 10
0.0
 20
0.0
 30
0.0
  9
$PUCSORGFRONT
 10
0.0
 20
0.0
 30
0.0
  9
$PUCSORGBACK
 10
0.0
 20
0.0
 30
0.0
  9
$USERI1
 70
     0
  9
$USERI2
 70
     0
  9
$USERI3
 70
     0
  9
$USERI4
 70
     0
  9
$USERI5
 70
     0
  9
$USERR1
 40
0.0
  9
$USERR2
 40
0.0
  9
$USERR3
 40
0.0
  9
$USERR4
 40
0.0
  9
$USERR5
 40
0.0
  9
$WORLDVIEW
 70
     1
  9
$SHADEDGE
 70
     3
  9
$SHADEDIF
 70
    70
  9
$TILEMODE
 70
     1
  9
$MAXACTVP
 70
    64
  9
$PINSBASE
 10
0.0
 20
0.0
 30
0.0
  9
$PLIMCHECK
 70
     0
  9
$PEXTMIN
 10
0.0
 20
0.0
 30
0.0
  9
$PEXTMAX
 10
495.0
 20
350.0
 30
0.0
  9
$PLIMMIN
 10
0.0
 20
0.0
  9
$PLIMMAX
 10
495.0
 20
350.0
  9
$UNITMODE
 70
     0
  9
$VISRETAIN
 70
     1
  9
$PLINEGEN
 70
     0
  9
$PSLTSCALE
 70
     1
  9
$TREEDEPTH
 70
  3020
  9
$CMLSTYLE
  2
Standard
  9
$CMLJUST
 70
     0
  9
$CMLSCALE
 40
1.0
  9
$PROXYGRAPHICS
 70
     1
  9
$MEASUREMENT
 70
     1
  9
$CELWEIGHT
370
    -1
  9
$ENDCAPS
280
     0
  9
$JOINSTYLE
280
     0
  9
$LWDISPLAY
290
     0
  9
$INSUNITS
 70
     4
  9
$HYPERLINKBASE
  1

  9
$STYLESHEET
  1

  9
$XEDIT
290
     1
  9
$CEPSNTYPE
380
     0
  9
$PSTYLEMODE
290
     1
  9
$FINGERPRINTGUID
  2
{F1F629AC-631D-4D3B-AA7F-4B4FF5D41044}
  9
$VERSIONGUID
  2
{3711970B-3A4E-604A-8915-B68C6175E5C1}
  9
$EXTNAMES
290
     1
  9
$PSVPSCALE
 40
0.0
  9
$OLESTARTUP
290
     0
  9
$SORTENTS
280
   127
  9
$INDEXCTL
280
     0
  9
$HIDETEXT
280
     1
  9
$XCLIPFRAME
280
     2
  9
$HALOGAP
280
     0
  9
$OBSCOLOR
 70
   257
  9
$OBSLTYPE
280
     0
  9
$INTERSECTIONDISPLAY
280
     0
  9
$INTERSECTIONCOLOR
 70
   257
  9
$DIMASSOC
280
     1
  9
$PROJECTNAME
  1

  9
$CAMERADISPLAY
290
     0
  9
$LENSLENGTH
 40
50.0
  9
$CAMERAHEIGHT
 40
0.0
  9
$STEPSPERSEC
 40
2.0
  9
$STEPSIZE
 40
6.0
  9
$3DDWFPREC
 40
2.0
  9
$PSOLWIDTH
 40
0.25
  9
$PSOLHEIGHT
 40
4.0
  9
$LOFTANG1
 40
1.570796326794896
  9
$LOFTANG2
 40
1.570796326794896
  9
$LOFTMAG1
 40
0.0
  9
$LOFTMAG2
 40
0.0
  9
$LOFTPARAM
 70
     7
  9
$LOFTNORMALS
280
     1
  9
$LATITUDE
 40
37.795
  9
$LONGITUDE
 40
-122.394
  9
$NORTHDIRECTION
 40
0.0
  9
$TIMEZONE
 70
 -8000
  9
$LIGHTGLYPHDISPLAY
280
     1
  9
$TILEMODELIGHTSYNCH
280
     1
  9
$CMATERIAL
347
11
  9
$SOLIDHIST
280
     0
  9
$SHOWHIST
280
     1
  9
$DWFFRAME
280
     2
  9
$DGNFRAME
280
     0
  9
$REALWORLDSCALE
290
     1
  9
$INTERFERECOLOR
 62
     1
  9
$INTERFEREOBJVS
345
33
  9
$INTERFEREVPVS
346
30
  9
$CSHADOW
280
     0
  9
$SHADOWPLANELOCATION
 40
0.0
  0
ENDSEC
  0
SECTION
  2
CLASSES
  0
CLASS
  1
ACDBDICTIONARYWDFLT
  2
AcDbDictionaryWithDefault
  3
ObjectDBX Classes
 90
        0
 91
        1
280
     0
281
     0
  0
CLASS
  1
MATERIAL
  2
AcDbMaterial
  3
ObjectDBX Classes
 90
     1153
 91
        3
280
     0
281
     0
  0
CLASS
  1
VISUALSTYLE
  2
AcDbVisualStyle
  3
ObjectDBX Classes
 90
     4095
 91
       24
280
     0
281
     0
  0
CLASS
  1
SCALE
  2
AcDbScale
  3
ObjectDBX Classes
 90
     1153
 91
       17
280
     0
281
     0
  0
CLASS
  1
TABLESTYLE
  2
AcDbTableStyle
  3
ObjectDBX Classes
 90
     4095
 91
        1
280
     0
281
     0
  0
CLASS
  1
MLEADERSTYLE
  2
AcDbMLeaderStyle
  3
ACDB_MLEADERSTYLE_CLASS
 90
     4095
 91
        1
280
     0
281
     0
  0
CLASS
  1
ACDBSECTIONVIEWSTYLE
  2
AcDbSectionViewStyle
  3
ObjectDBX Classes
 90
     1025
 91
        2
280
     0
281
     0
  0
CLASS
  1
ACDBDETAILVIEWSTYLE
  2
AcDbDetailViewStyle
  3
ObjectDBX Classes
 90
     1025
 91
        2
280
     0
281
     0
  0
CLASS
  1
DICTIONARYVAR
  2
AcDbDictionaryVar
  3
ObjectDBX Classes
 90
        0
 91
        5
280
     0
281
     0
  0
CLASS
  1
CELLSTYLEMAP
  2
AcDbCellStyleMap
  3
ObjectDBX Classes
 90
     1152
 91
        2
280
     0
281
     0
  0
ENDSEC
  0
SECTION
  2
TABLES
  0
TABLE
  2
VPORT
  5
8
330
0
100
AcDbSymbolTable
 70
     1
1001
ACAD
1000
DbSaveVer
1071
        5
  0
VPORT
  5
57
330
8
100
AcDbSymbolTableRecord
100
AcDbViewportTableRecord
  2
*Active
 70
     0
 10
0.0
 20
0.0
 11
1.0
 21
1.0
 12
236.5857707931263
 22
161.7019661314575
 13
0.0
 23
0.0
 14
1.0
 24
1.0
 15
0.0
 25
0.0
 16
0.0
 26
0.0
 36
1.0
 17
0.0
 27
0.0
 37
0.0
 40
200.1316434730721
 41
2.292712066905615
 42
50.0
 43
0.0
 44
0.0
 50
0.0
 51
0.0
 71
     0
 72
   100
 73
     1
 74
     1
 75
     0
 76
     0
 77
     0
 78
     0
281
     0
 65
     1
110
0.0
120
0.0
130
0.0
111
1.0
121
0.0
131
0.0
112
0.0
122
1.0
132
0.0
 79
     0
146
0.0
348
2F
 60
     3
 61
     5
292
     1
282
     1
141
0.0
142
0.0
 63
   250
421
  3355443
1001
ACAD_NAV_VCDISPLAY
1070
     3
  0
ENDTAB
  0
TABLE
  2
LTYPE
  5
5
330
0
100
AcDbSymbolTable
 70
    59
  0
LTYPE
  5
5B
330
5
100
AcDbSymbolTableRecord
100
AcDbLinetypeTableRecord
  2
ByBlock
 70
     0
  3

 72
    65
 73
     0
 40
0.0
  0
LTYPE
  5
5C
330
5
100
AcDbSymbolTableRecord
100
AcDbLinetypeTableRecord
  2
ByLayer
 70
     0
  3

 72
    65
 73
     0
 40
0.0
  0
LTYPE
  5
5D
330
5
100
AcDbSymbolTableRecord
100
AcDbLinetypeTableRecord
  2
Continuous
 70
     0
  3
Solid line
 72
    65
 73
     0
 40
0.0
  0
LTYPE
  5
69
330
5
100
AcDbSymbolTableRecord
100
AcDbLinetypeTableRecord
  2
PHANTOM2
 70
     0
  3
Phantom (.5x) ___ _ _ ___ _ _ ___ _ _ ___ _ _
 72
    65
 73
     6
 40
1.25
 49
0.625
 74
     0
 49
-0.125
 74
     0
 49
0.125
 74
     0
 49
-0.125
 74
     0
 49
0.125
 74
     0
 49
-0.125
 74
     0
  0
LTYPE
  5
79
330
5
100
AcDbSymbolTableRecord
100
AcDbLinetypeTableRecord
  2
Section_View_Lines
 70
     0
  3
Section View Lines
 72
    65
 73
     4
 40
0.8406
 49
0.6614
 74
     0
 49
-0.0827
 74
     0
 49
0.0138
 74
     0
 49
-0.0827
 74
     0
  0
LTYPE
  5
7A
330
5
100
AcDbSymbolTableRecord
100
AcDbLinetypeTableRecord
  2
CHAIN
 70
     0
  3
Chain ____ _ ____ _ ____ _ ____ _ ____ _ ____
 72
    65
 73
     4
 40
0.3543
 49
0.2362
 74
     0
 49
-0.0295
 74
     0
 49
0.0591
 74
     0
 49
-0.0295
 74
     0
  0
LTYPE
  5
7B
330
5
100
AcDbSymbolTableRecord
100
AcDbLinetypeTableRecord
  2
DASH_DOT
 70
     0
  3
Dash dot _._._._._._._._._._._._._._._.
 72
    65
 73
     4
 40
0.182
 49
0.1181
 74
     0
 49
-0.0295
 74
     0
 49
0.0049
 74
     0
 49
-0.0295
 74
     0
  0
LTYPE
  5
7C
330
5
100
AcDbSymbolTableRecord
100
AcDbLinetypeTableRecord
  2
DASH_DOUBLE_DOT
 70
     0
  3
Dash Double Dot __ __ . __ __ . __ __ . __ _
 72
    65
 73
     6
 40
0.2164
 49
0.1181
 74
     0
 49
-0.0295
 74
     0
 49
0.0049
 74
     0
 49
-0.0295
 74
     0
 49
0.0049
 74
     0
 49
-0.0295
 74
     0
  0
LTYPE
  5
7D
330
5
100
AcDbSymbolTableRecord
100
AcDbLinetypeTableRecord
  2
DASH_TRIPLE_DOT
 70
     0
  3
Dash Triple-Dot _ . . . _ . . . _ . . . _
 72
    65
 73
     8
 40
0.2508
 49
0.1181
 74
     0
 49
-0.0295
 74
     0
 49
0.0049
 74
     0
 49
-0.0295
 74
     0
 49
0.0049
 74
     0
 49
-0.0295
 74
     0
 49
0.0049
 74
     0
 49
-0.0295
 74
     0
  0
LTYPE
  5
7E
330
5
100
AcDbSymbolTableRecord
100
AcDbLinetypeTableRecord
  2
DASHED
 70
     0
  3
Dashed __ __ __ __ __ __ __ __ __ __ __ __ __ _
 72
    65
 73
     2
 40
0.2068
 49
0.1655
 74
     0
 49
-0.0413
 74
     0
  0
LTYPE
  5
7F
330
5
100
AcDbSymbolTableRecord
100
AcDbLinetypeTableRecord
  2
DASHED_SPACE
 70
     0
  3
Dashed Space __ __ __ __ __ __ __ __ __ __ __ _
 72
    65
 73
     2
 40
0.2067
 49
0.1654
 74
     0
 49
-0.0413
 74
     0
  0
LTYPE
  5
80
330
5
100
AcDbSymbolTableRecord
100
AcDbLinetypeTableRecord
  2
DOTTED
 70
     0
  3
Dotted . . . . . . . . . . . . . . . . . . . . 
 72
    65
 73
     2
 40
0.0481
 49
0.0068
 74
     0
 49
-0.0413
 74
     0
  0
LTYPE
  5
81
330
5
100
AcDbSymbolTableRecord
100
AcDbLinetypeTableRecord
  2
DOUBLE_DASH_CHAIN
 70
     0
  3
Double Dash Chain ___ _ _ ___ _ _ ___ _ _ ___ _
 72
    65
 73
     6
 40
1.240299999999998
 49
0.6614
 74
     0
 49
-0.0827
 74
     0
 49
0.1654
 74
     0
 49
-0.0827
 74
     0
 49
0.1654
 74
     0
 49
-0.0827
 74
     0
  0
LTYPE
  5
82
330
5
100
AcDbSymbolTableRecord
100
AcDbLinetypeTableRecord
  2
DOUBLE_DASH_DOT
 70
     0
  3
Double Dash Dot __ __ . __ __ . __ __ . __ _
 72
    65
 73
     6
 40
0.3296
 49
0.1181
 74
     0
 49
-0.0295
 74
     0
 49
0.1181
 74
     0
 49
-0.0295
 74
     0
 49
0.0049
 74
     0
 49
-0.0295
 74
     0
  0
LTYPE
  5
83
330
5
100
AcDbSymbolTableRecord
100
AcDbLinetypeTableRecord
  2
DOUBLE_DASH_DOUBLE_DOT
 70
     0
  3
Double Dash Double Dot _ _ . . _ _ . . _ _
 72
    65
 73
     8
 40
0.364
 49
0.1181
 74
     0
 49
-0.0295
 74
     0
 49
0.1181
 74
     0
 49
-0.0295
 74
     0
 49
0.0049
 74
     0
 49
-0.0295
 74
     0
 49
0.0049
 74
     0
 49
-0.0295
 74
     0
  0
LTYPE
  5
84
330
5
100
AcDbSymbolTableRecord
100
AcDbLinetypeTableRecord
  2
DOUBLE_DASH_TRIPLE_DOT
 70
     0
  3
Double Dash Triple Dot __ __ . . . __ __ . . .
 72
    65
 73
    10
 40
0.3984
 49
0.1181
 74
     0
 49
-0.0295
 74
     0
 49
0.1181
 74
     0
 49
-0.0295
 74
     0
 49
0.0049
 74
     0
 49
-0.0295
 74
     0
 49
0.0049
 74
     0
 49
-0.0295
 74
     0
 49
0.0049
 74
     0
 49
-0.0295
 74
     0
  0
LTYPE
  5
85
330
5
100
AcDbSymbolTableRecord
100
AcDbLinetypeTableRecord
  2
LONG_DASH_DOTTED
 70
     0
  3
Long Dash Dotted ____ . ____ . ____ . ____ . _
 72
    65
 73
     4
 40
0.3001
 49
0.2362
 74
     0
 49
-0.0295
 74
     0
 49
0.0049
 74
     0
 49
-0.0295
 74
     0
  0
LTYPE
  5
86
330
5
100
AcDbSymbolTableRecord
100
AcDbLinetypeTableRecord
  2
LONG_DASH_DOUBLE_DOT
 70
     0
  3
Long Dash Double Dot ____ . . ____ . . ____ . .
 72
    65
 73
     6
 40
0.3345
 49
0.2362
 74
     0
 49
-0.0295
 74
     0
 49
0.0049
 74
     0
 49
-0.0295
 74
     0
 49
0.0049
 74
     0
 49
-0.0295
 74
     0
  0
LTYPE
  5
87
330
5
100
AcDbSymbolTableRecord
100
AcDbLinetypeTableRecord
  2
LONG_DASH_TRIPLE_DOT
 70
     0
  3
Long Dash Triple Dot ____ ... ____ ... ____
 72
    65
 73
     8
 40
0.3689
 49
0.2362
 74
     0
 49
-0.0295
 74
     0
 49
0.0049
 74
     0
 49
-0.0295
 74
     0
 49
0.0049
 74
     0
 49
-0.0295
 74
     0
 49
0.0049
 74
     0
 49
-0.0295
 74
     0
  0
LTYPE
  5
88
330
5
100
AcDbSymbolTableRecord
100
AcDbLinetypeTableRecord
  2
BORDER
 70
     0
  3
Border __ __ . __ __ . __ __ . __ __ . __ __ .
 72
    65
 73
     6
 40
44.45
 49
12.7
 74
     0
 49
-6.349999999999998
 74
     0
 49
12.7
 74
     0
 49
-6.349999999999998
 74
     0
 49
0.0
 74
     0
 49
-6.349999999999998
 74
     0
  0
LTYPE
  5
89
330
5
100
AcDbSymbolTableRecord
100
AcDbLinetypeTableRecord
  2
BORDER2
 70
     0
  3
Border (.5x) __.__.__.__.__.__.__.__.__.__.__.
 72
    65
 73
     6
 40
22.225
 49
6.349999999999998
 74
     0
 49
-3.174999999999998
 74
     0
 49
6.349999999999998
 74
     0
 49
-3.174999999999998
 74
     0
 49
0.0
 74
     0
 49
-3.174999999999998
 74
     0
  0
LTYPE
  5
8A
330
5
100
AcDbSymbolTableRecord
100
AcDbLinetypeTableRecord
  2
BORDERX2
 70
     0
  3
Border (2x) ____  ____  .  ____  ____  .  ___
 72
    65
 73
     6
 40
88.9
 49
25.4
 74
     0
 49
-12.7
 74
     0
 49
25.4
 74
     0
 49
-12.7
 74
     0
 49
0.0
 74
     0
 49
-12.7
 74
     0
  0
LTYPE
  5
8B
330
5
100
AcDbSymbolTableRecord
100
AcDbLinetypeTableRecord
  2
CENTER
 70
     0
  3
Center ____ _ ____ _ ____ _ ____ _ ____ _ ____
 72
    65
 73
     4
 40
50.8
 49
31.75
 74
     0
 49
-6.349999999999998
 74
     0
 49
6.349999999999998
 74
     0
 49
-6.349999999999998
 74
     0
  0
LTYPE
  5
8C
330
5
100
AcDbSymbolTableRecord
100
AcDbLinetypeTableRecord
  2
CENTER2
 70
     0
  3
Center (.5x) ___ _ ___ _ ___ _ ___ _ ___ _ ___
 72
    65
 73
     4
 40
28.575
 49
19.05
 74
     0
 49
-3.174999999999998
 74
     0
 49
3.174999999999998
 74
     0
 49
-3.174999999999998
 74
     0
  0
LTYPE
  5
8D
330
5
100
AcDbSymbolTableRecord
100
AcDbLinetypeTableRecord
  2
CENTERX2
 70
     0
  3
Center (2x) ________  __  ________  __  _____
 72
    65
 73
     4
 40
101.6
 49
63.5
 74
     0
 49
-12.7
 74
     0
 49
12.7
 74
     0
 49
-12.7
 74
     0
  0
LTYPE
  5
8E
330
5
100
AcDbSymbolTableRecord
100
AcDbLinetypeTableRecord
  2
DASHDOT2
 70
     0
  3
Dash dot (.5x) _._._._._._._._._._._._._._._.
 72
    65
 73
     4
 40
12.7
 49
6.349999999999998
 74
     0
 49
-3.174999999999998
 74
     0
 49
0.0
 74
     0
 49
-3.174999999999998
 74
     0
  0
LTYPE
  5
8F
330
5
100
AcDbSymbolTableRecord
100
AcDbLinetypeTableRecord
  2
DASHDOTX2
 70
     0
  3
Dash dot (2x) ____  .  ____  .  ____  .  ___
 72
    65
 73
     4
 40
50.8
 49
25.4
 74
     0
 49
-12.7
 74
     0
 49
0.0
 74
     0
 49
-12.7
 74
     0
  0
LTYPE
  5
90
330
5
100
AcDbSymbolTableRecord
100
AcDbLinetypeTableRecord
  2
DASHED2
 70
     0
  3
Dashed (.5x) _ _ _ _ _ _ _ _ _ _ _ _ _ _ _ _ _
 72
    65
 73
     2
 40
9.524999999999996
 49
6.349999999999998
 74
     0
 49
-3.174999999999998
 74
     0
  0
LTYPE
  5
91
330
5
100
AcDbSymbolTableRecord
100
AcDbLinetypeTableRecord
  2
DASHEDX2
 70
     0
  3
Dashed (2x) ____  ____  ____  ____  ____  ___
 72
    65
 73
     2
 40
38.1
 49
25.4
 74
     0
 49
-12.7
 74
     0
  0
LTYPE
  5
92
330
5
100
AcDbSymbolTableRecord
100
AcDbLinetypeTableRecord
  2
DIVIDE
 70
     0
  3
Divide ____ . . ____ . . ____ . . ____ . . ____
 72
    65
 73
     6
 40
31.75
 49
12.7
 74
     0
 49
-6.349999999999998
 74
     0
 49
0.0
 74
     0
 49
-6.349999999999998
 74
     0
 49
0.0
 74
     0
 49
-6.349999999999998
 74
     0
  0
LTYPE
  5
93
330
5
100
AcDbSymbolTableRecord
100
AcDbLinetypeTableRecord
  2
DIVIDE2
 70
     0
  3
Divide (.5x) __..__..__..__..__..__..__..__.._
 72
    65
 73
     6
 40
15.875
 49
6.349999999999998
 74
     0
 49
-3.174999999999998
 74
     0
 49
0.0
 74
     0
 49
-3.174999999999998
 74
     0
 49
0.0
 74
     0
 49
-3.174999999999998
 74
     0
  0
LTYPE
  5
94
330
5
100
AcDbSymbolTableRecord
100
AcDbLinetypeTableRecord
  2
DIVIDEX2
 70
     0
  3
Divide (2x) ________  .  .  ________  .  .  _
 72
    65
 73
     6
 40
63.49999999999999
 49
25.4
 74
     0
 49
-12.7
 74
     0
 49
0.0
 74
     0
 49
-12.7
 74
     0
 49
0.0
 74
     0
 49
-12.7
 74
     0
  0
LTYPE
  5
95
330
5
100
AcDbSymbolTableRecord
100
AcDbLinetypeTableRecord
  2
DOT
 70
     0
  3
Dot . . . . . . . . . . . . . . . . . . . . . .
 72
    65
 73
     2
 40
6.349999999999998
 49
0.0
 74
     0
 49
-6.349999999999998
 74
     0
  0
LTYPE
  5
96
330
5
100
AcDbSymbolTableRecord
100
AcDbLinetypeTableRecord
  2
DOT2
 70
     0
  3
Dot (.5x) .....................................
 72
    65
 73
     2
 40
3.174999999999998
 49
0.0
 74
     0
 49
-3.174999999999998
 74
     0
  0
LTYPE
  5
97
330
5
100
AcDbSymbolTableRecord
100
AcDbLinetypeTableRecord
  2
DOTX2
 70
     0
  3
Dot (2x) .  .  .  .  .  .  .  .  .  .  .  .  . 
 72
    65
 73
     2
 40
12.7
 49
0.0
 74
     0
 49
-12.7
 74
     0
  0
LTYPE
  5
98
330
5
100
AcDbSymbolTableRecord
100
AcDbLinetypeTableRecord
  2
HIDDEN
 70
     0
  3
Hidden __ __ __ __ __ __ __ __ __ __ __ __ __ _
 72
    65
 73
     2
 40
9.524999999999996
 49
6.349999999999998
 74
     0
 49
-3.174999999999998
 74
     0
  0
LTYPE
  5
99
330
5
100
AcDbSymbolTableRecord
100
AcDbLinetypeTableRecord
  2
HIDDEN2
 70
     0
  3
Hidden (.5x) _ _ _ _ _ _ _ _ _ _ _ _ _ _ _ _ _
 72
    65
 73
     2
 40
4.762499999999998
 49
3.174999999999998
 74
     0
 49
-1.587499999999999
 74
     0
  0
LTYPE
  5
9A
330
5
100
AcDbSymbolTableRecord
100
AcDbLinetypeTableRecord
  2
HIDDENX2
 70
     0
  3
Hidden (2x) ____ ____ ____ ____ ____ ____ ____
 72
    65
 73
     2
 40
19.05
 49
12.7
 74
     0
 49
-6.349999999999998
 74
     0
  0
LTYPE
  5
9B
330
5
100
AcDbSymbolTableRecord
100
AcDbLinetypeTableRecord
  2
PHANTOM
 70
     0
  3
Phantom ______  __  __  ______  __  __  ______
 72
    65
 73
     6
 40
63.5
 49
31.75
 74
     0
 49
-6.349999999999998
 74
     0
 49
6.349999999999998
 74
     0
 49
-6.349999999999998
 74
     0
 49
6.349999999999998
 74
     0
 49
-6.349999999999998
 74
     0
  0
LTYPE
  5
9D
330
5
100
AcDbSymbolTableRecord
100
AcDbLinetypeTableRecord
  2
PHANTOMX2
 70
     0
  3
Phantom (2x) ____________    ____    ____   _
 72
    65
 73
     6
 40
127.0
 49
63.5
 74
     0
 49
-12.7
 74
     0
 49
12.7
 74
     0
 49
-12.7
 74
     0
 49
12.7
 74
     0
 49
-12.7
 74
     0
  0
LTYPE
  5
9E
330
5
100
AcDbSymbolTableRecord
100
AcDbLinetypeTableRecord
  2
ACAD_ISO02W100
 70
     0
  3
ISO dash __ __ __ __ __ __ __ __ __ __ __ __ __
 72
    65
 73
     2
 40
15.0
 49
12.0
 74
     0
 49
-3.0
 74
     0
  0
LTYPE
  5
9F
330
5
100
AcDbSymbolTableRecord
100
AcDbLinetypeTableRecord
  2
ACAD_ISO03W100
 70
     0
  3
ISO dash space __    __    __    __    __    __
 72
    65
 73
     2
 40
30.0
 49
12.0
 74
     0
 49
-18.0
 74
     0
  0
LTYPE
  5
A0
330
5
100
AcDbSymbolTableRecord
100
AcDbLinetypeTableRecord
  2
ACAD_ISO04W100
 70
     0
  3
ISO long-dash dot ____ . ____ . ____ . ____ . _
 72
    65
 73
     4
 40
30.0
 49
24.0
 74
     0
 49
-3.0
 74
     0
 49
0.0
 74
     0
 49
-3.0
 74
     0
  0
LTYPE
  5
A1
330
5
100
AcDbSymbolTableRecord
100
AcDbLinetypeTableRecord
  2
ACAD_ISO05W100
 70
     0
  3
ISO long-dash double-dot ____ .. ____ .. ____ .
 72
    65
 73
     6
 40
33.0
 49
24.0
 74
     0
 49
-3.0
 74
     0
 49
0.0
 74
     0
 49
-3.0
 74
     0
 49
0.0
 74
     0
 49
-3.0
 74
     0
  0
LTYPE
  5
A2
330
5
100
AcDbSymbolTableRecord
100
AcDbLinetypeTableRecord
  2
ACAD_ISO06W100
 70
     0
  3
ISO long-dash triple-dot ____ ... ____ ... ____
 72
    65
 73
     8
 40
36.0
 49
24.0
 74
     0
 49
-3.0
 74
     0
 49
0.0
 74
     0
 49
-3.0
 74
     0
 49
0.0
 74
     0
 49
-3.0
 74
     0
 49
0.0
 74
     0
 49
-3.0
 74
     0
  0
LTYPE
  5
A3
330
5
100
AcDbSymbolTableRecord
100
AcDbLinetypeTableRecord
  2
ACAD_ISO07W100
 70
     0
  3
ISO dot . . . . . . . . . . . . . . . . . . . .
 72
    65
 73
     2
 40
3.0
 49
0.0
 74
     0
 49
-3.0
 74
     0
  0
LTYPE
  5
A4
330
5
100
AcDbSymbolTableRecord
100
AcDbLinetypeTableRecord
  2
ACAD_ISO08W100
 70
     0
  3
ISO long-dash short-dash ____ __ ____ __ ____ _
 72
    65
 73
     4
 40
36.0
 49
24.0
 74
     0
 49
-3.0
 74
     0
 49
6.0
 74
     0
 49
-3.0
 74
     0
  0
LTYPE
  5
A5
330
5
100
AcDbSymbolTableRecord
100
AcDbLinetypeTableRecord
  2
ACAD_ISO09W100
 70
     0
  3
ISO long-dash double-short-dash ____ __ __ ____
 72
    65
 73
     6
 40
45.0
 49
24.0
 74
     0
 49
-3.0
 74
     0
 49
6.0
 74
     0
 49
-3.0
 74
     0
 49
6.0
 74
     0
 49
-3.0
 74
     0
  0
LTYPE
  5
A6
330
5
100
AcDbSymbolTableRecord
100
AcDbLinetypeTableRecord
  2
ACAD_ISO10W100
 70
     0
  3
ISO dash dot __ . __ . __ . __ . __ . __ . __ .
 72
    65
 73
     4
 40
18.0
 49
12.0
 74
     0
 49
-3.0
 74
     0
 49
0.0
 74
     0
 49
-3.0
 74
     0
  0
LTYPE
  5
A7
330
5
100
AcDbSymbolTableRecord
100
AcDbLinetypeTableRecord
  2
ACAD_ISO11W100
 70
     0
  3
ISO double-dash dot __ __ . __ __ . __ __ . __ 
 72
    65
 73
     6
 40
33.0
 49
12.0
 74
     0
 49
-3.0
 74
     0
 49
12.0
 74
     0
 49
-3.0
 74
     0
 49
0.0
 74
     0
 49
-3.0
 74
     0
  0
LTYPE
  5
A8
330
5
100
AcDbSymbolTableRecord
100
AcDbLinetypeTableRecord
  2
ACAD_ISO12W100
 70
     0
  3
ISO dash double-dot __ . . __ . . __ . . __ . .
 72
    65
 73
     6
 40
21.0
 49
12.0
 74
     0
 49
-3.0
 74
     0
 49
0.0
 74
     0
 49
-3.0
 74
     0
 49
0.0
 74
     0
 49
-3.0
 74
     0
  0
LTYPE
  5
A9
330
5
100
AcDbSymbolTableRecord
100
AcDbLinetypeTableRecord
  2
ACAD_ISO13W100
 70
     0
  3
ISO double-dash double-dot __ __ . . __ __ . . 
 72
    65
 73
     8
 40
36.0
 49
12.0
 74
     0
 49
-3.0
 74
     0
 49
12.0
 74
     0
 49
-3.0
 74
     0
 49
0.0
 74
     0
 49
-3.0
 74
     0
 49
0.0
 74
     0
 49
-3.0
 74
     0
  0
LTYPE
  5
AA
330
5
100
AcDbSymbolTableRecord
100
AcDbLinetypeTableRecord
  2
ACAD_ISO14W100
 70
     0
  3
ISO dash triple-dot __ . . . __ . . . __ . . . 
 72
    65
 73
     8
 40
24.0
 49
12.0
 74
     0
 49
-3.0
 74
     0
 49
0.0
 74
     0
 49
-3.0
 74
     0
 49
0.0
 74
     0
 49
-3.0
 74
     0
 49
0.0
 74
     0
 49
-3.0
 74
     0
  0
LTYPE
  5
AB
330
5
100
AcDbSymbolTableRecord
100
AcDbLinetypeTableRecord
  2
ACAD_ISO15W100
 70
     0
  3
ISO double-dash triple-dot __ __ . . . __ __ . 
 72
    65
 73
    10
 40
39.0
 49
12.0
 74
     0
 49
-3.0
 74
     0
 49
12.0
 74
     0
 49
-3.0
 74
     0
 49
0.0
 74
     0
 49
-3.0
 74
     0
 49
0.0
 74
     0
 49
-3.0
 74
     0
 49
0.0
 74
     0
 49
-3.0
 74
     0
  0
LTYPE
  5
AE
330
5
100
AcDbSymbolTableRecord
100
AcDbLinetypeTableRecord
  2
FENCELINE1
 70
     0
  3
Fenceline circle ----0-----0----0-----0----0---
 72
    65
 73
     4
 40
36.83
 49
6.349999999999998
 74
     0
 49
-2.54
 74
     4
 75
   133
340
AD
 46
2.54
 50
0.0
 44
-2.54
 45
0.0
 49
-2.54
 74
     0
 49
25.4
 74
     0
  0
LTYPE
  5
AF
330
5
100
AcDbSymbolTableRecord
100
AcDbLinetypeTableRecord
  2
FENCELINE2
 70
     0
  3
Fenceline square ----[]-----[]----[]-----[]----
 72
    65
 73
     4
 40
36.83
 49
6.349999999999998
 74
     0
 49
-2.54
 74
     4
 75
   132
340
AD
 46
2.54
 50
0.0
 44
-2.54
 45
0.0
 49
-2.54
 74
     0
 49
25.4
 74
     0
  0
LTYPE
  5
B0
330
5
100
AcDbSymbolTableRecord
100
AcDbLinetypeTableRecord
  2
TRACKS
 70
     0
  3
Tracks -|-|-|-|-|-|-|-|-|-|-|-|-|-|-|-|-|-|-|-|
 72
    65
 73
     2
 40
7.62
 49
3.81
 74
     4
 75
   130
340
AD
 46
6.349999999999998
 50
0.0
 44
0.0
 45
0.0
 49
3.81
 74
     0
  0
LTYPE
  5
B1
330
5
100
AcDbSymbolTableRecord
100
AcDbLinetypeTableRecord
  2
BATTING
 70
     0
  3
Batting SSSSSSSSSSSSSSSSSSSSSSSSSSSSSSSSSSSSSSS
 72
    65
 73
     4
 40
10.16254
 49
0.00254
 74
     0
 49
-2.54
 74
     4
 75
   134
340
AD
 46
2.54
 50
0.0
 44
-2.54
 45
0.0
 49
-5.08
 74
     4
 75
   134
340
AD
 46
2.54
 50
180.0
 44
2.54
 45
0.0
 49
-2.54
 74
     0
  0
LTYPE
  5
B2
330
5
100
AcDbSymbolTableRecord
100
AcDbLinetypeTableRecord
  2
HOT_WATER_SUPPLY
 70
     0
  3
Hot water supply ---- HW ---- HW ---- HW ----
 72
    65
 73
     3
 40
22.86
 49
12.7
 74
     0
 49
-5.08
 74
     2
 75
     0
340
55
 46
2.54
 50
0.0
 44
-2.54
 45
-1.27
  9
HW
 49
-5.08
 74
     0
  0
LTYPE
  5
B3
330
5
100
AcDbSymbolTableRecord
100
AcDbLinetypeTableRecord
  2
GAS_LINE
 70
     0
  3
Gas line ----GAS----GAS----GAS----GAS----GAS---
 72
    65
 73
     3
 40
24.13
 49
12.7
 74
     0
 49
-5.08
 74
     2
 75
     0
340
55
 46
2.54
 50
0.0
 44
-2.54
 45
-1.27
  9
GAS
 49
-6.349999999999998
 74
     0
  0
LTYPE
  5
B4
330
5
100
AcDbSymbolTableRecord
100
AcDbLinetypeTableRecord
  2
ZIGZAG
 70
     0
  3
Zig zag /\/\/\/\/\/\/\/\/\/\/\/\/\/\/\/\/\/\/\/
 72
    65
 73
     4
 40
20.32254
 49
0.00254
 74
     0
 49
-5.08
 74
     4
 75
   131
340
AD
 46
5.08
 50
0.0
 44
-5.08
 45
0.0
 49
-10.16
 74
     4
 75
   131
340
AD
 46
5.08
 50
180.0
 44
5.08
 45
0.0
 49
-5.08
 74
     0
  0
ENDTAB
  0
TABLE
  2
LAYER
  5
2
330
0
100
AcDbSymbolTable
 70
     9
  0
LAYER
  5
54
330
2
100
AcDbSymbolTableRecord
100
AcDbLayerTableRecord
  2
0
 70
     0
 62
     7
  6
Continuous
370
    -3
390
F
347
21
348
0
  0
LAYER
  5
DA
330
2
100
AcDbSymbolTableRecord
100
AcDbLayerTableRecord
  2
Dimensions(Ram)
 70
     0
 62
     7
  6
Continuous
370
    25
390
F
347
21
348
0
  0
LAYER
  5
DB
330
2
100
AcDbSymbolTableRecord
100
AcDbLayerTableRecord
  2
Hatch
 70
     0
 62
   179
420
  1973831
  6
Continuous
370
     9
390
F
347
21
348
0
  0
LAYER
  5
EB
330
2
100
AcDbSymbolTableRecord
100
AcDbLayerTableRecord
  2
Sketch Geometry(Ram)
 70
     0
 62
     7
  6
Continuous
370
    50
390
F
347
21
348
0
  0
LAYER
  5
ED
330
2
100
AcDbSymbolTableRecord
100
AcDbLayerTableRecord
  2
Sketch Lines(Ram)
 70
     0
 62
     7
  6
Continuous
370
    18
390
F
347
21
348
0
  0
LAYER
  5
F7
330
2
100
AcDbSymbolTableRecord
100
AcDbLayerTableRecord
  2
Symbols(Ram)
 70
     0
 62
     7
  6
Continuous
370
    25
390
F
347
21
348
0
  0
LAYER
  5
FF
330
2
100
AcDbSymbolTableRecord
100
AcDbLayerTableRecord
  2
Visible Edges(Ram)
 70
     0
 62
     7
  6
Continuous
370
    50
390
F
347
21
348
0
  0
LAYER
  5
101
330
2
100
AcDbSymbolTableRecord
100
AcDbLayerTableRecord
  2
Visible Tangent Edges(Ram)
 70
     0
 62
     7
  6
Continuous
370
    25
390
F
347
21
348
0
  0
LAYER
  5
4BC
330
2
100
AcDbSymbolTableRecord
100
AcDbLayerTableRecord
  2
Defpoints
 70
     0
 62
     7
  6
Continuous
290
     0
370
    -3
390
F
347
21
348
0
  0
ENDTAB
  0
TABLE
  2
STYLE
  5
3
330
0
100
AcDbSymbolTable
 70
    16
  0
STYLE
  5
55
330
3
100
AcDbSymbolTableRecord
100
AcDbTextStyleTableRecord
  2
Standard
 70
     0
 40
0.0
 41
1.0
 50
0.0
 71
     0
 42
0.2
  3
arial.ttf
  4

1001
ACAD
1000
Arial
1071
      256
  0
STYLE
  5
5A
330
3
100
AcDbSymbolTableRecord
100
AcDbTextStyleTableRecord
  2
Annotative
 70
     0
 40
0.0
 41
1.0
 50
0.0
 71
     0
 42
0.2
  3
txt
  4

1001
AcadAnnotative
1000
AnnotativeData
1002
{
1070
     1
1070
     1
1002
}
  0
STYLE
  5
AD
330
3
100
AcDbSymbolTableRecord
100
AcDbTextStyleTableRecord
  2

 70
     1
 40
0.0
 41
1.0
 50
0.0
 71
     0
 42
0.2
  3
ltypeshp.shx
  4

  0
STYLE
  5
108
330
3
100
AcDbSymbolTableRecord
100
AcDbTextStyleTableRecord
  2
Current-ISO
 70
     0
 40
0.0
 41
1.0
 50
0.0
 71
     0
 42
0.2
  3
arial.ttf
  4

1001
ACAD
1000
Arial
1071
      256
  0
STYLE
  5
109
330
3
100
AcDbSymbolTableRecord
100
AcDbTextStyleTableRecord
  2
DEFAULT-BSI~0
 70
     0
 40
0.0
 41
1.0
 50
0.0
 71
     0
 42
0.2
  3
arial.ttf
  4

1001
ACAD
1000
Arial
1071
      256
  0
STYLE
  5
10A
330
3
100
AcDbSymbolTableRecord
100
AcDbTextStyleTableRecord
  2
DEFAULT-ISO
 70
     0
 40
0.0
 41
1.0
 50
0.0
 71
     0
 42
0.2
  3
arial.ttf
  4

1001
ACAD
1000
Arial
1071
      256
  0
STYLE
  5
10B
330
3
100
AcDbSymbolTableRecord
100
AcDbTextStyleTableRecord
  2
DEFAULT-ISOBigText
 70
     0
 40
0.0
 41
1.0
 50
0.0
 71
     0
 42
0.2
  3
arial.ttf
  4

1001
ACAD
1000
Arial
1071
      256
  0
STYLE
  5
10C
330
3
100
AcDbSymbolTableRecord
100
AcDbTextStyleTableRecord
  2
DEFAULT-ISOByLayer
 70
     0
 40
0.0
 41
1.0
 50
0.0
 71
     0
 42
0.2
  3
arial.ttf
  4

1001
ACAD
1000
Arial
1071
      256
  0
STYLE
  5
10D
330
3
100
AcDbSymbolTableRecord
100
AcDbTextStyleTableRecord
  2
Label Text (ISO)
 70
     0
 40
0.0
 41
1.0
 50
0.0
 71
     0
 42
0.2
  3
tahoma.ttf
  4

1001
ACAD
1000
Tahoma
1071
      256
  0
STYLE
  5
10E
330
3
100
AcDbSymbolTableRecord
100
AcDbTextStyleTableRecord
  2
Std 1.8 Arial
 70
     0
 40
0.0
 41
1.0
 50
0.0
 71
     0
 42
0.2
  3
arial.ttf
  4

1001
ACAD
1000
Arial
1071
      256
  0
STYLE
  5
10F
330
3
100
AcDbSymbolTableRecord
100
AcDbTextStyleTableRecord
  2
Std 2.0 Arial
 70
     0
 40
0.0
 41
1.0
 50
0.0
 71
     0
 42
0.2
  3
arial.ttf
  4

1001
ACAD
1000
Arial
1071
      256
  0
STYLE
  5
110
330
3
100
AcDbSymbolTableRecord
100
AcDbTextStyleTableRecord
  2
STD 2.5 ARIAL
 70
     0
 40
0.0
 41
1.0
 50
0.0
 71
     0
 42
0.2
  3
arial.ttf
  4

1001
ACAD
1000
Arial
1071
      256
  0
STYLE
  5
111
330
3
100
AcDbSymbolTableRecord
100
AcDbTextStyleTableRecord
  2
STD 2.5 ARIALBigText
 70
     0
 40
0.0
 41
1.0
 50
0.0
 71
     0
 42
0.2
  3
arial.ttf
  4

1001
ACAD
1000
Arial
1071
      256
  0
STYLE
  5
112
330
3
100
AcDbSymbolTableRecord
100
AcDbTextStyleTableRecord
  2
STD 2.5 ARIALByLayer
 70
     0
 40
0.0
 41
1.0
 50
0.0
 71
     0
 42
0.2
  3
arial.ttf
  4

1001
ACAD
1000
Arial
1071
      256
  0
STYLE
  5
14E
330
3
100
AcDbSymbolTableRecord
100
AcDbTextStyleTableRecord
  2
Text Style14
 70
     0
 40
0.0
 41
1.0
 50
0.0
 71
     0
 42
0.2
  3
arial.ttf
  4

1001
ACAD
1000
Arial
1071
      256
  0
STYLE
  5
321
330
3
100
AcDbSymbolTableRecord
100
AcDbTextStyleTableRecord
  2
Text Style58
 70
     0
 40
0.0
 41
1.0
 50
0.0
 71
     0
 42
0.2
  3
arialbd.ttf
  4

1001
ACAD
1000
Arial
1071
 33554688
  0
ENDTAB
  0
TABLE
  2
VIEW
  5
6
330
0
100
AcDbSymbolTable
 70
     0
  0
ENDTAB
  0
TABLE
  2
UCS
  5
7
330
0
100
AcDbSymbolTable
 70
     0
  0
ENDTAB
  0
TABLE
  2
APPID
  5
9
330
0
100
AcDbSymbolTable
 70
     4
  0
APPID
  5
56
330
9
100
AcDbSymbolTableRecord
100
AcDbRegAppTableRecord
  2
ACAD
 70
     0
  0
APPID
  5
5E
330
9
100
AcDbSymbolTableRecord
100
AcDbRegAppTableRecord
  2
AcadAnnotative
 70
     0
  0
APPID
  5
151
330
9
100
AcDbSymbolTableRecord
100
AcDbRegAppTableRecord
  2
AcadAnnoPO
 70
     0
  0
APPID
  5
7D1
330
9
100
AcDbSymbolTableRecord
100
AcDbRegAppTableRecord
  2
ACAD_NAV_VCDISPLAY
 70
     0
  0
ENDTAB
  0
TABLE
  2
DIMSTYLE
  5
A
330
0
100
AcDbSymbolTable
 70
    25
100
AcDbDimStyleTable
 71
     2
340
11F
340
58
  0
DIMSTYLE
105
58
330
A
100
AcDbSymbolTableRecord
100
AcDbDimStyleTableRecord
  2
Standard
 70
     0
340
55
  0
DIMSTYLE
105
59
330
A
100
AcDbSymbolTableRecord
100
AcDbDimStyleTableRecord
  2
Annotative
 70
     0
340
55
1001
AcadAnnotative
1000
AnnotativeData
1002
{
1070
     1
1070
     1
1002
}
  0
DIMSTYLE
105
113
330
A
100
AcDbSymbolTableRecord
100
AcDbDimStyleTableRecord
  2
DEFAULT-ISO
 70
     0
 40
1.666666666666666
 41
2.5
 42
1.0
 43
5.999999999999999
 44
3.174999999999998
 45
0.00000001
 46
10.0
 73
     0
 77
     1
140
2.5
143
0.03937
147
0.762
171
     3
172
     1
176
   250
177
   250
178
     7
179
     2
271
     2
272
     2
274
     3
340
109
371
    25
372
    25
  0
DIMSTYLE
105
114
330
A
100
AcDbSymbolTableRecord
100
AcDbDimStyleTableRecord
  2
DEFAULT-ISO$7
 70
     0
 40
1.666666666666666
 41
2.5
 42
1.0
 43
5.999999999999999
 44
3.174999999999998
 45
0.00000001
 46
10.0
 73
     0
 77
     1
140
2.5
143
0.03937
147
0.762
171
     3
172
     1
176
     7
177
   250
178
     7
179
     2
271
     2
272
     2
274
     3
340
109
371
    25
372
    25
  0
DIMSTYLE
105
115
330
A
100
AcDbSymbolTableRecord
100
AcDbDimStyleTableRecord
  2
DEFAULT-ISOBigText
 70
     0
 40
1.666666666666666
 41
5.0
 42
0.0
 43
5.999999999999999
 44
3.174999999999998
 45
0.00000001
 46
10.0
 73
     0
 74
     0
 77
     1
140
5.25
143
0.03937
146
0.6666666865348816
147
0.762
171
     3
172
     1
176
   250
177
   250
178
     7
179
     2
271
     2
272
     2
274
     3
278
    44
340
10B
371
    25
372
    25
  0
DIMSTYLE
105
116
330
A
100
AcDbSymbolTableRecord
100
AcDbDimStyleTableRecord
  2
DEFAULT-ISOBigText$7
 70
     0
 40
1.666666666666666
 41
5.0
 42
0.0
 43
5.999999999999999
 44
3.174999999999998
 45
0.00000001
 46
10.0
 73
     0
 74
     0
 77
     1
140
5.25
143
0.03937
146
0.6666666865348816
147
0.762
171
     3
172
     1
176
     7
177
   250
178
     7
179
     2
271
     2
272
     2
274
     3
278
    44
340
10B
371
    25
372
    25
  0
DIMSTYLE
105
117
330
A
100
AcDbSymbolTableRecord
100
AcDbDimStyleTableRecord
  2
POINTS
 70
     0
 40
1.666666666666666
 41
2.5
 42
1.3
 43
5.999999999999999
 44
2.0
 45
0.00000001
 46
10.0
 73
     0
 74
     0
 77
     1
140
2.5
143
0.03937
147
1.0
171
     3
172
     1
176
     7
177
     7
178
     7
271
     2
272
     1
274
     3
340
110
371
    25
372
    25
  0
DIMSTYLE
105
118
330
A
100
AcDbSymbolTableRecord
100
AcDbDimStyleTableRecord
  2
POINTS$7
 70
     0
 40
1.666666666666666
 41
2.5
 42
1.3
 43
5.999999999999999
 44
2.0
 45
0.00000001
 46
10.0
 73
     0
 74
     0
 77
     1
140
2.5
143
0.03937
147
1.0
171
     3
172
     1
176
     7
177
     7
178
     7
271
     2
272
     1
274
     3
340
110
371
    15
372
    25
  0
DIMSTYLE
105
119
330
A
100
AcDbSymbolTableRecord
100
AcDbDimStyleTableRecord
  2
Ram Basic
 70
     0
 40
1.666666666666666
 41
2.5
 42
1.3
 43
5.999999999999999
 44
2.0
 45
0.00000001
 46
10.0
 73
     0
 74
     0
 77
     1
140
2.5
143
0.03937
147
1.0
171
     3
172
     1
176
     7
177
     7
178
     7
271
     1
272
     1
274
     3
340
110
371
    25
372
    25
  0
DIMSTYLE
105
11A
330
A
100
AcDbSymbolTableRecord
100
AcDbDimStyleTableRecord
  2
Ram Basic$7
 70
     0
 40
1.666666666666666
 41
2.5
 42
1.3
 43
5.999999999999999
 44
2.0
 45
0.00000001
 46
10.0
 73
     0
 74
     0
 77
     1
140
2.5
143
0.03937
147
1.0
171
     3
172
     1
176
     7
177
     7
178
     7
271
     1
272
     1
274
     3
340
110
371
    15
372
    25
  0
DIMSTYLE
105
11B
330
A
100
AcDbSymbolTableRecord
100
AcDbDimStyleTableRecord
  2
Ram Basic REF
 70
     0
 40
1.666666666666666
 41
2.5
 42
1.3
 43
5.999999999999999
 44
2.0
 45
0.00000001
 46
10.0
 73
     0
 74
     0
 77
     1
140
2.5
143
0.03937
147
1.0
171
     3
172
     1
176
     7
177
     7
178
     7
271
     2
272
     2
274
     3
340
110
371
    25
372
    25
  0
DIMSTYLE
105
11C
330
A
100
AcDbSymbolTableRecord
100
AcDbDimStyleTableRecord
  2
Ram Basic REF$7
 70
     0
 40
1.666666666666666
 41
2.5
 42
1.3
 43
5.999999999999999
 44
2.0
 45
0.00000001
 46
10.0
 73
     0
 74
     0
 77
     1
140
2.5
143
0.03937
147
1.0
171
     3
172
     1
176
     7
177
     7
178
     7
271
     2
272
     2
274
     3
340
110
371
    15
372
    25
  0
DIMSTYLE
105
11D
330
A
100
AcDbSymbolTableRecord
100
AcDbDimStyleTableRecord
  2
Small Font
 70
     0
 40
1.666666666666666
 41
2.5
 42
1.3
 43
5.999999999999999
 44
2.0
 45
0.00000001
 46
10.0
 73
     0
 74
     0
 77
     1
140
1.800000071525573
143
0.03937
146
0.8333333134651184
147
1.0
171
     3
172
     1
176
     7
177
     7
178
     7
271
     1
272
     1
274
     3
340
10E
371
    25
372
    25
  0
DIMSTYLE
105
11E
330
A
100
AcDbSymbolTableRecord
100
AcDbDimStyleTableRecord
  2
Small Font$7
 70
     0
 40
1.666666666666666
 41
2.5
 42
1.3
 43
5.999999999999999
 44
2.0
 45
0.00000001
 46
10.0
 73
     0
 74
     0
 77
     1
140
1.800000071525573
143
0.03937
146
0.8333333134651184
147
1.0
171
     3
172
     1
176
     7
177
     7
178
     7
271
     1
272
     1
274
     3
340
10E
371
    15
372
    25
  0
DIMSTYLE
105
11F
102
{ACAD_REACTORS
330
4BB
330
5D3
330
6B5
102
}
330
A
100
AcDbSymbolTableRecord
100
AcDbDimStyleTableRecord
  2
Whole Number
 70
     0
 40
1.666666666666666
 41
2.5
 42
1.3
 43
5.999999999999999
 44
2.0
 45
0.00000001
 46
10.0
 73
     0
 74
     0
 77
     1
140
2.5
143
0.03937
147
1.0
171
     3
172
     1
176
     7
177
     7
178
     7
271
     0
272
     0
274
     3
340
110
371
    25
372
    25
  0
DIMSTYLE
105
120
330
A
100
AcDbSymbolTableRecord
100
AcDbDimStyleTableRecord
  2
Whole Number$7
 70
     0
 40
1.666666666666666
 41
2.5
 42
1.3
 43
5.999999999999999
 44
2.0
 45
0.00000001
 46
10.0
 73
     0
 74
     0
 77
     1
140
2.5
143
0.03937
147
1.0
171
     3
172
     1
176
     7
177
     7
178
     7
271
     0
272
     0
274
     3
340
110
371
    15
372
    25
  0
DIMSTYLE
105
12C
330
A
100
AcDbSymbolTableRecord
100
AcDbDimStyleTableRecord
  2
Leader-Datum(ISO)
 70
     0
 40
1.666666666666666
 41
2.5
340
55
342
12D
  0
DIMSTYLE
105
134
330
A
100
AcDbSymbolTableRecord
100
AcDbDimStyleTableRecord
  2
Leader-Datum(Ram)
 70
     0
 40
1.666666666666666
 41
2.5
340
55
342
12D
  0
DIMSTYLE
105
135
330
A
100
AcDbSymbolTableRecord
100
AcDbDimStyleTableRecord
  2
Leader-Dot(ISO)
 70
     0
 40
1.666666666666666
 41
2.5
340
55
342
12D
  0
DIMSTYLE
105
136
330
A
100
AcDbSymbolTableRecord
100
AcDbDimStyleTableRecord
  2
Leader-Dot(Ram)
 70
     0
 40
1.666666666666666
 41
2.5
340
55
342
12D
  0
DIMSTYLE
105
137
330
A
100
AcDbSymbolTableRecord
100
AcDbDimStyleTableRecord
  2
Leader-Large(Ram)
 70
     0
 40
1.666666666666666
 41
5.0
340
55
342
12D
  0
DIMSTYLE
105
138
330
A
100
AcDbSymbolTableRecord
100
AcDbDimStyleTableRecord
  2
Leader-OriginIndicator(ISO)
 70
     0
 40
1.666666666666666
 41
2.5
340
55
342
12D
  0
DIMSTYLE
105
139
330
A
100
AcDbSymbolTableRecord
100
AcDbDimStyleTableRecord
  2
Leader-OriginIndicator(Ram)
 70
     0
 40
1.666666666666666
 41
2.5
340
55
342
12D
  0
DIMSTYLE
105
13A
330
A
100
AcDbSymbolTableRecord
100
AcDbDimStyleTableRecord
  2
Leader(ISO)
 70
     0
 40
1.666666666666666
 41
2.5
340
55
342
12D
  0
DIMSTYLE
105
13B
330
A
100
AcDbSymbolTableRecord
100
AcDbDimStyleTableRecord
  2
Leader(Ram)
 70
     0
 40
1.666666666666666
 41
2.5
340
55
342
12D
  0
ENDTAB
  0
TABLE
  2
BLOCK_RECORD
  5
1
330
0
100
AcDbSymbolTable
 70
    51
  0
BLOCK_RECORD
  5
71
330
1
100
AcDbSymbolTableRecord
100
AcDbBlockTableRecord
  2
*Model_Space
340
74
 70
     0
280
     1
281
     0
  0
BLOCK_RECORD
  5
6D
330
1
100
AcDbSymbolTableRecord
100
AcDbBlockTableRecord
  2
*Paper_Space
340
70
 70
     0
280
     1
281
     0
  0
BLOCK_RECORD
  5
75
330
1
100
AcDbSymbolTableRecord
100
AcDbBlockTableRecord
  2
*Paper_Space0
340
78
 70
     0
280
     1
281
     0
  0
BLOCK_RECORD
  5
121
330
1
100
AcDbSymbolTableRecord
100
AcDbBlockTableRecord
  2
DatumFilled45
340
0
 70
     0
280
     1
281
     0
  0
BLOCK_RECORD
  5
12D
330
1
100
AcDbSymbolTableRecord
100
AcDbBlockTableRecord
  2
_Closed
340
0
 70
     0
280
     1
281
     0
  0
BLOCK_RECORD
  5
13C
330
1
100
AcDbSymbolTableRecord
100
AcDbBlockTableRecord
  2
APPROVED STAMP
340
0
 70
     0
280
     1
281
     0
  0
BLOCK_RECORD
  5
146
330
1
100
AcDbSymbolTableRecord
100
AcDbBlockTableRecord
  2
Koh characteristic
340
0
 70
     0
280
     1
281
     0
  0
BLOCK_RECORD
  5
152
330
1
100
AcDbSymbolTableRecord
100
AcDbBlockTableRecord
  2
WELS
340
0
 70
     0
280
     1
281
     0
  0
BLOCK_RECORD
  5
19D
330
1
100
AcDbSymbolTableRecord
100
AcDbBlockTableRecord
  2
Quote Only
340
0
 70
     0
280
     1
281
     0
  0
BLOCK_RECORD
  5
1A1
330
1
100
AcDbSymbolTableRecord
100
AcDbBlockTableRecord
  2
4 UP
340
0
 70
     0
280
     1
281
     0
  0
BLOCK_RECORD
  5
1C6
330
1
100
AcDbSymbolTableRecord
100
AcDbBlockTableRecord
  2
2 UP
340
0
 70
     0
280
     1
281
     0
  0
BLOCK_RECORD
  5
1DB
330
1
100
AcDbSymbolTableRecord
100
AcDbBlockTableRecord
  2
6 UP
340
0
 70
     0
280
     1
281
     0
  0
BLOCK_RECORD
  5
210
330
1
100
AcDbSymbolTableRecord
100
AcDbBlockTableRecord
  2
8 UP
340
0
 70
     0
280
     1
281
     0
  0
BLOCK_RECORD
  5
255
330
1
100
AcDbSymbolTableRecord
100
AcDbBlockTableRecord
  2
16 UP
340
0
 70
     0
280
     1
281
     0
  0
BLOCK_RECORD
  5
2DA
330
1
100
AcDbSymbolTableRecord
100
AcDbBlockTableRecord
  2
THREAD RETAINER
340
0
 70
     0
280
     1
281
     0
  0
BLOCK_RECORD
  5
2F6
330
1
100
AcDbSymbolTableRecord
100
AcDbBlockTableRecord
  2
THREAD RETAINER H
340
0
 70
     0
280
     1
281
     0
  0
BLOCK_RECORD
  5
312
330
1
100
AcDbSymbolTableRecord
100
AcDbBlockTableRecord
  2
TIGHTEN TO
340
0
 70
     0
280
     1
281
     0
  0
BLOCK_RECORD
  5
318
330
1
100
AcDbSymbolTableRecord
100
AcDbBlockTableRecord
  2
WATERMARK STICKER
340
0
 70
     0
280
     1
281
     0
  0
BLOCK_RECORD
  5
31D
330
1
100
AcDbSymbolTableRecord
100
AcDbBlockTableRecord
  2
NOTE 001
340
0
 70
     0
280
     1
281
     0
  0
BLOCK_RECORD
  5
329
330
1
100
AcDbSymbolTableRecord
100
AcDbBlockTableRecord
  2
QUOTATION ONLY
340
0
 70
     0
280
     1
281
     0
  0
BLOCK_RECORD
  5
32D
330
1
100
AcDbSymbolTableRecord
100
AcDbBlockTableRecord
  2
WATERMARK STICKER RH SIDE
340
0
 70
     0
280
     1
281
     0
  0
BLOCK_RECORD
  5
332
330
1
100
AcDbSymbolTableRecord
100
AcDbBlockTableRecord
  2
SCREW-IN _ TURNS
340
0
 70
     0
280
     1
281
     0
  0
BLOCK_RECORD
  5
338
330
1
100
AcDbSymbolTableRecord
100
AcDbBlockTableRecord
  2
CENTRE STICKER
340
0
 70
     0
280
     1
281
     0
  0
BLOCK_RECORD
  5
33D
330
1
100
AcDbSymbolTableRecord
100
AcDbBlockTableRecord
  2
GREASE
340
0
 70
     0
280
     1
281
     0
  0
BLOCK_RECORD
  5
342
330
1
100
AcDbSymbolTableRecord
100
AcDbBlockTableRecord
  2
WATERMARK ETCH
340
0
 70
     0
280
     1
281
     0
  0
BLOCK_RECORD
  5
347
330
1
100
AcDbSymbolTableRecord
100
AcDbBlockTableRecord
  2
AVAIL WELS RATING
340
0
 70
     0
280
     1
281
     0
  0
BLOCK_RECORD
  5
34B
330
1
100
AcDbSymbolTableRecord
100
AcDbBlockTableRecord
  2
J_VALVE STD 3_4 TURN SECURE FIT
340
0
 70
     0
280
     1
281
     0
  0
BLOCK_RECORD
  5
34F
330
1
100
AcDbSymbolTableRecord
100
AcDbBlockTableRecord
  2
1_4 TURN STD SECURE FIT
340
0
 70
     0
280
     1
281
     0
  0
BLOCK_RECORD
  5
353
330
1
100
AcDbSymbolTableRecord
100
AcDbBlockTableRecord
  2
J_VALVE STD 3_4 TURN
340
0
 70
     0
280
     1
281
     0
  0
BLOCK_RECORD
  5
357
330
1
100
AcDbSymbolTableRecord
100
AcDbBlockTableRecord
  2
1_4 TURN STD
340
0
 70
     0
280
     1
281
     0
  0
BLOCK_RECORD
  5
35B
330
1
100
AcDbSymbolTableRecord
100
AcDbBlockTableRecord
  2
AVAIL WELS WITH 4 STAR
340
0
 70
     0
280
     1
281
     0
  0
BLOCK_RECORD
  5
35F
330
1
100
AcDbSymbolTableRecord
100
AcDbBlockTableRecord
  2
AVAIL WELS 4 STAR
340
0
 70
     0
280
     1
281
     0
  0
BLOCK_RECORD
  5
363
330
1
100
AcDbSymbolTableRecord
100
AcDbBlockTableRecord
  2
J_VALVE 3_4 TURN TAP ONLY
340
0
 70
     0
280
     1
281
     0
  0
BLOCK_RECORD
  5
367
330
1
100
AcDbSymbolTableRecord
100
AcDbBlockTableRecord
  2
J_VALVE 3_4 TURN SECURE FIT TAP ONLY
340
0
 70
     0
280
     1
281
     0
  0
BLOCK_RECORD
  5
36B
330
1
100
AcDbSymbolTableRecord
100
AcDbBlockTableRecord
  2
J_VALVE
340
0
 70
     0
280
     1
281
     0
  0
BLOCK_RECORD
  5
36F
330
1
100
AcDbSymbolTableRecord
100
AcDbBlockTableRecord
  2
J_VALVE TAP ONLY
340
0
 70
     0
280
     1
281
     0
  0
BLOCK_RECORD
  5
373
330
1
100
AcDbSymbolTableRecord
100
AcDbBlockTableRecord
  2
J_VALVE SPOUT ONLY
340
0
 70
     0
280
     1
281
     0
  0
BLOCK_RECORD
  5
377
330
1
100
AcDbSymbolTableRecord
100
AcDbBlockTableRecord
  2
J_VALVE 3_4 TURN SPOUT ONLY
340
0
 70
     0
280
     1
281
     0
  0
BLOCK_RECORD
  5
37B
330
1
100
AcDbSymbolTableRecord
100
AcDbBlockTableRecord
  2
AVAIL WELS 3 STAR
340
0
 70
     0
280
     1
281
     0
  0
BLOCK_RECORD
  5
37F
330
1
100
AcDbSymbolTableRecord
100
AcDbBlockTableRecord
  2
J_VALVE 3_4 TURN SECURE FIT SPOUT ONLY
340
0
 70
     0
280
     1
281
     0
  0
BLOCK_RECORD
  5
383
330
1
100
AcDbSymbolTableRecord
100
AcDbBlockTableRecord
  2
1_4 TURN STD SECURE FIT NO HOLE DETAIL
340
0
 70
     0
280
     1
281
     0
  0
BLOCK_RECORD
  5
387
330
1
100
AcDbSymbolTableRecord
100
AcDbBlockTableRecord
  2
1_4 TURN STD NO HOLE DETAIL
340
0
 70
     0
280
     1
281
     0
  0
BLOCK_RECORD
  5
38B
330
1
100
AcDbSymbolTableRecord
100
AcDbBlockTableRecord
  2
J_VALVE STD 3_4 TURN NO HOLE DETAIL
340
0
 70
     0
280
     1
281
     0
  0
BLOCK_RECORD
  5
38F
330
1
100
AcDbSymbolTableRecord
100
AcDbBlockTableRecord
  2
J_VALVE 3_4 TURN SECURE FIT NO HOLE DETAIL
340
0
 70
     0
280
     1
281
     0
  0
BLOCK_RECORD
  5
393
330
1
100
AcDbSymbolTableRecord
100
AcDbBlockTableRecord
  2
PRESSURE AND TEMP
340
0
 70
     0
280
     1
281
     0
  0
BLOCK_RECORD
  5
397
330
1
100
AcDbSymbolTableRecord
100
AcDbBlockTableRecord
  2
AVAIL WELS 5 & 6 STAR
340
0
 70
     0
280
     1
281
     0
  0
BLOCK_RECORD
  5
39B
330
1
100
AcDbSymbolTableRecord
100
AcDbBlockTableRecord
  2
PRESSURE AND TEMP_LASER-ETCHED
340
0
 70
     0
280
     1
281
     0
  0
BLOCK_RECORD
  5
39F
330
1
100
AcDbSymbolTableRecord
100
AcDbBlockTableRecord
  2
PRESSURE AND TEMP ONLY
340
0
 70
     0
280
     1
281
     0
  0
BLOCK_RECORD
  5
3A3
330
1
100
AcDbSymbolTableRecord
100
AcDbBlockTableRecord
  2
PRESSURE AND TEMP_LASER-ETCHED NO HOSE
340
0
 70
     0
280
     1
281
     0
  0
BLOCK_RECORD
  5
3A7
330
1
100
AcDbSymbolTableRecord
100
AcDbBlockTableRecord
  2
PRESSURE AND TEMP ONLY NO HOSE
340
0
 70
     0
280
     1
281
     0
  0
BLOCK_RECORD
  5
4BD
330
1
100
AcDbSymbolTableRecord
100
AcDbBlockTableRecord
  2
*D48
340
0
 70
     0
280
     1
281
     0
  0
BLOCK_RECORD
  5
5D4
330
1
100
AcDbSymbolTableRecord
100
AcDbBlockTableRecord
  2
*D49
340
0
 70
     0
280
     1
281
     0
  0
BLOCK_RECORD
  5
6B6
330
1
100
AcDbSymbolTableRecord
100
AcDbBlockTableRecord
  2
*D50
340
0
 70
     0
280
     1
281
     0
  0
ENDTAB
  0
ENDSEC
  0
SECTION
  2
BLOCKS
  0
BLOCK
  5
72
330
71
100
AcDbEntity
  8
0
100
AcDbBlockBegin
  2
*Model_Space
 70
     0
 10
0.0
 20
0.0
 30
0.0
  3
*Model_Space
  1

  0
ENDBLK
  5
73
330
71
100
AcDbEntity
  8
0
100
AcDbBlockEnd
  0
BLOCK
  5
6E
330
6D
100
AcDbEntity
 67
     1
  8
0
100
AcDbBlockBegin
  2
*Paper_Space
 70
     0
 10
0.0
 20
0.0
 30
0.0
  3
*Paper_Space
  1

  0
ENDBLK
  5
6F
330
6D
100
AcDbEntity
 67
     1
  8
0
100
AcDbBlockEnd
  0
BLOCK
  5
76
330
75
100
AcDbEntity
 67
     1
  8
0
100
AcDbBlockBegin
  2
*Paper_Space0
 70
     0
 10
0.0
 20
0.0
 30
0.0
  3
*Paper_Space0
  1

  0
ENDBLK
  5
77
330
75
100
AcDbEntity
 67
     1
  8
0
100
AcDbBlockEnd
  0
BLOCK
  5
122
330
121
100
AcDbEntity
  8
0
100
AcDbBlockBegin
  2
DatumFilled45
 70
     0
 10
0.0
 20
0.0
 30
0.0
  3
DatumFilled45
  1

  0
POLYLINE
  5
124
330
121
100
AcDbEntity
  8
0
 62
     0
100
AcDb2dPolyline
 66
     1
 10
0.0
 20
0.0
 30
0.0
 70
   128
  0
VERTEX
  5
125
330
124
100
AcDbEntity
  8
0
 62
     0
100
AcDbVertex
100
AcDb2dVertex
 10
0.0
 20
1.0
 30
0.0
  0
VERTEX
  5
126
330
124
100
AcDbEntity
  8
0
 62
     0
100
AcDbVertex
100
AcDb2dVertex
 10
0.0
 20
-1.0
 30
0.0
  0
VERTEX
  5
128
330
124
100
AcDbEntity
  8
0
 62
     0
100
AcDbVertex
100
AcDb2dVertex
 10
-1.0
 20
0.0
 30
0.0
  0
VERTEX
  5
129
330
124
100
AcDbEntity
  8
0
 62
     0
100
AcDbVertex
100
AcDb2dVertex
 10
0.0
 20
1.0
 30
0.0
  0
SEQEND
  5
127
330
124
100
AcDbEntity
  8
0
 62
     0
  0
SOLID
  5
12B
330
121
100
AcDbEntity
  8
0
 62
     0
100
AcDbTrace
 10
0.0
 20
1.0
 30
0.0
 11
0.0
 21
-1.0
 31
0.0
 12
-1.0
 22
0.0
 32
0.0
 13
0.0
 23
1.0
 33
0.0
  0
ENDBLK
  5
123
330
121
100
AcDbEntity
  8
0
100
AcDbBlockEnd
  0
BLOCK
  5
132
330
12D
100
AcDbEntity
  8
0
100
AcDbBlockBegin
  2
_Closed
 70
     0
 10
0.0
 20
0.0
 30
0.0
  3
_Closed
  1

  0
LINE
  5
12E
330
12D
100
AcDbEntity
  8
0
  6
ByBlock
 62
     0
370
    -2
100
AcDbLine
 10
-1.0
 20
0.1666666666666666
 30
0.0
 11
0.0
 21
0.0
 31
0.0
  0
LINE
  5
12F
330
12D
100
AcDbEntity
  8
0
  6
ByBlock
 62
     0
370
    -2
100
AcDbLine
 10
0.0
 20
0.0
 30
0.0
 11
-1.0
 21
-0.1666666666666666
 31
0.0
  0
LINE
  5
130
330
12D
100
AcDbEntity
  8
0
  6
ByBlock
 62
     0
370
    -2
100
AcDbLine
 10
-1.0
 20
0.1666666666666666
 30
0.0
 11
-1.0
 21
-0.1666666666666666
 31
0.0
  0
LINE
  5
131
330
12D
100
AcDbEntity
  8
0
  6
ByBlock
 62
     0
370
    -2
100
AcDbLine
 10
0.0
 20
0.0
 30
0.0
 11
-1.0
 21
0.0
 31
0.0
  0
ENDBLK
  5
133
330
12D
100
AcDbEntity
  8
0
100
AcDbBlockEnd
  0
BLOCK
  5
13D
330
13C
100
AcDbEntity
  8
0
100
AcDbBlockBegin
  2
APPROVED STAMP
 70
     0
 10
0.0
 20
0.0
 30
0.0
  3
APPROVED STAMP
  1

  0
LINE
  5
13F
330
13C
100
AcDbEntity
  8
Sketch Geometry(Ram)
 62
   136
420
    32896
100
AcDbLine
 10
-35.54560624499878
 20
15.6783200154738
 30
0.0
 11
-35.54560624499878
 21
-15.67832001547382
 31
0.0
  0
LINE
  5
140
330
13C
100
AcDbEntity
  8
Sketch Geometry(Ram)
 62
   136
420
    32896
100
AcDbLine
 10
-35.54560624499878
 20
-15.67832001547382
 30
0.0
 11
35.54560624499877
 21
-15.6783200154738
 31
0.0
  0
LINE
  5
141
330
13C
100
AcDbEntity
  8
Sketch Geometry(Ram)
 62
   136
420
    32896
100
AcDbLine
 10
35.54560624499877
 20
-15.6783200154738
 30
0.0
 11
35.54560624499877
 21
15.67832001547382
 31
0.0
  0
LINE
  5
142
330
13C
100
AcDbEntity
  8
Sketch Geometry(Ram)
 62
   136
420
    32896
100
AcDbLine
 10
35.54560624499877
 20
15.67832001547382
 30
0.0
 11
-35.54560624499878
 21
15.6783200154738
 31
0.0
  0
MTEXT
  5
143
330
13C
100
AcDbEntity
  8
Symbols(Ram)
 62
   116
420
    32832
100
AcDbMText
 10
-13.49989445979156
 20
14.13192209042362
 30
0.0
 40
3.499999940395355
 41
27.45045900344849
 46
0.0
 71
     1
 72
     1
  1
\fArial|b1|i0;\H3.5000;APPROVED
  7
STD 2.5 ARIAL
 73
     1
 44
1.0
  0
MTEXT
  5
145
330
13C
100
AcDbEntity
  8
Symbols(Ram)
 62
     7
100
AcDbMText
 10
-34.3463054353912
 20
4.981424486020865
 30
0.0
 40
2.5
 41
60.84163436697946
 46
0.0
 71
     1
 72
     1
  1
NAME: ...........................................\PSIGNATURE: ..................................\PDATE:  ......../...../........
  7
STD 2.5 ARIAL
 73
     2
 44
1.727335810661315
  0
ENDBLK
  5
13E
330
13C
100
AcDbEntity
  8
0
100
AcDbBlockEnd
  0
BLOCK
  5
147
330
146
100
AcDbEntity
  8
0
100
AcDbBlockBegin
  2
Koh characteristic
 70
     2
 10
0.0
 20
0.0
 30
0.0
  3
Koh characteristic
  1

  0
LINE
  5
149
330
146
100
AcDbEntity
  8
Sketch Lines(Ram)
100
AcDbLine
 10
-2.798607274432844
 20
5.375062500920826
 30
0.0
 11
-2.798607274432844
 21
-5.375062500920826
 31
0.0
  0
LINE
  5
14A
330
146
100
AcDbEntity
  8
Sketch Lines(Ram)
100
AcDbLine
 10
-2.798607274432844
 20
-5.375062500920826
 30
0.0
 11
2.798607274432836
 21
-5.375062500920826
 31
0.0
  0
LINE
  5
14B
330
146
100
AcDbEntity
  8
Sketch Lines(Ram)
100
AcDbLine
 10
2.798607274432836
 20
-5.375062500920826
 30
0.0
 11
2.798607274432836
 21
5.375062500920826
 31
0.0
  0
LINE
  5
14C
330
146
100
AcDbEntity
  8
Sketch Lines(Ram)
100
AcDbLine
 10
2.798607274432836
 20
5.375062500920826
 30
0.0
 11
-2.798607274432844
 21
5.375062500920826
 31
0.0
  0
LINE
  5
14D
330
146
100
AcDbEntity
  8
Sketch Lines(Ram)
100
AcDbLine
 10
-2.798607274432844
 20
0.0
 30
0.0
 11
2.798607274432836
 21
0.0
 31
0.0
  0
ATTDEF
  5
14F
102
{ACAD_XDICTIONARY
360
7A2
102
}
330
146
100
AcDbEntity
  8
Symbols(Ram)
 62
     7
100
AcDbText
 10
-0.8478202475273363
 20
1.573328946584412
 30
0.0
 40
2.489199936389923
  1
3
  7
Text Style14
100
AcDbAttributeDefinition
280
     0
  3
Enter Prompt for Field
  2
Enter_Prompt_for_Field_001
 70
     0
280
     0
  0
ENDBLK
  5
148
330
146
100
AcDbEntity
  8
0
100
AcDbBlockEnd
  0
BLOCK
  5
153
330
152
100
AcDbEntity
  8
0
100
AcDbBlockBegin
  2
WELS
 70
     0
 10
0.0
 20
0.0
 30
0.0
  3
WELS
  1

  0
HATCH
  5
159
330
152
100
AcDbEntity
  8
Hatch
 62
     7
100
AcDbHatch
 10
0.0
 20
0.0
 30
0.0
210
0.0
220
0.0
230
1.0
  2
SOLID
 70
     1
 71
     0
 91
        1
 92
        1
 93
        4
 72
     1
 10
-12.13704218324615
 20
-1.7414967295168
 11
-12.13704218324612
 21
-10.3955455537293
 72
     1
 10
-12.13704218324612
 20
-10.3955455537293
 11
12.13704218324613
 21
-10.3955455537293
 72
     1
 10
12.13704218324613
 20
-10.3955455537293
 11
12.13704218324615
 21
-1.7414967295168
 72
     1
 10
12.13704218324615
 20
-1.7414967295168
 11
-12.13704218324615
 21
-1.7414967295168
 97
        0
 75
     0
 76
     1
 98
        1
 10
0.0
 20
0.0
450
        0
451
        0
460
0.0
461
0.0
452
        0
462
0.0
453
        0
470

  0
LINE
  5
15A
330
152
100
AcDbEntity
  8
Sketch Lines(Ram)
100
AcDbLine
 10
-12.13704218324615
 20
-1.7414967295168
 30
0.0
 11
12.13704218324615
 21
-1.7414967295168
 31
0.0
  0
LINE
  5
15B
330
152
100
AcDbEntity
  8
Sketch Lines(Ram)
100
AcDbLine
 10
12.13704218324615
 20
-1.7414967295168
 30
0.0
 11
12.13704218324613
 21
-10.3955455537293
 31
0.0
  0
LINE
  5
15C
330
152
100
AcDbEntity
  8
Sketch Lines(Ram)
100
AcDbLine
 10
12.13704218324613
 20
-10.3955455537293
 30
0.0
 11
-12.13704218324612
 21
-10.3955455537293
 31
0.0
  0
LINE
  5
15D
330
152
100
AcDbEntity
  8
Sketch Lines(Ram)
100
AcDbLine
 10
-12.13704218324612
 20
-10.3955455537293
 30
0.0
 11
-12.13704218324615
 21
-1.7414967295168
 31
0.0
  0
ARC
  5
15E
330
152
100
AcDbEntity
  8
Sketch Lines(Ram)
100
AcDbCircle
 10
0.0
 20
-1.7414967295168
 30
0.0
 40
12.13704218324612
100
AcDbArc
 50
0.0
 51
180.0
  0
ARC
  5
15F
330
152
100
AcDbEntity
  8
Sketch Lines(Ram)
100
AcDbCircle
 10
0.0
 20
-1.7414967295168
 30
0.0
 40
6.544500934971217
100
AcDbArc
 50
0.0
 51
180.0
  0
LINE
  5
160
330
152
100
AcDbEntity
  8
Sketch Lines(Ram)
100
AcDbLine
 10
-9.166134316541008
 20
2.793877233418715
 30
0.0
 11
-9.671290790193019
 21
1.239165470762344
 31
0.0
  0
LINE
  5
161
330
152
100
AcDbEntity
  8
Sketch Lines(Ram)
100
AcDbLine
 10
-9.671290790193019
 20
1.239165470762344
 30
0.0
 11
-11.3060114782051
 21
1.239165470762344
 31
0.0
  0
LINE
  5
162
330
152
100
AcDbEntity
  8
Sketch Lines(Ram)
100
AcDbLine
 10
-11.3060114782051
 20
1.239165470762344
 30
0.0
 11
-9.983494660547016
 21
0.2783007587314401
 31
0.0
  0
LINE
  5
163
330
152
100
AcDbEntity
  8
Sketch Lines(Ram)
100
AcDbLine
 10
-9.983494660547016
 20
0.2783007587314401
 30
0.0
 11
-10.48865113419906
 21
-1.276411003924913
 31
0.0
  0
LINE
  5
164
330
152
100
AcDbEntity
  8
Sketch Lines(Ram)
100
AcDbLine
 10
-10.48865113419906
 20
-1.276411003924913
 30
0.0
 11
-9.166134316541008
 21
-0.3155462918940088
 31
0.0
  0
LINE
  5
165
330
152
100
AcDbEntity
  8
Sketch Lines(Ram)
100
AcDbLine
 10
-9.166134316541008
 20
-0.3155462918940088
 30
0.0
 11
-7.843617498882924
 21
-1.276411003924895
 31
0.0
  0
LINE
  5
166
330
152
100
AcDbEntity
  8
Sketch Lines(Ram)
100
AcDbLine
 10
-7.843617498882924
 20
-1.276411003924895
 30
0.0
 11
-8.348773972534946
 21
0.2783007587314579
 31
0.0
  0
LINE
  5
167
330
152
100
AcDbEntity
  8
Sketch Lines(Ram)
100
AcDbLine
 10
-8.348773972534946
 20
0.2783007587314579
 30
0.0
 11
-7.026257154876897
 21
1.239165470762362
 31
0.0
  0
LINE
  5
168
330
152
100
AcDbEntity
  8
Sketch Lines(Ram)
100
AcDbLine
 10
-7.026257154876897
 20
1.239165470762362
 30
0.0
 11
-8.66097784288895
 21
1.239165470762344
 31
0.0
  0
LINE
  5
169
330
152
100
AcDbEntity
  8
Sketch Lines(Ram)
100
AcDbLine
 10
-8.66097784288895
 20
1.239165470762344
 30
0.0
 11
-9.166134316541008
 21
2.793877233418715
 31
0.0
  0
LINE
  5
16A
330
152
100
AcDbEntity
  8
Sketch Lines(Ram)
100
AcDbLine
 10
-6.220351606545442
 20
4.182086192073696
 30
0.0
 11
-4.59458608950598
 21
4.352961033463405
 31
0.0
  0
LINE
  5
16B
330
152
100
AcDbEntity
  8
Sketch Lines(Ram)
100
AcDbLine
 10
-4.59458608950598
 20
4.352961033463405
 30
0.0
 11
-6.010295733416412
 21
5.170321377469432
 31
0.0
  0
LINE
  5
16C
330
152
100
AcDbEntity
  8
Sketch Lines(Ram)
100
AcDbLine
 10
-6.010295733416412
 20
5.170321377469432
 30
0.0
 11
-5.670418191157065
 21
6.769319496318378
 31
0.0
  0
LINE
  5
16D
330
152
100
AcDbEntity
  8
Sketch Lines(Ram)
100
AcDbLine
 10
-5.670418191157065
 20
6.769319496318378
 30
0.0
 11
-6.88525241155407
 21
5.675477851121487
 31
0.0
  0
LINE
  5
16E
330
152
100
AcDbEntity
  8
Sketch Lines(Ram)
100
AcDbLine
 10
-6.88525241155407
 20
5.675477851121487
 30
0.0
 11
-8.300962055464502
 21
6.492838195127513
 31
0.0
  0
LINE
  5
16F
330
152
100
AcDbEntity
  8
Sketch Lines(Ram)
100
AcDbLine
 10
-8.300962055464502
 20
6.492838195127513
 30
0.0
 11
-7.636061250455892
 21
4.99944653607967
 31
0.0
  0
LINE
  5
170
330
152
100
AcDbEntity
  8
Sketch Lines(Ram)
100
AcDbLine
 10
-7.636061250455892
 20
4.99944653607967
 30
0.0
 11
-8.850895470852897
 21
3.905604890882816
 31
0.0
  0
LINE
  5
171
330
152
100
AcDbEntity
  8
Sketch Lines(Ram)
100
AcDbLine
 10
-8.850895470852897
 20
3.905604890882816
 30
0.0
 11
-7.225129953813436
 21
4.076479732272576
 31
0.0
  0
LINE
  5
172
330
152
100
AcDbEntity
  8
Sketch Lines(Ram)
100
AcDbLine
 10
-7.225129953813436
 20
4.076479732272576
 30
0.0
 11
-6.560229148804807
 21
2.583088073224768
 31
0.0
  0
LINE
  5
173
330
152
100
AcDbEntity
  8
Sketch Lines(Ram)
100
AcDbLine
 10
-6.560229148804807
 20
2.583088073224768
 30
0.0
 11
-6.220351606545442
 21
4.182086192073696
 31
0.0
  0
LINE
  5
174
330
152
100
AcDbEntity
  8
Sketch Lines(Ram)
100
AcDbLine
 10
-2.425191050944448
 20
6.498652365276951
 30
0.0
 11
-0.9317993918966747
 21
5.833751560268342
 31
0.0
  0
LINE
  5
175
330
152
100
AcDbEntity
  8
Sketch Lines(Ram)
100
AcDbLine
 10
-0.9317993918966747
 20
5.833751560268342
 30
0.0
 11
-1.749159735902718
 21
7.249461204178738
 31
0.0
  0
LINE
  5
176
330
152
100
AcDbEntity
  8
Sketch Lines(Ram)
100
AcDbLine
 10
-1.749159735902718
 20
7.249461204178738
 30
0.0
 11
-0.6553180907058298
 21
8.464295424575796
 31
0.0
  0
LINE
  5
177
330
152
100
AcDbEntity
  8
Sketch Lines(Ram)
100
AcDbLine
 10
-0.6553180907058298
 20
8.464295424575796
 30
0.0
 11
-2.254316209554739
 21
8.124417882316432
 31
0.0
  0
LINE
  5
178
330
152
100
AcDbEntity
  8
Sketch Lines(Ram)
100
AcDbLine
 10
-2.254316209554739
 20
8.124417882316432
 30
0.0
 11
-3.071676553560783
 21
9.540127526226827
 31
0.0
  0
LINE
  5
179
330
152
100
AcDbEntity
  8
Sketch Lines(Ram)
100
AcDbLine
 10
-3.071676553560783
 20
9.540127526226827
 30
0.0
 11
-3.242551394950528
 21
7.914362009187332
 31
0.0
  0
LINE
  5
17A
330
152
100
AcDbEntity
  8
Sketch Lines(Ram)
100
AcDbLine
 10
-3.242551394950528
 20
7.914362009187332
 30
0.0
 11
-4.841549513799421
 21
7.574484466928002
 31
0.0
  0
LINE
  5
17B
330
152
100
AcDbEntity
  8
Sketch Lines(Ram)
100
AcDbLine
 10
-4.841549513799421
 20
7.574484466928002
 30
0.0
 11
-3.348157854751628
 21
6.909583661919408
 31
0.0
  0
LINE
  5
17C
330
152
100
AcDbEntity
  8
Sketch Lines(Ram)
100
AcDbLine
 10
-3.348157854751628
 20
6.909583661919408
 30
0.0
 11
-3.519032696141337
 21
5.283818144879911
 31
0.0
  0
LINE
  5
17D
330
152
100
AcDbEntity
  8
Sketch Lines(Ram)
100
AcDbLine
 10
-3.519032696141337
 20
5.283818144879911
 30
0.0
 11
-2.425191050944448
 21
6.498652365276951
 31
0.0
  0
LINE
  5
17E
330
152
100
AcDbEntity
  8
Sketch Lines(Ram)
100
AcDbLine
 10
2.019797488248311
 20
6.607277243018144
 30
0.0
 11
2.980662200279161
 21
5.284760425360079
 31
0.0
  0
LINE
  5
17F
330
152
100
AcDbEntity
  8
Sketch Lines(Ram)
100
AcDbLine
 10
2.980662200279161
 20
5.284760425360079
 30
0.0
 11
2.980662200279161
 21
6.91948111337215
 31
0.0
  0
LINE
  5
180
330
152
100
AcDbEntity
  8
Sketch Lines(Ram)
100
AcDbLine
 10
2.980662200279161
 20
6.91948111337215
 30
0.0
 11
4.53537396293555
 21
7.424637587024206
 31
0.0
  0
LINE
  5
181
330
152
100
AcDbEntity
  8
Sketch Lines(Ram)
100
AcDbLine
 10
4.53537396293555
 20
7.424637587024206
 30
0.0
 11
2.980662200279161
 21
7.92979406067621
 31
0.0
  0
LINE
  5
182
330
152
100
AcDbEntity
  8
Sketch Lines(Ram)
100
AcDbLine
 10
2.980662200279161
 20
7.92979406067621
 30
0.0
 11
2.980662200279143
 21
9.564514748688264
 31
0.0
  0
LINE
  5
183
330
152
100
AcDbEntity
  8
Sketch Lines(Ram)
100
AcDbLine
 10
2.980662200279143
 20
9.564514748688264
 30
0.0
 11
2.01979748824824
 21
8.241997931030216
 31
0.0
  0
LINE
  5
184
330
152
100
AcDbEntity
  8
Sketch Lines(Ram)
100
AcDbLine
 10
2.01979748824824
 20
8.241997931030216
 30
0.0
 11
0.4650857255919051
 21
8.747154404682271
 31
0.0
  0
LINE
  5
185
330
152
100
AcDbEntity
  8
Sketch Lines(Ram)
100
AcDbLine
 10
0.4650857255919051
 20
8.747154404682271
 30
0.0
 11
1.425950437622809
 21
7.424637587024206
 31
0.0
  0
LINE
  5
186
330
152
100
AcDbEntity
  8
Sketch Lines(Ram)
100
AcDbLine
 10
1.425950437622809
 20
7.424637587024206
 30
0.0
 11
0.4650857255919229
 21
6.102120769366107
 31
0.0
  0
LINE
  5
187
330
152
100
AcDbEntity
  8
Sketch Lines(Ram)
100
AcDbLine
 10
0.4650857255919229
 20
6.102120769366107
 30
0.0
 11
2.019797488248311
 21
6.607277243018144
 31
0.0
  0
LINE
  5
188
330
152
100
AcDbEntity
  8
Sketch Lines(Ram)
100
AcDbLine
 10
5.923582921590513
 20
4.478854877028624
 30
0.0
 11
6.094457762980222
 21
2.853089359989162
 31
0.0
  0
LINE
  5
189
330
152
100
AcDbEntity
  8
Sketch Lines(Ram)
100
AcDbLine
 10
6.094457762980222
 20
2.853089359989162
 30
0.0
 11
6.911818106986248
 21
4.268799003899611
 31
0.0
  0
LINE
  5
18A
330
152
100
AcDbEntity
  8
Sketch Lines(Ram)
100
AcDbLine
 10
6.911818106986248
 20
4.268799003899611
 30
0.0
 11
8.510816225835178
 21
3.928921461640245
 31
0.0
  0
LINE
  5
18B
330
152
100
AcDbEntity
  8
Sketch Lines(Ram)
100
AcDbLine
 10
8.510816225835178
 20
3.928921461640245
 30
0.0
 11
7.416974580638271
 21
5.143755682037233
 31
0.0
  0
LINE
  5
18C
330
152
100
AcDbEntity
  8
Sketch Lines(Ram)
100
AcDbLine
 10
7.416974580638271
 20
5.143755682037233
 30
0.0
 11
8.234334924644278
 21
6.559465325947666
 31
0.0
  0
LINE
  5
18D
330
152
100
AcDbEntity
  8
Sketch Lines(Ram)
100
AcDbLine
 10
8.234334924644278
 20
6.559465325947666
 30
0.0
 11
6.740943265596505
 21
5.894564520939107
 31
0.0
  0
LINE
  5
18E
330
152
100
AcDbEntity
  8
Sketch Lines(Ram)
100
AcDbLine
 10
6.740943265596505
 20
5.894564520939107
 30
0.0
 11
5.647101620399652
 21
7.109398741336113
 31
0.0
  0
LINE
  5
18F
330
152
100
AcDbEntity
  8
Sketch Lines(Ram)
100
AcDbLine
 10
5.647101620399652
 20
7.109398741336113
 30
0.0
 11
5.817976461789378
 21
5.483633224296599
 31
0.0
  0
LINE
  5
190
330
152
100
AcDbEntity
  8
Sketch Lines(Ram)
100
AcDbLine
 10
5.817976461789378
 20
5.483633224296599
 30
0.0
 11
4.324584802741603
 21
4.818732419287972
 31
0.0
  0
LINE
  5
191
330
152
100
AcDbEntity
  8
Sketch Lines(Ram)
100
AcDbLine
 10
4.324584802741603
 20
4.818732419287972
 30
0.0
 11
5.923582921590513
 21
4.478854877028624
 31
0.0
  0
LINE
  5
192
330
152
100
AcDbEntity
  8
Sketch Lines(Ram)
100
AcDbLine
 10
8.240149094793736
 20
0.6836943214276481
 30
0.0
 11
7.575248289785142
 21
-0.8096973376201431
 31
0.0
  0
LINE
  5
193
330
152
100
AcDbEntity
  8
Sketch Lines(Ram)
100
AcDbLine
 10
7.575248289785142
 20
-0.8096973376201431
 30
0.0
 11
8.990957933695574
 21
0.0076630063859007
 31
0.0
  0
LINE
  5
194
330
152
100
AcDbEntity
  8
Sketch Lines(Ram)
100
AcDbLine
 10
8.990957933695574
 20
0.0076630063859007
 30
0.0
 11
10.20579215409256
 21
-1.086178638810987
 31
0.0
  0
LINE
  5
195
330
152
100
AcDbEntity
  8
Sketch Lines(Ram)
100
AcDbLine
 10
10.20579215409256
 20
-1.086178638810987
 30
0.0
 11
9.865914611833179
 21
0.5128194800379227
 31
0.0
  0
LINE
  5
196
330
152
100
AcDbEntity
  8
Sketch Lines(Ram)
100
AcDbLine
 10
9.865914611833179
 20
0.5128194800379227
 30
0.0
 11
11.28162425574359
 21
1.330179824043984
 31
0.0
  0
LINE
  5
197
330
152
100
AcDbEntity
  8
Sketch Lines(Ram)
100
AcDbLine
 10
11.28162425574359
 20
1.330179824043984
 30
0.0
 11
9.655858738704168
 21
1.501054665433726
 31
0.0
  0
LINE
  5
198
330
152
100
AcDbEntity
  8
Sketch Lines(Ram)
100
AcDbLine
 10
9.655858738704168
 20
1.501054665433726
 30
0.0
 11
9.315981196444838
 21
3.100052784282619
 31
0.0
  0
LINE
  5
199
330
152
100
AcDbEntity
  8
Sketch Lines(Ram)
100
AcDbLine
 10
9.315981196444838
 20
3.100052784282619
 30
0.0
 11
8.651080391436208
 21
1.606661125234811
 31
0.0
  0
LINE
  5
19A
330
152
100
AcDbEntity
  8
Sketch Lines(Ram)
100
AcDbLine
 10
8.651080391436208
 20
1.606661125234811
 30
0.0
 11
7.02531487439673
 21
1.7775359666245
 31
0.0
  0
LINE
  5
19B
330
152
100
AcDbEntity
  8
Sketch Lines(Ram)
100
AcDbLine
 10
7.02531487439673
 20
1.7775359666245
 30
0.0
 11
8.240149094793736
 21
0.6836943214276481
 31
0.0
  0
MTEXT
  5
19C
330
152
100
AcDbEntity
  8
Symbols(Ram)
 62
     7
100
AcDbMText
 10
0.2641538309346636
 20
-2.814653579225723
 30
0.0
 40
2.5
 41
0.0
 46
0.0
 71
     2
 72
     1
  1
\fArial|b1|i0;\H2.5000;WELS \PPRODUCT
  7
STD 2.5 ARIAL
 73
     2
 44
0.9442214965820312
  0
ENDBLK
  5
154
330
152
100
AcDbEntity
  8
0
100
AcDbBlockEnd
  0
BLOCK
  5
19E
330
19D
100
AcDbEntity
  8
0
100
AcDbBlockBegin
  2
Quote Only
 70
     0
 10
0.0
 20
0.0
 30
0.0
  3
Quote Only
  1

  0
MTEXT
  5
1A0
102
{ACAD_XDICTIONARY
360
7A5
102
}
330
19D
100
AcDbEntity
  8
Symbols(Ram)
 62
     1
420
 16711680
100
AcDbMText
 10
-5.960016744211316
 20
10.32305181493523
 30
0.0
 40
2.5
 41
42.51561164855953
 46
0.0
 71
     2
 72
     1
  1
{\H2.8x;QUOTE\PONLY\H1.39959x; \H0.71449x;\P}NOT FOR PRODUCTION{\H1.97342x; }
  7
STD 2.5 ARIAL
 11
0.8660254037844385
 21
0.5000000000000007
 31
0.0
 73
     1
 44
0.8201032280921936
  0
ENDBLK
  5
19F
330
19D
100
AcDbEntity
  8
0
100
AcDbBlockEnd
  0
BLOCK
  5
1A2
330
1A1
100
AcDbEntity
  8
0
100
AcDbBlockBegin
  2
4 UP
 70
     0
 10
0.0
 20
0.0
 30
0.0
  3
4 UP
  1

  0
LINE
  5
1A4
330
1A1
100
AcDbEntity
  8
Sketch Geometry(Ram)
370
    18
100
AcDbLine
 10
-1.000000000000005
 20
0.5000000000000071
 30
0.0
 11
-6.000000000000004
 21
0.5000000000000071
 31
0.0
  0
LINE
  5
1A5
330
1A1
100
AcDbEntity
  8
Sketch Geometry(Ram)
370
    18
100
AcDbLine
 10
-6.500000000000002
 20
1.00000000000003
 30
0.0
 11
-6.500000000000021
 21
8.000000000000042
 31
0.0
  0
LINE
  5
1A6
330
1A1
100
AcDbEntity
  8
Sketch Geometry(Ram)
370
    18
100
AcDbLine
 10
-6.000000000000004
 20
8.500000000000012
 30
0.0
 11
-1.000000000000005
 21
8.500000000000012
 31
0.0
  0
LINE
  5
1A7
330
1A1
100
AcDbEntity
  8
Sketch Geometry(Ram)
370
    18
100
AcDbLine
 10
-0.5000000000000071
 20
8.000000000000023
 30
0.0
 11
-0.5000000000000071
 21
1.00000000000003
 31
0.0
  0
ARC
  5
1A8
330
1A1
100
AcDbEntity
  8
Sketch Geometry(Ram)
370
    18
100
AcDbCircle
 10
-6.000000000000004
 20
8.000000000000023
 30
0.0
 40
0.5
100
AcDbArc
 50
90.0
 51
180.0
  0
ARC
  5
1A9
330
1A1
100
AcDbEntity
  8
Sketch Geometry(Ram)
370
    18
100
AcDbCircle
 10
-1.000000000000005
 20
8.000000000000023
 30
0.0
 40
0.5
100
AcDbArc
 50
0.0
 51
90.0
  0
ARC
  5
1AA
330
1A1
100
AcDbEntity
  8
Sketch Geometry(Ram)
370
    18
100
AcDbCircle
 10
-1.000000000000005
 20
1.00000000000003
 30
0.0
 40
0.5
100
AcDbArc
 50
270.0
 51
0.0
  0
ARC
  5
1AB
330
1A1
100
AcDbEntity
  8
Sketch Geometry(Ram)
370
    18
100
AcDbCircle
 10
-6.000000000000004
 20
1.00000000000003
 30
0.0
 40
0.5
100
AcDbArc
 50
180.0
 51
270.0
  0
LINE
  5
1AC
330
1A1
100
AcDbEntity
  8
Sketch Geometry(Ram)
370
    18
100
AcDbLine
 10
0.9999999999999964
 20
8.500000000000012
 30
0.0
 11
5.999999999999996
 21
8.500000000000012
 31
0.0
  0
ARC
  5
1AD
330
1A1
100
AcDbEntity
  8
Sketch Geometry(Ram)
370
    18
100
AcDbCircle
 10
0.9999999999999964
 20
8.000000000000023
 30
0.0
 40
0.5
100
AcDbArc
 50
90.0
 51
180.0
  0
LINE
  5
1AE
330
1A1
100
AcDbEntity
  8
Sketch Geometry(Ram)
370
    18
100
AcDbLine
 10
0.4999999999999984
 20
1.00000000000003
 30
0.0
 11
0.4999999999999806
 21
8.000000000000042
 31
0.0
  0
LINE
  5
1AF
330
1A1
100
AcDbEntity
  8
Sketch Geometry(Ram)
370
    18
100
AcDbLine
 10
6.499999999999993
 20
8.000000000000023
 30
0.0
 11
6.499999999999993
 21
1.00000000000003
 31
0.0
  0
ARC
  5
1B0
330
1A1
100
AcDbEntity
  8
Sketch Geometry(Ram)
370
    18
100
AcDbCircle
 10
5.999999999999996
 20
8.000000000000023
 30
0.0
 40
0.5
100
AcDbArc
 50
0.0
 51
90.0
  0
ARC
  5
1B1
330
1A1
100
AcDbEntity
  8
Sketch Geometry(Ram)
370
    18
100
AcDbCircle
 10
5.999999999999996
 20
1.00000000000003
 30
0.0
 40
0.5
100
AcDbArc
 50
270.0
 51
0.0
  0
LINE
  5
1B2
330
1A1
100
AcDbEntity
  8
Sketch Geometry(Ram)
370
    18
100
AcDbLine
 10
5.999999999999996
 20
0.5000000000000071
 30
0.0
 11
0.9999999999999964
 21
0.5000000000000071
 31
0.0
  0
ARC
  5
1B3
330
1A1
100
AcDbEntity
  8
Sketch Geometry(Ram)
370
    18
100
AcDbCircle
 10
0.9999999999999964
 20
1.00000000000003
 30
0.0
 40
0.5
100
AcDbArc
 50
180.0
 51
270.0
  0
LINE
  5
1B4
330
1A1
100
AcDbEntity
  8
Sketch Geometry(Ram)
370
    18
100
AcDbLine
 10
-6.000000000000004
 20
-0.4999999999999895
 30
0.0
 11
-1.000000000000005
 21
-0.5000000000000071
 31
0.0
  0
ARC
  5
1B5
330
1A1
100
AcDbEntity
  8
Sketch Geometry(Ram)
370
    18
100
AcDbCircle
 10
-6.000000000000004
 20
-1.000000000000013
 30
0.0
 40
0.5
100
AcDbArc
 50
90.0
 51
180.0
  0
LINE
  5
1B6
330
1A1
100
AcDbEntity
  8
Sketch Geometry(Ram)
370
    18
100
AcDbLine
 10
-6.500000000000002
 20
-7.999999999999988
 30
0.0
 11
-6.500000000000013
 21
-1.000000000000013
 31
0.0
  0
LINE
  5
1B7
330
1A1
100
AcDbEntity
  8
Sketch Geometry(Ram)
370
    18
100
AcDbLine
 10
-0.5000000000000071
 20
-0.9999999999999964
 30
0.0
 11
-0.5000000000000071
 21
-7.999999999999988
 31
0.0
  0
ARC
  5
1B8
330
1A1
100
AcDbEntity
  8
Sketch Geometry(Ram)
370
    18
100
AcDbCircle
 10
-1.000000000000005
 20
-0.9999999999999964
 30
0.0
 40
0.5
100
AcDbArc
 50
0.0
 51
90.0
  0
ARC
  5
1B9
330
1A1
100
AcDbEntity
  8
Sketch Geometry(Ram)
370
    18
100
AcDbCircle
 10
-1.000000000000005
 20
-7.999999999999988
 30
0.0
 40
0.5
100
AcDbArc
 50
270.0
 51
0.0
  0
LINE
  5
1BA
330
1A1
100
AcDbEntity
  8
Sketch Geometry(Ram)
370
    18
100
AcDbLine
 10
-1.000000000000005
 20
-8.500000000000012
 30
0.0
 11
-6.000000000000004
 21
-8.500000000000012
 31
0.0
  0
ARC
  5
1BB
330
1A1
100
AcDbEntity
  8
Sketch Geometry(Ram)
370
    18
100
AcDbCircle
 10
-6.000000000000004
 20
-7.999999999999988
 30
0.0
 40
0.5
100
AcDbArc
 50
180.0
 51
270.0
  0
LINE
  5
1BC
330
1A1
100
AcDbEntity
  8
Sketch Geometry(Ram)
370
    18
100
AcDbLine
 10
0.9999999999999964
 20
-0.4999999999999895
 30
0.0
 11
5.999999999999996
 21
-0.5000000000000071
 31
0.0
  0
ARC
  5
1BD
330
1A1
100
AcDbEntity
  8
Sketch Geometry(Ram)
370
    18
100
AcDbCircle
 10
0.9999999999999964
 20
-0.9999999999999785
 30
0.0
 40
0.5
100
AcDbArc
 50
90.0
 51
180.0
  0
LINE
  5
1BE
330
1A1
100
AcDbEntity
  8
Sketch Geometry(Ram)
370
    18
100
AcDbLine
 10
0.4999999999999984
 20
-7.999999999999988
 30
0.0
 11
0.4999999999999806
 21
-0.9999999999999607
 31
0.0
  0
LINE
  5
1BF
330
1A1
100
AcDbEntity
  8
Sketch Geometry(Ram)
370
    18
100
AcDbLine
 10
6.499999999999993
 20
-0.9999999999999964
 30
0.0
 11
6.499999999999993
 21
-7.999999999999988
 31
0.0
  0
ARC
  5
1C0
330
1A1
100
AcDbEntity
  8
Sketch Geometry(Ram)
370
    18
100
AcDbCircle
 10
5.999999999999996
 20
-0.9999999999999964
 30
0.0
 40
0.5
100
AcDbArc
 50
0.0
 51
90.0
  0
ARC
  5
1C1
330
1A1
100
AcDbEntity
  8
Sketch Geometry(Ram)
370
    18
100
AcDbCircle
 10
5.999999999999996
 20
-7.999999999999988
 30
0.0
 40
0.5
100
AcDbArc
 50
270.0
 51
0.0
  0
LINE
  5
1C2
330
1A1
100
AcDbEntity
  8
Sketch Geometry(Ram)
370
    18
100
AcDbLine
 10
5.999999999999996
 20
-8.500000000000012
 30
0.0
 11
0.9999999999999964
 21
-8.500000000000012
 31
0.0
  0
ARC
  5
1C3
330
1A1
100
AcDbEntity
  8
Sketch Geometry(Ram)
370
    18
100
AcDbCircle
 10
0.9999999999999964
 20
-7.999999999999988
 30
0.0
 40
0.5
100
AcDbArc
 50
180.0
 51
270.0
  0
MTEXT
  5
1C4
330
1A1
100
AcDbEntity
  8
Symbols(Ram)
 62
     7
100
AcDbMText
 10
-3.285501171173564
 20
3.819317278035381
 30
0.0
 40
6.99999988079071
 41
0.0
 46
0.0
 71
     1
 72
     1
  1
\fArial|b1|i0;\H7.0000;4
  7
STD 2.5 ARIAL
 73
     1
 44
1.0
  0
MTEXT
  5
1C5
330
1A1
100
AcDbEntity
  8
Symbols(Ram)
 62
     7
100
AcDbMText
 10
0.0818006588334175
 20
-11.29726315604326
 30
0.0
 40
1.49859994649887
 41
12.69037379631852
 46
0.0
 71
     2
 72
     1
  1
\fArial|b0|i0;\H1.4986;SKIN PACK 290 x 210mm
  7
STD 2.5 ARIAL
 73
     2
 44
0.9442214369773862
  0
ENDBLK
  5
1A3
330
1A1
100
AcDbEntity
  8
0
100
AcDbBlockEnd
  0
BLOCK
  5
1C7
330
1C6
100
AcDbEntity
  8
0
100
AcDbBlockBegin
  2
2 UP
 70
     0
 10
0.0
 20
0.0
 30
0.0
  3
2 UP
  1

  0
LINE
  5
1C9
330
1C6
100
AcDbEntity
  8
Sketch Geometry(Ram)
370
    18
100
AcDbLine
 10
5.999999999999996
 20
-8.500000000000012
 30
0.0
 11
-5.999999999999996
 21
-8.500000000000012
 31
0.0
  0
LINE
  5
1CA
330
1C6
100
AcDbEntity
  8
Sketch Geometry(Ram)
370
    18
100
AcDbLine
 10
-6.499999999999993
 20
-7.999999999999988
 30
0.0
 11
-6.500000000000013
 21
-0.9999999999999964
 31
0.0
  0
LINE
  5
1CB
330
1C6
100
AcDbEntity
  8
Sketch Geometry(Ram)
370
    18
100
AcDbLine
 10
-6.000000000000004
 20
-0.4999999999999895
 30
0.0
 11
5.999999999999996
 21
-0.4999999999999895
 31
0.0
  0
LINE
  5
1CC
330
1C6
100
AcDbEntity
  8
Sketch Geometry(Ram)
370
    18
100
AcDbLine
 10
6.499999999999993
 20
-0.9999999999999964
 30
0.0
 11
6.499999999999993
 21
-7.999999999999988
 31
0.0
  0
ARC
  5
1CD
330
1C6
100
AcDbEntity
  8
Sketch Geometry(Ram)
370
    18
100
AcDbCircle
 10
-6.000000000000004
 20
-0.9999999999999964
 30
0.0
 40
0.5
100
AcDbArc
 50
90.0
 51
180.0
  0
ARC
  5
1CE
330
1C6
100
AcDbEntity
  8
Sketch Geometry(Ram)
370
    18
100
AcDbCircle
 10
5.999999999999996
 20
-0.9999999999999964
 30
0.0
 40
0.5
100
AcDbArc
 50
0.0
 51
90.0
  0
ARC
  5
1CF
330
1C6
100
AcDbEntity
  8
Sketch Geometry(Ram)
370
    18
100
AcDbCircle
 10
5.999999999999996
 20
-7.999999999999988
 30
0.0
 40
0.5
100
AcDbArc
 50
270.0
 51
0.0
  0
ARC
  5
1D0
330
1C6
100
AcDbEntity
  8
Sketch Geometry(Ram)
370
    18
100
AcDbCircle
 10
-6.000000000000004
 20
-7.999999999999988
 30
0.0
 40
0.5
100
AcDbArc
 50
180.0
 51
270.0
  0
LINE
  5
1D1
330
1C6
100
AcDbEntity
  8
Sketch Geometry(Ram)
370
    18
100
AcDbLine
 10
-6.499999999999993
 20
1.000000000000013
 30
0.0
 11
-6.500000000000013
 21
8.000000000000008
 31
0.0
  0
LINE
  5
1D2
330
1C6
100
AcDbEntity
  8
Sketch Geometry(Ram)
370
    18
100
AcDbLine
 10
-6.000000000000004
 20
8.500000000000012
 30
0.0
 11
5.999999999999996
 21
8.500000000000012
 31
0.0
  0
ARC
  5
1D3
330
1C6
100
AcDbEntity
  8
Sketch Geometry(Ram)
370
    18
100
AcDbCircle
 10
-6.000000000000004
 20
8.000000000000008
 30
0.0
 40
0.5
100
AcDbArc
 50
90.0
 51
180.0
  0
ARC
  5
1D4
330
1C6
100
AcDbEntity
  8
Sketch Geometry(Ram)
370
    18
100
AcDbCircle
 10
-6.000000000000004
 20
1.000000000000013
 30
0.0
 40
0.5
100
AcDbArc
 50
180.0
 51
270.0
  0
LINE
  5
1D5
330
1C6
100
AcDbEntity
  8
Sketch Geometry(Ram)
370
    18
100
AcDbLine
 10
5.999999999999996
 20
0.4999999999999895
 30
0.0
 11
-5.999999999999996
 21
0.4999999999999895
 31
0.0
  0
LINE
  5
1D6
330
1C6
100
AcDbEntity
  8
Sketch Geometry(Ram)
370
    18
100
AcDbLine
 10
6.499999999999993
 20
8.000000000000008
 30
0.0
 11
6.499999999999993
 21
1.000000000000013
 31
0.0
  0
ARC
  5
1D7
330
1C6
100
AcDbEntity
  8
Sketch Geometry(Ram)
370
    18
100
AcDbCircle
 10
5.999999999999996
 20
8.000000000000008
 30
0.0
 40
0.5
100
AcDbArc
 50
0.0
 51
90.0
  0
ARC
  5
1D8
330
1C6
100
AcDbEntity
  8
Sketch Geometry(Ram)
370
    18
100
AcDbCircle
 10
5.999999999999996
 20
1.000000000000013
 30
0.0
 40
0.5
100
AcDbArc
 50
270.0
 51
0.0
  0
MTEXT
  5
1D9
330
1C6
100
AcDbEntity
  8
Symbols(Ram)
 62
     7
100
AcDbMText
 10
-2.693369958193557
 20
3.877714748987841
 30
0.0
 40
6.99999988079071
 41
0.0
 46
0.0
 71
     1
 72
     1
  1
\fArial|b1|i0;\H7.0000;2
  7
STD 2.5 ARIAL
 73
     1
 44
1.0
  0
MTEXT
  5
1DA
330
1C6
100
AcDbEntity
  8
Symbols(Ram)
 62
     7
100
AcDbMText
 10
-0.1943525311948591
 20
-10.85544927742214
 30
0.0
 40
1.49859994649887
 41
12.69037379631852
 46
0.0
 71
     2
 72
     1
  1
\fArial|b0|i0;\H1.4986;SKIN PACK 435 x 290mm
  7
STD 2.5 ARIAL
 73
     2
 44
0.9442214369773862
  0
ENDBLK
  5
1C8
330
1C6
100
AcDbEntity
  8
0
100
AcDbBlockEnd
  0
BLOCK
  5
1DC
330
1DB
100
AcDbEntity
  8
0
100
AcDbBlockBegin
  2
6 UP
 70
     0
 10
0.0
 20
0.0
 30
0.0
  3
6 UP
  1

  0
LINE
  5
1DE
330
1DB
100
AcDbEntity
  8
Sketch Geometry(Ram)
370
    18
100
AcDbLine
 10
-1.000000000000005
 20
3.499999999999996
 30
0.0
 11
-6.000000000000004
 21
3.499999999999996
 31
0.0
  0
LINE
  5
1DF
330
1DB
100
AcDbEntity
  8
Sketch Geometry(Ram)
370
    18
100
AcDbLine
 10
-6.499999999999993
 20
4.000000000000021
 30
0.0
 11
-6.500000000000002
 21
8.000000000000008
 31
0.0
  0
LINE
  5
1E0
330
1DB
100
AcDbEntity
  8
Sketch Geometry(Ram)
370
    18
100
AcDbLine
 10
-5.999999999999996
 20
8.500000000000012
 30
0.0
 11
-1.000000000000005
 21
8.50000000000003
 31
0.0
  0
LINE
  5
1E1
330
1DB
100
AcDbEntity
  8
Sketch Geometry(Ram)
370
    18
100
AcDbLine
 10
-0.5000000000000071
 20
8.000000000000008
 30
0.0
 11
-0.5000000000000071
 21
4.000000000000021
 31
0.0
  0
ARC
  5
1E2
330
1DB
100
AcDbEntity
  8
Sketch Geometry(Ram)
370
    18
100
AcDbCircle
 10
-5.999999999999996
 20
8.000000000000008
 30
0.0
 40
0.5
100
AcDbArc
 50
90.0
 51
180.0
  0
ARC
  5
1E3
330
1DB
100
AcDbEntity
  8
Sketch Geometry(Ram)
370
    18
100
AcDbCircle
 10
-0.9999999999999964
 20
8.000000000000008
 30
0.0
 40
0.5
100
AcDbArc
 50
0.0
 51
90.0
  0
ARC
  5
1E4
330
1DB
100
AcDbEntity
  8
Sketch Geometry(Ram)
370
    18
100
AcDbCircle
 10
-0.9999999999999964
 20
4.000000000000021
 30
0.0
 40
0.5
100
AcDbArc
 50
270.0
 51
0.0
  0
ARC
  5
1E5
330
1DB
100
AcDbEntity
  8
Sketch Geometry(Ram)
370
    18
100
AcDbCircle
 10
-6.000000000000004
 20
4.000000000000021
 30
0.0
 40
0.5
100
AcDbArc
 50
180.0
 51
270.0
  0
LINE
  5
1E6
330
1DB
100
AcDbEntity
  8
Sketch Geometry(Ram)
370
    18
100
AcDbLine
 10
1.000000000000005
 20
8.500000000000012
 30
0.0
 11
5.999999999999996
 21
8.50000000000003
 31
0.0
  0
ARC
  5
1E7
330
1DB
100
AcDbEntity
  8
Sketch Geometry(Ram)
370
    18
100
AcDbCircle
 10
1.000000000000005
 20
8.000000000000008
 30
0.0
 40
0.5
100
AcDbArc
 50
90.0
 51
180.0
  0
LINE
  5
1E8
330
1DB
100
AcDbEntity
  8
Sketch Geometry(Ram)
370
    18
100
AcDbLine
 10
5.999999999999996
 20
3.499999999999996
 30
0.0
 11
0.9999999999999964
 21
3.499999999999996
 31
0.0
  0
ARC
  5
1E9
330
1DB
100
AcDbEntity
  8
Sketch Geometry(Ram)
370
    18
100
AcDbCircle
 10
0.9999999999999964
 20
4.000000000000021
 30
0.0
 40
0.5
100
AcDbArc
 50
180.0
 51
270.0
  0
LINE
  5
1EA
330
1DB
100
AcDbEntity
  8
Sketch Geometry(Ram)
370
    18
100
AcDbLine
 10
0.5000000000000071
 20
4.000000000000021
 30
0.0
 11
0.4999999999999984
 21
8.000000000000008
 31
0.0
  0
LINE
  5
1EB
330
1DB
100
AcDbEntity
  8
Sketch Geometry(Ram)
370
    18
100
AcDbLine
 10
6.499999999999993
 20
8.000000000000008
 30
0.0
 11
6.499999999999993
 21
4.000000000000021
 31
0.0
  0
ARC
  5
1EC
330
1DB
100
AcDbEntity
  8
Sketch Geometry(Ram)
370
    18
100
AcDbCircle
 10
6.000000000000004
 20
8.000000000000008
 30
0.0
 40
0.5
100
AcDbArc
 50
0.0
 51
90.0
  0
ARC
  5
1ED
330
1DB
100
AcDbEntity
  8
Sketch Geometry(Ram)
370
    18
100
AcDbCircle
 10
6.000000000000004
 20
4.000000000000021
 30
0.0
 40
0.5
100
AcDbArc
 50
270.0
 51
0.0
  0
LINE
  5
1EE
330
1DB
100
AcDbEntity
  8
Sketch Geometry(Ram)
370
    18
100
AcDbLine
 10
-5.999999999999996
 20
2.500000000000016
 30
0.0
 11
-1.000000000000005
 21
2.500000000000035
 31
0.0
  0
ARC
  5
1EF
330
1DB
100
AcDbEntity
  8
Sketch Geometry(Ram)
370
    18
100
AcDbCircle
 10
-5.999999999999996
 20
2.00000000000001
 30
0.0
 40
0.5
100
AcDbArc
 50
90.0
 51
180.0
  0
LINE
  5
1F0
330
1DB
100
AcDbEntity
  8
Sketch Geometry(Ram)
370
    18
100
AcDbLine
 10
-1.000000000000005
 20
-2.5
 30
0.0
 11
-6.000000000000004
 21
-2.5
 31
0.0
  0
ARC
  5
1F1
330
1DB
100
AcDbEntity
  8
Sketch Geometry(Ram)
370
    18
100
AcDbCircle
 10
-6.000000000000004
 20
-1.999999999999974
 30
0.0
 40
0.5
100
AcDbArc
 50
180.0
 51
270.0
  0
LINE
  5
1F2
330
1DB
100
AcDbEntity
  8
Sketch Geometry(Ram)
370
    18
100
AcDbLine
 10
-6.499999999999993
 20
-1.999999999999974
 30
0.0
 11
-6.500000000000002
 21
2.00000000000001
 31
0.0
  0
LINE
  5
1F3
330
1DB
100
AcDbEntity
  8
Sketch Geometry(Ram)
370
    18
100
AcDbLine
 10
-0.5000000000000071
 20
2.00000000000001
 30
0.0
 11
-0.5000000000000071
 21
-1.999999999999974
 31
0.0
  0
ARC
  5
1F4
330
1DB
100
AcDbEntity
  8
Sketch Geometry(Ram)
370
    18
100
AcDbCircle
 10
-0.9999999999999964
 20
2.00000000000001
 30
0.0
 40
0.5
100
AcDbArc
 50
0.0
 51
90.0
  0
ARC
  5
1F5
330
1DB
100
AcDbEntity
  8
Sketch Geometry(Ram)
370
    18
100
AcDbCircle
 10
-0.9999999999999964
 20
-1.999999999999974
 30
0.0
 40
0.5
100
AcDbArc
 50
270.0
 51
0.0
  0
LINE
  5
1F6
330
1DB
100
AcDbEntity
  8
Sketch Geometry(Ram)
370
    18
100
AcDbLine
 10
1.000000000000005
 20
2.500000000000016
 30
0.0
 11
5.999999999999996
 21
2.500000000000035
 31
0.0
  0
ARC
  5
1F7
330
1DB
100
AcDbEntity
  8
Sketch Geometry(Ram)
370
    18
100
AcDbCircle
 10
1.000000000000005
 20
2.00000000000001
 30
0.0
 40
0.5
100
AcDbArc
 50
90.0
 51
180.0
  0
LINE
  5
1F8
330
1DB
100
AcDbEntity
  8
Sketch Geometry(Ram)
370
    18
100
AcDbLine
 10
5.999999999999996
 20
-2.5
 30
0.0
 11
0.9999999999999964
 21
-2.5
 31
0.0
  0
ARC
  5
1F9
330
1DB
100
AcDbEntity
  8
Sketch Geometry(Ram)
370
    18
100
AcDbCircle
 10
0.9999999999999964
 20
-1.999999999999974
 30
0.0
 40
0.5
100
AcDbArc
 50
180.0
 51
270.0
  0
LINE
  5
1FA
330
1DB
100
AcDbEntity
  8
Sketch Geometry(Ram)
370
    18
100
AcDbLine
 10
0.5000000000000071
 20
-1.999999999999974
 30
0.0
 11
0.4999999999999984
 21
2.00000000000001
 31
0.0
  0
LINE
  5
1FB
330
1DB
100
AcDbEntity
  8
Sketch Geometry(Ram)
370
    18
100
AcDbLine
 10
6.499999999999993
 20
2.00000000000001
 30
0.0
 11
6.499999999999993
 21
-1.999999999999974
 31
0.0
  0
ARC
  5
1FC
330
1DB
100
AcDbEntity
  8
Sketch Geometry(Ram)
370
    18
100
AcDbCircle
 10
6.000000000000004
 20
2.00000000000001
 30
0.0
 40
0.5
100
AcDbArc
 50
0.0
 51
90.0
  0
ARC
  5
1FD
330
1DB
100
AcDbEntity
  8
Sketch Geometry(Ram)
370
    18
100
AcDbCircle
 10
6.000000000000004
 20
-1.999999999999974
 30
0.0
 40
0.5
100
AcDbArc
 50
270.0
 51
0.0
  0
LINE
  5
1FE
330
1DB
100
AcDbEntity
  8
Sketch Geometry(Ram)
370
    18
100
AcDbLine
 10
-5.999999999999996
 20
-3.499999999999996
 30
0.0
 11
-1.000000000000005
 21
-3.49999999999996
 31
0.0
  0
ARC
  5
1FF
330
1DB
100
AcDbEntity
  8
Sketch Geometry(Ram)
370
    18
100
AcDbCircle
 10
-5.999999999999996
 20
-4.000000000000002
 30
0.0
 40
0.5
100
AcDbArc
 50
90.0
 51
180.0
  0
LINE
  5
200
330
1DB
100
AcDbEntity
  8
Sketch Geometry(Ram)
370
    18
100
AcDbLine
 10
-1.000000000000005
 20
-8.499999999999996
 30
0.0
 11
-6.000000000000004
 21
-8.499999999999996
 31
0.0
  0
ARC
  5
201
330
1DB
100
AcDbEntity
  8
Sketch Geometry(Ram)
370
    18
100
AcDbCircle
 10
-6.000000000000004
 20
-7.999999999999988
 30
0.0
 40
0.5
100
AcDbArc
 50
180.0
 51
270.0
  0
LINE
  5
202
330
1DB
100
AcDbEntity
  8
Sketch Geometry(Ram)
370
    18
100
AcDbLine
 10
-6.499999999999993
 20
-7.999999999999988
 30
0.0
 11
-6.500000000000002
 21
-4.000000000000002
 31
0.0
  0
LINE
  5
203
330
1DB
100
AcDbEntity
  8
Sketch Geometry(Ram)
370
    18
100
AcDbLine
 10
-0.5000000000000071
 20
-4.000000000000002
 30
0.0
 11
-0.5000000000000071
 21
-7.999999999999988
 31
0.0
  0
ARC
  5
204
330
1DB
100
AcDbEntity
  8
Sketch Geometry(Ram)
370
    18
100
AcDbCircle
 10
-0.9999999999999964
 20
-4.000000000000002
 30
0.0
 40
0.5
100
AcDbArc
 50
0.0
 51
90.0
  0
ARC
  5
205
330
1DB
100
AcDbEntity
  8
Sketch Geometry(Ram)
370
    18
100
AcDbCircle
 10
-0.9999999999999964
 20
-7.999999999999988
 30
0.0
 40
0.5
100
AcDbArc
 50
270.0
 51
0.0
  0
LINE
  5
206
330
1DB
100
AcDbEntity
  8
Sketch Geometry(Ram)
370
    18
100
AcDbLine
 10
1.000000000000005
 20
-3.499999999999977
 30
0.0
 11
5.999999999999996
 21
-3.49999999999996
 31
0.0
  0
ARC
  5
207
330
1DB
100
AcDbEntity
  8
Sketch Geometry(Ram)
370
    18
100
AcDbCircle
 10
1.000000000000005
 20
-3.999999999999984
 30
0.0
 40
0.5
100
AcDbArc
 50
90.0
 51
180.0
  0
LINE
  5
208
330
1DB
100
AcDbEntity
  8
Sketch Geometry(Ram)
370
    18
100
AcDbLine
 10
5.999999999999996
 20
-8.499999999999996
 30
0.0
 11
0.9999999999999964
 21
-8.499999999999996
 31
0.0
  0
ARC
  5
209
330
1DB
100
AcDbEntity
  8
Sketch Geometry(Ram)
370
    18
100
AcDbCircle
 10
0.9999999999999964
 20
-7.999999999999971
 30
0.0
 40
0.5
100
AcDbArc
 50
180.0
 51
270.0
  0
LINE
  5
20A
330
1DB
100
AcDbEntity
  8
Sketch Geometry(Ram)
370
    18
100
AcDbLine
 10
0.5000000000000071
 20
-7.999999999999971
 30
0.0
 11
0.4999999999999984
 21
-3.999999999999984
 31
0.0
  0
LINE
  5
20B
330
1DB
100
AcDbEntity
  8
Sketch Geometry(Ram)
370
    18
100
AcDbLine
 10
6.499999999999993
 20
-3.999999999999984
 30
0.0
 11
6.499999999999993
 21
-7.999999999999971
 31
0.0
  0
ARC
  5
20C
330
1DB
100
AcDbEntity
  8
Sketch Geometry(Ram)
370
    18
100
AcDbCircle
 10
6.000000000000004
 20
-3.999999999999984
 30
0.0
 40
0.5
100
AcDbArc
 50
0.0
 51
90.0
  0
ARC
  5
20D
330
1DB
100
AcDbEntity
  8
Sketch Geometry(Ram)
370
    18
100
AcDbCircle
 10
6.000000000000004
 20
-7.999999999999971
 30
0.0
 40
0.5
100
AcDbArc
 50
270.0
 51
0.0
  0
MTEXT
  5
20E
330
1DB
100
AcDbEntity
  8
Symbols(Ram)
 62
     7
100
AcDbMText
 10
-2.501412751660002
 20
4.308296391833169
 30
0.0
 40
6.99999988079071
 41
0.0
 46
0.0
 71
     1
 72
     1
  1
\fArial|b1|i0;\H7.0000;6
  7
STD 2.5 ARIAL
 73
     1
 44
1.0
  0
MTEXT
  5
20F
330
1DB
100
AcDbEntity
  8
Symbols(Ram)
 62
     7
100
AcDbMText
 10
-0.1522701282913097
 20
-9.87539018147526
 30
0.0
 40
1.49859994649887
 41
13.03165197372436
 46
0.0
 71
     2
 72
     1
  1
\fArial|b0|i0;\H1.4986;SKIN PACK 210 X 190mm
  7
STD 2.5 ARIAL
 73
     2
 44
0.9442214369773862
  0
ENDBLK
  5
1DD
330
1DB
100
AcDbEntity
  8
0
100
AcDbBlockEnd
  0
BLOCK
  5
211
330
210
100
AcDbEntity
  8
0
100
AcDbBlockBegin
  2
8 UP
 70
     0
 10
0.0
 20
0.0
 30
0.0
  3
8 UP
  1

  0
LINE
  5
213
330
210
100
AcDbEntity
  8
Sketch Geometry(Ram)
370
    18
100
AcDbLine
 10
-4.499999999999992
 20
0.5000000000000071
 30
0.0
 11
-5.999999999999996
 21
0.4999999999999895
 31
0.0
  0
LINE
  5
214
330
210
100
AcDbEntity
  8
Sketch Geometry(Ram)
370
    18
100
AcDbLine
 10
-6.499999999999985
 20
1.000000000000013
 30
0.0
 11
-6.499999999999993
 21
8.000000000000023
 31
0.0
  0
LINE
  5
215
330
210
100
AcDbEntity
  8
Sketch Geometry(Ram)
370
    18
100
AcDbLine
 10
-5.999999999999996
 20
8.500000000000012
 30
0.0
 11
-4.499999999999992
 21
8.500000000000012
 31
0.0
  0
LINE
  5
216
330
210
100
AcDbEntity
  8
Sketch Geometry(Ram)
370
    18
100
AcDbLine
 10
-4.000000000000002
 20
8.000000000000008
 30
0.0
 11
-4.000000000000002
 21
1.000000000000013
 31
0.0
  0
ARC
  5
217
330
210
100
AcDbEntity
  8
Sketch Geometry(Ram)
370
    18
100
AcDbCircle
 10
-5.999999999999996
 20
8.000000000000023
 30
0.0
 40
0.5
100
AcDbArc
 50
90.0
 51
180.0
  0
ARC
  5
218
330
210
100
AcDbEntity
  8
Sketch Geometry(Ram)
370
    18
100
AcDbCircle
 10
-4.499999999999992
 20
8.000000000000008
 30
0.0
 40
0.5
100
AcDbArc
 50
0.0
 51
90.0
  0
ARC
  5
219
330
210
100
AcDbEntity
  8
Sketch Geometry(Ram)
370
    18
100
AcDbCircle
 10
-4.499999999999992
 20
1.000000000000013
 30
0.0
 40
0.5
100
AcDbArc
 50
270.0
 51
0.0
  0
ARC
  5
21A
330
210
100
AcDbEntity
  8
Sketch Geometry(Ram)
370
    18
100
AcDbCircle
 10
-5.999999999999996
 20
1.000000000000013
 30
0.0
 40
0.5
100
AcDbArc
 50
180.0
 51
270.0
  0
LINE
  5
21B
330
210
100
AcDbEntity
  8
Sketch Geometry(Ram)
370
    18
100
AcDbLine
 10
-2.5
 20
8.500000000000012
 30
0.0
 11
-0.9999999999999964
 21
8.500000000000012
 31
0.0
  0
ARC
  5
21C
330
210
100
AcDbEntity
  8
Sketch Geometry(Ram)
370
    18
100
AcDbCircle
 10
-2.5
 20
8.000000000000023
 30
0.0
 40
0.5
100
AcDbArc
 50
90.0
 51
180.0
  0
LINE
  5
21D
330
210
100
AcDbEntity
  8
Sketch Geometry(Ram)
370
    18
100
AcDbLine
 10
-2.999999999999988
 20
1.000000000000013
 30
0.0
 11
-2.999999999999998
 21
8.000000000000023
 31
0.0
  0
LINE
  5
21E
330
210
100
AcDbEntity
  8
Sketch Geometry(Ram)
370
    18
100
AcDbLine
 10
-0.5000000000000071
 20
8.000000000000008
 30
0.0
 11
-0.5000000000000071
 21
1.000000000000013
 31
0.0
  0
ARC
  5
21F
330
210
100
AcDbEntity
  8
Sketch Geometry(Ram)
370
    18
100
AcDbCircle
 10
-0.9999999999999964
 20
8.000000000000008
 30
0.0
 40
0.5
100
AcDbArc
 50
0.0
 51
90.0
  0
ARC
  5
220
330
210
100
AcDbEntity
  8
Sketch Geometry(Ram)
370
    18
100
AcDbCircle
 10
-0.9999999999999964
 20
1.000000000000013
 30
0.0
 40
0.5
100
AcDbArc
 50
270.0
 51
0.0
  0
LINE
  5
221
330
210
100
AcDbEntity
  8
Sketch Geometry(Ram)
370
    18
100
AcDbLine
 10
-0.9999999999999964
 20
0.5000000000000071
 30
0.0
 11
-2.5
 21
0.4999999999999895
 31
0.0
  0
ARC
  5
222
330
210
100
AcDbEntity
  8
Sketch Geometry(Ram)
370
    18
100
AcDbCircle
 10
-2.5
 20
1.000000000000013
 30
0.0
 40
0.5
100
AcDbArc
 50
180.0
 51
270.0
  0
LINE
  5
223
330
210
100
AcDbEntity
  8
Sketch Geometry(Ram)
370
    18
100
AcDbLine
 10
-5.999999999999996
 20
-0.4999999999999895
 30
0.0
 11
-4.499999999999992
 21
-0.4999999999999895
 31
0.0
  0
ARC
  5
224
330
210
100
AcDbEntity
  8
Sketch Geometry(Ram)
370
    18
100
AcDbCircle
 10
-5.999999999999996
 20
-0.9999999999999785
 30
0.0
 40
0.5
100
AcDbArc
 50
90.0
 51
180.0
  0
LINE
  5
225
330
210
100
AcDbEntity
  8
Sketch Geometry(Ram)
370
    18
100
AcDbLine
 10
-6.499999999999985
 20
-7.999999999999988
 30
0.0
 11
-6.499999999999993
 21
-0.9999999999999785
 31
0.0
  0
LINE
  5
226
330
210
100
AcDbEntity
  8
Sketch Geometry(Ram)
370
    18
100
AcDbLine
 10
-4.000000000000002
 20
-0.9999999999999964
 30
0.0
 11
-4.000000000000002
 21
-7.999999999999988
 31
0.0
  0
ARC
  5
227
330
210
100
AcDbEntity
  8
Sketch Geometry(Ram)
370
    18
100
AcDbCircle
 10
-4.499999999999992
 20
-0.9999999999999964
 30
0.0
 40
0.5
100
AcDbArc
 50
0.0
 51
90.0
  0
ARC
  5
228
330
210
100
AcDbEntity
  8
Sketch Geometry(Ram)
370
    18
100
AcDbCircle
 10
-4.499999999999992
 20
-7.999999999999988
 30
0.0
 40
0.5
100
AcDbArc
 50
270.0
 51
0.0
  0
LINE
  5
229
330
210
100
AcDbEntity
  8
Sketch Geometry(Ram)
370
    18
100
AcDbLine
 10
-4.499999999999992
 20
-8.499999999999996
 30
0.0
 11
-5.999999999999996
 21
-8.500000000000012
 31
0.0
  0
ARC
  5
22A
330
210
100
AcDbEntity
  8
Sketch Geometry(Ram)
370
    18
100
AcDbCircle
 10
-5.999999999999996
 20
-7.999999999999988
 30
0.0
 40
0.5
100
AcDbArc
 50
180.0
 51
270.0
  0
LINE
  5
22B
330
210
100
AcDbEntity
  8
Sketch Geometry(Ram)
370
    18
100
AcDbLine
 10
-2.5
 20
-0.4999999999999895
 30
0.0
 11
-0.9999999999999964
 21
-0.4999999999999895
 31
0.0
  0
ARC
  5
22C
330
210
100
AcDbEntity
  8
Sketch Geometry(Ram)
370
    18
100
AcDbCircle
 10
-2.5
 20
-0.9999999999999785
 30
0.0
 40
0.5
100
AcDbArc
 50
90.0
 51
180.0
  0
LINE
  5
22D
330
210
100
AcDbEntity
  8
Sketch Geometry(Ram)
370
    18
100
AcDbLine
 10
-2.999999999999988
 20
-7.999999999999988
 30
0.0
 11
-2.999999999999998
 21
-0.9999999999999785
 31
0.0
  0
LINE
  5
22E
330
210
100
AcDbEntity
  8
Sketch Geometry(Ram)
370
    18
100
AcDbLine
 10
-0.5000000000000071
 20
-0.9999999999999964
 30
0.0
 11
-0.5000000000000071
 21
-7.999999999999988
 31
0.0
  0
ARC
  5
22F
330
210
100
AcDbEntity
  8
Sketch Geometry(Ram)
370
    18
100
AcDbCircle
 10
-0.9999999999999964
 20
-0.9999999999999964
 30
0.0
 40
0.5
100
AcDbArc
 50
0.0
 51
90.0
  0
ARC
  5
230
330
210
100
AcDbEntity
  8
Sketch Geometry(Ram)
370
    18
100
AcDbCircle
 10
-0.9999999999999964
 20
-7.999999999999988
 30
0.0
 40
0.5
100
AcDbArc
 50
270.0
 51
0.0
  0
LINE
  5
231
330
210
100
AcDbEntity
  8
Sketch Geometry(Ram)
370
    18
100
AcDbLine
 10
-0.9999999999999964
 20
-8.499999999999996
 30
0.0
 11
-2.5
 21
-8.500000000000012
 31
0.0
  0
ARC
  5
232
330
210
100
AcDbEntity
  8
Sketch Geometry(Ram)
370
    18
100
AcDbCircle
 10
-2.5
 20
-7.999999999999988
 30
0.0
 40
0.5
100
AcDbArc
 50
180.0
 51
270.0
  0
LINE
  5
233
330
210
100
AcDbEntity
  8
Sketch Geometry(Ram)
370
    18
100
AcDbLine
 10
0.9999999999999964
 20
8.500000000000012
 30
0.0
 11
2.5
 21
8.500000000000012
 31
0.0
  0
ARC
  5
234
330
210
100
AcDbEntity
  8
Sketch Geometry(Ram)
370
    18
100
AcDbCircle
 10
0.9999999999999964
 20
8.000000000000023
 30
0.0
 40
0.5
100
AcDbArc
 50
90.0
 51
180.0
  0
LINE
  5
235
330
210
100
AcDbEntity
  8
Sketch Geometry(Ram)
370
    18
100
AcDbLine
 10
0.5000000000000071
 20
1.000000000000013
 30
0.0
 11
0.4999999999999984
 21
8.000000000000023
 31
0.0
  0
LINE
  5
236
330
210
100
AcDbEntity
  8
Sketch Geometry(Ram)
370
    18
100
AcDbLine
 10
2.999999999999988
 20
8.000000000000008
 30
0.0
 11
2.999999999999988
 21
1.000000000000013
 31
0.0
  0
ARC
  5
237
330
210
100
AcDbEntity
  8
Sketch Geometry(Ram)
370
    18
100
AcDbCircle
 10
2.5
 20
8.000000000000008
 30
0.0
 40
0.5
100
AcDbArc
 50
0.0
 51
90.0
  0
ARC
  5
238
330
210
100
AcDbEntity
  8
Sketch Geometry(Ram)
370
    18
100
AcDbCircle
 10
2.5
 20
1.000000000000013
 30
0.0
 40
0.5
100
AcDbArc
 50
270.0
 51
0.0
  0
LINE
  5
239
330
210
100
AcDbEntity
  8
Sketch Geometry(Ram)
370
    18
100
AcDbLine
 10
2.5
 20
0.5000000000000071
 30
0.0
 11
0.9999999999999964
 21
0.4999999999999895
 31
0.0
  0
ARC
  5
23A
330
210
100
AcDbEntity
  8
Sketch Geometry(Ram)
370
    18
100
AcDbCircle
 10
0.9999999999999964
 20
1.000000000000013
 30
0.0
 40
0.5
100
AcDbArc
 50
180.0
 51
270.0
  0
LINE
  5
23B
330
210
100
AcDbEntity
  8
Sketch Geometry(Ram)
370
    18
100
AcDbLine
 10
0.9999999999999964
 20
-0.4999999999999895
 30
0.0
 11
2.5
 21
-0.4999999999999895
 31
0.0
  0
ARC
  5
23C
330
210
100
AcDbEntity
  8
Sketch Geometry(Ram)
370
    18
100
AcDbCircle
 10
0.9999999999999964
 20
-0.9999999999999785
 30
0.0
 40
0.5
100
AcDbArc
 50
90.0
 51
180.0
  0
LINE
  5
23D
330
210
100
AcDbEntity
  8
Sketch Geometry(Ram)
370
    18
100
AcDbLine
 10
0.5000000000000071
 20
-7.999999999999988
 30
0.0
 11
0.4999999999999984
 21
-0.9999999999999785
 31
0.0
  0
LINE
  5
23E
330
210
100
AcDbEntity
  8
Sketch Geometry(Ram)
370
    18
100
AcDbLine
 10
2.999999999999988
 20
-0.9999999999999964
 30
0.0
 11
2.999999999999988
 21
-7.999999999999988
 31
0.0
  0
ARC
  5
23F
330
210
100
AcDbEntity
  8
Sketch Geometry(Ram)
370
    18
100
AcDbCircle
 10
2.5
 20
-0.9999999999999964
 30
0.0
 40
0.5
100
AcDbArc
 50
0.0
 51
90.0
  0
ARC
  5
240
330
210
100
AcDbEntity
  8
Sketch Geometry(Ram)
370
    18
100
AcDbCircle
 10
2.5
 20
-7.999999999999988
 30
0.0
 40
0.5
100
AcDbArc
 50
270.0
 51
0.0
  0
LINE
  5
241
330
210
100
AcDbEntity
  8
Sketch Geometry(Ram)
370
    18
100
AcDbLine
 10
2.5
 20
-8.499999999999996
 30
0.0
 11
0.9999999999999964
 21
-8.500000000000012
 31
0.0
  0
ARC
  5
242
330
210
100
AcDbEntity
  8
Sketch Geometry(Ram)
370
    18
100
AcDbCircle
 10
0.9999999999999964
 20
-7.999999999999988
 30
0.0
 40
0.5
100
AcDbArc
 50
180.0
 51
270.0
  0
LINE
  5
243
330
210
100
AcDbEntity
  8
Sketch Geometry(Ram)
370
    18
100
AcDbLine
 10
4.499999999999992
 20
8.500000000000012
 30
0.0
 11
5.999999999999996
 21
8.500000000000012
 31
0.0
  0
ARC
  5
244
330
210
100
AcDbEntity
  8
Sketch Geometry(Ram)
370
    18
100
AcDbCircle
 10
4.499999999999992
 20
8.000000000000023
 30
0.0
 40
0.5
100
AcDbArc
 50
90.0
 51
180.0
  0
LINE
  5
245
330
210
100
AcDbEntity
  8
Sketch Geometry(Ram)
370
    18
100
AcDbLine
 10
4.000000000000002
 20
1.000000000000013
 30
0.0
 11
3.999999999999993
 21
8.000000000000023
 31
0.0
  0
LINE
  5
246
330
210
100
AcDbEntity
  8
Sketch Geometry(Ram)
370
    18
100
AcDbLine
 10
6.499999999999985
 20
8.000000000000008
 30
0.0
 11
6.499999999999985
 21
1.000000000000013
 31
0.0
  0
ARC
  5
247
330
210
100
AcDbEntity
  8
Sketch Geometry(Ram)
370
    18
100
AcDbCircle
 10
5.999999999999996
 20
8.000000000000008
 30
0.0
 40
0.5
100
AcDbArc
 50
0.0
 51
90.0
  0
ARC
  5
248
330
210
100
AcDbEntity
  8
Sketch Geometry(Ram)
370
    18
100
AcDbCircle
 10
5.999999999999996
 20
1.000000000000013
 30
0.0
 40
0.5
100
AcDbArc
 50
270.0
 51
0.0
  0
LINE
  5
249
330
210
100
AcDbEntity
  8
Sketch Geometry(Ram)
370
    18
100
AcDbLine
 10
5.999999999999996
 20
0.5000000000000071
 30
0.0
 11
4.499999999999992
 21
0.4999999999999895
 31
0.0
  0
ARC
  5
24A
330
210
100
AcDbEntity
  8
Sketch Geometry(Ram)
370
    18
100
AcDbCircle
 10
4.499999999999992
 20
1.000000000000013
 30
0.0
 40
0.5
100
AcDbArc
 50
180.0
 51
270.0
  0
LINE
  5
24B
330
210
100
AcDbEntity
  8
Sketch Geometry(Ram)
370
    18
100
AcDbLine
 10
4.499999999999992
 20
-0.4999999999999895
 30
0.0
 11
5.999999999999996
 21
-0.4999999999999895
 31
0.0
  0
ARC
  5
24C
330
210
100
AcDbEntity
  8
Sketch Geometry(Ram)
370
    18
100
AcDbCircle
 10
4.499999999999992
 20
-0.9999999999999785
 30
0.0
 40
0.5
100
AcDbArc
 50
90.0
 51
180.0
  0
LINE
  5
24D
330
210
100
AcDbEntity
  8
Sketch Geometry(Ram)
370
    18
100
AcDbLine
 10
4.000000000000002
 20
-7.999999999999988
 30
0.0
 11
3.999999999999993
 21
-0.9999999999999785
 31
0.0
  0
LINE
  5
24E
330
210
100
AcDbEntity
  8
Sketch Geometry(Ram)
370
    18
100
AcDbLine
 10
6.499999999999985
 20
-0.9999999999999964
 30
0.0
 11
6.499999999999985
 21
-7.999999999999988
 31
0.0
  0
ARC
  5
24F
330
210
100
AcDbEntity
  8
Sketch Geometry(Ram)
370
    18
100
AcDbCircle
 10
5.999999999999996
 20
-0.9999999999999964
 30
0.0
 40
0.5
100
AcDbArc
 50
0.0
 51
90.0
  0
ARC
  5
250
330
210
100
AcDbEntity
  8
Sketch Geometry(Ram)
370
    18
100
AcDbCircle
 10
5.999999999999996
 20
-7.999999999999988
 30
0.0
 40
0.5
100
AcDbArc
 50
270.0
 51
0.0
  0
LINE
  5
251
330
210
100
AcDbEntity
  8
Sketch Geometry(Ram)
370
    18
100
AcDbLine
 10
5.999999999999996
 20
-8.499999999999996
 30
0.0
 11
4.499999999999992
 21
-8.500000000000012
 31
0.0
  0
ARC
  5
252
330
210
100
AcDbEntity
  8
Sketch Geometry(Ram)
370
    18
100
AcDbCircle
 10
4.499999999999992
 20
-7.999999999999988
 30
0.0
 40
0.5
100
AcDbArc
 50
180.0
 51
270.0
  0
MTEXT
  5
253
330
210
100
AcDbEntity
  8
Symbols(Ram)
 62
     7
100
AcDbMText
 10
-2.622583667679929
 20
3.966036591120508
 30
0.0
 40
6.99999988079071
 41
0.0
 46
0.0
 71
     1
 72
     1
  1
\fArial|b1|i0;\H7.0000;8
  7
STD 2.5 ARIAL
 73
     1
 44
1.0
  0
MTEXT
  5
254
330
210
100
AcDbEntity
  8
Symbols(Ram)
 62
     7
100
AcDbMText
 10
-0.383652901660243
 20
-10.53909050618999
 30
0.0
 40
1.49859994649887
 41
12.69037379631852
 46
0.0
 71
     2
 72
     1
  1
\fArial|b0|i0;\H1.4986;SKIN PACK 290 x 100mm
  7
STD 2.5 ARIAL
 73
     2
 44
0.9442214369773862
  0
ENDBLK
  5
212
330
210
100
AcDbEntity
  8
0
100
AcDbBlockEnd
  0
BLOCK
  5
256
330
255
100
AcDbEntity
  8
0
100
AcDbBlockBegin
  2
16 UP
 70
     0
 10
0.0
 20
0.0
 30
0.0
  3
16 UP
  1

  0
LINE
  5
258
330
255
100
AcDbEntity
  8
Sketch Geometry(Ram)
370
    18
100
AcDbLine
 10
-4.499999999999957
 20
5.0
 30
0.0
 11
-5.999999999999943
 21
5.0
 31
0.0
  0
LINE
  5
259
330
255
100
AcDbEntity
  8
Sketch Geometry(Ram)
370
    18
100
AcDbLine
 10
-6.49999999999995
 20
5.500000000000007
 30
0.0
 11
-6.49999999999995
 21
7.999999999999988
 31
0.0
  0
LINE
  5
25A
330
255
100
AcDbEntity
  8
Sketch Geometry(Ram)
370
    18
100
AcDbLine
 10
-5.999999999999943
 20
8.499999999999996
 30
0.0
 11
-4.499999999999957
 21
8.499999999999976
 31
0.0
  0
LINE
  5
25B
330
255
100
AcDbEntity
  8
Sketch Geometry(Ram)
370
    18
100
AcDbLine
 10
-3.999999999999949
 20
7.999999999999988
 30
0.0
 11
-3.999999999999949
 21
5.500000000000007
 31
0.0
  0
ARC
  5
25C
330
255
100
AcDbEntity
  8
Sketch Geometry(Ram)
370
    18
100
AcDbCircle
 10
-5.999999999999943
 20
7.999999999999988
 30
0.0
 40
0.5
100
AcDbArc
 50
90.0
 51
180.0
  0
ARC
  5
25D
330
255
100
AcDbEntity
  8
Sketch Geometry(Ram)
370
    18
100
AcDbCircle
 10
-4.499999999999957
 20
7.999999999999988
 30
0.0
 40
0.5
100
AcDbArc
 50
0.0
 51
90.0
  0
ARC
  5
25E
330
255
100
AcDbEntity
  8
Sketch Geometry(Ram)
370
    18
100
AcDbCircle
 10
-4.499999999999957
 20
5.500000000000007
 30
0.0
 40
0.5
100
AcDbArc
 50
270.0
 51
0.0
  0
ARC
  5
25F
330
255
100
AcDbEntity
  8
Sketch Geometry(Ram)
370
    18
100
AcDbCircle
 10
-5.999999999999943
 20
5.500000000000007
 30
0.0
 40
0.5
100
AcDbArc
 50
180.0
 51
270.0
  0
LINE
  5
260
330
255
100
AcDbEntity
  8
Sketch Geometry(Ram)
370
    18
100
AcDbLine
 10
-2.499999999999964
 20
8.499999999999996
 30
0.0
 11
-0.9999999999999785
 21
8.499999999999976
 31
0.0
  0
ARC
  5
261
330
255
100
AcDbEntity
  8
Sketch Geometry(Ram)
370
    18
100
AcDbCircle
 10
-2.499999999999964
 20
7.999999999999988
 30
0.0
 40
0.5
100
AcDbArc
 50
90.0
 51
180.0
  0
LINE
  5
262
330
255
100
AcDbEntity
  8
Sketch Geometry(Ram)
370
    18
100
AcDbLine
 10
-2.999999999999971
 20
5.500000000000007
 30
0.0
 11
-2.999999999999971
 21
7.999999999999988
 31
0.0
  0
LINE
  5
263
330
255
100
AcDbEntity
  8
Sketch Geometry(Ram)
370
    18
100
AcDbLine
 10
-0.4999999999999716
 20
7.999999999999988
 30
0.0
 11
-0.4999999999999716
 21
5.500000000000007
 31
0.0
  0
ARC
  5
264
330
255
100
AcDbEntity
  8
Sketch Geometry(Ram)
370
    18
100
AcDbCircle
 10
-0.9999999999999785
 20
7.999999999999988
 30
0.0
 40
0.5
100
AcDbArc
 50
0.0
 51
90.0
  0
ARC
  5
265
330
255
100
AcDbEntity
  8
Sketch Geometry(Ram)
370
    18
100
AcDbCircle
 10
-0.9999999999999785
 20
5.500000000000007
 30
0.0
 40
0.5
100
AcDbArc
 50
270.0
 51
0.0
  0
LINE
  5
266
330
255
100
AcDbEntity
  8
Sketch Geometry(Ram)
370
    18
100
AcDbLine
 10
-0.9999999999999785
 20
5.0
 30
0.0
 11
-2.499999999999964
 21
5.0
 31
0.0
  0
ARC
  5
267
330
255
100
AcDbEntity
  8
Sketch Geometry(Ram)
370
    18
100
AcDbCircle
 10
-2.499999999999964
 20
5.500000000000007
 30
0.0
 40
0.5
100
AcDbArc
 50
180.0
 51
270.0
  0
LINE
  5
268
330
255
100
AcDbEntity
  8
Sketch Geometry(Ram)
370
    18
100
AcDbLine
 10
-5.999999999999943
 20
4.000000000000002
 30
0.0
 11
-4.499999999999957
 21
3.999999999999984
 31
0.0
  0
ARC
  5
269
330
255
100
AcDbEntity
  8
Sketch Geometry(Ram)
370
    18
100
AcDbCircle
 10
-5.999999999999943
 20
3.499999999999996
 30
0.0
 40
0.5
100
AcDbArc
 50
90.0
 51
180.0
  0
LINE
  5
26A
330
255
100
AcDbEntity
  8
Sketch Geometry(Ram)
370
    18
100
AcDbLine
 10
-6.49999999999995
 20
1.000000000000013
 30
0.0
 11
-6.49999999999995
 21
3.499999999999996
 31
0.0
  0
LINE
  5
26B
330
255
100
AcDbEntity
  8
Sketch Geometry(Ram)
370
    18
100
AcDbLine
 10
-3.999999999999949
 20
3.499999999999996
 30
0.0
 11
-3.999999999999949
 21
1.000000000000013
 31
0.0
  0
ARC
  5
26C
330
255
100
AcDbEntity
  8
Sketch Geometry(Ram)
370
    18
100
AcDbCircle
 10
-4.499999999999957
 20
3.499999999999996
 30
0.0
 40
0.5
100
AcDbArc
 50
0.0
 51
90.0
  0
ARC
  5
26D
330
255
100
AcDbEntity
  8
Sketch Geometry(Ram)
370
    18
100
AcDbCircle
 10
-4.499999999999957
 20
1.000000000000013
 30
0.0
 40
0.5
100
AcDbArc
 50
270.0
 51
0.0
  0
LINE
  5
26E
330
255
100
AcDbEntity
  8
Sketch Geometry(Ram)
370
    18
100
AcDbLine
 10
-4.499999999999957
 20
0.5000000000000071
 30
0.0
 11
-5.999999999999943
 21
0.5000000000000071
 31
0.0
  0
ARC
  5
26F
330
255
100
AcDbEntity
  8
Sketch Geometry(Ram)
370
    18
100
AcDbCircle
 10
-5.999999999999943
 20
1.000000000000013
 30
0.0
 40
0.5
100
AcDbArc
 50
180.0
 51
270.0
  0
LINE
  5
270
330
255
100
AcDbEntity
  8
Sketch Geometry(Ram)
370
    18
100
AcDbLine
 10
-2.499999999999964
 20
4.000000000000002
 30
0.0
 11
-0.9999999999999785
 21
3.999999999999984
 31
0.0
  0
ARC
  5
271
330
255
100
AcDbEntity
  8
Sketch Geometry(Ram)
370
    18
100
AcDbCircle
 10
-2.499999999999964
 20
3.499999999999996
 30
0.0
 40
0.5
100
AcDbArc
 50
90.0
 51
180.0
  0
LINE
  5
272
330
255
100
AcDbEntity
  8
Sketch Geometry(Ram)
370
    18
100
AcDbLine
 10
-2.999999999999971
 20
1.000000000000013
 30
0.0
 11
-2.999999999999971
 21
3.499999999999996
 31
0.0
  0
LINE
  5
273
330
255
100
AcDbEntity
  8
Sketch Geometry(Ram)
370
    18
100
AcDbLine
 10
-0.4999999999999716
 20
3.499999999999996
 30
0.0
 11
-0.4999999999999716
 21
1.000000000000013
 31
0.0
  0
ARC
  5
274
330
255
100
AcDbEntity
  8
Sketch Geometry(Ram)
370
    18
100
AcDbCircle
 10
-0.9999999999999785
 20
3.499999999999996
 30
0.0
 40
0.5
100
AcDbArc
 50
0.0
 51
90.0
  0
ARC
  5
275
330
255
100
AcDbEntity
  8
Sketch Geometry(Ram)
370
    18
100
AcDbCircle
 10
-0.9999999999999785
 20
1.000000000000013
 30
0.0
 40
0.5
100
AcDbArc
 50
270.0
 51
0.0
  0
LINE
  5
276
330
255
100
AcDbEntity
  8
Sketch Geometry(Ram)
370
    18
100
AcDbLine
 10
-0.9999999999999785
 20
0.5000000000000071
 30
0.0
 11
-2.499999999999964
 21
0.5000000000000071
 31
0.0
  0
ARC
  5
277
330
255
100
AcDbEntity
  8
Sketch Geometry(Ram)
370
    18
100
AcDbCircle
 10
-2.499999999999964
 20
1.000000000000013
 30
0.0
 40
0.5
100
AcDbArc
 50
180.0
 51
270.0
  0
LINE
  5
278
330
255
100
AcDbEntity
  8
Sketch Geometry(Ram)
370
    18
100
AcDbLine
 10
1.000000000000013
 20
8.499999999999996
 30
0.0
 11
2.5
 21
8.499999999999976
 31
0.0
  0
ARC
  5
279
330
255
100
AcDbEntity
  8
Sketch Geometry(Ram)
370
    18
100
AcDbCircle
 10
1.000000000000013
 20
7.999999999999988
 30
0.0
 40
0.5
100
AcDbArc
 50
90.0
 51
180.0
  0
LINE
  5
27A
330
255
100
AcDbEntity
  8
Sketch Geometry(Ram)
370
    18
100
AcDbLine
 10
0.5000000000000071
 20
5.500000000000007
 30
0.0
 11
0.5000000000000071
 21
7.999999999999988
 31
0.0
  0
LINE
  5
27B
330
255
100
AcDbEntity
  8
Sketch Geometry(Ram)
370
    18
100
AcDbLine
 10
3.000000000000006
 20
7.999999999999988
 30
0.0
 11
3.000000000000006
 21
5.500000000000007
 31
0.0
  0
ARC
  5
27C
330
255
100
AcDbEntity
  8
Sketch Geometry(Ram)
370
    18
100
AcDbCircle
 10
2.5
 20
7.999999999999988
 30
0.0
 40
0.5
100
AcDbArc
 50
0.0
 51
90.0
  0
ARC
  5
27D
330
255
100
AcDbEntity
  8
Sketch Geometry(Ram)
370
    18
100
AcDbCircle
 10
2.5
 20
5.500000000000007
 30
0.0
 40
0.5
100
AcDbArc
 50
270.0
 51
0.0
  0
LINE
  5
27E
330
255
100
AcDbEntity
  8
Sketch Geometry(Ram)
370
    18
100
AcDbLine
 10
2.5
 20
5.0
 30
0.0
 11
1.000000000000013
 21
5.0
 31
0.0
  0
ARC
  5
27F
330
255
100
AcDbEntity
  8
Sketch Geometry(Ram)
370
    18
100
AcDbCircle
 10
1.000000000000013
 20
5.500000000000007
 30
0.0
 40
0.5
100
AcDbArc
 50
180.0
 51
270.0
  0
LINE
  5
280
330
255
100
AcDbEntity
  8
Sketch Geometry(Ram)
370
    18
100
AcDbLine
 10
1.000000000000013
 20
4.000000000000002
 30
0.0
 11
2.5
 21
3.999999999999984
 31
0.0
  0
ARC
  5
281
330
255
100
AcDbEntity
  8
Sketch Geometry(Ram)
370
    18
100
AcDbCircle
 10
1.000000000000013
 20
3.499999999999996
 30
0.0
 40
0.5
100
AcDbArc
 50
90.0
 51
180.0
  0
LINE
  5
282
330
255
100
AcDbEntity
  8
Sketch Geometry(Ram)
370
    18
100
AcDbLine
 10
0.5000000000000071
 20
1.000000000000013
 30
0.0
 11
0.5000000000000071
 21
3.499999999999996
 31
0.0
  0
LINE
  5
283
330
255
100
AcDbEntity
  8
Sketch Geometry(Ram)
370
    18
100
AcDbLine
 10
3.000000000000006
 20
3.499999999999996
 30
0.0
 11
3.000000000000006
 21
1.000000000000013
 31
0.0
  0
ARC
  5
284
330
255
100
AcDbEntity
  8
Sketch Geometry(Ram)
370
    18
100
AcDbCircle
 10
2.5
 20
3.499999999999996
 30
0.0
 40
0.5
100
AcDbArc
 50
0.0
 51
90.0
  0
ARC
  5
285
330
255
100
AcDbEntity
  8
Sketch Geometry(Ram)
370
    18
100
AcDbCircle
 10
2.5
 20
1.000000000000013
 30
0.0
 40
0.5
100
AcDbArc
 50
270.0
 51
0.0
  0
LINE
  5
286
330
255
100
AcDbEntity
  8
Sketch Geometry(Ram)
370
    18
100
AcDbLine
 10
2.5
 20
0.5000000000000071
 30
0.0
 11
1.000000000000013
 21
0.5000000000000071
 31
0.0
  0
ARC
  5
287
330
255
100
AcDbEntity
  8
Sketch Geometry(Ram)
370
    18
100
AcDbCircle
 10
1.000000000000013
 20
1.000000000000013
 30
0.0
 40
0.5
100
AcDbArc
 50
180.0
 51
270.0
  0
LINE
  5
288
330
255
100
AcDbEntity
  8
Sketch Geometry(Ram)
370
    18
100
AcDbLine
 10
4.499999999999992
 20
8.499999999999996
 30
0.0
 11
5.999999999999976
 21
8.499999999999976
 31
0.0
  0
ARC
  5
289
330
255
100
AcDbEntity
  8
Sketch Geometry(Ram)
370
    18
100
AcDbCircle
 10
4.499999999999992
 20
7.999999999999988
 30
0.0
 40
0.5
100
AcDbArc
 50
90.0
 51
180.0
  0
LINE
  5
28A
330
255
100
AcDbEntity
  8
Sketch Geometry(Ram)
370
    18
100
AcDbLine
 10
3.999999999999984
 20
5.500000000000007
 30
0.0
 11
3.999999999999984
 21
7.999999999999988
 31
0.0
  0
LINE
  5
28B
330
255
100
AcDbEntity
  8
Sketch Geometry(Ram)
370
    18
100
AcDbLine
 10
6.499999999999985
 20
7.999999999999988
 30
0.0
 11
6.499999999999985
 21
5.500000000000007
 31
0.0
  0
ARC
  5
28C
330
255
100
AcDbEntity
  8
Sketch Geometry(Ram)
370
    18
100
AcDbCircle
 10
5.999999999999976
 20
7.999999999999988
 30
0.0
 40
0.5
100
AcDbArc
 50
0.0
 51
90.0
  0
ARC
  5
28D
330
255
100
AcDbEntity
  8
Sketch Geometry(Ram)
370
    18
100
AcDbCircle
 10
5.999999999999976
 20
5.500000000000007
 30
0.0
 40
0.5
100
AcDbArc
 50
270.0
 51
0.0
  0
LINE
  5
28E
330
255
100
AcDbEntity
  8
Sketch Geometry(Ram)
370
    18
100
AcDbLine
 10
5.999999999999976
 20
5.0
 30
0.0
 11
4.499999999999992
 21
5.0
 31
0.0
  0
ARC
  5
28F
330
255
100
AcDbEntity
  8
Sketch Geometry(Ram)
370
    18
100
AcDbCircle
 10
4.499999999999992
 20
5.500000000000007
 30
0.0
 40
0.5
100
AcDbArc
 50
180.0
 51
270.0
  0
LINE
  5
290
330
255
100
AcDbEntity
  8
Sketch Geometry(Ram)
370
    18
100
AcDbLine
 10
4.499999999999992
 20
4.000000000000002
 30
0.0
 11
5.999999999999976
 21
3.999999999999984
 31
0.0
  0
ARC
  5
291
330
255
100
AcDbEntity
  8
Sketch Geometry(Ram)
370
    18
100
AcDbCircle
 10
4.499999999999992
 20
3.499999999999996
 30
0.0
 40
0.5
100
AcDbArc
 50
90.0
 51
180.0
  0
LINE
  5
292
330
255
100
AcDbEntity
  8
Sketch Geometry(Ram)
370
    18
100
AcDbLine
 10
3.999999999999984
 20
1.000000000000013
 30
0.0
 11
3.999999999999984
 21
3.499999999999996
 31
0.0
  0
LINE
  5
293
330
255
100
AcDbEntity
  8
Sketch Geometry(Ram)
370
    18
100
AcDbLine
 10
6.499999999999985
 20
3.499999999999996
 30
0.0
 11
6.499999999999985
 21
1.000000000000013
 31
0.0
  0
ARC
  5
294
330
255
100
AcDbEntity
  8
Sketch Geometry(Ram)
370
    18
100
AcDbCircle
 10
5.999999999999976
 20
3.499999999999996
 30
0.0
 40
0.5
100
AcDbArc
 50
0.0
 51
90.0
  0
ARC
  5
295
330
255
100
AcDbEntity
  8
Sketch Geometry(Ram)
370
    18
100
AcDbCircle
 10
5.999999999999976
 20
1.000000000000013
 30
0.0
 40
0.5
100
AcDbArc
 50
270.0
 51
0.0
  0
LINE
  5
296
330
255
100
AcDbEntity
  8
Sketch Geometry(Ram)
370
    18
100
AcDbLine
 10
5.999999999999976
 20
0.5000000000000071
 30
0.0
 11
4.499999999999992
 21
0.5000000000000071
 31
0.0
  0
ARC
  5
297
330
255
100
AcDbEntity
  8
Sketch Geometry(Ram)
370
    18
100
AcDbCircle
 10
4.499999999999992
 20
1.000000000000013
 30
0.0
 40
0.5
100
AcDbArc
 50
180.0
 51
270.0
  0
LINE
  5
298
330
255
100
AcDbEntity
  8
Sketch Geometry(Ram)
370
    18
100
AcDbLine
 10
-5.999999999999943
 20
-0.4999999999999895
 30
0.0
 11
-4.499999999999957
 21
-0.5000000000000071
 31
0.0
  0
ARC
  5
299
330
255
100
AcDbEntity
  8
Sketch Geometry(Ram)
370
    18
100
AcDbCircle
 10
-5.999999999999943
 20
-0.9999999999999964
 30
0.0
 40
0.5
100
AcDbArc
 50
90.0
 51
180.0
  0
LINE
  5
29A
330
255
100
AcDbEntity
  8
Sketch Geometry(Ram)
370
    18
100
AcDbLine
 10
-6.49999999999995
 20
-3.499999999999977
 30
0.0
 11
-6.49999999999995
 21
-0.9999999999999964
 31
0.0
  0
LINE
  5
29B
330
255
100
AcDbEntity
  8
Sketch Geometry(Ram)
370
    18
100
AcDbLine
 10
-3.999999999999949
 20
-0.9999999999999964
 30
0.0
 11
-3.999999999999949
 21
-3.499999999999977
 31
0.0
  0
ARC
  5
29C
330
255
100
AcDbEntity
  8
Sketch Geometry(Ram)
370
    18
100
AcDbCircle
 10
-4.499999999999957
 20
-0.9999999999999964
 30
0.0
 40
0.5
100
AcDbArc
 50
0.0
 51
90.0
  0
ARC
  5
29D
330
255
100
AcDbEntity
  8
Sketch Geometry(Ram)
370
    18
100
AcDbCircle
 10
-4.499999999999957
 20
-3.499999999999977
 30
0.0
 40
0.5
100
AcDbArc
 50
270.0
 51
0.0
  0
LINE
  5
29E
330
255
100
AcDbEntity
  8
Sketch Geometry(Ram)
370
    18
100
AcDbLine
 10
-4.499999999999957
 20
-3.999999999999984
 30
0.0
 11
-5.999999999999943
 21
-3.999999999999984
 31
0.0
  0
ARC
  5
29F
330
255
100
AcDbEntity
  8
Sketch Geometry(Ram)
370
    18
100
AcDbCircle
 10
-5.999999999999943
 20
-3.499999999999977
 30
0.0
 40
0.5
100
AcDbArc
 50
180.0
 51
270.0
  0
LINE
  5
2A0
330
255
100
AcDbEntity
  8
Sketch Geometry(Ram)
370
    18
100
AcDbLine
 10
-2.499999999999964
 20
-0.4999999999999895
 30
0.0
 11
-0.9999999999999785
 21
-0.5000000000000071
 31
0.0
  0
ARC
  5
2A1
330
255
100
AcDbEntity
  8
Sketch Geometry(Ram)
370
    18
100
AcDbCircle
 10
-2.499999999999964
 20
-0.9999999999999964
 30
0.0
 40
0.5
100
AcDbArc
 50
90.0
 51
180.0
  0
LINE
  5
2A2
330
255
100
AcDbEntity
  8
Sketch Geometry(Ram)
370
    18
100
AcDbLine
 10
-2.999999999999971
 20
-3.499999999999977
 30
0.0
 11
-2.999999999999971
 21
-0.9999999999999964
 31
0.0
  0
LINE
  5
2A3
330
255
100
AcDbEntity
  8
Sketch Geometry(Ram)
370
    18
100
AcDbLine
 10
-0.4999999999999716
 20
-0.9999999999999964
 30
0.0
 11
-0.4999999999999716
 21
-3.499999999999977
 31
0.0
  0
ARC
  5
2A4
330
255
100
AcDbEntity
  8
Sketch Geometry(Ram)
370
    18
100
AcDbCircle
 10
-0.9999999999999785
 20
-0.9999999999999964
 30
0.0
 40
0.5
100
AcDbArc
 50
0.0
 51
90.0
  0
ARC
  5
2A5
330
255
100
AcDbEntity
  8
Sketch Geometry(Ram)
370
    18
100
AcDbCircle
 10
-0.9999999999999785
 20
-3.499999999999977
 30
0.0
 40
0.5
100
AcDbArc
 50
270.0
 51
0.0
  0
LINE
  5
2A6
330
255
100
AcDbEntity
  8
Sketch Geometry(Ram)
370
    18
100
AcDbLine
 10
-0.9999999999999785
 20
-3.999999999999984
 30
0.0
 11
-2.499999999999964
 21
-3.999999999999984
 31
0.0
  0
ARC
  5
2A7
330
255
100
AcDbEntity
  8
Sketch Geometry(Ram)
370
    18
100
AcDbCircle
 10
-2.499999999999964
 20
-3.499999999999977
 30
0.0
 40
0.5
100
AcDbArc
 50
180.0
 51
270.0
  0
LINE
  5
2A8
330
255
100
AcDbEntity
  8
Sketch Geometry(Ram)
370
    18
100
AcDbLine
 10
1.000000000000013
 20
-0.4999999999999895
 30
0.0
 11
2.5
 21
-0.5000000000000071
 31
0.0
  0
ARC
  5
2A9
330
255
100
AcDbEntity
  8
Sketch Geometry(Ram)
370
    18
100
AcDbCircle
 10
1.000000000000013
 20
-0.9999999999999964
 30
0.0
 40
0.5
100
AcDbArc
 50
90.0
 51
180.0
  0
LINE
  5
2AA
330
255
100
AcDbEntity
  8
Sketch Geometry(Ram)
370
    18
100
AcDbLine
 10
0.5000000000000071
 20
-3.499999999999977
 30
0.0
 11
0.5000000000000071
 21
-0.9999999999999964
 31
0.0
  0
LINE
  5
2AB
330
255
100
AcDbEntity
  8
Sketch Geometry(Ram)
370
    18
100
AcDbLine
 10
3.000000000000006
 20
-0.9999999999999964
 30
0.0
 11
3.000000000000006
 21
-3.499999999999977
 31
0.0
  0
ARC
  5
2AC
330
255
100
AcDbEntity
  8
Sketch Geometry(Ram)
370
    18
100
AcDbCircle
 10
2.5
 20
-0.9999999999999964
 30
0.0
 40
0.5
100
AcDbArc
 50
0.0
 51
90.0
  0
ARC
  5
2AD
330
255
100
AcDbEntity
  8
Sketch Geometry(Ram)
370
    18
100
AcDbCircle
 10
2.5
 20
-3.499999999999977
 30
0.0
 40
0.5
100
AcDbArc
 50
270.0
 51
0.0
  0
LINE
  5
2AE
330
255
100
AcDbEntity
  8
Sketch Geometry(Ram)
370
    18
100
AcDbLine
 10
2.5
 20
-3.999999999999984
 30
0.0
 11
1.000000000000013
 21
-3.999999999999984
 31
0.0
  0
ARC
  5
2AF
330
255
100
AcDbEntity
  8
Sketch Geometry(Ram)
370
    18
100
AcDbCircle
 10
1.000000000000013
 20
-3.499999999999977
 30
0.0
 40
0.5
100
AcDbArc
 50
180.0
 51
270.0
  0
LINE
  5
2B0
330
255
100
AcDbEntity
  8
Sketch Geometry(Ram)
370
    18
100
AcDbLine
 10
4.499999999999992
 20
-0.4999999999999895
 30
0.0
 11
5.999999999999976
 21
-0.5000000000000071
 31
0.0
  0
ARC
  5
2B1
330
255
100
AcDbEntity
  8
Sketch Geometry(Ram)
370
    18
100
AcDbCircle
 10
4.499999999999992
 20
-0.9999999999999964
 30
0.0
 40
0.5
100
AcDbArc
 50
90.0
 51
180.0
  0
LINE
  5
2B2
330
255
100
AcDbEntity
  8
Sketch Geometry(Ram)
370
    18
100
AcDbLine
 10
3.999999999999984
 20
-3.499999999999977
 30
0.0
 11
3.999999999999984
 21
-0.9999999999999964
 31
0.0
  0
LINE
  5
2B3
330
255
100
AcDbEntity
  8
Sketch Geometry(Ram)
370
    18
100
AcDbLine
 10
6.499999999999985
 20
-0.9999999999999964
 30
0.0
 11
6.499999999999985
 21
-3.499999999999977
 31
0.0
  0
ARC
  5
2B4
330
255
100
AcDbEntity
  8
Sketch Geometry(Ram)
370
    18
100
AcDbCircle
 10
5.999999999999976
 20
-0.9999999999999964
 30
0.0
 40
0.5
100
AcDbArc
 50
0.0
 51
90.0
  0
ARC
  5
2B5
330
255
100
AcDbEntity
  8
Sketch Geometry(Ram)
370
    18
100
AcDbCircle
 10
5.999999999999976
 20
-3.499999999999977
 30
0.0
 40
0.5
100
AcDbArc
 50
270.0
 51
0.0
  0
LINE
  5
2B6
330
255
100
AcDbEntity
  8
Sketch Geometry(Ram)
370
    18
100
AcDbLine
 10
5.999999999999976
 20
-3.999999999999984
 30
0.0
 11
4.499999999999992
 21
-3.999999999999984
 31
0.0
  0
ARC
  5
2B7
330
255
100
AcDbEntity
  8
Sketch Geometry(Ram)
370
    18
100
AcDbCircle
 10
4.499999999999992
 20
-3.499999999999977
 30
0.0
 40
0.5
100
AcDbArc
 50
180.0
 51
270.0
  0
LINE
  5
2B8
330
255
100
AcDbEntity
  8
Sketch Geometry(Ram)
370
    18
100
AcDbLine
 10
-5.999999999999943
 20
-4.999999999999981
 30
0.0
 11
-4.499999999999957
 21
-5.0
 31
0.0
  0
ARC
  5
2B9
330
255
100
AcDbEntity
  8
Sketch Geometry(Ram)
370
    18
100
AcDbCircle
 10
-5.999999999999943
 20
-5.499999999999988
 30
0.0
 40
0.5
100
AcDbArc
 50
90.0
 51
180.0
  0
LINE
  5
2BA
330
255
100
AcDbEntity
  8
Sketch Geometry(Ram)
370
    18
100
AcDbLine
 10
-6.49999999999995
 20
-7.999999999999971
 30
0.0
 11
-6.49999999999995
 21
-5.499999999999988
 31
0.0
  0
LINE
  5
2BB
330
255
100
AcDbEntity
  8
Sketch Geometry(Ram)
370
    18
100
AcDbLine
 10
-3.999999999999949
 20
-5.499999999999988
 30
0.0
 11
-3.999999999999949
 21
-7.999999999999971
 31
0.0
  0
ARC
  5
2BC
330
255
100
AcDbEntity
  8
Sketch Geometry(Ram)
370
    18
100
AcDbCircle
 10
-4.499999999999957
 20
-5.499999999999988
 30
0.0
 40
0.5
100
AcDbArc
 50
0.0
 51
90.0
  0
ARC
  5
2BD
330
255
100
AcDbEntity
  8
Sketch Geometry(Ram)
370
    18
100
AcDbCircle
 10
-4.499999999999957
 20
-7.999999999999971
 30
0.0
 40
0.5
100
AcDbArc
 50
270.0
 51
0.0
  0
LINE
  5
2BE
330
255
100
AcDbEntity
  8
Sketch Geometry(Ram)
370
    18
100
AcDbLine
 10
-4.499999999999957
 20
-8.499999999999976
 30
0.0
 11
-5.999999999999943
 21
-8.499999999999976
 31
0.0
  0
ARC
  5
2BF
330
255
100
AcDbEntity
  8
Sketch Geometry(Ram)
370
    18
100
AcDbCircle
 10
-5.999999999999943
 20
-7.999999999999971
 30
0.0
 40
0.5
100
AcDbArc
 50
180.0
 51
270.0
  0
LINE
  5
2C0
330
255
100
AcDbEntity
  8
Sketch Geometry(Ram)
370
    18
100
AcDbLine
 10
-2.499999999999964
 20
-4.999999999999981
 30
0.0
 11
-0.9999999999999785
 21
-5.0
 31
0.0
  0
ARC
  5
2C1
330
255
100
AcDbEntity
  8
Sketch Geometry(Ram)
370
    18
100
AcDbCircle
 10
-2.499999999999964
 20
-5.499999999999988
 30
0.0
 40
0.5
100
AcDbArc
 50
90.0
 51
180.0
  0
LINE
  5
2C2
330
255
100
AcDbEntity
  8
Sketch Geometry(Ram)
370
    18
100
AcDbLine
 10
-2.999999999999971
 20
-7.999999999999971
 30
0.0
 11
-2.999999999999971
 21
-5.499999999999988
 31
0.0
  0
LINE
  5
2C3
330
255
100
AcDbEntity
  8
Sketch Geometry(Ram)
370
    18
100
AcDbLine
 10
-0.4999999999999716
 20
-5.499999999999988
 30
0.0
 11
-0.4999999999999716
 21
-7.999999999999971
 31
0.0
  0
ARC
  5
2C4
330
255
100
AcDbEntity
  8
Sketch Geometry(Ram)
370
    18
100
AcDbCircle
 10
-0.9999999999999785
 20
-5.499999999999988
 30
0.0
 40
0.5
100
AcDbArc
 50
0.0
 51
90.0
  0
ARC
  5
2C5
330
255
100
AcDbEntity
  8
Sketch Geometry(Ram)
370
    18
100
AcDbCircle
 10
-0.9999999999999785
 20
-7.999999999999971
 30
0.0
 40
0.5
100
AcDbArc
 50
270.0
 51
0.0
  0
LINE
  5
2C6
330
255
100
AcDbEntity
  8
Sketch Geometry(Ram)
370
    18
100
AcDbLine
 10
-0.9999999999999785
 20
-8.499999999999976
 30
0.0
 11
-2.499999999999964
 21
-8.499999999999976
 31
0.0
  0
ARC
  5
2C7
330
255
100
AcDbEntity
  8
Sketch Geometry(Ram)
370
    18
100
AcDbCircle
 10
-2.499999999999964
 20
-7.999999999999971
 30
0.0
 40
0.5
100
AcDbArc
 50
180.0
 51
270.0
  0
LINE
  5
2C8
330
255
100
AcDbEntity
  8
Sketch Geometry(Ram)
370
    18
100
AcDbLine
 10
1.000000000000013
 20
-4.999999999999981
 30
0.0
 11
2.5
 21
-5.0
 31
0.0
  0
ARC
  5
2C9
330
255
100
AcDbEntity
  8
Sketch Geometry(Ram)
370
    18
100
AcDbCircle
 10
1.000000000000013
 20
-5.499999999999988
 30
0.0
 40
0.5
100
AcDbArc
 50
90.0
 51
180.0
  0
LINE
  5
2CA
330
255
100
AcDbEntity
  8
Sketch Geometry(Ram)
370
    18
100
AcDbLine
 10
0.5000000000000071
 20
-7.999999999999971
 30
0.0
 11
0.5000000000000071
 21
-5.499999999999988
 31
0.0
  0
LINE
  5
2CB
330
255
100
AcDbEntity
  8
Sketch Geometry(Ram)
370
    18
100
AcDbLine
 10
3.000000000000006
 20
-5.499999999999988
 30
0.0
 11
3.000000000000006
 21
-7.999999999999971
 31
0.0
  0
ARC
  5
2CC
330
255
100
AcDbEntity
  8
Sketch Geometry(Ram)
370
    18
100
AcDbCircle
 10
2.5
 20
-5.499999999999988
 30
0.0
 40
0.5
100
AcDbArc
 50
0.0
 51
90.0
  0
ARC
  5
2CD
330
255
100
AcDbEntity
  8
Sketch Geometry(Ram)
370
    18
100
AcDbCircle
 10
2.5
 20
-7.999999999999971
 30
0.0
 40
0.5
100
AcDbArc
 50
270.0
 51
0.0
  0
LINE
  5
2CE
330
255
100
AcDbEntity
  8
Sketch Geometry(Ram)
370
    18
100
AcDbLine
 10
2.5
 20
-8.499999999999976
 30
0.0
 11
1.000000000000013
 21
-8.499999999999976
 31
0.0
  0
ARC
  5
2CF
330
255
100
AcDbEntity
  8
Sketch Geometry(Ram)
370
    18
100
AcDbCircle
 10
1.000000000000013
 20
-7.999999999999971
 30
0.0
 40
0.5
100
AcDbArc
 50
180.0
 51
270.0
  0
LINE
  5
2D0
330
255
100
AcDbEntity
  8
Sketch Geometry(Ram)
370
    18
100
AcDbLine
 10
4.499999999999992
 20
-4.999999999999981
 30
0.0
 11
5.999999999999976
 21
-5.0
 31
0.0
  0
ARC
  5
2D1
330
255
100
AcDbEntity
  8
Sketch Geometry(Ram)
370
    18
100
AcDbCircle
 10
4.499999999999992
 20
-5.499999999999988
 30
0.0
 40
0.5
100
AcDbArc
 50
90.0
 51
180.0
  0
LINE
  5
2D2
330
255
100
AcDbEntity
  8
Sketch Geometry(Ram)
370
    18
100
AcDbLine
 10
3.999999999999984
 20
-7.999999999999971
 30
0.0
 11
3.999999999999984
 21
-5.499999999999988
 31
0.0
  0
LINE
  5
2D3
330
255
100
AcDbEntity
  8
Sketch Geometry(Ram)
370
    18
100
AcDbLine
 10
6.499999999999985
 20
-5.499999999999988
 30
0.0
 11
6.499999999999985
 21
-7.999999999999971
 31
0.0
  0
ARC
  5
2D4
330
255
100
AcDbEntity
  8
Sketch Geometry(Ram)
370
    18
100
AcDbCircle
 10
5.999999999999976
 20
-5.499999999999988
 30
0.0
 40
0.5
100
AcDbArc
 50
0.0
 51
90.0
  0
ARC
  5
2D5
330
255
100
AcDbEntity
  8
Sketch Geometry(Ram)
370
    18
100
AcDbCircle
 10
5.999999999999976
 20
-7.999999999999971
 30
0.0
 40
0.5
100
AcDbArc
 50
270.0
 51
0.0
  0
LINE
  5
2D6
330
255
100
AcDbEntity
  8
Sketch Geometry(Ram)
370
    18
100
AcDbLine
 10
5.999999999999976
 20
-8.499999999999976
 30
0.0
 11
4.499999999999992
 21
-8.499999999999976
 31
0.0
  0
ARC
  5
2D7
330
255
100
AcDbEntity
  8
Sketch Geometry(Ram)
370
    18
100
AcDbCircle
 10
4.499999999999992
 20
-7.999999999999971
 30
0.0
 40
0.5
100
AcDbArc
 50
180.0
 51
270.0
  0
MTEXT
  5
2D8
330
255
100
AcDbEntity
  8
Symbols(Ram)
 62
     7
100
AcDbMText
 10
-5.999999999999943
 20
5.0
 30
0.0
 40
6.99999988079071
 41
0.0
 46
0.0
 71
     1
 72
     1
  1
\fArial|b1|i0;\H7.0000;16
  7
STD 2.5 ARIAL
 73
     1
 44
1.0
  0
MTEXT
  5
2D9
330
255
100
AcDbEntity
  8
Symbols(Ram)
 62
     7
100
AcDbMText
 10
-0.0510837138014608
 20
-10.57935449735255
 30
0.0
 40
1.49859994649887
 41
13.03165197372436
 46
0.0
 71
     2
 72
     1
  1
\fArial|b0|i0;\H1.4986;SKIN PACK 140 X 100mm
  7
STD 2.5 ARIAL
 73
     2
 44
0.9442214369773862
  0
ENDBLK
  5
257
330
255
100
AcDbEntity
  8
0
100
AcDbBlockEnd
  0
BLOCK
  5
2DB
330
2DA
100
AcDbEntity
  8
0
100
AcDbBlockBegin
  2
THREAD RETAINER
 70
     0
 10
0.0
 20
0.0
 30
0.0
  3
THREAD RETAINER
  1

  0
ARC
  5
2DD
330
2DA
100
AcDbEntity
  8
Sketch Geometry(Ram)
370
    18
100
AcDbCircle
 10
-0.6774969242626128
 20
-0.6613829731234056
 30
0.0
 40
1.0
100
AcDbArc
 50
225.0000000000015
 51
255.0000000000018
  0
LINE
  5
2DE
330
2DA
100
AcDbEntity
  8
Sketch Geometry(Ram)
370
    18
100
AcDbLine
 10
-1.42215834333104
 20
-1.330935116427927
 30
0.0
 11
-1.598935038627668
 21
-1.507711811724553
 31
0.0
  0
ARC
  5
2DF
330
2DA
100
AcDbEntity
  8
Sketch Geometry(Ram)
370
    18
100
AcDbCircle
 10
-1.634290377686991
 20
-1.472356472665231
 30
0.0
 40
0.05
100
AcDbArc
 50
225.0
 51
314.9999999999999
  0
LINE
  5
2E0
330
2DA
100
AcDbEntity
  8
Sketch Geometry(Ram)
370
    18
100
AcDbLine
 10
0.097851138708478
 20
-1.904413040859527
 30
0.0
 11
-0.9363159693650755
 21
-1.627308799412379
 31
0.0
  0
ARC
  5
2E1
330
2DA
100
AcDbEntity
  8
Sketch Geometry(Ram)
370
    18
100
AcDbCircle
 10
0.2633301278051192
 20
-1.286837045965682
 30
0.0
 40
0.639361717106625
100
AcDbArc
 50
255.000000000001
 51
315.0
  0
LINE
  5
2E2
330
2DA
100
AcDbEntity
  8
Sketch Geometry(Ram)
370
    18
100
AcDbLine
 10
-1.669645716746313
 20
-1.507711811724553
 30
0.0
 11
-2.588884532290548
 21
-0.5884729961804425
 31
0.0
  0
ARC
  5
2E3
330
2DA
100
AcDbEntity
  8
Sketch Geometry(Ram)
370
    18
100
AcDbCircle
 10
-2.553529193231208
 20
-0.5531176571211029
 30
0.0
 40
0.05
100
AcDbArc
 50
135.0000000000001
 51
224.9999999999999
  0
LINE
  5
2E4
330
2DA
100
AcDbEntity
  8
Sketch Geometry(Ram)
370
    18
100
AcDbLine
 10
-2.58888453229053
 20
-0.5177623180617808
 30
0.0
 11
-2.412107836993904
 21
-0.3409856227651531
 31
0.0
  0
LINE
  5
2E5
330
2DA
100
AcDbEntity
  8
Sketch Geometry(Ram)
370
    18
100
AcDbLine
 10
-1.38460370544907
 20
-1.368489754309897
 30
0.0
 11
-2.44966247487742
 21
-0.3034309848816541
 31
0.0
  0
LINE
  5
2E6
330
2DA
100
AcDbEntity
  8
Sketch Geometry(Ram)
370
    18
100
AcDbLine
 10
3.288844482959021
 20
7.001357097865116
 30
0.0
 11
5.920184377297452
 21
4.370017203526757
 31
0.0
  0
LINE
  5
2E7
330
2DA
100
AcDbEntity
  8
Sketch Geometry(Ram)
370
    18
100
AcDbLine
 10
5.920184377297452
 20
3.465823191932404
 30
0.0
 11
0.7154271336022866
 21
-1.738934051762849
 31
0.0
  0
LINE
  5
2E8
330
2DA
100
AcDbEntity
  8
Sketch Geometry(Ram)
370
    18
100
AcDbLine
 10
-2.820106772330531
 20
1.796599854169896
 30
0.0
 11
2.384650471364686
 21
7.001357097865116
 31
0.0
  0
ARC
  5
2E9
330
2DA
100
AcDbEntity
  8
Sketch Geometry(Ram)
370
    18
100
AcDbCircle
 10
-2.368009766533365
 20
1.344502848372729
 30
0.0
 40
0.639361717106625
100
AcDbArc
 50
135.0
 51
194.9999999999997
  0
ARC
  5
2EA
330
2DA
100
AcDbEntity
  8
Sketch Geometry(Ram)
370
    18
100
AcDbCircle
 10
2.836747477161853
 20
6.54926009206795
 30
0.0
 40
0.639361717106625
100
AcDbArc
 50
45.0
 51
135.0
  0
ARC
  5
2EB
330
2DA
100
AcDbEntity
  8
Sketch Geometry(Ram)
370
    18
100
AcDbCircle
 10
5.468087371500284
 20
3.917920197729571
 30
0.0
 40
0.639361717106625
100
AcDbArc
 50
315.0
 51
45.00000000000111
  0
ARC
  5
2EC
330
2DA
100
AcDbEntity
  8
Sketch Geometry(Ram)
370
    18
100
AcDbCircle
 10
-1.742555693690928
 20
0.4036757963049277
 30
0.0
 40
1.0
100
AcDbArc
 50
195.0000000000004
 51
225.0000000000035
  0
LINE
  5
2ED
330
2DA
100
AcDbEntity
  8
Sketch Geometry(Ram)
370
    18
100
AcDbLine
 10
-2.985585761427173
 20
1.179023859276089
 30
0.0
 11
-2.708481519980007
 21
0.1448567512023935
 31
0.0
  0
LINE
  5
2EE
330
2DA
100
AcDbEntity
  8
Sketch Geometry(Ram)
370
    18
100
AcDbLine
 10
-5.450847264539451
 20
-4.213552536714376
 30
0.0
 11
-2.553629214331412
 21
-0.6237283141395446
 31
0.0
  0
LINE
  5
2EF
330
2DA
100
AcDbEntity
  8
Sketch Geometry(Ram)
370
    18
100
AcDbLine
 10
-1.704901034705431
 20
-1.472456493765434
 30
0.0
 11
-5.294725257281863
 21
-4.369674543972035
 31
0.0
  0
ARC
  5
2F0
330
2DA
100
AcDbEntity
  8
Sketch Geometry(Ram)
370
    18
100
AcDbCircle
 10
-5.364451872038014
 20
-4.28327915147058
 30
0.0
 40
0.1110223610397212
100
AcDbArc
 50
141.0942481659214
 51
308.9057518340514
  0
ARC
  5
2F1
330
2DA
100
AcDbEntity
  8
Sketch Geometry(Ram)
370
    18
100
AcDbCircle
 10
-5.364451872038014
 20
-4.933672957984676
 30
0.0
 40
0.1
100
AcDbArc
 50
10.7837787376784
 51
169.2162212623296
  0
ARC
  5
2F2
330
2DA
100
AcDbEntity
  8
Sketch Geometry(Ram)
370
    18
100
AcDbCircle
 10
-2.810367191575781
 20
-4.447204618800917
 30
0.0
 40
2.5
100
AcDbArc
 50
190.7837787376725
 51
218.0410750368321
  0
ARC
  5
2F3
330
2DA
100
AcDbEntity
  8
Sketch Geometry(Ram)
370
    18
100
AcDbCircle
 10
-7.918536552500227
 20
-4.447204618800917
 30
0.0
 40
2.5
100
AcDbArc
 50
321.9589249631677
 51
349.216221262327
  0
ARC
  5
2F4
330
2DA
100
AcDbEntity
  8
Sketch Geometry(Ram)
370
    18
100
AcDbCircle
 10
-5.364451872038014
 20
-6.445624592605661
 30
0.0
 40
0.7429972165688831
100
AcDbArc
 50
141.9589249631685
 51
38.04107503683136
  0
MTEXT
  5
2F5
330
2DA
100
AcDbEntity
  8
Symbols(Ram)
 62
     7
100
AcDbMText
 10
-1.083429051210895
 20
-8.380980076428057
 30
0.0
 40
1.49859994649887
 41
16.53502489896194
 46
0.0
 71
     2
 72
     1
  1
\fArial|b0|i0;\H1.4986;APPLY MEDIUM\PSTRENGTH\PTHREAD RETAINER
  7
STD 2.5 ARIAL
 73
     2
 44
0.9442214369773862
  0
ENDBLK
  5
2DC
330
2DA
100
AcDbEntity
  8
0
100
AcDbBlockEnd
  0
BLOCK
  5
2F7
330
2F6
100
AcDbEntity
  8
0
100
AcDbBlockBegin
  2
THREAD RETAINER H
 70
     0
 10
0.0
 20
0.0
 30
0.0
  3
THREAD RETAINER H
  1

  0
LINE
  5
2F9
330
2F6
100
AcDbEntity
  8
Sketch Geometry(Ram)
370
    18
100
AcDbLine
 10
3.288844482959021
 20
7.001357097865116
 30
0.0
 11
5.920184377297452
 21
4.370017203526757
 31
0.0
  0
LINE
  5
2FA
330
2F6
100
AcDbEntity
  8
Sketch Geometry(Ram)
370
    18
100
AcDbLine
 10
5.920184377297452
 20
3.465823191932404
 30
0.0
 11
0.7154271336022866
 21
-1.738934051762849
 31
0.0
  0
LINE
  5
2FB
330
2F6
100
AcDbEntity
  8
Sketch Geometry(Ram)
370
    18
100
AcDbLine
 10
-2.820106772330531
 20
1.796599854169896
 30
0.0
 11
2.384650471364686
 21
7.001357097865116
 31
0.0
  0
ARC
  5
2FC
330
2F6
100
AcDbEntity
  8
Sketch Geometry(Ram)
370
    18
100
AcDbCircle
 10
0.2633301278051192
 20
-1.286837045965682
 30
0.0
 40
0.639361717106625
100
AcDbArc
 50
255.000000000001
 51
315.0
  0
ARC
  5
2FD
330
2F6
100
AcDbEntity
  8
Sketch Geometry(Ram)
370
    18
100
AcDbCircle
 10
-2.368009766533365
 20
1.344502848372729
 30
0.0
 40
0.639361717106625
100
AcDbArc
 50
135.0
 51
194.9999999999997
  0
ARC
  5
2FE
330
2F6
100
AcDbEntity
  8
Sketch Geometry(Ram)
370
    18
100
AcDbCircle
 10
2.836747477161853
 20
6.54926009206795
 30
0.0
 40
0.639361717106625
100
AcDbArc
 50
45.0
 51
135.0
  0
ARC
  5
2FF
330
2F6
100
AcDbEntity
  8
Sketch Geometry(Ram)
370
    18
100
AcDbCircle
 10
5.468087371500284
 20
3.917920197729571
 30
0.0
 40
0.639361717106625
100
AcDbArc
 50
315.0
 51
45.00000000000111
  0
LINE
  5
300
330
2F6
100
AcDbEntity
  8
Sketch Geometry(Ram)
370
    18
100
AcDbLine
 10
0.097851138708478
 20
-1.904413040859527
 30
0.0
 11
-0.9363159693650755
 21
-1.627308799412379
 31
0.0
  0
LINE
  5
301
330
2F6
100
AcDbEntity
  8
Sketch Geometry(Ram)
370
    18
100
AcDbLine
 10
-2.985585761427173
 20
1.179023859276089
 30
0.0
 11
-2.708481519980007
 21
0.1448567512023935
 31
0.0
  0
LINE
  5
302
330
2F6
100
AcDbEntity
  8
Sketch Geometry(Ram)
370
    18
100
AcDbLine
 10
-1.38460370544907
 20
-1.368489754309897
 30
0.0
 11
-2.44966247487742
 21
-0.3034309848816541
 31
0.0
  0
LINE
  5
303
330
2F6
100
AcDbEntity
  8
Sketch Geometry(Ram)
370
    18
100
AcDbLine
 10
-1.42215834333104
 20
-1.330935116427927
 30
0.0
 11
-1.598935038627668
 21
-1.507711811724553
 31
0.0
  0
LINE
  5
304
330
2F6
100
AcDbEntity
  8
Sketch Geometry(Ram)
370
    18
100
AcDbLine
 10
-1.669645716746313
 20
-1.507711811724553
 30
0.0
 11
-2.588884532290548
 21
-0.5884729961804425
 31
0.0
  0
LINE
  5
305
330
2F6
100
AcDbEntity
  8
Sketch Geometry(Ram)
370
    18
100
AcDbLine
 10
-2.58888453229053
 20
-0.5177623180617808
 30
0.0
 11
-2.412107836993904
 21
-0.3409856227651531
 31
0.0
  0
ARC
  5
306
330
2F6
100
AcDbEntity
  8
Sketch Geometry(Ram)
370
    18
100
AcDbCircle
 10
-5.364451872038014
 20
-4.28327915147058
 30
0.0
 40
0.1110223610397212
100
AcDbArc
 50
141.0942481659214
 51
308.9057518340514
  0
LINE
  5
307
330
2F6
100
AcDbEntity
  8
Sketch Geometry(Ram)
370
    18
100
AcDbLine
 10
-5.450847264539451
 20
-4.213552536714376
 30
0.0
 11
-2.553629214331412
 21
-0.6237283141395446
 31
0.0
  0
LINE
  5
308
330
2F6
100
AcDbEntity
  8
Sketch Geometry(Ram)
370
    18
100
AcDbLine
 10
-1.704901034705431
 20
-1.472456493765434
 30
0.0
 11
-5.294725257281863
 21
-4.369674543972035
 31
0.0
  0
ARC
  5
309
330
2F6
100
AcDbEntity
  8
Sketch Geometry(Ram)
370
    18
100
AcDbCircle
 10
-0.6774969242626128
 20
-0.6613829731234056
 30
0.0
 40
1.0
100
AcDbArc
 50
225.0000000000015
 51
255.0000000000018
  0
ARC
  5
30A
330
2F6
100
AcDbEntity
  8
Sketch Geometry(Ram)
370
    18
100
AcDbCircle
 10
-1.742555693690928
 20
0.4036757963049277
 30
0.0
 40
1.0
100
AcDbArc
 50
195.0000000000004
 51
225.0000000000035
  0
ARC
  5
30B
330
2F6
100
AcDbEntity
  8
Sketch Geometry(Ram)
370
    18
100
AcDbCircle
 10
-5.364451872038014
 20
-6.445624592605661
 30
0.0
 40
0.7429972165688831
100
AcDbArc
 50
141.9589249631685
 51
38.04107503683136
  0
ARC
  5
30C
330
2F6
100
AcDbEntity
  8
Sketch Geometry(Ram)
370
    18
100
AcDbCircle
 10
-7.918536552500227
 20
-4.447204618800917
 30
0.0
 40
2.5
100
AcDbArc
 50
321.9589249631677
 51
349.216221262327
  0
ARC
  5
30D
330
2F6
100
AcDbEntity
  8
Sketch Geometry(Ram)
370
    18
100
AcDbCircle
 10
-2.810367191575781
 20
-4.447204618800917
 30
0.0
 40
2.5
100
AcDbArc
 50
190.7837787376725
 51
218.0410750368321
  0
ARC
  5
30E
330
2F6
100
AcDbEntity
  8
Sketch Geometry(Ram)
370
    18
100
AcDbCircle
 10
-5.364451872038014
 20
-4.933672957984676
 30
0.0
 40
0.1
100
AcDbArc
 50
10.7837787376784
 51
169.2162212623296
  0
ARC
  5
30F
330
2F6
100
AcDbEntity
  8
Sketch Geometry(Ram)
370
    18
100
AcDbCircle
 10
-1.634290377686991
 20
-1.472356472665231
 30
0.0
 40
0.05
100
AcDbArc
 50
225.0
 51
314.9999999999999
  0
ARC
  5
310
330
2F6
100
AcDbEntity
  8
Sketch Geometry(Ram)
370
    18
100
AcDbCircle
 10
-2.553529193231208
 20
-0.5531176571211029
 30
0.0
 40
0.05
100
AcDbArc
 50
135.0000000000001
 51
224.9999999999999
  0
MTEXT
  5
311
330
2F6
100
AcDbEntity
  8
Symbols(Ram)
 62
     7
100
AcDbMText
 10
-0.5191429966991557
 20
-8.252703968673174
 30
0.0
 40
1.49859994649887
 41
12.69037379631854
 46
0.0
 71
     2
 72
     1
  1
\fArial|b0|i0;\H1.4986;APPLY HIGH\PSTRENGTH\PTHREAD RETAINER
  7
STD 2.5 ARIAL
 73
     2
 44
0.9442214369773862
  0
ENDBLK
  5
2F8
330
2F6
100
AcDbEntity
  8
0
100
AcDbBlockEnd
  0
BLOCK
  5
313
330
312
100
AcDbEntity
  8
0
100
AcDbBlockBegin
  2
TIGHTEN TO
 70
     2
 10
0.0
 20
0.0
 30
0.0
  3
TIGHTEN TO
  1

  0
LINE
  5
315
330
312
100
AcDbEntity
  8
Sketch Geometry(Ram)
100
AcDbLine
 10
0.0
 20
0.0
 30
0.0
 11
3.000000000000006
 21
0.0
 31
0.0
  0
MTEXT
  5
316
330
312
100
AcDbEntity
  8
Symbols(Ram)
 62
     7
100
AcDbMText
 10
4.000000000000002
 20
-0.4158152686432004
 30
0.0
 40
2.489199936389923
 41
0.0
 46
0.0
 71
     4
 72
     1
  1
\fArial|b0|i0;TIGHTEN\PTO      N/m
  7
STD 2.5 ARIAL
 73
     2
 44
0.9442214369773862
  0
ATTDEF
  5
317
102
{ACAD_XDICTIONARY
360
7A7
102
}
330
312
100
AcDbEntity
  8
Symbols(Ram)
 62
     7
100
AcDbText
 10
9.459908783374833
 20
-3.246431671331386
 30
0.0
 40
2.489199936389923
  1
10
  7
Text Style14
100
AcDbAttributeDefinition
280
     0
  3
AMOUNT
  2
AMOUNT_001
 70
     0
280
     0
  0
ENDBLK
  5
314
330
312
100
AcDbEntity
  8
0
100
AcDbBlockEnd
  0
BLOCK
  5
319
330
318
100
AcDbEntity
  8
0
100
AcDbBlockBegin
  2
WATERMARK STICKER
 70
     0
 10
0.0
 20
0.0
 30
0.0
  3
WATERMARK STICKER
  1

  0
LINE
  5
31B
330
318
100
AcDbEntity
  8
Sketch Geometry(Ram)
100
AcDbLine
 10
0.0
 20
0.0
 30
0.0
 11
-2.999999999999998
 21
0.0
 31
0.0
  0
MTEXT
  5
31C
330
318
100
AcDbEntity
  8
Symbols(Ram)
 62
     7
100
AcDbMText
 10
-21.0
 20
1.063789565959075
 30
0.0
 40
2.489199936389923
 41
0.0
 46
0.0
 71
     2
 72
     1
  1
\fArial|b0|i0;APPLY WATERMARK\PSTICKER (STK09)\PAFTER SUCCESSFUL\PPRESSURE TEST
  7
STD 2.5 ARIAL
 73
     2
 44
0.9442214369773862
  0
ENDBLK
  5
31A
330
318
100
AcDbEntity
  8
0
100
AcDbBlockEnd
  0
BLOCK
  5
31E
330
31D
100
AcDbEntity
  8
0
100
AcDbBlockBegin
  2
NOTE 001
 70
     2
 10
0.0
 20
0.0
 30
0.0
  3
NOTE 001
  1

  0
MTEXT
  5
320
330
31D
100
AcDbEntity
  8
Symbols(Ram)
 62
     7
100
AcDbMText
 10
-42.35590971613071
 20
16.96511149406433
 30
0.0
 40
2.5
 41
0.0
 46
0.0
 71
     1
 72
     1
  1
NOTE:\P \P1. INSTALLATION INSTRUCTIONS:\P2. APPLY WELS LABEL:\P3. CARTON:\P4. LABEL:\P5. MISC. PACKING:\P6. WARANTY CARD:\P 
  7
STD 2.5 ARIAL
 73
     2
 44
0.9442215561866758
  0
ATTDEF
  5
322
102
{ACAD_XDICTIONARY
360
7AA
102
}
330
31D
100
AcDbEntity
  8
Symbols(Ram)
 62
     7
100
AcDbText
 10
16.26863993311069
 20
6.719737660884844
 30
0.0
 40
2.489199936389923
  1
AAAA
  7
Text Style58
100
AcDbAttributeDefinition
280
     0
  3
INSTRUCTIONS
  2
INSTRUCTIONS_001
 70
     0
280
     0
  0
ATTDEF
  5
324
102
{ACAD_XDICTIONARY
360
7AD
102
}
330
31D
100
AcDbEntity
  8
Symbols(Ram)
 62
     7
100
AcDbText
 10
-2.025255139964639
 20
2.789737660884838
 30
0.0
 40
2.489199936389923
  1
BBBBB
  7
Text Style58
100
AcDbAttributeDefinition
280
     0
  3
WELS LABEL
  2
WELS_LABEL_001
 70
     0
280
     0
  0
ATTDEF
  5
325
102
{ACAD_XDICTIONARY
360
7B0
102
}
330
31D
100
AcDbEntity
  8
Symbols(Ram)
 62
     7
100
AcDbText
 10
-21.5001692928418
 20
-1.182711178412404
 30
0.0
 40
2.489199936389923
  1
CCCC
  7
Text Style58
100
AcDbAttributeDefinition
280
     0
  3
CARTON
  2
CARTON_001
 70
     0
280
     0
  0
ATTDEF
  5
326
102
{ACAD_XDICTIONARY
360
7B3
102
}
330
31D
100
AcDbEntity
  8
Symbols(Ram)
 62
     7
100
AcDbText
 10
-9.91961932874967
 20
-9.000262339115181
 30
0.0
 40
2.489199936389923
  1
DDDD
  7
Text Style58
100
AcDbAttributeDefinition
280
     0
  3
MISC. PACKING
  2
MISC._PACKING_001
 70
     0
280
     0
  0
ATTDEF
  5
327
102
{ACAD_XDICTIONARY
360
7B6
102
}
330
31D
100
AcDbEntity
  8
Symbols(Ram)
 62
     7
100
AcDbText
 10
-25.62709020036181
 20
-5.070262339115174
 30
0.0
 40
2.489199936389923
  1
EEEE
  7
Text Style58
100
AcDbAttributeDefinition
280
     0
  3
LABEL
  2
LABEL_001
 70
     0
280
     0
  0
ATTDEF
  5
328
102
{ACAD_XDICTIONARY
360
7B9
102
}
330
31D
100
AcDbEntity
  8
Symbols(Ram)
 62
     7
100
AcDbText
 10
-7.950273165483126
 20
-12.93026233911518
 30
0.0
 40
2.489199936389923
  1
FFFF
  7
Text Style58
100
AcDbAttributeDefinition
280
     0
  3
WARRANTY CARD
  2
WARRANTY_CARD_001
 70
     0
280
     0
  0
ENDBLK
  5
31F
330
31D
100
AcDbEntity
  8
0
100
AcDbBlockEnd
  0
BLOCK
  5
32A
330
329
100
AcDbEntity
  8
0
100
AcDbBlockBegin
  2
QUOTATION ONLY
 70
     0
 10
0.0
 20
0.0
 30
0.0
  3
QUOTATION ONLY
  1

  0
MTEXT
  5
32C
102
{ACAD_XDICTIONARY
360
7BC
102
}
330
329
100
AcDbEntity
  8
Symbols(Ram)
 62
     1
420
 16711680
100
AcDbMText
 10
-3.530143797397613
 20
6.114388415116795
 30
0.0
 40
2.5
 41
42.70007610321044
 46
0.0
 71
     2
 72
     1
  1
{\H1.4x;QUOTATION \PONLY\H1.27999x; \H0.78126x;\P}May be subject to alteration {\H1.31916x; }prior to production.{\H1.14106x; }
  7
STD 2.5 ARIAL
 11
0.8660254037844385
 21
0.5000000000000007
 31
0.0
 73
     1
 44
0.8339310288429258
  0
ENDBLK
  5
32B
330
329
100
AcDbEntity
  8
0
100
AcDbBlockEnd
  0
BLOCK
  5
32E
330
32D
100
AcDbEntity
  8
0
100
AcDbBlockBegin
  2
WATERMARK STICKER RH SIDE
 70
     0
 10
0.0
 20
0.0
 30
0.0
  3
WATERMARK STICKER RH SIDE
  1

  0
LINE
  5
330
330
32D
100
AcDbEntity
  8
Sketch Geometry(Ram)
100
AcDbLine
 10
0.0
 20
0.0
 30
0.0
 11
2.999999999999998
 21
0.0
 31
0.0
  0
MTEXT
  5
331
330
32D
100
AcDbEntity
  8
Symbols(Ram)
 62
     7
100
AcDbMText
 10
21.00000000000001
 20
0.8759048483026532
 30
0.0
 40
2.489199936389923
 41
0.0
 46
0.0
 71
     2
 72
     1
  1
\fArial|b0|i0;APPLY WATERMARK\PSTICKER (STK09)\PAFTER SUCCESSFUL\PPRESSURE TEST
  7
STD 2.5 ARIAL
 73
     2
 44
0.9442214369773862
  0
ENDBLK
  5
32F
330
32D
100
AcDbEntity
  8
0
100
AcDbBlockEnd
  0
BLOCK
  5
333
330
332
100
AcDbEntity
  8
0
100
AcDbBlockBegin
  2
SCREW-IN _ TURNS
 70
     2
 10
0.0
 20
0.0
 30
0.0
  3
SCREW-IN _ TURNS
  1

  0
LINE
  5
335
330
332
100
AcDbEntity
  8
Sketch Geometry(Ram)
100
AcDbLine
 10
0.0
 20
0.0
 30
0.0
 11
2.999999999999998
 21
0.0
 31
0.0
  0
MTEXT
  5
336
330
332
100
AcDbEntity
  8
Symbols(Ram)
 62
     7
100
AcDbMText
 10
13.0
 20
0.661960271490365
 30
0.0
 40
2.489199936389923
 41
0.0
 46
0.0
 71
     2
 72
     1
  1
\fArial|b0|i0;SCREW-IN\P    FULL \PTURNS
  7
STD 2.5 ARIAL
 73
     2
 44
0.9442214369773862
  0
ATTDEF
  5
337
102
{ACAD_XDICTIONARY
360
7BE
102
}
330
332
100
AcDbEntity
  8
Symbols(Ram)
 62
     7
100
AcDbText
 10
7.525716082480031
 20
-5.755678613203656
 30
0.0
 40
2.489199936389923
  1
5
  7
Text Style14
100
AcDbAttributeDefinition
280
     0
  3
NUMBER
  2
NUMBER_001
 70
     0
280
     0
  0
ENDBLK
  5
334
330
332
100
AcDbEntity
  8
0
100
AcDbBlockEnd
  0
BLOCK
  5
339
330
338
100
AcDbEntity
  8
0
100
AcDbBlockBegin
  2
CENTRE STICKER
 70
     0
 10
0.0
 20
0.0
 30
0.0
  3
CENTRE STICKER
  1

  0
LINE
  5
33B
330
338
100
AcDbEntity
  8
Sketch Geometry(Ram)
100
AcDbLine
 10
0.0
 20
0.0
 30
0.0
 11
2.999999999999998
 21
0.0
 31
0.0
  0
MTEXT
  5
33C
330
338
100
AcDbEntity
  8
Symbols(Ram)
 62
     7
100
AcDbMText
 10
17.0
 20
1.124245293502007
 30
0.0
 40
2.489199936389923
 41
0.0
 46
0.0
 71
     2
 72
     1
  1
\fArial|b0|i0;APPLY CENTRE\PSTICKER\P(STK10)
  7
STD 2.5 ARIAL
 73
     2
 44
0.9442214369773862
  0
ENDBLK
  5
33A
330
338
100
AcDbEntity
  8
0
100
AcDbBlockEnd
  0
BLOCK
  5
33E
330
33D
100
AcDbEntity
  8
0
100
AcDbBlockBegin
  2
GREASE
 70
     0
 10
0.0
 20
0.0
 30
0.0
  3
GREASE
  1

  0
LINE
  5
340
330
33D
100
AcDbEntity
  8
Sketch Geometry(Ram)
100
AcDbLine
 10
0.0
 20
0.0
 30
0.0
 11
-3.000000000000006
 21
0.0
 31
0.0
  0
MTEXT
  5
341
330
33D
100
AcDbEntity
  8
Symbols(Ram)
 62
     7
100
AcDbMText
 10
-19.0
 20
1.165139314759784
 30
0.0
 40
2.489199936389923
 41
0.0
 46
0.0
 71
     1
 72
     1
  1
\fArial|b0|i0;GREASE
  7
STD 2.5 ARIAL
 73
     1
 44
1.0
  0
ENDBLK
  5
33F
330
33D
100
AcDbEntity
  8
0
100
AcDbBlockEnd
  0
BLOCK
  5
343
330
342
100
AcDbEntity
  8
0
100
AcDbBlockBegin
  2
WATERMARK ETCH
 70
     0
 10
0.0
 20
0.0
 30
0.0
  3
WATERMARK ETCH
  1

  0
LINE
  5
345
330
342
100
AcDbEntity
  8
Sketch Geometry(Ram)
100
AcDbLine
 10
0.0
 20
0.0
 30
0.0
 11
-3.000000000000006
 21
0.0
 31
0.0
  0
MTEXT
  5
346
330
342
100
AcDbEntity
  8
Symbols(Ram)
 62
     7
100
AcDbMText
 10
-21.00000000000001
 20
1.164973430248376
 30
0.0
 40
2.489199936389923
 41
0.0
 46
0.0
 71
     2
 72
     1
  1
\fArial|b0|i0;WATERMARK - ETCH\PAFTER SUCCESSFUL\PPRESSURE TEST
  7
STD 2.5 ARIAL
 73
     2
 44
0.9442214369773862
  0
ENDBLK
  5
344
330
342
100
AcDbEntity
  8
0
100
AcDbBlockEnd
  0
BLOCK
  5
348
330
347
100
AcDbEntity
  8
0
100
AcDbBlockBegin
  2
AVAIL WELS RATING
 70
     0
 10
0.0
 20
0.0
 30
0.0
  3
AVAIL WELS RATING
  1

  0
MTEXT
  5
34A
330
347
100
AcDbEntity
  8
Symbols(Ram)
 62
     7
100
AcDbMText
 10
-12.80678272247312
 20
11.10660078004002
 30
0.0
 40
2.5
 41
25.61356544494629
 46
0.0
 71
     1
 72
     1
  1
\fArial|b1|i0;\H2.5000;AVAILABLE\PWELS RATING:\P \P\fArial|b0|i0;\H2.5000;3 STAR - 9 LPM\P5 STAR - 6 LPM\P6 STAR - 4 LPM
  7
STD 2.5 ARIAL
 73
     2
 44
0.9442214965820312
  0
ENDBLK
  5
349
330
347
100
AcDbEntity
  8
0
100
AcDbBlockEnd
  0
BLOCK
  5
34C
330
34B
100
AcDbEntity
  8
0
100
AcDbBlockBegin
  2
J_VALVE STD 3_4 TURN SECURE FIT
 70
     0
 10
0.0
 20
0.0
 30
0.0
  3
J_VALVE STD 3_4 TURN SECURE FIT
  1

  0
MTEXT
  5
34E
330
34B
100
AcDbEntity
  8
Symbols(Ram)
 62
     7
100
AcDbMText
 10
-35.61356604099275
 20
28.99481546133756
 30
0.0
 40
2.5
 41
0.0
 46
0.0
 71
     1
 72
     1
  3
Headworks Available:\PJumper Valve (Standard)\PCeramic Disc 3/4 Turn (Optional)\P \PHandles are \fArial|b0|i1;\H2.5000;Secure Fit\fArial|b0|i0;\H2.5000; - Fit with key supplied.\P \PMax Pressure: 1000kpa\PMin pressure: 100kpa\PMax Temp: 80\fAIGDT|b0|
  1
i0;\H2.5000;~\fArial|b0|i0;\H2.5000;c\P \PMounting Holes:\P- Taps - Min \fAIGDT|b0|i0;\H2.5000;n\fArial|b0|i0;\H2.5000;32mm\P- Spout - Min \fAIGDT|b0|i0;\H2.5000;n\fArial|b0|i0;\H2.5000;21mm
  7
STD 2.5 ARIAL
 73
     2
 44
1.095920681953429
  0
ENDBLK
  5
34D
330
34B
100
AcDbEntity
  8
0
100
AcDbBlockEnd
  0
BLOCK
  5
350
330
34F
100
AcDbEntity
  8
0
100
AcDbBlockBegin
  2
1_4 TURN STD SECURE FIT
 70
     0
 10
0.0
 20
0.0
 30
0.0
  3
1_4 TURN STD SECURE FIT
  1

  0
MTEXT
  5
352
330
34F
100
AcDbEntity
  8
Symbols(Ram)
 62
     7
100
AcDbMText
 10
-35.61356604099275
 20
27.02768739312887
 30
0.0
 40
2.5
 41
0.0
 46
0.0
 71
     1
 72
     1
  3
Headworks Available:\PCeramic Disc 1/4 Turn (Standard)\P \PHandles are \fArial|b0|i1;\H2.5000;Secure Fit\fArial|b0|i0;\H2.5000; - Fit with key supplied.\P \PMax Pressure: 1000kpa\PMin Pressure: 100kpa\PMax Temp: 80\fAIGDT|b0|i0;\H2.5000;~\fArial|b0|i
  1
0;\H2.5000;c\P \PMounting Holes:\P- Taps - Min \fAIGDT|b0|i0;\H2.5000;n\fArial|b0|i0;\H2.5000;32mm\P- Spout - Min \fAIGDT|b0|i0;\H2.5000;n\fArial|b0|i0;\H2.5000;21mm
  7
STD 2.5 ARIAL
 73
     2
 44
1.1097115278244
  0
ENDBLK
  5
351
330
34F
100
AcDbEntity
  8
0
100
AcDbBlockEnd
  0
BLOCK
  5
354
330
353
100
AcDbEntity
  8
0
100
AcDbBlockBegin
  2
J_VALVE STD 3_4 TURN
 70
     0
 10
0.0
 20
0.0
 30
0.0
  3
J_VALVE STD 3_4 TURN
  1

  0
MTEXT
  5
356
330
353
100
AcDbEntity
  8
Symbols(Ram)
 62
     7
100
AcDbMText
 10
-25.51829099655151
 20
25.06055932492018
 30
0.0
 40
2.5
 41
0.0
 46
0.0
 71
     1
 72
     1
  3
Headworks Available:\PJumper Valve (Standard)\PCeramic Disc 3/4 Turn (Optional)\P \PMax Pressure: 1000kpa\PMin Pressure: 100kpa\PMax Temp: 80\fAIGDT|b0|i0;\H2.5000;~\fArial|b0|i0;\H2.5000;c\P \PMounting Holes:\P- Taps - Min \fAIGDT|b0|i0;\H2.5000;n\f
  1
Arial|b0|i0;\H2.5000;32mm\P- Spout - Min \fAIGDT|b0|i0;\H2.5000;n\fArial|b0|i0;\H2.5000;21mm
  7
STD 2.5 ARIAL
 73
     2
 44
1.126260638236999
  0
ENDBLK
  5
355
330
353
100
AcDbEntity
  8
0
100
AcDbBlockEnd
  0
BLOCK
  5
358
330
357
100
AcDbEntity
  8
0
100
AcDbBlockBegin
  2
1_4 TURN STD
 70
     0
 10
0.0
 20
0.0
 30
0.0
  3
1_4 TURN STD
  1

  0
MTEXT
  5
35A
330
357
100
AcDbEntity
  8
Symbols(Ram)
 62
     7
100
AcDbMText
 10
-26.10136985778809
 20
23.09343125671148
 30
0.0
 40
2.5
 41
0.0
 46
0.0
 71
     1
 72
     1
  3
Headworks Available:\PCeramic Disc 1/4 Turn (Standard)\P \PMax Pressure: 1000kpa\PMin Pressure: 100kpa\PMax Temp: 80\fAIGDT|b0|i0;\H2.5000;~\fArial|b0|i0;\H2.5000;c\P \PMounting Holes:\P- Taps - Min \fAIGDT|b0|i0;\H2.5000;n\fArial|b0|i0;\H2.5000;32mm
  1
\P- Spout - Min \fAIGDT|b0|i0;\H2.5000;n\fArial|b0|i0;\H2.5000;21mm
  7
STD 2.5 ARIAL
 73
     2
 44
1.146487116813659
  0
ENDBLK
  5
359
330
357
100
AcDbEntity
  8
0
100
AcDbBlockEnd
  0
BLOCK
  5
35C
330
35B
100
AcDbEntity
  8
0
100
AcDbBlockBegin
  2
AVAIL WELS WITH 4 STAR
 70
     0
 10
0.0
 20
0.0
 30
0.0
  3
AVAIL WELS WITH 4 STAR
  1

  0
MTEXT
  5
35E
330
35B
100
AcDbEntity
  8
Symbols(Ram)
 62
     7
100
AcDbMText
 10
-14.16825413703918
 20
13.07372884824872
 30
0.0
 40
2.5
 41
0.0
 46
0.0
 71
     1
 72
     1
  1
\fArial|b1|i0;\H2.5000;AVAILABLE\PWELS RATING:\P \P\fArial|b0|i0;\H2.5000;3 STAR - 9 LPM\P4 STAR - 7.5 LPM\P5 STAR - 6 LPM\P6 STAR - 4 LPM
  7
STD 2.5 ARIAL
 73
     2
 44
0.9442214965820312
  0
ENDBLK
  5
35D
330
35B
100
AcDbEntity
  8
0
100
AcDbBlockEnd
  0
BLOCK
  5
360
330
35F
100
AcDbEntity
  8
0
100
AcDbBlockBegin
  2
AVAIL WELS 4 STAR
 70
     0
 10
0.0
 20
0.0
 30
0.0
  3
AVAIL WELS 4 STAR
  1

  0
MTEXT
  5
362
330
35F
100
AcDbEntity
  8
Symbols(Ram)
 62
     7
100
AcDbMText
 10
-14.16825413703918
 20
7.172344643622636
 30
0.0
 40
2.5
 41
0.0
 46
0.0
 71
     1
 72
     1
  1
\fArial|b1|i0;\H2.5000;AVAILABLE\PWELS RATING:\P \P\fArial|b0|i0;\H2.5000;4 STAR - 7.5 LPM
  7
STD 2.5 ARIAL
 73
     2
 44
0.9442214965820312
  0
ENDBLK
  5
361
330
35F
100
AcDbEntity
  8
0
100
AcDbBlockEnd
  0
BLOCK
  5
364
330
363
100
AcDbEntity
  8
0
100
AcDbBlockBegin
  2
J_VALVE 3_4 TURN TAP ONLY
 70
     0
 10
0.0
 20
0.0
 30
0.0
  3
J_VALVE 3_4 TURN TAP ONLY
  1

  0
MTEXT
  5
366
330
363
100
AcDbEntity
  8
Symbols(Ram)
 62
     7
100
AcDbMText
 10
-25.51829099655151
 20
21.65791373699903
 30
0.0
 40
2.5
 41
0.0
 46
0.0
 71
     1
 72
     1
  3
Headworks Available:\PJumper Valve (Standard)\PCeramic Disc 3/4 Turn (Optional)\P \PMax Pressure: 1000kpa\PMin Pressure: 100kpa\PMax Temp: 80\fAIGDT|b0|i0;\H2.5000;~\fArial|b0|i0;\H2.5000;c\P \PMounting Holes:\P- Taps - Min \fAIGDT|b0|i0;\H2.5000;n\f
  1
Arial|b0|i0;\H2.5000;32mm
  7
STD 2.5 ARIAL
 73
     2
 44
1.069926142692564
  0
ENDBLK
  5
365
330
363
100
AcDbEntity
  8
0
100
AcDbBlockEnd
  0
BLOCK
  5
368
330
367
100
AcDbEntity
  8
0
100
AcDbBlockBegin
  2
J_VALVE 3_4 TURN SECURE FIT TAP ONLY
 70
     0
 10
0.0
 20
0.0
 30
0.0
  3
J_VALVE 3_4 TURN SECURE FIT TAP ONLY
  1

  0
MTEXT
  5
36A
330
367
100
AcDbEntity
  8
Symbols(Ram)
 62
     7
100
AcDbMText
 10
-35.61356604099275
 20
25.59216987341642
 30
0.0
 40
2.5
 41
0.0
 46
0.0
 71
     1
 72
     1
  3
Headworks Available:\PJumper Valve (Standard)\PCeramic Disc 3/4 Turn (Optional)\P \PHandles are \fArial|b0|i1;\H2.5000;Secure Fit\fArial|b0|i0;\H2.5000; - Fit with key supplied.\P \PMax Pressure: 1000kpa\PMin Pressure: 100kpa\PMax Temp: 80\fAIGDT|b0|
  1
i0;\H2.5000;~\fArial|b0|i0;\H2.5000;c\P \PMounting Holes:\P- Taps - Min \fAIGDT|b0|i0;\H2.5000;n\fArial|b0|i0;\H2.5000;32mm
  7
STD 2.5 ARIAL
 73
     2
 44
1.047070741653442
  0
ENDBLK
  5
369
330
367
100
AcDbEntity
  8
0
100
AcDbBlockEnd
  0
BLOCK
  5
36C
330
36B
100
AcDbEntity
  8
0
100
AcDbBlockBegin
  2
J_VALVE
 70
     0
 10
0.0
 20
0.0
 30
0.0
  3
J_VALVE
  1

  0
MTEXT
  5
36E
330
36B
100
AcDbEntity
  8
Symbols(Ram)
 62
     7
100
AcDbMText
 10
-19.40834522247314
 20
23.09343125671148
 30
0.0
 40
2.5
 41
0.0
 46
0.0
 71
     1
 72
     1
  3
Headworks Available:\PJumper Valve (Standard)\P \PMax Pressure: 1000kpa\PMin Pressure: 100kpa\PMax Temp: 80\fAIGDT|b0|i0;\H2.5000;~\fArial|b0|i0;\H2.5000;c\P \PMounting Holes:\P- Taps - Min \fAIGDT|b0|i0;\H2.5000;n\fArial|b0|i0;\H2.5000;32mm\P- Spout
  1
 - Min \fAIGDT|b0|i0;\H2.5000;n\fArial|b0|i0;\H2.5000;21mm
  7
STD 2.5 ARIAL
 73
     2
 44
1.146487116813659
  0
ENDBLK
  5
36D
330
36B
100
AcDbEntity
  8
0
100
AcDbBlockEnd
  0
BLOCK
  5
370
330
36F
100
AcDbEntity
  8
0
100
AcDbBlockBegin
  2
J_VALVE TAP ONLY
 70
     0
 10
0.0
 20
0.0
 30
0.0
  3
J_VALVE TAP ONLY
  1

  0
MTEXT
  5
372
330
36F
100
AcDbEntity
  8
Symbols(Ram)
 62
     7
100
AcDbMText
 10
-19.40834522247314
 20
19.69078566879034
 30
0.0
 40
2.5
 41
0.0
 46
0.0
 71
     1
 72
     1
  1
Headworks Available:\PJumper Valve (Standard)\P \PMax Pressure: 1000kpa\PMin Pressure: 100kpa\PMax Temp: 80\fAIGDT|b0|i0;\H2.5000;~\fArial|b0|i0;\H2.5000;c\P \PMounting Holes:\P- Taps - Min \fAIGDT|b0|i0;\H2.5000;n\fArial|b0|i0;\H2.5000;32mm
  7
STD 2.5 ARIAL
 73
     2
 44
1.085639238357542
  0
ENDBLK
  5
371
330
36F
100
AcDbEntity
  8
0
100
AcDbBlockEnd
  0
BLOCK
  5
374
330
373
100
AcDbEntity
  8
0
100
AcDbBlockBegin
  2
J_VALVE SPOUT ONLY
 70
     0
 10
0.0
 20
0.0
 30
0.0
  3
J_VALVE SPOUT ONLY
  1

  0
MTEXT
  5
376
330
373
100
AcDbEntity
  8
Symbols(Ram)
 62
     7
100
AcDbMText
 10
-19.40834522247314
 20
19.69078566879034
 30
0.0
 40
2.5
 41
0.0
 46
0.0
 71
     1
 72
     1
  1
Headworks Available:\PJumper Valve (Standard)\P \PMax Pressure: 1000kpa\PMin Pressure: 100kpa\PMax Temp: 80\fAIGDT|b0|i0;\H2.5000;~\fArial|b0|i0;\H2.5000;c\P \PMounting Holes:\P- Spout - Min \fAIGDT|b0|i0;\H2.5000;n\fArial|b0|i0;\H2.5000;21mm
  7
STD 2.5 ARIAL
 73
     2
 44
1.085639238357542
  0
ENDBLK
  5
375
330
373
100
AcDbEntity
  8
0
100
AcDbBlockEnd
  0
BLOCK
  5
378
330
377
100
AcDbEntity
  8
0
100
AcDbBlockBegin
  2
J_VALVE 3_4 TURN SPOUT ONLY
 70
     0
 10
0.0
 20
0.0
 30
0.0
  3
J_VALVE 3_4 TURN SPOUT ONLY
  1

  0
MTEXT
  5
37A
330
377
100
AcDbEntity
  8
Symbols(Ram)
 62
     7
100
AcDbMText
 10
-25.51829099655151
 20
21.65791373699903
 30
0.0
 40
2.5
 41
0.0
 46
0.0
 71
     1
 72
     1
  3
Headworks Available:\PJumper Valve (Standard)\PCeramic Disc 3/4 Turn (Optional)\P \PMax Pressure: 1000kpa\PMin Pressure: 100kpa\PMax Temp: 80\fAIGDT|b0|i0;\H2.5000;~\fArial|b0|i0;\H2.5000;c\P \PMounting Holes:\P- Spout - Min \fAIGDT|b0|i0;\H2.5000;n\
  1
fArial|b0|i0;\H2.5000;21mm
  7
STD 2.5 ARIAL
 73
     2
 44
1.069926142692564
  0
ENDBLK
  5
379
330
377
100
AcDbEntity
  8
0
100
AcDbBlockEnd
  0
BLOCK
  5
37C
330
37B
100
AcDbEntity
  8
0
100
AcDbBlockBegin
  2
AVAIL WELS 3 STAR
 70
     0
 10
0.0
 20
0.0
 30
0.0
  3
AVAIL WELS 3 STAR
  1

  0
MTEXT
  5
37E
330
37B
100
AcDbEntity
  8
Symbols(Ram)
 62
     7
100
AcDbMText
 10
-12.80678272247314
 20
7.172344643622636
 30
0.0
 40
2.5
 41
0.0
 46
0.0
 71
     1
 72
     1
  1
\fArial|b1|i0;\H2.5000;AVAILABLE\PWELS RATING:\P \P\fArial|b0|i0;\H2.5000;3 STAR - 9 LPM
  7
STD 2.5 ARIAL
 73
     2
 44
0.9442214965820312
  0
ENDBLK
  5
37D
330
37B
100
AcDbEntity
  8
0
100
AcDbBlockEnd
  0
BLOCK
  5
380
330
37F
100
AcDbEntity
  8
0
100
AcDbBlockBegin
  2
J_VALVE 3_4 TURN SECURE FIT SPOUT ONLY
 70
     0
 10
0.0
 20
0.0
 30
0.0
  3
J_VALVE 3_4 TURN SECURE FIT SPOUT ONLY
  1

  0
MTEXT
  5
382
330
37F
100
AcDbEntity
  8
Symbols(Ram)
 62
     7
100
AcDbMText
 10
-35.61356604099275
 20
25.59216987341642
 30
0.0
 40
2.5
 41
0.0
 46
0.0
 71
     1
 72
     1
  3
Headworks Available:\PJumper Valve (Standard)\PCeramic Disc 3/4 Turn (Optional)\P \PHandles are \fArial|b0|i1;\H2.5000;Secure Fit\fArial|b0|i0;\H2.5000; - Fit with key supplied.\P \PMax Pressure: 1000kpa\PMin Pressure: 100kpa\PMax Temp: 80\fAIGDT|b0|
  1
i0;\H2.5000;~\fArial|b0|i0;\H2.5000;c\P \PMounting Holes:\P- Spout - Min \fAIGDT|b0|i0;\H2.5000;n\fArial|b0|i0;\H2.5000;21mm
  7
STD 2.5 ARIAL
 73
     2
 44
1.047070741653442
  0
ENDBLK
  5
381
330
37F
100
AcDbEntity
  8
0
100
AcDbBlockEnd
  0
BLOCK
  5
384
330
383
100
AcDbEntity
  8
0
100
AcDbBlockBegin
  2
1_4 TURN STD SECURE FIT NO HOLE DETAIL
 70
     0
 10
0.0
 20
0.0
 30
0.0
  3
1_4 TURN STD SECURE FIT NO HOLE DETAIL
  1

  0
MTEXT
  5
386
330
383
100
AcDbEntity
  8
Symbols(Ram)
 62
     7
100
AcDbMText
 10
-26.58631801605225
 20
12.35388394445181
 30
0.0
 40
2.5
 41
0.0
 46
0.0
 71
     1
 72
     1
  1
Headworks Available:\PCeramic Disc 1/4 Turn (Standard) \P \PMax Pressure: 1000kpa\PMin Pressure: 150kpa\PMax Temp: 80\fAIGDT|b0|i0;\H2.5000;~\fArial|b0|i0;\H2.5000;c
  7
STD 2.5 ARIAL
 73
     2
 44
1.03268015384674
  0
ENDBLK
  5
385
330
383
100
AcDbEntity
  8
0
100
AcDbBlockEnd
  0
BLOCK
  5
388
330
387
100
AcDbEntity
  8
0
100
AcDbBlockBegin
  2
1_4 TURN STD NO HOLE DETAIL
 70
     0
 10
0.0
 20
0.0
 30
0.0
  3
1_4 TURN STD NO HOLE DETAIL
  1

  0
MTEXT
  5
38A
330
387
100
AcDbEntity
  8
Symbols(Ram)
 62
     7
100
AcDbMText
 10
-26.10136985778809
 20
12.35388394445181
 30
0.0
 40
2.5
 41
0.0
 46
0.0
 71
     1
 72
     1
  1
Headworks Available:\PCeramic Disc 1/4 Turn (Standard)\P \PMax Pressure: 1000kpa\PMin Pressure: 100kpa\PMax Temp: 80\fAIGDT|b0|i0;\H2.5000;~\fArial|b0|i0;\H2.5000;c
  7
STD 2.5 ARIAL
 73
     2
 44
1.03268015384674
  0
ENDBLK
  5
389
330
387
100
AcDbEntity
  8
0
100
AcDbBlockEnd
  0
BLOCK
  5
38C
330
38B
100
AcDbEntity
  8
0
100
AcDbBlockBegin
  2
J_VALVE STD 3_4 TURN NO HOLE DETAIL
 70
     0
 10
0.0
 20
0.0
 30
0.0
  3
J_VALVE STD 3_4 TURN NO HOLE DETAIL
  1

  0
MTEXT
  5
38E
330
38B
100
AcDbEntity
  8
Symbols(Ram)
 62
     7
100
AcDbMText
 10
-25.51829099655151
 20
14.3210120126605
 30
0.0
 40
2.5
 41
0.0
 46
0.0
 71
     1
 72
     1
  1
Headworks Available:\PJumper Valve (Standard)\PCeramic Disc 3/4 Turn (Optional)\P \PMax Pressure: 1000kpa\PMin Pressure: 100kpa\PMax Temp: 80\fAIGDT|b0|i0;\H2.5000;~\fArial|b0|i0;\H2.5000;c
  7
STD 2.5 ARIAL
 73
     2
 44
1.017937064170837
  0
ENDBLK
  5
38D
330
38B
100
AcDbEntity
  8
0
100
AcDbBlockEnd
  0
BLOCK
  5
390
330
38F
100
AcDbEntity
  8
0
100
AcDbBlockBegin
  2
J_VALVE 3_4 TURN SECURE FIT NO HOLE DETAIL
 70
     0
 10
0.0
 20
0.0
 30
0.0
  3
J_VALVE 3_4 TURN SECURE FIT NO HOLE DETAIL
  1

  0
MTEXT
  5
392
330
38F
100
AcDbEntity
  8
Symbols(Ram)
 62
     7
100
AcDbMText
 10
-35.61356604099275
 20
18.25526814907789
 30
0.0
 40
2.5
 41
0.0
 46
0.0
 71
     1
 72
     1
  3
Headworks Available:\PJumper Valve (Standard)\PCeramic Disc 3/4 Turn (Optional)\P \PHandles are \fArial|b0|i1;\H2.5000;Secure Fit\fArial|b0|i0;\H2.5000; - Fit with key supplied.\P \PMax Pressure: 1000kpa\PMin Pressure: 100kpa\PMax Temp: 80\fAIGDT|b0|
  1
i0;\H2.5000;~\fArial|b0|i0;\H2.5000;c
  7
STD 2.5 ARIAL
 73
     2
 44
0.999508261680603
  0
ENDBLK
  5
391
330
38F
100
AcDbEntity
  8
0
100
AcDbBlockEnd
  0
BLOCK
  5
394
330
393
100
AcDbEntity
  8
0
100
AcDbBlockBegin
  2
PRESSURE AND TEMP
 70
     0
 10
0.0
 20
0.0
 30
0.0
  3
PRESSURE AND TEMP
  1

  0
MTEXT
  5
396
330
393
100
AcDbEntity
  8
Symbols(Ram)
 62
     7
100
AcDbMText
 10
-22.5190544128418
 20
3.216175381094216
 30
0.0
 40
2.5
 41
0.0
 46
0.0
 71
     1
 72
     1
  1
MAX PRESSURE : 1000 kpa\PMAX TEMP : 80°c
  7
STD 2.5 ARIAL
 73
     2
 44
0.9442214965820312
  0
ENDBLK
  5
395
330
393
100
AcDbEntity
  8
0
100
AcDbBlockEnd
  0
BLOCK
  5
398
330
397
100
AcDbEntity
  8
0
100
AcDbBlockBegin
  2
AVAIL WELS 5 & 6 STAR
 70
     0
 10
0.0
 20
0.0
 30
0.0
  3
AVAIL WELS 5 & 6 STAR
  1

  0
MTEXT
  5
39A
330
397
100
AcDbEntity
  8
Symbols(Ram)
 62
     7
100
AcDbMText
 10
-12.80678272247314
 20
9.139472711831333
 30
0.0
 40
2.5
 41
0.0
 46
0.0
 71
     1
 72
     1
  1
\fArial|b1|i0;\H2.5000;AVAILABLE\PWELS RATING:\P \fArial|b0|i0;\H2.5000;\P5 STAR - 6 LPM\P6 STAR - 4 LPM
  7
STD 2.5 ARIAL
 73
     2
 44
0.9442214965820312
  0
ENDBLK
  5
399
330
397
100
AcDbEntity
  8
0
100
AcDbBlockEnd
  0
BLOCK
  5
39C
330
39B
100
AcDbEntity
  8
0
100
AcDbBlockBegin
  2
PRESSURE AND TEMP_LASER-ETCHED
 70
     0
 10
0.0
 20
0.0
 30
0.0
  3
PRESSURE AND TEMP_LASER-ETCHED
  1

  0
MTEXT
  5
39E
330
39B
100
AcDbEntity
  8
Symbols(Ram)
 62
     7
100
AcDbMText
 10
-38.91196489334106
 20
13.59489351511001
 30
0.0
 40
2.5
 41
0.0
 46
0.0
 71
     1
 72
     1
  3
NOTES:\P1. Maximum Static Inlet Water Pressure : 1000kpa\P2. Minimum Static Inlet Water Pressure : 100kpa\P3. Maximum Water Temperature : 80°c\P4. Supplied With Flexible Connectors.\P5. Requires a \fAIGDT|b0|i0;\H2.5000;n\fArial|b0|i0;\H2.5000;32 - 3
  1
5mm Hole.\P6. Laser-etched H and C Markings.
  7
STD 2.5 ARIAL
 73
     2
 44
0.9600000381469724
  0
ENDBLK
  5
39D
330
39B
100
AcDbEntity
  8
0
100
AcDbBlockEnd
  0
BLOCK
  5
3A0
330
39F
100
AcDbEntity
  8
0
100
AcDbBlockBegin
  2
PRESSURE AND TEMP ONLY
 70
     0
 10
0.0
 20
0.0
 30
0.0
  3
PRESSURE AND TEMP ONLY
  1

  0
MTEXT
  5
3A2
330
39F
100
AcDbEntity
  8
Symbols(Ram)
 62
     7
100
AcDbMText
 10
-38.91196489334106
 20
11.57488588243723
 30
0.0
 40
2.5
 41
0.0
 46
0.0
 71
     1
 72
     1
  3
NOTES:\P1. Maximum Static Inlet Water Pressure : 1000kpa\P2. Minimum Static Inlet Water Pressure : 100kpa\P3. Maximum Water Temperature : 80°c\P4. Supplied With Flexible Connectors.\P5. Requires a \fAIGDT|b0|i0;\H2.5000;n\fArial|b0|i0;\H2.5000;32 - 3
  1
5mm Hole.
  7
STD 2.5 ARIAL
 73
     2
 44
0.9600000381469724
  0
ENDBLK
  5
3A1
330
39F
100
AcDbEntity
  8
0
100
AcDbBlockEnd
  0
BLOCK
  5
3A4
330
3A3
100
AcDbEntity
  8
0
100
AcDbBlockBegin
  2
PRESSURE AND TEMP_LASER-ETCHED NO HOSE
 70
     0
 10
0.0
 20
0.0
 30
0.0
  3
PRESSURE AND TEMP_LASER-ETCHED NO HOSE
  1

  0
MTEXT
  5
3A6
330
3A3
100
AcDbEntity
  8
Symbols(Ram)
 62
     7
100
AcDbMText
 10
-38.91196489334106
 20
9.463405609130859
 30
0.0
 40
2.5
 41
0.0
 46
0.0
 71
     1
 72
     1
  1
NOTES:\P1. Maximum Static Inlet Water Pressure : 1000kpa\P2. Minimum Static Inlet Water Pressure : 100kpa\P3. Maximum Water Temperature : 80°c\P4. Laser-etched H and C Markings.
  7
STD 2.5 ARIAL
 73
     2
 44
0.9442214965820312
  0
ENDBLK
  5
3A5
330
3A3
100
AcDbEntity
  8
0
100
AcDbBlockEnd
  0
BLOCK
  5
3A8
330
3A7
100
AcDbEntity
  8
0
100
AcDbBlockBegin
  2
PRESSURE AND TEMP ONLY NO HOSE
 70
     0
 10
0.0
 20
0.0
 30
0.0
  3
PRESSURE AND TEMP ONLY NO HOSE
  1

  0
MTEXT
  5
3AA
330
3A7
100
AcDbEntity
  8
Symbols(Ram)
 62
     7
100
AcDbMText
 10
-38.91196489334106
 20
7.4762699380517
 30
0.0
 40
2.5
 41
0.0
 46
0.0
 71
     1
 72
     1
  1
NOTES:\P1. Maximum Static Inlet Water Pressure : 1000kpa\P2. Minimum Static Inlet Water Pressure : 100kpa\P3. Maximum Water Temperature : 80°c
  7
STD 2.5 ARIAL
 73
     2
 44
0.9442214965820312
  0
ENDBLK
  5
3A9
330
3A7
100
AcDbEntity
  8
0
100
AcDbBlockEnd
  0
BLOCK
  5
4BE
330
4BD
100
AcDbEntity
  8
0
100
AcDbBlockBegin
  2
*D48
 70
     1
 10
0.0
 20
0.0
 30
0.0
  3
*D48
  1

  0
LINE
  5
59E
330
4BD
100
AcDbEntity
  8
Dimensions(Ram)
  6
Continuous
 62
     7
440
 16777216
370
    25
100
AcDbLine
 10
203.115684641871
 20
212.1678792981052
 30
0.0
 11
155.5139789068465
 21
212.1678792981052
 31
0.0
  0
LINE
  5
59F
330
4BD
100
AcDbEntity
  8
Dimensions(Ram)
  6
Continuous
 62
     7
440
 16777216
370
    25
100
AcDbLine
 10
199.0361743904509
 20
129.1678792981052
 30
0.0
 11
155.5139789068464
 21
129.1678792981053
 31
0.0
  0
LINE
  5
5A0
330
4BD
100
AcDbEntity
  8
Dimensions(Ram)
  6
Continuous
 62
     7
440
 16777216
370
    25
100
AcDbLine
 10
158.8473122401798
 20
208.0012126314386
 30
0.0
 11
158.8473122401798
 21
133.3345459647719
 31
0.0
  0
SOLID
  5
5A1
330
4BD
100
AcDbEntity
  8
Dimensions(Ram)
  6
Continuous
 62
     7
440
 16777216
100
AcDbTrace
 10
158.1528677957354
 20
208.0012126314386
 30
0.0
 11
159.5417566846243
 21
208.0012126314386
 31
0.0
 12
158.8473122401798
 22
212.1678792981052
 32
0.0
 13
158.8473122401798
 23
212.1678792981052
 33
0.0
  0
SOLID
  5
5A2
330
4BD
100
AcDbEntity
  8
Dimensions(Ram)
  6
Continuous
 62
     7
440
 16777216
100
AcDbTrace
 10
158.1528677957353
 20
133.3345459647719
 30
0.0
 11
159.5417566846242
 21
133.3345459647719
 31
0.0
 12
158.8473122401798
 22
129.1678792981053
 32
0.0
 13
158.8473122401798
 23
129.1678792981053
 33
0.0
  0
MTEXT
  5
5A3
330
4BD
100
AcDbEntity
  8
Dimensions(Ram)
  6
Continuous
 62
     7
440
 16777216
370
    25
100
AcDbMText
 10
152.9258706510663
 20
167.665093923646
 30
0.0
 40
4.166666666666666
 41
0.0
 46
0.0
 71
     1
 72
     1
  1
\A1;85
  7
STD 2.5 ARIAL
 11
0.0000000000000001
 21
1.0
 31
0.0
 73
     1
 44
1.0
  0
POINT
  5
5A4
330
4BD
100
AcDbEntity
  8
Defpoints
  6
Continuous
 62
     0
440
 16777216
100
AcDbPoint
 10
205.2823513085377
 20
212.1678792981052
 30
0.0
  0
POINT
  5
5A5
330
4BD
100
AcDbEntity
  8
Defpoints
  6
Continuous
 62
     0
440
 16777216
100
AcDbPoint
 10
201.2028410571176
 20
129.1678792981052
 30
0.0
  0
POINT
  5
5A6
330
4BD
100
AcDbEntity
  8
Defpoints
  6
Continuous
 62
     0
440
 16777216
100
AcDbPoint
 10
158.8473122401798
 20
129.1678792981053
 30
0.0
  0
ENDBLK
  5
4BF
330
4BD
100
AcDbEntity
  8
0
100
AcDbBlockEnd
  0
BLOCK
  5
5D5
330
5D4
100
AcDbEntity
  8
0
100
AcDbBlockBegin
  2
*D49
 70
     1
 10
0.0
 20
0.0
 30
0.0
  3
*D49
  1

  0
LINE
  5
6AC
330
5D4
100
AcDbEntity
  8
Dimensions(Ram)
  6
Continuous
 62
     7
440
 16777216
370
    25
100
AcDbLine
 10
45.51684646847089
 20
162.0012126314392
 30
0.0
 11
45.51684646847088
 21
99.21738142391877
 31
0.0
  0
LINE
  5
6AD
330
5D4
100
AcDbEntity
  8
Dimensions(Ram)
  6
Continuous
 62
     7
440
 16777216
370
    25
100
AcDbLine
 10
105.5668464684704
 20
127.3012126314386
 30
0.0
 11
105.5668464684704
 21
99.21738142391877
 31
0.0
  0
LINE
  5
6AE
330
5D4
100
AcDbEntity
  8
Dimensions(Ram)
  6
Continuous
 62
     7
440
 16777216
370
    25
100
AcDbLine
 10
49.68351313513756
 20
102.5507147572521
 30
0.0
 11
101.4001798018037
 21
102.5507147572521
 31
0.0
  0
SOLID
  5
6AF
330
5D4
100
AcDbEntity
  8
Dimensions(Ram)
  6
Continuous
 62
     7
440
 16777216
100
AcDbTrace
 10
49.68351313513756
 20
103.2451592016965
 30
0.0
 11
49.68351313513756
 21
101.8562703128076
 31
0.0
 12
45.51684646847088
 22
102.5507147572521
 32
0.0
 13
45.51684646847088
 23
102.5507147572521
 33
0.0
  0
SOLID
  5
6B0
330
5D4
100
AcDbEntity
  8
Dimensions(Ram)
  6
Continuous
 62
     7
440
 16777216
100
AcDbTrace
 10
101.4001798018037
 20
103.2451592016965
 30
0.0
 11
101.4001798018037
 21
101.8562703128076
 31
0.0
 12
105.5668464684704
 22
102.5507147572521
 32
0.0
 13
105.5668464684704
 23
102.5507147572521
 33
0.0
  0
MTEXT
  5
6B1
330
5D4
100
AcDbEntity
  8
Dimensions(Ram)
  6
Continuous
 62
     7
440
 16777216
370
    25
100
AcDbMText
 10
72.55327209909669
 20
108.4721563463656
 30
0.0
 40
4.166666666666666
 41
0.0
 46
0.0
 71
     1
 72
     1
  1
\A1;60
  7
STD 2.5 ARIAL
 73
     1
 44
1.0
  0
POINT
  5
6B2
330
5D4
100
AcDbEntity
  8
Defpoints
  6
Continuous
 62
     0
440
 16777216
100
AcDbPoint
 10
45.51684646847089
 20
164.1678792981059
 30
0.0
  0
POINT
  5
6B3
330
5D4
100
AcDbEntity
  8
Defpoints
  6
Continuous
 62
     0
440
 16777216
100
AcDbPoint
 10
105.5668464684704
 20
129.4678792981052
 30
0.0
  0
POINT
  5
6B4
330
5D4
100
AcDbEntity
  8
Defpoints
  6
Continuous
 62
     0
440
 16777216
100
AcDbPoint
 10
105.5668464684704
 20
102.5507147572521
 30
0.0
  0
ENDBLK
  5
5D6
330
5D4
100
AcDbEntity
  8
0
100
AcDbBlockEnd
  0
BLOCK
  5
6B7
330
6B6
100
AcDbEntity
  8
0
100
AcDbBlockBegin
  2
*D50
 70
     1
 10
0.0
 20
0.0
 30
0.0
  3
*D50
  1

  0
LINE
  5
78F
330
6B6
100
AcDbEntity
  8
Dimensions(Ram)
  6
Continuous
 62
     7
440
 16777216
370
    25
100
AcDbLine
 10
43.35017980180423
 20
164.1678792981059
 30
0.0
 11
14.14495047011444
 21
164.1678792981059
 31
0.0
  0
LINE
  5
790
330
6B6
100
AcDbEntity
  8
Dimensions(Ram)
  6
Continuous
 62
     7
440
 16777216
370
    25
100
AcDbLine
 10
43.35017980180398
 20
224.1678792981049
 30
0.0
 11
14.14495047011445
 21
224.1678792981049
 31
0.0
  0
LINE
  5
791
330
6B6
100
AcDbEntity
  8
Dimensions(Ram)
  6
Continuous
 62
     7
440
 16777216
370
    25
100
AcDbLine
 10
17.47828380344777
 20
168.3345459647725
 30
0.0
 11
17.47828380344778
 21
220.0012126314383
 31
0.0
  0
SOLID
  5
792
330
6B6
100
AcDbEntity
  8
Dimensions(Ram)
  6
Continuous
 62
     7
440
 16777216
100
AcDbTrace
 10
16.78383935900333
 20
168.3345459647725
 30
0.0
 11
18.17272824789221
 21
168.3345459647725
 31
0.0
 12
17.47828380344777
 22
164.1678792981059
 32
0.0
 13
17.47828380344777
 23
164.1678792981059
 33
0.0
  0
SOLID
  5
793
330
6B6
100
AcDbEntity
  8
Dimensions(Ram)
  6
Continuous
 62
     7
440
 16777216
100
AcDbTrace
 10
16.78383935900334
 20
220.0012126314383
 30
0.0
 11
18.17272824789221
 21
220.0012126314383
 31
0.0
 12
17.47828380344778
 22
224.1678792981049
 32
0.0
 13
17.47828380344778
 23
224.1678792981049
 33
0.0
  0
MTEXT
  5
794
330
6B6
100
AcDbEntity
  8
Dimensions(Ram)
  6
Continuous
 62
     7
440
 16777216
370
    25
100
AcDbMText
 10
9.542403761791799
 20
188.8195089452168
 30
0.0
 40
4.166666666666666
 41
0.0
 46
0.0
 71
     1
 72
     1
  1
\A1;\fAIGDT|b0|i0;\H4.1667;\ln\fArial|b0|i0;\H4.1667;60
  7
STD 2.5 ARIAL
 11
0.0000000000000001
 21
1.0
 31
0.0
 73
     1
 44
1.0
  0
POINT
  5
795
330
6B6
100
AcDbEntity
  8
Defpoints
  6
Continuous
 62
     0
440
 16777216
100
AcDbPoint
 10
45.51684646847089
 20
164.1678792981059
 30
0.0
  0
POINT
  5
796
330
6B6
100
AcDbEntity
  8
Defpoints
  6
Continuous
 62
     0
440
 16777216
100
AcDbPoint
 10
45.51684646847064
 20
224.1678792981049
 30
0.0
  0
POINT
  5
797
330
6B6
100
AcDbEntity
  8
Defpoints
  6
Continuous
 62
     0
440
 16777216
100
AcDbPoint
 10
17.47828380344778
 20
224.1678792981049
 30
0.0
  0
ENDBLK
  5
6B8
330
6B6
100
AcDbEntity
  8
0
100
AcDbBlockEnd
  0
ENDSEC
  0
SECTION
  2
ENTITIES
  0
ARC
  5
3AB
330
71
100
AcDbEntity
  8
Visible Tangent Edges(Ram)
100
AcDbCircle
 10
435.2823513085374
 20
194.1678792981053
 30
0.0
 40
17.99999999999979
100
AcDbArc
 50
337.5327869926695
 51
202.4672130071575
  0
ARC
  5
3AC
330
71
100
AcDbEntity
  8
Visible Tangent Edges(Ram)
100
AcDbCircle
 10
435.2823513085374
 20
194.1678792981053
 30
0.0
 40
29.4999999999997
100
AcDbArc
 50
297.4548575469782
 51
242.5451424529937
  0
ARC
  5
3AD
330
71
100
AcDbEntity
  8
Visible Edges(Ram)
100
AcDbCircle
 10
435.2823513085374
 20
194.1678792981053
 30
0.0
 40
29.99999999999984
100
AcDbArc
 50
296.7543244427754
 51
243.2456755571958
  0
ARC
  5
3AE
330
71
100
AcDbEntity
  8
Visible Tangent Edges(Ram)
100
AcDbCircle
 10
205.2823513085375
 20
194.1678792981054
 30
0.0
 40
17.99999999999981
100
AcDbArc
 50
337.5327869926764
 51
202.4672130071637
  0
ARC
  5
3AF
330
71
100
AcDbEntity
  8
Visible Tangent Edges(Ram)
100
AcDbCircle
 10
205.2823513085375
 20
194.1678792981054
 30
0.0
 40
29.49999999999972
100
AcDbArc
 50
297.4548575469794
 51
242.5451424529946
  0
ARC
  5
3B0
330
71
100
AcDbEntity
  8
Visible Edges(Ram)
100
AcDbCircle
 10
205.2823513085376
 20
194.1678792981054
 30
0.0
 40
29.99999999999984
100
AcDbArc
 50
296.7543244427765
 51
243.2456755571967
  0
LINE
  5
3B1
330
71
100
AcDbEntity
  8
Visible Tangent Edges(Ram)
100
AcDbLine
 10
443.0170027117192
 20
132.5934725079253
 30
0.0
 11
443.3133655078091
 21
132.5468989843972
 31
0.0
  0
ARC
  5
3B2
330
71
100
AcDbEntity
  8
Visible Tangent Edges(Ram)
100
AcDbCircle
 10
439.3618615599446
 20
133.167879298105
 30
0.0
 40
3.700000000000026
100
AcDbArc
 50
270.0
 51
351.0689897301383
  0
LINE
  5
3B3
330
71
100
AcDbEntity
  8
Visible Tangent Edges(Ram)
100
AcDbLine
 10
439.3618615599446
 20
129.167879298105
 30
0.0
 11
439.3618615599446
 21
129.4678792981051
 31
0.0
  0
ARC
  5
3B4
330
71
100
AcDbEntity
  8
Visible Edges(Ram)
100
AcDbCircle
 10
439.3618615599446
 20
133.167879298105
 30
0.0
 40
4.000000000000011
100
AcDbArc
 50
270.0
 51
351.0689897301385
  0
ARC
  5
3B5
330
71
100
AcDbEntity
  8
Visible Tangent Edges(Ram)
100
AcDbCircle
 10
431.2028410571171
 20
133.167879298105
 30
0.0
 40
3.699999999999998
100
AcDbArc
 50
188.9310102698614
 51
270.0
  0
LINE
  5
3B6
330
71
100
AcDbEntity
  8
Visible Tangent Edges(Ram)
100
AcDbLine
 10
431.2028410571171
 20
129.4678792981051
 30
0.0
 11
431.2028410571174
 21
129.167879298105
 31
0.0
  0
LINE
  5
3B7
330
71
100
AcDbEntity
  8
Visible Tangent Edges(Ram)
100
AcDbLine
 10
427.251337109253
 20
132.5468989843972
 30
0.0
 11
427.5476999053427
 21
132.5934725079253
 31
0.0
  0
ARC
  5
3B8
330
71
100
AcDbEntity
  8
Visible Edges(Ram)
100
AcDbCircle
 10
431.2028410571174
 20
133.167879298105
 30
0.0
 40
4.00000000000002
100
AcDbArc
 50
188.9310102698618
 51
270.0
  0
POLYLINE
  5
3B9
330
71
100
AcDbEntity
  8
Visible Edges(Ram)
100
AcDb2dPolyline
 66
     1
 10
0.0
 20
0.0
 30
0.0
 70
   128
  0
VERTEX
  5
3BA
330
3B9
100
AcDbEntity
  8
Visible Edges(Ram)
100
AcDbVertex
100
AcDb2dVertex
 10
435.8682430798475
 20
141.166389658823
 30
0.0
  0
VERTEX
  5
3BB
330
3B9
100
AcDbEntity
  8
Visible Edges(Ram)
100
AcDbVertex
100
AcDb2dVertex
 10
435.7045419032042
 20
141.1620265988254
 30
0.0
  0
VERTEX
  5
3BD
330
3B9
100
AcDbEntity
  8
Visible Edges(Ram)
100
AcDbVertex
100
AcDb2dVertex
 10
435.5455530697768
 20
141.1489421872043
 30
0.0
  0
VERTEX
  5
3BE
330
3B9
100
AcDbEntity
  8
Visible Edges(Ram)
100
AcDbVertex
100
AcDb2dVertex
 10
435.3912777716582
 20
141.1271316555881
 30
0.0
  0
VERTEX
  5
3BF
330
3B9
100
AcDbEntity
  8
Visible Edges(Ram)
100
AcDbVertex
100
AcDb2dVertex
 10
435.2417148167555
 20
141.0965950039768
 30
0.0
  0
VERTEX
  5
3C0
330
3B9
100
AcDbEntity
  8
Visible Edges(Ram)
100
AcDbVertex
100
AcDb2dVertex
 10
435.0968653971617
 20
141.0573370007419
 30
0.0
  0
VERTEX
  5
3C1
330
3B9
100
AcDbEntity
  8
Visible Edges(Ram)
100
AcDbVertex
100
AcDb2dVertex
 10
434.9567289168303
 20
141.0093576458836
 30
0.0
  0
VERTEX
  5
3C2
330
3B9
100
AcDbEntity
  8
Visible Edges(Ram)
100
AcDbVertex
100
AcDb2dVertex
 10
434.8213053757612
 20
140.9526474026584
 30
0.0
  0
VERTEX
  5
3C3
330
3B9
100
AcDbEntity
  8
Visible Edges(Ram)
100
AcDbVertex
100
AcDb2dVertex
 10
434.6905947739544
 20
140.8872205761814
 30
0.0
  0
VERTEX
  5
3C4
330
3B9
100
AcDbEntity
  8
Visible Edges(Ram)
100
AcDbVertex
100
AcDb2dVertex
 10
434.5645971114104
 20
140.8130628613376
 30
0.0
  0
VERTEX
  5
3C5
330
3B9
100
AcDbEntity
  8
Visible Edges(Ram)
100
AcDbVertex
100
AcDb2dVertex
 10
434.4433123881285
 20
140.7301837948704
 30
0.0
  0
VERTEX
  5
3C6
330
3B9
100
AcDbEntity
  8
Visible Edges(Ram)
100
AcDbVertex
100
AcDb2dVertex
 10
434.3267412001554
 20
140.6385833767795
 30
0.0
  0
VERTEX
  5
3C7
330
3B9
100
AcDbEntity
  8
Visible Edges(Ram)
100
AcDbVertex
100
AcDb2dVertex
 10
434.2148823553984
 20
140.5382568386936
 30
0.0
  0
VERTEX
  5
3C8
330
3B9
100
AcDbEntity
  8
Visible Edges(Ram)
100
AcDbVertex
100
AcDb2dVertex
 10
434.1099430138533
 20
140.4313451794529
 30
0.0
  0
VERTEX
  5
3C9
330
3B9
100
AcDbEntity
  8
Visible Edges(Ram)
100
AcDbVertex
100
AcDb2dVertex
 10
434.0141285473769
 20
140.3199893978977
 30
0.0
  0
VERTEX
  5
3CA
330
3B9
100
AcDbEntity
  8
Visible Edges(Ram)
100
AcDbVertex
100
AcDb2dVertex
 10
433.9274395520155
 20
140.2041847256565
 30
0.0
  0
VERTEX
  5
3CB
330
3B9
100
AcDbEntity
  8
Visible Edges(Ram)
100
AcDbVertex
100
AcDb2dVertex
 10
433.8498754317228
 20
140.0839359311008
 30
0.0
  0
VERTEX
  5
3CC
330
3B9
100
AcDbEntity
  8
Visible Edges(Ram)
100
AcDbVertex
100
AcDb2dVertex
 10
433.7814367825453
 20
139.9592430142307
 30
0.0
  0
VERTEX
  5
3CD
330
3B9
100
AcDbEntity
  8
Visible Edges(Ram)
100
AcDbVertex
100
AcDb2dVertex
 10
433.7221230084363
 20
139.8301012066745
 30
0.0
  0
VERTEX
  5
3CE
330
3B9
100
AcDbEntity
  8
Visible Edges(Ram)
100
AcDbVertex
100
AcDb2dVertex
 10
433.6719347054426
 20
139.6965152768039
 30
0.0
  0
VERTEX
  5
3CF
330
3B9
100
AcDbEntity
  8
Visible Edges(Ram)
100
AcDbVertex
100
AcDb2dVertex
 10
433.6308712775174
 20
139.5584852246189
 30
0.0
  0
VERTEX
  5
3D0
330
3B9
100
AcDbEntity
  8
Visible Edges(Ram)
100
AcDbVertex
100
AcDb2dVertex
 10
433.5989333207074
 20
139.4160110501194
 30
0.0
  0
VERTEX
  5
3D1
330
3B9
100
AcDbEntity
  8
Visible Edges(Ram)
100
AcDbVertex
100
AcDb2dVertex
 10
433.5761202389662
 20
139.2690879849338
 30
0.0
  0
VERTEX
  5
3D2
330
3B9
100
AcDbEntity
  8
Visible Edges(Ram)
100
AcDbVertex
100
AcDb2dVertex
 10
433.56243262834
 20
139.1177207974338
 30
0.0
  0
VERTEX
  5
3D3
330
3B9
100
AcDbEntity
  8
Visible Edges(Ram)
100
AcDbVertex
100
AcDb2dVertex
 10
433.5578698927823
 20
138.9619094876193
 30
0.0
  0
SEQEND
  5
3BC
330
3B9
100
AcDbEntity
  8
Visible Edges(Ram)
  0
POLYLINE
  5
3D4
330
71
100
AcDbEntity
  8
Visible Edges(Ram)
100
AcDb2dPolyline
 66
     1
 10
0.0
 20
0.0
 30
0.0
 70
   128
  0
VERTEX
  5
3D5
330
3D4
100
AcDbEntity
  8
Visible Edges(Ram)
100
AcDbVertex
100
AcDb2dVertex
 10
433.5578698927823
 20
138.9619094876193
 30
0.0
  0
VERTEX
  5
3D6
330
3D4
100
AcDbEntity
  8
Visible Edges(Ram)
100
AcDbVertex
100
AcDb2dVertex
 10
433.5623658711378
 20
138.8054258374118
 30
0.0
  0
VERTEX
  5
3D8
330
3D4
100
AcDbEntity
  8
Visible Edges(Ram)
100
AcDbVertex
100
AcDb2dVertex
 10
433.5758526141112
 20
138.6536581066989
 30
0.0
  0
VERTEX
  5
3D9
330
3D4
100
AcDbEntity
  8
Visible Edges(Ram)
100
AcDbVertex
100
AcDb2dVertex
 10
433.5983313137953
 20
138.5066015271091
 30
0.0
  0
VERTEX
  5
3DA
330
3D4
100
AcDbEntity
  8
Visible Edges(Ram)
100
AcDbVertex
100
AcDb2dVertex
 10
433.6298019701902
 20
138.3642608670139
 30
0.0
  0
VERTEX
  5
3DB
330
3D4
100
AcDbEntity
  8
Visible Edges(Ram)
100
AcDbVertex
100
AcDb2dVertex
 10
433.6702633912032
 20
138.2266313580418
 30
0.0
  0
VERTEX
  5
3DC
330
3D4
100
AcDbEntity
  8
Visible Edges(Ram)
100
AcDbVertex
100
AcDb2dVertex
 10
433.7197161728804
 20
138.0937130001926
 30
0.0
  0
VERTEX
  5
3DD
330
3D4
100
AcDbEntity
  8
Visible Edges(Ram)
100
AcDbVertex
100
AcDb2dVertex
 10
433.7781609112684
 20
137.9655105618381
 30
0.0
  0
VERTEX
  5
3DE
330
3D4
100
AcDbEntity
  8
Visible Edges(Ram)
100
AcDbVertex
100
AcDb2dVertex
 10
433.8455970103209
 20
137.8420192746067
 30
0.0
  0
VERTEX
  5
3DF
330
3D4
100
AcDbEntity
  8
Visible Edges(Ram)
100
AcDbVertex
100
AcDb2dVertex
 10
433.9220244700377
 20
137.7232391384983
 30
0.0
  0
VERTEX
  5
3E0
330
3D4
100
AcDbEntity
  8
Visible Edges(Ram)
100
AcDbVertex
100
AcDb2dVertex
 10
434.0074432904188
 20
137.6091749218845
 30
0.0
  0
VERTEX
  5
3E1
330
3D4
100
AcDbEntity
  8
Visible Edges(Ram)
100
AcDbVertex
100
AcDb2dVertex
 10
434.1018540675109
 20
137.4998218563938
 30
0.0
  0
VERTEX
  5
3E2
330
3D4
100
AcDbEntity
  8
Visible Edges(Ram)
100
AcDbVertex
100
AcDb2dVertex
 10
434.2052556092206
 20
137.3951847103977
 30
0.0
  0
VERTEX
  5
3E3
330
3D4
100
AcDbEntity
  8
Visible Edges(Ram)
100
AcDbVertex
100
AcDb2dVertex
 10
434.3156434113446
 20
137.2971660641574
 30
0.0
  0
VERTEX
  5
3E4
330
3D4
100
AcDbEntity
  8
Visible Edges(Ram)
100
AcDbVertex
100
AcDb2dVertex
 10
434.4310117775862
 20
137.2076684979343
 30
0.0
  0
VERTEX
  5
3E5
330
3D4
100
AcDbEntity
  8
Visible Edges(Ram)
100
AcDbVertex
100
AcDb2dVertex
 10
434.5513607079451
 20
137.1266967800998
 30
0.0
  0
VERTEX
  5
3E6
330
3D4
100
AcDbEntity
  8
Visible Edges(Ram)
100
AcDbVertex
100
AcDb2dVertex
 10
434.6766896063749
 20
137.0542461422824
 30
0.0
  0
VERTEX
  5
3E7
330
3D4
100
AcDbEntity
  8
Visible Edges(Ram)
100
AcDbVertex
100
AcDb2dVertex
 10
434.8069990689221
 20
136.9903165844821
 30
0.0
  0
VERTEX
  5
3E8
330
3D4
100
AcDbEntity
  8
Visible Edges(Ram)
100
AcDbVertex
100
AcDb2dVertex
 10
434.942289095587
 20
136.9349176434421
 30
0.0
  0
VERTEX
  5
3E9
330
3D4
100
AcDbEntity
  8
Visible Edges(Ram)
100
AcDbVertex
100
AcDb2dVertex
 10
435.0825590903228
 20
136.8880350140476
 30
0.0
  0
VERTEX
  5
3EA
330
3D4
100
AcDbEntity
  8
Visible Edges(Ram)
100
AcDbVertex
100
AcDb2dVertex
 10
435.2278102452223
 20
136.8496830014133
 30
0.0
  0
VERTEX
  5
3EB
330
3D4
100
AcDbEntity
  8
Visible Edges(Ram)
100
AcDbVertex
100
AcDb2dVertex
 10
435.3780407721465
 20
136.8198473004245
 30
0.0
  0
VERTEX
  5
3EC
330
3D4
100
AcDbEntity
  8
Visible Edges(Ram)
100
AcDbVertex
100
AcDb2dVertex
 10
435.5332524592344
 20
136.7985374478244
 30
0.0
  0
VERTEX
  5
3ED
330
3D4
100
AcDbEntity
  8
Visible Edges(Ram)
100
AcDbVertex
100
AcDb2dVertex
 10
435.6934447104399
 20
136.785753443613
 30
0.0
  0
VERTEX
  5
3EE
330
3D4
100
AcDbEntity
  8
Visible Edges(Ram)
100
AcDbVertex
100
AcDb2dVertex
 10
435.8586169297163
 20
136.7814905194187
 30
0.0
  0
SEQEND
  5
3D7
330
3D4
100
AcDbEntity
  8
Visible Edges(Ram)
  0
POLYLINE
  5
3EF
330
71
100
AcDbEntity
  8
Visible Edges(Ram)
100
AcDb2dPolyline
 66
     1
 10
0.0
 20
0.0
 30
0.0
 70
   128
  0
VERTEX
  5
3F0
330
3EF
100
AcDbEntity
  8
Visible Edges(Ram)
100
AcDbVertex
100
AcDb2dVertex
 10
435.8586169297163
 20
136.7814905194187
 30
0.0
  0
VERTEX
  5
3F1
330
3EF
100
AcDbEntity
  8
Visible Edges(Ram)
100
AcDbVertex
100
AcDb2dVertex
 10
435.946375232405
 20
136.7826206234836
 30
0.0
  0
VERTEX
  5
3F3
330
3EF
100
AcDbEntity
  8
Visible Edges(Ram)
100
AcDbVertex
100
AcDb2dVertex
 10
436.0339672381345
 20
136.7860061673068
 30
0.0
  0
VERTEX
  5
3F4
330
3EF
100
AcDbEntity
  8
Visible Edges(Ram)
100
AcDbVertex
100
AcDb2dVertex
 10
436.1213917548123
 20
136.7916471508884
 30
0.0
  0
VERTEX
  5
3F5
330
3EF
100
AcDbEntity
  8
Visible Edges(Ram)
100
AcDbVertex
100
AcDb2dVertex
 10
436.2086487824385
 20
136.7995435742282
 30
0.0
  0
VERTEX
  5
3F6
330
3EF
100
AcDbEntity
  8
Visible Edges(Ram)
100
AcDbVertex
100
AcDb2dVertex
 10
436.2957395131056
 20
136.8096954373264
 30
0.0
  0
VERTEX
  5
3F7
330
3EF
100
AcDbEntity
  8
Visible Edges(Ram)
100
AcDbVertex
100
AcDb2dVertex
 10
436.3826621586745
 20
136.8221027401828
 30
0.0
  0
VERTEX
  5
3F8
330
3EF
100
AcDbEntity
  8
Visible Edges(Ram)
100
AcDbVertex
100
AcDb2dVertex
 10
436.4694185072844
 20
136.8367702511691
 30
0.0
  0
VERTEX
  5
3F9
330
3EF
100
AcDbEntity
  8
Visible Edges(Ram)
100
AcDbVertex
100
AcDb2dVertex
 10
436.5560073668425
 20
136.8536932019138
 30
0.0
  0
VERTEX
  5
3FA
330
3EF
100
AcDbEntity
  8
Visible Edges(Ram)
100
AcDbVertex
100
AcDb2dVertex
 10
436.6424287373487
 20
136.8728715924167
 30
0.0
  0
VERTEX
  5
3FB
330
3EF
100
AcDbEntity
  8
Visible Edges(Ram)
100
AcDbVertex
100
AcDb2dVertex
 10
436.7286838108961
 20
136.8943054226779
 30
0.0
  0
VERTEX
  5
3FC
330
3EF
100
AcDbEntity
  8
Visible Edges(Ram)
100
AcDbVertex
100
AcDb2dVertex
 10
436.8147707993451
 20
136.9179946926975
 30
0.0
  0
VERTEX
  5
3FD
330
3EF
100
AcDbEntity
  8
Visible Edges(Ram)
100
AcDbVertex
100
AcDb2dVertex
 10
436.9006914908355
 20
136.9439394024753
 30
0.0
  0
VERTEX
  5
3FE
330
3EF
100
AcDbEntity
  8
Visible Edges(Ram)
100
AcDbVertex
100
AcDb2dVertex
 10
436.9864446932738
 20
136.972144320383
 30
0.0
  0
VERTEX
  5
3FF
330
3EF
100
AcDbEntity
  8
Visible Edges(Ram)
100
AcDbVertex
100
AcDb2dVertex
 10
437.0720310027068
 20
137.0026046780491
 30
0.0
  0
VERTEX
  5
400
330
3EF
100
AcDbEntity
  8
Visible Edges(Ram)
100
AcDbVertex
100
AcDb2dVertex
 10
437.1574498230878
 20
137.0353157071018
 30
0.0
  0
VERTEX
  5
401
330
3EF
100
AcDbEntity
  8
Visible Edges(Ram)
100
AcDbVertex
100
AcDb2dVertex
 10
437.2427017504636
 20
137.0702869442844
 30
0.0
  0
VERTEX
  5
402
330
3EF
100
AcDbEntity
  8
Visible Edges(Ram)
100
AcDbVertex
100
AcDb2dVertex
 10
437.3277861887877
 20
137.1075183895969
 30
0.0
  0
VERTEX
  5
403
330
3EF
100
AcDbEntity
  8
Visible Edges(Ram)
100
AcDbVertex
100
AcDb2dVertex
 10
437.4127043301528
 20
137.1470005062961
 30
0.0
  0
VERTEX
  5
404
330
3EF
100
AcDbEntity
  8
Visible Edges(Ram)
100
AcDbVertex
100
AcDb2dVertex
 10
437.4974537903731
 20
137.1887428311252
 30
0.0
  0
VERTEX
  5
405
330
3EF
100
AcDbEntity
  8
Visible Edges(Ram)
100
AcDbVertex
100
AcDb2dVertex
 10
437.5820375496808
 20
137.232735827341
 30
0.0
  0
VERTEX
  5
406
330
3EF
100
AcDbEntity
  8
Visible Edges(Ram)
100
AcDbVertex
100
AcDb2dVertex
 10
437.6664544159833
 20
137.2789890316867
 30
0.0
  0
VERTEX
  5
407
330
3EF
100
AcDbEntity
  8
Visible Edges(Ram)
100
AcDbVertex
100
AcDb2dVertex
 10
437.7507031971876
 20
137.3274976757907
 30
0.0
  0
VERTEX
  5
408
330
3EF
100
AcDbEntity
  8
Visible Edges(Ram)
100
AcDbVertex
100
AcDb2dVertex
 10
437.8347850853865
 20
137.378261759653
 30
0.0
  0
VERTEX
  5
409
330
3EF
100
AcDbEntity
  8
Visible Edges(Ram)
100
AcDbVertex
100
AcDb2dVertex
 10
437.9187000805799
 20
137.4312860516452
 30
0.0
  0
SEQEND
  5
3F2
330
3EF
100
AcDbEntity
  8
Visible Edges(Ram)
  0
LINE
  5
40A
330
71
100
AcDbEntity
  8
Visible Edges(Ram)
100
AcDbLine
 10
437.9186996940648
 20
137.4312850980222
 30
0.0
 11
437.9186996940648
 21
136.5167623027605
 31
0.0
  0
POLYLINE
  5
40B
330
71
100
AcDbEntity
  8
Visible Edges(Ram)
100
AcDb2dPolyline
 66
     1
 10
0.0
 20
0.0
 30
0.0
 70
   128
  0
VERTEX
  5
40C
330
40B
100
AcDbEntity
  8
Visible Edges(Ram)
100
AcDbVertex
100
AcDb2dVertex
 10
437.9187000805799
 20
136.5167600659275
 30
0.0
  0
VERTEX
  5
40D
330
40B
100
AcDbEntity
  8
Visible Edges(Ram)
100
AcDbVertex
100
AcDb2dVertex
 10
437.8420043999617
 20
136.4759141949557
 30
0.0
  0
VERTEX
  5
40F
330
40B
100
AcDbEntity
  8
Visible Edges(Ram)
100
AcDbVertex
100
AcDb2dVertex
 10
437.7643407399123
 20
136.4368087796115
 30
0.0
  0
VERTEX
  5
410
330
40B
100
AcDbEntity
  8
Visible Edges(Ram)
100
AcDbVertex
100
AcDb2dVertex
 10
437.6857067162458
 20
136.3994390515231
 30
0.0
  0
VERTEX
  5
411
330
40B
100
AcDbEntity
  8
Visible Edges(Ram)
100
AcDbVertex
100
AcDb2dVertex
 10
437.6061035210555
 20
136.3638050106906
 30
0.0
  0
VERTEX
  5
412
330
40B
100
AcDbEntity
  8
Visible Edges(Ram)
100
AcDbVertex
100
AcDb2dVertex
 10
437.5255323464338
 20
136.3299114254856
 30
0.0
  0
VERTEX
  5
413
330
40B
100
AcDbEntity
  8
Visible Edges(Ram)
100
AcDbVertex
100
AcDb2dVertex
 10
437.4439896161025
 20
136.2977582959079
 30
0.0
  0
VERTEX
  5
414
330
40B
100
AcDbEntity
  8
Visible Edges(Ram)
100
AcDbVertex
100
AcDb2dVertex
 10
437.3614789063398
 20
136.2673408535861
 30
0.0
  0
VERTEX
  5
415
330
40B
100
AcDbEntity
  8
Visible Edges(Ram)
100
AcDbVertex
100
AcDb2dVertex
 10
437.2779990250531
 20
136.2386638668918
 30
0.0
  0
VERTEX
  5
416
330
40B
100
AcDbEntity
  8
Visible Edges(Ram)
100
AcDbVertex
100
AcDb2dVertex
 10
437.1935493761961
 20
136.2117225674533
 30
0.0
  0
VERTEX
  5
417
330
40B
100
AcDbEntity
  8
Visible Edges(Ram)
100
AcDbVertex
100
AcDb2dVertex
 10
437.1081305558149
 20
136.1865169552707
 30
0.0
  0
VERTEX
  5
418
330
40B
100
AcDbEntity
  8
Visible Edges(Ram)
100
AcDbVertex
100
AcDb2dVertex
 10
437.0217419678633
 20
136.1630517987155
 30
0.0
  0
VERTEX
  5
419
330
40B
100
AcDbEntity
  8
Visible Edges(Ram)
100
AcDbVertex
100
AcDb2dVertex
 10
436.9343842083876
 20
136.1413270977878
 30
0.0
  0
VERTEX
  5
41A
330
40B
100
AcDbEntity
  8
Visible Edges(Ram)
100
AcDbVertex
100
AcDb2dVertex
 10
436.8460572773878
 20
136.1213380841159
 30
0.0
  0
VERTEX
  5
41B
330
40B
100
AcDbEntity
  8
Visible Edges(Ram)
100
AcDbVertex
100
AcDb2dVertex
 10
436.7567611748641
 20
136.1030895260715
 30
0.0
  0
VERTEX
  5
41C
330
40B
100
AcDbEntity
  8
Visible Edges(Ram)
100
AcDbVertex
100
AcDb2dVertex
 10
436.6664953047696
 20
136.0865766552829
 30
0.0
  0
VERTEX
  5
41D
330
40B
100
AcDbEntity
  8
Visible Edges(Ram)
100
AcDbVertex
100
AcDb2dVertex
 10
436.5752602631514
 20
136.0717994717502
 30
0.0
  0
VERTEX
  5
41E
330
40B
100
AcDbEntity
  8
Visible Edges(Ram)
100
AcDbVertex
100
AcDb2dVertex
 10
436.483056050009
 20
136.0587675122165
 30
0.0
  0
VERTEX
  5
41F
330
40B
100
AcDbEntity
  8
Visible Edges(Ram)
100
AcDbVertex
100
AcDb2dVertex
 10
436.3898820692961
 20
136.0474664715671
 30
0.0
  0
VERTEX
  5
420
330
40B
100
AcDbEntity
  8
Visible Edges(Ram)
100
AcDbVertex
100
AcDb2dVertex
 10
436.2957395131056
 20
136.037905886545
 30
0.0
  0
VERTEX
  5
421
330
40B
100
AcDbEntity
  8
Visible Edges(Ram)
100
AcDbVertex
100
AcDb2dVertex
 10
436.2006271893446
 20
136.0300857571506
 30
0.0
  0
VERTEX
  5
422
330
40B
100
AcDbEntity
  8
Visible Edges(Ram)
100
AcDbVertex
100
AcDb2dVertex
 10
436.1045450980131
 20
136.0240013150119
 30
0.0
  0
VERTEX
  5
423
330
40B
100
AcDbEntity
  8
Visible Edges(Ram)
100
AcDbVertex
100
AcDb2dVertex
 10
436.0074938351576
 20
136.0196573285007
 30
0.0
  0
VERTEX
  5
424
330
40B
100
AcDbEntity
  8
Visible Edges(Ram)
100
AcDbVertex
100
AcDb2dVertex
 10
435.9094739968244
 20
136.0170490292453
 30
0.0
  0
VERTEX
  5
425
330
40B
100
AcDbEntity
  8
Visible Edges(Ram)
100
AcDbVertex
100
AcDb2dVertex
 10
435.8104837948745
 20
136.0161811856174
 30
0.0
  0
SEQEND
  5
40E
330
40B
100
AcDbEntity
  8
Visible Edges(Ram)
  0
POLYLINE
  5
426
330
71
100
AcDbEntity
  8
Visible Edges(Ram)
100
AcDb2dPolyline
 66
     1
 10
0.0
 20
0.0
 30
0.0
 70
   128
  0
VERTEX
  5
427
330
426
100
AcDbEntity
  8
Visible Edges(Ram)
100
AcDbVertex
100
AcDb2dVertex
 10
435.8104837948745
 20
136.0161811856174
 30
0.0
  0
VERTEX
  5
428
330
426
100
AcDbEntity
  8
Visible Edges(Ram)
100
AcDbVertex
100
AcDb2dVertex
 10
435.5720389897292
 20
136.0222751644992
 30
0.0
  0
VERTEX
  5
42A
330
426
100
AcDbEntity
  8
Visible Edges(Ram)
100
AcDbVertex
100
AcDb2dVertex
 10
435.3428442294066
 20
136.0405475644016
 30
0.0
  0
VERTEX
  5
42B
330
426
100
AcDbEntity
  8
Visible Edges(Ram)
100
AcDbVertex
100
AcDb2dVertex
 10
435.1228995139067
 20
136.0710079220676
 30
0.0
  0
VERTEX
  5
42C
330
426
100
AcDbEntity
  8
Visible Edges(Ram)
100
AcDbVertex
100
AcDb2dVertex
 10
434.9122060353225
 20
136.1136514691257
 30
0.0
  0
VERTEX
  5
42D
330
426
100
AcDbEntity
  8
Visible Edges(Ram)
100
AcDbVertex
100
AcDb2dVertex
 10
434.7107626015608
 20
136.1684782055759
 30
0.0
  0
VERTEX
  5
42E
330
426
100
AcDbEntity
  8
Visible Edges(Ram)
100
AcDbVertex
100
AcDb2dVertex
 10
434.5185704047148
 20
136.2354881314182
 30
0.0
  0
VERTEX
  5
42F
330
426
100
AcDbEntity
  8
Visible Edges(Ram)
100
AcDbVertex
100
AcDb2dVertex
 10
434.3356282526912
 20
136.3146812466525
 30
0.0
  0
VERTEX
  5
430
330
426
100
AcDbEntity
  8
Visible Edges(Ram)
100
AcDbVertex
100
AcDb2dVertex
 10
434.1619361454909
 20
136.406057551279
 30
0.0
  0
VERTEX
  5
431
330
426
100
AcDbEntity
  8
Visible Edges(Ram)
100
AcDbVertex
100
AcDb2dVertex
 10
433.9972693736021
 20
136.5081531552219
 30
0.0
  0
VERTEX
  5
432
330
426
100
AcDbEntity
  8
Visible Edges(Ram)
100
AcDbVertex
100
AcDb2dVertex
 10
433.8414020354216
 20
136.6194946316623
 30
0.0
  0
VERTEX
  5
433
330
426
100
AcDbEntity
  8
Visible Edges(Ram)
100
AcDbVertex
100
AcDb2dVertex
 10
433.6943341309493
 20
136.7400915173434
 30
0.0
  0
VERTEX
  5
434
330
426
100
AcDbEntity
  8
Visible Edges(Ram)
100
AcDbVertex
100
AcDb2dVertex
 10
433.5560650641386
 20
136.8699342755222
 30
0.0
  0
VERTEX
  5
435
330
426
100
AcDbEntity
  8
Visible Edges(Ram)
100
AcDbVertex
100
AcDb2dVertex
 10
433.4265954310362
 20
137.0090324429416
 30
0.0
  0
VERTEX
  5
436
330
426
100
AcDbEntity
  8
Visible Edges(Ram)
100
AcDbVertex
100
AcDb2dVertex
 10
433.3059246355954
 20
137.1573812512302
 30
0.0
  0
VERTEX
  5
437
330
426
100
AcDbEntity
  8
Visible Edges(Ram)
100
AcDbVertex
100
AcDb2dVertex
 10
433.1940538699095
 20
137.3149759320163
 30
0.0
  0
VERTEX
  5
438
330
426
100
AcDbEntity
  8
Visible Edges(Ram)
100
AcDbVertex
100
AcDb2dVertex
 10
433.0909819418852
 20
137.4818260220432
 30
0.0
  0
VERTEX
  5
439
330
426
100
AcDbEntity
  8
Visible Edges(Ram)
100
AcDbVertex
100
AcDb2dVertex
 10
432.9984767252866
 20
137.6549894360447
 30
0.0
  0
VERTEX
  5
43A
330
426
100
AcDbEntity
  8
Visible Edges(Ram)
100
AcDbVertex
100
AcDb2dVertex
 10
432.9183054978313
 20
137.8315383938694
 30
0.0
  0
VERTEX
  5
43B
330
426
100
AcDbEntity
  8
Visible Edges(Ram)
100
AcDbVertex
100
AcDb2dVertex
 10
432.8504682595196
 20
138.0114728955173
 30
0.0
  0
VERTEX
  5
43C
330
426
100
AcDbEntity
  8
Visible Edges(Ram)
100
AcDbVertex
100
AcDb2dVertex
 10
432.7949656063976
 20
138.1947929409885
 30
0.0
  0
VERTEX
  5
43D
330
426
100
AcDbEntity
  8
Visible Edges(Ram)
100
AcDbVertex
100
AcDb2dVertex
 10
432.7517963463728
 20
138.3814937619113
 30
0.0
  0
VERTEX
  5
43E
330
426
100
AcDbEntity
  8
Visible Edges(Ram)
100
AcDbVertex
100
AcDb2dVertex
 10
432.7209610754912
 20
138.5715801266574
 30
0.0
  0
VERTEX
  5
43F
330
426
100
AcDbEntity
  8
Visible Edges(Ram)
100
AcDbVertex
100
AcDb2dVertex
 10
432.7024603897993
 20
138.7650520352268
 30
0.0
  0
VERTEX
  5
440
330
426
100
AcDbEntity
  8
Visible Edges(Ram)
100
AcDbVertex
100
AcDb2dVertex
 10
432.6962930972042
 20
138.9619094876193
 30
0.0
  0
SEQEND
  5
429
330
426
100
AcDbEntity
  8
Visible Edges(Ram)
  0
POLYLINE
  5
441
330
71
100
AcDbEntity
  8
Visible Edges(Ram)
100
AcDb2dPolyline
 66
     1
 10
0.0
 20
0.0
 30
0.0
 70
   128
  0
VERTEX
  5
442
330
441
100
AcDbEntity
  8
Visible Edges(Ram)
100
AcDbVertex
100
AcDb2dVertex
 10
432.6962930972042
 20
138.9619094876193
 30
0.0
  0
VERTEX
  5
443
330
441
100
AcDbEntity
  8
Visible Edges(Ram)
100
AcDbVertex
100
AcDb2dVertex
 10
432.7025605256023
 20
139.1700965908908
 30
0.0
  0
VERTEX
  5
445
330
441
100
AcDbEntity
  8
Visible Edges(Ram)
100
AcDbVertex
100
AcDb2dVertex
 10
432.7213622147505
 20
139.372709467783
 30
0.0
  0
VERTEX
  5
446
330
441
100
AcDbEntity
  8
Visible Edges(Ram)
100
AcDbVertex
100
AcDb2dVertex
 10
432.7526987606947
 20
139.5697338131809
 30
0.0
  0
VERTEX
  5
447
330
441
100
AcDbEntity
  8
Visible Edges(Ram)
100
AcDbVertex
100
AcDb2dVertex
 10
432.7965695673888
 20
139.7611791638279
 30
0.0
  0
VERTEX
  5
448
330
441
100
AcDbEntity
  8
Visible Edges(Ram)
100
AcDbVertex
100
AcDb2dVertex
 10
432.852975230879
 20
139.9470407513523
 30
0.0
  0
VERTEX
  5
449
330
441
100
AcDbEntity
  8
Visible Edges(Ram)
100
AcDbVertex
100
AcDb2dVertex
 10
432.9219157511656
 20
140.1273233441257
 30
0.0
  0
VERTEX
  5
44A
330
441
100
AcDbEntity
  8
Visible Edges(Ram)
100
AcDbVertex
100
AcDb2dVertex
 10
433.003390532202
 20
140.3020221737766
 30
0.0
  0
VERTEX
  5
44B
330
441
100
AcDbEntity
  8
Visible Edges(Ram)
100
AcDbVertex
100
AcDb2dVertex
 10
433.097399573988
 20
140.4711372403049
 30
0.0
  0
VERTEX
  5
44C
330
441
100
AcDbEntity
  8
Visible Edges(Ram)
100
AcDbVertex
100
AcDb2dVertex
 10
433.2039434725706
 20
140.6346733120823
 30
0.0
  0
VERTEX
  5
44D
330
441
100
AcDbEntity
  8
Visible Edges(Ram)
100
AcDbVertex
100
AcDb2dVertex
 10
433.3230222279492
 20
140.7926256207371
 30
0.0
  0
VERTEX
  5
44E
330
441
100
AcDbEntity
  8
Visible Edges(Ram)
100
AcDbVertex
100
AcDb2dVertex
 10
433.4546352440779
 20
140.9449941662693
 30
0.0
  0
VERTEX
  5
44F
330
441
100
AcDbEntity
  8
Visible Edges(Ram)
100
AcDbVertex
100
AcDb2dVertex
 10
433.5987825209563
 20
141.0917837170505
 30
0.0
  0
VERTEX
  5
450
330
441
100
AcDbEntity
  8
Visible Edges(Ram)
100
AcDbVertex
100
AcDb2dVertex
 10
433.7521226221983
 20
141.2297803906345
 30
0.0
  0
VERTEX
  5
451
330
441
100
AcDbEntity
  8
Visible Edges(Ram)
100
AcDbVertex
100
AcDb2dVertex
 10
433.9113117272321
 20
141.3557798413181
 30
0.0
  0
VERTEX
  5
452
330
441
100
AcDbEntity
  8
Visible Edges(Ram)
100
AcDbVertex
100
AcDb2dVertex
 10
434.0763504321043
 20
141.4697773007297
 30
0.0
  0
VERTEX
  5
453
330
441
100
AcDbEntity
  8
Visible Edges(Ram)
100
AcDbVertex
100
AcDb2dVertex
 10
434.2472381407683
 20
141.5717727688694
 30
0.0
  0
VERTEX
  5
454
330
441
100
AcDbEntity
  8
Visible Edges(Ram)
100
AcDbVertex
100
AcDb2dVertex
 10
434.4239760453168
 20
141.6617710141086
 30
0.0
  0
VERTEX
  5
455
330
441
100
AcDbEntity
  8
Visible Edges(Ram)
100
AcDbVertex
100
AcDb2dVertex
 10
434.6065629536574
 20
141.7397720364475
 30
0.0
  0
VERTEX
  5
456
330
441
100
AcDbEntity
  8
Visible Edges(Ram)
100
AcDbVertex
100
AcDb2dVertex
 10
434.794999461836
 20
141.8057710675144
 30
0.0
  0
VERTEX
  5
457
330
441
100
AcDbEntity
  8
Visible Edges(Ram)
100
AcDbVertex
100
AcDb2dVertex
 10
434.989285569853
 20
141.8597681073093
 30
0.0
  0
VERTEX
  5
458
330
441
100
AcDbEntity
  8
Visible Edges(Ram)
100
AcDbVertex
100
AcDb2dVertex
 10
435.1894206816618
 20
141.9017679242038
 30
0.0
  0
VERTEX
  5
459
330
441
100
AcDbEntity
  8
Visible Edges(Ram)
100
AcDbVertex
100
AcDb2dVertex
 10
435.3954053933088
 20
141.9317657498264
 30
0.0
  0
VERTEX
  5
45A
330
441
100
AcDbEntity
  8
Visible Edges(Ram)
100
AcDbVertex
100
AcDb2dVertex
 10
435.6072397047941
 20
141.9497663525486
 30
0.0
  0
VERTEX
  5
45B
330
441
100
AcDbEntity
  8
Visible Edges(Ram)
100
AcDbVertex
100
AcDb2dVertex
 10
435.8249236161177
 20
141.9557649639988
 30
0.0
  0
SEQEND
  5
444
330
441
100
AcDbEntity
  8
Visible Edges(Ram)
  0
POLYLINE
  5
45C
330
71
100
AcDbEntity
  8
Visible Edges(Ram)
100
AcDb2dPolyline
 66
     1
 10
0.0
 20
0.0
 30
0.0
 70
   128
  0
VERTEX
  5
45D
330
45C
100
AcDbEntity
  8
Visible Edges(Ram)
100
AcDbVertex
100
AcDb2dVertex
 10
435.8249236161177
 20
141.9557649639988
 30
0.0
  0
VERTEX
  5
45E
330
45C
100
AcDbEntity
  8
Visible Edges(Ram)
100
AcDbVertex
100
AcDb2dVertex
 10
435.9014851862853
 20
141.9549304989719
 30
0.0
  0
VERTEX
  5
460
330
45C
100
AcDbEntity
  8
Visible Edges(Ram)
100
AcDbVertex
100
AcDb2dVertex
 10
435.9787483031218
 20
141.9524223355198
 30
0.0
  0
VERTEX
  5
461
330
45C
100
AcDbEntity
  8
Visible Edges(Ram)
100
AcDbVertex
100
AcDb2dVertex
 10
436.0567129666273
 20
141.9482452420139
 30
0.0
  0
VERTEX
  5
462
330
45C
100
AcDbEntity
  8
Visible Edges(Ram)
100
AcDbVertex
100
AcDb2dVertex
 10
436.1353803688948
 20
141.9423944500828
 30
0.0
  0
VERTEX
  5
463
330
45C
100
AcDbEntity
  8
Visible Edges(Ram)
100
AcDbVertex
100
AcDb2dVertex
 10
436.2147493178313
 20
141.9348747280979
 30
0.0
  0
VERTEX
  5
464
330
45C
100
AcDbEntity
  8
Visible Edges(Ram)
100
AcDbVertex
100
AcDb2dVertex
 10
436.2948198134366
 20
141.9256813076876
 30
0.0
  0
VERTEX
  5
465
330
45C
100
AcDbEntity
  8
Visible Edges(Ram)
100
AcDbVertex
100
AcDb2dVertex
 10
436.3755930478041
 20
141.9148189572238
 30
0.0
  0
VERTEX
  5
466
330
45C
100
AcDbEntity
  8
Visible Edges(Ram)
100
AcDbVertex
100
AcDb2dVertex
 10
436.4570678288404
 20
141.9022876767063
 30
0.0
  0
VERTEX
  5
467
330
45C
100
AcDbEntity
  8
Visible Edges(Ram)
100
AcDbVertex
100
AcDb2dVertex
 10
436.5392441565457
 20
141.8880779293918
 30
0.0
  0
VERTEX
  5
468
330
45C
100
AcDbEntity
  8
Visible Edges(Ram)
100
AcDbVertex
100
AcDb2dVertex
 10
436.6221232230131
 20
141.8722040203953
 30
0.0
  0
VERTEX
  5
469
330
45C
100
AcDbEntity
  8
Visible Edges(Ram)
100
AcDbVertex
100
AcDb2dVertex
 10
436.705703240103
 20
141.8546564129734
 30
0.0
  0
VERTEX
  5
46A
330
45C
100
AcDbEntity
  8
Visible Edges(Ram)
100
AcDbVertex
100
AcDb2dVertex
 10
436.7899859959546
 20
141.8354351071262
 30
0.0
  0
VERTEX
  5
46B
330
45C
100
AcDbEntity
  8
Visible Edges(Ram)
100
AcDbVertex
100
AcDb2dVertex
 10
436.8749702984755
 20
141.8145448712254
 30
0.0
  0
VERTEX
  5
46C
330
45C
100
AcDbEntity
  8
Visible Edges(Ram)
100
AcDbVertex
100
AcDb2dVertex
 10
436.9606567437116
 20
141.7919809368992
 30
0.0
  0
VERTEX
  5
46D
330
45C
100
AcDbEntity
  8
Visible Edges(Ram)
100
AcDbVertex
100
AcDb2dVertex
 10
437.0470453316634
 20
141.7677480725193
 30
0.0
  0
VERTEX
  5
46E
330
45C
100
AcDbEntity
  8
Visible Edges(Ram)
100
AcDbVertex
100
AcDb2dVertex
 10
437.134135466284
 20
141.741841509714
 30
0.0
  0
VERTEX
  5
46F
330
45C
100
AcDbEntity
  8
Visible Edges(Ram)
100
AcDbVertex
100
AcDb2dVertex
 10
437.2219277436202
 20
141.7142660168552
 30
0.0
  0
VERTEX
  5
470
330
45C
100
AcDbEntity
  8
Visible Edges(Ram)
100
AcDbVertex
100
AcDb2dVertex
 10
437.3104215676252
 20
141.6850215939426
 30
0.0
  0
VERTEX
  5
471
330
45C
100
AcDbEntity
  8
Visible Edges(Ram)
100
AcDbVertex
100
AcDb2dVertex
 10
437.3996175343457
 20
141.6540987042331
 30
0.0
  0
VERTEX
  5
472
330
45C
100
AcDbEntity
  8
Visible Edges(Ram)
100
AcDbVertex
100
AcDb2dVertex
 10
437.4895156437818
 20
141.6215116528416
 30
0.0
  0
VERTEX
  5
473
330
45C
100
AcDbEntity
  8
Visible Edges(Ram)
100
AcDbVertex
100
AcDb2dVertex
 10
437.5801158959333
 20
141.5872509030247
 30
0.0
  0
VERTEX
  5
474
330
45C
100
AcDbEntity
  8
Visible Edges(Ram)
100
AcDbVertex
100
AcDb2dVertex
 10
437.6714170987074
 20
141.5513164547825
 30
0.0
  0
VERTEX
  5
475
330
45C
100
AcDbEntity
  8
Visible Edges(Ram)
100
AcDbVertex
100
AcDb2dVertex
 10
437.7634216362898
 20
141.5137130764866
 30
0.0
  0
VERTEX
  5
476
330
45C
100
AcDbEntity
  8
Visible Edges(Ram)
100
AcDbVertex
100
AcDb2dVertex
 10
437.8561271244947
 20
141.474440768137
 30
0.0
  0
SEQEND
  5
45F
330
45C
100
AcDbEntity
  8
Visible Edges(Ram)
  0
LINE
  5
477
330
71
100
AcDbEntity
  8
Visible Edges(Ram)
100
AcDbLine
 10
437.8561270817574
 20
141.4744385086528
 30
0.0
 11
437.8561270817574
 21
140.5839821027402
 31
0.0
  0
POLYLINE
  5
478
330
71
100
AcDbEntity
  8
Visible Edges(Ram)
100
AcDb2dPolyline
 66
     1
 10
0.0
 20
0.0
 30
0.0
 70
   128
  0
VERTEX
  5
479
330
478
100
AcDbEntity
  8
Visible Edges(Ram)
100
AcDbVertex
100
AcDb2dVertex
 10
437.8561271244947
 20
140.5839807537937
 30
0.0
  0
VERTEX
  5
47A
330
478
100
AcDbEntity
  8
Visible Edges(Ram)
100
AcDbVertex
100
AcDb2dVertex
 10
437.7715683991376
 20
140.6315071133518
 30
0.0
  0
VERTEX
  5
47C
330
478
100
AcDbEntity
  8
Visible Edges(Ram)
100
AcDbVertex
100
AcDb2dVertex
 10
437.6871610695784
 20
140.6770069149875
 30
0.0
  0
VERTEX
  5
47D
330
478
100
AcDbEntity
  8
Visible Edges(Ram)
100
AcDbVertex
100
AcDb2dVertex
 10
437.6029039437239
 20
140.7204849270725
 30
0.0
  0
VERTEX
  5
47E
330
478
100
AcDbEntity
  8
Visible Edges(Ram)
100
AcDbVertex
100
AcDb2dVertex
 10
437.5187970215741
 20
140.7619411496067
 30
0.0
  0
VERTEX
  5
47F
330
478
100
AcDbEntity
  8
Visible Edges(Ram)
100
AcDbVertex
100
AcDb2dVertex
 10
437.4348403031294
 20
140.8013755825901
 30
0.0
  0
VERTEX
  5
480
330
478
100
AcDbEntity
  8
Visible Edges(Ram)
100
AcDbVertex
100
AcDb2dVertex
 10
437.3510337883893
 20
140.8387834576511
 30
0.0
  0
VERTEX
  5
481
330
478
100
AcDbEntity
  8
Visible Edges(Ram)
100
AcDbVertex
100
AcDb2dVertex
 10
437.2673780734007
 20
140.874174311533
 30
0.0
  0
VERTEX
  5
482
330
478
100
AcDbEntity
  8
Visible Edges(Ram)
100
AcDbVertex
100
AcDb2dVertex
 10
437.1838725621167
 20
140.907543375864
 30
0.0
  0
VERTEX
  5
483
330
478
100
AcDbEntity
  8
Visible Edges(Ram)
100
AcDbVertex
100
AcDb2dVertex
 10
437.1005178505843
 20
140.9388858822727
 30
0.0
  0
VERTEX
  5
484
330
478
100
AcDbEntity
  8
Visible Edges(Ram)
100
AcDbVertex
100
AcDb2dVertex
 10
437.0173133427565
 20
140.9682065991306
 30
0.0
  0
VERTEX
  5
485
330
478
100
AcDbEntity
  8
Visible Edges(Ram)
100
AcDbVertex
100
AcDb2dVertex
 10
436.9342590386334
 20
140.9955102948093
 30
0.0
  0
VERTEX
  5
486
330
478
100
AcDbEntity
  8
Visible Edges(Ram)
100
AcDbVertex
100
AcDb2dVertex
 10
436.8513555342619
 20
141.0207874325656
 30
0.0
  0
VERTEX
  5
487
330
478
100
AcDbEntity
  8
Visible Edges(Ram)
100
AcDbVertex
100
AcDb2dVertex
 10
436.7686022335951
 20
141.0440427807712
 30
0.0
  0
VERTEX
  5
488
330
478
100
AcDbEntity
  8
Visible Edges(Ram)
100
AcDbVertex
100
AcDb2dVertex
 10
436.6859991366331
 20
141.065276339426
 30
0.0
  0
VERTEX
  5
489
330
478
100
AcDbEntity
  8
Visible Edges(Ram)
100
AcDbVertex
100
AcDb2dVertex
 10
436.6035468394223
 20
141.08448810853
 30
0.0
  0
VERTEX
  5
48A
330
478
100
AcDbEntity
  8
Visible Edges(Ram)
100
AcDbVertex
100
AcDb2dVertex
 10
436.5212447459166
 20
141.1016780880832
 30
0.0
  0
VERTEX
  5
48B
330
478
100
AcDbEntity
  8
Visible Edges(Ram)
100
AcDbVertex
100
AcDb2dVertex
 10
436.4390928561156
 20
141.1168415097141
 30
0.0
  0
VERTEX
  5
48C
330
478
100
AcDbEntity
  8
Visible Edges(Ram)
100
AcDbVertex
100
AcDb2dVertex
 10
436.3570917660658
 20
141.1299879101658
 30
0.0
  0
VERTEX
  5
48D
330
478
100
AcDbEntity
  8
Visible Edges(Ram)
100
AcDbVertex
100
AcDb2dVertex
 10
436.2752408797208
 20
141.1411125210666
 30
0.0
  0
VERTEX
  5
48E
330
478
100
AcDbEntity
  8
Visible Edges(Ram)
100
AcDbVertex
100
AcDb2dVertex
 10
436.1935407931272
 20
141.1502105740451
 30
0.0
  0
VERTEX
  5
48F
330
478
100
AcDbEntity
  8
Visible Edges(Ram)
100
AcDbVertex
100
AcDb2dVertex
 10
436.1119909102384
 20
141.1572868374729
 30
0.0
  0
VERTEX
  5
490
330
478
100
AcDbEntity
  8
Visible Edges(Ram)
100
AcDbVertex
100
AcDb2dVertex
 10
436.0305912310545
 20
141.1623460797214
 30
0.0
  0
VERTEX
  5
491
330
478
100
AcDbEntity
  8
Visible Edges(Ram)
100
AcDbVertex
100
AcDb2dVertex
 10
435.9493417555754
 20
141.1653787640475
 30
0.0
  0
VERTEX
  5
492
330
478
100
AcDbEntity
  8
Visible Edges(Ram)
100
AcDbVertex
100
AcDb2dVertex
 10
435.8682430798475
 20
141.166389658823
 30
0.0
  0
SEQEND
  5
47B
330
478
100
AcDbEntity
  8
Visible Edges(Ram)
  0
LINE
  5
493
330
71
100
AcDbEntity
  8
Visible Tangent Edges(Ram)
100
AcDbLine
 10
452.2738182843475
 20
191.4976639491612
 30
0.0
 11
443.0170027117192
 21
132.5934725079253
 31
0.0
  0
ARC
  5
494
330
71
100
AcDbEntity
  8
Visible Tangent Edges(Ram)
100
AcDbCircle
 10
435.282351308531
 20
194.1678792981056
 30
0.0
 40
17.20000000000011
100
AcDbArc
 50
351.0689897301381
 51
188.9310102698619
  0
LINE
  5
495
330
71
100
AcDbEntity
  8
Visible Tangent Edges(Ram)
100
AcDbLine
 10
427.5476999053427
 20
132.5934725079253
 30
0.0
 11
418.2908843327145
 21
191.4976639491612
 31
0.0
  0
LINE
  5
496
330
71
100
AcDbEntity
  8
Visible Tangent Edges(Ram)
100
AcDbLine
 10
439.3618615599446
 20
129.4678792981051
 30
0.0
 11
431.2028410571171
 21
129.4678792981051
 31
0.0
  0
LINE
  5
497
330
71
100
AcDbEntity
  8
Visible Edges(Ram)
100
AcDbLine
 10
443.3133655078091
 20
132.5468989843972
 30
0.0
 11
452.5701810804374
 21
191.4510904256332
 31
0.0
  0
LINE
  5
498
330
71
100
AcDbEntity
  8
Visible Tangent Edges(Ram)
100
AcDbLine
 10
452.2738182843475
 20
191.4976639491612
 30
0.0
 11
452.5701810804374
 21
191.4510904256332
 31
0.0
  0
LINE
  5
499
330
71
100
AcDbEntity
  8
Visible Edges(Ram)
100
AcDbLine
 10
431.2028410571174
 20
129.167879298105
 30
0.0
 11
439.3618615599446
 21
129.167879298105
 31
0.0
  0
LINE
  5
49A
330
71
100
AcDbEntity
  8
Visible Edges(Ram)
100
AcDbLine
 10
417.9945215366246
 20
191.4510904256332
 30
0.0
 11
427.251337109253
 21
132.5468989843972
 31
0.0
  0
LINE
  5
49B
330
71
100
AcDbEntity
  8
Visible Tangent Edges(Ram)
100
AcDbLine
 10
418.2908843327143
 20
191.4976639491613
 30
0.0
 11
417.9945215366246
 21
191.4510904256332
 31
0.0
  0
ARC
  5
49C
330
71
100
AcDbEntity
  8
Visible Edges(Ram)
100
AcDbCircle
 10
435.2823513085311
 20
194.1678792981056
 30
0.0
 40
17.50000000000011
100
AcDbArc
 50
351.068989730138
 51
188.9310102698618
  0
LINE
  5
49D
330
71
100
AcDbEntity
  8
Visible Tangent Edges(Ram)
100
AcDbLine
 10
213.0170027117195
 20
132.5934725079253
 30
0.0
 11
213.3133655078093
 21
132.5468989843972
 31
0.0
  0
ARC
  5
49E
330
71
100
AcDbEntity
  8
Visible Tangent Edges(Ram)
100
AcDbCircle
 10
209.361861559945
 20
133.1678792981052
 30
0.0
 40
3.700000000000029
100
AcDbArc
 50
269.9999999999995
 51
351.0689897301376
  0
LINE
  5
49F
330
71
100
AcDbEntity
  8
Visible Tangent Edges(Ram)
100
AcDbLine
 10
209.361861559945
 20
129.167879298105
 30
0.0
 11
209.361861559945
 21
129.4678792981051
 31
0.0
  0
ARC
  5
4A0
330
71
100
AcDbEntity
  8
Visible Edges(Ram)
100
AcDbCircle
 10
209.361861559945
 20
133.1678792981052
 30
0.0
 40
4.000000000000011
100
AcDbArc
 50
270.0
 51
351.0689897301381
  0
ARC
  5
4A1
330
71
100
AcDbEntity
  8
Visible Tangent Edges(Ram)
100
AcDbCircle
 10
201.2028410571175
 20
133.1678792981052
 30
0.0
 40
3.699999999999998
100
AcDbArc
 50
188.9310102698614
 51
270.0000000000005
  0
LINE
  5
4A2
330
71
100
AcDbEntity
  8
Visible Tangent Edges(Ram)
100
AcDbLine
 10
201.2028410571175
 20
129.4678792981052
 30
0.0
 11
201.2028410571175
 21
129.1678792981052
 31
0.0
  0
LINE
  5
4A3
330
71
100
AcDbEntity
  8
Visible Tangent Edges(Ram)
100
AcDbLine
 10
197.2513371092532
 20
132.5468989843973
 30
0.0
 11
197.547699905343
 21
132.5934725079255
 31
0.0
  0
ARC
  5
4A4
330
71
100
AcDbEntity
  8
Visible Edges(Ram)
100
AcDbCircle
 10
201.2028410571176
 20
133.1678792981052
 30
0.0
 40
4.000000000000016
100
AcDbArc
 50
188.931010269861
 51
269.9999999999996
  0
LINE
  5
4A5
330
71
100
AcDbEntity
  8
Visible Edges(Ram)
100
AcDbLine
 10
202.9445919987468
 20
142.7855307709627
 30
0.0
 11
203.801023568048
 21
142.7855307709627
 31
0.0
  0
LINE
  5
4A6
330
71
100
AcDbEntity
  8
Visible Edges(Ram)
100
AcDbLine
 10
203.801023568048
 20
142.7855307709627
 30
0.0
 11
203.801023568048
 21
140.1913397965095
 31
0.0
  0
LINE
  5
4A7
330
71
100
AcDbEntity
  8
Visible Edges(Ram)
100
AcDbLine
 10
203.801023568048
 20
140.1913397965095
 30
0.0
 11
207.1719780588442
 21
140.1913397965094
 31
0.0
  0
LINE
  5
4A8
330
71
100
AcDbEntity
  8
Visible Edges(Ram)
100
AcDbLine
 10
207.1719780588442
 20
140.1913397965094
 30
0.0
 11
207.1719780588443
 21
142.7855307709626
 31
0.0
  0
LINE
  5
4A9
330
71
100
AcDbEntity
  8
Visible Edges(Ram)
100
AcDbLine
 10
207.1719780588442
 20
142.7855307709626
 30
0.0
 11
208.0284096281455
 21
142.7855307709626
 31
0.0
  0
LINE
  5
4AA
330
71
100
AcDbEntity
  8
Visible Edges(Ram)
100
AcDbLine
 10
208.0284096281455
 20
142.7855307709626
 30
0.0
 11
208.0284096281454
 21
136.785530532544
 31
0.0
  0
LINE
  5
4AB
330
71
100
AcDbEntity
  8
Visible Edges(Ram)
100
AcDbLine
 10
208.0284096281454
 20
136.785530532544
 30
0.0
 11
207.1719780588441
 21
136.785530532544
 31
0.0
  0
LINE
  5
4AC
330
71
100
AcDbEntity
  8
Visible Edges(Ram)
100
AcDbLine
 10
207.1719780588441
 20
136.785530532544
 30
0.0
 11
207.1719780588442
 21
139.3946592669269
 31
0.0
  0
LINE
  5
4AD
330
71
100
AcDbEntity
  8
Visible Edges(Ram)
100
AcDbLine
 10
207.1719780588442
 20
139.3946592669269
 30
0.0
 11
203.8010235680479
 21
139.3946592669269
 31
0.0
  0
LINE
  5
4AE
330
71
100
AcDbEntity
  8
Visible Edges(Ram)
100
AcDbLine
 10
203.8010235680479
 20
139.3946592669269
 30
0.0
 11
203.8010235680479
 21
136.785530532544
 31
0.0
  0
LINE
  5
4AF
330
71
100
AcDbEntity
  8
Visible Edges(Ram)
100
AcDbLine
 10
203.8010235680479
 20
136.785530532544
 30
0.0
 11
202.9445919987466
 21
136.7855305325441
 31
0.0
  0
LINE
  5
4B0
330
71
100
AcDbEntity
  8
Visible Edges(Ram)
100
AcDbLine
 10
202.9445919987466
 20
136.7855305325441
 30
0.0
 11
202.9445919987468
 21
142.7855307709627
 31
0.0
  0
LINE
  5
4B1
330
71
100
AcDbEntity
  8
Visible Tangent Edges(Ram)
100
AcDbLine
 10
222.2738182843482
 20
191.4976639491611
 30
0.0
 11
213.0170027117195
 21
132.5934725079253
 31
0.0
  0
ARC
  5
4B2
330
71
100
AcDbEntity
  8
Visible Tangent Edges(Ram)
100
AcDbCircle
 10
205.2823513085316
 20
194.1678792981056
 30
0.0
 40
17.2000000000001
100
AcDbArc
 50
351.0689897301373
 51
188.931010269861
  0
LINE
  5
4B3
330
71
100
AcDbEntity
  8
Visible Tangent Edges(Ram)
100
AcDbLine
 10
197.547699905343
 20
132.5934725079255
 30
0.0
 11
188.290884332715
 21
191.4976639491614
 31
0.0
  0
LINE
  5
4B4
330
71
100
AcDbEntity
  8
Visible Tangent Edges(Ram)
100
AcDbLine
 10
209.361861559945
 20
129.4678792981051
 30
0.0
 11
201.2028410571175
 21
129.4678792981052
 31
0.0
  0
LINE
  5
4B5
330
71
100
AcDbEntity
  8
Visible Edges(Ram)
100
AcDbLine
 10
213.3133655078093
 20
132.5468989843972
 30
0.0
 11
222.5701810804381
 21
191.451090425633
 31
0.0
  0
LINE
  5
4B6
330
71
100
AcDbEntity
  8
Visible Tangent Edges(Ram)
100
AcDbLine
 10
222.2738182843482
 20
191.4976639491611
 30
0.0
 11
222.5701810804381
 21
191.451090425633
 31
0.0
  0
LINE
  5
4B7
330
71
100
AcDbEntity
  8
Visible Edges(Ram)
100
AcDbLine
 10
201.2028410571175
 20
129.1678792981052
 30
0.0
 11
209.361861559945
 21
129.167879298105
 31
0.0
  0
LINE
  5
4B8
330
71
100
AcDbEntity
  8
Visible Edges(Ram)
100
AcDbLine
 10
187.9945215366251
 20
191.4510904256334
 30
0.0
 11
197.2513371092532
 21
132.5468989843973
 31
0.0
  0
LINE
  5
4B9
330
71
100
AcDbEntity
  8
Visible Tangent Edges(Ram)
100
AcDbLine
 10
188.290884332715
 20
191.4976639491614
 30
0.0
 11
187.9945215366251
 21
191.4510904256334
 31
0.0
  0
ARC
  5
4BA
330
71
100
AcDbEntity
  8
Visible Edges(Ram)
100
AcDbCircle
 10
205.2823513085317
 20
194.1678792981056
 30
0.0
 40
17.50000000000013
100
AcDbArc
 50
351.0689897301371
 51
188.931010269861
  0
DIMENSION
  5
4BB
330
71
100
AcDbEntity
  8
Dimensions(Ram)
  6
Continuous
 62
     7
370
    25
100
AcDbDimension
280
     0
  2
*D48
 10
158.8473122401798
 20
129.1678792981053
 30
0.0
 11
158.8473122401798
 21
170.6678792981049
 31
0.0
 70
   160
  1
<>
 71
     5
 42
85.00000000000001
 73
     0
 74
     0
 75
     0
  3
Whole Number
100
AcDbAlignedDimension
 13
205.2823513085377
 23
212.1678792981052
 33
0.0
 14
201.2028410571176
 24
129.1678792981052
 34
0.0
 50
90.0
100
AcDbRotatedDimension
1001
ACAD
1000
DSTYLE
1002
{
1070
   172
1070
     0
1070
   289
1070
     1
1070
   271
1070
     0
1070
   144
1040
1.02409638554217
1070
   272
1070
     0
1070
    48
1040
0.0
1070
    47
1040
0.0
1002
}
  0
LINE
  5
5A7
330
71
100
AcDbEntity
  8
Visible Edges(Ram)
100
AcDbLine
 10
93.21684646847165
 20
211.4678792981054
 30
0.0
 11
93.21684646847179
 21
176.8678792981057
 31
0.0
  0
LINE
  5
5A8
330
71
100
AcDbEntity
  8
Visible Tangent Edges(Ram)
100
AcDbLine
 10
93.0168464684718
 20
176.6678792981057
 30
0.0
 11
93.01684646847169
 21
211.6678792981053
 31
0.0
  0
ARC
  5
5A9
330
71
100
AcDbEntity
  8
Visible Edges(Ram)
100
AcDbCircle
 10
93.01684646847169
 20
211.4678792981054
 30
0.0
 40
0.2000000000000041
100
AcDbArc
 50
0.0
 51
90.0
  0
ARC
  5
5AA
330
71
100
AcDbEntity
  8
Visible Edges(Ram)
100
AcDbCircle
 10
93.0168464684718
 20
176.8678792981056
 30
0.0
 40
0.200000000000004
100
AcDbArc
 50
270.0
 51
0.0
  0
LINE
  5
5AB
330
71
100
AcDbEntity
  8
Visible Tangent Edges(Ram)
100
AcDbLine
 10
51.01684646847083
 20
211.6678792981053
 30
0.0
 11
51.01684646847097
 21
176.6678792981056
 31
0.0
  0
LINE
  5
5AC
330
71
100
AcDbEntity
  8
Visible Edges(Ram)
100
AcDbLine
 10
50.51684646847075
 20
223.6678792981051
 30
0.0
 11
50.51684646847101
 21
164.6678792981056
 31
0.0
  0
LINE
  5
5AD
330
71
100
AcDbEntity
  8
Visible Tangent Edges(Ram)
100
AcDbLine
 10
50.01684646847099
 20
164.1678792981057
 30
0.0
 11
50.01684646847074
 21
224.1678792981051
 31
0.0
  0
ARC
  5
5AE
330
71
100
AcDbEntity
  8
Visible Edges(Ram)
100
AcDbCircle
 10
51.01684646847081
 20
212.1678792981053
 30
0.0
 40
0.50000000000001
100
AcDbArc
 50
180.0
 51
270.0
  0
ARC
  5
5AF
330
71
100
AcDbEntity
  8
Visible Edges(Ram)
100
AcDbCircle
 10
51.01684646847097
 20
176.1678792981056
 30
0.0
 40
0.50000000000001
100
AcDbArc
 50
90.0
 51
180.0
  0
ARC
  5
5B0
330
71
100
AcDbEntity
  8
Visible Edges(Ram)
100
AcDbCircle
 10
50.01684646847074
 20
223.6678792981052
 30
0.0
 40
0.50000000000001
100
AcDbArc
 50
0.0
 51
90.0
  0
ARC
  5
5B1
330
71
100
AcDbEntity
  8
Visible Edges(Ram)
100
AcDbCircle
 10
50.01684646847099
 20
164.6678792981056
 30
0.0
 40
0.50000000000001
100
AcDbArc
 50
270.0
 51
0.0
  0
LINE
  5
5B2
330
71
100
AcDbEntity
  8
Visible Edges(Ram)
100
AcDbLine
 10
45.51684646847064
 20
224.1678792981051
 30
0.0
 11
45.51684646847089
 21
164.1678792981057
 31
0.0
  0
LINE
  5
5B3
330
71
100
AcDbEntity
  8
Visible Edges(Ram)
100
AcDbLine
 10
45.51684646847064
 20
224.1678792981051
 30
0.0
 11
50.01684646847074
 21
224.1678792981052
 31
0.0
  0
LINE
  5
5B4
330
71
100
AcDbEntity
  8
Visible Edges(Ram)
100
AcDbLine
 10
45.51684646847089
 20
164.1678792981057
 30
0.0
 11
50.01684646847099
 21
164.1678792981057
 31
0.0
  0
LINE
  5
5B5
330
71
100
AcDbEntity
  8
Visible Edges(Ram)
100
AcDbLine
 10
51.01684646847083
 20
211.6678792981053
 30
0.0
 11
93.01684646847169
 21
211.6678792981053
 31
0.0
  0
LINE
  5
5B6
330
71
100
AcDbEntity
  8
Visible Edges(Ram)
100
AcDbLine
 10
51.01684646847097
 20
176.6678792981056
 30
0.0
 11
93.0168464684718
 21
176.6678792981057
 31
0.0
  0
LINE
  5
5B7
330
71
100
AcDbEntity
  8
Visible Edges(Ram)
100
AcDbLine
 10
105.5668464684717
 20
211.3678792981056
 30
0.0
 11
105.5668464684649
 21
191.4976639491614
 31
0.0
  0
LINE
  5
5B8
330
71
100
AcDbEntity
  8
Visible Edges(Ram)
100
AcDbLine
 10
105.5668464684689
 20
132.5934725079255
 30
0.0
 11
105.5668464684649
 21
191.4976639491614
 31
0.0
  0
LINE
  5
5B9
330
71
100
AcDbEntity
  8
Visible Edges(Ram)
100
AcDbLine
 10
93.56684646847185
 20
176.9678792981054
 30
0.0
 11
93.56684646847169
 21
211.3678792981056
 31
0.0
  0
LINE
  5
5BA
330
71
100
AcDbEntity
  8
Visible Tangent Edges(Ram)
100
AcDbLine
 10
99.8668464684688
 20
132.5468989843973
 30
0.0
 11
99.86684646846477
 21
191.4510904256334
 31
0.0
  0
SPLINE
  5
5BB
330
71
100
AcDbEntity
  8
Visible Edges(Ram)
100
AcDbSpline
210
0.0
220
0.0
230
1.0
 70
     8
 71
     3
 72
    10
 73
     6
 74
     0
 42
0.000000001
 43
0.0000000001
 40
0.5794793100548623
 40
0.5794793100548623
 40
0.5794793100548623
 40
0.5794793100548623
 40
0.7196215581356427
 40
0.7196215581356427
 40
0.885371334489865
 40
0.885371334489865
 40
0.885371334489865
 40
0.885371334489865
 10
99.56684646846509
 20
188.310328348358
 30
0.0
 10
99.56684646846504
 20
188.7505238517941
 30
0.0
 10
99.60819344499142
 20
189.2848378502332
 30
0.0
 10
99.709735982911
 20
190.2663121094457
 30
0.0
 10
99.79511952530669
 20
190.9099086685086
 30
0.0
 10
99.86684646846477
 20
191.4510904256334
 30
0.0
  0
LINE
  5
5BC
330
71
100
AcDbEntity
  8
Visible Edges(Ram)
100
AcDbLine
 10
99.56684646846509
 20
188.310328348358
 30
0.0
 11
99.56684646846891
 21
132.5934725079254
 31
0.0
  0
LINE
  5
5BD
330
71
100
AcDbEntity
  8
Visible Tangent Edges(Ram)
100
AcDbLine
 10
105.2668464684647
 20
191.4510904256334
 30
0.0
 11
105.2668464684687
 21
132.5468989843973
 31
0.0
  0
ELLIPSE
  5
5BE
330
71
100
AcDbEntity
  8
Visible Tangent Edges(Ram)
100
AcDbEllipse
 10
105.2668464684648
 20
191.4976639491614
 30
0.0
 11
0.2999999999999972
 21
-0.0000000000000009
 31
0.0
210
0.0
220
0.0
230
1.0
 40
0.1552450784269903
 41
4.7123889803839
 42
6.283185307195485
  0
LINE
  5
5BF
330
71
100
AcDbEntity
  8
Visible Tangent Edges(Ram)
100
AcDbLine
 10
105.2668464684647
 20
191.4510904256334
 30
0.0
 11
105.2668464684717
 21
211.6678792981057
 31
0.0
  0
LINE
  5
5C0
330
71
100
AcDbEntity
  8
Visible Tangent Edges(Ram)
100
AcDbLine
 10
93.86684646847172
 20
211.6678792981057
 30
0.0
 11
93.86684646847188
 21
176.6678792981054
 31
0.0
  0
ARC
  5
5C1
330
71
100
AcDbEntity
  8
Visible Edges(Ram)
100
AcDbCircle
 10
105.2668464684717
 20
211.3678792981056
 30
0.0
 40
0.3000000000000015
100
AcDbArc
 50
0.0
 51
90.0
  0
ARC
  5
5C2
330
71
100
AcDbEntity
  8
Visible Edges(Ram)
100
AcDbCircle
 10
93.86684646847172
 20
211.3678792981056
 30
0.0
 40
0.3000000000000015
100
AcDbArc
 50
90.0
 51
180.0
  0
ARC
  5
5C3
330
71
100
AcDbEntity
  8
Visible Edges(Ram)
100
AcDbCircle
 10
93.86684646847188
 20
176.9678792981054
 30
0.0
 40
0.3000000000000015
100
AcDbArc
 50
180.0
 51
270.0
  0
LINE
  5
5C4
330
71
100
AcDbEntity
  8
Visible Edges(Ram)
100
AcDbLine
 10
105.5668464684689
 20
132.5934725079254
 30
0.0
 11
105.5668464684704
 21
129.4678792981053
 31
0.0
  0
ARC
  5
5C5
330
71
100
AcDbEntity
  8
Visible Edges(Ram)
100
AcDbCircle
 10
105.2668464684704
 20
129.4678792981052
 30
0.0
 40
0.2999999999999952
100
AcDbArc
 50
270.0
 51
0.0
  0
ELLIPSE
  5
5C6
330
71
100
AcDbEntity
  8
Visible Tangent Edges(Ram)
100
AcDbEllipse
 10
105.2668464684689
 20
132.5934725079254
 30
0.0
 11
0.3000000000000002
 21
0.0000000000000187
 31
0.0
210
0.0
220
0.0
230
1.0
 40
0.1552450784269346
 41
4.712388980401112
 42
6.283185307213283
  0
LINE
  5
5C7
330
71
100
AcDbEntity
  8
Visible Tangent Edges(Ram)
100
AcDbLine
 10
105.2668464684704
 20
129.1678792981052
 30
0.0
 11
105.2668464684687
 21
132.5468989843973
 31
0.0
  0
ARC
  5
5C8
330
71
100
AcDbEntity
  8
Visible Edges(Ram)
100
AcDbCircle
 10
99.8668464684704
 20
129.4678792981052
 30
0.0
 40
0.2999999999999872
100
AcDbArc
 50
180.0
 51
270.0000000000029
  0
LINE
  5
5C9
330
71
100
AcDbEntity
  8
Visible Tangent Edges(Ram)
100
AcDbLine
 10
99.86684646846878
 20
132.5468989843973
 30
0.0
 11
99.8668464684704
 21
129.1678792981052
 31
0.0
  0
ELLIPSE
  5
5CA
330
71
100
AcDbEntity
  8
Visible Tangent Edges(Ram)
100
AcDbEllipse
 10
99.86684646846891
 20
132.5934725079254
 30
0.0
 11
-0.2999999999999998
 21
0.0000000000000152
 31
0.0
210
0.0
220
0.0
230
1.0
 40
0.1552450784269594
 41
0.0
 42
1.570796326794114
  0
LINE
  5
5CB
330
71
100
AcDbEntity
  8
Visible Edges(Ram)
100
AcDbLine
 10
99.5668464684704
 20
129.4678792981052
 30
0.0
 11
99.56684646846888
 21
132.5934725079254
 31
0.0
  0
LINE
  5
5CC
330
71
100
AcDbEntity
  8
Visible Tangent Edges(Ram)
100
AcDbLine
 10
105.2668464684687
 20
132.5468989843973
 30
0.0
 11
99.8668464684688
 21
132.5468989843973
 31
0.0
  0
LINE
  5
5CD
330
71
100
AcDbEntity
  8
Visible Edges(Ram)
100
AcDbLine
 10
99.86684646847043
 20
129.1678792981052
 30
0.0
 11
105.2668464684704
 21
129.1678792981052
 31
0.0
  0
LINE
  5
5CE
330
71
100
AcDbEntity
  8
Visible Tangent Edges(Ram)
100
AcDbLine
 10
105.2668464684647
 20
191.4510904256334
 30
0.0
 11
99.86684646846477
 21
191.4510904256334
 31
0.0
  0
LINE
  5
5CF
330
71
100
AcDbEntity
  8
Visible Edges(Ram)
100
AcDbLine
 10
99.56684646847186
 20
176.6678792981054
 30
0.0
 11
93.86684646847188
 21
176.6678792981054
 31
0.0
  0
LINE
  5
5D0
330
71
100
AcDbEntity
  8
Visible Edges(Ram)
100
AcDbLine
 10
105.2668464684717
 20
211.6678792981057
 30
0.0
 11
93.86684646847172
 21
211.6678792981057
 31
0.0
  0
LINE
  5
5D1
330
71
100
AcDbEntity
  8
Visible Edges(Ram)
100
AcDbLine
 10
93.56684646847119
 20
177.9178792981054
 30
0.0
 11
93.21684646847179
 21
177.9178792981054
 31
0.0
  0
LINE
  5
5D2
330
71
100
AcDbEntity
  8
Visible Edges(Ram)
100
AcDbLine
 10
93.56684646847106
 20
210.4178792981056
 30
0.0
 11
93.21684646847169
 21
210.4178792981056
 31
0.0
  0
DIMENSION
  5
5D3
330
71
100
AcDbEntity
  8
Dimensions(Ram)
  6
Continuous
 62
     7
370
    25
100
AcDbDimension
280
     0
  2
*D49
 10
105.5668464684704
 20
102.5507147572521
 30
0.0
 11
75.54184646847066
 21
102.5507147572521
 31
0.0
 70
   160
  1
<>
 71
     5
 42
60.04999999999951
 73
     0
 74
     0
 75
     0
  3
Whole Number
100
AcDbAlignedDimension
 13
45.51684646847089
 23
164.1678792981059
 33
0.0
 14
105.5668464684704
 24
129.4678792981052
 34
0.0
 50
180.0
100
AcDbRotatedDimension
1001
ACAD
1000
DSTYLE
1002
{
1070
   172
1070
     0
1070
   289
1070
     1
1070
   271
1070
     0
1070
   272
1070
     0
1070
    48
1040
0.0
1070
    47
1040
0.0
1002
}
  0
DIMENSION
  5
6B5
330
71
100
AcDbEntity
  8
Dimensions(Ram)
  6
Continuous
 62
     7
370
    25
100
AcDbDimension
280
     0
  2
*D50
 10
17.47828380344778
 20
224.1678792981049
 30
0.0
 11
17.47828380344774
 21
194.1678792981054
 31
0.0
 70
   160
  1
\fAIGDT|b0|i0;\H4.1667;\ln\fArial|b0|i0;\H4.1667;<>
 71
     5
 42
59.99999999999909
 73
     0
 74
     0
 75
     0
  3
Whole Number
100
AcDbAlignedDimension
 13
45.51684646847089
 23
164.1678792981059
 33
0.0
 14
45.51684646847064
 24
224.1678792981049
 34
0.0
 50
90.0
100
AcDbRotatedDimension
1001
ACAD
1000
DSTYLE
1002
{
1070
   172
1070
     0
1070
   289
1070
     1
1070
   271
1070
     0
1070
   272
1070
     0
1070
    48
1040
0.0
1070
    47
1040
0.0
1002
}
  0
ENDSEC
  0
SECTION
  2
OBJECTS
  0
DICTIONARY
  5
C
330
0
100
AcDbDictionary
281
     1
  3
ACAD_CIP_PREVIOUS_PRODUCT_INFO
350
798
  3
ACAD_COLOR
350
63
  3
ACAD_DETAILVIEWSTYLE
350
6B
  3
ACAD_GROUP
350
D
  3
ACAD_LAYOUT
350
62
  3
ACAD_MATERIAL
350
10
  3
ACAD_MLEADERSTYLE
350
66
  3
ACAD_MLINESTYLE
350
5F
  3
ACAD_PLOTSETTINGS
350
61
  3
ACAD_PLOTSTYLENAME
350
E
  3
ACAD_SCALELIST
350
42
  3
ACAD_SECTIONVIEWSTYLE
350
68
  3
ACAD_TABLESTYLE
350
64
  3
ACAD_VISUALSTYLE
350
29
  3
ACDB_RECOMPOSE_DATA
350
80C
  3
AcDbVariableDictionary
350
799
  0
DICTIONARY
  5
7A2
330
14F
100
AcDbDictionary
280
     1
281
     1
  3
ACAD_MLATT
360
7F5
  3
ACAD_XREC_ROUNDTRIP
360
7F4
  0
DICTIONARY
  5
7A5
330
1A0
100
AcDbDictionary
280
     1
281
     1
  3
ACAD_MTEXT_2008_RT
360
7F6
  0
DICTIONARY
  5
7A7
330
317
100
AcDbDictionary
280
     1
281
     1
  3
ACAD_MLATT
360
7F8
  3
ACAD_XREC_ROUNDTRIP
360
7F7
  0
DICTIONARY
  5
7AA
330
322
100
AcDbDictionary
280
     1
281
     1
  3
ACAD_MLATT
360
7FA
  3
ACAD_XREC_ROUNDTRIP
360
7F9
  0
DICTIONARY
  5
7AD
330
324
100
AcDbDictionary
280
     1
281
     1
  3
ACAD_MLATT
360
7FC
  3
ACAD_XREC_ROUNDTRIP
360
7FB
  0
DICTIONARY
  5
7B0
330
325
100
AcDbDictionary
280
     1
281
     1
  3
ACAD_MLATT
360
7FE
  3
ACAD_XREC_ROUNDTRIP
360
7FD
  0
DICTIONARY
  5
7B3
330
326
100
AcDbDictionary
280
     1
281
     1
  3
ACAD_MLATT
360
800
  3
ACAD_XREC_ROUNDTRIP
360
7FF
  0
DICTIONARY
  5
7B6
330
327
100
AcDbDictionary
280
     1
281
     1
  3
ACAD_MLATT
360
802
  3
ACAD_XREC_ROUNDTRIP
360
801
  0
DICTIONARY
  5
7B9
330
328
100
AcDbDictionary
280
     1
281
     1
  3
ACAD_MLATT
360
804
  3
ACAD_XREC_ROUNDTRIP
360
803
  0
DICTIONARY
  5
7BC
330
32C
100
AcDbDictionary
280
     1
281
     1
  3
ACAD_MTEXT_2008_RT
360
805
  0
DICTIONARY
  5
7BE
330
337
100
AcDbDictionary
280
     1
281
     1
  3
ACAD_MLATT
360
807
  3
ACAD_XREC_ROUNDTRIP
360
806
  0
XRECORD
  5
798
102
{ACAD_REACTORS
330
C
102
}
330
C
100
AcDbXrecord
280
     1
300
ACD
300
2017
300
ACD_F_S
  0
DICTIONARY
  5
63
102
{ACAD_REACTORS
330
C
102
}
330
C
100
AcDbDictionary
281
     1
  0
DICTIONARY
  5
6B
102
{ACAD_REACTORS
330
C
102
}
330
C
100
AcDbDictionary
281
     1
  3
Imperial24
350
6C
  3
Metric50
350
7C8
  0
DICTIONARY
  5
D
102
{ACAD_REACTORS
330
C
102
}
330
C
100
AcDbDictionary
281
     1
  0
DICTIONARY
  5
62
102
{ACAD_REACTORS
330
C
102
}
330
C
100
AcDbDictionary
281
     1
  3
Layout1
350
70
  3
Layout2
350
78
  3
Model
350
74
  0
DICTIONARY
  5
10
102
{ACAD_REACTORS
330
C
102
}
330
C
100
AcDbDictionary
281
     1
  3
ByBlock
350
19
  3
ByLayer
350
11
  3
Global
350
21
  0
DICTIONARY
  5
66
102
{ACAD_REACTORS
330
C
102
}
330
C
100
AcDbDictionary
281
     1
  3
Standard
350
67
  0
DICTIONARY
  5
5F
102
{ACAD_REACTORS
330
C
102
}
330
C
100
AcDbDictionary
281
     1
  3
Standard
350
60
  0
DICTIONARY
  5
61
102
{ACAD_REACTORS
330
C
102
}
330
C
100
AcDbDictionary
281
     1
  0
ACDBDICTIONARYWDFLT
  5
E
102
{ACAD_REACTORS
330
C
102
}
330
C
100
AcDbDictionary
281
     1
  3
Normal
350
F
100
AcDbDictionaryWithDefault
340
F
  0
DICTIONARY
  5
42
102
{ACAD_REACTORS
330
C
102
}
330
C
100
AcDbDictionary
281
     1
  3
A0
350
43
  3
A1
350
44
  3
A2
350
45
  3
A3
350
46
  3
A4
350
47
  3
A5
350
48
  3
A6
350
49
  3
A7
350
4A
  3
A8
350
4B
  3
A9
350
4C
  3
B0
350
4D
  3
B1
350
4E
  3
B2
350
4F
  3
B3
350
50
  3
B4
350
51
  3
B5
350
52
  3
B6
350
53
  0
DICTIONARY
  5
68
102
{ACAD_REACTORS
330
C
102
}
330
C
100
AcDbDictionary
281
     1
  3
Imperial24
350
6A
  3
Metric50
350
7C7
  0
DICTIONARY
  5
64
102
{ACAD_REACTORS
330
C
102
}
330
C
100
AcDbDictionary
281
     1
  3
Standard
350
65
  0
DICTIONARY
  5
29
102
{ACAD_REACTORS
330
C
102
}
330
C
100
AcDbDictionary
281
     1
  3
2dWireframe
350
2F
  3
Basic
350
2E
  3
Brighten
350
35
  3
ColorChange
350
39
  3
Conceptual
350
32
  3
Dim
350
34
  3
EdgeColorOff
350
41
  3
Facepattern
350
38
  3
Flat
350
2A
  3
FlatWithEdges
350
2B
  3
Gouraud
350
2C
  3
GouraudWithEdges
350
2D
  3
Hidden
350
31
  3
JitterOff
350
3F
  3
Linepattern
350
37
  3
OverhangOff
350
40
  3
Realistic
350
33
  3
Shaded
350
3E
  3
Shaded with edges
350
3D
  3
Shades of Gray
350
3A
  3
Sketchy
350
3B
  3
Thicken
350
36
  3
Wireframe
350
30
  3
X-Ray
350
3C
  0
XRECORD
  5
80C
102
{ACAD_REACTORS
330
C
102
}
330
C
100
AcDbXrecord
280
     1
 90
        1
330
65
330
6A
330
6C
330
14F
330
1A0
330
317
330
322
330
324
330
325
330
326
330
327
330
328
330
32C
330
337
330
7C7
330
7C8
  0
DICTIONARY
  5
799
102
{ACAD_REACTORS
330
C
102
}
330
C
100
AcDbDictionary
281
     1
  3
CANNOSCALE
350
79E
  3
CMLEADERSTYLE
350
79B
  3
CTABLESTYLE
350
79A
  3
CVIEWDETAILSTYLE
350
79C
  3
CVIEWSECTIONSTYLE
350
79D
  0
XRECORD
  5
7F5
102
{ACAD_REACTORS
330
7A2
102
}
330
7A2
100
AcDbXrecord
280
     1
 70
     4
 70
     0
 70
     0
 40
1.0
  2
Enter_Prompt_for_Field
  1
Embedded Object
 10
0.1132214741620885
 20
2.80094937906048
 30
0.0
 40
2.489199936389923
 41
16.74543584364862
 46
0.0
 71
     5
 72
     5
  1
3
  7
Text Style14
 73
     1
 44
1.0
  0
XRECORD
  5
7F4
102
{ACAD_REACTORS
330
7A2
102
}
330
7A2
100
AcDbXrecord
280
     1
102
ACAD_MATT_HEIGHT
140
2.489199936389923
  0
XRECORD
  5
7F6
102
{ACAD_REACTORS
330
7A5
102
}
330
7A5
100
AcDbXrecord
280
     1
 40
214000.0
  1
\pxsm0.94;\fArial|b0|i0;\H7.0000;QUOTE\PONLY\P\fArial|b0|i0;\H2.5000;NOT FOR PRODUCTION
  0
XRECORD
  5
7F8
102
{ACAD_REACTORS
330
7A7
102
}
330
7A7
100
AcDbXrecord
280
     1
 70
     4
 70
     0
 70
     0
 40
1.0
  2
AMOUNT
  1
Embedded Object
 10
11.5
 20
-2.017962262069374
 30
0.0
 40
2.489199936389923
 41
0.0
 46
0.0
 71
     5
 72
     5
  1
10
  7
Text Style14
 73
     1
 44
1.0
  0
XRECORD
  5
7F7
102
{ACAD_REACTORS
330
7A7
102
}
330
7A7
100
AcDbXrecord
280
     1
102
ACAD_MATT_HEIGHT
140
2.489199936389923
  0
XRECORD
  5
7FA
102
{ACAD_REACTORS
330
7AA
102
}
330
7AA
100
AcDbXrecord
280
     1
 70
     4
 70
     0
 70
     0
 40
1.0
  2
INSTRUCTIONS
  1
Embedded Object
 10
16.26863993311069
 20
9.208937597274767
 30
0.0
 40
2.489199936389923
 41
0.0
 46
0.0
 71
     1
 72
     5
  1
AAAA
  7
Text Style58
 73
     1
 44
1.0
  0
XRECORD
  5
7F9
102
{ACAD_REACTORS
330
7AA
102
}
330
7AA
100
AcDbXrecord
280
     1
102
ACAD_MATT_HEIGHT
140
2.489199936389923
  0
XRECORD
  5
7FC
102
{ACAD_REACTORS
330
7AD
102
}
330
7AD
100
AcDbXrecord
280
     1
 70
     4
 70
     0
 70
     0
 40
1.0
  2
WELS_LABEL
  1
Embedded Object
 10
-1.770562104181223
 20
5.278937597274762
 30
0.0
 40
2.489199936389923
 41
0.0
 46
0.0
 71
     1
 72
     5
  1
BBBBB
  7
Text Style58
 73
     1
 44
1.0
  0
XRECORD
  5
7FB
102
{ACAD_REACTORS
330
7AD
102
}
330
7AD
100
AcDbXrecord
280
     1
102
ACAD_MATT_HEIGHT
140
2.489199936389923
  0
XRECORD
  5
7FE
102
{ACAD_REACTORS
330
7B0
102
}
330
7B0
100
AcDbXrecord
280
     1
 70
     4
 70
     0
 70
     0
 40
1.0
  2
CARTON
  1
Embedded Object
 10
-21.33546779636852
 20
1.348937597274755
 30
0.0
 40
2.489199936389923
 41
0.0
 46
0.0
 71
     1
 72
     5
  1
CCCC
  7
Text Style58
 73
     1
 44
1.0
  0
XRECORD
  5
7FD
102
{ACAD_REACTORS
330
7B0
102
}
330
7B0
100
AcDbXrecord
280
     1
102
ACAD_MATT_HEIGHT
140
2.489199936389923
  0
XRECORD
  5
800
102
{ACAD_REACTORS
330
7B3
102
}
330
7B3
100
AcDbXrecord
280
     1
 70
     4
 70
     0
 70
     0
 40
1.0
  2
MISC._PACKING
  1
Embedded Object
 10
-9.668322200110033
 20
-6.511062402725257
 30
0.0
 40
2.489199936389923
 41
0.0
 46
0.0
 71
     1
 72
     5
  1
DDDD
  7
Text Style58
 73
     1
 44
1.0
  0
XRECORD
  5
7FF
102
{ACAD_REACTORS
330
7B3
102
}
330
7B3
100
AcDbXrecord
280
     1
102
ACAD_MATT_HEIGHT
140
2.489199936389923
  0
XRECORD
  5
802
102
{ACAD_REACTORS
330
7B6
102
}
330
7B6
100
AcDbXrecord
280
     1
 70
     4
 70
     0
 70
     0
 40
1.0
  2
LABEL
  1
Embedded Object
 10
-25.37409511815028
 20
-2.581062402725251
 30
0.0
 40
2.489199936389923
 41
0.0
 46
0.0
 71
     1
 72
     5
  1
EEEE
  7
Text Style58
 73
     1
 44
1.0
  0
XRECORD
  5
801
102
{ACAD_REACTORS
330
7B6
102
}
330
7B6
100
AcDbXrecord
280
     1
102
ACAD_MATT_HEIGHT
140
2.489199936389923
  0
XRECORD
  5
804
102
{ACAD_REACTORS
330
7B9
102
}
330
7B9
100
AcDbXrecord
280
     1
 70
     4
 70
     0
 70
     0
 40
1.0
  2
WARRANTY_CARD
  1
Embedded Object
 10
-7.693882176127821
 20
-10.44106240272526
 30
0.0
 40
2.489199936389923
 41
0.0
 46
0.0
 71
     1
 72
     5
  1
FFFF
  7
Text Style58
 73
     1
 44
1.0
  0
XRECORD
  5
803
102
{ACAD_REACTORS
330
7B9
102
}
330
7B9
100
AcDbXrecord
280
     1
102
ACAD_MATT_HEIGHT
140
2.489199936389923
  0
XRECORD
  5
805
102
{ACAD_REACTORS
330
7BC
102
}
330
7BC
100
AcDbXrecord
280
     1
 40
673191.0
  1
\pxsm0.94;\fArial|b0|i0;\H3.5000;QUOTATION \PONLY\P\fArial|b0|i0;\H2.5000;May be subject to alteration prior to production.
  0
XRECORD
  5
807
102
{ACAD_REACTORS
330
7BE
102
}
330
7BE
100
AcDbXrecord
280
     1
 70
     4
 70
     0
 70
     0
 40
1.0
  2
NUMBER
  1
Embedded Object
 10
8.495247572028903
 20
-3.266478676813732
 30
0.0
 40
2.489199936389923
 41
0.0
 46
0.0
 71
     2
 72
     5
  1
5
  7
Text Style14
 73
     1
 44
1.0
  0
XRECORD
  5
806
102
{ACAD_REACTORS
330
7BE
102
}
330
7BE
100
AcDbXrecord
280
     1
102
ACAD_MATT_HEIGHT
140
2.489199936389923
  0
ACDBDETAILVIEWSTYLE
  5
6C
102
{ACAD_XDICTIONARY
360
7F2
102
}
102
{ACAD_REACTORS
330
6B
102
}
330
6B
100
AcDbModelDocViewStyle
 70
     0
  3
Imperial24
290
     0
100
AcDbDetailViewStyle
 70
     0
 71
     0
 90
        3
 71
     1
340
55
 62
   256
 40
0.24
340
0
 62
   256
 40
0.24
300

 40
0.36
280
     3
 71
     2
340
5D
 90
       25
 62
   256
 71
     3
340
55
 62
   256
 40
0.24
 90
        1
 40
0.75
 90
        1
300
%<\AcVar ViewType \f "%tc1">% %<\AcVar ViewDetailId>%\PSCALE %<\AcVar ViewScale \f "%sn">%
 71
     4
340
5D
 90
       25
 62
   256
340
5D
 90
       25
 62
   256
280
     0
  0
ACDBDETAILVIEWSTYLE
  5
7C8
102
{ACAD_XDICTIONARY
360
80A
102
}
102
{ACAD_REACTORS
330
6B
102
}
330
6B
100
AcDbModelDocViewStyle
 70
     0
  3
Metric50
290
     0
100
AcDbDetailViewStyle
 70
     0
 71
     0
 90
        3
 71
     1
340
55
 62
   256
 40
5.0
340
0
 62
   256
 40
5.0
300

 40
0.0
280
     1
 71
     2
340
5D
 90
       25
 62
   256
 71
     3
340
55
 62
   256
 40
5.0
 90
        0
 40
15.0
 90
        1
300
%<\AcVar ViewDetailId>% (%<\AcVar ViewScale \f "%sn">%)
 71
     4
340
5D
 90
       25
 62
   256
340
5D
 90
       25
 62
   256
280
     0
  0
LAYOUT
  5
70
102
{ACAD_REACTORS
330
62
102
}
330
62
100
AcDbPlotSettings
  1

  2

  4

  6

 40
0.0
 41
0.0
 42
0.0
 43
0.0
 44
0.0
 45
0.0
 46
0.0
 47
0.0
 48
0.0
 49
0.0
140
0.0
141
0.0
142
1.0
143
1.0
 70
   688
 72
     0
 73
     0
 74
     5
  7

 75
    16
147
1.0
 76
     0
 77
     2
 78
   300
148
0.0
149
0.0
100
AcDbLayout
  1
Layout1
 70
     1
 71
     1
 10
0.0
 20
0.0
 11
495.0
 21
350.0
 12
0.0
 22
0.0
 32
0.0
 14
0.0
 24
0.0
 34
0.0
 15
495.0
 25
350.0
 35
0.0
146
0.0
 13
0.0
 23
0.0
 33
0.0
 16
1.0
 26
0.0
 36
0.0
 17
0.0
 27
1.0
 37
0.0
 76
     0
330
6D
  0
LAYOUT
  5
78
102
{ACAD_REACTORS
330
62
102
}
330
62
100
AcDbPlotSettings
  1

  2

  4

  6

 40
0.0
 41
0.0
 42
0.0
 43
0.0
 44
0.0
 45
0.0
 46
0.0
 47
0.0
 48
0.0
 49
0.0
140
0.0
141
0.0
142
1.0
143
1.0
 70
   688
 72
     0
 73
     0
 74
     5
  7

 75
    16
147
1.0
 76
     0
 77
     2
 78
   300
148
0.0
149
0.0
100
AcDbLayout
  1
Layout2
 70
     1
 71
     2
 10
0.0
 20
0.0
 11
12.0
 21
9.0
 12
0.0
 22
0.0
 32
0.0
 14
0.0
 24
0.0
 34
0.0
 15
0.0
 25
0.0
 35
0.0
146
0.0
 13
0.0
 23
0.0
 33
0.0
 16
1.0
 26
0.0
 36
0.0
 17
0.0
 27
1.0
 37
0.0
 76
     0
330
75
  0
LAYOUT
  5
74
102
{ACAD_REACTORS
330
62
102
}
330
62
100
AcDbPlotSettings
  1

  2

  4

  6

 40
0.0
 41
0.0
 42
0.0
 43
0.0
 44
0.0
 45
0.0
 46
0.0
 47
0.0
 48
0.0
 49
0.0
140
0.0
141
0.0
142
1.0
143
1.0
 70
  1712
 72
     0
 73
     0
 74
     0
  7

 75
     0
147
1.0
 76
     0
 77
     2
 78
   300
148
0.0
149
0.0
100
AcDbLayout
  1
Model
 70
     1
 71
     0
 10
0.0
 20
0.0
 11
12.0
 21
9.0
 12
0.0
 22
0.0
 32
0.0
 14
0.0
 24
0.0
 34
0.0
 15
0.0
 25
0.0
 35
0.0
146
0.0
 13
0.0
 23
0.0
 33
0.0
 16
1.0
 26
0.0
 36
0.0
 17
0.0
 27
1.0
 37
0.0
 76
     0
330
71
331
57
  0
MATERIAL
  5
19
102
{ACAD_XDICTIONARY
360
1A
102
}
102
{ACAD_REACTORS
330
10
102
}
330
10
100
AcDbMaterial
  1
ByBlock
 72
     0
 43
0.0208333333333333
 43
0.0
 43
0.0
 43
0.0
 43
0.0
 43
0.0208333333333333
 43
0.0
 43
0.0
 43
0.0
 43
0.0
 43
1.0
 43
0.0
 43
0.0
 43
0.0
 43
0.0
 43
1.0
 77
     0
 47
0.0208333333333333
 47
0.0
 47
0.0
 47
0.0
 47
0.0
 47
0.0208333333333333
 47
0.0
 47
0.0
 47
0.0
 47
0.0
 47
1.0
 47
0.0
 47
0.0
 47
0.0
 47
0.0
 47
1.0
171
     0
 49
0.0208333333333333
 49
0.0
 49
0.0
 49
0.0
 49
0.0
 49
0.0208333333333333
 49
0.0
 49
0.0
 49
0.0
 49
0.0
 49
1.0
 49
0.0
 49
0.0
 49
0.0
 49
0.0
 49
1.0
175
     0
142
0.0208333333333333
142
0.0
142
0.0
142
0.0
142
0.0
142
0.0208333333333333
142
0.0
142
0.0
142
0.0
142
0.0
142
1.0
142
0.0
142
0.0
142
0.0
142
0.0
142
1.0
179
     0
144
0.0208333333333333
144
0.0
144
0.0
144
0.0
144
0.0
144
0.0208333333333333
144
0.0
144
0.0
144
0.0
144
0.0
144
1.0
144
0.0
144
0.0
144
0.0
144
0.0
144
1.0
147
0.0208333333333333
147
0.0
147
0.0
147
0.0
147
0.0
147
0.0208333333333333
147
0.0
147
0.0
147
0.0
147
0.0
147
1.0
147
0.0
147
0.0
147
0.0
147
0.0
147
1.0
  0
MATERIAL
  5
11
102
{ACAD_XDICTIONARY
360
12
102
}
102
{ACAD_REACTORS
330
10
102
}
330
10
100
AcDbMaterial
  1
ByLayer
 72
     0
 43
0.0208333333333333
 43
0.0
 43
0.0
 43
0.0
 43
0.0
 43
0.0208333333333333
 43
0.0
 43
0.0
 43
0.0
 43
0.0
 43
1.0
 43
0.0
 43
0.0
 43
0.0
 43
0.0
 43
1.0
 77
     0
 47
0.0208333333333333
 47
0.0
 47
0.0
 47
0.0
 47
0.0
 47
0.0208333333333333
 47
0.0
 47
0.0
 47
0.0
 47
0.0
 47
1.0
 47
0.0
 47
0.0
 47
0.0
 47
0.0
 47
1.0
171
     0
 49
0.0208333333333333
 49
0.0
 49
0.0
 49
0.0
 49
0.0
 49
0.0208333333333333
 49
0.0
 49
0.0
 49
0.0
 49
0.0
 49
1.0
 49
0.0
 49
0.0
 49
0.0
 49
0.0
 49
1.0
175
     0
142
0.0208333333333333
142
0.0
142
0.0
142
0.0
142
0.0
142
0.0208333333333333
142
0.0
142
0.0
142
0.0
142
0.0
142
1.0
142
0.0
142
0.0
142
0.0
142
0.0
142
1.0
179
     0
144
0.0208333333333333
144
0.0
144
0.0
144
0.0
144
0.0
144
0.0208333333333333
144
0.0
144
0.0
144
0.0
144
0.0
144
1.0
144
0.0
144
0.0
144
0.0
144
0.0
144
1.0
147
0.0208333333333333
147
0.0
147
0.0
147
0.0
147
0.0
147
0.0208333333333333
147
0.0
147
0.0
147
0.0
147
0.0
147
1.0
147
0.0
147
0.0
147
0.0
147
0.0
147
1.0
  0
MATERIAL
  5
21
102
{ACAD_XDICTIONARY
360
22
102
}
102
{ACAD_REACTORS
330
10
102
}
330
10
100
AcDbMaterial
  1
Global
 72
     0
 43
0.0208333333333333
 43
0.0
 43
0.0
 43
0.0
 43
0.0
 43
0.0208333333333333
 43
0.0
 43
0.0
 43
0.0
 43
0.0
 43
1.0
 43
0.0
 43
0.0
 43
0.0
 43
0.0
 43
1.0
 77
     0
 47
0.0208333333333333
 47
0.0
 47
0.0
 47
0.0
 47
0.0
 47
0.0208333333333333
 47
0.0
 47
0.0
 47
0.0
 47
0.0
 47
1.0
 47
0.0
 47
0.0
 47
0.0
 47
0.0
 47
1.0
171
     0
 49
0.0208333333333333
 49
0.0
 49
0.0
 49
0.0
 49
0.0
 49
0.0208333333333333
 49
0.0
 49
0.0
 49
0.0
 49
0.0
 49
1.0
 49
0.0
 49
0.0
 49
0.0
 49
0.0
 49
1.0
175
     0
142
0.0208333333333333
142
0.0
142
0.0
142
0.0
142
0.0
142
0.0208333333333333
142
0.0
142
0.0
142
0.0
142
0.0
142
1.0
142
0.0
142
0.0
142
0.0
142
0.0
142
1.0
179
     0
144
0.0208333333333333
144
0.0
144
0.0
144
0.0
144
0.0
144
0.0208333333333333
144
0.0
144
0.0
144
0.0
144
0.0
144
1.0
144
0.0
144
0.0
144
0.0
144
0.0
144
1.0
147
0.0208333333333333
147
0.0
147
0.0
147
0.0
147
0.0
147
0.0208333333333333
147
0.0
147
0.0
147
0.0
147
0.0
147
1.0
147
0.0
147
0.0
147
0.0
147
0.0
147
1.0
  0
MLEADERSTYLE
  5
67
102
{ACAD_REACTORS
330
66
102
}
330
66
100
AcDbMLeaderStyle
179
     2
170
     2
171
     1
172
     0
 90
        2
 40
0.0
 41
0.0
173
     1
 91
-1056964608
340
5B
 92
       -2
290
     1
 42
0.09
291
     1
 43
0.36
  3
Standard
 44
0.18
300

342
55
174
     1
178
     6
175
     1
176
     0
 93
-1056964608
 45
0.18
292
     0
297
     0
 46
0.18
 94
-1056964608
 47
1.0
 49
1.0
140
1.0
293
     1
141
0.0
294
     1
177
     0
142
1.0
295
     0
296
     0
143
0.125
271
     0
272
     9
273
     9
298
     1
  0
MLINESTYLE
  5
60
102
{ACAD_REACTORS
330
5F
102
}
330
5F
100
AcDbMlineStyle
  2
STANDARD
 70
     0
  3

 62
   256
 51
90.0
 52
90.0
 71
     2
 49
0.5
 62
   256
  6
BYLAYER
 49
-0.5
 62
   256
  6
BYLAYER
  0
ACDBPLACEHOLDER
  5
F
102
{ACAD_REACTORS
330
E
102
}
330
E
  0
SCALE
  5
43
102
{ACAD_REACTORS
330
42
102
}
330
42
100
AcDbScale
 70
     0
300
1:1
140
1.0
141
1.0
290
     1
  0
SCALE
  5
44
102
{ACAD_REACTORS
330
42
102
}
330
42
100
AcDbScale
 70
     0
300
1/128" = 1'-0"
140
0.0078125
141
12.0
290
     0
  0
SCALE
  5
45
102
{ACAD_REACTORS
330
42
102
}
330
42
100
AcDbScale
 70
     0
300
1/64" = 1'-0"
140
0.015625
141
12.0
290
     0
  0
SCALE
  5
46
102
{ACAD_REACTORS
330
42
102
}
330
42
100
AcDbScale
 70
     0
300
1/32" = 1'-0"
140
0.03125
141
12.0
290
     0
  0
SCALE
  5
47
102
{ACAD_REACTORS
330
42
102
}
330
42
100
AcDbScale
 70
     0
300
1/16" = 1'-0"
140
0.0625
141
12.0
290
     0
  0
SCALE
  5
48
102
{ACAD_REACTORS
330
42
102
}
330
42
100
AcDbScale
 70
     0
300
3/32" = 1'-0"
140
0.09375
141
12.0
290
     0
  0
SCALE
  5
49
102
{ACAD_REACTORS
330
42
102
}
330
42
100
AcDbScale
 70
     0
300
1/8" = 1'-0"
140
0.125
141
12.0
290
     0
  0
SCALE
  5
4A
102
{ACAD_REACTORS
330
42
102
}
330
42
100
AcDbScale
 70
     0
300
3/16" = 1'-0"
140
0.1875
141
12.0
290
     0
  0
SCALE
  5
4B
102
{ACAD_REACTORS
330
42
102
}
330
42
100
AcDbScale
 70
     0
300
1/4" = 1'-0"
140
0.25
141
12.0
290
     0
  0
SCALE
  5
4C
102
{ACAD_REACTORS
330
42
102
}
330
42
100
AcDbScale
 70
     0
300
3/8" = 1'-0"
140
0.375
141
12.0
290
     0
  0
SCALE
  5
4D
102
{ACAD_REACTORS
330
42
102
}
330
42
100
AcDbScale
 70
     0
300
1/2" = 1'-0"
140
0.5
141
12.0
290
     0
  0
SCALE
  5
4E
102
{ACAD_REACTORS
330
42
102
}
330
42
100
AcDbScale
 70
     0
300
3/4" = 1'-0"
140
0.75
141
12.0
290
     0
  0
SCALE
  5
4F
102
{ACAD_REACTORS
330
42
102
}
330
42
100
AcDbScale
 70
     0
300
1" = 1'-0"
140
1.0
141
12.0
290
     0
  0
SCALE
  5
50
102
{ACAD_REACTORS
330
42
102
}
330
42
100
AcDbScale
 70
     0
300
1-1/2" = 1'-0"
140
1.5
141
12.0
290
     0
  0
SCALE
  5
51
102
{ACAD_REACTORS
330
42
102
}
330
42
100
AcDbScale
 70
     0
300
3" = 1'-0"
140
3.0
141
12.0
290
     0
  0
SCALE
  5
52
102
{ACAD_REACTORS
330
42
102
}
330
42
100
AcDbScale
 70
     0
300
6" = 1'-0"
140
6.0
141
12.0
290
     0
  0
SCALE
  5
53
102
{ACAD_REACTORS
330
42
102
}
330
42
100
AcDbScale
 70
     0
300
1'-0" = 1'-0"
140
12.0
141
12.0
290
     0
  0
ACDBSECTIONVIEWSTYLE
  5
6A
102
{ACAD_XDICTIONARY
360
7F0
102
}
102
{ACAD_REACTORS
330
68
102
}
330
68
100
AcDbModelDocViewStyle
 70
     0
  3
Imperial24
290
     0
100
AcDbSectionViewStyle
 70
     0
 71
     0
 90
       78
 71
     1
340
55
 62
   256
 40
0.24
340
0
340
0
 62
   256
 40
0.24
300
I, O, Q, S, X, Z
 40
0.48
 90
        3
 40
0.18
 90
        1
 71
     2
340
69
 90
       25
 62
   256
340
5D
 90
       50
 62
   256
 40
0.24
 40
0.0
 40
0.24
 71
     3
340
55
 62
   256
 40
0.24
 90
        1
 40
0.75
 90
        1
300
%<\AcVar ViewType \f "%tc1">% %<\AcVar ViewSectionStartId>%-%<\AcVar ViewSectionEndId>%\PSCALE %<\AcVar ViewScale \f "%sn">%
 71
     4
 62
   256
 62
   257
300
ANSI31
 40
1.0
 90
        0
290
     0
290
     0
 90
        6
 40
0.0
 40
1.570796326794896
 40
0.2617993877991494
 40
1.308996938995747
 40
-0.2617993877991494
 40
1.832595714594045
  0
ACDBSECTIONVIEWSTYLE
  5
7C7
102
{ACAD_XDICTIONARY
360
808
102
}
102
{ACAD_REACTORS
330
68
102
}
330
68
100
AcDbModelDocViewStyle
 70
     0
  3
Metric50
290
     0
100
AcDbSectionViewStyle
 70
     0
 71
     0
 90
      102
 71
     1
340
55
 62
   256
 40
5.0
340
0
340
0
 62
   256
 40
5.0
300
I, O, Q, S, X, Z
 40
10.0
 90
        0
 40
2.5
 90
        0
 71
     2
340
5D
 90
       25
 62
   256
340
5D
 90
       50
 62
   256
 40
5.0
 40
2.5
 40
5.0
 71
     3
340
55
 62
   256
 40
5.0
 90
        0
 40
15.0
 90
        1
300
%<\AcVar ViewSectionStartId>%-%<\AcVar ViewSectionEndId>% (%<\AcVar ViewScale \f "%sn">%)
 71
     4
 62
   256
 62
   257
300
ANSI31
 40
1.0
 90
        0
290
     0
290
     0
 90
        6
 40
0.0
 40
1.570796326794896
 40
0.2617993877991494
 40
1.308996938995747
 40
-0.2617993877991494
 40
1.832595714594046
  0
TABLESTYLE
  5
65
102
{ACAD_XDICTIONARY
360
79F
102
}
102
{ACAD_REACTORS
330
64
102
}
330
64
100
AcDbTableStyle
280
     0
  3
Standard
 70
     0
 71
     0
 40
0.06
 41
0.06
280
     0
281
     0
  7
Standard
140
0.18
170
     2
 62
     0
 63
     7
283
     0
 90
      512
 91
        0
  1

274
    -2
284
     1
 64
     0
275
    -2
285
     1
 65
     0
276
    -2
286
     1
 66
     0
277
    -2
287
     1
 67
     0
278
    -2
288
     1
 68
     0
279
    -2
289
     1
 69
     0
  7
Standard
140
0.25
170
     5
 62
     0
 63
     7
283
     0
 90
      512
 91
        0
  1

274
    -2
284
     1
 64
     0
275
    -2
285
     1
 65
     0
276
    -2
286
     1
 66
     0
277
    -2
287
     1
 67
     0
278
    -2
288
     1
 68
     0
279
    -2
289
     1
 69
     0
  7
Standard
140
0.18
170
     5
 62
     0
 63
     7
283
     0
 90
      512
 91
        0
  1

274
    -2
284
     1
 64
     0
275
    -2
285
     1
 65
     0
276
    -2
286
     1
 66
     0
277
    -2
287
     1
 67
     0
278
    -2
288
     1
 68
     0
279
    -2
289
     1
 69
     0
  0
VISUALSTYLE
  5
2F
102
{ACAD_REACTORS
330
29
102
}
330
29
100
AcDbVisualStyle
  2
2dWireframe
 70
     4
177
     3
291
     0
 70
    58
 90
        0
176
     1
 90
        2
176
     1
 90
        0
176
     1
 90
        0
176
     1
 40
0.6
176
     1
 40
30.0
176
     1
 62
     7
420
 16777215
176
     1
 90
        1
176
     1
 90
        4
176
     1
 62
     7
176
     1
 62
   257
176
     1
 90
        1
176
     1
 90
        1
176
     1
 40
1.0
176
     1
 90
        0
176
     1
 62
   257
176
     1
 40
1.0
176
     1
 90
        1
176
     1
 90
        6
176
     1
 90
        2
176
     1
 62
     7
176
     1
 90
        5
176
     1
 90
        0
176
     1
 90
        0
176
     1
290
     0
176
     1
 90
        1
176
     1
 40
0.0
176
     1
 90
        0
176
     1
290
     1
176
     1
290
     1
176
     1
290
     0
176
     1
290
     0
176
     1
290
     0
176
     1
290
     0
176
     1
290
     0
176
     1
290
     0
176
     1
290
     0
176
     1
 90
       50
176
     1
 40
0.0
176
     1
 40
1.0
176
     1
 90
        0
176
     1
 62
    18
176
     1
 90
       50
176
     1
 90
        3
176
     1
 62
     5
420
      255
176
     1
290
     0
176
     1
 90
       50
176
     1
 90
       50
176
     1
 90
       50
176
     1
290
     0
176
     1
 90
       50
176
     1
 62
   256
176
     0
 40
1.0
176
     0
 90
        2
176
     1
  1
strokes_ogs.tif
176
     1
290
     0
176
     1
 40
1.0
176
     1
 40
1.0
176
     1
  0
VISUALSTYLE
  5
2E
102
{ACAD_REACTORS
330
29
102
}
330
29
100
AcDbVisualStyle
  2
Basic
 70
     7
177
     3
291
     1
 70
    58
 90
        1
176
     1
 90
        0
176
     1
 90
        1
176
     1
 90
        0
176
     1
 40
0.6
176
     1
 40
30.0
176
     1
 62
     7
420
 16777215
176
     1
 90
        0
176
     1
 90
        4
176
     1
 62
     7
176
     1
 62
   257
176
     1
 90
        1
176
     1
 90
        1
176
     1
 40
1.0
176
     1
 90
        8
176
     1
 62
     7
176
     1
 40
1.0
176
     1
 90
        1
176
     1
 90
        6
176
     1
 90
        2
176
     1
 62
     7
176
     1
 90
        5
176
     1
 90
        0
176
     1
 90
        0
176
     1
290
     0
176
     1
 90
        1
176
     1
 40
0.0
176
     1
 90
        0
176
     1
290
     0
176
     1
290
     1
176
     1
290
     1
176
     1
290
     0
176
     1
290
     0
176
     1
290
     0
176
     1
290
     0
176
     1
290
     0
176
     1
290
     0
176
     1
 90
       50
176
     1
 40
0.0
176
     1
 40
1.0
176
     1
 90
        0
176
     1
 62
    18
176
     1
 90
       50
176
     1
 90
        3
176
     1
 62
     5
420
      255
176
     1
290
     0
176
     1
 90
       50
176
     1
 90
       50
176
     1
 90
       50
176
     1
290
     0
176
     1
 90
       50
176
     1
 62
   256
176
     0
 40
1.0
176
     0
 90
        2
176
     1
  1
strokes_ogs.tif
176
     1
290
     0
176
     1
 40
1.0
176
     1
 40
1.0
176
     1
  0
VISUALSTYLE
  5
35
102
{ACAD_REACTORS
330
29
102
}
330
29
100
AcDbVisualStyle
  2
Brighten
 70
    12
177
     3
291
     1
 70
    58
 90
        2
176
     1
 90
        2
176
     1
 90
        0
176
     1
 90
        0
176
     1
 40
0.6
176
     1
 40
30.0
176
     1
 62
     7
420
 16777215
176
     1
 90
        1
176
     1
 90
        4
176
     1
 62
     7
176
     1
 62
   257
176
     1
 90
        1
176
     1
 90
        1
176
     1
 40
1.0
176
     1
 90
        8
176
     1
 62
     7
176
     1
 40
1.0
176
     1
 90
        1
176
     1
 90
        6
176
     1
 90
        2
176
     1
 62
     7
176
     1
 90
        5
176
     1
 90
        0
176
     1
 90
        0
176
     1
290
     0
176
     1
 90
        1
176
     1
 40
50.0
176
     1
 90
        0
176
     1
290
     0
176
     1
290
     1
176
     1
290
     1
176
     1
290
     0
176
     1
290
     0
176
     1
290
     0
176
     1
290
     0
176
     1
290
     0
176
     1
290
     0
176
     1
 90
       50
176
     1
 40
0.0
176
     1
 40
1.0
176
     1
 90
        0
176
     1
 62
    18
176
     1
 90
       50
176
     1
 90
        3
176
     1
 62
     5
420
      255
176
     1
290
     0
176
     1
 90
       50
176
     1
 90
       50
176
     1
 90
       50
176
     1
290
     0
176
     1
 90
       50
176
     1
 62
   256
176
     0
 40
1.0
176
     0
 90
        2
176
     1
  1
strokes_ogs.tif
176
     1
290
     0
176
     1
 40
1.0
176
     1
 40
1.0
176
     1
  0
VISUALSTYLE
  5
39
102
{ACAD_REACTORS
330
29
102
}
330
29
100
AcDbVisualStyle
  2
ColorChange
 70
    16
177
     3
291
     1
 70
    58
 90
        2
176
     1
 90
        2
176
     1
 90
        3
176
     1
 90
        0
176
     1
 40
0.6
176
     1
 40
30.0
176
     1
 62
     8
420
  8421504
176
     1
 90
        1
176
     1
 90
        4
176
     1
 62
     7
176
     1
 62
   257
176
     1
 90
        1
176
     1
 90
        1
176
     1
 40
1.0
176
     1
 90
        8
176
     1
 62
     8
420
  8421504
176
     1
 40
1.0
176
     1
 90
        1
176
     1
 90
        6
176
     1
 90
        2
176
     1
 62
     7
176
     1
 90
        5
176
     1
 90
        0
176
     1
 90
        0
176
     1
290
     0
176
     1
 90
        1
176
     1
 40
0.0
176
     1
 90
        0
176
     1
290
     0
176
     1
290
     1
176
     1
290
     1
176
     1
290
     0
176
     1
290
     0
176
     1
290
     0
176
     1
290
     0
176
     1
290
     0
176
     1
290
     0
176
     1
 90
       50
176
     1
 40
0.0
176
     1
 40
1.0
176
     1
 90
        0
176
     1
 62
    18
176
     1
 90
       50
176
     1
 90
        3
176
     1
 62
     5
420
      255
176
     1
290
     0
176
     1
 90
       50
176
     1
 90
       50
176
     1
 90
       50
176
     1
290
     0
176
     1
 90
       50
176
     1
 62
   256
176
     0
 40
1.0
176
     0
 90
        2
176
     1
  1
strokes_ogs.tif
176
     1
290
     0
176
     1
 40
1.0
176
     1
 40
1.0
176
     1
  0
VISUALSTYLE
  5
32
102
{ACAD_REACTORS
330
29
102
}
330
29
100
AcDbVisualStyle
  2
Conceptual
 70
     9
177
     3
291
     0
 70
    58
 90
        3
176
     1
 90
        2
176
     1
 90
        0
176
     1
 90
        0
176
     1
 40
0.6
176
     1
 40
30.0
176
     1
 62
     7
420
 16777215
176
     1
 90
        2
176
     1
 90
        2
176
     1
 62
     7
176
     1
 62
   257
176
     1
 90
        1
176
     1
 90
        1
176
     1
 40
179.0
176
     1
 90
        8
176
     1
 62
     7
176
     1
 40
1.0
176
     1
 90
        1
176
     1
 90
        6
176
     1
 90
        2
176
     1
 62
     7
176
     1
 90
        3
176
     1
 90
        0
176
     1
 90
        0
176
     1
290
     0
176
     1
 90
        1
176
     1
 40
0.0
176
     1
 90
        0
176
     1
290
     0
176
     1
290
     1
176
     1
290
     1
176
     1
290
     0
176
     1
290
     0
176
     1
290
     0
176
     1
290
     0
176
     1
290
     0
176
     1
290
     0
176
     1
 90
       50
176
     1
 40
0.0
176
     1
 40
1.0
176
     1
 90
        0
176
     1
 62
    18
176
     1
 90
       50
176
     1
 90
        3
176
     1
 62
     5
420
      255
176
     1
290
     0
176
     1
 90
       50
176
     1
 90
       50
176
     1
 90
       50
176
     1
290
     0
176
     1
 90
       50
176
     1
 62
   256
176
     0
 40
1.0
176
     0
 90
        2
176
     1
  1
strokes_ogs.tif
176
     1
290
     0
176
     1
 40
1.0
176
     1
 40
1.0
176
     1
  0
VISUALSTYLE
  5
34
102
{ACAD_REACTORS
330
29
102
}
330
29
100
AcDbVisualStyle
  2
Dim
 70
    11
177
     3
291
     1
 70
    58
 90
        2
176
     1
 90
        2
176
     1
 90
        0
176
     1
 90
        0
176
     1
 40
0.6
176
     1
 40
30.0
176
     1
 62
     7
420
 16777215
176
     1
 90
        1
176
     1
 90
        4
176
     1
 62
     7
176
     1
 62
   257
176
     1
 90
        1
176
     1
 90
        1
176
     1
 40
1.0
176
     1
 90
        8
176
     1
 62
     7
176
     1
 40
1.0
176
     1
 90
        1
176
     1
 90
        6
176
     1
 90
        2
176
     1
 62
     7
176
     1
 90
        5
176
     1
 90
        0
176
     1
 90
        0
176
     1
290
     0
176
     1
 90
        1
176
     1
 40
-50.0
176
     1
 90
        0
176
     1
290
     0
176
     1
290
     1
176
     1
290
     1
176
     1
290
     0
176
     1
290
     0
176
     1
290
     0
176
     1
290
     0
176
     1
290
     0
176
     1
290
     0
176
     1
 90
       50
176
     1
 40
0.0
176
     1
 40
1.0
176
     1
 90
        0
176
     1
 62
    18
176
     1
 90
       50
176
     1
 90
        3
176
     1
 62
     5
420
      255
176
     1
290
     0
176
     1
 90
       50
176
     1
 90
       50
176
     1
 90
       50
176
     1
290
     0
176
     1
 90
       50
176
     1
 62
   256
176
     0
 40
1.0
176
     0
 90
        2
176
     1
  1
strokes_ogs.tif
176
     1
290
     0
176
     1
 40
1.0
176
     1
 40
1.0
176
     1
  0
VISUALSTYLE
  5
41
102
{ACAD_REACTORS
330
29
102
}
330
29
100
AcDbVisualStyle
  2
EdgeColorOff
 70
    22
177
     3
291
     1
 70
    58
 90
        2
176
     0
 90
        2
176
     0
 90
        0
176
     0
 90
        0
176
     0
 40
0.6
176
     0
 40
30.0
176
     0
 62
     7
420
 16777215
176
     0
 90
        1
176
     0
 90
        4
176
     0
 62
     7
176
     0
 62
   257
176
     0
 90
        1
176
     0
 90
        1
176
     0
 40
1.0
176
     0
 90
        8
176
     2
 62
     7
176
     0
 40
1.0
176
     0
 90
        1
176
     0
 90
        6
176
     0
 90
        2
176
     0
 62
     7
176
     0
 90
        5
176
     0
 90
        0
176
     0
 90
        0
176
     0
290
     0
176
     0
 90
        1
176
     0
 40
0.0
176
     0
 90
        0
176
     0
290
     0
176
     0
290
     1
176
     0
290
     1
176
     0
290
     0
176
     0
290
     0
176
     0
290
     0
176
     0
290
     0
176
     0
290
     0
176
     0
290
     0
176
     0
 90
       50
176
     0
 40
0.0
176
     0
 40
1.0
176
     0
 90
        0
176
     0
 62
    18
176
     0
 90
       50
176
     0
 90
        3
176
     0
 62
     5
420
      255
176
     0
290
     0
176
     0
 90
       50
176
     0
 90
       50
176
     0
 90
       50
176
     0
290
     0
176
     0
 90
       50
176
     0
 62
   256
176
     0
 40
1.0
176
     0
 90
        2
176
     0
  1
strokes_ogs.tif
176
     0
290
     0
176
     0
 40
1.0
176
     0
 40
1.0
176
     0
  0
VISUALSTYLE
  5
38
102
{ACAD_REACTORS
330
29
102
}
330
29
100
AcDbVisualStyle
  2
Facepattern
 70
    15
177
     3
291
     1
 70
    58
 90
        2
176
     1
 90
        2
176
     1
 90
        0
176
     1
 90
        0
176
     1
 40
0.6
176
     1
 40
30.0
176
     1
 62
     7
420
 16777215
176
     1
 90
        1
176
     1
 90
        4
176
     1
 62
     7
176
     1
 62
   257
176
     1
 90
        1
176
     1
 90
        1
176
     1
 40
1.0
176
     1
 90
        8
176
     1
 62
     7
176
     1
 40
1.0
176
     1
 90
        1
176
     1
 90
        6
176
     1
 90
        2
176
     1
 62
     7
176
     1
 90
        5
176
     1
 90
        0
176
     1
 90
        0
176
     1
290
     0
176
     1
 90
        1
176
     1
 40
0.0
176
     1
 90
        0
176
     1
290
     0
176
     1
290
     1
176
     1
290
     1
176
     1
290
     0
176
     1
290
     0
176
     1
290
     0
176
     1
290
     0
176
     1
290
     0
176
     1
290
     0
176
     1
 90
       50
176
     1
 40
0.0
176
     1
 40
1.0
176
     1
 90
        0
176
     1
 62
    18
176
     1
 90
       50
176
     1
 90
        3
176
     1
 62
     5
420
      255
176
     1
290
     0
176
     1
 90
       50
176
     1
 90
       50
176
     1
 90
       50
176
     1
290
     0
176
     1
 90
       50
176
     1
 62
   256
176
     0
 40
1.0
176
     0
 90
        2
176
     1
  1
strokes_ogs.tif
176
     1
290
     0
176
     1
 40
1.0
176
     1
 40
1.0
176
     1
  0
VISUALSTYLE
  5
2A
102
{ACAD_REACTORS
330
29
102
}
330
29
100
AcDbVisualStyle
  2
Flat
 70
     0
177
     3
291
     1
 70
    58
 90
        2
176
     1
 90
        1
176
     1
 90
        1
176
     1
 90
        2
176
     1
 40
0.6
176
     1
 40
30.0
176
     1
 62
     7
420
 16777215
176
     1
 90
        0
176
     1
 90
        0
176
     1
 62
     7
176
     1
 62
   257
176
     1
 90
        1
176
     1
 90
        1
176
     1
 40
1.0
176
     1
 90
        8
176
     1
 62
     7
176
     1
 40
1.0
176
     1
 90
        1
176
     1
 90
        6
176
     1
 90
        2
176
     1
 62
     7
176
     1
 90
        5
176
     1
 90
        0
176
     1
 90
        0
176
     1
290
     0
176
     1
 90
       13
176
     1
 40
0.0
176
     1
 90
        0
176
     1
290
     0
176
     1
290
     1
176
     1
290
     1
176
     1
290
     0
176
     1
290
     0
176
     1
290
     0
176
     1
290
     0
176
     1
290
     0
176
     1
290
     0
176
     1
 90
       50
176
     1
 40
0.0
176
     1
 40
1.0
176
     1
 90
        0
176
     1
 62
    18
176
     1
 90
       50
176
     1
 90
        3
176
     1
 62
     5
420
      255
176
     1
290
     0
176
     1
 90
       50
176
     1
 90
       50
176
     1
 90
       50
176
     1
290
     0
176
     1
 90
       50
176
     1
 62
   256
176
     0
 40
1.0
176
     0
 90
        2
176
     1
  1
strokes_ogs.tif
176
     1
290
     0
176
     1
 40
1.0
176
     1
 40
1.0
176
     1
  0
VISUALSTYLE
  5
2B
102
{ACAD_REACTORS
330
29
102
}
330
29
100
AcDbVisualStyle
  2
FlatWithEdges
 70
     1
177
     3
291
     1
 70
    58
 90
        2
176
     1
 90
        1
176
     1
 90
        1
176
     1
 90
        2
176
     1
 40
0.6
176
     1
 40
30.0
176
     1
 62
     7
420
 16777215
176
     1
 90
        1
176
     1
 90
        0
176
     1
 62
     7
176
     1
 62
   257
176
     1
 90
        1
176
     1
 90
        1
176
     1
 40
1.0
176
     1
 90
        0
176
     1
 62
   257
176
     1
 40
1.0
176
     1
 90
        1
176
     1
 90
        6
176
     1
 90
        2
176
     1
 62
     7
176
     1
 90
        5
176
     1
 90
        0
176
     1
 90
        0
176
     1
290
     0
176
     1
 90
       13
176
     1
 40
0.0
176
     1
 90
        0
176
     1
290
     0
176
     1
290
     1
176
     1
290
     1
176
     1
290
     0
176
     1
290
     0
176
     1
290
     0
176
     1
290
     0
176
     1
290
     0
176
     1
290
     0
176
     1
 90
       50
176
     1
 40
0.0
176
     1
 40
1.0
176
     1
 90
        0
176
     1
 62
    18
176
     1
 90
       50
176
     1
 90
        3
176
     1
 62
     5
420
      255
176
     1
290
     0
176
     1
 90
       50
176
     1
 90
       50
176
     1
 90
       50
176
     1
290
     0
176
     1
 90
       50
176
     1
 62
   256
176
     0
 40
1.0
176
     0
 90
        2
176
     1
  1
strokes_ogs.tif
176
     1
290
     0
176
     1
 40
1.0
176
     1
 40
1.0
176
     1
  0
VISUALSTYLE
  5
2C
102
{ACAD_REACTORS
330
29
102
}
330
29
100
AcDbVisualStyle
  2
Gouraud
 70
     2
177
     3
291
     1
 70
    58
 90
        2
176
     1
 90
        2
176
     1
 90
        1
176
     1
 90
        2
176
     1
 40
0.6
176
     1
 40
30.0
176
     1
 62
     7
420
 16777215
176
     1
 90
        0
176
     1
 90
        0
176
     1
 62
     7
176
     1
 62
   257
176
     1
 90
        1
176
     1
 90
        1
176
     1
 40
1.0
176
     1
 90
        0
176
     1
 62
     7
176
     1
 40
1.0
176
     1
 90
        1
176
     1
 90
        6
176
     1
 90
        2
176
     1
 62
     7
176
     1
 90
        5
176
     1
 90
        0
176
     1
 90
        0
176
     1
290
     0
176
     1
 90
       13
176
     1
 40
0.0
176
     1
 90
        0
176
     1
290
     0
176
     1
290
     1
176
     1
290
     1
176
     1
290
     0
176
     1
290
     0
176
     1
290
     0
176
     1
290
     0
176
     1
290
     0
176
     1
290
     0
176
     1
 90
       50
176
     1
 40
0.0
176
     1
 40
1.0
176
     1
 90
        0
176
     1
 62
    18
176
     1
 90
       50
176
     1
 90
        3
176
     1
 62
     5
420
      255
176
     1
290
     0
176
     1
 90
       50
176
     1
 90
       50
176
     1
 90
       50
176
     1
290
     0
176
     1
 90
       50
176
     1
 62
   256
176
     0
 40
1.0
176
     0
 90
        2
176
     1
  1
strokes_ogs.tif
176
     1
290
     0
176
     1
 40
1.0
176
     1
 40
1.0
176
     1
  0
VISUALSTYLE
  5
2D
102
{ACAD_REACTORS
330
29
102
}
330
29
100
AcDbVisualStyle
  2
GouraudWithEdges
 70
     3
177
     3
291
     1
 70
    58
 90
        2
176
     1
 90
        2
176
     1
 90
        1
176
     1
 90
        2
176
     1
 40
0.6
176
     1
 40
30.0
176
     1
 62
     7
420
 16777215
176
     1
 90
        1
176
     1
 90
        0
176
     1
 62
     7
176
     1
 62
   257
176
     1
 90
        1
176
     1
 90
        1
176
     1
 40
1.0
176
     1
 90
        0
176
     1
 62
   257
176
     1
 40
1.0
176
     1
 90
        1
176
     1
 90
        6
176
     1
 90
        2
176
     1
 62
     7
176
     1
 90
        5
176
     1
 90
        0
176
     1
 90
        0
176
     1
290
     0
176
     1
 90
       13
176
     1
 40
0.0
176
     1
 90
        0
176
     1
290
     0
176
     1
290
     1
176
     1
290
     1
176
     1
290
     0
176
     1
290
     0
176
     1
290
     0
176
     1
290
     0
176
     1
290
     0
176
     1
290
     0
176
     1
 90
       50
176
     1
 40
0.0
176
     1
 40
1.0
176
     1
 90
        0
176
     1
 62
    18
176
     1
 90
       50
176
     1
 90
        3
176
     1
 62
     5
420
      255
176
     1
290
     0
176
     1
 90
       50
176
     1
 90
       50
176
     1
 90
       50
176
     1
290
     0
176
     1
 90
       50
176
     1
 62
   256
176
     0
 40
1.0
176
     0
 90
        2
176
     1
  1
strokes_ogs.tif
176
     1
290
     0
176
     1
 40
1.0
176
     1
 40
1.0
176
     1
  0
VISUALSTYLE
  5
31
102
{ACAD_REACTORS
330
29
102
}
330
29
100
AcDbVisualStyle
  2
Hidden
 70
     6
177
     3
291
     0
 70
    58
 90
        1
176
     1
 90
        2
176
     1
 90
        2
176
     1
 90
        0
176
     1
 40
0.6
176
     1
 40
30.0
176
     1
 62
     7
420
 16777215
176
     1
 90
        2
176
     1
 90
        2
176
     1
 62
     7
176
     1
 62
   257
176
     1
 90
        2
176
     1
 90
        1
176
     1
 40
40.0
176
     1
 90
        0
176
     1
 62
   257
176
     1
 40
1.0
176
     1
 90
        1
176
     1
 90
        6
176
     1
 90
        2
176
     1
 62
     7
176
     1
 90
        3
176
     1
 90
        0
176
     1
 90
        0
176
     1
290
     0
176
     1
 90
        1
176
     1
 40
0.0
176
     1
 90
        0
176
     1
290
     0
176
     1
290
     1
176
     1
290
     1
176
     1
290
     0
176
     1
290
     0
176
     1
290
     0
176
     1
290
     0
176
     1
290
     0
176
     1
290
     0
176
     1
 90
       50
176
     1
 40
0.0
176
     1
 40
1.0
176
     1
 90
        0
176
     1
 62
    18
176
     1
 90
       50
176
     1
 90
        3
176
     1
 62
     5
420
      255
176
     1
290
     0
176
     1
 90
       50
176
     1
 90
       50
176
     1
 90
       50
176
     1
290
     0
176
     1
 90
       50
176
     1
 62
   256
176
     0
 40
1.0
176
     0
 90
        2
176
     1
  1
strokes_ogs.tif
176
     1
290
     0
176
     1
 40
1.0
176
     1
 40
1.0
176
     1
  0
VISUALSTYLE
  5
3F
102
{ACAD_REACTORS
330
29
102
}
330
29
100
AcDbVisualStyle
  2
JitterOff
 70
    20
177
     3
291
     1
 70
    58
 90
        2
176
     0
 90
        2
176
     0
 90
        0
176
     0
 90
        0
176
     0
 40
0.6
176
     0
 40
30.0
176
     0
 62
     7
420
 16777215
176
     0
 90
        1
176
     0
 90
        4
176
     0
 62
     7
176
     0
 62
   257
176
     0
 90
        1
176
     0
 90
        1
176
     0
 40
1.0
176
     0
 90
       10
176
     2
 62
     7
176
     0
 40
1.0
176
     0
 90
        1
176
     0
 90
        6
176
     0
 90
        2
176
     0
 62
     7
176
     0
 90
        5
176
     0
 90
        0
176
     0
 90
        0
176
     0
290
     0
176
     0
 90
        1
176
     0
 40
0.0
176
     0
 90
        0
176
     0
290
     0
176
     0
290
     1
176
     0
290
     1
176
     0
290
     0
176
     0
290
     0
176
     0
290
     0
176
     0
290
     0
176
     0
290
     0
176
     0
290
     0
176
     0
 90
       50
176
     0
 40
0.0
176
     0
 40
1.0
176
     0
 90
        0
176
     0
 62
    18
176
     0
 90
       50
176
     0
 90
        3
176
     0
 62
     5
420
      255
176
     0
290
     0
176
     0
 90
       50
176
     0
 90
       50
176
     0
 90
       50
176
     0
290
     0
176
     0
 90
       50
176
     0
 62
   256
176
     0
 40
1.0
176
     0
 90
        2
176
     0
  1
strokes_ogs.tif
176
     0
290
     0
176
     0
 40
1.0
176
     0
 40
1.0
176
     0
  0
VISUALSTYLE
  5
37
102
{ACAD_REACTORS
330
29
102
}
330
29
100
AcDbVisualStyle
  2
Linepattern
 70
    14
177
     3
291
     1
 70
    58
 90
        2
176
     1
 90
        2
176
     1
 90
        0
176
     1
 90
        0
176
     1
 40
0.6
176
     1
 40
30.0
176
     1
 62
     7
420
 16777215
176
     1
 90
        1
176
     1
 90
        4
176
     1
 62
     7
176
     1
 62
   257
176
     1
 90
        7
176
     1
 90
        7
176
     1
 40
1.0
176
     1
 90
        8
176
     1
 62
     7
176
     1
 40
1.0
176
     1
 90
        1
176
     1
 90
        6
176
     1
 90
        2
176
     1
 62
     7
176
     1
 90
        5
176
     1
 90
        0
176
     1
 90
        0
176
     1
290
     0
176
     1
 90
        1
176
     1
 40
0.0
176
     1
 90
        0
176
     1
290
     0
176
     1
290
     1
176
     1
290
     1
176
     1
290
     0
176
     1
290
     0
176
     1
290
     0
176
     1
290
     0
176
     1
290
     0
176
     1
290
     0
176
     1
 90
       50
176
     1
 40
0.0
176
     1
 40
1.0
176
     1
 90
        0
176
     1
 62
    18
176
     1
 90
       50
176
     1
 90
        3
176
     1
 62
     5
420
      255
176
     1
290
     0
176
     1
 90
       50
176
     1
 90
       50
176
     1
 90
       50
176
     1
290
     0
176
     1
 90
       50
176
     1
 62
   256
176
     0
 40
1.0
176
     0
 90
        2
176
     1
  1
strokes_ogs.tif
176
     1
290
     0
176
     1
 40
1.0
176
     1
 40
1.0
176
     1
  0
VISUALSTYLE
  5
40
102
{ACAD_REACTORS
330
29
102
}
330
29
100
AcDbVisualStyle
  2
OverhangOff
 70
    21
177
     3
291
     1
 70
    58
 90
        2
176
     0
 90
        2
176
     0
 90
        0
176
     0
 90
        0
176
     0
 40
0.6
176
     0
 40
30.0
176
     0
 62
     7
420
 16777215
176
     0
 90
        1
176
     0
 90
        4
176
     0
 62
     7
176
     0
 62
   257
176
     0
 90
        1
176
     0
 90
        1
176
     0
 40
1.0
176
     0
 90
        9
176
     2
 62
     7
176
     0
 40
1.0
176
     0
 90
        1
176
     0
 90
        6
176
     0
 90
        2
176
     0
 62
     7
176
     0
 90
        5
176
     0
 90
        0
176
     0
 90
        0
176
     0
290
     0
176
     0
 90
        1
176
     0
 40
0.0
176
     0
 90
        0
176
     0
290
     0
176
     0
290
     1
176
     0
290
     1
176
     0
290
     0
176
     0
290
     0
176
     0
290
     0
176
     0
290
     0
176
     0
290
     0
176
     0
290
     0
176
     0
 90
       50
176
     0
 40
0.0
176
     0
 40
1.0
176
     0
 90
        0
176
     0
 62
    18
176
     0
 90
       50
176
     0
 90
        3
176
     0
 62
     5
420
      255
176
     0
290
     0
176
     0
 90
       50
176
     0
 90
       50
176
     0
 90
       50
176
     0
290
     0
176
     0
 90
       50
176
     0
 62
   256
176
     0
 40
1.0
176
     0
 90
        2
176
     0
  1
strokes_ogs.tif
176
     0
290
     0
176
     0
 40
1.0
176
     0
 40
1.0
176
     0
  0
VISUALSTYLE
  5
33
102
{ACAD_REACTORS
330
29
102
}
330
29
100
AcDbVisualStyle
  2
Realistic
 70
     8
177
     3
291
     0
 70
    58
 90
        2
176
     1
 90
        3
176
     1
 90
        0
176
     1
 90
        2
176
     1
 40
0.6
176
     1
 40
30.0
176
     1
 62
     7
420
 16777215
176
     1
 90
        0
176
     1
 90
        0
176
     1
 62
     7
176
     1
 62
   257
176
     1
 90
        1
176
     1
 90
        1
176
     1
 40
1.0
176
     1
 90
        8
176
     1
 62
   257
176
     1
 40
1.0
176
     1
 90
        1
176
     1
 90
        6
176
     1
 90
        2
176
     1
 62
     7
176
     1
 90
        3
176
     1
 90
        0
176
     1
 90
        0
176
     1
290
     0
176
     1
 90
       13
176
     1
 40
0.0
176
     1
 90
        0
176
     1
290
     0
176
     1
290
     1
176
     1
290
     1
176
     1
290
     0
176
     1
290
     0
176
     1
290
     0
176
     1
290
     0
176
     1
290
     0
176
     1
290
     0
176
     1
 90
       50
176
     1
 40
0.0
176
     1
 40
1.0
176
     1
 90
        0
176
     1
 62
    18
176
     1
 90
       50
176
     1
 90
        3
176
     1
 62
     5
420
      255
176
     1
290
     0
176
     1
 90
       50
176
     1
 90
       50
176
     1
 90
       50
176
     1
290
     0
176
     1
 90
       50
176
     1
 62
   256
176
     0
 40
1.0
176
     0
 90
        2
176
     1
  1
strokes_ogs.tif
176
     1
290
     0
176
     1
 40
1.0
176
     1
 40
1.0
176
     1
  0
VISUALSTYLE
  5
3E
102
{ACAD_REACTORS
330
29
102
}
330
29
100
AcDbVisualStyle
  2
Shaded
 70
    27
177
     3
291
     0
 70
    58
 90
        2
176
     1
 90
        2
176
     1
 90
        1
176
     1
 90
        2
176
     1
 40
0.6
176
     1
 40
30.0
176
     1
 62
     7
420
 16777215
176
     1
 90
        0
176
     1
 90
        4
176
     1
 62
     7
176
     1
 62
   257
176
     1
 90
        1
176
     1
 90
        1
176
     1
 40
1.0
176
     1
 90
        8
176
     1
 62
   257
176
     1
 40
1.0
176
     1
 90
        1
176
     1
 90
        6
176
     1
 90
        2
176
     1
 62
     8
420
  7895160
176
     1
 90
        3
176
     1
 90
        0
176
     1
 90
        0
176
     1
290
     0
176
     1
 90
        5
176
     1
 40
0.0
176
     1
 90
        0
176
     1
290
     0
176
     1
290
     1
176
     1
290
     1
176
     1
290
     0
176
     1
290
     0
176
     1
290
     0
176
     1
290
     0
176
     1
290
     0
176
     1
290
     0
176
     1
 90
       50
176
     1
 40
0.0
176
     1
 40
1.0
176
     1
 90
        0
176
     1
 62
    18
176
     1
 90
       50
176
     1
 90
        3
176
     1
 62
     5
420
      255
176
     1
290
     0
176
     1
 90
       50
176
     1
 90
       50
176
     1
 90
       50
176
     1
290
     0
176
     1
 90
       50
176
     1
 62
   256
176
     0
 40
1.0
176
     0
 90
        2
176
     1
  1
strokes_ogs.tif
176
     1
290
     0
176
     1
 40
1.0
176
     1
 40
1.0
176
     1
  0
VISUALSTYLE
  5
3D
102
{ACAD_REACTORS
330
29
102
}
330
29
100
AcDbVisualStyle
  2
Shaded with edges
 70
    26
177
     3
291
     0
 70
    58
 90
        2
176
     1
 90
        2
176
     1
 90
        1
176
     1
 90
        2
176
     1
 40
0.6
176
     1
 40
30.0
176
     1
 62
     7
420
 16777215
176
     1
 90
        1
176
     1
 90
       10
176
     1
 62
     7
176
     1
 62
   257
176
     1
 90
        2
176
     1
 90
        1
176
     1
 40
1.0
176
     1
 90
        8
176
     1
 62
   257
176
     1
 40
1.0
176
     1
 90
        1
176
     1
 90
        6
176
     1
 90
        2
176
     1
 62
     7
176
     1
 90
        3
176
     1
 90
        0
176
     1
 90
        0
176
     1
290
     0
176
     1
 90
        5
176
     1
 40
0.0
176
     1
 90
        0
176
     1
290
     0
176
     1
290
     1
176
     1
290
     1
176
     1
290
     0
176
     1
290
     0
176
     1
290
     0
176
     1
290
     0
176
     1
290
     0
176
     1
290
     0
176
     1
 90
       50
176
     1
 40
0.0
176
     1
 40
1.0
176
     1
 90
        0
176
     1
 62
    18
176
     1
 90
       50
176
     1
 90
        3
176
     1
 62
     5
420
      255
176
     1
290
     0
176
     1
 90
       50
176
     1
 90
       50
176
     1
 90
       50
176
     1
290
     0
176
     1
 90
       50
176
     1
 62
   256
176
     0
 40
1.0
176
     0
 90
        2
176
     1
  1
strokes_ogs.tif
176
     1
290
     0
176
     1
 40
1.0
176
     1
 40
1.0
176
     1
  0
VISUALSTYLE
  5
3A
102
{ACAD_REACTORS
330
29
102
}
330
29
100
AcDbVisualStyle
  2
Shades of Gray
 70
    23
177
     3
291
     0
 70
    58
 90
        2
176
     1
 90
        2
176
     1
 90
        3
176
     1
 90
        0
176
     1
 40
0.6
176
     1
 40
30.0
176
     1
 62
     7
420
 16777215
176
     1
 90
        2
176
     1
 90
        2
176
     1
 62
     7
176
     1
 62
     7
176
     1
 90
        1
176
     1
 90
        1
176
     1
 40
40.0
176
     1
 90
        8
176
     1
 62
     7
176
     1
 40
1.0
176
     1
 90
        1
176
     1
 90
        6
176
     1
 90
        2
176
     1
 62
     7
176
     1
 90
        3
176
     1
 90
        0
176
     1
 90
        0
176
     1
290
     0
176
     1
 90
        1
176
     1
 40
0.0
176
     1
 90
        0
176
     1
290
     0
176
     1
290
     1
176
     1
290
     1
176
     1
290
     0
176
     1
290
     0
176
     1
290
     0
176
     1
290
     0
176
     1
290
     0
176
     1
290
     0
176
     1
 90
       50
176
     1
 40
0.0
176
     1
 40
1.0
176
     1
 90
        0
176
     1
 62
    18
176
     1
 90
       50
176
     1
 90
        3
176
     1
 62
     5
420
      255
176
     1
290
     0
176
     1
 90
       50
176
     1
 90
       50
176
     1
 90
       50
176
     1
290
     0
176
     1
 90
       50
176
     1
 62
   256
176
     0
 40
1.0
176
     0
 90
        2
176
     1
  1
strokes_ogs.tif
176
     1
290
     0
176
     1
 40
1.0
176
     1
 40
1.0
176
     1
  0
VISUALSTYLE
  5
3B
102
{ACAD_REACTORS
330
29
102
}
330
29
100
AcDbVisualStyle
  2
Sketchy
 70
    24
177
     3
291
     0
 70
    58
 90
        1
176
     1
 90
        2
176
     1
 90
        2
176
     1
 90
        0
176
     1
 40
0.6
176
     1
 40
30.0
176
     1
 62
     7
420
 16777215
176
     1
 90
        2
176
     1
 90
        2
176
     1
 62
     7
176
     1
 62
     7
176
     1
 90
        1
176
     1
 90
        1
176
     1
 40
40.0
176
     1
 90
       11
176
     1
 62
     7
176
     1
 40
1.0
176
     1
 90
        1
176
     1
 90
        6
176
     1
 90
        2
176
     1
 62
     7
176
     1
 90
        6
176
     1
 90
        0
176
     1
 90
        0
176
     1
290
     0
176
     1
 90
        1
176
     1
 40
0.0
176
     1
 90
        0
176
     1
290
     0
176
     1
290
     1
176
     1
290
     1
176
     1
290
     0
176
     1
290
     0
176
     1
290
     0
176
     1
290
     0
176
     1
290
     0
176
     1
290
     0
176
     1
 90
       50
176
     1
 40
0.0
176
     1
 40
1.0
176
     1
 90
        0
176
     1
 62
    18
176
     1
 90
       50
176
     1
 90
        3
176
     1
 62
     5
420
      255
176
     1
290
     0
176
     1
 90
       50
176
     1
 90
       50
176
     1
 90
       50
176
     1
290
     0
176
     1
 90
       50
176
     1
 62
   256
176
     0
 40
1.0
176
     0
 90
        2
176
     1
  1
strokes_ogs.tif
176
     1
290
     0
176
     1
 40
1.0
176
     1
 40
1.0
176
     1
  0
VISUALSTYLE
  5
36
102
{ACAD_REACTORS
330
29
102
}
330
29
100
AcDbVisualStyle
  2
Thicken
 70
    13
177
     3
291
     1
 70
    58
 90
        2
176
     1
 90
        2
176
     1
 90
        0
176
     1
 90
        0
176
     1
 40
0.6
176
     1
 40
30.0
176
     1
 62
     7
420
 16777215
176
     1
 90
        1
176
     1
 90
        4
176
     1
 62
     7
176
     1
 62
   257
176
     1
 90
        1
176
     1
 90
        1
176
     1
 40
1.0
176
     1
 90
       12
176
     1
 62
     7
176
     1
 40
1.0
176
     1
 90
        1
176
     1
 90
        6
176
     1
 90
        2
176
     1
 62
     7
176
     1
 90
        5
176
     1
 90
        0
176
     1
 90
        0
176
     1
290
     0
176
     1
 90
        1
176
     1
 40
0.0
176
     1
 90
        0
176
     1
290
     0
176
     1
290
     1
176
     1
290
     1
176
     1
290
     0
176
     1
290
     0
176
     1
290
     0
176
     1
290
     0
176
     1
290
     0
176
     1
290
     0
176
     1
 90
       50
176
     1
 40
0.0
176
     1
 40
1.0
176
     1
 90
        0
176
     1
 62
    18
176
     1
 90
       50
176
     1
 90
        3
176
     1
 62
     5
420
      255
176
     1
290
     0
176
     1
 90
       50
176
     1
 90
       50
176
     1
 90
       50
176
     1
290
     0
176
     1
 90
       50
176
     1
 62
   256
176
     0
 40
1.0
176
     0
 90
        2
176
     1
  1
strokes_ogs.tif
176
     1
290
     0
176
     1
 40
1.0
176
     1
 40
1.0
176
     1
  0
VISUALSTYLE
  5
30
102
{ACAD_REACTORS
330
29
102
}
330
29
100
AcDbVisualStyle
  2
Wireframe
 70
     5
177
     3
291
     0
 70
    58
 90
        0
176
     1
 90
        2
176
     1
 90
        0
176
     1
 90
        0
176
     1
 40
0.6
176
     1
 40
30.0
176
     1
 62
     7
420
 16777215
176
     1
 90
        1
176
     1
 90
        4
176
     1
 62
     7
176
     1
 62
   257
176
     1
 90
        1
176
     1
 90
        1
176
     1
 40
1.0
176
     1
 90
        0
176
     1
 62
   257
176
     1
 40
1.0
176
     1
 90
        1
176
     1
 90
        6
176
     1
 90
        2
176
     1
 62
     7
176
     1
 90
        3
176
     1
 90
        0
176
     1
 90
        0
176
     1
290
     0
176
     1
 90
        1
176
     1
 40
0.0
176
     1
 90
        0
176
     1
290
     0
176
     1
290
     1
176
     1
290
     1
176
     1
290
     0
176
     1
290
     0
176
     1
290
     0
176
     1
290
     0
176
     1
290
     0
176
     1
290
     0
176
     1
 90
       50
176
     1
 40
0.0
176
     1
 40
1.0
176
     1
 90
        0
176
     1
 62
    18
176
     1
 90
       50
176
     1
 90
        3
176
     1
 62
     5
420
      255
176
     1
290
     0
176
     1
 90
       50
176
     1
 90
       50
176
     1
 90
       50
176
     1
290
     0
176
     1
 90
       50
176
     1
 62
   256
176
     0
 40
1.0
176
     0
 90
        2
176
     1
  1
strokes_ogs.tif
176
     1
290
     0
176
     1
 40
1.0
176
     1
 40
1.0
176
     1
  0
VISUALSTYLE
  5
3C
102
{ACAD_REACTORS
330
29
102
}
330
29
100
AcDbVisualStyle
  2
X-Ray
 70
    25
177
     3
291
     0
 70
    58
 90
        2
176
     1
 90
        2
176
     1
 90
        1
176
     1
 90
        1
176
     1
 40
0.5
176
     1
 40
30.0
176
     1
 62
     7
420
 16777215
176
     1
 90
        1
176
     1
 90
        0
176
     1
 62
     7
176
     1
 62
   257
176
     1
 90
        1
176
     1
 90
        1
176
     1
 40
1.0
176
     1
 90
        8
176
     1
 62
     7
176
     1
 40
1.0
176
     1
 90
        1
176
     1
 90
        6
176
     1
 90
        2
176
     1
 62
     7
176
     1
 90
        3
176
     1
 90
        0
176
     1
 90
        0
176
     1
290
     0
176
     1
 90
       13
176
     1
 40
0.0
176
     1
 90
        0
176
     1
290
     0
176
     1
290
     1
176
     1
290
     1
176
     1
290
     0
176
     1
290
     0
176
     1
290
     0
176
     1
290
     0
176
     1
290
     0
176
     1
290
     0
176
     1
 90
       50
176
     1
 40
0.0
176
     1
 40
1.0
176
     1
 90
        0
176
     1
 62
    18
176
     1
 90
       50
176
     1
 90
        3
176
     1
 62
     5
420
      255
176
     1
290
     0
176
     1
 90
       50
176
     1
 90
       50
176
     1
 90
       50
176
     1
290
     0
176
     1
 90
       50
176
     1
 62
   256
176
     0
 40
1.0
176
     0
 90
        2
176
     1
  1
strokes_ogs.tif
176
     1
290
     0
176
     1
 40
1.0
176
     1
 40
1.0
176
     1
  0
DICTIONARYVAR
  5
79E
102
{ACAD_REACTORS
330
799
102
}
330
799
100
DictionaryVariables
280
     0
  1
1:1
  0
DICTIONARYVAR
  5
79B
102
{ACAD_REACTORS
330
799
102
}
330
799
100
DictionaryVariables
280
     0
  1
STANDARD
  0
DICTIONARYVAR
  5
79A
102
{ACAD_REACTORS
330
799
102
}
330
799
100
DictionaryVariables
280
     0
  1
STANDARD
  0
DICTIONARYVAR
  5
79C
102
{ACAD_REACTORS
330
799
102
}
330
799
100
DictionaryVariables
280
     0
  1
Imperial24
  0
DICTIONARYVAR
  5
79D
102
{ACAD_REACTORS
330
799
102
}
330
799
100
DictionaryVariables
280
     0
  1
Imperial24
  0
DICTIONARY
  5
7F2
330
6C
100
AcDbDictionary
280
     1
281
     1
  3
ACAD_XREC_ROUNDTRIP
360
7F3
  0
DICTIONARY
  5
80A
330
7C8
100
AcDbDictionary
280
     1
281
     1
  3
ACAD_XREC_ROUNDTRIP
360
80B
  0
DICTIONARY
  5
1A
330
19
100
AcDbDictionary
280
     1
281
     1
  3
BUMPTILE
360
1C
  3
DIFFUSETILE
360
1B
  3
OPACITYTILE
360
1F
  3
REFLECTIONTILE
360
1E
  3
REFRACTIONTILE
360
20
  3
SPECULARTILE
360
1D
  0
DICTIONARY
  5
12
330
11
100
AcDbDictionary
280
     1
281
     1
  3
BUMPTILE
360
14
  3
DIFFUSETILE
360
13
  3
FBXASSET
360
12A
  3
OPACITYTILE
360
17
  3
REFLECTIONTILE
360
16
  3
REFRACTIONTILE
360
18
  3
SPECULARTILE
360
15
  0
DICTIONARY
  5
22
330
21
100
AcDbDictionary
280
     1
281
     1
  3
BUMPTILE
360
24
  3
DIFFUSETILE
360
23
  3
OPACITYTILE
360
27
  3
REFLECTIONTILE
360
26
  3
REFRACTIONTILE
360
28
  3
SPECULARTILE
360
25
  0
DICTIONARY
  5
7F0
330
6A
100
AcDbDictionary
280
     1
281
     1
  3
ACAD_XREC_ROUNDTRIP
360
7F1
  0
DICTIONARY
  5
808
330
7C7
100
AcDbDictionary
280
     1
281
     1
  3
ACAD_XREC_ROUNDTRIP
360
809
  0
DICTIONARY
  5
79F
330
65
100
AcDbDictionary
280
     1
281
     1
  3
ACAD_ROUNDTRIP_2008_TABLESTYLE_CELLSTYLEMAP
360
7EF
  0
XRECORD
  5
7F3
102
{ACAD_REACTORS
330
7F2
102
}
330
7F2
100
AcDbXrecord
280
     1
102
DISPLAYNAME
  1
Imperial24
102
FLAGS
 90
        0
  0
XRECORD
  5
80B
102
{ACAD_REACTORS
330
80A
102
}
330
80A
100
AcDbXrecord
280
     1
102
DISPLAYNAME
  1
Metric50
102
FLAGS
 90
        0
  0
XRECORD
  5
1C
102
{ACAD_REACTORS
330
1A
102
}
330
1A
100
AcDbXrecord
280
     1
270
     1
271
     1
  0
XRECORD
  5
1B
102
{ACAD_REACTORS
330
1A
102
}
330
1A
100
AcDbXrecord
280
     1
270
     1
271
     1
  0
XRECORD
  5
1F
102
{ACAD_REACTORS
330
1A
102
}
330
1A
100
AcDbXrecord
280
     1
270
     1
271
     1
  0
XRECORD
  5
1E
102
{ACAD_REACTORS
330
1A
102
}
330
1A
100
AcDbXrecord
280
     1
270
     1
271
     1
  0
XRECORD
  5
20
102
{ACAD_REACTORS
330
1A
102
}
330
1A
100
AcDbXrecord
280
     1
270
     1
271
     1
  0
XRECORD
  5
1D
102
{ACAD_REACTORS
330
1A
102
}
330
1A
100
AcDbXrecord
280
     1
270
     1
271
     1
  0
XRECORD
  5
14
102
{ACAD_REACTORS
330
12
102
}
330
12
100
AcDbXrecord
280
     1
270
     1
271
     1
  0
XRECORD
  5
13
102
{ACAD_REACTORS
330
12
102
}
330
12
100
AcDbXrecord
280
     1
270
     1
271
     1
  0
XRECORD
  5
12A
102
{ACAD_REACTORS
330
12
102
}
330
12
100
AcDbXrecord
280
     1
 70
     1
 90
1959938040
 71
     1
  1
88CF4FCC-68E0-4957-A901-C68424FAAFB9
311
504B03040A00000800002D64EA443DEE336E79000000790000001B0000006175746F6465736B2D64657369676E2D7061636B6167652E786D6C3C3F786D6C2076657273696F6E3D22312E302220656E636F64696E673D227574662D3822203F3E3C666F726D6174733E3C666F726D61743E687474703A2F2F736368656D612E
311
6175746F6465736B2E636F6D2F64657369676E2D7061636B6167652F323030393C2F666F726D61743E3C2F666F726D6174733E504B03041400060808002D64EA44FAA28935A700000035010000130000005B436F6E74656E745F54797065735D2E786D6CA58FC10E823010447FA5D93B143D1863281ED43FE0076ADD4223DD
311
36ED62F0EF2DE16ABC78DC9DC99B99F6BCF849BC30651748C1AE6E402099F070342898D9564710E7AEEDDF11B3285ECA0A46E67892329B11BDCE75884845B12179CDE54C838CDA3CF58072DF34076902311257BC32A06BAF68F53CB1B82DE5BDE5DE1D81B86CBEBED814E818276734975A321846AE3227D41EE4578023FB1F
311
A00CF80158D5122CD76EB9FB00504B03041400060808002D64EA44DD101A40F70000009701000008000000636F72652E786D6C8D505B6EC32010BC0AE2B7C206DB7959982895E313F4020888831283C523EAF1BB4E1CA9FDEBD78E66677647C38FDFD31D3D4C88D6BB0EB38262649CF2DABAB1C3395DC81EA3A3E0C1FBF44B
311
86919393E9F04263C1C7E0F3BC52CABB645C02D6796D5652C6681246EA0EA0C3515DCD240B991328E2AD98A5BAC9D114EC8DC09CB3D5E8F5C46AB8672FD6042CD861CB8681F564B7D96C49733851B26F00B1737FEAEB73FFD9B381978B59F064A7F77F158C4C46635151D610BA238C7EB1AAADEBB6DA7E30DA52CACB45FEC7
311
9467FD4F53B62ED5D51AF7658B9015823C1782C714A0D05500252414E503F29482974B4D309E1DC25C2A153F504B03041400060808002D64EA4400E3D9117E0000009D00000007000000636E782E786D6C4DCCD10A83201886E15B91FFDC952B4C418D55761FB12C64A6C3E9D8E5AF46073BFAE0E1E315ED6773E86DE2CB06
311
2F815C4A40C6DFC36CFD2A21A7053340AD123184F47703E4A7CD483818945863C8CF9366B34CD9A55D9DF58F13FBB2D7E34039AEC970C535AF3A7C637CC4A4D384515DD18636502851FC4AFB1E61F505504B03041400060808002D64EA44D093CF7E2C0100001E0200002D00000043304345464436392D343144322D343933
311
422D413839462D3142453138364533363736372F636F72652E786D6C8D51596EC32014BC0AE22B55850DB6EB2CC244CD76825EC0312F294A0C164B95E3176A276DFFF263AC7933F30686AF6FFD157D8175CAE806B38C6204BA3352E97383833F9105466BC1AD31FE0F0D23DDF6D0E00463C1CFD68461823AA33D681F516D24
311
4C60EB1C788CBA6BFC69B0EB3EA16FB336F8C870976C68BB4B7B868C65711C79823B6F6300342E495F2CB674BB3FECEA25A9D8AE20D5B2DC90F7C5F240D866CF16F5BEACE7F59CE7A350F010949CE44AC638EAA4C03E6B92C4827BD5DFE377165A0F128B82B28AD03961F48315ABB25C15F52BA32B4A799EE8FF4461904F8A
311
82D2BE2CA6B8A3CC61C1783E0E0497261CAFF730701B8CF528ED9B39E85E701EAF1B1DEA6A7270DED8F89CB3CBF1317BB8437F0489CCE063DD58BCFDAEC8535B82E73F55C633352BBE01504B03041400060808002D64EA446A77868595000000F50000002C00000043304345464436392D343144322D343933422D41383946
311
2D3142453138364533363736372F636E782E786D6C5D8E4B0EC2300C44AF12795F023B164E2A246EC00942E396887C503E88E313438550375EBC9979328EAFE0C5937271292A38ECF620284EC9BAB82868751E8E20468D39A5FA5703114D20058C41E392537BACC8D26C9AAF9D7A17EF2B3C9542F56CAAE99897C2A7C9F82E
311
A038B402FA97A3E458A3E4B146BEABE232DD2898DE456E6C0514AE642D5951BEB58D477E3EEC5A7E58BF01504B03041400060808002D64EA444F4C6916FD000000A00100003700000043304345464436392D343144322D343933422D413839462D3142453138364533363736372F4173736574446174612F636F72652E786D
311
6C8D504B6E833010BD8A35DBCA60032109328E680927E8052C70A89560237FAA1EBF76A052BBEBC6337A1FCFD36397AFE5813EA575CAE816684600493D9A49E9B985E06FF804E8C29935C6FF9201D262912D2418389BAD09EB0E8D467BA97D44B599E40E0AE7A407343EE2D2821B3FE42232117C54B87BB68AF12E6699D12C
311
D251C799F3360640DB91F402EFD217BDF082E51BCB59086ADA356A8A37D54D490B9C9E6B3A0CF40D1F0F871A57E78EE05315377AEDBBBEBCF6AF3D1D589ECC9C79B5FC641CAD145E4EC00B422B4C8E9892775A3465D914F50B250D212C4FF23FA6B04EFF3405A57D59EC71379B035EC7204F82B33CF515C7B3CC3853B7FC1B
311
504B03041400060808002D64EA44A635F83177010000860500003600000043304345464436392D343144322D343933422D413839462D3142453138364533363736372F4173736574446174612F636E782E786D6CD5544D4F032110FD2B84ABD9AFD6A869581AA3979E6A62E39DB2B39594850DCC1AFDF7C22ECD36313D79D0
311
5E800CEFBD195E8661EBCF4E930F705E5953D32A2F2901236DA3CCA1A603B6D903256BCE9CB57806A3C4880E6A1AC394B383B3439F420DB462D018A25A99630A3E43AB8CC2906383E0045AF7E26C0F0E15784AA416DED7D4CB77E8442E06B40DF863DE081479953BF076701282624C4AB4954287DC60B2C1533E4B93933699
311
C55911399C0D4E9178AA695CCF5927D2CCC9F7CAB0223038F3E8821189895F7D2842F4BD5652C4B7145622601640203A56843D803943D541A2480702A1A17C5156B759799F55E5AE5AAC96CBD5E2EEA62A5765C98A08E76C6FAD4E24658247B627D2868341CA03285E7356444B398B6BC26E8C476124CCD5FF899D3FCBB826
311
131FBD07DC89BD866DFB3499FEDBAE1C25C9A849B62D39A95E6AC7113EA2E70AAEC9C1570C8DDEBD4D63647CC72FDB70122449D14F4E5E726F0227EC983D57A6FDD75FB8184766F8D12E0C56FE0D504B03041400060808002D64EA443D7D40F484000000200100004F00000043304345464436392D343144322D343933422D
311
413839462D3142453138364533363736372F4173736574446174612F446566696E6974696F6E4974657261746F7250726F706572746965732E62696EEB609064FA0F050C40C008C40D0C8C0CBC40DA3D352FB5283339383923353791811D28E254E99358995A046242259980A220AE4B6A5A62694E09489B6F6671726A4E4E
311
625E6A7E69B120501EAA542137B104685E628E1E481327500226500C32211D621B23505C828101E424492093C137B1A438C61D2217930EA1F50AF2D2417274C000504B03041400060808002D64EA44871856CCF4000000300200004500000043304345464436392D343144322D343933422D413839462D3142453138364533
311
363736372F4173736574446174612F496E7374616E636550726F706572746965732E62696EEB609064FA0F050C40C008C40D0C8C0CBC40DA3D352FB528333938392335375105286061E1EC66E2E6ECAC6B66E16AA06B62696AAEEB686960A8EB6C66616264E2E6E8E8E664C90E5407D508D2626C68E2E26A646AA96B6A6262
311
AC6B626664A8EBE4E6E4A26B686E6CE06CE6EC6CE9E86A09B2934133A6FFD0578D2BF6509A09684C030303038C6F0F6403D1077BA0DB8034038380038300031CA83830E007408D10057006848B49C2158019CC40050D0C60F000EA061E300F9D00852142E603542DBA2A0686949D0E0C780176AD20E341E109D2FAC19E0548
311
3102311F10079727962467E83A1525E6A5A4A680DC0B14A4190200504B03041400060808002D64EA44F22EAEE751000000570000004700000043304345464436392D343144322D343933422D413839462D3142453138364533363736372F4173736574446174612F41737365745461626C654F66436F6E74656E74732E6269
311
6E53616060B0B0707633717376D635B37035D035B13435D775B43430D47536B33031327173747473B21402AACB4D2C492DCA4CCC492C28484D2C4ACC4B4E050A82112F90744FCD03CA26072767A4E6260200504B03041400060808002D64EA44F865834058000000680000004500000043304345464436392D343144322D34
311
3933422D413839462D3142453138364533363736372F4173736574446174612F53747265616D56657273696F6E5461626C652E696E66558CBD0A80300C06F73E4B117FB66E451741D041DC5BF98480A492E4FDD18EAEC7DD4555D89EF28DF51A0B1BD8340C4DE7DD848B988C0ACF0649566493F2408C508DDEBB99D5129FF8
311
F1AF8CF5B9503E20FAE5A16B5AF702504B03041400060808002D64EA44FD2A7982FB0000009E0100003500000043304345464436392D343144322D343933422D413839462D3142453138364533363736372F536368656D61732F636F72652E786D6C8D504B6EC32010BD0A625B6183ED388985895239BE407B0104C44589C1
311
E253F5F805DB95DA5D3733A3F7D13C3D7AF99A9FE05339AFADE921293004CA082BB5997A18C31D9D20B830EAAC0DBF6410183EAB1E6618323A391B971D12D6046542428D956A07B9F72A40209EE9E8A1171F6AE6058F2129FCA358B878F04915A44874D231EA834B01C0F6244FC8DE5693A7E5C6311AA396BB42CBF451DFB5
311
729091734BC6910CE87838B4A8395F313A35E922B7E13AD4B7E17520232DB399D1A0E79F84C2291E9484ACC2A441F888087E275557D75DD5BE10DC614CCB2CFF638A8BFCA7296A13EA6A8FBBD97CCA9A82AC04A3656E2BADB5CAB473B3EC1B504B03041400060808002D64EA444204728728010000D3030000340000004330
311
4345464436392D343144322D343933422D413839462D3142453138364533363736372F536368656D61732F636E782E786D6CD593CF4EC42010C65F85CCD5B4A55DA36643D983074F5E5C5F00E9EC4A96320D7F8CBEBDD0E5B0265E357A21CCF01BBECC072376EFB3656FE883213742DF7260E8344DC61D4748F1D0DC01DB49
311
E189E20506CCA91947286990E2E8292D3535E141251B73D61A77AAC97B9A67727BFD8AB302A6AD0A6184B086AD4A91260CA7765251B57DEB3150F21AF30D458459D2CA662D744D0A20F76B153B188BA22B8014C99BAA536290976A6DEE4F74999022449FBBAA64FC58B2825A166BB48AB9F96E05CF8C14D1CC5849ED51459C
311
400EBCBF6EF86DD3F3E77ED86E36DBE1E6AAE75BCE455770295E886C2D322EA2A78569CA1B174166A81C4BD1155BA4286B651FD0A137FADCD8CFBBF345EE1FD8F3846E42FF98DFC01B657FCBA5EF54FFAA59DD3A7FF96BF93CA5F213504B03041400060808002D64EA442F7B2A8D8D0100005E0600003D0000004330434546
311
4436392D343144322D343933422D413839462D3142453138364533363736372F536368656D61732F436F6D6D6F6E536368656D612E786D6CC5944D6EC2301085F79C22F20550BB4E90A0486D24D44551BA1FE201AC3A76E43841B97D9D716A151228B448CD2A9267BE37CF3F2F9E5715DA75BEC702669388BE384B97510332
311
614FBA28B4F2AB6C3689A76E2554ADAD116A17099EB00554D8574565BD91224FD81664852CE2B8154A58A1556AD180D566091612664DED569B4E85C89E16E0A9B2B84343744F7E4753390A3B1530085C2BD91E211F89D94302D46B10936CAFC4265D326F95451236E83C7F5BE91CFB9E3104743B67DBD2D938F13C3A124D74
311
9E26750EF22A1A551EB9BD06ADA0F879D09BD159FA3AC6BD7CE837AB7C607BD0860F8E1EA4D487A296569412DD55AAB1FADA973B4F9083BB8EDAB4FF3802C72A37A2EC5ED2608A7BB8CDDE56F432ECBE2E360A841CA8FC7ABBDDD1248C2EA913094F69A1B5445024FA2238473550BCEC8BB05B8A99EEA5F6BCC0CF6AC109DE
311
27C7B30BAFDF28F8C11D2C90FB5C21787326969A2ED91EA8B72F1F6D37D888D158BBD0EF3691A49D9F10AE0363E733C8B58751DC3FA1E6BC019523FF2B329ECEBB54F4893D9B7C02504B03041400060808002D64EA447229482E27050000001600003E00000043304345464436392D343144322D343933422D413839462D31
311
42453138364533363736372F536368656D61732F47656E65726963536368656D612E786D6CDD586D4FE33810FECEAFB0F27D4BCB1DAB5BA9456A41F4FA0171A2705F2D37718AEF9CA4B29D42EFD7DF783C3549CBB601F676B587549197F1CC3CF3F278E2E1D85AE9E6E9A32CC4C509C3BFE1C3EC8AAD851E2553594AA3D2F0
311
3AB938199EC2AB2836115606B93B5966D2DC0807D24237C4BD4894779B15C9172429562B298C285389CABD40949E954E2EA5612A1B2541E39FD2585595095BD50BADD251920B6D65C28C145955EACD2871A686FBB5777D801A4949543A7746954BD4A9AB54686FF1A83E946C291FB7FD0E5ABF6AA414057875C4E97D23147C
311
C4B1636152555A8A1271A495AE0C5F6C78B5F84BA62E0919C94368B45848C8E3A59761930DBB0D323E93A4237A1D647CB49721EB3C53795EFB000BADABA7B42A4BD02F33E12BC68E120B91D4006C2DF4DD28E9F77E199CA3F169F366D2BC198F9241C29A3E2138B41CFDB8D69570886CC70FAE0AB1943C1799443B4D6533FF
311
8A5DFB57172754C68C0D27555D6696ADA44965E960F5368BAA4C8D2CE09955FF485454A852157501EE268CAE15204C756DD51A44426915E23948010EBADE970AD1F59623A85344156FF1AE85D1C85C4374D55AB90D178EF733B94CD8D1C0A3BB14D0BB860A8C2B5A7983CD2FDFC3E8525716E22AADED06AF771E2B66FAB2D4
311
87B80D8FCAB915546579219DD0542E79AB277E57CB470D3F673158B4FE40B81C10955D0923CB74D3CDF7E8F97D73E9CF59A0AE01E1FFDE8946A40E361AAE60577BA6E219F4CECF623EA1D548066AE720DD50CD1DE29B5EDF9349A09F7D32614433A3041A81AEF7A57C3F04B28B05DC85720804C7E4EA1A4832DDF027E9BBE2
311
3D154E1A8EC52450E9A190FC100A4E6B57D58E572B91020977C20F8923F2BDC4C5814A8E13D342A47FE722953CADF5EBEC34210976E925427A71CF8FF9452B2DBAB352E75C695D171C7EAAC4B92A8C03FD58BA731062332F0402BECA215BC3A3B5626115A94EFD2CC19D2C605715AE36921AE4F379FFC5CAA51762F70D210F
311
015D8E00824C73E06858C9958661921762D5211177B883AF8586D10352021793ED93D6C8718D4A191A46D878151D42F75A115DD4C58A8B02A60898ABBA6CC6BDB32F3B7F31F0E3A0E608FBE7618F3AD01C9F06FD7EBF5B8304C130B2BC8733303CFB01E99C1470738D490917909470D14ACA0462FC4A32683F6E591715AF60
311
FC079D71F6A7F61B170B05D31CBB4D716003295F6FA4232698BE0676755A51ACB4847904150F3EC794CDE9C58773063B478799F2EC1C4CBF89E2095004B85FC110B24C59D7A0825F23BC1BF1CCAEB62F7DBC70795446D1DB8D56061395D2DB68052EA72C3CC0F760A8996B5315ECD63DC2F7DB0D7DEB056E24A5D1089A6C99
311
30D06D595A19F8F2B4DC884CD560AB4BEF455C775E037439AAC0D2422BD126F9F075AB680D3F7F244C7B0E5808B848416712D5E57009B447A8275A96197B52EEB11362CA59DB3A8CEE3C932BF74816A04F483B8C1AF8615095CCE7EBDEC0B6C1AE50F4C3650956BA94A5177B0B8910C2186FBADF456C5A883F017113E4DBB5
311
34466592017680EB37A96F85D85BF9819029937CE9BF6436DC12BF843D7A002C411100E024CAA628CAE624FA9D723E38FB0DB698FF22E9345A2F11D6C1086C533F45D19F3B0245150F2D1AFCEB1F7ADEA506890D532BEC15386B93397C17F806387A48B5F6875EC0B5F6741A8E6FB6FF1F66BDE742230DD66AD7C4385BFBAD
311
21FB36A65EB4BD6652F95DD69FB9080F0811CE5A8F6E600787B324015FD7470ECBF6C186B5780C146DAB96F608BDFDF8153F6EA7F377841B567DD8F21F46AE957C7A87755A89BBEF413786A7637F7E174E542F4EFE05504B03041400060808002D64EA440A3355BE74010000170400004500000043304345464436392D3431
311
44322D343933422D413839462D3142453138364533363736372F536368656D61732F52656E6465724D6174657269616C536368656D612E786D6CAD93DF6AC23014C6EF7D8A90075895B1BB54D00EA430D968A7B725B6C73690269244C5B75FFED955866C0C7B9593F3E577724EBE9285D660CABA839ECE27C87F6493BFA213
311
E5292E4034A0D6D480629407159E4F486215837A4935047926FB5E8A91CCA5065D2E0CB4A0106B521C345B509A4981D1E1B8E3AC4EF19E720D1829A08D14FC9262A38E363EB9BBCC7CE10819A09BE2CD03F3FEC0A10761A8B1C4B55BF0825EFE86F6644BFA85FABE2A1FCAFB507062707E287305C2BE55FD4F66691413AD1F
311
A83E5353773F38FE29FCBC82761859D64956833F5A7B1B54654715349537180E068919ED331871BA03EBB2D286B6ACA546032244026E4BF9F186A9AD149A489BDE10ECB673E6E8E0F56EF771CCDAFBE03C2E4C64CE06663ECADD01932454BB16224B293950319EC22713A632B26DF9D5C8FB60F2D8BCCBDBCE4912CF0EAC4C
311
72197E963835A7AC6AB7EBEF5AA478FAF43C7BF1C16A1C2CC7C122C5DF3D3904CA3CC2B7E456A12049FC3B85FF723EF902504B010214000A00000800002D64EA443DEE336E79000000790000001B00000000000000000000000000000000006175746F6465736B2D64657369676E2D7061636B6167652E786D6C504B010214
311
001400060808002D64EA44FAA28935A7000000350100001300000000000000000000000000B20000005B436F6E74656E745F54797065735D2E786D6C504B010214001400060808002D64EA44DD101A40F70000009701000008000000000000000000000000008A010000636F72652E786D6C504B010214001400060808002D
311
64EA4400E3D9117E0000009D0000000700000000000000000000000000A7020000636E782E786D6C504B010214001400060808002D64EA44D093CF7E2C0100001E0200002D000000000000000000000000004A03000043304345464436392D343144322D343933422D413839462D3142453138364533363736372F636F7265
311
2E786D6C504B010214001400060808002D64EA446A77868595000000F50000002C00000000000000000000000000C104000043304345464436392D343144322D343933422D413839462D3142453138364533363736372F636E782E786D6C504B010214001400060808002D64EA444F4C6916FD000000A00100003700000000
311
000000000000000000A005000043304345464436392D343144322D343933422D413839462D3142453138364533363736372F4173736574446174612F636F72652E786D6C504B010214001400060808002D64EA44A635F83177010000860500003600000000000000000000000000F206000043304345464436392D34314432
311
2D343933422D413839462D3142453138364533363736372F4173736574446174612F636E782E786D6C504B010214001400060808002D64EA443D7D40F484000000200100004F00000000000000000000000000BD08000043304345464436392D343144322D343933422D413839462D3142453138364533363736372F417373
311
6574446174612F446566696E6974696F6E4974657261746F7250726F706572746965732E62696E504B010214001400060808002D64EA44871856CCF4000000300200004500000000000000000000000000AE09000043304345464436392D343144322D343933422D413839462D3142453138364533363736372F4173736574
311
446174612F496E7374616E636550726F706572746965732E62696E504B010214001400060808002D64EA44F22EAEE751000000570000004700000000000000000000000000050B000043304345464436392D343144322D343933422D413839462D3142453138364533363736372F4173736574446174612F41737365745461
311
626C654F66436F6E74656E74732E62696E504B010214001400060808002D64EA44F865834058000000680000004500000000000000000000000000BB0B000043304345464436392D343144322D343933422D413839462D3142453138364533363736372F4173736574446174612F53747265616D56657273696F6E5461626C
311
652E696E66504B010214001400060808002D64EA44FD2A7982FB0000009E0100003500000000000000000000000000760C000043304345464436392D343144322D343933422D413839462D3142453138364533363736372F536368656D61732F636F72652E786D6C504B010214001400060808002D64EA4442047287280100
311
00D30300003400000000000000000000000000C40D000043304345464436392D343144322D343933422D413839462D3142453138364533363736372F536368656D61732F636E782E786D6C504B010214001400060808002D64EA442F7B2A8D8D0100005E0600003D000000000000000000000000003E0F0000433043454644
311
36392D343144322D343933422D413839462D3142453138364533363736372F536368656D61732F436F6D6D6F6E536368656D612E786D6C504B010214001400060808002D64EA447229482E27050000001600003E000000000000000000000000002611000043304345464436392D343144322D343933422D413839462D3142
311
453138364533363736372F536368656D61732F47656E65726963536368656D612E786D6C504B010214001400060808002D64EA440A3355BE74010000170400004500000000000000000000000000A916000043304345464436392D343144322D343933422D413839462D3142453138364533363736372F536368656D61732F
311
52656E6465724D6174657269616C536368656D612E786D6C504B050600000000110011005A060000801800000000
310
504B03040A00000800002D64EA443DEE336E79000000790000001B0000006175746F6465736B2D64657369676E2D7061636B6167652E786D6C3C3F786D6C2076657273696F6E3D22312E302220656E636F64696E673D227574662D3822203F3E3C666F726D6174733E3C666F726D61743E687474703A2F2F736368656D612E
310
6175746F6465736B2E636F6D2F64657369676E2D7061636B6167652F323030393C2F666F726D61743E3C2F666F726D6174733E504B03041400060808002D64EA44D486FD9CA0000000F4000000130000005B436F6E74656E745F54797065735D2E786D6C7D8EC10E82300C865F65E91D8A1E8C310C0EEA1BF002731658846E
310
D98AC1B77784ABF1D8FE5FBFBF75BBCE937A534CCEB38643598122B6FEE978D0B0485F9C41B54DDD7D022595594E1A469170414C76A4D9A4D207E29CF43ECE46F218070CC6BECC4078ACAA135ACF422C856C0E68EA1BF5669944DDD7BCDE7B1F8E415D77AECB980613C2E4AC91FC167A2B244592486606FC29C8FD7F045B9A
310
EF7053A7E60B504B03041400060808002D64EA4457C2B66EEA0000007C01000008000000636F72652E786D6C8D904D6EC3201085AF82665B6103767E6C61A2B44D4FD00B20200E4A0C9681AAC72F248ED4EEBA9AD19BF7CD8C1E3F7C4F37F4659660BD1B8056049071CA6BEBC601523CE33DA083E08BF7F1970D90939319A0
310
C820F8B8F834AF92F22E1A17B3EABC36AB2843301190BAE56680A02E6692954C313BC2B59AA5BACAD154F4D9653825ABD1E388D5799F3D5BB380D81E49CB4E7483778CB4B8A5DD09EFDFDE3B4C093BB24DF741DA57CAEB020B1EEDF4BCAF1623A3D12018A12D26BBECFFA4AC6F9A9E6D5F28E909E175B1FF81D2ACFF0925EB
310
62C3D6771F5800511EB90F04AF4B16B9DC83CAB5E4267E00504B03041400060808002D64EA4455019EA25F0000007C00000007000000636E782E786D6C4DCB3B0E80201045D1AD90E915ED2CF8AC45050C11660C8261F98AB1B07AC9C97D42D718D865D3E909258CFD00CCE24AC6E326A164D74DC0B4128928FF326038472B
310
A13128B1252AC747C6BAB984FC68F0B87FE8960A5C09FE86CFB69FBA01504B03041400060808002D64EA448996367F65010000020300000C0000006662782F636F72652E786D6C8D525B6E833010BC8AE5DF0AFC0879CA384ADBF404BD80030E45011B191BE5F85D1E114D15451192B16676766707C4FE5A57A8D3AE2DAD49
310
318B2946DA64362F4D91E2E0CFD106A3BD14CE5AFFA70C23A36A9DE21EC65214CE866682326BBC361E5063733D81AA6DB5C728ABE092E236FBD1B58A55F050D15EE246651755E898C540439D14AD7760008D43FA13CBF3E92AC8884B1142994F6C99C3B4F25C6A87E5EA40137E64CB68CD6912256C7B8C361F9FDB88517EE0
310
CBED174DDE9920BD580A5FD6377799D3CAEB1C4B4E5912D135D47F33BE5B2C767CF5C6E88E5241FAF23B5168F21745A1347EC127BBA3ACC5B2373210FFB685883C6A55077E8814A40F115E43C2F741432010B257A7EAB6C705A04E67DEBA0498DC8699EA5415344CA56878041959E83C3480CD1EF6E14FFA3CEF011F509902
310
AC290FD753F0FD74314E9DA268B48B3A7F45C6BA5A55B3B9D1E27CCE831ECA335B59F78A9A4CAB92294CD2FFBDF217504B03041400060808002D64EA449313FD1F7E0000009D0000000B0000006662782F636E782E786D6C4DCCD10A83201886E15B91FFDCA5E15A821AD6DC7DC4B290990EA76397BF1A1DECE883878F5774
310
9FD5A3B74D2F1783047A22806CB8C7C9854542C9336E01754AA418F3DF0D5018572B6167506249B13C0F9AEC3C169F37F52E3C0E1C38672D31376C744330ABCF57AC7BCE706D98EE191D7473A1502951FD4ADBEE61F505504B03041400060808002D64EA444E12621F2D01000015020000310000006662782F433939343830
310
45462D454136302D343235442D414239342D3245344142343143413637312F636F72652E786D6C8D515B6EC32010BC0AE2AB55850D3671E2081339697A825E806092A2C460F1A872FC42ED48ED5F7E58343B333BB06C771F6FE05B39AFADE920293004CA483B6873E9600C67B48160C799B336FCA14160C4A83A9861C8D9C5
310
D9382D90B4262813126AECA0165078AF0204F2962E1DF4F24B8DA210312486BF1693905771510529523BF138F3C1A500601E924FC80F6D4B37F8F8818E7D8311AD56EFA8DFB7145547DAEF2939F4CD9AB072167216A31E16B91E521C7DD6CA3D6B92C59C053D3EE24BA7445003E4152614E13522F89354DBBADE56CD1BC15B
310
8C5999E9FF44711A9E14456D425D2D716799873CBD666E7036D878BA3DC2A8FB645D0079DE8B57F215725C60BC6ADB4DBB6E593973D30F24D3862EA63E58977EF8E57A4AF47A716E2867655E522ABF1B4C352F94FF00504B03041400060808002D64EA4418D1DB495601000033030000300000006662782F43393934383045
310
462D454136302D343235442D414239342D3245344142343143413637312F636E782E786D6CBD93CD6EC32010845F0571ADFC836DB9518489D4439FA0875E096C121A1B2CC055F3F65D1292E69243A5AA1764CD0E33AB4F986FBEA6917C820FC6D981B2B2A604AC72DAD8FD4097B82B56946C04F7CEC53B1B25564E30D02453
310
C1F7DE2D739634ECE432465447638F59F410DCE2150494D34D323A25470C005B2C28C2B405AD41939B11BF76E0711514B727120F405E5FDE89DB7E808A81572945F02A75089ECEDC7467A2448D328481067580499672894E4338965A4659B2F2DAF560A79F24922E5C2B176F482A1F683AA9C81B95C8915738143C448FF4B2
310
299E66A042CEF368948C08B93A1B2F1EC1176363DF65AF41F01EDD6DD3AF5618769E091ECD04D9A13CC8089A8AA6665D513F17AC7E63CDBA6DD74DFFC4EA755DF32AD905DF3A37E64B1803DECD44391BC1462A18AFD2F811BEEC23DA7864EDFCE9172011406EBDD0B965FC251FD6B75DF78F7CAAF3FB465C1EFF02F10D504B
310
03041400060808002D64EA44278B61184E0700004F1C0000340000006662782F43393934383045462D454136302D343235442D414239342D3245344142343143413637312F6F626A656374732E786D6CED595B6FA34618FD2B88BEB40FC6C676D2A4225489B389AC6DDA55A35DF521121AC3984CC3C59A81ACDD5FDF331730
310
6093C56DFAD6071B1B66CE77BFCC87F7F3364DAC57CA05CBB32BDB7526B645B3308F58165FD965B11E5DD8D6CFBEC7F3BC682CB3AD8CA4F4CA96B76DDF8B795E6ECCAD88AE4999149DBB77377F5822A419B5AD3021425CD9227CA629714859E411152F4E440AE2C4EBADE33A7A611B36E664F3DC01DD104EB3029CE27E0614
310
4B33E5B6FF4EECB1EF8DE573DF93DF66D574D0AA59FFAAB192BACD25CB4441B2F080A50ECC74104B33777EFB617A76393A9BCF67A3F9F9D41DDDDCDDDC8EDC1F6793C5F9627179FDE112ECADF23C3132457443B308F6DBD9BEEB8DE5935A74A381635C877996D1502912AA52627501191520D550DFA4FDD79512351E2B091B
310
FF67F2B961A171BB63849E550315D1C28520865C2571756DCA97AFFE84E06288537241A5538B82C3BA463D1C5161FB136FACEFFADE6A6F0B26AC941494339258095B71C261142C954B7C4F6F3030323838A02C2981B29C7EDCF62D44E6B743E71897EB32496464D8BE0AAC00E1470BA138637F51BEE7BEA919F0040B972C2B
310
2E0C97C56E436DFFD21BAB9BBE272FB3A979A81569AD1312C35120A67EDA117421437F796BFB1FEF56DB47990E8E13DFF07C4379219D4EDA51F105473657A92543D61D6439B901C268A59A9D7BA5FC0ECDFF8AECB1670576E36C3BDFCECDDA82934CAC739EC236D6C41A4DF035B15CF52D7F377E79E37A73DB7A7DFA44984A
310
555DFC7B7DB66550BA32FC37D4E97BAF70F89CCFCCA3C79024F0E707964141D249AC24C72DA4F6F56A6BFB4B244E247AEC2289EF4264B0FB8A9FDED8C0ECAD52859789BA0C1A3534A6438C04B5298F041B3D76BA47F5E02CDC9BA929629F7ACFDEC55DAF6F1F3F3E967C4D42FA6062FA96AE59C60A54CDE30CB574DE9208D5
310
2EE46C23B7DABE11AA4E15CE1EADB5E985EEBEE63C82760E8DF4D834526AF81330913494B4565C694EFEE92110625F9CCB1CE57D8302249705BE81FFC04448938464342F2BBA754A94DE5DA709D368D8FE4CDB6536EDF83DA7AF4CB62288B4FD8A9626BEE85EE5FEB3CC233DC27C5EFE0AAFB551EF7179C3A3EF0728467C25
310
45F8FC6DAC47B56E74835C11D1C868A7D6C26A5F18C23CC979B0DA053A671E45FED20A3CA4536D3989825854115C25A758CB10446CBD2E0532F411FB7D592E9A3E327166EE99D5FCEE84F51C791B59807013C11D1A014B494C833589FAC835A9D5D84241F64073BA4E20177B65C52E20453089687C8A6A4E02BF7C57F438C9
310
85601915A87C4795DFD4C6C4414AD2D6AC589656ED289A8920A505494ED18084E951AE2A60AA5B0ED1847C9BC7DA7BDFB25813F43FF2084ED095E659C0D0D46E07E8C275CEA6837887B755D84A8CA4443312EE82AF94C5CFC5004A75485646D4D78E19431C6ECA22C83724845B0F803D881569D40EE88A842FB212056199BC
310
9783089AAC039624651AE0C3329C618684F6302D34C075EE2B688AF68E14251F42E4FC6C724047771FDD14D820B466097AEF20259B1EADB712A2EA6CAC5AF906BD27985665BA09489A97D9204771665D8F34F05DB34AD881FCCAA6130D68056C007D0FDD7A5D6AAB9C0D574F021C0C8BE71E4DB4B25305A990FA0165A6465C
310
AACCB70B044937893E201ED4DB762573EBF07C9B003781FFBE04D27C50C19A77945075B6CD7E135A95D9BEE4CC98B1782ED35546D8F1886C95F3075288A77B5DB69F627D7536595C910528BAA21A198D4EDD6B1E35613FF8BD06FFBC7430E5E9815F4ADBA5342B88EC481FE48FE47772BC4CF453D2FB96B22F184CEBB7FBC7
310
13E5C18EC1E89F642B49BF9E48C1EC5AC81EED8054E508F5551E72D064C2AD8C17CCFE3FEA34E723FF1F7570AC46FED7672004B5CA7AC657A47F9E70D431B1FC2F4F3C37BB5FC84ECE7C4C0BAAACD59A5B85D2F54F3A9ED47553362BEF713C5183951AB5AE6E475B2C24E2AA580CEE12AB4CA801FB38FEC7DD445F75D6E48C
310
F5639D9A83D3BA09F7A0136A9D8DD591383BA8C1ADB47D71B1B89BDF2D16A3F38B0F93D1FCF2ECC7D1F5E5C41D2DCE2FE6D3F9DDF5F5DDCD65AD20E31E75C25325D047C78094878BF92BD3A0110BA36491272CC23421B2629AE3148399C280993F4FA9501D0A900D5664DE240CD8FDAA87B3055925D4EC0E9F09A6DA894001
310
808ECAB068DFB7BEC33C558E34AF6C4CBA9C177C1947B32D14E02BFB550E20432A9C156663720AA9C03B310CFD902C96BD8FDE54FFAF7749DDB44A44BD6448A93072E9FC6104408FB8C1C8AE352151BC99E7A7095EB16391023F5765813E4ECBB2BF510BA3C8C0EE5A2833E94B58F662486F118D6F8BE53A6A4D4B2383C6FB
310
6F3A81461D1584C76A482FF9332C5DDF7E1A6338682D7FB3364919C396C391469CC2994BD917C18BE0150673436433BDF8E9E913CFF15E2AB5EE185CC0FA7E7B71FEC3D3224FD33CD3B79EAE71008CF076CB7A7CC6BBAAE809AD1F956F04C4D374E2CE9ED424DEBC1C085644508744E20537BC71C959ADE896F9E1970755C3
310
58622C4DD1F1D0E5AD65F222DA5A0D743098D66FE62CC4907C07242346057625ED9BC3F8B15A0A5639C6E8FEDF504B03041400060800002D64EA44000000000000000000000000350000006662782F43393934383045462D454136302D343235442D414239342D3245344142343143413637312F76657274696365732E6269
310
6E504B03041400060808002D64EA44F270F1330600000004000000360000006662782F43393934383045462D454136302D343235442D414239342D3245344142343143413637312F747269616E676C65732E62696E636660600000504B03041400060800002D64EA44000000000000000000000000370000006662782F4339
310
3934383045462D454136302D343235442D414239342D3245344142343143413637312F617474726962757465732E62696E504B03041400060808002D64EA44B28BD8DE8F00000041010000360000006662782F43393934383045462D454136302D343235442D414239342D3245344142343143413637312F6469726563746F
310
72792E786D6C858F410EC2201045AF4266AF15DDB800BA74E7C21B903225242D6328188F2FA5C4183471359997F9FF81E89FF3C41E1816475E02DF1F80A11FC8386F25A438EECEC07A250251FC3803E6F58C12560C4AD840E95E91C151A72936F496F35732D860FE635F62C8F2DA16B505C545B74125BAA2FA9E05D7CC053D
310
063734D5A7665FD55B6B8D15D5F1BFEAFD8490FFA45E504B03041400060808002D64EA44446998F6FD000000A00100003B0000006662782F43393934383045462D454136302D343235442D414239342D3245344142343143413637312F7265736F75726365732F636F72652E786D6C8D905D6EC3201084AF62ED6B651BB09B
310
C416264ADBF404BD00C21B0725068B9FAAC72FC4AED4BEF5854533DF6847CB8F5FF3BDF844E7B53503D08A408146D9519B6980182EE5018AA3E0CEDAF00B83C2C81907C832083E391B974D52D6043421A9C68EB889D27B0C50A87BFA0CE0D5156759C91812E16FD522D54D4E58D12AD98913DC07970A14EB92FC8270E86D74
310
0A3DAF5757F018F5B8317A4C3BF545A303B13B91969D695BEE1969CB9676E7F2F0FAD69594B0137BEEDE49FB42799DC382073DFF74540E65C0110423294BF689FFA0AC6F9A9EED9E28E909E175C6FF84E232FE3314B5090DDBEAAE310F2217791882D7F95E693C8E9966BEADF806504B010214000A00000800002D64EA443D
310
EE336E79000000790000001B00000000000000000000000000000000006175746F6465736B2D64657369676E2D7061636B6167652E786D6C504B010214001400060808002D64EA44D486FD9CA0000000F40000001300000000000000000000000000B20000005B436F6E74656E745F54797065735D2E786D6C504B01021400
310
1400060808002D64EA4457C2B66EEA0000007C010000080000000000000000000000000083010000636F72652E786D6C504B010214001400060808002D64EA4455019EA25F0000007C000000070000000000000000000000000093020000636E782E786D6C504B010214001400060808002D64EA448996367F650100000203
310
00000C00000000000000000000000000170300006662782F636F72652E786D6C504B010214001400060808002D64EA449313FD1F7E0000009D0000000B00000000000000000000000000A60400006662782F636E782E786D6C504B010214001400060808002D64EA444E12621F2D0100001502000031000000000000000000
310
000000004D0500006662782F43393934383045462D454136302D343235442D414239342D3245344142343143413637312F636F72652E786D6C504B010214001400060808002D64EA4418D1DB4956010000330300003000000000000000000000000000C90600006662782F43393934383045462D454136302D343235442D41
310
4239342D3245344142343143413637312F636E782E786D6C504B010214001400060808002D64EA44278B61184E0700004F1C000034000000000000000000000000006D0800006662782F43393934383045462D454136302D343235442D414239342D3245344142343143413637312F6F626A656374732E786D6C504B010214
310
001400060800002D64EA4400000000000000000000000035000000000000000000000000000D1000006662782F43393934383045462D454136302D343235442D414239342D3245344142343143413637312F76657274696365732E62696E504B010214001400060808002D64EA44F270F13306000000040000003600000000
310
000000000000000000601000006662782F43393934383045462D454136302D343235442D414239342D3245344142343143413637312F747269616E676C65732E62696E504B010214001400060800002D64EA440000000000000000000000003700000000000000000000000000BA1000006662782F43393934383045462D45
310
4136302D343235442D414239342D3245344142343143413637312F617474726962757465732E62696E504B010214001400060808002D64EA44B28BD8DE8F0000004101000036000000000000000000000000000F1100006662782F43393934383045462D454136302D343235442D414239342D324534414234314341363731
310
2F6469726563746F72792E786D6C504B010214001400060808002D64EA44446998F6FD000000A00100003B00000000000000000000000000F21100006662782F43393934383045462D454136302D343235442D414239342D3245344142343143413637312F7265736F75726365732F636F72652E786D6C504B050600000000
310
0E000E0080040000481300000000
  0
XRECORD
  5
17
102
{ACAD_REACTORS
330
12
102
}
330
12
100
AcDbXrecord
280
     1
270
     1
271
     1
  0
XRECORD
  5
16
102
{ACAD_REACTORS
330
12
102
}
330
12
100
AcDbXrecord
280
     1
270
     1
271
     1
  0
XRECORD
  5
18
102
{ACAD_REACTORS
330
12
102
}
330
12
100
AcDbXrecord
280
     1
270
     1
271
     1
  0
XRECORD
  5
15
102
{ACAD_REACTORS
330
12
102
}
330
12
100
AcDbXrecord
280
     1
270
     1
271
     1
  0
XRECORD
  5
24
102
{ACAD_REACTORS
330
22
102
}
330
22
100
AcDbXrecord
280
     1
270
     1
271
     1
  0
XRECORD
  5
23
102
{ACAD_REACTORS
330
22
102
}
330
22
100
AcDbXrecord
280
     1
270
     1
271
     1
  0
XRECORD
  5
27
102
{ACAD_REACTORS
330
22
102
}
330
22
100
AcDbXrecord
280
     1
270
     1
271
     1
  0
XRECORD
  5
26
102
{ACAD_REACTORS
330
22
102
}
330
22
100
AcDbXrecord
280
     1
270
     1
271
     1
  0
XRECORD
  5
28
102
{ACAD_REACTORS
330
22
102
}
330
22
100
AcDbXrecord
280
     1
270
     1
271
     1
  0
XRECORD
  5
25
102
{ACAD_REACTORS
330
22
102
}
330
22
100
AcDbXrecord
280
     1
270
     1
271
     1
  0
XRECORD
  5
7F1
102
{ACAD_REACTORS
330
7F0
102
}
330
7F0
100
AcDbXrecord
280
     1
102
DISPLAYNAME
  1
Imperial24
102
FLAGS
 90
        0
  0
XRECORD
  5
809
102
{ACAD_REACTORS
330
808
102
}
330
808
100
AcDbXrecord
280
     1
102
DISPLAYNAME
  1
Metric50
102
FLAGS
 90
        0
  0
CELLSTYLEMAP
  5
7EF
102
{ACAD_REACTORS
330
79F
102
}
330
79F
100
AcDbCellStyleMap
 90
        3
300
CELLSTYLE
  1
TABLEFORMAT_BEGIN
 90
        5
170
     1
 91
        0
 92
    32768
 62
   257
 93
        1
300
CONTENTFORMAT
  1
CONTENTFORMAT_BEGIN
 90
        0
 91
        0
 92
      512
 93
        0
300

 40
0.0
140
1.0
 94
        5
 62
     0
340
55
144
0.25
309
CONTENTFORMAT_END
171
     1
301
MARGIN
  1
CELLMARGIN_BEGIN
 40
0.06
 40
0.06
 40
0.06
 40
0.06
 40
0.18
 40
0.18
309
CELLMARGIN_END
 94
        6
 95
        1
302
GRIDFORMAT
  1
GRIDFORMAT_BEGIN
 90
        0
 91
        1
 62
     0
 92
       -2
340
0
 93
        0
 40
0.045
309
GRIDFORMAT_END
 95
        2
302
GRIDFORMAT
  1
GRIDFORMAT_BEGIN
 90
        0
 91
        1
 62
     0
 92
       -2
340
0
 93
        0
 40
0.045
309
GRIDFORMAT_END
 95
        4
302
GRIDFORMAT
  1
GRIDFORMAT_BEGIN
 90
        0
 91
        1
 62
     0
 92
       -2
340
0
 93
        0
 40
0.045
309
GRIDFORMAT_END
 95
        8
302
GRIDFORMAT
  1
GRIDFORMAT_BEGIN
 90
        0
 91
        1
 62
     0
 92
       -2
340
0
 93
        0
 40
0.045
309
GRIDFORMAT_END
 95
       16
302
GRIDFORMAT
  1
GRIDFORMAT_BEGIN
 90
        0
 91
        1
 62
     0
 92
       -2
340
0
 93
        0
 40
0.045
309
GRIDFORMAT_END
 95
       32
302
GRIDFORMAT
  1
GRIDFORMAT_BEGIN
 90
        0
 91
        1
 62
     0
 92
       -2
340
0
 93
        0
 40
0.045
309
GRIDFORMAT_END
309
TABLEFORMAT_END
  1
CELLSTYLE_BEGIN
 90
        1
 91
        1
300
_TITLE
309
CELLSTYLE_END
300
CELLSTYLE
  1
TABLEFORMAT_BEGIN
 90
        5
170
     1
 91
        0
 92
        0
 62
   257
 93
        1
300
CONTENTFORMAT
  1
CONTENTFORMAT_BEGIN
 90
        0
 91
        0
 92
      512
 93
        0
300

 40
0.0
140
1.0
 94
        5
 62
     0
340
55
144
0.18
309
CONTENTFORMAT_END
171
     1
301
MARGIN
  1
CELLMARGIN_BEGIN
 40
0.06
 40
0.06
 40
0.06
 40
0.06
 40
0.18
 40
0.18
309
CELLMARGIN_END
 94
        6
 95
        1
302
GRIDFORMAT
  1
GRIDFORMAT_BEGIN
 90
        0
 91
        1
 62
     0
 92
       -2
340
0
 93
        0
 40
0.045
309
GRIDFORMAT_END
 95
        2
302
GRIDFORMAT
  1
GRIDFORMAT_BEGIN
 90
        0
 91
        1
 62
     0
 92
       -2
340
0
 93
        0
 40
0.045
309
GRIDFORMAT_END
 95
        4
302
GRIDFORMAT
  1
GRIDFORMAT_BEGIN
 90
        0
 91
        1
 62
     0
 92
       -2
340
0
 93
        0
 40
0.045
309
GRIDFORMAT_END
 95
        8
302
GRIDFORMAT
  1
GRIDFORMAT_BEGIN
 90
        0
 91
        1
 62
     0
 92
       -2
340
0
 93
        0
 40
0.045
309
GRIDFORMAT_END
 95
       16
302
GRIDFORMAT
  1
GRIDFORMAT_BEGIN
 90
        0
 91
        1
 62
     0
 92
       -2
340
0
 93
        0
 40
0.045
309
GRIDFORMAT_END
 95
       32
302
GRIDFORMAT
  1
GRIDFORMAT_BEGIN
 90
        0
 91
        1
 62
     0
 92
       -2
340
0
 93
        0
 40
0.045
309
GRIDFORMAT_END
309
TABLEFORMAT_END
  1
CELLSTYLE_BEGIN
 90
        2
 91
        1
300
_HEADER
309
CELLSTYLE_END
300
CELLSTYLE
  1
TABLEFORMAT_BEGIN
 90
        5
170
     1
 91
        0
 92
        0
 62
   257
 93
        1
300
CONTENTFORMAT
  1
CONTENTFORMAT_BEGIN
 90
        0
 91
        0
 92
      512
 93
        0
300

 40
0.0
140
1.0
 94
        2
 62
     0
340
55
144
0.18
309
CONTENTFORMAT_END
171
     1
301
MARGIN
  1
CELLMARGIN_BEGIN
 40
0.06
 40
0.06
 40
0.06
 40
0.06
 40
0.18
 40
0.18
309
CELLMARGIN_END
 94
        6
 95
        1
302
GRIDFORMAT
  1
GRIDFORMAT_BEGIN
 90
        0
 91
        1
 62
     0
 92
       -2
340
0
 93
        0
 40
0.045
309
GRIDFORMAT_END
 95
        2
302
GRIDFORMAT
  1
GRIDFORMAT_BEGIN
 90
        0
 91
        1
 62
     0
 92
       -2
340
0
 93
        0
 40
0.045
309
GRIDFORMAT_END
 95
        4
302
GRIDFORMAT
  1
GRIDFORMAT_BEGIN
 90
        0
 91
        1
 62
     0
 92
       -2
340
0
 93
        0
 40
0.045
309
GRIDFORMAT_END
 95
        8
302
GRIDFORMAT
  1
GRIDFORMAT_BEGIN
 90
        0
 91
        1
 62
     0
 92
       -2
340
0
 93
        0
 40
0.045
309
GRIDFORMAT_END
 95
       16
302
GRIDFORMAT
  1
GRIDFORMAT_BEGIN
 90
        0
 91
        1
 62
     0
 92
       -2
340
0
 93
        0
 40
0.045
309
GRIDFORMAT_END
 95
       32
302
GRIDFORMAT
  1
GRIDFORMAT_BEGIN
 90
        0
 91
        1
 62
     0
 92
       -2
340
0
 93
        0
 40
0.045
309
GRIDFORMAT_END
309
TABLEFORMAT_END
  1
CELLSTYLE_BEGIN
 90
        3
 91
        2
300
_DATA
309
CELLSTYLE_END
  0
ENDSEC
  0
EOF
