  0
SECTION
  2
HEADER
  9
$ACADVER
  1
AC1032
  9
$ACADMAINTVER
 90
      174
  9
$DWGCODEPAGE
  3
ANSI_1252
  9
$LASTSAVEDBY
  1
pengb
  9
$REQUIREDVERSIONS
160
                 0
  9
$INSBASE
 10
0.0
 20
0.0
 30
0.0
  9
$EXTMIN
 10
-223.3557121727565
 20
-380.1868283643699
 30
-0.0015258207003583
  9
$EXTMAX
 10
635.9857190027667
 20
414.5655220686056
 30
0.0000000349246037
  9
$LIMMIN
 10
0.0
 20
0.0
  9
$LIMMAX
 10
420.0
 20
297.0
  9
$ORTHOMODE
 70
     0
  9
$REGENMODE
 70
     1
  9
$FILLMODE
 70
     1
  9
$QTEXTMODE
 70
     0
  9
$MIRRTEXT
 70
     1
  9
$LTSCALE
 40
1.0
  9
$ATTMODE
 70
     1
  9
$TEXTSIZE
 40
3.5
  9
$TRACEWID
 40
1.0
  9
$TEXTSTYLE
  7
Standard
  9
$CLAYER
  8
0
  9
$CELTYPE
  6
ByLayer
  9
$CECOLOR
 62
   256
  9
$CELTSCALE
 40
1.0
  9
$DISPSILH
 70
     0
  9
$DIMSCALE
 40
1.0
  9
$DIMASZ
 40
3.302
  9
$DIMEXO
 40
1.0
  9
$DIMDLI
 40
3.75
  9
$DIMRND
 40
0.0
  9
$DIMDLE
 40
0.0
  9
$DIMEXE
 40
1.0
  9
$DIMTP
 40
0.0
  9
$DIMTM
 40
0.0
  9
$DIMTXT
 40
3.5
  9
$DIMCEN
 40
2.5
  9
$DIMTSZ
 40
0.0
  9
$DIMTOL
 70
     0
  9
$DIMLIM
 70
     0
  9
$DIMTIH
 70
     1
  9
$DIMTOH
 70
     1
  9
$DIMSE1
 70
     0
  9
$DIMSE2
 70
     0
  9
$DIMTAD
 70
     1
  9
$DIMZIN
 70
     1
  9
$DIMBLK
  1

  9
$DIMASO
 70
     1
  9
$DIMSHO
 70
     1
  9
$DIMPOST
  1

  9
$DIMAPOST
  1

  9
$DIMALT
 70
     0
  9
$DIMALTD
 70
     3
  9
$DIMALTF
 40
0.0393700787
  9
$DIMLFAC
 40
5.0
  9
$DIMTOFL
 70
     1
  9
$DIMTVP
 40
0.0
  9
$DIMTIX
 70
     0
  9
$DIMSOXD
 70
     0
  9
$DIMSAH
 70
     0
  9
$DIMBLK1
  1

  9
$DIMBLK2
  1

  9
$DIMSTYLE
  2
ISO-25
  9
$DIMCLRD
 70
     0
  9
$DIMCLRE
 70
     0
  9
$DIMCLRT
 70
     0
  9
$DIMTFAC
 40
1.0
  9
$DIMGAP
 40
1.524
  9
$DIMJUST
 70
     0
  9
$DIMSD1
 70
     0
  9
$DIMSD2
 70
     0
  9
$DIMTOLJ
 70
     0
  9
$DIMTZIN
 70
     1
  9
$DIMALTZ
 70
     0
  9
$DIMALTTZ
 70
     0
  9
$DIMUPT
 70
     0
  9
$DIMDEC
 70
     2
  9
$DIMTDEC
 70
     2
  9
$DIMALTU
 70
     2
  9
$DIMALTTD
 70
     3
  9
$DIMTXSTY
  7
Standard
  9
$DIMAUNIT
 70
     0
  9
$DIMADEC
 70
     2
  9
$DIMALTRND
 40
0.0
  9
$DIMAZIN
 70
     0
  9
$DIMDSEP
 70
    44
  9
$DIMATFIT
 70
     3
  9
$DIMFRAC
 70
     0
  9
$DIMLDRBLK
  1

  9
$DIMLUNIT
 70
     2
  9
$DIMLWD
 70
    -2
  9
$DIMLWE
 70
    -2
  9
$DIMTMOVE
 70
     0
  9
$DIMFXL
 40
1.0
  9
$DIMFXLON
 70
     0
  9
$DIMJOGANG
 40
0.7853981633974483
  9
$DIMTFILL
 70
     0
  9
$DIMTFILLCLR
 70
     0
  9
$DIMARCSYM
 70
     0
  9
$DIMLTYPE
  6

  9
$DIMLTEX1
  6

  9
$DIMLTEX2
  6

  9
$DIMTXTDIRECTION
 70
     0
  9
$LUNITS
 70
     2
  9
$LUPREC
 70
     2
  9
$SKETCHINC
 40
1.0
  9
$FILLETRAD
 40
10.0
  9
$AUNITS
 70
     0
  9
$AUPREC
 70
     2
  9
$MENU
  1
.
  9
$ELEVATION
 40
0.0
  9
$PELEVATION
 40
0.0
  9
$THICKNESS
 40
0.0
  9
$LIMCHECK
 70
     0
  9
$CHAMFERA
 40
0.0
  9
$CHAMFERB
 40
0.0
  9
$CHAMFERC
 40
0.0
  9
$CHAMFERD
 40
0.0
  9
$SKPOLY
 70
     0
  9
$TDCREATE
 40
2459998.534953704
  9
$TDUCREATE
 40
2459998.076628635
  9
$TDUPDATE
 40
2460005.601469907
  9
$TDUUPDATE
 40
2460005.143136574
  9
$TDINDWG
 40
0.0144907523
  9
$TDUSRTIMER
 40
0.0144907523
  9
$USRTIMER
 70
     1
  9
$ANGBASE
 50
0.0
  9
$ANGDIR
 70
     0
  9
$PDMODE
 70
     0
  9
$PDSIZE
 40
-1.0
  9
$PLINEWID
 40
0.0
  9
$SPLFRAME
 70
     0
  9
$SPLINETYPE
 70
     6
  9
$SPLINESEGS
 70
     8
  9
$HANDSEED
  5
2D6
  9
$SURFTAB1
 70
     6
  9
$SURFTAB2
 70
     6
  9
$SURFTYPE
 70
     6
  9
$SURFU
 70
     6
  9
$SURFV
 70
     6
  9
$UCSBASE
  2

  9
$UCSNAME
  2

  9
$UCSORG
 10
0.0
 20
0.0
 30
0.0
  9
$UCSXDIR
 10
1.0
 20
0.0
 30
0.0
  9
$UCSYDIR
 10
0.0
 20
1.0
 30
0.0
  9
$UCSORTHOREF
  2

  9
$UCSORTHOVIEW
 70
     0
  9
$UCSORGTOP
 10
0.0
 20
0.0
 30
0.0
  9
$UCSORGBOTTOM
 10
0.0
 20
0.0
 30
0.0
  9
$UCSORGLEFT
 10
0.0
 20
0.0
 30
0.0
  9
$UCSORGRIGHT
 10
0.0
 20
0.0
 30
0.0
  9
$UCSORGFRONT
 10
0.0
 20
0.0
 30
0.0
  9
$UCSORGBACK
 10
0.0
 20
0.0
 30
0.0
  9
$PUCSBASE
  2

  9
$PUCSNAME
  2

  9
$PUCSORG
 10
0.0
 20
0.0
 30
0.0
  9
$PUCSXDIR
 10
1.0
 20
0.0
 30
0.0
  9
$PUCSYDIR
 10
0.0
 20
1.0
 30
0.0
  9
$PUCSORTHOREF
  2

  9
$PUCSORTHOVIEW
 70
     0
  9
$PUCSORGTOP
 10
0.0
 20
0.0
 30
0.0
  9
$PUCSORGBOTTOM
 10
0.0
 20
0.0
 30
0.0
  9
$PUCSORGLEFT
 10
0.0
 20
0.0
 30
0.0
  9
$PUCSORGRIGHT
 10
0.0
 20
0.0
 30
0.0
  9
$PUCSORGFRONT
 10
0.0
 20
0.0
 30
0.0
  9
$PUCSORGBACK
 10
0.0
 20
0.0
 30
0.0
  9
$USERI1
 70
     0
  9
$USERI2
 70
     0
  9
$USERI3
 70
     0
  9
$USERI4
 70
     0
  9
$USERI5
 70
     0
  9
$USERR1
 40
0.0
  9
$USERR2
 40
0.0
  9
$USERR3
 40
0.0
  9
$USERR4
 40
0.0
  9
$USERR5
 40
0.0
  9
$WORLDVIEW
 70
     1
  9
$SHADEDGE
 70
     3
  9
$SHADEDIF
 70
    70
  9
$TILEMODE
 70
     1
  9
$MAXACTVP
 70
    64
  9
$PINSBASE
 10
0.0
 20
0.0
 30
0.0
  9
$PLIMCHECK
 70
     0
  9
$PEXTMIN
 10
1.000000000000000E+20
 20
1.000000000000000E+20
 30
1.000000000000000E+20
  9
$PEXTMAX
 10
-1.000000000000000E+20
 20
-1.000000000000000E+20
 30
-1.000000000000000E+20
  9
$PLIMMIN
 10
0.0
 20
0.0
  9
$PLIMMAX
 10
420.0
 20
297.0
  9
$UNITMODE
 70
     0
  9
$VISRETAIN
 70
     1
  9
$PLINEGEN
 70
     0
  9
$PSLTSCALE
 70
     1
  9
$TREEDEPTH
 70
  3020
  9
$CMLSTYLE
  2
Standard
  9
$CMLJUST
 70
     0
  9
$CMLSCALE
 40
20.0
  9
$PROXYGRAPHICS
 70
     1
  9
$MEASUREMENT
 70
     1
  9
$CELWEIGHT
370
    -1
  9
$ENDCAPS
280
     0
  9
$JOINSTYLE
280
     0
  9
$LWDISPLAY
290
     1
  9
$INSUNITS
 70
     4
  9
$HYPERLINKBASE
  1

  9
$STYLESHEET
  1

  9
$XEDIT
290
     1
  9
$CEPSNTYPE
380
     0
  9
$PSTYLEMODE
290
     1
  9
$FINGERPRINTGUID
  2
{FD272C81-4927-4512-9154-E1EDFFF125C5}
  9
$VERSIONGUID
  2
{B66F0BE6-4559-B940-B435-84DB4130ABC8}
  9
$EXTNAMES
290
     1
  9
$PSVPSCALE
 40
0.0
  9
$OLESTARTUP
290
     0
  9
$SORTENTS
280
   127
  9
$INDEXCTL
280
     0
  9
$HIDETEXT
280
     0
  9
$XCLIPFRAME
280
     2
  9
$HALOGAP
280
     0
  9
$OBSCOLOR
 70
   257
  9
$OBSLTYPE
280
     0
  9
$INTERSECTIONDISPLAY
280
     0
  9
$INTERSECTIONCOLOR
 70
   257
  9
$DIMASSOC
280
     1
  9
$PROJECTNAME
  1

  9
$CAMERADISPLAY
290
     0
  9
$LENSLENGTH
 40
50.0
  9
$CAMERAHEIGHT
 40
0.0
  9
$STEPSPERSEC
 40
2.0
  9
$STEPSIZE
 40
6.0
  9
$3DDWFPREC
 40
2.0
  9
$PSOLWIDTH
 40
0.25
  9
$PSOLHEIGHT
 40
4.0
  9
$LOFTANG1
 40
1.570796326794896
  9
$LOFTANG2
 40
1.570796326794896
  9
$LOFTMAG1
 40
0.0
  9
$LOFTMAG2
 40
0.0
  9
$LOFTPARAM
 70
     7
  9
$LOFTNORMALS
280
     1
  9
$LATITUDE
 40
37.795
  9
$LONGITUDE
 40
-122.394
  9
$NORTHDIRECTION
 40
0.0
  9
$TIMEZONE
 70
 -8000
  9
$LIGHTGLYPHDISPLAY
280
     1
  9
$TILEMODELIGHTSYNCH
280
     1
  9
$CMATERIAL
347
14D
  9
$SOLIDHIST
280
     0
  9
$SHOWHIST
280
     1
  9
$DWFFRAME
280
     2
  9
$DGNFRAME
280
     0
  9
$REALWORLDSCALE
290
     1
  9
$INTERFERECOLOR
 62
     1
  9
$INTERFEREOBJVS
345
16F
  9
$INTERFEREVPVS
346
16C
  9
$CSHADOW
280
     0
  9
$SHADOWPLANELOCATION
 40
0.0
  0
ENDSEC
  0
SECTION
  2
CLASSES
  0
CLASS
  1
ACDBDICTIONARYWDFLT
  2
AcDbDictionaryWithDefault
  3
ObjectDBX Classes
 90
        0
 91
        1
280
     0
281
     0
  0
CLASS
  1
VISUALSTYLE
  2
AcDbVisualStyle
  3
ObjectDBX Classes
 90
     4095
 91
       24
280
     0
281
     0
  0
CLASS
  1
MATERIAL
  2
AcDbMaterial
  3
ObjectDBX Classes
 90
     1153
 91
        3
280
     0
281
     0
  0
CLASS
  1
SCALE
  2
AcDbScale
  3
ObjectDBX Classes
 90
     1153
 91
       33
280
     0
281
     0
  0
CLASS
  1
TABLESTYLE
  2
AcDbTableStyle
  3
ObjectDBX Classes
 90
     4095
 91
        1
280
     0
281
     0
  0
CLASS
  1
MLEADERSTYLE
  2
AcDbMLeaderStyle
  3
ACDB_MLEADERSTYLE_CLASS
 90
     4095
 91
        1
280
     0
281
     0
  0
CLASS
  1
SUN
  2
AcDbSun
  3
SCENEOE
 90
     1153
 91
        0
280
     0
281
     0
  0
CLASS
  1
ACDBSECTIONVIEWSTYLE
  2
AcDbSectionViewStyle
  3
ObjectDBX Classes
 90
     1025
 91
        1
280
     0
281
     0
  0
CLASS
  1
ACDBDETAILVIEWSTYLE
  2
AcDbDetailViewStyle
  3
ObjectDBX Classes
 90
     1025
 91
        1
280
     0
281
     0
  0
CLASS
  1
ACDB_ALDIMOBJECTCONTEXTDATA_CLASS
  2
AcDbAlignedDimensionObjectContextData
  3
ObjectDBX Classes
 90
     1153
 91
       14
280
     0
281
     0
  0
CLASS
  1
DICTIONARYVAR
  2
AcDbDictionaryVar
  3
ObjectDBX Classes
 90
        0
 91
       27
280
     0
281
     0
  0
CLASS
  1
CELLSTYLEMAP
  2
AcDbCellStyleMap
  3
ObjectDBX Classes
 90
     1152
 91
        1
280
     0
281
     0
  0
ENDSEC
  0
SECTION
  2
TABLES
  0
TABLE
  2
VPORT
  5
8
330
0
100
AcDbSymbolTable
 70
     1
  0
VPORT
  5
29
330
8
100
AcDbSymbolTableRecord
100
AcDbViewportTableRecord
  2
*Active
 70
     0
 10
0.0
 20
0.0
 11
1.0
 21
1.0
 12
206.3150034150051
 22
17.18934685211786
 13
0.0
 23
0.0
 14
10.0
 24
10.0
 15
10.0
 25
10.0
 16
0.0
 26
0.0
 36
1.0
 17
0.0
 27
0.0
 37
0.0
 40
797.7196896380769
 41
1.910336239103362
 42
50.0
 43
0.0
 44
0.0
 50
0.0
 51
0.0
 71
     0
 72
  2000
 73
     1
 74
     3
 75
     0
 76
     0
 77
     0
 78
     0
281
     0
 65
     1
110
0.0
120
0.0
130
0.0
111
1.0
121
0.0
131
0.0
112
0.0
122
1.0
132
0.0
 79
     0
146
0.0
348
16B
 60
     3
 61
     5
292
     1
282
     1
141
0.0
142
0.0
 63
   250
421
  3355443
1001
ACAD_NAV_VCDISPLAY
1070
     3
  0
ENDTAB
  0
TABLE
  2
LTYPE
  5
5
330
0
100
AcDbSymbolTable
 70
     6
  0
LTYPE
  5
14
330
5
100
AcDbSymbolTableRecord
100
AcDbLinetypeTableRecord
  2
ByBlock
 70
     0
  3

 72
    65
 73
     0
 40
0.0
  0
LTYPE
  5
15
330
5
100
AcDbSymbolTableRecord
100
AcDbLinetypeTableRecord
  2
ByLayer
 70
     0
  3

 72
    65
 73
     0
 40
0.0
  0
LTYPE
  5
16
330
5
100
AcDbSymbolTableRecord
100
AcDbLinetypeTableRecord
  2
Continuous
 70
     0
  3
Solid line
 72
    65
 73
     0
 40
0.0
  0
LTYPE
  5
6E
330
5
100
AcDbSymbolTableRecord
100
AcDbLinetypeTableRecord
  2
HIDDEN
 70
     0
  3
Hidden __ __ __ __ __ __ __ __ __ __ __ __ __ __
 72
    65
 73
     2
 40
1.905
 49
1.27
 74
     0
 49
-0.635
 74
     0
  0
LTYPE
  5
6F
330
5
100
AcDbSymbolTableRecord
100
AcDbLinetypeTableRecord
  2
PHANTOM
 70
     0
  3
Phantom ______  __  __  ______  __  __  ______
 72
    65
 73
     6
 40
12.7
 49
6.349999999999999
 74
     0
 49
-1.27
 74
     0
 49
1.27
 74
     0
 49
-1.27
 74
     0
 49
1.27
 74
     0
 49
-1.27
 74
     0
  0
LTYPE
  5
70
330
5
100
AcDbSymbolTableRecord
100
AcDbLinetypeTableRecord
  2
CENTER
 70
     0
  3
Center ____ _ ____ _ ____ _ ____ _ ____ _ ____
 72
    65
 73
     4
 40
10.16
 49
6.349999999999999
 74
     0
 49
-1.27
 74
     0
 49
1.27
 74
     0
 49
-1.27
 74
     0
  0
LTYPE
  5
71
330
5
100
AcDbSymbolTableRecord
100
AcDbLinetypeTableRecord
  2
CENTERX2
 70
     0
  3
Center (2x) ________  __  ________  __  _____
 72
    65
 73
     4
 40
20.32
 49
12.7
 74
     0
 49
-2.54
 74
     0
 49
2.54
 74
     0
 49
-2.54
 74
     0
  0
LTYPE
  5
72
330
5
100
AcDbSymbolTableRecord
100
AcDbLinetypeTableRecord
  2
DOT2
 70
     0
  3
Dot (.5x) ........................................
 72
    65
 73
     2
 40
0.635
 49
0.0
 74
     0
 49
-0.635
 74
     0
  0
ENDTAB
  0
TABLE
  2
LAYER
  5
2
102
{ACAD_XDICTIONARY
360
19D
102
}
330
0
100
AcDbSymbolTable
 70
     4
  0
LAYER
  5
10
102
{ACAD_XDICTIONARY
360
2B9
102
}
330
2
100
AcDbSymbolTableRecord
100
AcDbLayerTableRecord
  2
0
 70
     0
 62
     7
  6
Continuous
370
    -3
390
F
347
15D
348
0
  0
LAYER
  5
73
102
{ACAD_XDICTIONARY
360
2BB
102
}
330
2
100
AcDbSymbolTableRecord
100
AcDbLayerTableRecord
  2
FORMAT
 70
     0
 62
     7
  6
Continuous
370
    -3
390
F
347
15D
348
0
  0
LAYER
  5
194
330
2
100
AcDbSymbolTableRecord
100
AcDbLayerTableRecord
  2
Defpoints
 70
     0
 62
     7
  6
Continuous
290
     0
370
    -3
390
F
347
15D
348
0
  0
LAYER
  5
195
102
{ACAD_XDICTIONARY
360
2BD
102
}
330
2
100
AcDbSymbolTableRecord
100
AcDbLayerTableRecord
  2
DIMENSION
 70
     0
 62
   255
  6
Continuous
370
    -3
390
F
347
15D
348
0
  0
ENDTAB
  0
TABLE
  2
STYLE
  5
3
330
0
100
AcDbSymbolTable
 70
     2
  0
STYLE
  5
11
330
3
100
AcDbSymbolTableRecord
100
AcDbTextStyleTableRecord
  2
Standard
 70
     0
 40
0.0
 41
1.0
 50
0.0
 71
     0
 42
3.5
  3
txt
  4

  0
STYLE
  5
9C
330
3
100
AcDbSymbolTableRecord
100
AcDbTextStyleTableRecord
  2
SLDTEXTSTYLE0
 70
     0
 40
0.0
 41
0.75
 50
0.0
 71
     0
 42
3.5
  3
TXT
  4

  0
ENDTAB
  0
TABLE
  2
VIEW
  5
6
330
0
100
AcDbSymbolTable
 70
     0
  0
ENDTAB
  0
TABLE
  2
UCS
  5
7
330
0
100
AcDbSymbolTable
 70
     0
  0
ENDTAB
  0
TABLE
  2
APPID
  5
9
330
0
100
AcDbSymbolTable
 70
     7
  0
APPID
  5
12
330
9
100
AcDbSymbolTableRecord
100
AcDbRegAppTableRecord
  2
ACAD
 70
     0
  0
APPID
  5
197
330
9
100
AcDbSymbolTableRecord
100
AcDbRegAppTableRecord
  2
ACAD_PSEXT
 70
     0
  0
APPID
  5
198
330
9
100
AcDbSymbolTableRecord
100
AcDbRegAppTableRecord
  2
AcadAnnotative
 70
     0
  0
APPID
  5
199
330
9
100
AcDbSymbolTableRecord
100
AcDbRegAppTableRecord
  2
ACAD_DSTYLE_DIMJAG
 70
     0
  0
APPID
  5
19A
330
9
100
AcDbSymbolTableRecord
100
AcDbRegAppTableRecord
  2
ACAD_DSTYLE_DIMTALN
 70
     0
  0
APPID
  5
19B
330
9
100
AcDbSymbolTableRecord
100
AcDbRegAppTableRecord
  2
ACAD_NAV_VCDISPLAY
 70
     0
  0
APPID
  5
19C
330
9
100
AcDbSymbolTableRecord
100
AcDbRegAppTableRecord
  2
ACAD_DSTYLE_DIMBREAK
 70
     0
  0
ENDTAB
  0
TABLE
  2
DIMSTYLE
  5
A
330
0
100
AcDbSymbolTable
 70
     3
100
AcDbDimStyleTable
 71
     2
340
196
340
27
  0
DIMSTYLE
105
27
330
A
100
AcDbSymbolTableRecord
100
AcDbDimStyleTableRecord
  2
ISO-25
 70
     0
 41
2.5
 42
0.625
 43
3.75
 44
1.25
 73
     0
 74
     0
 77
     1
 78
     8
140
2.5
141
2.5
143
0.0393700787
147
0.625
171
     3
172
     1
271
     2
272
     2
274
     3
278
    44
283
     0
284
     8
340
11
  0
DIMSTYLE
105
9D
330
A
100
AcDbSymbolTableRecord
100
AcDbDimStyleTableRecord
  2
SLDDIMSTYLE0
 70
     0
 41
3.302
 44
0.0
 45
0.000000001
 73
     0
 74
     0
 77
     1
 78
     4
 79
     1
140
6.879166666699999
147
1.719791666699999
173
     1
271
     2
272
     2
276
     2
284
    12
340
9C
341
9E
343
9E
344
9E
  0
DIMSTYLE
105
196
102
{ACAD_REACTORS
330
1A0
330
B0
330
A8
330
9B
330
104
330
FB
330
10D
330
135
330
13F
330
22C
330
239
330
249
102
}
330
A
100
AcDbSymbolTableRecord
100
AcDbDimStyleTableRecord
  2
RG Dimension Lines
 70
     0
 40
12.0
 41
3.5
 42
1.0
 43
10.0
 44
5.0
 49
5.0
 77
     2
140
8.0
141
0.0
147
4.0
172
     1
176
   256
177
   256
178
     7
271
     0
272
     0
290
     1
340
11
341
9E
342
9E
371
     0
372
     0
1001
ACAD_DSTYLE_DIMBREAK
1070
   391
1040
0.125
1001
AcadAnnotative
1000
AnnotativeData
1002
{
1070
     1
1070
     1
1002
}
1001
ACAD_DSTYLE_DIMJAG
1070
   388
1040
1.5
1001
ACAD_DSTYLE_DIMTALN
1070
   392
1070
     0
  0
ENDTAB
  0
TABLE
  2
BLOCK_RECORD
  5
1
330
0
100
AcDbSymbolTable
 70
    29
  0
BLOCK_RECORD
  5
1F
330
1
100
AcDbSymbolTableRecord
100
AcDbBlockTableRecord
  2
*Model_Space
340
22
 70
     0
280
     1
281
     0
  0
BLOCK_RECORD
  5
1B
330
1
100
AcDbSymbolTableRecord
100
AcDbBlockTableRecord
  2
*Paper_Space
340
1E
 70
     0
280
     1
281
     0
  0
BLOCK_RECORD
  5
23
330
1
100
AcDbSymbolTableRecord
100
AcDbBlockTableRecord
  2
*Paper_Space0
340
26
 70
     0
280
     1
281
     0
  0
BLOCK_RECORD
  5
9E
330
1
100
AcDbSymbolTableRecord
100
AcDbBlockTableRecord
  2
_None
340
0
 70
     0
280
     1
281
     0
  0
BLOCK_RECORD
  5
A1
330
1
100
AcDbSymbolTableRecord
100
AcDbBlockTableRecord
  2
_D
340
0
 70
     0
280
     1
281
     0
  0
BLOCK_RECORD
  5
A9
330
1
100
AcDbSymbolTableRecord
100
AcDbBlockTableRecord
  2
_D_1
340
0
 70
     0
280
     1
281
     0
  0
BLOCK_RECORD
  5
B1
330
1
100
AcDbSymbolTableRecord
100
AcDbBlockTableRecord
  2
_D_2
340
0
 70
     0
280
     1
281
     0
  0
BLOCK_RECORD
  5
FC
330
1
100
AcDbSymbolTableRecord
100
AcDbBlockTableRecord
  2
_D_3
340
0
 70
     0
280
     1
281
     0
  0
BLOCK_RECORD
  5
105
330
1
100
AcDbSymbolTableRecord
100
AcDbBlockTableRecord
  2
_D_4
340
0
 70
     0
280
     1
281
     0
  0
BLOCK_RECORD
  5
10E
330
1
100
AcDbSymbolTableRecord
100
AcDbBlockTableRecord
  2
_D_5
340
0
 70
     0
280
     1
281
     0
  0
BLOCK_RECORD
  5
136
330
1
100
AcDbSymbolTableRecord
100
AcDbBlockTableRecord
  2
_D_6
340
0
 70
     0
280
     1
281
     0
  0
BLOCK_RECORD
  5
140
330
1
100
AcDbSymbolTableRecord
100
AcDbBlockTableRecord
  2
_D_7
340
0
 70
     0
280
     1
281
     0
  0
BLOCK_RECORD
  5
18A
330
1
100
AcDbSymbolTableRecord
100
AcDbBlockTableRecord
  2
*D10
340
0
 70
     0
280
     1
281
     0
  0
BLOCK_RECORD
  5
1AE
330
1
100
AcDbSymbolTableRecord
100
AcDbBlockTableRecord
  2
*D12
340
0
 70
     0
280
     1
281
     0
  0
BLOCK_RECORD
  5
1B8
330
1
100
AcDbSymbolTableRecord
100
AcDbBlockTableRecord
  2
*D13
340
0
 70
     0
280
     1
281
     0
  0
BLOCK_RECORD
  5
1C6
330
1
100
AcDbSymbolTableRecord
100
AcDbBlockTableRecord
  2
*D14
340
0
 70
     0
280
     1
281
     0
  0
BLOCK_RECORD
  5
1D4
330
1
100
AcDbSymbolTableRecord
100
AcDbBlockTableRecord
  2
*D15
340
0
 70
     0
280
     1
281
     0
  0
BLOCK_RECORD
  5
1E2
330
1
100
AcDbSymbolTableRecord
100
AcDbBlockTableRecord
  2
*D16
340
0
 70
     0
280
     1
281
     0
  0
BLOCK_RECORD
  5
1F0
330
1
100
AcDbSymbolTableRecord
100
AcDbBlockTableRecord
  2
*D17
340
0
 70
     0
280
     1
281
     0
  0
BLOCK_RECORD
  5
1FE
330
1
100
AcDbSymbolTableRecord
100
AcDbBlockTableRecord
  2
*D18
340
0
 70
     0
280
     1
281
     0
  0
BLOCK_RECORD
  5
20C
330
1
100
AcDbSymbolTableRecord
100
AcDbBlockTableRecord
  2
*D19
340
0
 70
     0
280
     1
281
     0
  0
BLOCK_RECORD
  5
21C
330
1
100
AcDbSymbolTableRecord
100
AcDbBlockTableRecord
  2
*D20
340
0
 70
     0
280
     1
281
     0
  0
BLOCK_RECORD
  5
22D
330
1
100
AcDbSymbolTableRecord
100
AcDbBlockTableRecord
  2
*D21
340
0
 70
     0
280
     1
281
     0
  0
BLOCK_RECORD
  5
23A
330
1
100
AcDbSymbolTableRecord
100
AcDbBlockTableRecord
  2
*D22
340
0
 70
     0
280
     1
281
     0
  0
BLOCK_RECORD
  5
24A
330
1
100
AcDbSymbolTableRecord
100
AcDbBlockTableRecord
  2
*D23
340
0
 70
     0
280
     1
281
     0
  0
BLOCK_RECORD
  5
265
330
1
100
AcDbSymbolTableRecord
100
AcDbBlockTableRecord
  2
*D24
340
0
 70
     0
280
     1
281
     0
  0
BLOCK_RECORD
  5
273
330
1
100
AcDbSymbolTableRecord
100
AcDbBlockTableRecord
  2
*D25
340
0
 70
     0
280
     1
281
     0
  0
BLOCK_RECORD
  5
284
330
1
100
AcDbSymbolTableRecord
100
AcDbBlockTableRecord
  2
*D26
340
0
 70
     0
280
     1
281
     0
  0
BLOCK_RECORD
  5
29F
330
1
100
AcDbSymbolTableRecord
100
AcDbBlockTableRecord
  2
*D27
340
0
 70
     0
280
     1
281
     0
  0
BLOCK_RECORD
  5
2AB
330
1
100
AcDbSymbolTableRecord
100
AcDbBlockTableRecord
  2
*D28
340
0
 70
     0
280
     1
281
     0
  0
ENDTAB
  0
ENDSEC
  0
SECTION
  2
BLOCKS
  0
BLOCK
  5
20
330
1F
100
AcDbEntity
  8
0
100
AcDbBlockBegin
  2
*Model_Space
 70
     0
 10
0.0
 20
0.0
 30
0.0
  3
*Model_Space
  1

  0
ENDBLK
  5
21
330
1F
100
AcDbEntity
  8
0
100
AcDbBlockEnd
  0
BLOCK
  5
1C
330
1B
100
AcDbEntity
 67
     1
  8
0
100
AcDbBlockBegin
  2
*Paper_Space
 70
     0
 10
0.0
 20
0.0
 30
0.0
  3
*Paper_Space
  1

  0
ENDBLK
  5
1D
330
1B
100
AcDbEntity
 67
     1
  8
0
100
AcDbBlockEnd
  0
BLOCK
  5
24
330
23
100
AcDbEntity
 67
     1
  8
0
100
AcDbBlockBegin
  2
*Paper_Space0
 70
     0
 10
0.0
 20
0.0
 30
0.0
  3
*Paper_Space0
  1

  0
ENDBLK
  5
25
330
23
100
AcDbEntity
 67
     1
  8
0
100
AcDbBlockEnd
  0
BLOCK
  5
9F
330
9E
100
AcDbEntity
  8
0
100
AcDbBlockBegin
  2
_None
 70
     0
 10
0.0
 20
0.0
 30
0.0
  3
_None
  1

  0
ENDBLK
  5
A0
330
9E
100
AcDbEntity
  8
0
100
AcDbBlockEnd
  0
BLOCK
  5
A2
330
A1
100
AcDbEntity
  8
0
100
AcDbBlockBegin
  2
_D
 70
     0
 10
0.0
 20
0.0
 30
0.0
  3
_D
  1

  0
LINE
  5
A4
330
A1
100
AcDbEntity
  8
0
  6
Continuous
 62
     7
440
 16777216
370
     0
100
AcDbLine
 10
-69.60277808869999
 20
-53.1717962949
 30
0.0
 11
-198.9968134327
 21
-53.1717962949
 31
0.0
  0
LINE
  5
A5
330
A1
100
AcDbEntity
  8
0
  6
Continuous
 62
     7
440
 16777216
370
     0
100
AcDbLine
 10
-168.4222901991
 20
-328.1717962949
 30
0.0
 11
-198.9968134327
 21
-328.1717962949
 31
0.0
  0
LINE
  5
A6
330
A1
100
AcDbEntity
  8
0
  6
Continuous
 62
     7
440
 16777216
370
     0
100
AcDbLine
 10
-197.9968134327
 20
-53.1717962949
 30
0.0
 11
-197.9968134327
 21
-328.1717962949
 31
0.0
  0
MTEXT
  5
A7
330
A1
100
AcDbEntity
  8
0
  6
Continuous
 62
     7
440
 16777216
370
    18
100
AcDbMText
 10
-206.8645254921
 20
-190.1969017639
 30
0.0
 40
6.879166666699999
 41
0.0
 46
0.0
 71
     1
 72
     1
  1
275.00
  7
SLDTEXTSTYLE0
 11
-0.000000000000007
 21
1.0
 31
0.0
 73
     1
 44
1.0
  0
ENDBLK
  5
A3
330
A1
100
AcDbEntity
  8
0
100
AcDbBlockEnd
  0
BLOCK
  5
AA
330
A9
100
AcDbEntity
  8
0
100
AcDbBlockBegin
  2
_D_1
 70
     0
 10
0.0
 20
0.0
 30
0.0
  3
_D_1
  1

  0
LINE
  5
AC
330
A9
100
AcDbEntity
  8
0
  6
Continuous
 62
     7
440
 16777216
370
     0
100
AcDbLine
 10
57.8909124102
 20
-192.2747618135
 30
0.0
 11
57.8909124102
 21
-369.1717962949
 31
0.0
  0
LINE
  5
AD
330
A9
100
AcDbEntity
  8
0
  6
Continuous
 62
     7
440
 16777216
370
     0
100
AcDbLine
 10
-132.1090875898
 20
-335.7003046536001
 30
0.0
 11
-132.1090875898
 21
-369.1717962949
 31
0.0
  0
LINE
  5
AE
330
A9
100
AcDbEntity
  8
0
  6
Continuous
 62
     7
440
 16777216
370
     0
100
AcDbLine
 10
57.8909124102
 20
-368.1717962949
 30
0.0
 11
-132.1090875898
 21
-368.1717962949
 31
0.0
  0
MTEXT
  5
AF
330
A9
100
AcDbEntity
  8
0
  6
Continuous
 62
     7
440
 16777216
370
    18
100
AcDbMText
 10
-58.72149553759999
 20
-359.3040842355001
 30
0.0
 40
6.879166666699999
 41
0.0
 46
0.0
 71
     1
 72
     1
  1
190.00
  7
SLDTEXTSTYLE0
 73
     1
 44
1.0
  0
ENDBLK
  5
AB
330
A9
100
AcDbEntity
  8
0
100
AcDbBlockEnd
  0
BLOCK
  5
B2
330
B1
100
AcDbEntity
  8
0
100
AcDbBlockBegin
  2
_D_2
 70
     0
 10
0.0
 20
0.0
 30
0.0
  3
_D_2
  1

  0
LINE
  5
B4
330
B1
100
AcDbEntity
  8
0
  6
Continuous
 62
     7
440
 16777216
370
     0
100
AcDbLine
 10
-93.5972720296
 20
-328.1717962949
 30
0.0
 11
102.8323141266
 21
-328.1717962949
 31
0.0
  0
LINE
  5
B5
330
B1
100
AcDbEntity
  8
0
  6
Continuous
 62
     7
440
 16777216
370
     0
100
AcDbLine
 10
78.9600102606
 20
-178.2017962949
 30
0.0
 11
102.8323141266
 21
-178.2017962949
 31
0.0
  0
LINE
  5
B6
330
B1
100
AcDbEntity
  8
0
  6
Continuous
 62
     7
440
 16777216
370
     0
100
AcDbLine
 10
101.8323141266
 20
-328.1717962949
 30
0.0
 11
101.8323141266
 21
-178.2017962949
 31
0.0
  0
MTEXT
  5
B7
330
B1
100
AcDbEntity
  8
0
  6
Continuous
 62
     7
440
 16777216
370
    18
100
AcDbMText
 10
92.96460206729999
 20
-266.6620087111
 30
0.0
 40
6.879166666699999
 41
0.0
 46
0.0
 71
     1
 72
     1
  1
150.00
  7
SLDTEXTSTYLE0
 11
0.0000000000000001
 21
1.0
 31
0.0
 73
     1
 44
1.0
  0
ENDBLK
  5
B3
330
B1
100
AcDbEntity
  8
0
100
AcDbBlockEnd
  0
BLOCK
  5
FD
330
FC
100
AcDbEntity
  8
0
100
AcDbBlockBegin
  2
_D_3
 70
     0
 10
0.0
 20
0.0
 30
0.0
  3
_D_3
  1

  0
LINE
  5
FF
330
FC
100
AcDbEntity
  8
0
  6
Continuous
 62
     7
440
 16777216
370
     0
100
AcDbLine
 10
271.6322326988
 20
-333.8023919211
 30
0.0
 11
271.6322326988
 21
-363.1717962949
 31
0.0
  0
LINE
  5
100
330
FC
100
AcDbEntity
  8
0
  6
Continuous
 62
     7
440
 16777216
370
     0
100
AcDbLine
 10
325.6322326988
 20
-333.8023919211
 30
0.0
 11
325.6322326988
 21
-363.1717962949
 31
0.0
  0
LINE
  5
101
330
FC
100
AcDbEntity
  8
0
  6
Continuous
 62
     7
440
 16777216
370
     0
100
AcDbLine
 10
271.6322326988
 20
-362.1717962949
 30
0.0
 11
325.6322326988
 21
-362.1717962949
 31
0.0
  0
MTEXT
  5
102
330
FC
100
AcDbEntity
  8
0
  6
Continuous
 62
     7
440
 16777216
370
    18
100
AcDbMText
 10
279.4259160243
 20
-353.3040842355001
 30
0.0
 40
6.879166666699999
 41
0.0
 46
0.0
 71
     1
 72
     1
  1
%%c
  7
SLDTEXTSTYLE0
 73
     1
 44
1.0
  0
MTEXT
  5
103
330
FC
100
AcDbEntity
  8
0
  6
Continuous
 62
     7
440
 16777216
370
    18
100
AcDbMText
 10
289.8096356027
 20
-353.3040842355001
 30
0.0
 40
6.879166666699999
 41
0.0
 46
0.0
 71
     1
 72
     1
  1
54.00
  7
SLDTEXTSTYLE0
 73
     1
 44
1.0
  0
ENDBLK
  5
FE
330
FC
100
AcDbEntity
  8
0
100
AcDbBlockEnd
  0
BLOCK
  5
106
330
105
100
AcDbEntity
  8
0
100
AcDbBlockBegin
  2
_D_4
 70
     0
 10
0.0
 20
0.0
 30
0.0
  3
_D_4
  1

  0
LINE
  5
108
330
105
100
AcDbEntity
  8
0
  6
Continuous
 62
     7
440
 16777216
370
     0
100
AcDbLine
 10
410.3822326987999
 20
-335.7446297267
 30
0.0
 11
410.3822326987999
 21
-363.1717962949
 31
0.0
  0
LINE
  5
109
330
105
100
AcDbEntity
  8
0
  6
Continuous
 62
     7
440
 16777216
370
     0
100
AcDbLine
 10
464.3822326987999
 20
-337.6868675323
 30
0.0
 11
464.3822326987999
 21
-363.1717962949
 31
0.0
  0
LINE
  5
10A
330
105
100
AcDbEntity
  8
0
  6
Continuous
 62
     7
440
 16777216
370
     0
100
AcDbLine
 10
410.3822326987999
 20
-362.1717962949
 30
0.0
 11
464.3822326987999
 21
-362.1717962949
 31
0.0
  0
MTEXT
  5
10B
330
105
100
AcDbEntity
  8
0
  6
Continuous
 62
     7
440
 16777216
370
    18
100
AcDbMText
 10
421.0708893454
 20
-353.3040842355001
 30
0.0
 40
6.879166666699999
 41
0.0
 46
0.0
 71
     1
 72
     1
  1
%%c
  7
SLDTEXTSTYLE0
 73
     1
 44
1.0
  0
MTEXT
  5
10C
330
105
100
AcDbEntity
  8
0
  6
Continuous
 62
     7
440
 16777216
370
    18
100
AcDbMText
 10
431.4546089238
 20
-353.3040842355001
 30
0.0
 40
6.879166666699999
 41
0.0
 46
0.0
 71
     1
 72
     1
  1
54.00
  7
SLDTEXTSTYLE0
 73
     1
 44
1.0
  0
ENDBLK
  5
107
330
105
100
AcDbEntity
  8
0
100
AcDbBlockEnd
  0
BLOCK
  5
10F
330
10E
100
AcDbEntity
  8
0
100
AcDbBlockBegin
  2
_D_5
 70
     0
 10
0.0
 20
0.0
 30
0.0
  3
_D_5
  1

  0
LINE
  5
111
330
10E
100
AcDbEntity
  8
0
  6
Continuous
 62
     7
440
 16777216
370
     0
100
AcDbLine
 10
556.1322326987999
 20
-275.8589640528
 30
0.0
 11
556.1322326987999
 21
-251.5014350992
 31
0.0
  0
LINE
  5
112
330
10E
100
AcDbEntity
  8
0
  6
Continuous
 62
     7
440
 16777216
370
     0
100
AcDbLine
 10
596.1322326987999
 20
-275.8589640528
 30
0.0
 11
596.1322326987999
 21
-251.5014350992
 31
0.0
  0
LINE
  5
113
330
10E
100
AcDbEntity
  8
0
  6
Continuous
 62
     7
440
 16777216
370
     0
100
AcDbLine
 10
556.1322326987999
 20
-252.5014350992
 30
0.0
 11
596.1322326987999
 21
-252.5014350992
 31
0.0
  0
MTEXT
  5
114
330
10E
100
AcDbEntity
  8
0
  6
Continuous
 62
     7
440
 16777216
370
    18
100
AcDbMText
 10
556.1637526149
 20
-243.6337230399
 30
0.0
 40
6.879166666699999
 41
0.0
 46
0.0
 71
     1
 72
     1
  1
%%c
  7
SLDTEXTSTYLE0
 73
     1
 44
1.0
  0
MTEXT
  5
115
330
10E
100
AcDbEntity
  8
0
  6
Continuous
 62
     7
440
 16777216
370
    18
100
AcDbMText
 10
566.5474721933
 20
-243.6337230399
 30
0.0
 40
6.879166666699999
 41
0.0
 46
0.0
 71
     1
 72
     1
  1
40.00
  7
SLDTEXTSTYLE0
 73
     1
 44
1.0
  0
ENDBLK
  5
110
330
10E
100
AcDbEntity
  8
0
100
AcDbBlockEnd
  0
BLOCK
  5
137
330
136
100
AcDbEntity
  8
0
100
AcDbBlockBegin
  2
_D_6
 70
     0
 10
0.0
 20
0.0
 30
0.0
  3
_D_6
  1

  0
LINE
  5
139
330
136
100
AcDbEntity
  8
0
  6
Continuous
 62
     7
440
 16777216
370
     0
100
AcDbLine
 10
-136.2012612058
 20
12.9438287279
 30
0.0
 11
-136.2239807613
 21
-2.8998896707
 31
0.0
  0
LINE
  5
13A
330
136
100
AcDbEntity
  8
0
  6
Continuous
 62
     7
440
 16777216
370
     0
100
AcDbLine
 10
-128.2009681193
 20
13.142479752
 30
0.0
 11
-128.2239889865
 21
-2.911361488899999
 31
0.0
  0
LINE
  5
13B
330
136
100
AcDbEntity
  8
0
  6
Continuous
 62
     7
440
 16777216
370
     0
100
AcDbLine
 10
-136.2225467841
 20
-1.899890698899999
 30
0.0
 11
-178.7859320218
 21
-1.838855708899999
 31
0.0
  0
LINE
  5
13C
330
136
100
AcDbEntity
  8
0
  6
Continuous
 62
     7
440
 16777216
370
     0
100
AcDbLine
 10
-136.2225467841
 20
-1.899890698899999
 30
0.0
 11
-128.2225550092
 21
-1.9113625171
 31
0.0
  0
MTEXT
  5
13D
330
136
100
AcDbEntity
  8
0
  6
Continuous
 62
     7
440
 16777216
370
    18
100
AcDbMText
 10
-178.7732159243
 20
7.028847233099999
 30
0.0
 40
6.879166666699999
 41
0.0
 46
0.0
 71
     1
 72
     1
  1
%%c
  7
SLDTEXTSTYLE0
 11
0.9999989718540579
 21
-0.0014339772756654
 31
0.0
 73
     1
 44
1.0
  0
MTEXT
  5
13E
330
136
100
AcDbEntity
  8
0
  6
Continuous
 62
     7
440
 16777216
370
    18
100
AcDbMText
 10
-168.3895070219
 20
7.013957215199999
 30
0.0
 40
6.879166666699999
 41
0.0
 46
0.0
 71
     1
 72
     1
  1
8.00
  7
SLDTEXTSTYLE0
 11
0.9999989718540579
 21
-0.0014339772756654
 31
0.0
 73
     1
 44
1.0
  0
ENDBLK
  5
138
330
136
100
AcDbEntity
  8
0
100
AcDbBlockEnd
  0
BLOCK
  5
141
330
140
100
AcDbEntity
  8
0
100
AcDbBlockBegin
  2
_D_7
 70
     0
 10
0.0
 20
0.0
 30
0.0
  3
_D_7
  1

  0
LINE
  5
143
330
140
100
AcDbEntity
  8
0
  6
Continuous
 62
     7
440
 16777216
370
     0
100
AcDbLine
 10
-150.8717117341
 20
225.4691908403
 30
0.0
 11
-186.2308248000999
 21
225.4691908403
 31
0.0
  0
LINE
  5
144
330
140
100
AcDbEntity
  8
0
  6
Continuous
 62
     7
440
 16777216
370
     0
100
AcDbLine
 10
-150.3082089053
 20
206.4691908403
 30
0.0
 11
-186.2308248000999
 21
206.4691908403
 31
0.0
  0
LINE
  5
145
330
140
100
AcDbEntity
  8
0
  6
Continuous
 62
     7
440
 16777216
370
     0
100
AcDbLine
 10
-185.2308248001
 20
225.4691908403
 30
0.0
 11
-185.2308248001
 21
206.4691908403
 31
0.0
  0
LINE
  5
146
330
140
100
AcDbEntity
  8
0
  6
Continuous
 62
     7
440
 16777216
370
     0
100
AcDbLine
 10
-185.2308248001
 20
206.4691908403
 30
0.0
 11
-185.2308248001
 21
168.5422470048
 31
0.0
  0
MTEXT
  5
147
330
140
100
AcDbEntity
  8
0
  6
Continuous
 62
     7
440
 16777216
370
    18
100
AcDbMText
 10
-194.0985368595
 20
168.5422470048
 30
0.0
 40
6.879166666699999
 41
0.0
 46
0.0
 71
     1
 72
     1
  1
%%c
  7
SLDTEXTSTYLE0
 11
-0.000000000000007
 21
1.0
 31
0.0
 73
     1
 44
1.0
  0
MTEXT
  5
148
330
140
100
AcDbEntity
  8
0
  6
Continuous
 62
     7
440
 16777216
370
    18
100
AcDbMText
 10
-194.0985368595
 20
178.9259665832
 30
0.0
 40
6.879166666699999
 41
0.0
 46
0.0
 71
     1
 72
     1
  1
19.00
  7
SLDTEXTSTYLE0
 11
-0.000000000000007
 21
1.0
 31
0.0
 73
     1
 44
1.0
  0
ENDBLK
  5
142
330
140
100
AcDbEntity
  8
0
100
AcDbBlockEnd
  0
BLOCK
  5
18B
330
18A
100
AcDbEntity
  8
0
100
AcDbBlockBegin
  2
*D10
 70
     1
 10
0.0
 20
0.0
 30
0.0
  3
*D10
  1

  0
LINE
  5
18C
330
18A
100
AcDbEntity
  8
DIMENSION
440
 16777216
370
     0
100
AcDbLine
 10
1092.625159377854
 20
969.7937323929265
 30
0.0
 11
1092.569709633547
 21
979.7935786580374
 31
0.0
  0
LINE
  5
18D
330
18A
100
AcDbEntity
  8
DIMENSION
440
 16777216
370
     0
100
AcDbLine
 10
1454.657182624691
 20
971.8012215670347
 30
0.0
 11
1454.601732880384
 21
981.8010678321458
 31
0.0
  0
LINE
  5
18E
330
18A
100
AcDbEntity
  8
DIMENSION
440
 16777216
370
     0
100
AcDbLine
 10
1092.597434505701
 20
974.793655525482
 30
0.0
 11
1454.629457752537
 21
976.8011446995902
 31
0.0
  0
MTEXT
  5
18F
330
18A
100
AcDbEntity
  8
DIMENSION
 62
     7
440
 16777216
100
AcDbMText
 10
1273.568105608173
 20
983.9741418578535
 30
0.0
 40
8.0
 41
0.0
 46
0.0
 71
     5
 72
     1
  1
\A1;362
 73
     1
 44
1.0
  0
POINT
  5
190
330
18A
100
AcDbEntity
  8
Defpoints
 62
     0
440
 16777216
100
AcDbPoint
 10
1092.771920384362
 20
943.3267482592359
 30
0.0
  0
POINT
  5
191
330
18A
100
AcDbEntity
  8
Defpoints
 62
     0
440
 16777216
100
AcDbPoint
 10
1454.803943631198
 20
945.3342374333443
 30
0.0
  0
POINT
  5
192
330
18A
100
AcDbEntity
  8
Defpoints
 62
     0
440
 16777216
100
AcDbPoint
 10
1454.629457752537
 20
976.8011446995902
 30
0.0
  0
ENDBLK
  5
193
330
18A
100
AcDbEntity
  8
0
100
AcDbBlockEnd
  0
BLOCK
  5
1AF
330
1AE
100
AcDbEntity
  8
0
100
AcDbBlockBegin
  2
*D12
 70
     1
 10
0.0
 20
0.0
 30
0.0
  3
*D12
  1

  0
LINE
  5
1B1
330
1AE
100
AcDbEntity
  8
DIMENSION
440
 16777216
370
     0
100
AcDbLine
 10
127.6617603492103
 20
6.451485111058564
 30
0.0
 11
127.6063106049033
 21
16.45133137616966
 31
0.0
  0
LINE
  5
1B2
330
1AE
100
AcDbEntity
  8
DIMENSION
440
 16777216
370
     0
100
AcDbLine
 10
489.693783596047
 20
8.458974285166823
 30
0.0
 11
489.63833385174
 21
18.45882055027791
 31
0.0
  0
LINE
  5
1B3
330
1AE
100
AcDbEntity
  8
DIMENSION
440
 16777216
370
     0
100
AcDbLine
 10
127.6340354770568
 20
11.45140824361411
 30
0.0
 11
489.6660587238934
 21
13.45889741772237
 31
0.0
  0
MTEXT
  5
1B4
330
1AE
100
AcDbEntity
  8
DIMENSION
 62
     7
440
 16777216
100
AcDbMText
 10
308.6052370347867
 20
20.53623189811807
 30
0.0
 40
8.0
 41
0.0
 46
0.0
 71
     5
 72
     1
  1
\A1;362
 73
     1
 44
1.0
  0
POINT
  5
1B5
330
1AE
100
AcDbEntity
  8
Defpoints
 62
     0
440
 16777216
100
AcDbPoint
 10
127.8085213557178
 20
-20.01549902263196
 30
0.0
  0
POINT
  5
1B6
330
1AE
100
AcDbEntity
  8
Defpoints
 62
     0
440
 16777216
100
AcDbPoint
 10
489.8405446025545
 20
-18.00800984852367
 30
0.0
  0
POINT
  5
1B7
330
1AE
100
AcDbEntity
  8
Defpoints
 62
     0
440
 16777216
100
AcDbPoint
 10
489.6660587238934
 20
13.45889741772237
 30
0.0
  0
ENDBLK
  5
1B0
330
1AE
100
AcDbEntity
  8
0
100
AcDbBlockEnd
  0
BLOCK
  5
1B9
330
1B8
100
AcDbEntity
  8
0
100
AcDbBlockBegin
  2
*D13
 70
     1
 10
0.0
 20
0.0
 30
0.0
  3
*D13
  1

  0
LINE
  5
1BB
330
1B8
100
AcDbEntity
  8
DIMENSION
440
 16777216
370
     0
100
AcDbLine
 10
96.8323141266001
 20
-328.1717962949001
 30
0.0
 11
106.8323141266001
 21
-328.1717962949001
 31
0.0
  0
LINE
  5
1BC
330
1B8
100
AcDbEntity
  8
DIMENSION
440
 16777216
370
     0
100
AcDbLine
 10
96.83231412660008
 20
-178.2017962949
 30
0.0
 11
106.8323141266001
 21
-178.2017962949
 31
0.0
  0
LINE
  5
1BD
330
1B8
100
AcDbEntity
  8
DIMENSION
440
 16777216
370
     0
100
AcDbLine
 10
101.8323141266001
 20
-328.1717962949001
 30
0.0
 11
101.8323141266
 21
-178.2017962949
 31
0.0
  0
MTEXT
  5
1BE
330
1B8
100
AcDbEntity
  8
DIMENSION
 62
     7
440
 16777216
100
AcDbMText
 10
114.4989807932667
 20
-248.687109285
 30
0.0
 40
8.0
 41
0.0
 46
0.0
 71
     2
 72
     1
  1
\A1;150
 73
     1
 44
1.0
  0
POINT
  5
1BF
330
1B8
100
AcDbEntity
  8
Defpoints
 62
     0
440
 16777216
100
AcDbPoint
 10
-105.1090875898
 20
-328.1717962949001
 30
0.0
  0
POINT
  5
1C0
330
1B8
100
AcDbEntity
  8
Defpoints
 62
     0
440
 16777216
100
AcDbPoint
 10
67.41591241020003
 20
-178.2017962949
 30
0.0
  0
POINT
  5
1C1
330
1B8
100
AcDbEntity
  8
Defpoints
 62
     0
440
 16777216
100
AcDbPoint
 10
101.8323141266
 20
-178.2017962949
 30
0.0
  0
ENDBLK
  5
1BA
330
1B8
100
AcDbEntity
  8
0
100
AcDbBlockEnd
  0
BLOCK
  5
1C7
330
1C6
100
AcDbEntity
  8
0
100
AcDbBlockBegin
  2
*D14
 70
     1
 10
0.0
 20
0.0
 30
0.0
  3
*D14
  1

  0
LINE
  5
1C9
330
1C6
100
AcDbEntity
  8
DIMENSION
440
 16777216
370
     0
100
AcDbLine
 10
57.89091241019999
 20
-363.1717962949
 30
0.0
 11
57.89091241019999
 21
-373.1717962949
 31
0.0
  0
LINE
  5
1CA
330
1C6
100
AcDbEntity
  8
DIMENSION
440
 16777216
370
     0
100
AcDbLine
 10
-132.1090875898
 20
-363.1717962949
 30
0.0
 11
-132.1090875898
 21
-373.1717962949
 31
0.0
  0
LINE
  5
1CB
330
1C6
100
AcDbEntity
  8
DIMENSION
440
 16777216
370
     0
100
AcDbLine
 10
57.89091241019999
 20
-368.1717962949
 30
0.0
 11
-132.1090875898
 21
-368.1717962949
 31
0.0
  0
MTEXT
  5
1CC
330
1C6
100
AcDbEntity
  8
DIMENSION
 62
     7
440
 16777216
100
AcDbMText
 10
-44.74659611149999
 20
-372.1717962949
 30
0.0
 40
8.0
 41
0.0
 46
0.0
 71
     2
 72
     1
  1
\A1;190
 73
     1
 44
1.0
  0
POINT
  5
1CD
330
1C6
100
AcDbEntity
  8
Defpoints
 62
     0
440
 16777216
100
AcDbPoint
 10
57.8909124102
 20
-178.2017962949
 30
0.0
  0
POINT
  5
1CE
330
1C6
100
AcDbEntity
  8
Defpoints
 62
     0
440
 16777216
100
AcDbPoint
 10
-132.1090875898
 20
-328.1717962949
 30
0.0
  0
POINT
  5
1CF
330
1C6
100
AcDbEntity
  8
Defpoints
 62
     0
440
 16777216
100
AcDbPoint
 10
-132.1090875898
 20
-368.1717962949
 30
0.0
  0
ENDBLK
  5
1C8
330
1C6
100
AcDbEntity
  8
0
100
AcDbBlockEnd
  0
BLOCK
  5
1D5
330
1D4
100
AcDbEntity
  8
0
100
AcDbBlockBegin
  2
*D15
 70
     1
 10
0.0
 20
0.0
 30
0.0
  3
*D15
  1

  0
LINE
  5
1D7
330
1D4
100
AcDbEntity
  8
DIMENSION
440
 16777216
370
     0
100
AcDbLine
 10
-192.9968134327
 20
-53.17179629490006
 30
0.0
 11
-202.9968134327001
 21
-53.17179629490006
 31
0.0
  0
LINE
  5
1D8
330
1D4
100
AcDbEntity
  8
DIMENSION
440
 16777216
370
     0
100
AcDbLine
 10
-192.9968134327
 20
-328.1717962949001
 30
0.0
 11
-202.9968134327
 21
-328.1717962949001
 31
0.0
  0
LINE
  5
1D9
330
1D4
100
AcDbEntity
  8
DIMENSION
440
 16777216
370
     0
100
AcDbLine
 10
-197.9968134327
 20
-53.17179629490006
 30
0.0
 11
-197.9968134327
 21
-328.1717962949001
 31
0.0
  0
MTEXT
  5
1DA
330
1D4
100
AcDbEntity
  8
DIMENSION
 62
     7
440
 16777216
100
AcDbMText
 10
-212.6634800993667
 20
-172.2220023378
 30
0.0
 40
8.0
 41
0.0
 46
0.0
 71
     2
 72
     1
  1
\A1;275
 73
     1
 44
1.0
  0
POINT
  5
1DB
330
1D4
100
AcDbEntity
  8
Defpoints
 62
     0
440
 16777216
100
AcDbPoint
 10
-46.27821678830001
 20
-53.17179629490002
 30
0.0
  0
POINT
  5
1DC
330
1D4
100
AcDbEntity
  8
Defpoints
 62
     0
440
 16777216
100
AcDbPoint
 10
-159.1090875898
 20
-328.1717962949001
 30
0.0
  0
POINT
  5
1DD
330
1D4
100
AcDbEntity
  8
Defpoints
 62
     0
440
 16777216
100
AcDbPoint
 10
-197.9968134327
 20
-328.1717962949001
 30
0.0
  0
ENDBLK
  5
1D6
330
1D4
100
AcDbEntity
  8
0
100
AcDbBlockEnd
  0
BLOCK
  5
1E3
330
1E2
100
AcDbEntity
  8
0
100
AcDbBlockBegin
  2
*D16
 70
     1
 10
0.0
 20
0.0
 30
0.0
  3
*D16
  1

  0
LINE
  5
1E5
330
1E2
100
AcDbEntity
  8
DIMENSION
440
 16777216
370
     0
100
AcDbLine
 10
410.3822326987999
 20
-357.1717962949
 30
0.0
 11
410.3822326987999
 21
-367.1717962949
 31
0.0
  0
LINE
  5
1E6
330
1E2
100
AcDbEntity
  8
DIMENSION
440
 16777216
370
     0
100
AcDbLine
 10
464.3822326987999
 20
-357.1717962949
 30
0.0
 11
464.3822326987999
 21
-367.1717962949
 31
0.0
  0
LINE
  5
1E7
330
1E2
100
AcDbEntity
  8
DIMENSION
440
 16777216
370
     0
100
AcDbLine
 10
410.3822326987999
 20
-362.1717962949
 30
0.0
 11
464.3822326987999
 21
-362.1717962949
 31
0.0
  0
MTEXT
  5
1E8
330
1E2
100
AcDbEntity
  8
DIMENSION
 62
     7
440
 16777216
100
AcDbMText
 10
437.6961782192999
 20
-366.1717962949
 30
0.0
 40
8.0
 41
0.0
 46
0.0
 71
     2
 72
     1
  1
\A1;%%c54
 73
     1
 44
1.0
  0
POINT
  5
1E9
330
1E2
100
AcDbEntity
  8
Defpoints
 62
     0
440
 16777216
100
AcDbPoint
 10
410.3822326987999
 20
-328.1717962949
 30
0.0
  0
POINT
  5
1EA
330
1E2
100
AcDbEntity
  8
Defpoints
 62
     0
440
 16777216
100
AcDbPoint
 10
464.3822326987999
 20
-328.1717962949
 30
0.0
  0
POINT
  5
1EB
330
1E2
100
AcDbEntity
  8
Defpoints
 62
     0
440
 16777216
100
AcDbPoint
 10
464.3822326987999
 20
-362.1717962949
 30
0.0
  0
ENDBLK
  5
1E4
330
1E2
100
AcDbEntity
  8
0
100
AcDbBlockEnd
  0
BLOCK
  5
1F1
330
1F0
100
AcDbEntity
  8
0
100
AcDbBlockBegin
  2
*D17
 70
     1
 10
0.0
 20
0.0
 30
0.0
  3
*D17
  1

  0
LINE
  5
1F3
330
1F0
100
AcDbEntity
  8
DIMENSION
440
 16777216
370
     0
100
AcDbLine
 10
271.6322326988
 20
-357.1717962949
 30
0.0
 11
271.6322326988
 21
-367.1717962949
 31
0.0
  0
LINE
  5
1F4
330
1F0
100
AcDbEntity
  8
DIMENSION
440
 16777216
370
     0
100
AcDbLine
 10
325.6322326988
 20
-357.1717962949
 30
0.0
 11
325.6322326988
 21
-367.1717962949
 31
0.0
  0
LINE
  5
1F5
330
1F0
100
AcDbEntity
  8
DIMENSION
440
 16777216
370
     0
100
AcDbLine
 10
271.6322326988
 20
-362.1717962949
 30
0.0
 11
325.6322326988
 21
-362.1717962949
 31
0.0
  0
MTEXT
  5
1F6
330
1F0
100
AcDbEntity
  8
DIMENSION
 62
     7
440
 16777216
100
AcDbMText
 10
296.0512048982
 20
-366.1717962949
 30
0.0
 40
8.0
 41
0.0
 46
0.0
 71
     2
 72
     1
  1
\A1;%%c54
 73
     1
 44
1.0
  0
POINT
  5
1F7
330
1F0
100
AcDbEntity
  8
Defpoints
 62
     0
440
 16777216
100
AcDbPoint
 10
271.6322326988
 20
-328.1717962949
 30
0.0
  0
POINT
  5
1F8
330
1F0
100
AcDbEntity
  8
Defpoints
 62
     0
440
 16777216
100
AcDbPoint
 10
325.6322326988
 20
-328.1717962949
 30
0.0
  0
POINT
  5
1F9
330
1F0
100
AcDbEntity
  8
Defpoints
 62
     0
440
 16777216
100
AcDbPoint
 10
325.6322326988
 20
-362.1717962949
 30
0.0
  0
ENDBLK
  5
1F2
330
1F0
100
AcDbEntity
  8
0
100
AcDbBlockEnd
  0
BLOCK
  5
1FF
330
1FE
100
AcDbEntity
  8
0
100
AcDbBlockBegin
  2
*D18
 70
     1
 10
0.0
 20
0.0
 30
0.0
  3
*D18
  1

  0
LINE
  5
201
330
1FE
100
AcDbEntity
  8
DIMENSION
440
 16777216
370
     0
100
AcDbLine
 10
556.1322326987999
 20
-257.5014350992
 30
0.0
 11
556.1322326987999
 21
-247.5014350992
 31
0.0
  0
LINE
  5
202
330
1FE
100
AcDbEntity
  8
DIMENSION
440
 16777216
370
     0
100
AcDbLine
 10
596.1322326987999
 20
-257.5014350992
 30
0.0
 11
596.1322326987999
 21
-247.5014350992
 31
0.0
  0
LINE
  5
203
330
1FE
100
AcDbEntity
  8
DIMENSION
440
 16777216
370
     0
100
AcDbLine
 10
556.1322326987999
 20
-252.5014350992
 30
0.0
 11
596.1322326987999
 21
-252.5014350992
 31
0.0
  0
MTEXT
  5
204
330
1FE
100
AcDbEntity
  8
DIMENSION
 62
     7
440
 16777216
100
AcDbMText
 10
572.7890414887999
 20
-240.5014350992
 30
0.0
 40
8.0
 41
0.0
 46
0.0
 71
     2
 72
     1
  1
\A1;%%c40
 73
     1
 44
1.0
  0
POINT
  5
205
330
1FE
100
AcDbEntity
  8
Defpoints
 62
     0
440
 16777216
100
AcDbPoint
 10
556.1322326987999
 20
-285.1717962949
 30
0.0
  0
POINT
  5
206
330
1FE
100
AcDbEntity
  8
Defpoints
 62
     0
440
 16777216
100
AcDbPoint
 10
596.1322326987999
 20
-285.1717962949
 30
0.0
  0
POINT
  5
207
330
1FE
100
AcDbEntity
  8
Defpoints
 62
     0
440
 16777216
100
AcDbPoint
 10
596.1322326987999
 20
-252.5014350992
 30
0.0
  0
ENDBLK
  5
200
330
1FE
100
AcDbEntity
  8
0
100
AcDbBlockEnd
  0
BLOCK
  5
20D
330
20C
100
AcDbEntity
  8
0
100
AcDbBlockBegin
  2
*D19
 70
     1
 10
0.0
 20
0.0
 30
0.0
  3
*D19
  1

  0
LINE
  5
20F
330
20C
100
AcDbEntity
  8
DIMENSION
440
 16777216
370
     0
100
AcDbLine
 10
-136.2153549639073
 20
3.115399902248623
 30
0.0
 11
-136.229694736669
 21
-6.884589816291948
 31
0.0
  0
LINE
  5
210
330
20C
100
AcDbEntity
  8
DIMENSION
440
 16777216
370
     0
100
AcDbLine
 10
-128.2153631891073
 20
3.103928084039313
 30
0.0
 11
-128.229702961869
 21
-6.896061634501259
 31
0.0
  0
LINE
  5
211
330
20C
100
AcDbEntity
  8
DIMENSION
440
 16777216
370
     0
100
AcDbLine
 10
-128.2225330754882
 20
-1.896066775230974
 30
0.0
 11
-124.722536673999
 21
-1.901085695697569
 31
0.0
  0
LINE
  5
212
330
20C
100
AcDbEntity
  8
DIMENSION
440
 16777216
370
     0
100
AcDbLine
 10
-136.2225248502881
 20
-1.88459495702166
 30
0.0
 11
-154.0354603715333
 21
-1.859051585999999
 31
0.0
  0
LINE
  5
213
330
20C
100
AcDbEntity
  8
DIMENSION
440
 16777216
370
     0
100
AcDbLine
 10
-128.2225330754882
 20
-1.896066775230974
 30
0.0
 11
-136.2225248502881
 21
-1.88459495702166
 31
0.0
  0
MTEXT
  5
214
330
20C
100
AcDbEntity
  8
DIMENSION
 62
     7
440
 16777216
100
AcDbMText
 10
-164.7021270382
 20
-5.859051585999999
 30
0.0
 40
8.0
 41
0.0
 46
0.0
 71
     2
 72
     1
  1
\A1;%%c8
 73
     1
 44
1.0
  0
POINT
  5
215
330
20C
100
AcDbEntity
  8
Defpoints
 62
     0
440
 16777216
100
AcDbPoint
 10
-136.1948906491
 20
17.3864027327
 30
0.0
  0
POINT
  5
216
330
20C
100
AcDbEntity
  8
Defpoints
 62
     0
440
 16777216
100
AcDbPoint
 10
-128.1948988743
 20
17.3749309145
 30
0.0
  0
POINT
  5
217
330
20C
100
AcDbEntity
  8
Defpoints
 62
     0
440
 16777216
100
AcDbPoint
 10
-128.2225330754882
 20
-1.896066775230974
 30
0.0
  0
ENDBLK
  5
20E
330
20C
100
AcDbEntity
  8
0
100
AcDbBlockEnd
  0
BLOCK
  5
21D
330
21C
100
AcDbEntity
  8
0
100
AcDbBlockBegin
  2
*D20
 70
     1
 10
0.0
 20
0.0
 30
0.0
  3
*D20
  1

  0
LINE
  5
21F
330
21C
100
AcDbEntity
  8
DIMENSION
440
 16777216
370
     0
100
AcDbLine
 10
-166.8974914667667
 20
225.4691908403001
 30
0.0
 11
-176.8974914667667
 21
225.4691908403001
 31
0.0
  0
LINE
  5
220
330
21C
100
AcDbEntity
  8
DIMENSION
440
 16777216
370
     0
100
AcDbLine
 10
-166.8974914667667
 20
206.4691908403001
 30
0.0
 11
-176.8974914667667
 21
206.4691908403001
 31
0.0
  0
LINE
  5
221
330
21C
100
AcDbEntity
  8
DIMENSION
440
 16777216
370
     0
100
AcDbLine
 10
-171.8974914667667
 20
225.4691908403001
 30
0.0
 11
-171.8974914667667
 21
206.4691908403001
 31
0.0
  0
LINE
  5
222
330
21C
100
AcDbEntity
  8
DIMENSION
440
 16777216
370
     0
100
AcDbLine
 10
-171.8974914667667
 20
206.4691908403001
 30
0.0
 11
-171.8974914667667
 21
185.1675358787
 31
0.0
  0
LINE
  5
223
330
21C
100
AcDbEntity
  8
DIMENSION
440
 16777216
370
     0
100
AcDbLine
 10
-171.8974914667667
 20
185.1675358787
 30
0.0
 11
-194.5641581334334
 21
185.1675358786999
 31
0.0
  0
MTEXT
  5
224
330
21C
100
AcDbEntity
  8
DIMENSION
 62
     7
440
 16777216
100
AcDbMText
 10
-185.2308248001
 20
197.1675358787
 30
0.0
 40
8.0
 41
0.0
 46
0.0
 71
     2
 72
     1
  1
\A1;%%c19
 73
     1
 44
1.0
  0
POINT
  5
225
330
21C
100
AcDbEntity
  8
Defpoints
 62
     0
440
 16777216
100
AcDbPoint
 10
-132.1090875898
 20
225.4691908403001
 30
0.0
  0
POINT
  5
226
330
21C
100
AcDbEntity
  8
Defpoints
 62
     0
440
 16777216
100
AcDbPoint
 10
-132.1090875898
 20
206.4691908403001
 30
0.0
  0
POINT
  5
227
330
21C
100
AcDbEntity
  8
Defpoints
 62
     0
440
 16777216
100
AcDbPoint
 10
-171.8974914667667
 20
206.4691908403001
 30
0.0
  0
ENDBLK
  5
21E
330
21C
100
AcDbEntity
  8
0
100
AcDbBlockEnd
  0
BLOCK
  5
22E
330
22D
100
AcDbEntity
  8
0
100
AcDbBlockBegin
  2
*D21
 70
     1
 10
0.0
 20
0.0
 30
0.0
  3
*D21
  1

  0
LINE
  5
230
330
22D
100
AcDbEntity
  8
0
 62
     0
440
 16777216
370
    -2
100
AcDbLine
 10
318.6322326988
 20
-284.1717962949
 30
0.0
 11
318.6322326988
 21
-264.7010556050993
 31
0.0
  0
LINE
  5
231
330
22D
100
AcDbEntity
  8
0
 62
     0
440
 16777216
370
    -2
100
AcDbLine
 10
238.7937086821
 20
-289.1717962949
 30
0.0
 11
238.7937086821
 21
-264.7010556050993
 31
0.0
  0
LINE
  5
232
330
22D
100
AcDbEntity
  8
0
 62
     0
440
 16777216
370
    -2
100
AcDbLine
 10
315.3302326988
 20
-265.7010556050993
 30
0.0
 11
242.0957086821
 21
-265.7010556050993
 31
0.0
  0
SOLID
  5
233
330
22D
100
AcDbEntity
  8
0
 62
     0
440
 16777216
100
AcDbTrace
 10
315.3302326988
 20
-265.150722271766
 30
0.0
 11
315.3302326988
 21
-266.2513889384327
 31
0.0
 12
318.6322326988
 22
-265.7010556050993
 32
0.0
 13
318.6322326988
 23
-265.7010556050993
 33
0.0
  0
SOLID
  5
234
330
22D
100
AcDbEntity
  8
0
 62
     0
440
 16777216
100
AcDbTrace
 10
242.0957086821
 20
-265.150722271766
 30
0.0
 11
242.0957086821
 21
-266.2513889384327
 31
0.0
 12
238.7937086821
 22
-265.7010556050993
 32
0.0
 13
238.7937086821
 23
-265.7010556050993
 33
0.0
  0
MTEXT
  5
235
330
22D
100
AcDbEntity
  8
0
 62
     0
440
 16777216
100
AcDbMText
 10
278.71297069045
 20
-262.1353889384327
 30
0.0
 40
3.5
 41
0.0
 46
0.0
 71
     5
 72
     1
  1
399,19
 73
     1
 44
1.0
  0
POINT
  5
236
330
22D
100
AcDbEntity
  8
Defpoints
 62
     0
440
 16777216
100
AcDbPoint
 10
318.6322326988
 20
-285.1717962949
 30
0.0
  0
POINT
  5
237
330
22D
100
AcDbEntity
  8
Defpoints
 62
     0
440
 16777216
100
AcDbPoint
 10
238.7937086821
 20
-290.1717962949
 30
0.0
  0
POINT
  5
238
330
22D
100
AcDbEntity
  8
Defpoints
 62
     0
440
 16777216
100
AcDbPoint
 10
238.7937086821
 20
-265.7010556050993
 30
0.0
  0
ENDBLK
  5
22F
330
22D
100
AcDbEntity
  8
0
100
AcDbBlockEnd
  0
BLOCK
  5
23B
330
23A
100
AcDbEntity
  8
0
100
AcDbBlockBegin
  2
*D22
 70
     1
 10
0.0
 20
0.0
 30
0.0
  3
*D22
  1

  0
LINE
  5
23D
330
23A
100
AcDbEntity
  8
0
 62
     0
440
 16777216
370
    -2
100
AcDbLine
 10
326.6322326988001
 20
-328.1717962949001
 30
0.0
 11
335.0465500358988
 21
-328.1717962949001
 31
0.0
  0
LINE
  5
23E
330
23A
100
AcDbEntity
  8
0
 62
     0
440
 16777216
370
    -2
100
AcDbLine
 10
326.6322326988001
 20
-325.6717962949001
 30
0.0
 11
335.0465500358988
 21
-325.6717962949001
 31
0.0
  0
LINE
  5
23F
330
23A
100
AcDbEntity
  8
0
 62
     0
440
 16777216
370
    -2
100
AcDbLine
 10
334.0465500358988
 20
-331.4737962949001
 30
0.0
 11
334.0465500358988
 21
-334.7757962949001
 31
0.0
  0
LINE
  5
240
330
23A
100
AcDbEntity
  8
0
 62
     0
440
 16777216
370
    -2
100
AcDbLine
 10
334.0465500358988
 20
-322.3697962949001
 30
0.0
 11
334.0465500358988
 21
-319.0677962949001
 31
0.0
  0
LINE
  5
241
330
23A
100
AcDbEntity
  8
0
 62
     0
440
 16777216
370
    -2
100
AcDbLine
 10
334.0465500358988
 20
-319.0677962949001
 30
0.0
 11
348.4038833692321
 21
-319.0677962949001
 31
0.0
  0
LINE
  5
242
330
23A
100
AcDbEntity
  8
0
 62
     0
440
 16777216
370
    -2
100
AcDbLine
 10
334.0465500358988
 20
-328.1717962949001
 30
0.0
 11
334.0465500358988
 21
-325.6717962949001
 31
0.0
  0
SOLID
  5
243
330
23A
100
AcDbEntity
  8
0
 62
     0
440
 16777216
100
AcDbTrace
 10
333.4962167025655
 20
-331.4737962949001
 30
0.0
 11
334.5968833692321
 21
-331.4737962949001
 31
0.0
 12
334.0465500358988
 22
-328.1717962949001
 32
0.0
 13
334.0465500358988
 23
-328.1717962949001
 33
0.0
  0
SOLID
  5
244
330
23A
100
AcDbEntity
  8
0
 62
     0
440
 16777216
100
AcDbTrace
 10
333.4962167025655
 20
-322.3697962949001
 30
0.0
 11
334.5968833692321
 21
-322.3697962949001
 31
0.0
 12
334.0465500358988
 22
-325.6717962949001
 32
0.0
 13
334.0465500358988
 23
-325.6717962949001
 33
0.0
  0
MTEXT
  5
245
330
23A
100
AcDbEntity
  8
0
 62
     0
440
 16777216
100
AcDbMText
 10
341.9872167025654
 20
-315.5021296282334
 30
0.0
 40
3.5
 41
0.0
 46
0.0
 71
     5
 72
     1
  1
12,50
 73
     1
 44
1.0
  0
POINT
  5
246
330
23A
100
AcDbEntity
  8
Defpoints
 62
     0
440
 16777216
100
AcDbPoint
 10
325.6322326988001
 20
-328.1717962949001
 30
0.0
  0
POINT
  5
247
330
23A
100
AcDbEntity
  8
Defpoints
 62
     0
440
 16777216
100
AcDbPoint
 10
325.6322326988001
 20
-325.6717962949001
 30
0.0
  0
POINT
  5
248
330
23A
100
AcDbEntity
  8
Defpoints
 62
     0
440
 16777216
100
AcDbPoint
 10
334.0465500358988
 20
-325.6717962949001
 30
0.0
  0
ENDBLK
  5
23C
330
23A
100
AcDbEntity
  8
0
100
AcDbBlockEnd
  0
BLOCK
  5
24B
330
24A
100
AcDbEntity
  8
0
100
AcDbBlockBegin
  2
*D23
 70
     1
 10
0.0
 20
0.0
 30
0.0
  3
*D23
  1

  0
LINE
  5
259
330
24A
100
AcDbEntity
  8
0
 62
     0
440
 16777216
370
    -2
100
AcDbLine
 10
465.3822326988001
 20
-328.1717962949001
 30
0.0
 11
490.6113657946393
 21
-328.1717962949001
 31
0.0
  0
LINE
  5
25A
330
24A
100
AcDbEntity
  8
0
 62
     0
440
 16777216
370
    -2
100
AcDbLine
 10
465.0822326988002
 20
-318.9190601153924
 30
0.0
 11
490.6113657946393
 21
-318.9190601153924
 31
0.0
  0
LINE
  5
25B
330
24A
100
AcDbEntity
  8
0
 62
     0
440
 16777216
370
    -2
100
AcDbLine
 10
489.6113657946393
 20
-331.4737962949001
 30
0.0
 11
489.6113657946393
 21
-334.7757962949001
 31
0.0
  0
LINE
  5
25C
330
24A
100
AcDbEntity
  8
0
 62
     0
440
 16777216
370
    -2
100
AcDbLine
 10
489.6113657946393
 20
-315.6170601153924
 30
0.0
 11
489.6113657946393
 21
-312.3150601153924
 31
0.0
  0
LINE
  5
25D
330
24A
100
AcDbEntity
  8
0
 62
     0
440
 16777216
370
    -2
100
AcDbLine
 10
489.6113657946393
 20
-328.1717962949001
 30
0.0
 11
489.6113657946393
 21
-327.111094871813
 31
0.0
  0
LINE
  5
25E
330
24A
100
AcDbEntity
  8
0
 62
     0
440
 16777216
370
    -2
100
AcDbLine
 10
489.6113657946393
 20
-318.9190601153924
 30
0.0
 11
489.6113657946393
 21
-319.9797615384796
 31
0.0
  0
SOLID
  5
25F
330
24A
100
AcDbEntity
  8
0
 62
     0
440
 16777216
100
AcDbTrace
 10
489.061032461306
 20
-331.4737962949001
 30
0.0
 11
490.1616991279727
 21
-331.4737962949001
 31
0.0
 12
489.6113657946393
 22
-328.1717962949001
 32
0.0
 13
489.6113657946393
 23
-328.1717962949001
 33
0.0
  0
SOLID
  5
260
330
24A
100
AcDbEntity
  8
0
 62
     0
440
 16777216
100
AcDbTrace
 10
489.061032461306
 20
-315.6170601153924
 30
0.0
 11
490.1616991279727
 21
-315.6170601153924
 31
0.0
 12
489.6113657946393
 22
-318.9190601153924
 32
0.0
 13
489.6113657946393
 23
-318.9190601153924
 33
0.0
  0
MTEXT
  5
261
330
24A
100
AcDbEntity
  8
0
 62
     0
440
 16777216
100
AcDbMText
 10
489.6113657946392
 20
-323.5454282051464
 30
0.0
 40
3.5
 41
0.0
 46
0.0
 71
     5
 72
     1
  1
46,26
 73
     1
 44
1.0
  0
POINT
  5
262
330
24A
100
AcDbEntity
  8
Defpoints
 62
     0
440
 16777216
100
AcDbPoint
 10
464.3822326988002
 20
-328.1717962949001
 30
0.0
  0
POINT
  5
263
330
24A
100
AcDbEntity
  8
Defpoints
 62
     0
440
 16777216
100
AcDbPoint
 10
464.0822326988002
 20
-318.9190601153924
 30
0.0
  0
POINT
  5
264
330
24A
100
AcDbEntity
  8
Defpoints
 62
     0
440
 16777216
100
AcDbPoint
 10
489.6113657946393
 20
-318.9190601153924
 30
0.0
  0
ENDBLK
  5
24C
330
24A
100
AcDbEntity
  8
0
100
AcDbBlockEnd
  0
BLOCK
  5
266
330
265
100
AcDbEntity
  8
0
100
AcDbBlockBegin
  2
*D24
 70
     1
 10
0.0
 20
0.0
 30
0.0
  3
*D24
  1

  0
LINE
  5
268
330
265
100
AcDbEntity
  8
DIMENSION
440
 16777216
370
     0
100
AcDbLine
 10
318.6322326988
 20
-270.7010556050993
 30
0.0
 11
318.6322326988
 21
-260.7010556050993
 31
0.0
  0
LINE
  5
269
330
265
100
AcDbEntity
  8
DIMENSION
440
 16777216
370
     0
100
AcDbLine
 10
238.7937086821
 20
-270.7010556050993
 30
0.0
 11
238.7937086821
 21
-260.7010556050993
 31
0.0
  0
LINE
  5
26A
330
265
100
AcDbEntity
  8
DIMENSION
440
 16777216
370
     0
100
AcDbLine
 10
318.6322326988
 20
-265.7010556050993
 30
0.0
 11
238.7937086821
 21
-265.7010556050993
 31
0.0
  0
MTEXT
  5
26B
330
265
100
AcDbEntity
  8
DIMENSION
 62
     7
440
 16777216
100
AcDbMText
 10
278.71297069045
 20
-257.7010556050993
 30
0.0
 40
8.0
 41
0.0
 46
0.0
 71
     5
 72
     1
  1
\A1;80
 73
     1
 44
1.0
  0
POINT
  5
26C
330
265
100
AcDbEntity
  8
Defpoints
 62
     0
440
 16777216
100
AcDbPoint
 10
318.6322326988
 20
-285.1717962949
 30
0.0
  0
POINT
  5
26D
330
265
100
AcDbEntity
  8
Defpoints
 62
     0
440
 16777216
100
AcDbPoint
 10
238.7937086821
 20
-290.1717962949
 30
0.0
  0
POINT
  5
26E
330
265
100
AcDbEntity
  8
Defpoints
 62
     0
440
 16777216
100
AcDbPoint
 10
238.7937086821
 20
-265.7010556050993
 30
0.0
  0
ENDBLK
  5
267
330
265
100
AcDbEntity
  8
0
100
AcDbBlockEnd
  0
BLOCK
  5
274
330
273
100
AcDbEntity
  8
0
100
AcDbBlockBegin
  2
*D25
 70
     1
 10
0.0
 20
0.0
 30
0.0
  3
*D25
  1

  0
LINE
  5
276
330
273
100
AcDbEntity
  8
DIMENSION
440
 16777216
370
     0
100
AcDbLine
 10
329.0465500358989
 20
-328.1717962949001
 30
0.0
 11
339.0465500358989
 21
-328.1717962949001
 31
0.0
  0
LINE
  5
277
330
273
100
AcDbEntity
  8
DIMENSION
440
 16777216
370
     0
100
AcDbLine
 10
329.0465500358989
 20
-325.6717962949001
 30
0.0
 11
339.0465500358989
 21
-325.6717962949001
 31
0.0
  0
LINE
  5
278
330
273
100
AcDbEntity
  8
DIMENSION
440
 16777216
370
     0
100
AcDbLine
 10
334.0465500358989
 20
-328.1717962949001
 30
0.0
 11
334.0465500358989
 21
-331.6717962949001
 31
0.0
  0
LINE
  5
279
330
273
100
AcDbEntity
  8
DIMENSION
440
 16777216
370
     0
100
AcDbLine
 10
334.0465500358989
 20
-325.6717962949001
 30
0.0
 11
334.0465500358989
 21
-318.6717962949001
 31
0.0
  0
LINE
  5
27A
330
273
100
AcDbEntity
  8
DIMENSION
440
 16777216
370
     0
100
AcDbLine
 10
334.0465500358989
 20
-318.6717962949001
 30
0.0
 11
343.3798833692322
 21
-318.6717962949001
 31
0.0
  0
LINE
  5
27B
330
273
100
AcDbEntity
  8
DIMENSION
440
 16777216
370
     0
100
AcDbLine
 10
334.0465500358989
 20
-328.1717962949001
 30
0.0
 11
334.0465500358989
 21
-325.6717962949001
 31
0.0
  0
MTEXT
  5
27C
330
273
100
AcDbEntity
  8
DIMENSION
 62
     7
440
 16777216
100
AcDbMText
 10
340.7132167025655
 20
-326.6717962949001
 30
0.0
 40
8.0
 41
0.0
 46
0.0
 71
     5
 72
     1
  1
\A1;3
 73
     1
 44
1.0
  0
POINT
  5
27D
330
273
100
AcDbEntity
  8
Defpoints
 62
     0
440
 16777216
100
AcDbPoint
 10
325.6322326988001
 20
-328.1717962949001
 30
0.0
  0
POINT
  5
27E
330
273
100
AcDbEntity
  8
Defpoints
 62
     0
440
 16777216
100
AcDbPoint
 10
325.6322326988001
 20
-325.6717962949001
 30
0.0
  0
POINT
  5
27F
330
273
100
AcDbEntity
  8
Defpoints
 62
     0
440
 16777216
100
AcDbPoint
 10
334.0465500358989
 20
-325.6717962949001
 30
0.0
  0
ENDBLK
  5
275
330
273
100
AcDbEntity
  8
0
100
AcDbBlockEnd
  0
BLOCK
  5
285
330
284
100
AcDbEntity
  8
0
100
AcDbBlockBegin
  2
*D26
 70
     1
 10
0.0
 20
0.0
 30
0.0
  3
*D26
  1

  0
LINE
  5
287
330
284
100
AcDbEntity
  8
DIMENSION
440
 16777216
370
     0
100
AcDbLine
 10
484.6113657946395
 20
-328.1717962949001
 30
0.0
 11
494.6113657946396
 21
-328.1717962949001
 31
0.0
  0
LINE
  5
288
330
284
100
AcDbEntity
  8
DIMENSION
440
 16777216
370
     0
100
AcDbLine
 10
484.6113657946395
 20
-318.9190601153924
 30
0.0
 11
494.6113657946396
 21
-318.9190601153924
 31
0.0
  0
LINE
  5
289
330
284
100
AcDbEntity
  8
DIMENSION
440
 16777216
370
     0
100
AcDbLine
 10
489.6113657946395
 20
-328.1717962949001
 30
0.0
 11
489.6113657946395
 21
-318.9190601153924
 31
0.0
  0
LINE
  5
28A
330
284
100
AcDbEntity
  8
DIMENSION
440
 16777216
370
     0
100
AcDbLine
 10
489.6113657946395
 20
-318.9190601153924
 30
0.0
 11
489.6113657946395
 21
-315.4190601153924
 31
0.0
  0
LINE
  5
28B
330
284
100
AcDbEntity
  8
DIMENSION
440
 16777216
370
     0
100
AcDbLine
 10
489.6113657946395
 20
-315.4190601153924
 30
0.0
 11
498.9446991279729
 21
-315.4190601153924
 31
0.0
  0
MTEXT
  5
28C
330
284
100
AcDbEntity
  8
DIMENSION
 62
     7
440
 16777216
100
AcDbMText
 10
496.2780324613061
 20
-323.4190601153926
 30
0.0
 40
8.0
 41
0.0
 46
0.0
 71
     5
 72
     1
  1
\A1;9
 73
     1
 44
1.0
  0
POINT
  5
28D
330
284
100
AcDbEntity
  8
Defpoints
 62
     0
440
 16777216
100
AcDbPoint
 10
464.3822326988002
 20
-328.1717962949001
 30
0.0
  0
POINT
  5
28E
330
284
100
AcDbEntity
  8
Defpoints
 62
     0
440
 16777216
100
AcDbPoint
 10
464.0822326988002
 20
-318.9190601153924
 30
0.0
  0
POINT
  5
28F
330
284
100
AcDbEntity
  8
Defpoints
 62
     0
440
 16777216
100
AcDbPoint
 10
489.6113657946395
 20
-318.9190601153924
 30
0.0
  0
ENDBLK
  5
286
330
284
100
AcDbEntity
  8
0
100
AcDbBlockEnd
  0
BLOCK
  5
2A0
330
29F
100
AcDbEntity
  8
0
100
AcDbBlockBegin
  2
*D27
 70
     1
 10
0.0
 20
0.0
 30
0.0
  3
*D27
  1

  0
LINE
  5
2A2
330
29F
100
AcDbEntity
  8
0
 62
     0
440
 16777216
370
    -2
100
AcDbLine
 10
298.6322326988
 20
-321.1717962949
 30
0.0
 11
298.6322326988
 21
-393.0874526421765
 31
0.0
  0
LINE
  5
2A3
330
29F
100
AcDbEntity
  8
0
 62
     0
440
 16777216
370
    -2
100
AcDbLine
 10
437.3822326987999
 20
-329.1717962949
 30
0.0
 11
437.3822326987999
 21
-393.0874526421765
 31
0.0
  0
LINE
  5
2A4
330
29F
100
AcDbEntity
  8
0
 62
     0
440
 16777216
370
    -2
100
AcDbLine
 10
301.9342326988
 20
-392.0874526421765
 30
0.0
 11
434.0802326987999
 21
-392.0874526421765
 31
0.0
  0
SOLID
  5
2A5
330
29F
100
AcDbEntity
  8
0
 62
     0
440
 16777216
100
AcDbTrace
 10
301.9342326988
 20
-391.5371193088431
 30
0.0
 11
301.9342326988
 21
-392.6377859755098
 31
0.0
 12
298.6322326988
 22
-392.0874526421765
 32
0.0
 13
298.6322326988
 23
-392.0874526421765
 33
0.0
  0
SOLID
  5
2A6
330
29F
100
AcDbEntity
  8
0
 62
     0
440
 16777216
100
AcDbTrace
 10
434.0802326987999
 20
-391.5371193088431
 30
0.0
 11
434.0802326987999
 21
-392.6377859755098
 31
0.0
 12
437.3822326987999
 22
-392.0874526421765
 32
0.0
 13
437.3822326987999
 23
-392.0874526421765
 33
0.0
  0
MTEXT
  5
2A7
330
29F
100
AcDbEntity
  8
0
 62
     0
440
 16777216
100
AcDbMText
 10
368.0072326988
 20
-388.5217859755098
 30
0.0
 40
3.5
 41
0.0
 46
0.0
 71
     5
 72
     1
  1
693,75
 73
     1
 44
1.0
  0
POINT
  5
2A8
330
29F
100
AcDbEntity
  8
Defpoints
 62
     0
440
 16777216
100
AcDbPoint
 10
298.6322326988
 20
-320.1717962949
 30
0.0
  0
POINT
  5
2A9
330
29F
100
AcDbEntity
  8
Defpoints
 62
     0
440
 16777216
100
AcDbPoint
 10
437.3822326987999
 20
-328.1717962949
 30
0.0
  0
POINT
  5
2AA
330
29F
100
AcDbEntity
  8
Defpoints
 62
     0
440
 16777216
100
AcDbPoint
 10
437.3822326987999
 20
-392.0874526421765
 30
0.0
  0
ENDBLK
  5
2A1
330
29F
100
AcDbEntity
  8
0
100
AcDbBlockEnd
  0
BLOCK
  5
2AC
330
2AB
100
AcDbEntity
  8
0
100
AcDbBlockBegin
  2
*D28
 70
     1
 10
0.0
 20
0.0
 30
0.0
  3
*D28
  1

  0
LINE
  5
2AE
330
2AB
100
AcDbEntity
  8
DIMENSION
440
 16777216
370
     0
100
AcDbLine
 10
298.6322326988
 20
-387.0874526421765
 30
0.0
 11
298.6322326988
 21
-397.0874526421765
 31
0.0
  0
LINE
  5
2AF
330
2AB
100
AcDbEntity
  8
DIMENSION
440
 16777216
370
     0
100
AcDbLine
 10
437.3822326987999
 20
-387.0874526421765
 30
0.0
 11
437.3822326987999
 21
-397.0874526421765
 31
0.0
  0
LINE
  5
2B0
330
2AB
100
AcDbEntity
  8
DIMENSION
440
 16777216
370
     0
100
AcDbLine
 10
298.6322326988
 20
-392.0874526421765
 30
0.0
 11
437.3822326987999
 21
-392.0874526421765
 31
0.0
  0
MTEXT
  5
2B1
330
2AB
100
AcDbEntity
  8
DIMENSION
 62
     7
440
 16777216
100
AcDbMText
 10
368.0072326988
 20
-400.0874526421764
 30
0.0
 40
8.0
 41
0.0
 46
0.0
 71
     5
 72
     1
  1
\A1;139
 73
     1
 44
1.0
  0
POINT
  5
2B2
330
2AB
100
AcDbEntity
  8
Defpoints
 62
     0
440
 16777216
100
AcDbPoint
 10
298.6322326988
 20
-320.1717962949
 30
0.0
  0
POINT
  5
2B3
330
2AB
100
AcDbEntity
  8
Defpoints
 62
     0
440
 16777216
100
AcDbPoint
 10
437.3822326987999
 20
-328.1717962949
 30
0.0
  0
POINT
  5
2B4
330
2AB
100
AcDbEntity
  8
Defpoints
 62
     0
440
 16777216
100
AcDbPoint
 10
437.3822326987999
 20
-392.0874526421765
 30
0.0
  0
ENDBLK
  5
2AD
330
2AB
100
AcDbEntity
  8
0
100
AcDbBlockEnd
  0
ENDSEC
  0
SECTION
  2
ENTITIES
  0
LINE
  5
74
330
1F
100
AcDbEntity
  8
0
  6
Continuous
 62
     7
370
    25
100
AcDbLine
 10
67.4159124102
 20
-178.2017962949
 30
0.0
 11
67.4159124102
 21
-159.2017962949
 31
0.0
  0
LINE
  5
75
330
1F
100
AcDbEntity
  8
0
  6
Continuous
 62
     7
370
    25
100
AcDbLine
 10
48.3659124102
 20
-159.2017962949
 30
0.0
 11
48.3659124102
 21
-178.2017962949
 31
0.0
  0
SPLINE
  5
76
330
1F
100
AcDbEntity
  8
0
  6
Continuous
 62
     7
370
    25
100
AcDbSpline
210
0.0
220
0.0
230
1.0
 70
     8
 71
     3
 72
    60
 73
    56
 74
     0
 42
0.00000001
 43
0.0000000001
 40
0.0
 40
0.0
 40
0.0
 40
0.0
 40
0.009588044775383
 40
0.0287981143990836
 40
0.0480104043354466
 40
0.0672226949556484
 40
0.0864349855761861
 40
0.1056472761969191
 40
0.1248595668179098
 40
0.1440718574392215
 40
0.1632841480609094
 40
0.1824964386830236
 40
0.2017087293056093
 40
0.2209210199287034
 40
0.240133310552335
 40
0.2593456011765292
 40
0.2785578918012976
 40
0.297770182426646
 40
0.3169824730525673
 40
0.3361947636790599
 40
0.3554070543060919
 40
0.3746193449336445
 40
0.3938316355616761
 40
0.4130439261901448
 40
0.4322562168190018
 40
0.451468507448192
 40
0.4706807980776535
 40
0.4898930887073274
 40
0.5091053793371411
 40
0.5283176699670245
 40
0.5475299605968884
 40
0.5667422512266603
 40
0.5859545418562736
 40
0.6051668324856609
 40
0.6243791231147579
 40
0.6435914137435134
 40
0.6628037043718605
 40
0.6820159949997626
 40
0.7012282856271716
 40
0.7204405762540614
 40
0.7396528668804044
 40
0.7588651575061764
 40
0.7780774481313724
 40
0.7972897387559918
 40
0.8165020293800376
 40
0.8357143200035313
 40
0.8549266106264942
 40
0.8741389012489568
 40
0.8933511918709625
 40
0.9125634824925528
 40
0.9317757731137866
 40
0.9509880637347164
 40
0.9702003543554024
 40
0.9894126449759125
 40
1.0
 40
1.0
 40
1.0
 40
1.0
 10
-122.6090875898162
 20
-157.2687549037245
 30
0.0
 10
-122.6011459168499
 20
-156.4042293457688
 30
0.0
 10
-122.5772927526271
 20
-153.8075887895148
 30
0.0
 10
-122.3042499402375
 20
-149.4837933189461
 30
0.0
 10
-121.6772133428516
 20
-144.3223534952602
 30
0.0
 10
-120.7335776211527
 20
-139.2084498530286
 30
0.0
 10
-119.4821058975757
 20
-134.1612943125162
 30
0.0
 10
-117.9260142006168
 20
-129.1995012038244
 30
0.0
 10
-116.0714285565111
 20
-124.341410214878
 30
0.0
 10
-113.9250995766911
 20
-119.6049669834931
 30
0.0
 10
-111.4949838311771
 20
-115.0076706548529
 30
0.0
 10
-108.7900519923539
 20
-110.5665055190186
 30
0.0
 10
-105.8202992246457
 20
-106.2978792582741
 30
0.0
 10
-102.5966965937533
 20
-102.217562063283
 30
0.0
 10
-99.13115366007023
 20
-98.34062844242373
 30
0.0
 10
-95.43647364202291
 20
-94.6814015107166
 30
0.0
 10
-91.52630633968643
 20
-91.2534000789997
 30
0.0
 10
-87.41509764623069
 20
-88.06928870805872
 30
0.0
 10
-83.11803619448109
 20
-85.14083092047828
 30
0.0
 10
-78.65099723904255
 20
-82.47884574086469
 30
0.0
 10
-74.03048400720947
 20
-80.09316772558326
 30
0.0
 10
-69.27356672840097
 20
-77.99261062953188
 30
0.0
 10
-64.39781956922825
 20
-76.1849348442137
 30
0.0
 10
-59.42125570669165
 20
-74.67681872740037
 30
0.0
 10
-54.36226077950379
 20
-73.47383393031091
 30
0.0
 10
-49.23952496336783
 20
-72.58042481345514
 30
0.0
 10
-44.07197392116158
 20
-71.99989202719034
 30
0.0
 10
-38.87869888312784
 20
-71.73438031765157
 30
0.0
 10
-33.67888611538411
 20
-71.7848706031062
 30
0.0
 10
-28.49174603733048
 20
-72.15117635000459
 30
0.0
 10
-23.33644224981954
 20
-72.83194426211889
 30
0.0
 10
-18.23202073629737
 20
-73.82465928021918
 30
0.0
 10
-13.19733949847368
 20
-75.12565387382162
 30
0.0
 10
-8.25099888648384
 20
-76.73012159067534
 30
0.0
 10
-3.411272880928517
 20
-78.63213481393447
 30
0.0
 10
1.30395841933556
 20
-80.82466666140772
 30
0.0
 10
5.877274854212465
 20
-83.29961694598569
 30
0.0
 10
10.29178056024332
 20
-86.04784210133257
 30
0.0
 10
14.53116639119839
 20
-89.05918896228095
 30
0.0
 10
18.57977017220196
 20
-92.32253227515361
 30
0.0
 10
22.42263455944082
 20
-95.82581579932449
 30
0.0
 10
26.04556231165317
 20
-99.55609684860341
 30
0.0
 10
29.43516869472412
 20
-103.4995941062457
 30
0.0
 10
32.57893110372505
 20
-107.6417385430912
 30
0.0
 10
35.46523468177226
 20
-111.9672272277459
 30
0.0
 10
38.08341763842421
 20
-116.4600799157294
 30
0.0
 10
40.42380165246761
 20
-121.1036978886169
 30
0.0
 10
42.47776116640861
 20
-125.8809260197014
 30
0.0
 10
44.23763008583286
 20
-130.7741133811655
 30
0.0
 10
45.69719723202797
 20
-135.7651887977941
 30
0.0
 10
46.84998593346545
 20
-140.835689008063
 30
0.0
 10
47.69578424433096
 20
-145.9669709397409
 30
0.0
 10
48.21636391961098
 20
-151.1397429311202
 30
0.0
 10
48.42878724416855
 20
-155.5585394246344
 30
0.0
 10
48.36464945778129
 20
-158.2451112384043
 30
0.0
 10
48.34186229034178
 20
-159.1996088163058
 30
0.0
  0
SPLINE
  5
77
330
1F
100
AcDbEntity
  8
0
  6
Continuous
 62
     7
370
    25
100
AcDbSpline
210
0.0
220
0.0
230
1.0
 70
     8
 71
     3
 72
    66
 73
    62
 74
     0
 42
0.00000001
 43
0.0000000001
 40
0.0
 40
0.0
 40
0.0
 40
0.0
 40
0.0022957413658043
 40
0.0196942376557922
 40
0.0370942580440492
 40
0.0544942788163119
 40
0.0718942995886299
 40
0.0892943203608731
 40
0.1066943411330088
 40
0.1240943619050038
 40
0.141494382676829
 40
0.1588944034484492
 40
0.1762944242198485
 40
0.1936944449909981
 40
0.2110944657618806
 40
0.2284944865324761
 40
0.2458945073027724
 40
0.2632945280727546
 40
0.2806945488424248
 40
0.2980945696117784
 40
0.3154945903808145
 40
0.3328946111495406
 40
0.3502946319179601
 40
0.3676946526860952
 40
0.3850946734539555
 40
0.402494694221561
 40
0.4198947149889375
 40
0.4372947357561058
 40
0.4546947565230973
 40
0.4720947772899401
 40
0.4894947980566642
 40
0.5068948188233108
 40
0.5242948395899042
 40
0.5416948603564781
 40
0.5590948811230604
 40
0.5764949018896863
 40
0.5938949226563953
 40
0.6112949434232142
 40
0.6286949641901774
 40
0.6460949849573151
 40
0.6634950057246564
 40
0.6808950264922212
 40
0.6982950472600427
 40
0.715695068028138
 40
0.7330950887965188
 40
0.7504951095652032
 40
0.7678951303341942
 40
0.7852951511035077
 40
0.8026951718731393
 40
0.8200951926430859
 40
0.837495213413343
 40
0.854895234183904
 40
0.8722952549547532
 40
0.8896952757258757
 40
0.90709529649725
 40
0.924495317268852
 40
0.9418953380406591
 40
0.9592953588126407
 40
0.976695379584768
 40
0.9940954003570078
 40
1.0
 40
1.0
 40
1.0
 40
1.0
 10
67.36422452589092
 20
-159.2049092291904
 30
0.0
 10
67.37142408961017
 20
-158.9523292806948
 30
0.0
 10
67.43318623800232
 20
-156.7855479494632
 30
0.0
 10
67.33390524667974
 20
-152.7002923989556
 30
0.0
 10
66.93746375052256
 20
-146.9671628112125
 30
0.0
 10
66.21071090551549
 20
-141.2645279754388
 30
0.0
 10
65.17588285362879
 20
-135.6103972455201
 30
0.0
 10
63.83074117048643
 20
-130.0216995975958
 30
0.0
 10
62.18078978385044
 20
-124.5153715377979
 30
0.0
 10
60.23063075424611
 20
-119.1080455658577
 30
0.0
 10
57.98626211938529
 20
-113.8160696692578
 30
0.0
 10
55.45444033079615
 20
-108.6554392130013
 30
0.0
 10
52.64282580746832
 20
-103.6417535992219
 30
0.0
 10
49.55991530721094
 20
-98.79016777222485
 30
0.0
 10
46.21502815985285
 20
-94.11534676887042
 30
0.0
 10
42.61827490441023
 20
-89.63142129380056
 30
0.0
 10
38.78052758325801
 20
-85.35194503199253
 30
0.0
 10
34.71338664965884
 20
-81.28985367274747
 30
0.0
 10
30.4291459641855
 20
-77.45742581048363
 30
0.0
 10
25.94075561727233
 20
-73.86624582939719
 30
0.0
 10
21.26178278903568
 20
-70.52716888716195
 30
0.0
 10
16.4063707382055
 20
-67.45028810271228
 30
0.0
 10
11.38919605122712
 20
-64.64490404750669
 30
0.0
 10
6.225424278859748
 20
-62.11949663243441
 30
0.0
 10
0.9306640948743559
 20
-59.88169947535852
 30
0.0
 10
-4.479079884715797
 20
-57.93827682677115
 30
0.0
 10
-9.987455479243346
 20
-56.29510312330907
 30
0.0
 10
-15.57781237156986
 20
-54.95714523093361
 30
0.0
 10
-21.23325243745272
 20
-53.92844743145078
 30
0.0
 10
-26.93668082396666
 20
-53.21211919774917
 30
0.0
 10
-32.67085762258232
 20
-52.81032579471247
 30
0.0
 10
-38.41844998070621
 20
-52.72428173421375
 30
0.0
 10
-44.16208449416814
 20
-52.95424710397831
 30
0.0
 10
-49.88439972228137
 20
-53.49952678140832
 30
0.0
 10
-55.5680986667465
 20
-54.35847253474926
 30
0.0
 10
-61.19600105575838
 20
-55.5284880052456
 30
0.0
 10
-66.75109527528194
 20
-57.00603655522464
 30
0.0
 10
-72.21658979052218
 20
-58.78665195838896
 30
0.0
 10
-77.57596390215256
 20
-60.86495189999777
 30
0.0
 10
-82.81301768388555
 20
-63.23465424613992
 30
0.0
 10
-87.91192095042895
 20
-65.88859603290845
 30
0.0
 10
-92.85726110782199
 20
-68.81875511808797
 30
0.0
 10
-97.63408974149724
 20
-72.0162744299034
 30
0.0
 10
-102.2279678012782
 20
-75.47148873953144
 30
0.0
 10
-106.625009246626
 20
-79.17395387644835
 30
0.0
 10
-110.8119230205912
 20
-83.11247829831909
 30
0.0
 10
-114.7760532241656
 20
-87.27515691994506
 30
0.0
 10
-118.5054173749345
 20
-91.649407099208
 30
0.0
 10
-121.9887426144488
 20
-96.22200667052158
 30
0.0
 10
-125.2154998293022
 20
-100.97913391349
 30
0.0
 10
-128.1759353049699
 20
-105.9064093260061
 30
0.0
 10
-130.861100853528
 20
-110.9889391126844
 30
0.0
 10
-133.262878454784
 20
-116.2113601184515
 30
0.0
 10
-135.3740137771409
 20
-121.5578865892206
 30
0.0
 10
-137.1881045830518
 20
-127.0123566860203
 30
0.0
 10
-138.699745188585
 20
-132.5582858233827
 30
0.0
 10
-139.9040758963545
 20
-138.1788997574268
 30
0.0
 10
-140.7985402056243
 20
-143.8572477655547
 30
0.0
 10
-141.3763893646358
 20
-149.5760207212595
 30
0.0
 10
-141.5905045563456
 20
-154.053879044915
 30
0.0
 10
-141.6053310577151
 20
-156.6188726127783
 30
0.0
 10
-141.6090875898162
 20
-157.2687549037245
 30
0.0
  0
LINE
  5
78
330
1F
100
AcDbEntity
  8
0
  6
Continuous
 62
     7
370
    25
100
AcDbLine
 10
-122.6090875898
 20
-282.1717962949
 30
0.0
 11
-122.6090875898
 21
-157.2687549037
 31
0.0
  0
LINE
  5
79
330
1F
100
AcDbEntity
  8
0
  6
Continuous
 62
     7
370
    25
100
AcDbLine
 10
-141.6090875898
 20
-157.2687549037
 30
0.0
 11
-141.6090875898
 21
-282.1717962949
 31
0.0
  0
LINE
  5
7A
330
1F
100
AcDbEntity
  8
0
  6
Continuous
 62
     7
370
    25
100
AcDbLine
 10
-112.1090875898
 20
-320.1717962949
 30
0.0
 11
-112.1090875898
 21
-285.1717962949
 31
0.0
  0
LINE
  5
7B
330
1F
100
AcDbEntity
  8
0
  6
Continuous
 62
     7
370
    25
100
AcDbLine
 10
-152.1090875898
 20
-285.1717962949
 30
0.0
 11
-152.1090875898
 21
-320.1717962949
 31
0.0
  0
LINE
  5
7C
330
1F
100
AcDbEntity
  8
0
  6
Continuous
 62
     7
370
    25
100
AcDbLine
 10
-132.1948947617
 20
-298.1717962949
 30
0.0
 11
-132.1377869836
 21
-298.1717962949
 31
0.0
  0
LINE
  5
7D
330
1F
100
AcDbEntity
  8
0
  6
Continuous
 62
     7
370
    25
100
AcDbLine
 10
-132.1377869836
 20
-290.1717962949
 30
0.0
 11
-132.1948947617
 21
-290.1717962949
 31
0.0
  0
LINE
  5
7E
330
1F
100
AcDbEntity
  8
0
  6
Continuous
 62
     7
370
    25
100
AcDbLine
 10
-105.1090875898
 20
-325.6717962949
 30
0.0
 11
-105.1090875898
 21
-319.4717962949
 31
0.0
  0
LINE
  5
7F
330
1F
100
AcDbEntity
  8
0
  6
Continuous
 62
     7
370
    25
100
AcDbLine
 10
-159.1090875898
 20
-319.4717962949
 30
0.0
 11
-159.1090875898
 21
-325.6717962949
 31
0.0
  0
ARC
  5
80
330
1F
100
AcDbEntity
  8
0
  6
Continuous
 62
     7
370
    25
100
AcDbCircle
 10
-105.4090875898
 20
-319.4717962949
 30
0.0
 40
0.3000000000001251
100
AcDbArc
 50
0.0
 51
90.0
  0
ARC
  5
81
330
1F
100
AcDbEntity
  8
0
  6
Continuous
 62
     7
370
    25
100
AcDbCircle
 10
-158.8090875898
 20
-319.4717962949
 30
0.0
 40
0.3000000000001251
100
AcDbArc
 50
90.0
 51
180.0
  0
ARC
  5
82
330
1F
100
AcDbEntity
  8
0
  6
Continuous
 62
     7
370
    25
100
AcDbCircle
 10
-116.3090875898
 20
-282.3717962949
 30
0.0
 40
0.2000000000000455
100
AcDbArc
 50
0.0
 51
90.0
  0
ARC
  5
83
330
1F
100
AcDbEntity
  8
0
  6
Continuous
 62
     7
370
    25
100
AcDbCircle
 10
-147.9090875898
 20
-282.3717962949
 30
0.0
 40
0.2000000000000455
100
AcDbArc
 50
90.0
 51
180.0
  0
LINE
  5
84
330
1F
100
AcDbEntity
  8
0
  6
Continuous
 62
     7
370
    25
100
AcDbLine
 10
-116.1090875898
 20
-285.1717962949
 30
0.0
 11
-116.1090875898
 21
-282.3717962949
 31
0.0
  0
LINE
  5
85
330
1F
100
AcDbEntity
  8
0
  6
Continuous
 62
     7
370
    25
100
AcDbLine
 10
-148.1090875898
 20
-282.3717962949
 30
0.0
 11
-148.1090875898
 21
-285.1717962949
 31
0.0
  0
LINE
  5
86
330
1F
100
AcDbEntity
  8
0
  6
Continuous
 62
     7
370
    25
100
AcDbLine
 10
-105.1090875898
 20
-328.1717962949
 30
0.0
 11
-105.1090875898
 21
-325.6717962949
 31
0.0
  0
LINE
  5
87
330
1F
100
AcDbEntity
  8
0
  6
Continuous
 62
     7
370
    25
100
AcDbLine
 10
-159.1090875898
 20
-325.6717962949
 30
0.0
 11
-159.1090875898
 21
-328.1717962949
 31
0.0
  0
LINE
  5
88
330
1F
100
AcDbEntity
  8
0
  6
Continuous
 62
     7
370
    25
100
AcDbLine
 10
-114.3590875898
 20
-325.6717962949
 30
0.0
 11
-114.3590875898
 21
-320.1717962949
 31
0.0
  0
LINE
  5
89
330
1F
100
AcDbEntity
  8
0
  6
Continuous
 62
     7
370
    25
100
AcDbLine
 10
-149.8590875898
 20
-320.1717962949
 30
0.0
 11
-149.8590875898
 21
-325.6717962949
 31
0.0
  0
LINE
  5
8A
330
1F
100
AcDbEntity
  8
0
  6
Continuous
 62
     7
370
    25
100
AcDbLine
 10
67.4159124102
 20
-159.2017962949
 30
0.0
 11
48.3659124102
 21
-159.2017962949
 31
0.0
  0
LINE
  5
8B
330
1F
100
AcDbEntity
  8
0
  6
Continuous
 62
     7
370
    25
100
AcDbLine
 10
67.4159124102
 20
-178.2017962949
 30
0.0
 11
48.3659124102
 21
-178.2017962949
 31
0.0
  0
SPLINE
  5
8C
330
1F
100
AcDbEntity
  8
0
  6
Continuous
 62
     7
370
    25
100
AcDbSpline
210
0.0
220
0.0
230
1.0
 70
    24
 71
     3
 72
    17
 73
    13
 74
     0
 42
0.00000001
 43
0.0000000001
 40
0.0
 40
0.0
 40
0.0
 40
0.0
 40
0.0669682924171574
 40
0.1743068956816209
 40
0.2816520122747265
 40
0.3890126456700533
 40
0.496392688948126
 40
0.6037887022195151
 40
0.7111897617360014
 40
0.8185807351671925
 40
0.9259491525883364
 40
1.0
 40
1.0
 40
1.0
 40
1.0
 10
67.24653403247216
 20
-159.2017962948851
 30
0.0
 10
67.25568432438238
 20
-159.201796294885
 30
0.0
 10
67.27950095341518
 20
-159.201796294885
 30
0.0
 10
66.11063909189863
 20
-159.2017962948851
 30
0.0
 10
64.01192402882394
 20
-159.201796294885
 30
0.0
 10
61.17652960593789
 20
-159.201796294885
 30
0.0
 10
57.97935272086685
 20
-159.201796294885
 30
0.0
 10
54.76920628256099
 20
-159.2017962948852
 30
0.0
 10
51.89891310201701
 20
-159.201796294885
 30
0.0
 10
49.74151660251052
 20
-159.2017962948851
 30
0.0
 10
48.49718182916074
 20
-159.201796294885
 30
0.0
 10
48.48806424308744
 20
-159.2017962948851
 30
0.0
 10
48.48434267043255
 20
-159.2017962948851
 30
0.0
  0
LINE
  5
8D
330
1F
100
AcDbEntity
  8
0
  6
Continuous
 62
     7
370
    25
100
AcDbLine
 10
-112.1090875898
 20
-320.1717962949
 30
0.0
 11
-152.1090670269
 21
-320.1717962949
 31
0.0
  0
SPLINE
  5
8E
330
1F
100
AcDbEntity
  8
0
  6
Continuous
 62
     7
370
    25
100
AcDbSpline
210
0.0
220
0.0
230
1.0
 70
     8
 71
     3
 72
    12
 73
     8
 74
     0
 42
0.00000001
 43
0.0000000001
 40
0.0
 40
0.0
 40
0.0
 40
0.0
 40
0.1688524346511117
 40
0.4386024189938816
 40
0.7044726529574558
 40
0.9775987362345491
 40
1.0
 40
1.0
 40
1.0
 40
1.0
 10
-133.2749785367878
 20
-298.0136785719589
 30
0.0
 10
-133.0225828599999
 20
-298.1001994216958
 30
0.0
 10
-132.3669728025463
 20
-298.3249415408513
 30
0.0
 10
-131.2181671744649
 20
-298.2020860182069
 30
0.0
 10
-130.0644506226582
 20
-297.6898348818535
 30
0.0
 10
-129.3194369432424
 20
-297.1411201919354
 30
0.0
 10
-129.0943362991727
 20
-296.7357916868232
 30
0.0
 10
-129.0772734488069
 20
-296.7050673872092
 30
0.0
  0
SPLINE
  5
8F
330
1F
100
AcDbEntity
  8
0
  6
Continuous
 62
     7
370
    25
100
AcDbSpline
210
0.0
220
0.0
230
1.0
 70
     8
 71
     3
 72
    12
 73
     8
 74
     0
 42
0.00000001
 43
0.0000000001
 40
0.0
 40
0.0
 40
0.0
 40
0.0
 40
0.0561461838424118
 40
0.3480050164079918
 40
0.626849271455806
 40
0.89762698226601
 40
1.0
 40
1.0
 40
1.0
 40
1.0
 10
-129.8530322493524
 20
-290.9008654789371
 30
0.0
 10
-129.9146660334897
 20
-290.8401360050733
 30
0.0
 10
-130.2966842686055
 20
-290.4637228617021
 30
0.0
 10
-131.2641261667861
 20
-290.1376426769377
 30
0.0
 10
-132.5553336617421
 20
-290.0573667699894
 30
0.0
 10
-133.5785923940159
 20
-290.2956765553931
 30
0.0
 10
-134.0386964882208
 20
-290.6419620400011
 30
0.0
 10
-134.1649249556803
 20
-290.7369646417516
 30
0.0
  0
LINE
  5
90
330
1F
100
AcDbEntity
  8
0
  6
Continuous
 62
     7
370
    25
100
AcDbLine
 10
-112.1090875898
 20
-285.1717962949
 30
0.0
 11
-152.1090670269
 21
-285.1717962949
 31
0.0
  0
CIRCLE
  5
91
330
1F
100
AcDbEntity
  8
0
  6
Continuous
 62
     7
370
    25
100
AcDbCircle
 10
-132.1948922534
 20
-294.1717930498
 30
0.0
 40
3.999997421511758
  0
ARC
  5
92
330
1F
100
AcDbEntity
  8
0
  6
Continuous
 62
     7
370
    25
100
AcDbCircle
 10
-132.1377900626
 20
-294.1717962949
 30
0.0
 40
4.000000000001184
100
AcDbArc
 50
270.0000441025
 51
89.99995589740001
  0
LINE
  5
93
330
1F
100
AcDbEntity
  8
0
  6
Continuous
 62
     7
370
    25
100
AcDbLine
 10
-105.4090875898
 20
-319.1717962949
 30
0.0
 11
-112.1090875898
 21
-319.1717962949
 31
0.0
  0
LINE
  5
94
330
1F
100
AcDbEntity
  8
0
  6
Continuous
 62
     7
370
    25
100
AcDbLine
 10
-152.1090875898
 20
-319.1717962949
 30
0.0
 11
-158.8090875898
 21
-319.1717962949
 31
0.0
  0
LINE
  5
95
330
1F
100
AcDbEntity
  8
0
  6
Continuous
 62
     7
370
    25
100
AcDbLine
 10
-147.9090875713
 20
-282.1717962949
 30
0.0
 11
-116.3090875898
 21
-282.1717962949
 31
0.0
  0
LINE
  5
96
330
1F
100
AcDbEntity
  8
0
  6
Continuous
 62
     7
370
    25
100
AcDbLine
 10
-105.1090875898
 20
-328.1717962949
 30
0.0
 11
-159.1090875898
 21
-328.1717962949
 31
0.0
  0
LINE
  5
97
330
1F
100
AcDbEntity
  8
0
  6
Continuous
 62
     7
370
    25
100
AcDbLine
 10
-105.1090875898
 20
-325.6717962949
 30
0.0
 11
-159.1090875898
 21
-325.6717962949
 31
0.0
  0
POINT
  5
98
330
1F
100
AcDbEntity
  8
0
  6
Continuous
 62
     7
370
     0
100
AcDbPoint
 10
-132.1090875898
 20
-328.1717962949
 30
0.0
  0
POINT
  5
99
330
1F
100
AcDbEntity
  8
0
  6
Continuous
 62
     7
370
     0
100
AcDbPoint
 10
57.8909124102
 20
-178.2017962949
 30
0.0
  0
POINT
  5
9A
330
1F
100
AcDbEntity
  8
0
  6
Continuous
 62
     7
370
     0
100
AcDbPoint
 10
-46.2782167883
 20
-53.1717962949
 30
0.0
  0
DIMENSION
  5
9B
102
{ACAD_XDICTIONARY
360
1DE
102
}
330
1F
100
AcDbEntity
  8
DIMENSION
100
AcDbDimension
280
     0
  2
*D15
 10
-197.9968134327
 20
-328.1717962949001
 30
0.0
 11
-197.9968134327
 21
-176.2220023378
 31
0.0
 70
   160
  1
<>
 71
     2
 42
275.0
 73
     0
 74
     0
 75
     0
  3
RG Dimension Lines
100
AcDbAlignedDimension
 13
-46.2782167883
 23
-53.1717962949
 33
0.0
 14
-159.1090875898
 24
-328.1717962949
 34
0.0
 50
90.0
100
AcDbRotatedDimension
1001
AcadAnnotative
1000
AnnotativeData
1002
{
1070
     1
1070
     1
1002
}
  0
DIMENSION
  5
A8
102
{ACAD_XDICTIONARY
360
1D0
102
}
330
1F
100
AcDbEntity
  8
DIMENSION
100
AcDbDimension
280
     0
  2
*D14
 10
-132.1090875898
 20
-368.1717962949
 30
0.0
 11
-44.74659611149999
 21
-368.1717962949
 31
0.0
 70
   160
  1
<>
 71
     2
 42
190.0
 73
     0
 74
     0
 75
     0
  3
RG Dimension Lines
100
AcDbAlignedDimension
 13
57.8909124102
 23
-178.2017962949
 33
0.0
 14
-132.1090875898
 24
-328.1717962949
 34
0.0
100
AcDbRotatedDimension
1001
AcadAnnotative
1000
AnnotativeData
1002
{
1070
     1
1070
     1
1002
}
  0
DIMENSION
  5
B0
102
{ACAD_XDICTIONARY
360
1C2
102
}
330
1F
100
AcDbEntity
  8
DIMENSION
100
AcDbDimension
280
     0
  2
*D13
 10
101.8323141266
 20
-178.2017962949
 30
0.0
 11
101.8323141266
 21
-252.687109285
 31
0.0
 70
   160
  1
<>
 71
     2
 42
149.9699999999999
 73
     0
 74
     0
 75
     0
  3
RG Dimension Lines
100
AcDbAlignedDimension
 13
-105.1090875898
 23
-328.1717962949
 33
0.0
 14
67.4159124102
 24
-178.2017962949
 34
0.0
 50
90.0
100
AcDbRotatedDimension
1001
AcadAnnotative
1000
AnnotativeData
1002
{
1070
     1
1070
     1
1002
}
  0
LINE
  5
B8
330
1F
100
AcDbEntity
  8
0
  6
Continuous
 62
     7
370
    25
100
AcDbLine
 10
446.9072326987999
 20
-178.2017962949
 30
0.0
 11
446.9072326987999
 21
-159.2017962949
 31
0.0
  0
LINE
  5
B9
330
1F
100
AcDbEntity
  8
0
  6
Continuous
 62
     7
370
    25
100
AcDbLine
 10
427.8572326987999
 20
-159.2017962949
 30
0.0
 11
427.8572326987999
 21
-178.2017962949
 31
0.0
  0
SPLINE
  5
BA
330
1F
100
AcDbEntity
  8
0
  6
Continuous
 62
     7
370
    25
100
AcDbSpline
210
0.0
220
0.0
230
1.0
 70
     8
 71
     3
 72
    37
 73
    33
 74
     0
 42
0.00000001
 43
0.0000000001
 40
0.0
 40
0.0
 40
0.0
 40
0.0
 40
0.0018055252157057
 40
0.0167835352743919
 40
0.0453899077562598
 40
0.0807486259027415
 40
0.1172204036770871
 40
0.153851477533111
 40
0.1905192094006765
 40
0.227199384682383
 40
0.2638849050833867
 40
0.3005730976980777
 40
0.3372627751105606
 40
0.3739533443102363
 40
0.4106444820691692
 40
0.4473359998075292
 40
0.4840277813331311
 40
0.5207197517681348
 40
0.5574118610026052
 40
0.5941040743978531
 40
0.63079636732105
 40
0.667488721804984
 40
0.7041811244364706
 40
0.7408735649807421
 40
0.7775660354608075
 40
0.8142585295254603
 40
0.8509510420048009
 40
0.8876435685897988
 40
0.92433610559487
 40
0.9610286497765262
 40
0.9977211981893388
 40
1.0
 40
1.0
 40
1.0
 40
1.0
 10
427.8893905557951
 20
-62.32660941089588
 30
0.0
 10
427.8893840563823
 20
-62.32537305907428
 30
0.0
 10
427.8893236400996
 20
-62.3138803619753
 30
0.0
 10
427.8895967687071
 20
-62.40492883490498
 30
0.0
 10
427.8897992349645
 20
-62.65282632980453
 30
0.0
 10
427.8901913613116
 20
-63.24795264873948
 30
0.0
 10
427.8905700237984
 20
-64.1852041194749
 30
0.0
 10
427.8909605520466
 20
-65.44401181657052
 30
0.0
 10
427.8913428316396
 20
-67.0095454900548
 30
0.0
 10
427.8917189619001
 20
-68.8760047624777
 30
0.0
 10
427.8920864805103
 20
-71.03662400956338
 30
0.0
 10
427.8924444019491
 20
-73.48414291447672
 30
0.0
 10
427.892791438063
 20
-76.21034673959674
 30
0.0
 10
427.8931264449599
 20
-79.20614136188479
 30
0.0
 10
427.8934482974897
 20
-82.46154470155767
 30
0.0
 10
427.8937559236084
 20
-85.96572000616884
 30
0.0
 10
427.8940482979852
 20
-89.70700712701022
 30
0.0
 10
427.8943244472372
 20
-93.67296015139151
 30
0.0
 10
427.8945834522384
 20
-97.85038776006745
 30
0.0
 10
427.8948244511798
 20
-102.2253965805141
 30
0.0
 10
427.8950466423055
 20
-106.7834370439122
 30
0.0
 10
427.8952492864759
 20
-111.5093515178978
 30
0.0
 10
427.8954317097952
 20
-116.3874246614818
 30
0.0
 10
427.895593305042
 20
-121.4014351895989
 30
0.0
 10
427.8957335366031
 20
-126.5347111812141
 30
0.0
 10
427.8958519313063
 20
-131.7701800681938
 30
0.0
 10
427.895948120802
 20
-137.0904454868417
 30
0.0
 10
427.8960216904557
 20
-142.4777699838039
 30
0.0
 10
427.8960727492144
 20
-147.914414271414
 30
0.0
 10
427.8960998076009
 20
-153.3816500889291
 30
0.0
 10
427.8961052330963
 20
-157.1498562967057
 30
0.0
 10
427.8961009635356
 20
-159.0883629116408
 30
0.0
 10
427.8961007138783
 20
-159.2017147036306
 30
0.0
  0
SPLINE
  5
BB
330
1F
100
AcDbEntity
  8
0
  6
Continuous
 62
     7
370
    25
100
AcDbSpline
210
0.0
220
0.0
230
1.0
 70
     8
 71
     3
 72
    96
 73
    92
 74
     0
 42
0.00000001
 43
0.0000000001
 40
0.0
 40
0.0
 40
0.0
 40
0.0
 40
0.0026184567026588
 40
0.0192523647676941
 40
0.0358879396706309
 40
0.052523516223091
 40
0.0691590952215029
 40
0.0857946780074371
 40
0.1024302660597609
 40
0.119065861058726
 40
0.1357014649664701
 40
0.1523370801317561
 40
0.1689727094305507
 40
0.185608356459876
 40
0.2022440258115751
 40
0.2188797234684218
 40
0.2355154573914713
 40
0.2521512384143131
 40
0.2687870816448039
 40
0.2854230087356324
 40
0.3020590517029375
 40
0.3186952596355302
 40
0.3353317111076696
 40
0.3519685386177343
 40
0.3686059805286683
 40
0.3852445026685025
 40
0.4018851215096449
 40
0.4185304275636778
 40
0.4351888010927758
 40
0.4519022743210963
 40
0.4562600882292227
 40
0.4576109675245016
 40
0.4582043188552002
 40
0.4586551279037188
 40
0.4596918367207013
 40
0.4616936194906029
 40
0.4646482818305689
 40
0.4678348112267387
 40
0.4724939888990357
 40
0.4772841564097218
 40
0.4816309803716862
 40
0.4863175654221641
 40
0.4911575594663076
 40
0.4960838088714031
 40
0.5010544865943904
 40
0.5064306104944003
 40
0.511469748568021
 40
0.5162139610702204
 40
0.5206995792709785
 40
0.5249403168743177
 40
0.528935290573595
 40
0.5326715823615864
 40
0.5361243077826217
 40
0.5392552508378535
 40
0.5420108205065949
 40
0.5443201676966374
 40
0.5460856665313512
 40
0.5471350164321548
 40
0.5475851195441816
 40
0.5479172532322881
 40
0.5483269266179658
 40
0.5490504633179424
 40
0.5508680483043531
 40
0.5548544519837132
 40
0.567378922731338
 40
0.5849581619617089
 40
0.6016929018855812
 40
0.6183540737812161
 40
0.6350001061800663
 40
0.6516409582250251
 40
0.6682795576474802
 40
0.6849170196363632
 40
0.7015538446827071
 40
0.7181902848192045
 40
0.7348264783453842
 40
0.7514625063947698
 40
0.7680984191873938
 40
0.7847342492128081
 40
0.8013700182867683
 40
0.8180057415339028
 40
0.8346414297381434
 40
0.8512770907841494
 40
0.8679127305713102
 40
0.8845483536107858
 40
0.9011839634261136
 40
0.9178195628288742
 40
0.9344551541130307
 40
0.9510907391954075
 40
0.9677263197200556
 40
0.9843618971382698
 40
1.0
 40
1.0
 40
1.0
 40
1.0
 10
446.8961003084277
 20
-159.2019642344246
 30
0.0
 10
446.8961009145172
 20
-158.9146635878615
 30
0.0
 10
446.8961053708296
 20
-156.8022678243523
 30
0.0
 10
446.8960981581906
 20
-152.8605023762123
 30
0.0
 10
446.8960688954688
 20
-147.3954951252871
 30
0.0
 10
446.896015663792
 20
-141.9626832166135
 30
0.0
 10
446.8959399354947
 20
-136.5808828986212
 30
0.0
 10
446.8958416155158
 20
-131.2678351788313
 30
0.0
 10
446.8957211236593
 20
-126.0412461270418
 30
0.0
 10
446.8955788356017
 20
-120.918482360353
 30
0.0
 10
446.8954152310458
 20
-115.9165791061313
 30
0.0
 10
446.8952308520879
 20
-111.0521658944818
 30
0.0
 10
446.8950263121341
 20
-106.3414159570217
 30
0.0
 10
446.8948022909751
 20
-101.7999911393221
 30
0.0
 10
446.8945595332804
 20
-97.44299010363057
 30
0.0
 10
446.8942988458955
 20
-93.28489795087705
 30
0.0
 10
446.8940210951648
 20
-89.33953796244717
 30
0.0
 10
446.8937272040284
 20
-85.6200254601824
 30
0.0
 10
446.8934181486881
 20
-82.13872393380153
 30
0.0
 10
446.8930949558754
 20
-78.9072035596797
 30
0.0
 10
446.892758696686
 20
-75.93620198916076
 30
0.0
 10
446.8924104918254
 20
-73.23558795276227
 30
0.0
 10
446.8920514722774
 20
-70.81432514915228
 30
0.0
 10
446.8916829029891
 20
-68.68044415530253
 30
0.0
 10
446.8913056912764
 20
-66.84098887727265
 30
0.0
 10
446.8909221748546
 20
-65.3020501660678
 30
0.0
 10
446.8905293517986
 20
-64.06843002161314
 30
0.0
 10
446.8901438784818
 20
-63.1445145683294
 30
0.0
 10
446.889707473444
 20
-62.5298670395775
 30
0.0
 10
446.8895020938307
 20
-62.30595563102078
 30
0.0
 10
446.8891450288566
 20
-62.23468493317
 30
0.0
 10
446.8887675342051
 20
-62.16661283825128
 30
0.0
 10
446.8870991899868
 20
-62.06016448277115
 30
0.0
 10
446.8819389064901
 20
-61.87598202948931
 30
0.0
 10
446.8618775672978
 20
-61.4889324099269
 30
0.0
 10
446.7928400930158
 20
-60.83996240343439
 30
0.0
 10
446.6226583331493
 20
-59.95855883397081
 30
0.0
 10
446.2743581387958
 20
-58.82391894596775
 30
0.0
 10
445.6888454903993
 20
-57.55928703979621
 30
0.0
 10
444.8326094083516
 20
-56.30180907021995
 30
0.0
 10
443.7875730938627
 20
-55.19396845705035
 30
0.0
 10
442.5771791307917
 20
-54.25873519787336
 30
0.0
 10
441.1727615081479
 20
-53.50504608959919
 30
0.0
 10
439.6313173940487
 20
-52.98898029087475
 30
0.0
 10
437.9659330798564
 20
-52.73496369261007
 30
0.0
 10
436.2677204238584
 20
-52.78290911156272
 30
0.0
 10
434.6317029146456
 20
-53.12995547443819
 30
0.0
 10
433.1698881559204
 20
-53.71173148694232
 30
0.0
 10
431.8957226595853
 20
-54.4736095790502
 30
0.0
 10
430.8151517527667
 20
-55.36596399786485
 30
0.0
 10
429.9285119529907
 20
-56.34157902729828
 30
0.0
 10
429.2297944280833
 20
-57.35514183884807
 30
0.0
 10
428.7065778868559
 20
-58.36283697315045
 30
0.0
 10
428.3402104567434
 20
-59.32256401784788
 30
0.0
 10
428.1062876386724
 20
-60.19211933159166
 30
0.0
 10
427.9757195177005
 20
-60.93249880167853
 30
0.0
 10
427.9172831866672
 20
-61.48821869180773
 30
0.0
 10
427.8974918241141
 20
-61.8490424228629
 30
0.0
 10
427.8922997144999
 20
-62.01926915200104
 30
0.0
 10
427.8907265634553
 20
-62.09310059372039
 30
0.0
 10
427.8898724193655
 20
-62.14798822296471
 30
0.0
 10
427.8893265030472
 20
-62.20193640701507
 30
0.0
 10
427.8891284790283
 20
-62.24265954867189
 30
0.0
 10
427.8888950487871
 20
-62.30901390409107
 30
0.0
 10
427.8886501277225
 20
-62.49653950698839
 30
0.0
 10
427.8882588116262
 20
-63.02262544660838
 30
0.0
 10
427.8878593465332
 20
-63.9208654059035
 30
0.0
 10
427.8874663004623
 20
-65.11505831634249
 30
0.0
 10
427.8870812784683
 20
-66.61352991911304
 30
0.0
 10
427.8867030263307
 20
-68.41288842276424
 30
0.0
 10
427.8863331719074
 20
-70.50740336412784
 30
0.0
 10
427.8859727604831
 20
-72.89024550538184
 30
0.0
 10
427.8856230058468
 20
-75.55354492768131
 30
0.0
 10
427.885285050675
 20
-78.48847887537077
 30
0.0
 10
427.8849600155466
 20
-81.68530749156174
 30
0.0
 10
427.884648977132
 20
-85.13341377365577
 30
0.0
 10
427.8843529677329
 20
-88.8213411900203
 30
0.0
 10
427.8840729701768
 20
-92.73683340067277
 30
0.0
 10
427.8838099145614
 20
-96.8668758283405
 30
0.0
 10
427.8835646749114
 20
-101.1977394559353
 30
0.0
 10
427.8833380662186
 20
-105.7150267964063
 30
0.0
 10
427.8831308415802
 20
-110.4037199790151
 30
0.0
 10
427.882943689983
 20
-115.2482308186671
 30
0.0
 10
427.8827772327748
 20
-120.2324527757858
 30
0.0
 10
427.8826320261083
 20
-125.3398144706373
 30
0.0
 10
427.882508542187
 20
-130.5533352486392
 30
0.0
 10
427.8824072307369
 20
-135.8556801362664
 30
0.0
 10
427.8823282821983
 20
-141.2292232705537
 30
0.0
 10
427.8822725052702
 20
-146.6560850288335
 30
0.0
 10
427.8822387355154
 20
-152.0091004454285
 30
0.0
 10
427.8822346691767
 20
-155.5520369683311
 30
0.0
 10
427.8822326988461
 20
-157.2687549037245
 30
0.0
  0
LINE
  5
BC
330
1F
100
AcDbEntity
  8
0
  6
Continuous
 62
     7
370
    25
100
AcDbLine
 10
446.8822326987999
 20
-282.1717962949
 30
0.0
 11
446.8822326987999
 21
-178.2017962949
 31
0.0
  0
LINE
  5
BD
330
1F
100
AcDbEntity
  8
0
  6
Continuous
 62
     7
370
    25
100
AcDbLine
 10
427.8822326987999
 20
-157.2687549037
 30
0.0
 11
427.8822326987999
 21
-159.2017962949
 31
0.0
  0
LINE
  5
BE
330
1F
100
AcDbEntity
  8
0
  6
Continuous
 62
     7
370
    25
100
AcDbLine
 10
427.8822326987999
 20
-178.2017962949
 30
0.0
 11
427.8822326987999
 21
-282.1717962949
 31
0.0
  0
LINE
  5
BF
330
1F
100
AcDbEntity
  8
0
  6
Continuous
 62
     7
370
    25
100
AcDbLine
 10
318.6322326988
 20
-320.1717962949
 30
0.0
 11
318.6322326988
 21
-285.1717962949
 31
0.0
  0
LINE
  5
C0
330
1F
100
AcDbEntity
  8
0
  6
Continuous
 62
     7
370
    25
100
AcDbLine
 10
278.6322326988
 20
-298.2003966219
 30
0.0
 11
278.6322326988
 21
-320.1717962949
 31
0.0
  0
LINE
  5
C1
330
1F
100
AcDbEntity
  8
0
  6
Continuous
 62
     7
370
    25
100
AcDbLine
 10
278.6322326988
 20
-285.1717962949
 30
0.0
 11
278.6322326988
 21
-290.1478450594
 31
0.0
  0
LINE
  5
C2
330
1F
100
AcDbEntity
  8
0
  6
Continuous
 62
     7
370
    25
100
AcDbLine
 10
238.7937086821
 20
-298.1717962949
 30
0.0
 11
278.6184118481001
 21
-298.1717962949
 31
0.0
  0
LINE
  5
C3
330
1F
100
AcDbEntity
  8
0
  6
Continuous
 62
     7
370
    25
100
AcDbLine
 10
278.6184118481001
 20
-290.1717962949
 30
0.0
 11
238.7937086821
 21
-290.1717962949
 31
0.0
  0
LINE
  5
C4
330
1F
100
AcDbEntity
  8
0
  6
Continuous
 62
     7
370
    25
100
AcDbLine
 10
278.618414052
 20
-298.1717959996
 30
0.0
 11
278.6322555226
 21
-298.1680871847
 31
0.0
  0
LINE
  5
C5
330
1F
100
AcDbEntity
  8
0
  6
Continuous
 62
     7
370
    25
100
AcDbLine
 10
278.6322555226
 20
-290.1755054051
 30
0.0
 11
278.618414052
 21
-290.1717965902
 31
0.0
  0
LINE
  5
C6
330
1F
100
AcDbEntity
  8
0
  6
Continuous
 62
     7
370
    25
100
AcDbLine
 10
593.8822326987999
 20
-325.6717962949
 30
0.0
 11
593.8822326987999
 21
-320.1717962949
 31
0.0
  0
LINE
  5
C7
330
1F
100
AcDbEntity
  8
0
  6
Continuous
 62
     7
370
    25
100
AcDbLine
 10
558.3822326987999
 20
-320.1717962949
 30
0.0
 11
558.3822326987999
 21
-325.6717962949
 31
0.0
  0
LINE
  5
C8
330
1F
100
AcDbEntity
  8
0
  6
Continuous
 62
     7
370
    25
100
AcDbLine
 10
603.1322326987999
 20
-328.1717962949
 30
0.0
 11
603.1322326987999
 21
-325.6717962949
 31
0.0
  0
LINE
  5
C9
330
1F
100
AcDbEntity
  8
0
  6
Continuous
 62
     7
370
    25
100
AcDbLine
 10
549.1322326987999
 20
-325.6717962949
 30
0.0
 11
549.1322326987999
 21
-328.1717962949
 31
0.0
  0
LINE
  5
CA
330
1F
100
AcDbEntity
  8
0
  6
Continuous
 62
     7
370
    25
100
AcDbLine
 10
596.1322326987999
 20
-290.1478450594
 30
0.0
 11
596.1322326987999
 21
-285.1717962949
 31
0.0
  0
LINE
  5
CB
330
1F
100
AcDbEntity
  8
0
  6
Continuous
 62
     7
370
    25
100
AcDbLine
 10
596.1322326987999
 20
-320.1717962949
 30
0.0
 11
596.1322326987999
 21
-298.2003966219
 31
0.0
  0
LINE
  5
CC
330
1F
100
AcDbEntity
  8
0
  6
Continuous
 62
     7
370
    25
100
AcDbLine
 10
556.1322326987999
 20
-285.1717962949
 30
0.0
 11
556.1322326987999
 21
-320.1717962949
 31
0.0
  0
LINE
  5
CD
330
1F
100
AcDbEntity
  8
0
  6
Continuous
 62
     7
370
    25
100
AcDbLine
 10
596.1460513456
 20
-290.1717965902
 30
0.0
 11
596.1322098751
 21
-290.1755054051
 31
0.0
  0
LINE
  5
CE
330
1F
100
AcDbEntity
  8
0
  6
Continuous
 62
     7
370
    25
100
AcDbLine
 10
596.1322098751
 20
-298.1680871847
 30
0.0
 11
596.1460513456
 21
-298.1717959996
 31
0.0
  0
LINE
  5
CF
330
1F
100
AcDbEntity
  8
0
  6
Continuous
 62
     7
370
    25
100
AcDbLine
 10
635.9707567156
 20
-290.1717962949
 30
0.0
 11
596.1460535496
 21
-290.1717962949
 31
0.0
  0
LINE
  5
D0
330
1F
100
AcDbEntity
  8
0
  6
Continuous
 62
     7
370
    25
100
AcDbLine
 10
596.1460535496
 20
-298.1717962949
 30
0.0
 11
635.9707567156
 21
-298.1717962949
 31
0.0
  0
ARC
  5
D1
330
1F
100
AcDbEntity
  8
0
  6
Continuous
 62
     7
370
    25
100
AcDbCircle
 10
464.0822326988
 20
-319.4717962949
 30
0.0
 40
0.3000000000001251
100
AcDbArc
 50
0.0
 51
90.0
  0
ARC
  5
D2
330
1F
100
AcDbEntity
  8
0
  6
Continuous
 62
     7
370
    25
100
AcDbCircle
 10
410.6822326987999
 20
-319.4717962949
 30
0.0
 40
0.3000000000001251
100
AcDbArc
 50
90.0
 51
180.0
  0
LINE
  5
D3
330
1F
100
AcDbEntity
  8
0
  6
Continuous
 62
     7
370
    25
100
AcDbLine
 10
464.3822326987999
 20
-328.1717962949
 30
0.0
 11
464.3822326987999
 21
-319.4717962949
 31
0.0
  0
LINE
  5
D4
330
1F
100
AcDbEntity
  8
0
  6
Continuous
 62
     7
370
    25
100
AcDbLine
 10
410.3822326987999
 20
-319.4717962949
 30
0.0
 11
410.3822326987999
 21
-328.1717962949
 31
0.0
  0
ARC
  5
D5
330
1F
100
AcDbEntity
  8
0
  6
Continuous
 62
     7
370
    25
100
AcDbCircle
 10
455.3822326987999
 20
-317.1717962949
 30
0.0
 40
2.0
100
AcDbArc
 50
180.0
 51
270.0
  0
ARC
  5
D6
330
1F
100
AcDbEntity
  8
0
  6
Continuous
 62
     7
370
    25
100
AcDbCircle
 10
419.3822326987999
 20
-317.1717962949
 30
0.0
 40
2.0
100
AcDbArc
 50
270.0
 51
0.0
  0
LINE
  5
D7
330
1F
100
AcDbEntity
  8
0
  6
Continuous
 62
     7
370
    25
100
AcDbLine
 10
453.3822326988
 20
-317.1717962949
 30
0.0
 11
453.3822326988
 21
-282.3717962949
 31
0.0
  0
LINE
  5
D8
330
1F
100
AcDbEntity
  8
0
  6
Continuous
 62
     7
370
    25
100
AcDbLine
 10
421.3822326987999
 20
-282.3717962949
 30
0.0
 11
421.3822326987999
 21
-317.1717962949
 31
0.0
  0
ARC
  5
D9
330
1F
100
AcDbEntity
  8
0
  6
Continuous
 62
     7
370
    25
100
AcDbCircle
 10
453.1822326987999
 20
-282.3717962949
 30
0.0
 40
0.2000000000000455
100
AcDbArc
 50
0.0
 51
90.0
  0
ARC
  5
DA
330
1F
100
AcDbEntity
  8
0
  6
Continuous
 62
     7
370
    25
100
AcDbCircle
 10
421.5822326988
 20
-282.3717962949
 30
0.0
 40
0.2000000000000455
100
AcDbArc
 50
90.0
 51
180.0
  0
LINE
  5
DB
330
1F
100
AcDbEntity
  8
0
  6
Continuous
 62
     7
370
    25
100
AcDbLine
 10
325.6322326988
 20
-328.1717962949
 30
0.0
 11
325.6322326988
 21
-325.6717962949
 31
0.0
  0
LINE
  5
DC
330
1F
100
AcDbEntity
  8
0
  6
Continuous
 62
     7
370
    25
100
AcDbLine
 10
271.6322326988
 20
-325.6717962949
 30
0.0
 11
271.6322326988
 21
-328.1717962949
 31
0.0
  0
LINE
  5
DD
330
1F
100
AcDbEntity
  8
0
  6
Continuous
 62
     7
370
    25
100
AcDbLine
 10
316.3822326988
 20
-325.6717962949
 30
0.0
 11
316.3822326988
 21
-320.1717962949
 31
0.0
  0
LINE
  5
DE
330
1F
100
AcDbEntity
  8
0
  6
Continuous
 62
     7
370
    25
100
AcDbLine
 10
280.8822326988
 20
-320.1717962949
 30
0.0
 11
280.8822326988
 21
-325.6717962949
 31
0.0
  0
LINE
  5
DF
330
1F
100
AcDbEntity
  8
0
  6
Continuous
 62
     7
370
    25
100
AcDbLine
 10
446.9072326987999
 20
-159.2017962949
 30
0.0
 11
427.8572326987999
 21
-159.2017962949
 31
0.0
  0
LINE
  5
E0
330
1F
100
AcDbEntity
  8
0
  6
Continuous
 62
     7
370
    25
100
AcDbLine
 10
446.9072326987999
 20
-178.2017962949
 30
0.0
 11
427.8572326987999
 21
-178.2017962949
 31
0.0
  0
SPLINE
  5
E1
330
1F
100
AcDbEntity
  8
0
  6
Continuous
 62
     7
370
    25
100
AcDbSpline
210
0.0
220
0.0
230
1.0
 70
    24
 71
     3
 72
    15
 73
    11
 74
     0
 42
0.00000001
 43
0.0000000001
 40
0.0
 40
0.0
 40
0.0
 40
0.0
 40
0.1421664497355684
 40
0.2843334993307622
 40
0.4264872852400551
 40
0.5686351332670565
 40
0.7107916068548701
 40
0.8529686292478379
 40
0.9951713560284055
 40
1.0
 40
1.0
 40
1.0
 40
1.0
 10
444.2223172262449
 20
-159.2017962948851
 30
0.0
 10
443.4039642497856
 20
-159.201796294885
 30
0.0
 10
441.767254843894
 20
-159.201796294885
 30
0.0
 10
438.6137653875724
 20
-159.2017962948851
 30
0.0
 10
435.3760150598211
 20
-159.201796294885
 30
0.0
 10
432.3601404985906
 20
-159.2017962948851
 30
0.0
 10
429.8828692088503
 20
-159.201796294885
 30
0.0
 10
428.3742287026556
 20
-159.2017962948851
 30
0.0
 10
427.7298261047437
 20
-159.2017962948851
 30
0.0
 10
427.9078410799278
 20
-159.201796294885
 30
0.0
 10
427.9136872536551
 20
-159.2017962948851
 30
0.0
  0
SPLINE
  5
E2
330
1F
100
AcDbEntity
  8
0
  6
Continuous
 62
     7
370
    25
100
AcDbSpline
210
0.0
220
0.0
230
1.0
 70
    24
 71
     3
 72
    10
 73
     6
 74
     0
 42
0.00000001
 43
0.0000000001
 40
0.0
 40
0.0
 40
0.0
 40
0.0
 40
0.2881862412444152
 40
0.7259305788860734
 40
1.0
 40
1.0
 40
1.0
 40
1.0
 10
446.774816065585
 20
-159.201796294885
 30
0.0
 10
446.7773254146201
 20
-159.201796294885
 30
0.0
 10
446.7836463728643
 20
-159.2017962948851
 30
0.0
 10
445.7678872792134
 20
-159.201796294885
 30
0.0
 10
444.6519761334636
 20
-159.2017962948851
 30
0.0
 10
444.2223172262449
 20
-159.2017962948851
 30
0.0
  0
LINE
  5
E3
330
1F
100
AcDbEntity
  8
0
  6
Continuous
 62
     7
370
    25
100
AcDbLine
 10
318.6322326988
 20
-320.1717962949
 30
0.0
 11
278.6322326988
 21
-320.1717962949
 31
0.0
  0
SPLINE
  5
E4
330
1F
100
AcDbEntity
  8
0
  6
Continuous
 62
     7
370
    25
100
AcDbSpline
210
0.0
220
0.0
230
1.0
 70
     8
 71
     3
 72
    17
 73
    13
 74
     0
 42
0.00000001
 43
0.0000000001
 40
0.0
 40
0.0
 40
0.0
 40
0.0
 40
0.0698137418697748
 40
0.1702554404389946
 40
0.2734382876458313
 40
0.3811533518478502
 40
0.4918715166971421
 40
0.6031693312217133
 40
0.7144617720784292
 40
0.8254490935789757
 40
0.9337260139994143
 40
1.0
 40
1.0
 40
1.0
 40
1.0
 10
278.6409267602122
 20
-298.2003966218723
 30
0.0
 10
278.6412621581381
 20
-298.1967847723989
 30
0.0
 10
278.6420800962702
 20
-298.1879765205213
 30
0.0
 10
278.7313627438805
 20
-297.6914037841871
 30
0.0
 10
278.8591772842039
 20
-296.8302272110629
 30
0.0
 10
278.9792444575051
 20
-295.6463419564162
 30
0.0
 10
279.0326330678188
 20
-294.2744002926445
 30
0.0
 10
278.9919605036261
 20
-292.8758472198315
 30
0.0
 10
278.8733175517011
 20
-291.6170834720429
 30
0.0
 10
278.7358603752552
 20
-290.6751652905686
 30
0.0
 10
278.6405572405653
 20
-290.1477826731892
 30
0.0
 10
278.6414653287659
 20
-290.1478278909877
 30
0.0
 10
278.641810114284
 20
-290.1478450594103
 30
0.0
  0
LINE
  5
E5
330
1F
100
AcDbEntity
  8
0
  6
Continuous
 62
     7
370
    25
100
AcDbLine
 10
318.6322326988
 20
-285.1717962949
 30
0.0
 11
278.6322326988
 21
-285.1717962949
 31
0.0
  0
LWPOLYLINE
  5
E6
330
1F
100
AcDbEntity
  8
0
  6
Continuous
 62
     7
370
    25
100
AcDbPolyline
 90
       13
 70
   128
 43
0.0
 10
278.6184118481001
 20
-298.1717962949
 10
278.6178134097
 20
-298.1499664276
 10
278.6161585346
 20
-297.8502179965
 10
278.6147038764
 20
-297.2236256547
 10
278.6135786876
 20
-296.3258648815
 10
278.6128829464
 20
-295.2367056615
 10
278.6126784724
 20
-294.0529245709
 10
278.612983434
 20
-292.8797057547
 10
278.613770734
 20
-291.8212948532
 10
278.6149704173
 20
-290.9717363199
 10
278.6164758869
 20
-290.4065171585
 10
278.6181533751
 20
-290.175859572
 10
278.6184118481001
 20
-290.1717962949
  0
LWPOLYLINE
  5
E7
330
1F
100
AcDbEntity
  8
0
  6
Continuous
 62
     7
370
    25
100
AcDbPolyline
 90
       13
 70
   128
 43
0.0
 10
238.7937086821
 20
-298.1717962949
 10
238.7931102437
 20
-298.1499664276
 10
238.7914553686
 20
-297.8502179965
 10
238.7900007103
 20
-297.2236256547
 10
238.7888755216
 20
-296.3258648815
 10
238.7881797804
 20
-295.2367056615
 10
238.7879753064
 20
-294.0529245709
 10
238.788280268
 20
-292.8797057547
 10
238.789067568
 20
-291.8212948532
 10
238.7902672513
 20
-290.9717363199
 10
238.7917727209
 20
-290.4065171585
 10
238.7934502091
 20
-290.175859572
 10
238.7937086821
 20
-290.1717962949
  0
LINE
  5
E8
330
1F
100
AcDbEntity
  8
0
  6
Continuous
 62
     7
370
    25
100
AcDbLine
 10
569.4683030206999
 20
-328.1717962949
 30
0.0
 11
603.1322326987999
 21
-328.1717962949
 31
0.0
  0
LINE
  5
E9
330
1F
100
AcDbEntity
  8
0
  6
Continuous
 62
     7
370
    25
100
AcDbLine
 10
549.1322326987999
 20
-328.1717962949
 30
0.0
 11
569.4683030206999
 21
-328.1717962949
 31
0.0
  0
LINE
  5
EA
330
1F
100
AcDbEntity
  8
0
  6
Continuous
 62
     7
370
    25
100
AcDbLine
 10
569.4683030206999
 20
-325.6717962949
 30
0.0
 11
603.1322326987999
 21
-325.6717962949
 31
0.0
  0
LINE
  5
EB
330
1F
100
AcDbEntity
  8
0
  6
Continuous
 62
     7
370
    25
100
AcDbLine
 10
549.1322326987999
 20
-325.6717962949
 30
0.0
 11
569.4683030206999
 21
-325.6717962949
 31
0.0
  0
SPLINE
  5
EC
330
1F
100
AcDbEntity
  8
0
  6
Continuous
 62
     7
370
    25
100
AcDbSpline
210
0.0
220
0.0
230
1.0
 70
     8
 71
     3
 72
    17
 73
    13
 74
     0
 42
0.00000001
 43
0.0000000001
 40
0.0
 40
0.0
 40
0.0
 40
0.0
 40
0.0683976789825721
 40
0.1668020743237714
 40
0.2678920183769846
 40
0.3734222504711119
 40
0.4818946699988777
 40
0.5909349819121578
 40
0.6999700291540553
 40
0.8087061459101242
 40
0.9147868378454319
 40
1.0
 40
1.0
 40
1.0
 40
1.0
 10
596.123538637472
 20
-298.2003966218723
 30
0.0
 10
596.1232032284917
 20
-298.1967848326394
 30
0.0
 10
596.1223852634017
 20
-298.1879767276711
 30
0.0
 10
596.0331028892528
 20
-297.6914025010896
 30
0.0
 10
595.9052871979584
 20
-296.8302322002653
 30
0.0
 10
595.7852245615744
 20
-295.6463222213622
 30
0.0
 10
595.7318183853573
 20
-294.274476284246
 30
0.0
 10
595.7725571841456
 20
-292.8755622612339
 30
0.0
 10
595.8909529815946
 20
-291.6181453995566
 30
0.0
 10
596.0293225540779
 20
-290.67125505019
 30
0.0
 10
596.128428939495
 20
-290.1225647460895
 30
0.0
 10
596.1260544379564
 20
-290.130019690862
 30
0.0
 10
596.1249966999251
 20
-290.133340547252
 30
0.0
  0
LINE
  5
ED
330
1F
100
AcDbEntity
  8
0
  6
Continuous
 62
     7
370
    25
100
AcDbLine
 10
556.1322326987999
 20
-285.1717962949
 30
0.0
 11
596.1322326987999
 21
-285.1717962949
 31
0.0
  0
LINE
  5
EE
330
1F
100
AcDbEntity
  8
0
  6
Continuous
 62
     7
370
    25
100
AcDbLine
 10
556.1322326987999
 20
-320.1717962949
 30
0.0
 11
596.1322326987999
 21
-320.1717962949
 31
0.0
  0
LWPOLYLINE
  5
EF
330
1F
100
AcDbEntity
  8
0
  6
Continuous
 62
     7
370
    25
100
AcDbPolyline
 90
       13
 70
   128
 43
0.0
 10
596.1460513456
 20
-298.1717959996
 10
596.146651988
 20
-298.1499664276
 10
596.148306863
 20
-297.8502179965
 10
596.1497615213
 20
-297.2236256547
 10
596.15088671
 20
-296.3258648815
 10
596.1515824512
 20
-295.2367056615
 10
596.1517869252999
 20
-294.0529245709
 10
596.1514819637
 20
-292.8797057547
 10
596.1506946637
 20
-291.8212948532
 10
596.1494949804
 20
-290.9717363199
 10
596.1479895107999
 20
-290.4065171585
 10
596.1463120226
 20
-290.175859572
 10
596.1460513456
 20
-290.1717965902
  0
LWPOLYLINE
  5
F0
330
1F
100
AcDbEntity
  8
0
  6
Continuous
 62
     7
370
    25
100
AcDbPolyline
 90
       13
 70
   128
 43
0.0
 10
635.9707567156
 20
-298.1717962949
 10
635.9713551539999
 20
-298.1499664276
 10
635.9730100291
 20
-297.8502179965
 10
635.9744646873999
 20
-297.2236256547
 10
635.9755898761
 20
-296.3258648815
 10
635.9762856173
 20
-295.2367056615
 10
635.9764900912999
 20
-294.0529245709
 10
635.9761851296999
 20
-292.8797057547
 10
635.9753978297
 20
-291.8212948532
 10
635.9741981464
 20
-290.9717363199
 10
635.9726926767999
 20
-290.4065171585
 10
635.9710151885999
 20
-290.175859572
 10
635.9707567156
 20
-290.1717962949
  0
LINE
  5
F1
330
1F
100
AcDbEntity
  8
0
  6
Continuous
 62
     7
370
    25
100
AcDbLine
 10
437.3822326987999
 20
-319.1717962949
 30
0.0
 11
410.6822326987999
 21
-319.1717962949
 31
0.0
  0
LINE
  5
F2
330
1F
100
AcDbEntity
  8
0
  6
Continuous
 62
     7
370
    25
100
AcDbLine
 10
464.0822326988
 20
-319.1717962949
 30
0.0
 11
437.3822326987999
 21
-319.1717962949
 31
0.0
  0
LINE
  5
F3
330
1F
100
AcDbEntity
  8
0
  6
Continuous
 62
     7
370
    25
100
AcDbLine
 10
437.3822326987999
 20
-328.1717962949
 30
0.0
 11
410.3822326987999
 21
-328.1717962949
 31
0.0
  0
LINE
  5
F4
330
1F
100
AcDbEntity
  8
0
  6
Continuous
 62
     7
370
    25
100
AcDbLine
 10
464.3822326987999
 20
-328.1717962949
 30
0.0
 11
437.3822326987999
 21
-328.1717962949
 31
0.0
  0
LINE
  5
F5
330
1F
100
AcDbEntity
  8
0
  6
Continuous
 62
     7
370
    25
100
AcDbLine
 10
437.3822326987999
 20
-282.1717962949
 30
0.0
 11
453.1822326987999
 21
-282.1717962949
 31
0.0
  0
LINE
  5
F6
330
1F
100
AcDbEntity
  8
0
  6
Continuous
 62
     7
370
    25
100
AcDbLine
 10
421.5822326988
 20
-282.1717962949
 30
0.0
 11
437.3822326987999
 21
-282.1717962949
 31
0.0
  0
LINE
  5
F7
330
1F
100
AcDbEntity
  8
0
  6
Continuous
 62
     7
370
    25
100
AcDbLine
 10
305.296162377
 20
-328.1717962949
 30
0.0
 11
271.6322326988
 21
-328.1717962949
 31
0.0
  0
LINE
  5
F8
330
1F
100
AcDbEntity
  8
0
  6
Continuous
 62
     7
370
    25
100
AcDbLine
 10
325.6322326988
 20
-328.1717962949
 30
0.0
 11
305.296162377
 21
-328.1717962949
 31
0.0
  0
LINE
  5
F9
330
1F
100
AcDbEntity
  8
0
  6
Continuous
 62
     7
370
    25
100
AcDbLine
 10
305.296162377
 20
-325.6717962949
 30
0.0
 11
271.6322326988
 21
-325.6717962949
 31
0.0
  0
LINE
  5
FA
330
1F
100
AcDbEntity
  8
0
  6
Continuous
 62
     7
370
    25
100
AcDbLine
 10
325.6322326988
 20
-325.6717962949
 30
0.0
 11
305.296162377
 21
-325.6717962949
 31
0.0
  0
DIMENSION
  5
FB
102
{ACAD_XDICTIONARY
360
1FA
102
}
330
1F
100
AcDbEntity
  8
DIMENSION
100
AcDbDimension
280
     0
  2
*D17
 10
325.6322326988
 20
-362.1717962949
 30
0.0
 11
296.0512048982
 21
-362.1717962949
 31
0.0
 70
   160
  1
%%c<>
 71
     2
 42
54.0
 73
     0
 74
     0
 75
     0
  3
RG Dimension Lines
100
AcDbAlignedDimension
 13
271.6322326988
 23
-328.1717962949
 33
0.0
 14
325.6322326988
 24
-328.1717962949
 34
0.0
100
AcDbRotatedDimension
1001
AcadAnnotative
1000
AnnotativeData
1002
{
1070
     1
1070
     1
1002
}
  0
DIMENSION
  5
104
102
{ACAD_XDICTIONARY
360
1EC
102
}
330
1F
100
AcDbEntity
  8
DIMENSION
100
AcDbDimension
280
     0
  2
*D16
 10
464.3822326987999
 20
-362.1717962949
 30
0.0
 11
437.6961782192999
 21
-362.1717962949
 31
0.0
 70
   160
  1
%%c<>
 71
     2
 42
54.0
 73
     0
 74
     0
 75
     0
  3
RG Dimension Lines
100
AcDbAlignedDimension
 13
410.3822326987999
 23
-328.1717962949
 33
0.0
 14
464.3822326987999
 24
-328.1717962949
 34
0.0
100
AcDbRotatedDimension
1001
AcadAnnotative
1000
AnnotativeData
1002
{
1070
     1
1070
     1
1002
}
  0
DIMENSION
  5
10D
102
{ACAD_XDICTIONARY
360
208
102
}
330
1F
100
AcDbEntity
  8
DIMENSION
100
AcDbDimension
280
     0
  2
*D18
 10
596.1322326987999
 20
-252.5014350992
 30
0.0
 11
572.7890414887999
 21
-252.5014350992
 31
0.0
 70
   160
  1
%%c<>
 71
     2
 42
40.0
 73
     0
 74
     0
 75
     0
  3
RG Dimension Lines
100
AcDbAlignedDimension
 13
556.1322326987999
 23
-285.1717962949
 33
0.0
 14
596.1322326987999
 24
-285.1717962949
 34
0.0
100
AcDbRotatedDimension
1001
AcadAnnotative
1000
AnnotativeData
1002
{
1070
     1
1070
     1
1002
}
  0
ARC
  5
116
330
1F
100
AcDbEntity
  8
0
  6
Continuous
 62
     7
370
    25
100
AcDbCircle
 10
57.8909119039
 20
215.9830605551
 30
0.0
 40
9.500000000000015
100
AcDbArc
 50
270.0041825059
 51
90.0041825059
  0
LINE
  5
117
330
1F
100
AcDbEntity
  8
0
  6
Continuous
 62
     7
370
    25
100
AcDbLine
 10
-132.1083941041
 20
206.4691908656
 30
0.0
 11
57.8916053897
 21
206.4830605804
 31
0.0
  0
LINE
  5
118
330
1F
100
AcDbEntity
  8
0
  6
Continuous
 62
     7
370
    25
100
AcDbLine
 10
57.8902184182
 20
225.4830605298
 30
0.0
 11
-132.1097810756
 21
225.469190815
 31
0.0
  0
LINE
  5
119
330
1F
100
AcDbEntity
  8
0
  6
Continuous
 62
     7
370
    25
100
AcDbLine
 10
-128.1377910962
 20
57.1996340805
 30
0.0
 11
-128.2434735394
 21
57.5963208154
 31
0.0
  0
LINE
  5
11A
330
1F
100
AcDbEntity
  8
0
  6
Continuous
 62
     7
370
    25
100
AcDbLine
 10
-136.0309631841
 20
57.60748791010001
 30
0.0
 11
-136.137782871
 21
57.2111058987
 31
0.0
  0
LINE
  5
11B
330
1F
100
AcDbEntity
  8
0
  6
Continuous
 62
     7
370
    25
100
AcDbLine
 10
-128.1948988743
 20
17.3749309145
 30
0.0
 11
-128.1377910962
 21
57.1996340805
 31
0.0
  0
LINE
  5
11C
330
1F
100
AcDbEntity
  8
0
  6
Continuous
 62
     7
370
    25
100
AcDbLine
 10
-136.137782871
 20
57.2111058987
 30
0.0
 11
-136.1948906491
 21
17.3864027327
 31
0.0
  0
LINE
  5
11D
330
1F
100
AcDbEntity
  8
0
  6
Continuous
 62
     7
370
    25
100
AcDbLine
 10
-136.1948906491
 20
414.551978948
 30
0.0
 11
-136.137782871
 21
374.7272757819
 31
0.0
  0
LINE
  5
11E
330
1F
100
AcDbEntity
  8
0
  6
Continuous
 62
     7
370
    25
100
AcDbLine
 10
-128.1377910962
 20
374.7387476001
 30
0.0
 11
-128.1948988743
 21
414.5634507662
 31
0.0
  0
LINE
  5
11F
330
1F
100
AcDbEntity
  8
0
  6
Continuous
 62
     7
370
    25
100
AcDbLine
 10
-136.137782871
 20
374.7272757819
 30
0.0
 11
-136.0309631841
 21
374.3308937705001
 31
0.0
  0
LINE
  5
120
330
1F
100
AcDbEntity
  8
0
  6
Continuous
 62
     7
370
    25
100
AcDbLine
 10
-128.2434735394
 20
374.3420608652
 30
0.0
 11
-128.1377910962
 21
374.7387476001
 31
0.0
  0
LWPOLYLINE
  5
121
330
1F
100
AcDbEntity
  8
0
  6
Continuous
 62
     7
370
    25
100
AcDbPolyline
 90
        3
 70
   128
 43
0.0
 10
57.42988319770001
 20
225.483026926
 10
57.8909124102
 20
225.4941908403
 10
59.734375956
 20
225.3140967872
  0
LWPOLYLINE
  5
122
330
1F
100
AcDbEntity
  8
0
  6
Continuous
 62
     7
370
    25
100
AcDbPolyline
 90
        3
 70
   128
 43
0.0
 10
58.2426134927
 20
206.45068616
 10
57.8909124102
 20
206.4441908403
 10
57.0319786811
 20
206.4829978289
  0
ARC
  5
123
330
1F
100
AcDbEntity
  8
0
  6
Continuous
 62
     7
370
    25
100
AcDbCircle
 10
-132.1090875898
 20
215.9691908403
 30
0.0
 40
9.499999999999987
100
AcDbArc
 50
90.0041825059
 51
270.0041825059
  0
CIRCLE
  5
124
330
1F
100
AcDbEntity
  8
0
  6
Continuous
 62
     7
370
    25
100
AcDbCircle
 10
-132.1090875898
 20
77.2191908403
 30
0.0
 40
20.00000000000002
  0
LINE
  5
125
330
1F
100
AcDbEntity
  8
0
  6
Continuous
 62
     7
370
    25
100
AcDbLine
 10
-135.1495495969
 20
57.20968879319999
 30
0.0
 11
-136.137782871
 21
57.2111058987
 31
0.0
  0
LINE
  5
126
330
1F
100
AcDbEntity
  8
0
  6
Continuous
 62
     7
370
    25
100
AcDbLine
 10
-128.1377910962
 20
57.1996340805
 30
0.0
 11
-135.1495495969
 21
57.20968879319999
 31
0.0
  0
LINE
  5
127
330
1F
100
AcDbEntity
  8
0
  6
Continuous
 62
     7
370
    25
100
AcDbLine
 10
-135.2066573749
 20
17.3849856272
 30
0.0
 11
-136.1948906491
 21
17.3864027327
 31
0.0
  0
LINE
  5
128
330
1F
100
AcDbEntity
  8
0
  6
Continuous
 62
     7
370
    25
100
AcDbLine
 10
-128.1948988743
 20
17.3749309145
 30
0.0
 11
-135.2066573749
 21
17.3849856272
 31
0.0
  0
ARC
  5
129
330
1F
100
AcDbEntity
  8
0
  6
Continuous
 62
     7
370
    25
100
AcDbCircle
 10
-132.1090875898
 20
354.7191908403
 30
0.0
 40
26.99999999999999
100
AcDbArc
 50
345.711044947
 51
81.56253661980001
  0
ARC
  5
12A
330
1F
100
AcDbEntity
  8
0
  6
Continuous
 62
     7
370
    25
100
AcDbCircle
 10
-132.1090875898
 20
354.7191908403
 30
0.0
 40
26.99999999999999
100
AcDbArc
 50
98.6017851281
 51
345.711044947
  0
CIRCLE
  5
12B
330
1F
100
AcDbEntity
  8
0
  6
Continuous
 62
     7
370
    25
100
AcDbCircle
 10
-132.1090875898
 20
354.7191908403
 30
0.0
 40
20.00000000000002
  0
LINE
  5
12C
330
1F
100
AcDbEntity
  8
0
  6
Continuous
 62
     7
370
    25
100
AcDbLine
 10
-135.1495495969
 20
374.7286928875
 30
0.0
 11
-136.137782871
 21
374.7272757819
 31
0.0
  0
LINE
  5
12D
330
1F
100
AcDbEntity
  8
0
  6
Continuous
 62
     7
370
    25
100
AcDbLine
 10
-128.1377910962
 20
374.7387476001
 30
0.0
 11
-135.1495495969
 21
374.7286928875
 31
0.0
  0
LINE
  5
12E
330
1F
100
AcDbEntity
  8
0
  6
Continuous
 62
     7
370
    25
100
AcDbLine
 10
-135.2066573749
 20
414.5533960534999
 30
0.0
 11
-136.1948906491
 21
414.551978948
 31
0.0
  0
LINE
  5
12F
330
1F
100
AcDbEntity
  8
0
  6
Continuous
 62
     7
370
    25
100
AcDbLine
 10
-128.1948988743
 20
414.5634507662
 30
0.0
 11
-135.2066573749
 21
414.5533960534999
 31
0.0
  0
ARC
  5
130
330
1F
100
AcDbEntity
  8
0
  6
Continuous
 62
     7
370
    25
100
AcDbCircle
 10
-132.1090875898
 20
215.9691908403
 30
0.0
 40
16.00000000000004
100
AcDbArc
 50
36.42775614820001
 51
323.5806088636
  0
ARC
  5
131
330
1F
100
AcDbEntity
  8
0
  6
Continuous
 62
     7
370
    25
100
AcDbCircle
 10
-132.1090875898
 20
215.9691908403
 30
0.0
 40
9.650000000000023
100
AcDbArc
 50
79.8887659755
 51
280.1195990366
  0
ARC
  5
132
330
1F
100
AcDbEntity
  8
0
  6
Continuous
 62
     7
370
    25
100
AcDbCircle
 10
-132.1090875898
 20
215.9691908403
 30
0.0
 40
27.00000000000002
100
AcDbArc
 50
20.6048070556
 51
339.4035579563
  0
ARC
  5
133
330
1F
100
AcDbEntity
  8
0
  6
Continuous
 62
     7
370
    25
100
AcDbCircle
 10
-132.1090875898
 20
77.2191908403
 30
0.0
 40
26.99999999999999
100
AcDbArc
 50
278.4374633802
 51
14.288955053
  0
ARC
  5
134
330
1F
100
AcDbEntity
  8
0
  6
Continuous
 62
     7
370
    25
100
AcDbCircle
 10
-132.1090875898
 20
77.2191908403
 30
0.0
 40
27.00000000000001
100
AcDbArc
 50
14.288955053
 51
261.3982148719
  0
DIMENSION
  5
135
102
{ACAD_XDICTIONARY
360
218
102
}
330
1F
100
AcDbEntity
  8
DIMENSION
100
AcDbDimension
280
     0
  2
*D19
 10
-128.2225330754882
 20
-1.896066775230974
 30
0.0
 11
-164.7021270382
 21
-1.859051585999999
 31
0.0
 70
   160
  1
%%c<>
 71
     2
 42
7.999999999967485
 73
     0
 74
     0
 75
     0
  3
RG Dimension Lines
100
AcDbAlignedDimension
 13
-136.1948906491
 23
17.3864027327
 33
0.0
 14
-128.1948988743
 24
17.3749309145
 34
0.0
 50
-0.082160874
100
AcDbRotatedDimension
1001
AcadAnnotative
1000
AnnotativeData
1002
{
1070
     1
1070
     1
1002
}
  0
DIMENSION
  5
13F
102
{ACAD_XDICTIONARY
360
228
102
}
330
1F
100
AcDbEntity
  8
DIMENSION
100
AcDbDimension
280
     0
  2
*D20
 10
-171.8974914667667
 20
206.4691908403001
 30
0.0
 11
-185.2308248001
 21
185.1675358787
 31
0.0
 70
   160
  1
%%c<>
 71
     2
 42
19.0
 73
     0
 74
     0
 75
     0
  3
RG Dimension Lines
100
AcDbAlignedDimension
 13
-132.1090875898
 23
225.4691908403
 33
0.0
 14
-132.1090875898
 24
206.4691908403
 34
0.0
 50
90.0
100
AcDbRotatedDimension
1001
AcadAnnotative
1000
AnnotativeData
1002
{
1070
     1
1070
     1
1002
}
  0
DIMENSION
  5
22C
102
{ACAD_XDICTIONARY
360
26F
102
}
330
1F
100
AcDbEntity
  8
DIMENSION
100
AcDbDimension
280
     0
  2
*D24
 10
238.7937086821
 20
-265.7010556050993
 30
0.0
 11
278.71297069045
 21
-257.7010556050993
 31
0.0
 70
    32
 71
     5
 42
79.8385240167
 73
     0
 74
     0
 75
     0
  3
RG Dimension Lines
100
AcDbAlignedDimension
 13
318.6322326988
 23
-285.1717962949
 33
0.0
 14
238.7937086821
 24
-290.1717962949
 34
0.0
100
AcDbRotatedDimension
1001
AcadAnnotative
1000
AnnotativeData
1002
{
1070
     1
1070
     1
1002
}
  0
DIMENSION
  5
239
102
{ACAD_XDICTIONARY
360
280
102
}
330
1F
100
AcDbEntity
  8
DIMENSION
100
AcDbDimension
280
     0
  2
*D25
 10
334.0465500358989
 20
-325.6717962949001
 30
0.0
 11
340.7132167025655
 21
-326.6717962949001
 31
0.0
 70
    33
 71
     5
 42
2.5
 73
     0
 74
     0
 75
     0
  3
RG Dimension Lines
100
AcDbAlignedDimension
 13
325.6322326988
 23
-328.1717962949
 33
0.0
 14
325.6322326988
 24
-325.6717962949
 34
0.0
1001
AcadAnnotative
1000
AnnotativeData
1002
{
1070
     1
1070
     1
1002
}
  0
DIMENSION
  5
249
102
{ACAD_XDICTIONARY
360
290
102
}
330
1F
100
AcDbEntity
  8
DIMENSION
100
AcDbDimension
280
     0
  2
*D26
 10
489.6113657946395
 20
-318.9190601153924
 30
0.0
 11
496.2780324613061
 21
-323.4190601153926
 31
0.0
 70
    32
 71
     5
 42
9.252736179507678
 73
     0
 74
     0
 75
     0
  3
RG Dimension Lines
100
AcDbAlignedDimension
 13
464.3822326987999
 23
-328.1717962949
 33
0.0
 14
464.0822326988
 24
-318.9190601153923
 34
0.0
 50
90.0
100
AcDbRotatedDimension
1001
AcadAnnotative
1000
AnnotativeData
1002
{
1070
     1
1070
     1
1002
}
  0
ENDSEC
  0
SECTION
  2
OBJECTS
  0
DICTIONARY
  5
C
330
0
100
AcDbDictionary
281
     1
  3
ACAD_CIP_PREVIOUS_PRODUCT_INFO
350
189
  3
ACAD_COLOR
350
17E
  3
ACAD_DETAILVIEWSTYLE
350
185
  3
ACAD_GROUP
350
D
  3
ACAD_LAYOUT
350
1A
  3
ACAD_MATERIAL
350
14C
  3
ACAD_MLEADERSTYLE
350
181
  3
ACAD_MLINESTYLE
350
17
  3
ACAD_PLOTSETTINGS
350
19
  3
ACAD_PLOTSTYLENAME
350
E
  3
ACAD_SCALELIST
350
47
  3
ACAD_SECTIONVIEWSTYLE
350
183
  3
ACAD_TABLESTYLE
350
17F
  3
ACAD_VISUALSTYLE
350
165
  3
ACDB_RECOMPOSE_DATA
350
2D5
  3
AcDbVariableDictionary
350
2C9
  0
DICTIONARY
  5
19D
330
2
100
AcDbDictionary
280
     1
281
     1
  3
ACAD_LAYERSTATES
360
19E
  0
DICTIONARY
  5
2B9
330
10
100
AcDbDictionary
280
     1
281
     1
  3
ADSK_XREC_LAYER_RECONCILED
360
2BA
  0
DICTIONARY
  5
2BB
330
73
100
AcDbDictionary
280
     1
281
     1
  3
ADSK_XREC_LAYER_RECONCILED
360
2BC
  0
DICTIONARY
  5
2BD
330
195
100
AcDbDictionary
280
     1
281
     1
  3
ADSK_XREC_LAYER_RECONCILED
360
2BE
  0
DICTIONARY
  5
1DE
330
9B
100
AcDbDictionary
280
     1
281
     1
  3
AcDbContextDataManager
360
1DF
  0
DICTIONARY
  5
1D0
330
A8
100
AcDbDictionary
280
     1
281
     1
  3
AcDbContextDataManager
360
1D1
  0
DICTIONARY
  5
1C2
330
B0
100
AcDbDictionary
280
     1
281
     1
  3
AcDbContextDataManager
360
1C3
  0
DICTIONARY
  5
1FA
330
FB
100
AcDbDictionary
280
     1
281
     1
  3
AcDbContextDataManager
360
1FB
  0
DICTIONARY
  5
1EC
330
104
100
AcDbDictionary
280
     1
281
     1
  3
AcDbContextDataManager
360
1ED
  0
DICTIONARY
  5
208
330
10D
100
AcDbDictionary
280
     1
281
     1
  3
AcDbContextDataManager
360
209
  0
DICTIONARY
  5
218
330
135
100
AcDbDictionary
280
     1
281
     1
  3
AcDbContextDataManager
360
219
  0
DICTIONARY
  5
228
330
13F
100
AcDbDictionary
280
     1
281
     1
  3
AcDbContextDataManager
360
229
  0
DICTIONARY
  5
26F
330
22C
100
AcDbDictionary
280
     1
281
     1
  3
AcDbContextDataManager
360
270
  0
DICTIONARY
  5
280
330
239
100
AcDbDictionary
280
     1
281
     1
  3
AcDbContextDataManager
360
281
  0
DICTIONARY
  5
290
330
249
100
AcDbDictionary
280
     1
281
     1
  3
AcDbContextDataManager
360
291
  0
XRECORD
  5
189
102
{ACAD_REACTORS
330
C
102
}
330
C
100
AcDbXrecord
280
     1
300
ACD
300
2021
300

  0
DICTIONARY
  5
17E
102
{ACAD_REACTORS
330
C
102
}
330
C
100
AcDbDictionary
281
     1
  0
DICTIONARY
  5
185
102
{ACAD_REACTORS
330
C
102
}
330
C
100
AcDbDictionary
281
     1
  3
Metric50
350
186
  0
DICTIONARY
  5
D
102
{ACAD_REACTORS
330
C
102
}
330
C
100
AcDbDictionary
281
     1
  0
DICTIONARY
  5
1A
102
{ACAD_REACTORS
330
C
102
}
330
C
100
AcDbDictionary
281
     1
  3
Layout1
350
1E
  3
Layout2
350
26
  3
Model
350
22
  0
DICTIONARY
  5
14C
102
{ACAD_REACTORS
330
C
102
}
330
C
100
AcDbDictionary
281
     1
  3
ByBlock
350
155
  3
ByLayer
350
14D
  3
Global
350
15D
  0
DICTIONARY
  5
181
102
{ACAD_REACTORS
330
C
102
}
330
C
100
AcDbDictionary
281
     1
  3
Standard
350
182
  0
DICTIONARY
  5
17
102
{ACAD_REACTORS
330
C
102
}
330
C
100
AcDbDictionary
281
     1
  3
Standard
350
18
  0
DICTIONARY
  5
19
102
{ACAD_REACTORS
330
C
102
}
330
C
100
AcDbDictionary
281
     1
  0
ACDBDICTIONARYWDFLT
  5
E
102
{ACAD_REACTORS
330
C
102
}
330
C
100
AcDbDictionary
281
     1
  3
Normal
350
F
100
AcDbDictionaryWithDefault
340
F
  0
DICTIONARY
  5
47
102
{ACAD_REACTORS
330
C
102
}
330
C
100
AcDbDictionary
281
     1
  3
A0
350
48
  3
A1
350
49
  3
A2
350
4A
  3
A3
350
4B
  3
A4
350
4C
  3
A5
350
4D
  3
A6
350
4E
  3
A7
350
4F
  3
A8
350
50
  3
A9
350
51
  3
B0
350
52
  3
B1
350
53
  3
B2
350
54
  3
B3
350
55
  3
B4
350
56
  3
B5
350
57
  3
B6
350
58
  3
B7
350
59
  3
B8
350
5A
  3
B9
350
5B
  3
C0
350
5C
  3
C1
350
5D
  3
C2
350
5E
  3
C3
350
5F
  3
C4
350
60
  3
C5
350
61
  3
C6
350
62
  3
C7
350
63
  3
C8
350
64
  3
C9
350
65
  3
D0
350
66
  3
D1
350
67
  3
D2
350
68
  0
DICTIONARY
  5
183
102
{ACAD_REACTORS
330
C
102
}
330
C
100
AcDbDictionary
281
     1
  3
Metric50
350
184
  0
DICTIONARY
  5
17F
102
{ACAD_REACTORS
330
C
102
}
330
C
100
AcDbDictionary
281
     1
  3
Standard
350
180
  0
DICTIONARY
  5
165
102
{ACAD_REACTORS
330
C
102
}
330
C
100
AcDbDictionary
281
     1
  3
2dWireframe
350
16B
  3
Basic
350
16A
  3
Brighten
350
171
  3
ColorChange
350
175
  3
Conceptual
350
16E
  3
Dim
350
170
  3
EdgeColorOff
350
17D
  3
Facepattern
350
174
  3
Flat
350
166
  3
FlatWithEdges
350
167
  3
Gouraud
350
168
  3
GouraudWithEdges
350
169
  3
Hidden
350
16D
  3
JitterOff
350
17B
  3
Linepattern
350
173
  3
OverhangOff
350
17C
  3
Realistic
350
16F
  3
Shaded
350
17A
  3
Shaded with edges
350
179
  3
Shades of Gray
350
176
  3
Sketchy
350
177
  3
Thicken
350
172
  3
Wireframe
350
16C
  3
X-Ray
350
178
  0
XRECORD
  5
2D5
102
{ACAD_REACTORS
330
C
102
}
330
C
100
AcDbXrecord
280
     1
 90
        1
330
180
  0
DICTIONARY
  5
2C9
102
{ACAD_REACTORS
330
C
102
}
330
C
100
AcDbDictionary
281
     1
  3
CANNOSCALE
350
2CF
  3
CMLEADERSTYLE
350
2CB
  3
CTABLESTYLE
350
2CA
  3
CVIEWDETAILSTYLE
350
2CC
  3
CVIEWSECTIONSTYLE
350
2CD
  3
LAYEREVAL
350
2D1
  3
LAYERNOTIFY
350
2D2
  3
LIGHTINGUNITS
350
2D0
  3
MSLTSCALE
350
2CE
  0
DICTIONARY
  5
19E
102
{ACAD_REACTORS
330
19D
102
}
330
19D
100
AcDbDictionary
281
     1
  0
XRECORD
  5
2BA
102
{ACAD_REACTORS
330
2B9
102
}
330
2B9
100
AcDbXrecord
280
     1
290
     1
  0
XRECORD
  5
2BC
102
{ACAD_REACTORS
330
2BB
102
}
330
2BB
100
AcDbXrecord
280
     1
290
     1
  0
XRECORD
  5
2BE
102
{ACAD_REACTORS
330
2BD
102
}
330
2BD
100
AcDbXrecord
280
     1
290
     1
  0
DICTIONARY
  5
1DF
102
{ACAD_REACTORS
330
1DE
102
}
330
1DE
100
AcDbDictionary
281
     1
  3
ACDB_ANNOTATIONSCALES
350
1E0
  0
DICTIONARY
  5
1D1
102
{ACAD_REACTORS
330
1D0
102
}
330
1D0
100
AcDbDictionary
281
     1
  3
ACDB_ANNOTATIONSCALES
350
1D2
  0
DICTIONARY
  5
1C3
102
{ACAD_REACTORS
330
1C2
102
}
330
1C2
100
AcDbDictionary
281
     1
  3
ACDB_ANNOTATIONSCALES
350
1C4
  0
DICTIONARY
  5
1FB
102
{ACAD_REACTORS
330
1FA
102
}
330
1FA
100
AcDbDictionary
281
     1
  3
ACDB_ANNOTATIONSCALES
350
1FC
  0
DICTIONARY
  5
1ED
102
{ACAD_REACTORS
330
1EC
102
}
330
1EC
100
AcDbDictionary
281
     1
  3
ACDB_ANNOTATIONSCALES
350
1EE
  0
DICTIONARY
  5
209
102
{ACAD_REACTORS
330
208
102
}
330
208
100
AcDbDictionary
281
     1
  3
ACDB_ANNOTATIONSCALES
350
20A
  0
DICTIONARY
  5
219
102
{ACAD_REACTORS
330
218
102
}
330
218
100
AcDbDictionary
281
     1
  3
ACDB_ANNOTATIONSCALES
350
21A
  0
DICTIONARY
  5
229
102
{ACAD_REACTORS
330
228
102
}
330
228
100
AcDbDictionary
281
     1
  3
ACDB_ANNOTATIONSCALES
350
22A
  0
DICTIONARY
  5
270
102
{ACAD_REACTORS
330
26F
102
}
330
26F
100
AcDbDictionary
281
     1
  3
ACDB_ANNOTATIONSCALES
350
271
  0
DICTIONARY
  5
281
102
{ACAD_REACTORS
330
280
102
}
330
280
100
AcDbDictionary
281
     1
  3
ACDB_ANNOTATIONSCALES
350
282
  0
DICTIONARY
  5
291
102
{ACAD_REACTORS
330
290
102
}
330
290
100
AcDbDictionary
281
     1
  3
ACDB_ANNOTATIONSCALES
350
292
  0
ACDBDETAILVIEWSTYLE
  5
186
102
{ACAD_REACTORS
330
185
102
}
330
185
100
AcDbModelDocViewStyle
 70
     0
  3
Metric50
290
     0
300
Metric50
 90
        0
100
AcDbDetailViewStyle
 70
     0
 71
     0
 90
        3
 71
     1
340
11
 62
   256
 40
5.0
340
0
 62
   256
 40
5.0
300

 40
0.0
280
     1
 71
     2
340
16
 90
       25
 62
   256
 71
     3
340
11
 62
   256
 40
5.0
 90
        0
 40
15.0
 90
        1
300
%<\AcVar ViewDetailId>% (%<\AcVar ViewScale \f "%sn">%)
 71
     4
340
16
 90
       25
 62
   256
340
16
 90
       25
 62
   256
280
     0
  0
LAYOUT
  5
1E
102
{ACAD_REACTORS
330
1A
102
}
330
1A
100
AcDbPlotSettings
  1

  2
none_device
  4

  6

 40
0.0
 41
0.0
 42
0.0
 43
0.0
 44
0.0
 45
0.0
 46
0.0
 47
0.0
 48
0.0
 49
0.0
140
0.0
141
0.0
142
1.0
143
1.0
 70
   688
 72
     1
 73
     0
 74
     5
  7

 75
    16
147
1.0
 76
     0
 77
     2
 78
   300
148
0.0
149
0.0
100
AcDbLayout
  1
Layout1
 70
     1
 71
     1
 10
0.0
 20
0.0
 11
420.0
 21
297.0
 12
0.0
 22
0.0
 32
0.0
 14
1.000000000000000E+20
 24
1.000000000000000E+20
 34
1.000000000000000E+20
 15
-1.000000000000000E+20
 25
-1.000000000000000E+20
 35
-1.000000000000000E+20
146
0.0
 13
0.0
 23
0.0
 33
0.0
 16
1.0
 26
0.0
 36
0.0
 17
0.0
 27
1.0
 37
0.0
 76
     0
330
1B
  0
LAYOUT
  5
26
102
{ACAD_REACTORS
330
1A
102
}
330
1A
100
AcDbPlotSettings
  1

  2
none_device
  4

  6

 40
0.0
 41
0.0
 42
0.0
 43
0.0
 44
0.0
 45
0.0
 46
0.0
 47
0.0
 48
0.0
 49
0.0
140
0.0
141
0.0
142
1.0
143
1.0
 70
   688
 72
     1
 73
     0
 74
     5
  7

 75
    16
147
1.0
 76
     0
 77
     2
 78
   300
148
0.0
149
0.0
100
AcDbLayout
  1
Layout2
 70
     1
 71
     2
 10
0.0
 20
0.0
 11
0.0
 21
0.0
 12
0.0
 22
0.0
 32
0.0
 14
0.0
 24
0.0
 34
0.0
 15
0.0
 25
0.0
 35
0.0
146
0.0
 13
0.0
 23
0.0
 33
0.0
 16
1.0
 26
0.0
 36
0.0
 17
0.0
 27
1.0
 37
0.0
 76
     0
330
23
  0
LAYOUT
  5
22
102
{ACAD_REACTORS
330
1A
102
}
330
1A
100
AcDbPlotSettings
  1

  2
none_device
  4
Letter_(8.50_x_11.00_Inches)
  6

 40
6.349999999999999
 41
6.349999999999999
 42
6.350005079999999
 43
6.350005079999999
 44
215.9
 45
279.4
 46
0.0
 47
0.0
 48
0.0
 49
0.0
140
0.0
141
0.0
142
1.0
143
1.0
 70
  1712
 72
     1
 73
     0
 74
     0
  7

 75
     0
147
1.0
 76
     0
 77
     2
 78
   300
148
0.0
149
0.0
100
AcDbLayout
  1
Model
 70
     1
 71
     0
 10
0.0
 20
0.0
 11
420.0
 21
297.0
 12
0.0
 22
0.0
 32
0.0
 14
0.0
 24
0.0
 34
0.0
 15
420.0
 25
297.0
 35
0.0
146
0.0
 13
0.0
 23
0.0
 33
0.0
 16
1.0
 26
0.0
 36
0.0
 17
0.0
 27
1.0
 37
0.0
 76
     0
330
1F
331
29
  0
MATERIAL
  5
155
102
{ACAD_XDICTIONARY
360
156
102
}
102
{ACAD_REACTORS
330
14C
102
}
330
14C
100
AcDbMaterial
  1
ByBlock
 72
     0
 43
0.0008202099737533
 43
0.0
 43
0.0
 43
0.0
 43
0.0
 43
0.0008202099737533
 43
0.0
 43
0.0
 43
0.0
 43
0.0
 43
1.0
 43
0.0
 43
0.0
 43
0.0
 43
0.0
 43
1.0
 77
     0
 47
0.0008202099737533
 47
0.0
 47
0.0
 47
0.0
 47
0.0
 47
0.0008202099737533
 47
0.0
 47
0.0
 47
0.0
 47
0.0
 47
1.0
 47
0.0
 47
0.0
 47
0.0
 47
0.0
 47
1.0
171
     0
 49
0.0008202099737533
 49
0.0
 49
0.0
 49
0.0
 49
0.0
 49
0.0008202099737533
 49
0.0
 49
0.0
 49
0.0
 49
0.0
 49
1.0
 49
0.0
 49
0.0
 49
0.0
 49
0.0
 49
1.0
175
     0
142
0.0008202099737533
142
0.0
142
0.0
142
0.0
142
0.0
142
0.0008202099737533
142
0.0
142
0.0
142
0.0
142
0.0
142
1.0
142
0.0
142
0.0
142
0.0
142
0.0
142
1.0
179
     0
144
0.0008202099737533
144
0.0
144
0.0
144
0.0
144
0.0
144
0.0008202099737533
144
0.0
144
0.0
144
0.0
144
0.0
144
1.0
144
0.0
144
0.0
144
0.0
144
0.0
144
1.0
147
0.0008202099737533
147
0.0
147
0.0
147
0.0
147
0.0
147
0.0008202099737533
147
0.0
147
0.0
147
0.0
147
0.0
147
1.0
147
0.0
147
0.0
147
0.0
147
0.0
147
1.0
  0
MATERIAL
  5
14D
102
{ACAD_XDICTIONARY
360
14E
102
}
102
{ACAD_REACTORS
330
14C
102
}
330
14C
100
AcDbMaterial
  1
ByLayer
 72
     0
 43
0.0008202099737533
 43
0.0
 43
0.0
 43
0.0
 43
0.0
 43
0.0008202099737533
 43
0.0
 43
0.0
 43
0.0
 43
0.0
 43
1.0
 43
0.0
 43
0.0
 43
0.0
 43
0.0
 43
1.0
 77
     0
 47
0.0008202099737533
 47
0.0
 47
0.0
 47
0.0
 47
0.0
 47
0.0008202099737533
 47
0.0
 47
0.0
 47
0.0
 47
0.0
 47
1.0
 47
0.0
 47
0.0
 47
0.0
 47
0.0
 47
1.0
171
     0
 49
0.0008202099737533
 49
0.0
 49
0.0
 49
0.0
 49
0.0
 49
0.0008202099737533
 49
0.0
 49
0.0
 49
0.0
 49
0.0
 49
1.0
 49
0.0
 49
0.0
 49
0.0
 49
0.0
 49
1.0
175
     0
142
0.0008202099737533
142
0.0
142
0.0
142
0.0
142
0.0
142
0.0008202099737533
142
0.0
142
0.0
142
0.0
142
0.0
142
1.0
142
0.0
142
0.0
142
0.0
142
0.0
142
1.0
179
     0
144
0.0008202099737533
144
0.0
144
0.0
144
0.0
144
0.0
144
0.0008202099737533
144
0.0
144
0.0
144
0.0
144
0.0
144
1.0
144
0.0
144
0.0
144
0.0
144
0.0
144
1.0
147
0.0008202099737533
147
0.0
147
0.0
147
0.0
147
0.0
147
0.0008202099737533
147
0.0
147
0.0
147
0.0
147
0.0
147
1.0
147
0.0
147
0.0
147
0.0
147
0.0
147
1.0
  0
MATERIAL
  5
15D
102
{ACAD_XDICTIONARY
360
15E
102
}
102
{ACAD_REACTORS
330
14C
102
}
330
14C
100
AcDbMaterial
  1
Global
 72
     0
 43
0.0008202099737533
 43
0.0
 43
0.0
 43
0.0
 43
0.0
 43
0.0008202099737533
 43
0.0
 43
0.0
 43
0.0
 43
0.0
 43
1.0
 43
0.0
 43
0.0
 43
0.0
 43
0.0
 43
1.0
 77
     0
 47
0.0008202099737533
 47
0.0
 47
0.0
 47
0.0
 47
0.0
 47
0.0008202099737533
 47
0.0
 47
0.0
 47
0.0
 47
0.0
 47
1.0
 47
0.0
 47
0.0
 47
0.0
 47
0.0
 47
1.0
171
     0
 49
0.0008202099737533
 49
0.0
 49
0.0
 49
0.0
 49
0.0
 49
0.0008202099737533
 49
0.0
 49
0.0
 49
0.0
 49
0.0
 49
1.0
 49
0.0
 49
0.0
 49
0.0
 49
0.0
 49
1.0
175
     0
142
0.0008202099737533
142
0.0
142
0.0
142
0.0
142
0.0
142
0.0008202099737533
142
0.0
142
0.0
142
0.0
142
0.0
142
1.0
142
0.0
142
0.0
142
0.0
142
0.0
142
1.0
179
     0
144
0.0008202099737533
144
0.0
144
0.0
144
0.0
144
0.0
144
0.0008202099737533
144
0.0
144
0.0
144
0.0
144
0.0
144
1.0
144
0.0
144
0.0
144
0.0
144
0.0
144
1.0
147
0.0008202099737533
147
0.0
147
0.0
147
0.0
147
0.0
147
0.0008202099737533
147
0.0
147
0.0
147
0.0
147
0.0
147
1.0
147
0.0
147
0.0
147
0.0
147
0.0
147
1.0
  0
MLEADERSTYLE
  5
182
102
{ACAD_REACTORS
330
181
102
}
330
181
100
AcDbMLeaderStyle
179
     2
170
     2
171
     1
172
     0
 90
        2
 40
0.0
 41
0.0
173
     1
 91
-1056964608
340
14
 92
       -2
290
     1
 42
2.0
291
     1
 43
0.36
  3
Standard
 44
4.0
300

342
11
174
     1
178
     6
175
     1
176
     0
 93
-1056964608
 45
4.0
292
     0
297
     0
 46
4.0
 94
-1056964608
 47
1.0
 49
1.0
140
1.0
293
     1
141
0.0
294
     1
177
     0
142
1.0
295
     0
296
     0
143
0.125
271
     0
272
     9
273
     9
298
     0
  0
MLINESTYLE
  5
18
102
{ACAD_REACTORS
330
17
102
}
330
17
100
AcDbMlineStyle
  2
STANDARD
 70
     0
  3

 62
   256
 51
90.0
 52
90.0
 71
     2
 49
0.5
 62
   256
  6
BYLAYER
 49
-0.5
 62
   256
  6
BYLAYER
  0
ACDBPLACEHOLDER
  5
F
102
{ACAD_REACTORS
330
E
102
}
330
E
  0
SCALE
  5
48
102
{ACAD_REACTORS
330
47
102
}
330
47
100
AcDbScale
 70
     0
300
1:1
140
1.0
141
1.0
290
     1
  0
SCALE
  5
49
102
{ACAD_REACTORS
330
47
102
}
330
47
100
AcDbScale
 70
     0
300
1:2
140
1.0
141
2.0
290
     0
  0
SCALE
  5
4A
102
{ACAD_REACTORS
330
47
102
}
330
47
100
AcDbScale
 70
     0
300
1:4
140
1.0
141
4.0
290
     0
  0
SCALE
  5
4B
102
{ACAD_REACTORS
330
47
102
}
330
47
100
AcDbScale
 70
     0
300
1:5
140
1.0
141
5.0
290
     0
  0
SCALE
  5
4C
102
{ACAD_REACTORS
330
47
102
}
330
47
100
AcDbScale
 70
     0
300
1:8
140
1.0
141
8.0
290
     0
  0
SCALE
  5
4D
102
{ACAD_REACTORS
330
47
102
}
330
47
100
AcDbScale
 70
     0
300
1:10
140
1.0
141
10.0
290
     0
  0
SCALE
  5
4E
102
{ACAD_REACTORS
330
47
102
}
330
47
100
AcDbScale
 70
     0
300
1:16
140
1.0
141
16.0
290
     0
  0
SCALE
  5
4F
102
{ACAD_REACTORS
330
47
102
}
330
47
100
AcDbScale
 70
     0
300
1:20
140
1.0
141
20.0
290
     0
  0
SCALE
  5
50
102
{ACAD_REACTORS
330
47
102
}
330
47
100
AcDbScale
 70
     0
300
1:30
140
1.0
141
30.0
290
     0
  0
SCALE
  5
51
102
{ACAD_REACTORS
330
47
102
}
330
47
100
AcDbScale
 70
     0
300
1:40
140
1.0
141
40.0
290
     0
  0
SCALE
  5
52
102
{ACAD_REACTORS
330
47
102
}
330
47
100
AcDbScale
 70
     0
300
1:50
140
1.0
141
50.0
290
     0
  0
SCALE
  5
53
102
{ACAD_REACTORS
330
47
102
}
330
47
100
AcDbScale
 70
     0
300
1:100
140
1.0
141
100.0
290
     0
  0
SCALE
  5
54
102
{ACAD_REACTORS
330
47
102
}
330
47
100
AcDbScale
 70
     0
300
2:1
140
2.0
141
1.0
290
     0
  0
SCALE
  5
55
102
{ACAD_REACTORS
330
47
102
}
330
47
100
AcDbScale
 70
     0
300
4:1
140
4.0
141
1.0
290
     0
  0
SCALE
  5
56
102
{ACAD_REACTORS
330
47
102
}
330
47
100
AcDbScale
 70
     0
300
8:1
140
8.0
141
1.0
290
     0
  0
SCALE
  5
57
102
{ACAD_REACTORS
330
47
102
}
330
47
100
AcDbScale
 70
     0
300
10:1
140
10.0
141
1.0
290
     0
  0
SCALE
  5
58
102
{ACAD_REACTORS
330
47
102
}
330
47
100
AcDbScale
 70
     0
300
100:1
140
100.0
141
1.0
290
     0
  0
SCALE
  5
59
102
{ACAD_REACTORS
330
47
102
}
330
47
100
AcDbScale
 70
     0
300
1/128" = 1'-0"
140
0.0078125
141
12.0
290
     0
  0
SCALE
  5
5A
102
{ACAD_REACTORS
330
47
102
}
330
47
100
AcDbScale
 70
     0
300
1/64" = 1'-0"
140
0.015625
141
12.0
290
     0
  0
SCALE
  5
5B
102
{ACAD_REACTORS
330
47
102
}
330
47
100
AcDbScale
 70
     0
300
1/32" = 1'-0"
140
0.03125
141
12.0
290
     0
  0
SCALE
  5
5C
102
{ACAD_REACTORS
330
47
102
}
330
47
100
AcDbScale
 70
     0
300
1/16" = 1'-0"
140
0.0625
141
12.0
290
     0
  0
SCALE
  5
5D
102
{ACAD_REACTORS
330
47
102
}
330
47
100
AcDbScale
 70
     0
300
3/32" = 1'-0"
140
0.09375
141
12.0
290
     0
  0
SCALE
  5
5E
102
{ACAD_REACTORS
330
47
102
}
330
47
100
AcDbScale
 70
     0
300
1/8" = 1'-0"
140
0.125
141
12.0
290
     0
  0
SCALE
  5
5F
102
{ACAD_REACTORS
330
47
102
}
330
47
100
AcDbScale
 70
     0
300
3/16" = 1'-0"
140
0.1875
141
12.0
290
     0
  0
SCALE
  5
60
102
{ACAD_REACTORS
330
47
102
}
330
47
100
AcDbScale
 70
     0
300
1/4" = 1'-0"
140
0.25
141
12.0
290
     0
  0
SCALE
  5
61
102
{ACAD_REACTORS
330
47
102
}
330
47
100
AcDbScale
 70
     0
300
3/8" = 1'-0"
140
0.375
141
12.0
290
     0
  0
SCALE
  5
62
102
{ACAD_REACTORS
330
47
102
}
330
47
100
AcDbScale
 70
     0
300
1/2" = 1'-0"
140
0.5
141
12.0
290
     0
  0
SCALE
  5
63
102
{ACAD_REACTORS
330
47
102
}
330
47
100
AcDbScale
 70
     0
300
3/4" = 1'-0"
140
0.75
141
12.0
290
     0
  0
SCALE
  5
64
102
{ACAD_REACTORS
330
47
102
}
330
47
100
AcDbScale
 70
     0
300
1" = 1'-0"
140
1.0
141
12.0
290
     0
  0
SCALE
  5
65
102
{ACAD_REACTORS
330
47
102
}
330
47
100
AcDbScale
 70
     0
300
1-1/2" = 1'-0"
140
1.5
141
12.0
290
     0
  0
SCALE
  5
66
102
{ACAD_REACTORS
330
47
102
}
330
47
100
AcDbScale
 70
     0
300
3" = 1'-0"
140
3.0
141
12.0
290
     0
  0
SCALE
  5
67
102
{ACAD_REACTORS
330
47
102
}
330
47
100
AcDbScale
 70
     0
300
6" = 1'-0"
140
6.0
141
12.0
290
     0
  0
SCALE
  5
68
102
{ACAD_REACTORS
330
47
102
}
330
47
100
AcDbScale
 70
     0
300
1'-0" = 1'-0"
140
12.0
141
12.0
290
     0
  0
ACDBSECTIONVIEWSTYLE
  5
184
102
{ACAD_REACTORS
330
183
102
}
330
183
100
AcDbModelDocViewStyle
 70
     0
  3
Metric50
290
     0
300
Metric50
 90
        0
100
AcDbSectionViewStyle
 70
     0
 71
     0
 90
      102
 71
     1
340
11
 62
   256
 40
5.0
340
0
340
0
 62
   256
 40
5.0
300
I, O, Q, S, X, Z
 40
10.0
 90
        0
 40
2.5
 90
        0
 71
     2
340
16
 90
       25
 62
   256
340
16
 90
       50
 62
   256
 40
5.0
 40
2.5
 40
5.0
 71
     3
340
11
 62
   256
 40
5.0
 90
        0
 40
15.0
 90
        1
300
%<\AcVar ViewSectionStartId>%-%<\AcVar ViewSectionEndId>% (%<\AcVar ViewScale \f "%sn">%)
 71
     4
 62
   256
 62
   257
300
ANSI31
 40
1.0
 90
        0
290
     0
290
     0
 90
        6
 40
0.0
 40
1.570796326794896
 40
0.2617993877991494
 40
1.308996938995747
 40
-0.2617993877991494
 40
1.832595714594046
  0
TABLESTYLE
  5
180
102
{ACAD_XDICTIONARY
360
2D3
102
}
102
{ACAD_REACTORS
330
17F
102
}
330
17F
100
AcDbTableStyle
280
     0
  3
Standard
 70
     0
 71
     0
 40
1.5
 41
1.5
280
     0
281
     0
  7
Standard
140
4.5
170
     2
 62
     0
 63
     7
283
     0
 90
      512
 91
        0
  1

274
    -2
284
     1
 64
     0
275
    -2
285
     1
 65
     0
276
    -2
286
     1
 66
     0
277
    -2
287
     1
 67
     0
278
    -2
288
     1
 68
     0
279
    -2
289
     1
 69
     0
  7
Standard
140
6.0
170
     5
 62
     0
 63
     7
283
     0
 90
      512
 91
        0
  1

274
    -2
284
     1
 64
     0
275
    -2
285
     1
 65
     0
276
    -2
286
     1
 66
     0
277
    -2
287
     1
 67
     0
278
    -2
288
     1
 68
     0
279
    -2
289
     1
 69
     0
  7
Standard
140
4.5
170
     5
 62
     0
 63
     7
283
     0
 90
      512
 91
        0
  1

274
    -2
284
     1
 64
     0
275
    -2
285
     1
 65
     0
276
    -2
286
     1
 66
     0
277
    -2
287
     1
 67
     0
278
    -2
288
     1
 68
     0
279
    -2
289
     1
 69
     0
  0
VISUALSTYLE
  5
16B
102
{ACAD_REACTORS
330
165
102
}
330
165
100
AcDbVisualStyle
  2
2dWireframe
 70
     4
177
     3
291
     0
 70
    58
 90
        0
176
     1
 90
        2
176
     1
 90
        0
176
     1
 90
        0
176
     1
 40
0.6
176
     1
 40
30.0
176
     1
 62
     7
420
 16777215
176
     1
 90
        1
176
     1
 90
        4
176
     1
 62
     7
176
     1
 62
   257
176
     1
 90
        1
176
     1
 90
        1
176
     1
 40
1.0
176
     1
 90
        0
176
     1
 62
   257
176
     1
 40
1.0
176
     1
 90
        1
176
     1
 90
        6
176
     1
 90
        2
176
     1
 62
     7
176
     1
 90
        5
176
     1
 90
        0
176
     1
 90
        0
176
     1
290
     0
176
     1
 90
        1
176
     1
 40
0.0
176
     1
 90
        0
176
     1
290
     1
176
     1
290
     1
176
     1
290
     0
176
     1
290
     0
176
     1
290
     0
176
     1
290
     0
176
     1
290
     0
176
     1
290
     0
176
     1
290
     0
176
     1
 90
       50
176
     1
 40
0.0
176
     1
 40
1.0
176
     1
 90
        0
176
     1
 62
    18
420
        0
176
     1
 90
       50
176
     1
 90
        3
176
     1
 62
     5
420
      255
176
     1
290
     0
176
     1
 90
       50
176
     1
 90
       50
176
     1
 90
       50
176
     1
290
     0
176
     1
 90
       50
176
     1
 62
   256
176
     0
 40
1.0
176
     0
 90
        2
176
     1
  1
strokes_ogs.tif
176
     1
290
     0
176
     1
 40
1.0
176
     1
 40
1.0
176
     1
  0
VISUALSTYLE
  5
16A
102
{ACAD_REACTORS
330
165
102
}
330
165
100
AcDbVisualStyle
  2
Basic
 70
     7
177
     3
291
     1
 70
    58
 90
        1
176
     1
 90
        0
176
     1
 90
        1
176
     1
 90
        0
176
     1
 40
0.6
176
     1
 40
30.0
176
     1
 62
     7
420
 16777215
176
     1
 90
        0
176
     1
 90
        4
176
     1
 62
     7
176
     1
 62
   257
176
     1
 90
        1
176
     1
 90
        1
176
     1
 40
1.0
176
     1
 90
        8
176
     1
 62
     7
176
     1
 40
1.0
176
     1
 90
        1
176
     1
 90
        6
176
     1
 90
        2
176
     1
 62
     7
176
     1
 90
        5
176
     1
 90
        0
176
     1
 90
        0
176
     1
290
     0
176
     1
 90
        1
176
     1
 40
0.0
176
     1
 90
        0
176
     1
290
     0
176
     1
290
     1
176
     1
290
     1
176
     1
290
     0
176
     1
290
     0
176
     1
290
     0
176
     1
290
     0
176
     1
290
     0
176
     1
290
     0
176
     1
 90
       50
176
     1
 40
0.0
176
     1
 40
1.0
176
     1
 90
        0
176
     1
 62
    18
420
        0
176
     1
 90
       50
176
     1
 90
        3
176
     1
 62
     5
420
      255
176
     1
290
     0
176
     1
 90
       50
176
     1
 90
       50
176
     1
 90
       50
176
     1
290
     0
176
     1
 90
       50
176
     1
 62
   256
176
     0
 40
1.0
176
     0
 90
        2
176
     1
  1
strokes_ogs.tif
176
     1
290
     0
176
     1
 40
1.0
176
     1
 40
1.0
176
     1
  0
VISUALSTYLE
  5
171
102
{ACAD_REACTORS
330
165
102
}
330
165
100
AcDbVisualStyle
  2
Brighten
 70
    12
177
     3
291
     1
 70
    58
 90
        2
176
     1
 90
        2
176
     1
 90
        0
176
     1
 90
        0
176
     1
 40
0.6
176
     1
 40
30.0
176
     1
 62
     7
420
 16777215
176
     1
 90
        1
176
     1
 90
        4
176
     1
 62
     7
176
     1
 62
   257
176
     1
 90
        1
176
     1
 90
        1
176
     1
 40
1.0
176
     1
 90
        8
176
     1
 62
     7
176
     1
 40
1.0
176
     1
 90
        1
176
     1
 90
        6
176
     1
 90
        2
176
     1
 62
     7
176
     1
 90
        5
176
     1
 90
        0
176
     1
 90
        0
176
     1
290
     0
176
     1
 90
        1
176
     1
 40
50.0
176
     1
 90
        0
176
     1
290
     0
176
     1
290
     1
176
     1
290
     1
176
     1
290
     0
176
     1
290
     0
176
     1
290
     0
176
     1
290
     0
176
     1
290
     0
176
     1
290
     0
176
     1
 90
       50
176
     1
 40
0.0
176
     1
 40
1.0
176
     1
 90
        0
176
     1
 62
    18
420
        0
176
     1
 90
       50
176
     1
 90
        3
176
     1
 62
     5
420
      255
176
     1
290
     0
176
     1
 90
       50
176
     1
 90
       50
176
     1
 90
       50
176
     1
290
     0
176
     1
 90
       50
176
     1
 62
   256
176
     0
 40
1.0
176
     0
 90
        2
176
     1
  1
strokes_ogs.tif
176
     1
290
     0
176
     1
 40
1.0
176
     1
 40
1.0
176
     1
  0
VISUALSTYLE
  5
175
102
{ACAD_REACTORS
330
165
102
}
330
165
100
AcDbVisualStyle
  2
ColorChange
 70
    16
177
     3
291
     1
 70
    58
 90
        2
176
     1
 90
        2
176
     1
 90
        3
176
     1
 90
        0
176
     1
 40
0.6
176
     1
 40
30.0
176
     1
 62
     8
420
  8421504
176
     1
 90
        1
176
     1
 90
        4
176
     1
 62
     7
176
     1
 62
   257
176
     1
 90
        1
176
     1
 90
        1
176
     1
 40
1.0
176
     1
 90
        8
176
     1
 62
     8
420
  8421504
176
     1
 40
1.0
176
     1
 90
        1
176
     1
 90
        6
176
     1
 90
        2
176
     1
 62
     7
176
     1
 90
        5
176
     1
 90
        0
176
     1
 90
        0
176
     1
290
     0
176
     1
 90
        1
176
     1
 40
0.0
176
     1
 90
        0
176
     1
290
     0
176
     1
290
     1
176
     1
290
     1
176
     1
290
     0
176
     1
290
     0
176
     1
290
     0
176
     1
290
     0
176
     1
290
     0
176
     1
290
     0
176
     1
 90
       50
176
     1
 40
0.0
176
     1
 40
1.0
176
     1
 90
        0
176
     1
 62
    18
420
        0
176
     1
 90
       50
176
     1
 90
        3
176
     1
 62
     5
420
      255
176
     1
290
     0
176
     1
 90
       50
176
     1
 90
       50
176
     1
 90
       50
176
     1
290
     0
176
     1
 90
       50
176
     1
 62
   256
176
     0
 40
1.0
176
     0
 90
        2
176
     1
  1
strokes_ogs.tif
176
     1
290
     0
176
     1
 40
1.0
176
     1
 40
1.0
176
     1
  0
VISUALSTYLE
  5
16E
102
{ACAD_REACTORS
330
165
102
}
330
165
100
AcDbVisualStyle
  2
Conceptual
 70
     9
177
     3
291
     0
 70
    58
 90
        3
176
     1
 90
        2
176
     1
 90
        0
176
     1
 90
        0
176
     1
 40
0.6
176
     1
 40
30.0
176
     1
 62
     7
420
 16777215
176
     1
 90
        2
176
     1
 90
        2
176
     1
 62
     7
176
     1
 62
   257
176
     1
 90
        1
176
     1
 90
        1
176
     1
 40
179.0
176
     1
 90
        8
176
     1
 62
     7
176
     1
 40
1.0
176
     1
 90
        1
176
     1
 90
        6
176
     1
 90
        2
176
     1
 62
     7
176
     1
 90
        3
176
     1
 90
        0
176
     1
 90
        0
176
     1
290
     0
176
     1
 90
        1
176
     1
 40
0.0
176
     1
 90
        0
176
     1
290
     0
176
     1
290
     1
176
     1
290
     1
176
     1
290
     0
176
     1
290
     0
176
     1
290
     0
176
     1
290
     0
176
     1
290
     0
176
     1
290
     0
176
     1
 90
       50
176
     1
 40
0.0
176
     1
 40
1.0
176
     1
 90
        0
176
     1
 62
    18
420
        0
176
     1
 90
       50
176
     1
 90
        3
176
     1
 62
     5
420
      255
176
     1
290
     0
176
     1
 90
       50
176
     1
 90
       50
176
     1
 90
       50
176
     1
290
     0
176
     1
 90
       50
176
     1
 62
   256
176
     0
 40
1.0
176
     0
 90
        2
176
     1
  1
strokes_ogs.tif
176
     1
290
     0
176
     1
 40
1.0
176
     1
 40
1.0
176
     1
  0
VISUALSTYLE
  5
170
102
{ACAD_REACTORS
330
165
102
}
330
165
100
AcDbVisualStyle
  2
Dim
 70
    11
177
     3
291
     1
 70
    58
 90
        2
176
     1
 90
        2
176
     1
 90
        0
176
     1
 90
        0
176
     1
 40
0.6
176
     1
 40
30.0
176
     1
 62
     7
420
 16777215
176
     1
 90
        1
176
     1
 90
        4
176
     1
 62
     7
176
     1
 62
   257
176
     1
 90
        1
176
     1
 90
        1
176
     1
 40
1.0
176
     1
 90
        8
176
     1
 62
     7
176
     1
 40
1.0
176
     1
 90
        1
176
     1
 90
        6
176
     1
 90
        2
176
     1
 62
     7
176
     1
 90
        5
176
     1
 90
        0
176
     1
 90
        0
176
     1
290
     0
176
     1
 90
        1
176
     1
 40
-50.0
176
     1
 90
        0
176
     1
290
     0
176
     1
290
     1
176
     1
290
     1
176
     1
290
     0
176
     1
290
     0
176
     1
290
     0
176
     1
290
     0
176
     1
290
     0
176
     1
290
     0
176
     1
 90
       50
176
     1
 40
0.0
176
     1
 40
1.0
176
     1
 90
        0
176
     1
 62
    18
420
        0
176
     1
 90
       50
176
     1
 90
        3
176
     1
 62
     5
420
      255
176
     1
290
     0
176
     1
 90
       50
176
     1
 90
       50
176
     1
 90
       50
176
     1
290
     0
176
     1
 90
       50
176
     1
 62
   256
176
     0
 40
1.0
176
     0
 90
        2
176
     1
  1
strokes_ogs.tif
176
     1
290
     0
176
     1
 40
1.0
176
     1
 40
1.0
176
     1
  0
VISUALSTYLE
  5
17D
102
{ACAD_REACTORS
330
165
102
}
330
165
100
AcDbVisualStyle
  2
EdgeColorOff
 70
    22
177
     3
291
     1
 70
    58
 90
        2
176
     0
 90
        2
176
     0
 90
        0
176
     0
 90
        0
176
     0
 40
0.6
176
     0
 40
30.0
176
     0
 62
     7
420
 16777215
176
     0
 90
        1
176
     0
 90
        4
176
     0
 62
     7
176
     0
 62
   257
176
     0
 90
        1
176
     0
 90
        1
176
     0
 40
1.0
176
     0
 90
        8
176
     2
 62
     7
176
     0
 40
1.0
176
     0
 90
        1
176
     0
 90
        6
176
     0
 90
        2
176
     0
 62
     7
176
     0
 90
        5
176
     0
 90
        0
176
     0
 90
        0
176
     0
290
     0
176
     0
 90
        1
176
     0
 40
0.0
176
     0
 90
        0
176
     0
290
     0
176
     1
290
     1
176
     1
290
     1
176
     1
290
     0
176
     1
290
     0
176
     1
290
     0
176
     1
290
     0
176
     1
290
     0
176
     1
290
     0
176
     1
 90
       50
176
     0
 40
0.0
176
     0
 40
1.0
176
     0
 90
        0
176
     0
 62
    18
420
        0
176
     0
 90
       50
176
     0
 90
        3
176
     0
 62
     5
420
      255
176
     0
290
     0
176
     1
 90
       50
176
     0
 90
       50
176
     0
 90
       50
176
     0
290
     0
176
     1
 90
       50
176
     0
 62
   256
176
     0
 40
1.0
176
     0
 90
        2
176
     0
  1
strokes_ogs.tif
176
     0
290
     0
176
     1
 40
1.0
176
     0
 40
1.0
176
     0
  0
VISUALSTYLE
  5
174
102
{ACAD_REACTORS
330
165
102
}
330
165
100
AcDbVisualStyle
  2
Facepattern
 70
    15
177
     3
291
     1
 70
    58
 90
        2
176
     1
 90
        2
176
     1
 90
        0
176
     1
 90
        0
176
     1
 40
0.6
176
     1
 40
30.0
176
     1
 62
     7
420
 16777215
176
     1
 90
        1
176
     1
 90
        4
176
     1
 62
     7
176
     1
 62
   257
176
     1
 90
        1
176
     1
 90
        1
176
     1
 40
1.0
176
     1
 90
        8
176
     1
 62
     7
176
     1
 40
1.0
176
     1
 90
        1
176
     1
 90
        6
176
     1
 90
        2
176
     1
 62
     7
176
     1
 90
        5
176
     1
 90
        0
176
     1
 90
        0
176
     1
290
     0
176
     1
 90
        1
176
     1
 40
0.0
176
     1
 90
        0
176
     1
290
     0
176
     1
290
     1
176
     1
290
     1
176
     1
290
     0
176
     1
290
     0
176
     1
290
     0
176
     1
290
     0
176
     1
290
     0
176
     1
290
     0
176
     1
 90
       50
176
     1
 40
0.0
176
     1
 40
1.0
176
     1
 90
        0
176
     1
 62
    18
420
        0
176
     1
 90
       50
176
     1
 90
        3
176
     1
 62
     5
420
      255
176
     1
290
     0
176
     1
 90
       50
176
     1
 90
       50
176
     1
 90
       50
176
     1
290
     0
176
     1
 90
       50
176
     1
 62
   256
176
     0
 40
1.0
176
     0
 90
        2
176
     1
  1
strokes_ogs.tif
176
     1
290
     0
176
     1
 40
1.0
176
     1
 40
1.0
176
     1
  0
VISUALSTYLE
  5
166
102
{ACAD_REACTORS
330
165
102
}
330
165
100
AcDbVisualStyle
  2
Flat
 70
     0
177
     3
291
     1
 70
    58
 90
        2
176
     1
 90
        1
176
     1
 90
        1
176
     1
 90
        2
176
     1
 40
0.6
176
     1
 40
30.0
176
     1
 62
     7
420
 16777215
176
     1
 90
        0
176
     1
 90
        0
176
     1
 62
     7
176
     1
 62
   257
176
     1
 90
        1
176
     1
 90
        1
176
     1
 40
1.0
176
     1
 90
        8
176
     1
 62
     7
176
     1
 40
1.0
176
     1
 90
        1
176
     1
 90
        6
176
     1
 90
        2
176
     1
 62
     7
176
     1
 90
        5
176
     1
 90
        0
176
     1
 90
        0
176
     1
290
     0
176
     1
 90
       13
176
     1
 40
0.0
176
     1
 90
        0
176
     1
290
     0
176
     1
290
     1
176
     1
290
     1
176
     1
290
     0
176
     1
290
     0
176
     1
290
     0
176
     1
290
     0
176
     1
290
     0
176
     1
290
     0
176
     1
 90
       50
176
     1
 40
0.0
176
     1
 40
1.0
176
     1
 90
        0
176
     1
 62
    18
420
        0
176
     1
 90
       50
176
     1
 90
        3
176
     1
 62
     5
420
      255
176
     1
290
     0
176
     1
 90
       50
176
     1
 90
       50
176
     1
 90
       50
176
     1
290
     0
176
     1
 90
       50
176
     1
 62
   256
176
     0
 40
1.0
176
     0
 90
        2
176
     1
  1
strokes_ogs.tif
176
     1
290
     0
176
     1
 40
1.0
176
     1
 40
1.0
176
     1
  0
VISUALSTYLE
  5
167
102
{ACAD_REACTORS
330
165
102
}
330
165
100
AcDbVisualStyle
  2
FlatWithEdges
 70
     1
177
     3
291
     1
 70
    58
 90
        2
176
     1
 90
        1
176
     1
 90
        1
176
     1
 90
        2
176
     1
 40
0.6
176
     1
 40
30.0
176
     1
 62
     7
420
 16777215
176
     1
 90
        1
176
     1
 90
        0
176
     1
 62
     7
176
     1
 62
   257
176
     1
 90
        1
176
     1
 90
        1
176
     1
 40
1.0
176
     1
 90
        0
176
     1
 62
   257
176
     1
 40
1.0
176
     1
 90
        1
176
     1
 90
        6
176
     1
 90
        2
176
     1
 62
     7
176
     1
 90
        5
176
     1
 90
        0
176
     1
 90
        0
176
     1
290
     0
176
     1
 90
       13
176
     1
 40
0.0
176
     1
 90
        0
176
     1
290
     0
176
     1
290
     1
176
     1
290
     1
176
     1
290
     0
176
     1
290
     0
176
     1
290
     0
176
     1
290
     0
176
     1
290
     0
176
     1
290
     0
176
     1
 90
       50
176
     1
 40
0.0
176
     1
 40
1.0
176
     1
 90
        0
176
     1
 62
    18
420
        0
176
     1
 90
       50
176
     1
 90
        3
176
     1
 62
     5
420
      255
176
     1
290
     0
176
     1
 90
       50
176
     1
 90
       50
176
     1
 90
       50
176
     1
290
     0
176
     1
 90
       50
176
     1
 62
   256
176
     0
 40
1.0
176
     0
 90
        2
176
     1
  1
strokes_ogs.tif
176
     1
290
     0
176
     1
 40
1.0
176
     1
 40
1.0
176
     1
  0
VISUALSTYLE
  5
168
102
{ACAD_REACTORS
330
165
102
}
330
165
100
AcDbVisualStyle
  2
Gouraud
 70
     2
177
     3
291
     1
 70
    58
 90
        2
176
     1
 90
        2
176
     1
 90
        1
176
     1
 90
        2
176
     1
 40
0.6
176
     1
 40
30.0
176
     1
 62
     7
420
 16777215
176
     1
 90
        0
176
     1
 90
        0
176
     1
 62
     7
176
     1
 62
   257
176
     1
 90
        1
176
     1
 90
        1
176
     1
 40
1.0
176
     1
 90
        0
176
     1
 62
     7
176
     1
 40
1.0
176
     1
 90
        1
176
     1
 90
        6
176
     1
 90
        2
176
     1
 62
     7
176
     1
 90
        5
176
     1
 90
        0
176
     1
 90
        0
176
     1
290
     0
176
     1
 90
       13
176
     1
 40
0.0
176
     1
 90
        0
176
     1
290
     0
176
     1
290
     1
176
     1
290
     1
176
     1
290
     0
176
     1
290
     0
176
     1
290
     0
176
     1
290
     0
176
     1
290
     0
176
     1
290
     0
176
     1
 90
       50
176
     1
 40
0.0
176
     1
 40
1.0
176
     1
 90
        0
176
     1
 62
    18
420
        0
176
     1
 90
       50
176
     1
 90
        3
176
     1
 62
     5
420
      255
176
     1
290
     0
176
     1
 90
       50
176
     1
 90
       50
176
     1
 90
       50
176
     1
290
     0
176
     1
 90
       50
176
     1
 62
   256
176
     0
 40
1.0
176
     0
 90
        2
176
     1
  1
strokes_ogs.tif
176
     1
290
     0
176
     1
 40
1.0
176
     1
 40
1.0
176
     1
  0
VISUALSTYLE
  5
169
102
{ACAD_REACTORS
330
165
102
}
330
165
100
AcDbVisualStyle
  2
GouraudWithEdges
 70
     3
177
     3
291
     1
 70
    58
 90
        2
176
     1
 90
        2
176
     1
 90
        1
176
     1
 90
        2
176
     1
 40
0.6
176
     1
 40
30.0
176
     1
 62
     7
420
 16777215
176
     1
 90
        1
176
     1
 90
        0
176
     1
 62
     7
176
     1
 62
   257
176
     1
 90
        1
176
     1
 90
        1
176
     1
 40
1.0
176
     1
 90
        0
176
     1
 62
   257
176
     1
 40
1.0
176
     1
 90
        1
176
     1
 90
        6
176
     1
 90
        2
176
     1
 62
     7
176
     1
 90
        5
176
     1
 90
        0
176
     1
 90
        0
176
     1
290
     0
176
     1
 90
       13
176
     1
 40
0.0
176
     1
 90
        0
176
     1
290
     0
176
     1
290
     1
176
     1
290
     1
176
     1
290
     0
176
     1
290
     0
176
     1
290
     0
176
     1
290
     0
176
     1
290
     0
176
     1
290
     0
176
     1
 90
       50
176
     1
 40
0.0
176
     1
 40
1.0
176
     1
 90
        0
176
     1
 62
    18
420
        0
176
     1
 90
       50
176
     1
 90
        3
176
     1
 62
     5
420
      255
176
     1
290
     0
176
     1
 90
       50
176
     1
 90
       50
176
     1
 90
       50
176
     1
290
     0
176
     1
 90
       50
176
     1
 62
   256
176
     0
 40
1.0
176
     0
 90
        2
176
     1
  1
strokes_ogs.tif
176
     1
290
     0
176
     1
 40
1.0
176
     1
 40
1.0
176
     1
  0
VISUALSTYLE
  5
16D
102
{ACAD_REACTORS
330
165
102
}
330
165
100
AcDbVisualStyle
  2
Hidden
 70
     6
177
     3
291
     0
 70
    58
 90
        1
176
     1
 90
        2
176
     1
 90
        2
176
     1
 90
        0
176
     1
 40
0.6
176
     1
 40
30.0
176
     1
 62
     7
420
 16777215
176
     1
 90
        2
176
     1
 90
        2
176
     1
 62
     7
176
     1
 62
   257
176
     1
 90
        2
176
     1
 90
        1
176
     1
 40
40.0
176
     1
 90
        0
176
     1
 62
   257
176
     1
 40
1.0
176
     1
 90
        1
176
     1
 90
        6
176
     1
 90
        2
176
     1
 62
     7
176
     1
 90
        3
176
     1
 90
        0
176
     1
 90
        0
176
     1
290
     0
176
     1
 90
        1
176
     1
 40
0.0
176
     1
 90
        0
176
     1
290
     0
176
     1
290
     1
176
     1
290
     1
176
     1
290
     0
176
     1
290
     0
176
     1
290
     0
176
     1
290
     0
176
     1
290
     0
176
     1
290
     0
176
     1
 90
       50
176
     1
 40
0.0
176
     1
 40
1.0
176
     1
 90
        0
176
     1
 62
    18
420
        0
176
     1
 90
       50
176
     1
 90
        3
176
     1
 62
     5
420
      255
176
     1
290
     0
176
     1
 90
       50
176
     1
 90
       50
176
     1
 90
       50
176
     1
290
     0
176
     1
 90
       50
176
     1
 62
   256
176
     0
 40
1.0
176
     0
 90
        2
176
     1
  1
strokes_ogs.tif
176
     1
290
     0
176
     1
 40
1.0
176
     1
 40
1.0
176
     1
  0
VISUALSTYLE
  5
17B
102
{ACAD_REACTORS
330
165
102
}
330
165
100
AcDbVisualStyle
  2
JitterOff
 70
    20
177
     3
291
     1
 70
    58
 90
        2
176
     0
 90
        2
176
     0
 90
        0
176
     0
 90
        0
176
     0
 40
0.6
176
     0
 40
30.0
176
     0
 62
     7
420
 16777215
176
     0
 90
        1
176
     0
 90
        4
176
     0
 62
     7
176
     0
 62
   257
176
     0
 90
        1
176
     0
 90
        1
176
     0
 40
1.0
176
     0
 90
       10
176
     2
 62
     7
176
     0
 40
1.0
176
     0
 90
        1
176
     0
 90
        6
176
     0
 90
        2
176
     0
 62
     7
176
     0
 90
        5
176
     0
 90
        0
176
     0
 90
        0
176
     0
290
     0
176
     0
 90
        1
176
     0
 40
0.0
176
     0
 90
        0
176
     0
290
     0
176
     1
290
     1
176
     1
290
     1
176
     1
290
     0
176
     1
290
     0
176
     1
290
     0
176
     1
290
     0
176
     1
290
     0
176
     1
290
     0
176
     1
 90
       50
176
     0
 40
0.0
176
     0
 40
1.0
176
     0
 90
        0
176
     0
 62
    18
420
        0
176
     0
 90
       50
176
     0
 90
        3
176
     0
 62
     5
420
      255
176
     0
290
     0
176
     1
 90
       50
176
     0
 90
       50
176
     0
 90
       50
176
     0
290
     0
176
     1
 90
       50
176
     0
 62
   256
176
     0
 40
1.0
176
     0
 90
        2
176
     0
  1
strokes_ogs.tif
176
     0
290
     0
176
     1
 40
1.0
176
     0
 40
1.0
176
     0
  0
VISUALSTYLE
  5
173
102
{ACAD_REACTORS
330
165
102
}
330
165
100
AcDbVisualStyle
  2
Linepattern
 70
    14
177
     3
291
     1
 70
    58
 90
        2
176
     1
 90
        2
176
     1
 90
        0
176
     1
 90
        0
176
     1
 40
0.6
176
     1
 40
30.0
176
     1
 62
     7
420
 16777215
176
     1
 90
        1
176
     1
 90
        4
176
     1
 62
     7
176
     1
 62
   257
176
     1
 90
        7
176
     1
 90
        7
176
     1
 40
1.0
176
     1
 90
        8
176
     1
 62
     7
176
     1
 40
1.0
176
     1
 90
        1
176
     1
 90
        6
176
     1
 90
        2
176
     1
 62
     7
176
     1
 90
        5
176
     1
 90
        0
176
     1
 90
        0
176
     1
290
     0
176
     1
 90
        1
176
     1
 40
0.0
176
     1
 90
        0
176
     1
290
     0
176
     1
290
     1
176
     1
290
     1
176
     1
290
     0
176
     1
290
     0
176
     1
290
     0
176
     1
290
     0
176
     1
290
     0
176
     1
290
     0
176
     1
 90
       50
176
     1
 40
0.0
176
     1
 40
1.0
176
     1
 90
        0
176
     1
 62
    18
420
        0
176
     1
 90
       50
176
     1
 90
        3
176
     1
 62
     5
420
      255
176
     1
290
     0
176
     1
 90
       50
176
     1
 90
       50
176
     1
 90
       50
176
     1
290
     0
176
     1
 90
       50
176
     1
 62
   256
176
     0
 40
1.0
176
     0
 90
        2
176
     1
  1
strokes_ogs.tif
176
     1
290
     0
176
     1
 40
1.0
176
     1
 40
1.0
176
     1
  0
VISUALSTYLE
  5
17C
102
{ACAD_REACTORS
330
165
102
}
330
165
100
AcDbVisualStyle
  2
OverhangOff
 70
    21
177
     3
291
     1
 70
    58
 90
        2
176
     0
 90
        2
176
     0
 90
        0
176
     0
 90
        0
176
     0
 40
0.6
176
     0
 40
30.0
176
     0
 62
     7
420
 16777215
176
     0
 90
        1
176
     0
 90
        4
176
     0
 62
     7
176
     0
 62
   257
176
     0
 90
        1
176
     0
 90
        1
176
     0
 40
1.0
176
     0
 90
        9
176
     2
 62
     7
176
     0
 40
1.0
176
     0
 90
        1
176
     0
 90
        6
176
     0
 90
        2
176
     0
 62
     7
176
     0
 90
        5
176
     0
 90
        0
176
     0
 90
        0
176
     0
290
     0
176
     0
 90
        1
176
     0
 40
0.0
176
     0
 90
        0
176
     0
290
     0
176
     1
290
     1
176
     1
290
     1
176
     1
290
     0
176
     1
290
     0
176
     1
290
     0
176
     1
290
     0
176
     1
290
     0
176
     1
290
     0
176
     1
 90
       50
176
     0
 40
0.0
176
     0
 40
1.0
176
     0
 90
        0
176
     0
 62
    18
420
        0
176
     0
 90
       50
176
     0
 90
        3
176
     0
 62
     5
420
      255
176
     0
290
     0
176
     1
 90
       50
176
     0
 90
       50
176
     0
 90
       50
176
     0
290
     0
176
     1
 90
       50
176
     0
 62
   256
176
     0
 40
1.0
176
     0
 90
        2
176
     0
  1
strokes_ogs.tif
176
     0
290
     0
176
     1
 40
1.0
176
     0
 40
1.0
176
     0
  0
VISUALSTYLE
  5
16F
102
{ACAD_REACTORS
330
165
102
}
330
165
100
AcDbVisualStyle
  2
Realistic
 70
     8
177
     3
291
     0
 70
    58
 90
        2
176
     1
 90
        3
176
     1
 90
        0
176
     1
 90
        2
176
     1
 40
0.6
176
     1
 40
30.0
176
     1
 62
     7
420
 16777215
176
     1
 90
        0
176
     1
 90
        0
176
     1
 62
     7
176
     1
 62
   257
176
     1
 90
        1
176
     1
 90
        1
176
     1
 40
1.0
176
     1
 90
        8
176
     1
 62
   257
176
     1
 40
1.0
176
     1
 90
        1
176
     1
 90
        6
176
     1
 90
        2
176
     1
 62
     7
176
     1
 90
        3
176
     1
 90
        0
176
     1
 90
        0
176
     1
290
     0
176
     1
 90
       13
176
     1
 40
0.0
176
     1
 90
        0
176
     1
290
     0
176
     1
290
     1
176
     1
290
     1
176
     1
290
     0
176
     1
290
     0
176
     1
290
     0
176
     1
290
     0
176
     1
290
     0
176
     1
290
     0
176
     1
 90
       50
176
     1
 40
0.0
176
     1
 40
1.0
176
     1
 90
        0
176
     1
 62
    18
420
        0
176
     1
 90
       50
176
     1
 90
        3
176
     1
 62
     5
420
      255
176
     1
290
     0
176
     1
 90
       50
176
     1
 90
       50
176
     1
 90
       50
176
     1
290
     0
176
     1
 90
       50
176
     1
 62
   256
176
     0
 40
1.0
176
     0
 90
        2
176
     1
  1
strokes_ogs.tif
176
     1
290
     0
176
     1
 40
1.0
176
     1
 40
1.0
176
     1
  0
VISUALSTYLE
  5
17A
102
{ACAD_REACTORS
330
165
102
}
330
165
100
AcDbVisualStyle
  2
Shaded
 70
    27
177
     3
291
     0
 70
    58
 90
        2
176
     1
 90
        2
176
     1
 90
        1
176
     1
 90
        2
176
     1
 40
0.6
176
     1
 40
30.0
176
     1
 62
     7
420
 16777215
176
     1
 90
        0
176
     1
 90
        4
176
     1
 62
     7
176
     1
 62
   257
176
     1
 90
        1
176
     1
 90
        1
176
     1
 40
1.0
176
     1
 90
        8
176
     1
 62
   257
176
     1
 40
1.0
176
     1
 90
        1
176
     1
 90
        6
176
     1
 90
        2
176
     1
 62
     8
420
  7895160
176
     1
 90
        3
176
     1
 90
        0
176
     1
 90
        0
176
     1
290
     0
176
     1
 90
        5
176
     1
 40
0.0
176
     1
 90
        0
176
     1
290
     0
176
     1
290
     1
176
     1
290
     1
176
     1
290
     0
176
     1
290
     0
176
     1
290
     0
176
     1
290
     0
176
     1
290
     0
176
     1
290
     0
176
     1
 90
       50
176
     1
 40
0.0
176
     1
 40
1.0
176
     1
 90
        0
176
     1
 62
    18
420
        0
176
     1
 90
       50
176
     1
 90
        3
176
     1
 62
     5
420
      255
176
     1
290
     0
176
     1
 90
       50
176
     1
 90
       50
176
     1
 90
       50
176
     1
290
     0
176
     1
 90
       50
176
     1
 62
   256
176
     0
 40
1.0
176
     0
 90
        2
176
     1
  1
strokes_ogs.tif
176
     1
290
     0
176
     1
 40
1.0
176
     1
 40
1.0
176
     1
  0
VISUALSTYLE
  5
179
102
{ACAD_REACTORS
330
165
102
}
330
165
100
AcDbVisualStyle
  2
Shaded with edges
 70
    26
177
     3
291
     0
 70
    58
 90
        2
176
     1
 90
        2
176
     1
 90
        1
176
     1
 90
        2
176
     1
 40
0.6
176
     1
 40
30.0
176
     1
 62
     7
420
 16777215
176
     1
 90
        1
176
     1
 90
        2
176
     1
 62
     7
176
     1
 62
   257
176
     1
 90
        2
176
     1
 90
        1
176
     1
 40
1.0
176
     1
 90
        8
176
     1
 62
   257
176
     1
 40
1.0
176
     1
 90
        1
176
     1
 90
        6
176
     1
 90
        2
176
     1
 62
     7
176
     1
 90
        3
176
     1
 90
        0
176
     1
 90
        0
176
     1
290
     0
176
     1
 90
        5
176
     1
 40
0.0
176
     1
 90
        0
176
     1
290
     0
176
     1
290
     1
176
     1
290
     1
176
     1
290
     0
176
     1
290
     0
176
     1
290
     0
176
     1
290
     0
176
     1
290
     0
176
     1
290
     0
176
     1
 90
       50
176
     1
 40
0.0
176
     1
 40
1.0
176
     1
 90
        0
176
     1
 62
    18
420
        0
176
     1
 90
       50
176
     1
 90
        3
176
     1
 62
     5
420
      255
176
     1
290
     0
176
     1
 90
       50
176
     1
 90
       50
176
     1
 90
       50
176
     1
290
     0
176
     1
 90
       50
176
     1
 62
   256
176
     0
 40
1.0
176
     0
 90
        2
176
     1
  1
strokes_ogs.tif
176
     1
290
     0
176
     1
 40
1.0
176
     1
 40
1.0
176
     1
  0
VISUALSTYLE
  5
176
102
{ACAD_REACTORS
330
165
102
}
330
165
100
AcDbVisualStyle
  2
Shades of Gray
 70
    23
177
     3
291
     0
 70
    58
 90
        2
176
     1
 90
        2
176
     1
 90
        3
176
     1
 90
        0
176
     1
 40
0.6
176
     1
 40
30.0
176
     1
 62
     7
420
 16777215
176
     1
 90
        2
176
     1
 90
        2
176
     1
 62
     7
176
     1
 62
     7
176
     1
 90
        1
176
     1
 90
        1
176
     1
 40
40.0
176
     1
 90
        8
176
     1
 62
     7
176
     1
 40
1.0
176
     1
 90
        1
176
     1
 90
        6
176
     1
 90
        2
176
     1
 62
     7
176
     1
 90
        3
176
     1
 90
        0
176
     1
 90
        0
176
     1
290
     0
176
     1
 90
        1
176
     1
 40
0.0
176
     1
 90
        0
176
     1
290
     0
176
     1
290
     1
176
     1
290
     1
176
     1
290
     0
176
     1
290
     0
176
     1
290
     0
176
     1
290
     0
176
     1
290
     0
176
     1
290
     0
176
     1
 90
       50
176
     1
 40
0.0
176
     1
 40
1.0
176
     1
 90
        0
176
     1
 62
    18
420
        0
176
     1
 90
       50
176
     1
 90
        3
176
     1
 62
     5
420
      255
176
     1
290
     0
176
     1
 90
       50
176
     1
 90
       50
176
     1
 90
       50
176
     1
290
     0
176
     1
 90
       50
176
     1
 62
   256
176
     0
 40
1.0
176
     0
 90
        2
176
     1
  1
strokes_ogs.tif
176
     1
290
     0
176
     1
 40
1.0
176
     1
 40
1.0
176
     1
  0
VISUALSTYLE
  5
177
102
{ACAD_REACTORS
330
165
102
}
330
165
100
AcDbVisualStyle
  2
Sketchy
 70
    24
177
     3
291
     0
 70
    58
 90
        1
176
     1
 90
        2
176
     1
 90
        2
176
     1
 90
        0
176
     1
 40
0.6
176
     1
 40
30.0
176
     1
 62
     7
420
 16777215
176
     1
 90
        2
176
     1
 90
        2
176
     1
 62
     7
176
     1
 62
     7
176
     1
 90
        1
176
     1
 90
        1
176
     1
 40
40.0
176
     1
 90
       11
176
     1
 62
     7
176
     1
 40
1.0
176
     1
 90
        1
176
     1
 90
        6
176
     1
 90
        2
176
     1
 62
     7
176
     1
 90
        6
176
     1
 90
        0
176
     1
 90
        0
176
     1
290
     0
176
     1
 90
        1
176
     1
 40
0.0
176
     1
 90
        0
176
     1
290
     0
176
     1
290
     1
176
     1
290
     1
176
     1
290
     0
176
     1
290
     0
176
     1
290
     0
176
     1
290
     0
176
     1
290
     0
176
     1
290
     0
176
     1
 90
       50
176
     1
 40
0.0
176
     1
 40
1.0
176
     1
 90
        0
176
     1
 62
    18
420
        0
176
     1
 90
       50
176
     1
 90
        3
176
     1
 62
     5
420
      255
176
     1
290
     0
176
     1
 90
       50
176
     1
 90
       50
176
     1
 90
       50
176
     1
290
     0
176
     1
 90
       50
176
     1
 62
   256
176
     0
 40
1.0
176
     0
 90
        2
176
     1
  1
strokes_ogs.tif
176
     1
290
     0
176
     1
 40
1.0
176
     1
 40
1.0
176
     1
  0
VISUALSTYLE
  5
172
102
{ACAD_REACTORS
330
165
102
}
330
165
100
AcDbVisualStyle
  2
Thicken
 70
    13
177
     3
291
     1
 70
    58
 90
        2
176
     1
 90
        2
176
     1
 90
        0
176
     1
 90
        0
176
     1
 40
0.6
176
     1
 40
30.0
176
     1
 62
     7
420
 16777215
176
     1
 90
        1
176
     1
 90
        4
176
     1
 62
     7
176
     1
 62
   257
176
     1
 90
        1
176
     1
 90
        1
176
     1
 40
1.0
176
     1
 90
       12
176
     1
 62
     7
176
     1
 40
1.0
176
     1
 90
        1
176
     1
 90
        6
176
     1
 90
        2
176
     1
 62
     7
176
     1
 90
        5
176
     1
 90
        0
176
     1
 90
        0
176
     1
290
     0
176
     1
 90
        1
176
     1
 40
0.0
176
     1
 90
        0
176
     1
290
     0
176
     1
290
     1
176
     1
290
     1
176
     1
290
     0
176
     1
290
     0
176
     1
290
     0
176
     1
290
     0
176
     1
290
     0
176
     1
290
     0
176
     1
 90
       50
176
     1
 40
0.0
176
     1
 40
1.0
176
     1
 90
        0
176
     1
 62
    18
420
        0
176
     1
 90
       50
176
     1
 90
        3
176
     1
 62
     5
420
      255
176
     1
290
     0
176
     1
 90
       50
176
     1
 90
       50
176
     1
 90
       50
176
     1
290
     0
176
     1
 90
       50
176
     1
 62
   256
176
     0
 40
1.0
176
     0
 90
        2
176
     1
  1
strokes_ogs.tif
176
     1
290
     0
176
     1
 40
1.0
176
     1
 40
1.0
176
     1
  0
VISUALSTYLE
  5
16C
102
{ACAD_REACTORS
330
165
102
}
330
165
100
AcDbVisualStyle
  2
Wireframe
 70
     5
177
     3
291
     0
 70
    58
 90
        0
176
     1
 90
        2
176
     1
 90
        0
176
     1
 90
        0
176
     1
 40
0.6
176
     1
 40
30.0
176
     1
 62
     7
420
 16777215
176
     1
 90
        1
176
     1
 90
        4
176
     1
 62
     7
176
     1
 62
   257
176
     1
 90
        1
176
     1
 90
        1
176
     1
 40
1.0
176
     1
 90
        0
176
     1
 62
   257
176
     1
 40
1.0
176
     1
 90
        1
176
     1
 90
        6
176
     1
 90
        2
176
     1
 62
     7
176
     1
 90
        3
176
     1
 90
        0
176
     1
 90
        0
176
     1
290
     0
176
     1
 90
        1
176
     1
 40
0.0
176
     1
 90
        0
176
     1
290
     0
176
     1
290
     1
176
     1
290
     1
176
     1
290
     0
176
     1
290
     0
176
     1
290
     0
176
     1
290
     0
176
     1
290
     0
176
     1
290
     0
176
     1
 90
       50
176
     1
 40
0.0
176
     1
 40
1.0
176
     1
 90
        0
176
     1
 62
    18
420
        0
176
     1
 90
       50
176
     1
 90
        3
176
     1
 62
     5
420
      255
176
     1
290
     0
176
     1
 90
       50
176
     1
 90
       50
176
     1
 90
       50
176
     1
290
     0
176
     1
 90
       50
176
     1
 62
   256
176
     0
 40
1.0
176
     0
 90
        2
176
     1
  1
strokes_ogs.tif
176
     1
290
     0
176
     1
 40
1.0
176
     1
 40
1.0
176
     1
  0
VISUALSTYLE
  5
178
102
{ACAD_REACTORS
330
165
102
}
330
165
100
AcDbVisualStyle
  2
X-Ray
 70
    25
177
     3
291
     0
 70
    58
 90
        2
176
     1
 90
        2
176
     1
 90
        1
176
     1
 90
        1
176
     1
 40
0.5
176
     1
 40
30.0
176
     1
 62
     7
420
 16777215
176
     1
 90
        1
176
     1
 90
        0
176
     1
 62
     7
176
     1
 62
   257
176
     1
 90
        1
176
     1
 90
        1
176
     1
 40
1.0
176
     1
 90
        8
176
     1
 62
     7
176
     1
 40
1.0
176
     1
 90
        1
176
     1
 90
        6
176
     1
 90
        2
176
     1
 62
     7
176
     1
 90
        3
176
     1
 90
        0
176
     1
 90
        0
176
     1
290
     0
176
     1
 90
       13
176
     1
 40
0.0
176
     1
 90
        0
176
     1
290
     0
176
     1
290
     1
176
     1
290
     1
176
     1
290
     0
176
     1
290
     0
176
     1
290
     0
176
     1
290
     0
176
     1
290
     0
176
     1
290
     0
176
     1
 90
       50
176
     1
 40
0.0
176
     1
 40
1.0
176
     1
 90
        0
176
     1
 62
    18
420
        0
176
     1
 90
       50
176
     1
 90
        3
176
     1
 62
     5
420
      255
176
     1
290
     0
176
     1
 90
       50
176
     1
 90
       50
176
     1
 90
       50
176
     1
290
     0
176
     1
 90
       50
176
     1
 62
   256
176
     0
 40
1.0
176
     0
 90
        2
176
     1
  1
strokes_ogs.tif
176
     1
290
     0
176
     1
 40
1.0
176
     1
 40
1.0
176
     1
  0
DICTIONARYVAR
  5
2CF
102
{ACAD_REACTORS
330
2C9
102
}
330
2C9
100
DictionaryVariables
280
     0
  1
1:1
  0
DICTIONARYVAR
  5
2CB
102
{ACAD_REACTORS
330
2C9
102
}
330
2C9
100
DictionaryVariables
280
     0
  1
STANDARD
  0
DICTIONARYVAR
  5
2CA
102
{ACAD_REACTORS
330
2C9
102
}
330
2C9
100
DictionaryVariables
280
     0
  1
STANDARD
  0
DICTIONARYVAR
  5
2CC
102
{ACAD_REACTORS
330
2C9
102
}
330
2C9
100
DictionaryVariables
280
     0
  1
Metric50
  0
DICTIONARYVAR
  5
2CD
102
{ACAD_REACTORS
330
2C9
102
}
330
2C9
100
DictionaryVariables
280
     0
  1
Metric50
  0
DICTIONARYVAR
  5
2D1
102
{ACAD_REACTORS
330
2C9
102
}
330
2C9
100
DictionaryVariables
280
     0
  1
1
  0
DICTIONARYVAR
  5
2D2
102
{ACAD_REACTORS
330
2C9
102
}
330
2C9
100
DictionaryVariables
280
     0
  1
15
  0
DICTIONARYVAR
  5
2D0
102
{ACAD_REACTORS
330
2C9
102
}
330
2C9
100
DictionaryVariables
280
     0
  1
0
  0
DICTIONARYVAR
  5
2CE
102
{ACAD_REACTORS
330
2C9
102
}
330
2C9
100
DictionaryVariables
280
     0
  1
0
  0
DICTIONARY
  5
1E0
102
{ACAD_REACTORS
330
1DF
102
}
330
1DF
100
AcDbDictionary
281
     1
  3
*A1
350
1E1
  0
DICTIONARY
  5
1D2
102
{ACAD_REACTORS
330
1D1
102
}
330
1D1
100
AcDbDictionary
281
     1
  3
*A1
350
1D3
  0
DICTIONARY
  5
1C4
102
{ACAD_REACTORS
330
1C3
102
}
330
1C3
100
AcDbDictionary
281
     1
  3
*A1
350
1C5
  0
DICTIONARY
  5
1FC
102
{ACAD_REACTORS
330
1FB
102
}
330
1FB
100
AcDbDictionary
281
     1
  3
*A1
350
1FD
  0
DICTIONARY
  5
1EE
102
{ACAD_REACTORS
330
1ED
102
}
330
1ED
100
AcDbDictionary
281
     1
  3
*A1
350
1EF
  0
DICTIONARY
  5
20A
102
{ACAD_REACTORS
330
209
102
}
330
209
100
AcDbDictionary
281
     1
  3
*A1
350
20B
  0
DICTIONARY
  5
21A
102
{ACAD_REACTORS
330
219
102
}
330
219
100
AcDbDictionary
281
     1
  3
*A1
350
21B
  0
DICTIONARY
  5
22A
102
{ACAD_REACTORS
330
229
102
}
330
229
100
AcDbDictionary
281
     1
  3
*A1
350
22B
  0
DICTIONARY
  5
271
102
{ACAD_REACTORS
330
270
102
}
330
270
100
AcDbDictionary
281
     1
  3
*A1
350
272
  0
DICTIONARY
  5
282
102
{ACAD_REACTORS
330
281
102
}
330
281
100
AcDbDictionary
281
     1
  3
*A1
350
283
  0
DICTIONARY
  5
292
102
{ACAD_REACTORS
330
291
102
}
330
291
100
AcDbDictionary
281
     1
  3
*A1
350
293
  0
DICTIONARY
  5
156
330
155
100
AcDbDictionary
280
     1
281
     1
  3
BUMPTILE
360
158
  3
DIFFUSETILE
360
157
  3
OPACITYTILE
360
15B
  3
REFLECTIONTILE
360
15A
  3
REFRACTIONTILE
360
15C
  3
SPECULARTILE
360
159
  0
DICTIONARY
  5
14E
330
14D
100
AcDbDictionary
280
     1
281
     1
  3
BUMPTILE
360
150
  3
DIFFUSETILE
360
14F
  3
OPACITYTILE
360
153
  3
REFLECTIONTILE
360
152
  3
REFRACTIONTILE
360
154
  3
SPECULARTILE
360
151
  0
DICTIONARY
  5
15E
330
15D
100
AcDbDictionary
280
     1
281
     1
  3
BUMPTILE
360
160
  3
DIFFUSETILE
360
15F
  3
OPACITYTILE
360
163
  3
REFLECTIONTILE
360
162
  3
REFRACTIONTILE
360
164
  3
SPECULARTILE
360
161
  0
DICTIONARY
  5
2D3
330
180
100
AcDbDictionary
280
     1
281
     1
  3
ACAD_ROUNDTRIP_2008_TABLESTYLE_CELLSTYLEMAP
360
2D4
  0
ACDB_ALDIMOBJECTCONTEXTDATA_CLASS
  5
1E1
102
{ACAD_REACTORS
330
1E0
102
}
330
1E0
100
AcDbObjectContextData
 70
     4
290
     1
100
AcDbAnnotScaleObjectContextData
340
48
100
AcDbDimensionObjectContextData
  2
*D15
293
     0
 10
-197.9968134327
 20
-176.2220023378
294
     0
140
0.0
298
     0
291
     0
 70
     0
292
     0
 71
     0
280
     0
295
     0
296
     0
297
     0
100
AcDbAlignedDimensionObjectContextData
 11
-197.9968134327
 21
-328.1717962949001
 31
0.0
  0
ACDB_ALDIMOBJECTCONTEXTDATA_CLASS
  5
1D3
102
{ACAD_REACTORS
330
1D2
102
}
330
1D2
100
AcDbObjectContextData
 70
     4
290
     1
100
AcDbAnnotScaleObjectContextData
340
48
100
AcDbDimensionObjectContextData
  2
*D14
293
     0
 10
-44.74659611149999
 20
-368.1717962949
294
     0
140
0.0
298
     0
291
     0
 70
     0
292
     0
 71
     0
280
     0
295
     0
296
     0
297
     0
100
AcDbAlignedDimensionObjectContextData
 11
-132.1090875898
 21
-368.1717962949
 31
0.0
  0
ACDB_ALDIMOBJECTCONTEXTDATA_CLASS
  5
1C5
102
{ACAD_REACTORS
330
1C4
102
}
330
1C4
100
AcDbObjectContextData
 70
     4
290
     1
100
AcDbAnnotScaleObjectContextData
340
48
100
AcDbDimensionObjectContextData
  2
*D13
293
     0
 10
101.8323141266
 20
-252.687109285
294
     0
140
0.0
298
     0
291
     0
 70
     0
292
     0
 71
     0
280
     0
295
     0
296
     0
297
     0
100
AcDbAlignedDimensionObjectContextData
 11
101.8323141266
 21
-178.2017962949
 31
0.0
  0
ACDB_ALDIMOBJECTCONTEXTDATA_CLASS
  5
1FD
102
{ACAD_REACTORS
330
1FC
102
}
330
1FC
100
AcDbObjectContextData
 70
     4
290
     1
100
AcDbAnnotScaleObjectContextData
340
48
100
AcDbDimensionObjectContextData
  2
*D17
293
     0
 10
296.0512048982
 20
-362.1717962949
294
     0
140
0.0
298
     0
291
     0
 70
     0
292
     0
 71
     0
280
     0
295
     0
296
     0
297
     0
100
AcDbAlignedDimensionObjectContextData
 11
325.6322326988
 21
-362.1717962949
 31
0.0
  0
ACDB_ALDIMOBJECTCONTEXTDATA_CLASS
  5
1EF
102
{ACAD_REACTORS
330
1EE
102
}
330
1EE
100
AcDbObjectContextData
 70
     4
290
     1
100
AcDbAnnotScaleObjectContextData
340
48
100
AcDbDimensionObjectContextData
  2
*D16
293
     0
 10
437.6961782192999
 20
-362.1717962949
294
     0
140
0.0
298
     0
291
     0
 70
     0
292
     0
 71
     0
280
     0
295
     0
296
     0
297
     0
100
AcDbAlignedDimensionObjectContextData
 11
464.3822326987999
 21
-362.1717962949
 31
0.0
  0
ACDB_ALDIMOBJECTCONTEXTDATA_CLASS
  5
20B
102
{ACAD_REACTORS
330
20A
102
}
330
20A
100
AcDbObjectContextData
 70
     4
290
     1
100
AcDbAnnotScaleObjectContextData
340
48
100
AcDbDimensionObjectContextData
  2
*D18
293
     0
 10
572.7890414887999
 20
-252.5014350992
294
     0
140
0.0
298
     0
291
     0
 70
     0
292
     0
 71
     0
280
     0
295
     0
296
     0
297
     0
100
AcDbAlignedDimensionObjectContextData
 11
596.1322326987999
 21
-252.5014350992
 31
0.0
  0
ACDB_ALDIMOBJECTCONTEXTDATA_CLASS
  5
21B
102
{ACAD_REACTORS
330
21A
102
}
330
21A
100
AcDbObjectContextData
 70
     4
290
     1
100
AcDbAnnotScaleObjectContextData
340
48
100
AcDbDimensionObjectContextData
  2
*D19
293
     0
 10
-164.7021270382
 20
-1.859051585999999
294
     0
140
0.0
298
     0
291
     0
 70
     0
292
     0
 71
     0
280
     0
295
     0
296
     0
297
     0
100
AcDbAlignedDimensionObjectContextData
 11
-128.2225330754882
 21
-1.896066775230974
 31
0.0
  0
ACDB_ALDIMOBJECTCONTEXTDATA_CLASS
  5
22B
102
{ACAD_REACTORS
330
22A
102
}
330
22A
100
AcDbObjectContextData
 70
     4
290
     1
100
AcDbAnnotScaleObjectContextData
340
48
100
AcDbDimensionObjectContextData
  2
*D20
293
     0
 10
-185.2308248001
 20
185.1675358787
294
     0
140
0.0
298
     0
291
     0
 70
     0
292
     0
 71
     0
280
     0
295
     0
296
     0
297
     0
100
AcDbAlignedDimensionObjectContextData
 11
-171.8974914667667
 21
206.4691908403001
 31
0.0
  0
ACDB_ALDIMOBJECTCONTEXTDATA_CLASS
  5
272
102
{ACAD_REACTORS
330
271
102
}
330
271
100
AcDbObjectContextData
 70
     4
290
     1
100
AcDbAnnotScaleObjectContextData
340
48
100
AcDbDimensionObjectContextData
  2
*D24
293
     0
 10
278.71297069045
 20
-257.7010556050993
294
     1
140
0.0
298
     0
291
     0
 70
     0
292
     0
 71
     0
280
     0
295
     0
296
     0
297
     0
100
AcDbAlignedDimensionObjectContextData
 11
238.7937086821
 21
-265.7010556050993
 31
0.0
  0
ACDB_ALDIMOBJECTCONTEXTDATA_CLASS
  5
283
102
{ACAD_REACTORS
330
282
102
}
330
282
100
AcDbObjectContextData
 70
     4
290
     1
100
AcDbAnnotScaleObjectContextData
340
48
100
AcDbDimensionObjectContextData
  2
*D25
293
     0
 10
340.7132167025655
 20
-326.6717962949001
294
     1
140
0.0
298
     0
291
     0
 70
     0
292
     0
 71
     0
280
     0
295
     0
296
     0
297
     0
100
AcDbAlignedDimensionObjectContextData
 11
334.0465500358989
 21
-325.6717962949001
 31
0.0
  0
ACDB_ALDIMOBJECTCONTEXTDATA_CLASS
  5
293
102
{ACAD_REACTORS
330
292
102
}
330
292
100
AcDbObjectContextData
 70
     4
290
     1
100
AcDbAnnotScaleObjectContextData
340
48
100
AcDbDimensionObjectContextData
  2
*D26
293
     0
 10
496.2780324613061
 20
-323.4190601153926
294
     1
140
0.0
298
     0
291
     0
 70
     0
292
     0
 71
     0
280
     0
295
     0
296
     0
297
     0
100
AcDbAlignedDimensionObjectContextData
 11
489.6113657946395
 21
-318.9190601153924
 31
0.0
  0
XRECORD
  5
158
102
{ACAD_REACTORS
330
156
102
}
330
156
100
AcDbXrecord
280
     1
270
     1
271
     1
  0
XRECORD
  5
157
102
{ACAD_REACTORS
330
156
102
}
330
156
100
AcDbXrecord
280
     1
270
     1
271
     1
  0
XRECORD
  5
15B
102
{ACAD_REACTORS
330
156
102
}
330
156
100
AcDbXrecord
280
     1
270
     1
271
     1
  0
XRECORD
  5
15A
102
{ACAD_REACTORS
330
156
102
}
330
156
100
AcDbXrecord
280
     1
270
     1
271
     1
  0
XRECORD
  5
15C
102
{ACAD_REACTORS
330
156
102
}
330
156
100
AcDbXrecord
280
     1
270
     1
271
     1
  0
XRECORD
  5
159
102
{ACAD_REACTORS
330
156
102
}
330
156
100
AcDbXrecord
280
     1
270
     1
271
     1
  0
XRECORD
  5
150
102
{ACAD_REACTORS
330
14E
102
}
330
14E
100
AcDbXrecord
280
     1
270
     1
271
     1
  0
XRECORD
  5
14F
102
{ACAD_REACTORS
330
14E
102
}
330
14E
100
AcDbXrecord
280
     1
270
     1
271
     1
  0
XRECORD
  5
153
102
{ACAD_REACTORS
330
14E
102
}
330
14E
100
AcDbXrecord
280
     1
270
     1
271
     1
  0
XRECORD
  5
152
102
{ACAD_REACTORS
330
14E
102
}
330
14E
100
AcDbXrecord
280
     1
270
     1
271
     1
  0
XRECORD
  5
154
102
{ACAD_REACTORS
330
14E
102
}
330
14E
100
AcDbXrecord
280
     1
270
     1
271
     1
  0
XRECORD
  5
151
102
{ACAD_REACTORS
330
14E
102
}
330
14E
100
AcDbXrecord
280
     1
270
     1
271
     1
  0
XRECORD
  5
160
102
{ACAD_REACTORS
330
15E
102
}
330
15E
100
AcDbXrecord
280
     1
270
     1
271
     1
  0
XRECORD
  5
15F
102
{ACAD_REACTORS
330
15E
102
}
330
15E
100
AcDbXrecord
280
     1
270
     1
271
     1
  0
XRECORD
  5
163
102
{ACAD_REACTORS
330
15E
102
}
330
15E
100
AcDbXrecord
280
     1
270
     1
271
     1
  0
XRECORD
  5
162
102
{ACAD_REACTORS
330
15E
102
}
330
15E
100
AcDbXrecord
280
     1
270
     1
271
     1
  0
XRECORD
  5
164
102
{ACAD_REACTORS
330
15E
102
}
330
15E
100
AcDbXrecord
280
     1
270
     1
271
     1
  0
XRECORD
  5
161
102
{ACAD_REACTORS
330
15E
102
}
330
15E
100
AcDbXrecord
280
     1
270
     1
271
     1
  0
CELLSTYLEMAP
  5
2D4
102
{ACAD_REACTORS
330
2D3
102
}
330
2D3
100
AcDbCellStyleMap
 90
        3
300
CELLSTYLE
  1
TABLEFORMAT_BEGIN
 90
        5
170
     1
 91
        0
 92
    32768
 62
   257
 93
        1
300
CONTENTFORMAT
  1
CONTENTFORMAT_BEGIN
 90
        0
 91
        0
 92
      512
 93
        0
300

 40
0.0
140
1.0
 94
        5
 62
     0
340
11
144
6.0
309
CONTENTFORMAT_END
171
     1
301
MARGIN
  1
CELLMARGIN_BEGIN
 40
1.5
 40
1.5
 40
1.5
 40
1.5
 40
4.5
 40
4.5
309
CELLMARGIN_END
 94
        6
 95
        1
302
GRIDFORMAT
  1
GRIDFORMAT_BEGIN
 90
        0
 91
        1
 62
     0
 92
       -2
340
0
 93
        0
 40
1.125
309
GRIDFORMAT_END
 95
        2
302
GRIDFORMAT
  1
GRIDFORMAT_BEGIN
 90
        0
 91
        1
 62
     0
 92
       -2
340
0
 93
        0
 40
1.125
309
GRIDFORMAT_END
 95
        4
302
GRIDFORMAT
  1
GRIDFORMAT_BEGIN
 90
        0
 91
        1
 62
     0
 92
       -2
340
0
 93
        0
 40
1.125
309
GRIDFORMAT_END
 95
        8
302
GRIDFORMAT
  1
GRIDFORMAT_BEGIN
 90
        0
 91
        1
 62
     0
 92
       -2
340
0
 93
        0
 40
1.125
309
GRIDFORMAT_END
 95
       16
302
GRIDFORMAT
  1
GRIDFORMAT_BEGIN
 90
        0
 91
        1
 62
     0
 92
       -2
340
0
 93
        0
 40
1.125
309
GRIDFORMAT_END
 95
       32
302
GRIDFORMAT
  1
GRIDFORMAT_BEGIN
 90
        0
 91
        1
 62
     0
 92
       -2
340
0
 93
        0
 40
1.125
309
GRIDFORMAT_END
309
TABLEFORMAT_END
  1
CELLSTYLE_BEGIN
 90
        1
 91
        1
300
_TITLE
309
CELLSTYLE_END
300
CELLSTYLE
  1
TABLEFORMAT_BEGIN
 90
        5
170
     1
 91
        0
 92
        0
 62
   257
 93
        1
300
CONTENTFORMAT
  1
CONTENTFORMAT_BEGIN
 90
        0
 91
        0
 92
      512
 93
        0
300

 40
0.0
140
1.0
 94
        5
 62
     0
340
11
144
4.5
309
CONTENTFORMAT_END
171
     1
301
MARGIN
  1
CELLMARGIN_BEGIN
 40
1.5
 40
1.5
 40
1.5
 40
1.5
 40
4.5
 40
4.5
309
CELLMARGIN_END
 94
        6
 95
        1
302
GRIDFORMAT
  1
GRIDFORMAT_BEGIN
 90
        0
 91
        1
 62
     0
 92
       -2
340
0
 93
        0
 40
1.125
309
GRIDFORMAT_END
 95
        2
302
GRIDFORMAT
  1
GRIDFORMAT_BEGIN
 90
        0
 91
        1
 62
     0
 92
       -2
340
0
 93
        0
 40
1.125
309
GRIDFORMAT_END
 95
        4
302
GRIDFORMAT
  1
GRIDFORMAT_BEGIN
 90
        0
 91
        1
 62
     0
 92
       -2
340
0
 93
        0
 40
1.125
309
GRIDFORMAT_END
 95
        8
302
GRIDFORMAT
  1
GRIDFORMAT_BEGIN
 90
        0
 91
        1
 62
     0
 92
       -2
340
0
 93
        0
 40
1.125
309
GRIDFORMAT_END
 95
       16
302
GRIDFORMAT
  1
GRIDFORMAT_BEGIN
 90
        0
 91
        1
 62
     0
 92
       -2
340
0
 93
        0
 40
1.125
309
GRIDFORMAT_END
 95
       32
302
GRIDFORMAT
  1
GRIDFORMAT_BEGIN
 90
        0
 91
        1
 62
     0
 92
       -2
340
0
 93
        0
 40
1.125
309
GRIDFORMAT_END
309
TABLEFORMAT_END
  1
CELLSTYLE_BEGIN
 90
        2
 91
        1
300
_HEADER
309
CELLSTYLE_END
300
CELLSTYLE
  1
TABLEFORMAT_BEGIN
 90
        5
170
     1
 91
        0
 92
        0
 62
   257
 93
        1
300
CONTENTFORMAT
  1
CONTENTFORMAT_BEGIN
 90
        0
 91
        0
 92
      512
 93
        0
300

 40
0.0
140
1.0
 94
        2
 62
     0
340
11
144
4.5
309
CONTENTFORMAT_END
171
     1
301
MARGIN
  1
CELLMARGIN_BEGIN
 40
1.5
 40
1.5
 40
1.5
 40
1.5
 40
4.5
 40
4.5
309
CELLMARGIN_END
 94
        6
 95
        1
302
GRIDFORMAT
  1
GRIDFORMAT_BEGIN
 90
        0
 91
        1
 62
     0
 92
       -2
340
0
 93
        0
 40
1.125
309
GRIDFORMAT_END
 95
        2
302
GRIDFORMAT
  1
GRIDFORMAT_BEGIN
 90
        0
 91
        1
 62
     0
 92
       -2
340
0
 93
        0
 40
1.125
309
GRIDFORMAT_END
 95
        4
302
GRIDFORMAT
  1
GRIDFORMAT_BEGIN
 90
        0
 91
        1
 62
     0
 92
       -2
340
0
 93
        0
 40
1.125
309
GRIDFORMAT_END
 95
        8
302
GRIDFORMAT
  1
GRIDFORMAT_BEGIN
 90
        0
 91
        1
 62
     0
 92
       -2
340
0
 93
        0
 40
1.125
309
GRIDFORMAT_END
 95
       16
302
GRIDFORMAT
  1
GRIDFORMAT_BEGIN
 90
        0
 91
        1
 62
     0
 92
       -2
340
0
 93
        0
 40
1.125
309
GRIDFORMAT_END
 95
       32
302
GRIDFORMAT
  1
GRIDFORMAT_BEGIN
 90
        0
 91
        1
 62
     0
 92
       -2
340
0
 93
        0
 40
1.125
309
GRIDFORMAT_END
309
TABLEFORMAT_END
  1
CELLSTYLE_BEGIN
 90
        3
 91
        2
300
_DATA
309
CELLSTYLE_END
  0
ENDSEC
  0
EOF
