  0
SECTION
  2
HEADER
  9
$ACADVER
  1
AC1027
  9
$ACADMAINTVER
 70
   125
  9
$DWGCODEPAGE
  3
ANSI_1252
  9
$LASTSAVEDBY
  1
fleminab
  9
$REQUIREDVERSIONS
160
                 0
  9
$INSBASE
 10
0.0
 20
0.0
 30
0.0
  9
$EXTMIN
 10
5133.034969647131
 20
-11450.74495609662
 30
-0.0000000000000053
  9
$EXTMAX
 10
8981.063686748242
 20
-10112.46971672027
 30
0.0000000000000099
  9
$LIMMIN
 10
0.0
 20
0.0
  9
$LIMMAX
 10
12.0
 20
9.0
  9
$ORTHOMODE
 70
     1
  9
$REGENMODE
 70
     1
  9
$FILLMODE
 70
     1
  9
$QTEXTMODE
 70
     0
  9
$MIRRTEXT
 70
     0
  9
$LTSCALE
 40
1.0
  9
$ATTMODE
 70
     1
  9
$TEXTSIZE
 40
0.2
  9
$TRACEWID
 40
0.05
  9
$TEXTSTYLE
  7
Standard
  9
$CLAYER
  8
0
  9
$CELTYPE
  6
ByLayer
  9
$CECOLOR
 62
   256
  9
$CELTSCALE
 40
1.0
  9
$DISPSILH
 70
     0
  9
$DIMSCALE
 40
15.0
  9
$DIMASZ
 40
2.5
  9
$DIMEXO
 40
0.0625
  9
$DIMDLI
 40
3.754999999999999
  9
$DIMRND
 40
0.0
  9
$DIMDLE
 40
0.0
  9
$DIMEXE
 40
1.25
  9
$DIMTP
 40
0.0
  9
$DIMTM
 40
0.0
  9
$DIMTXT
 40
3.0
  9
$DIMCEN
 40
2.5
  9
$DIMTSZ
 40
0.0
  9
$DIMTOL
 70
     0
  9
$DIMLIM
 70
     0
  9
$DIMTIH
 70
     0
  9
$DIMTOH
 70
     1
  9
$DIMSE1
 70
     0
  9
$DIMSE2
 70
     0
  9
$DIMTAD
 70
     1
  9
$DIMZIN
 70
     8
  9
$DIMBLK
  1

  9
$DIMASO
 70
     1
  9
$DIMSHO
 70
     1
  9
$DIMPOST
  1

  9
$DIMAPOST
  1

  9
$DIMALT
 70
     0
  9
$DIMALTD
 70
     2
  9
$DIMALTF
 40
25.4
  9
$DIMLFAC
 40
1.0
  9
$DIMTOFL
 70
     1
  9
$DIMTVP
 40
0.0
  9
$DIMTIX
 70
     0
  9
$DIMSOXD
 70
     0
  9
$DIMSAH
 70
     0
  9
$DIMBLK1
  1

  9
$DIMBLK2
  1

  9
$DIMSTYLE
  2
Standard
  9
$DIMCLRD
 70
     0
  9
$DIMCLRE
 70
     0
  9
$DIMCLRT
 70
     0
  9
$DIMTFAC
 40
1.0
  9
$DIMGAP
 40
0.625
  9
$DIMJUST
 70
     0
  9
$DIMSD1
 70
     0
  9
$DIMSD2
 70
     0
  9
$DIMTOLJ
 70
     1
  9
$DIMTZIN
 70
     0
  9
$DIMALTZ
 70
     0
  9
$DIMALTTZ
 70
     0
  9
$DIMUPT
 70
     0
  9
$DIMDEC
 70
     0
  9
$DIMTDEC
 70
     0
  9
$DIMALTU
 70
     2
  9
$DIMALTTD
 70
     2
  9
$DIMTXSTY
  7
Standard
  9
$DIMAUNIT
 70
     0
  9
$DIMADEC
 70
     0
  9
$DIMALTRND
 40
0.0
  9
$DIMAZIN
 70
     2
  9
$DIMDSEP
 70
    46
  9
$DIMATFIT
 70
     3
  9
$DIMFRAC
 70
     0
  9
$DIMLDRBLK
  1

  9
$DIMLUNIT
 70
     2
  9
$DIMLWD
 70
    -2
  9
$DIMLWE
 70
    -2
  9
$DIMTMOVE
 70
     0
  9
$DIMFXL
 40
1.0
  9
$DIMFXLON
 70
     0
  9
$DIMJOGANG
 40
0.7853981633974483
  9
$DIMTFILL
 70
     0
  9
$DIMTFILLCLR
 70
     0
  9
$DIMARCSYM
 70
     0
  9
$DIMLTYPE
  6

  9
$DIMLTEX1
  6

  9
$DIMLTEX2
  6

  9
$DIMTXTDIRECTION
 70
     0
  9
$LUNITS
 70
     2
  9
$LUPREC
 70
     4
  9
$SKETCHINC
 40
0.1
  9
$FILLETRAD
 40
60.0
  9
$AUNITS
 70
     0
  9
$AUPREC
 70
     0
  9
$MENU
  1
.
  9
$ELEVATION
 40
0.0
  9
$PELEVATION
 40
0.0
  9
$THICKNESS
 40
0.0
  9
$LIMCHECK
 70
     0
  9
$CHAMFERA
 40
0.0
  9
$CHAMFERB
 40
0.0
  9
$CHAMFERC
 40
0.0
  9
$CHAMFERD
 40
0.0
  9
$SKPOLY
 70
     0
  9
$TDCREATE
 40
2455980.500775463
  9
$TDUCREATE
 40
2455980.042452431
  9
$TDUPDATE
 40
2458051.683287037
  9
$TDUUPDATE
 40
2458051.224953704
  9
$TDINDWG
 40
1.7829720718
  9
$TDUSRTIMER
 40
1.7829720718
  9
$USRTIMER
 70
     1
  9
$ANGBASE
 50
0.0
  9
$ANGDIR
 70
     0
  9
$PDMODE
 70
     0
  9
$PDSIZE
 40
0.0
  9
$PLINEWID
 40
0.0
  9
$SPLFRAME
 70
     0
  9
$SPLINETYPE
 70
     6
  9
$SPLINESEGS
 70
     8
  9
$HANDSEED
  5
7DDC
  9
$SURFTAB1
 70
     6
  9
$SURFTAB2
 70
     6
  9
$SURFTYPE
 70
     6
  9
$SURFU
 70
     6
  9
$SURFV
 70
     6
  9
$UCSBASE
  2

  9
$UCSNAME
  2

  9
$UCSORG
 10
0.0
 20
0.0
 30
0.0
  9
$UCSXDIR
 10
1.0
 20
0.0
 30
0.0
  9
$UCSYDIR
 10
0.0
 20
1.0
 30
0.0
  9
$UCSORTHOREF
  2

  9
$UCSORTHOVIEW
 70
     1
  9
$UCSORGTOP
 10
0.0
 20
0.0
 30
0.0
  9
$UCSORGBOTTOM
 10
0.0
 20
0.0
 30
0.0
  9
$UCSORGLEFT
 10
0.0
 20
0.0
 30
0.0
  9
$UCSORGRIGHT
 10
0.0
 20
0.0
 30
0.0
  9
$UCSORGFRONT
 10
0.0
 20
0.0
 30
0.0
  9
$UCSORGBACK
 10
0.0
 20
0.0
 30
0.0
  9
$PUCSBASE
  2

  9
$PUCSNAME
  2

  9
$PUCSORG
 10
0.0
 20
0.0
 30
0.0
  9
$PUCSXDIR
 10
1.0
 20
0.0
 30
0.0
  9
$PUCSYDIR
 10
0.0
 20
1.0
 30
0.0
  9
$PUCSORTHOREF
  2

  9
$PUCSORTHOVIEW
 70
     0
  9
$PUCSORGTOP
 10
0.0
 20
0.0
 30
0.0
  9
$PUCSORGBOTTOM
 10
0.0
 20
0.0
 30
0.0
  9
$PUCSORGLEFT
 10
0.0
 20
0.0
 30
0.0
  9
$PUCSORGRIGHT
 10
0.0
 20
0.0
 30
0.0
  9
$PUCSORGFRONT
 10
0.0
 20
0.0
 30
0.0
  9
$PUCSORGBACK
 10
0.0
 20
0.0
 30
0.0
  9
$USERI1
 70
     0
  9
$USERI2
 70
     0
  9
$USERI3
 70
     0
  9
$USERI4
 70
     0
  9
$USERI5
 70
     0
  9
$USERR1
 40
0.0
  9
$USERR2
 40
0.0
  9
$USERR3
 40
0.0
  9
$USERR4
 40
0.0
  9
$USERR5
 40
0.0
  9
$WORLDVIEW
 70
     1
  9
$SHADEDGE
 70
     3
  9
$SHADEDIF
 70
    70
  9
$TILEMODE
 70
     1
  9
$MAXACTVP
 70
    64
  9
$PINSBASE
 10
0.0
 20
0.0
 30
0.0
  9
$PLIMCHECK
 70
     0
  9
$PEXTMIN
 10
0.0
 20
0.0
 30
0.0
  9
$PEXTMAX
 10
0.0
 20
0.0
 30
0.0
  9
$PLIMMIN
 10
0.0
 20
0.0
  9
$PLIMMAX
 10
12.0
 20
9.0
  9
$UNITMODE
 70
     0
  9
$VISRETAIN
 70
     1
  9
$PLINEGEN
 70
     0
  9
$PSLTSCALE
 70
     1
  9
$TREEDEPTH
 70
  3020
  9
$CMLSTYLE
  2
Standard
  9
$CMLJUST
 70
     0
  9
$CMLSCALE
 40
1.0
  9
$PROXYGRAPHICS
 70
     1
  9
$MEASUREMENT
 70
     0
  9
$CELWEIGHT
370
    -1
  9
$ENDCAPS
280
     0
  9
$JOINSTYLE
280
     0
  9
$LWDISPLAY
290
     1
  9
$INSUNITS
 70
     1
  9
$HYPERLINKBASE
  1

  9
$STYLESHEET
  1
acad.ctb
  9
$XEDIT
290
     1
  9
$CEPSNTYPE
380
     0
  9
$PSTYLEMODE
290
     1
  9
$FINGERPRINTGUID
  2
{E6A272C6-05BE-46A2-A4C2-A07F99362563}
  9
$VERSIONGUID
  2
{14A054B2-6050-A444-9A04-5A5FABBA4144}
  9
$EXTNAMES
290
     1
  9
$PSVPSCALE
 40
0.0
  9
$OLESTARTUP
290
     0
  9
$SORTENTS
280
   127
  9
$INDEXCTL
280
     0
  9
$HIDETEXT
280
     1
  9
$XCLIPFRAME
280
     0
  9
$HALOGAP
280
     0
  9
$OBSCOLOR
 70
   257
  9
$OBSLTYPE
280
     0
  9
$INTERSECTIONDISPLAY
280
     0
  9
$INTERSECTIONCOLOR
 70
   257
  9
$DIMASSOC
280
     2
  9
$PROJECTNAME
  1

  9
$CAMERADISPLAY
290
     0
  9
$LENSLENGTH
 40
50.0
  9
$CAMERAHEIGHT
 40
0.0
  9
$STEPSPERSEC
 40
2.0
  9
$STEPSIZE
 40
6.0
  9
$3DDWFPREC
 40
2.0
  9
$PSOLWIDTH
 40
0.25
  9
$PSOLHEIGHT
 40
4.0
  9
$LOFTANG1
 40
1.570796326794896
  9
$LOFTANG2
 40
1.570796326794896
  9
$LOFTMAG1
 40
0.0
  9
$LOFTMAG2
 40
0.0
  9
$LOFTPARAM
 70
     7
  9
$LOFTNORMALS
280
     1
  9
$LATITUDE
 40
37.795
  9
$LONGITUDE
 40
-122.394
  9
$NORTHDIRECTION
 40
0.0
  9
$TIMEZONE
 70
 -8000
  9
$LIGHTGLYPHDISPLAY
280
     1
  9
$TILEMODELIGHTSYNCH
280
     1
  9
$CMATERIAL
347
94
  9
$SOLIDHIST
280
     1
  9
$SHOWHIST
280
     1
  9
$DWFFRAME
280
     2
  9
$DGNFRAME
280
     0
  9
$REALWORLDSCALE
290
     1
  9
$INTERFERECOLOR
 62
     1
  9
$INTERFEREOBJVS
345
A1
  9
$INTERFEREVPVS
346
9E
  9
$CSHADOW
280
     0
  9
$SHADOWPLANELOCATION
 40
0.0
  0
ENDSEC
  0
SECTION
  2
CLASSES
  0
CLASS
  1
ACDBDICTIONARYWDFLT
  2
AcDbDictionaryWithDefault
  3
ObjectDBX Classes
 90
        0
 91
        1
280
     0
281
     0
  0
CLASS
  1
DICTIONARYVAR
  2
AcDbDictionaryVar
  3
ObjectDBX Classes
 90
        0
 91
       19
280
     0
281
     0
  0
CLASS
  1
TABLESTYLE
  2
AcDbTableStyle
  3
ObjectDBX Classes
 90
     4095
 91
        1
280
     0
281
     0
  0
CLASS
  1
MATERIAL
  2
AcDbMaterial
  3
ObjectDBX Classes
 90
     1153
 91
        3
280
     0
281
     0
  0
CLASS
  1
VISUALSTYLE
  2
AcDbVisualStyle
  3
ObjectDBX Classes
 90
     4095
 91
       26
280
     0
281
     0
  0
CLASS
  1
DIMASSOC
  2
AcDbDimAssoc
  3
"AcDbDimAssoc|Product Desc:     AcDim ARX App For Dimension|Company:          Autodesk, Inc.|WEB Address:      www.autodesk.com"
 90
        0
 91
       10
280
     0
281
     0
  0
CLASS
  1
SORTENTSTABLE
  2
AcDbSortentsTable
  3
ObjectDBX Classes
 90
        0
 91
        1
280
     0
281
     0
  0
CLASS
  1
EXACXREFPANELOBJECT
  2
ExAcXREFPanelObject
  3
EXAC_ESW
 90
     1025
 91
        0
280
     0
281
     0
  0
CLASS
  1
NPOCOLLECTION
  2
AcDbImpNonPersistentObjectsCollection
  3
ObjectDBX Classes
 90
     1153
 91
        0
280
     0
281
     0
  0
CLASS
  1
SCALE
  2
AcDbScale
  3
ObjectDBX Classes
 90
     1153
 91
       17
280
     0
281
     0
  0
CLASS
  1
MLEADERSTYLE
  2
AcDbMLeaderStyle
  3
ACDB_MLEADERSTYLE_CLASS
 90
     4095
 91
        1
280
     0
281
     0
  0
CLASS
  1
ACDBSECTIONVIEWSTYLE
  2
AcDbSectionViewStyle
  3
ObjectDBX Classes
 90
     1025
 91
        1
280
     0
281
     0
  0
CLASS
  1
ACDBDETAILVIEWSTYLE
  2
AcDbDetailViewStyle
  3
ObjectDBX Classes
 90
     1025
 91
        1
280
     0
281
     0
  0
CLASS
  1
CELLSTYLEMAP
  2
AcDbCellStyleMap
  3
ObjectDBX Classes
 90
     1152
 91
        1
280
     0
281
     0
  0
ENDSEC
  0
SECTION
  2
TABLES
  0
TABLE
  2
VPORT
  5
8
102
{ACAD_XDICTIONARY
360
937
102
}
330
0
100
AcDbSymbolTable
 70
     1
1001
ACAD
1000
DbSaveVer
1071
        5
  0
VPORT
  5
92
330
8
100
AcDbSymbolTableRecord
100
AcDbViewportTableRecord
  2
*Active
 70
     0
 10
0.0
 20
0.0
 11
1.0
 21
1.0
 12
7057.049328197686
 22
-10781.60733640844
 13
0.0
 23
0.0
 14
0.5
 24
0.5
 15
0.5
 25
0.5
 16
0.0
 26
0.0
 36
1.0
 17
0.0
 27
0.0
 37
0.0
 40
1683.615562400855
 41
2.292712066905615
 42
50.0
 43
0.0
 44
0.0
 50
0.0
 51
0.0
 71
     0
 72
  1000
 73
     1
 74
     3
 75
     0
 76
     0
 77
     0
 78
     0
281
     0
 65
     1
110
0.0
120
0.0
130
0.0
111
1.0
121
0.0
131
0.0
112
0.0
122
1.0
132
0.0
 79
     0
146
0.0
348
9D
 60
     2
 61
     5
292
     1
282
     1
141
0.0
142
0.0
 63
   250
421
  3355443
1001
ACAD_NAV_VCDISPLAY
1070
     3
  0
ENDTAB
  0
TABLE
  2
LTYPE
  5
5
330
0
100
AcDbSymbolTable
 70
     5
  0
LTYPE
  5
14
330
5
100
AcDbSymbolTableRecord
100
AcDbLinetypeTableRecord
  2
ByBlock
 70
     0
  3

 72
    65
 73
     0
 40
0.0
  0
LTYPE
  5
15
330
5
100
AcDbSymbolTableRecord
100
AcDbLinetypeTableRecord
  2
ByLayer
 70
     0
  3

 72
    65
 73
     0
 40
0.0
  0
LTYPE
  5
16
330
5
100
AcDbSymbolTableRecord
100
AcDbLinetypeTableRecord
  2
Continuous
 70
     0
  3
Solid line
 72
    65
 73
     0
 40
0.0
  0
LTYPE
  5
268
330
5
100
AcDbSymbolTableRecord
100
AcDbLinetypeTableRecord
  2
ACAD_ISO03W100
 70
     0
  3
ISO dash space __    __    __    __    __    __
 72
    65
 73
     2
 40
30.0
 49
12.0
 74
     0
 49
-18.0
 74
     0
  0
LTYPE
  5
269
330
5
100
AcDbSymbolTableRecord
100
AcDbLinetypeTableRecord
  2
CENTER
 70
     0
  3
Center ____ _ ____ _ ____ _ ____ _ ____ _ ____
 72
    65
 73
     4
 40
50.8
 49
31.75
 74
     0
 49
-6.349999999999999
 74
     0
 49
6.349999999999999
 74
     0
 49
-6.349999999999999
 74
     0
  0
LTYPE
  5
10CC
330
5
100
AcDbSymbolTableRecord
100
AcDbLinetypeTableRecord
  2
HIDDEN
 70
     0
  3
- - - - - - - - - - - - - - - - - - - -
 72
    65
 73
     2
 40
0.2
 49
0.1
 74
     0
 49
-0.1
 74
     0
  0
LTYPE
  5
3539
330
5
100
AcDbSymbolTableRecord
100
AcDbLinetypeTableRecord
  2
DOT
 70
     0
  3
Dot . . . . . . . . . . . . . . . . . . . . . .
 72
    65
 73
     2
 40
0.25
 49
0.0
 74
     0
 49
-0.25
 74
     0
  0
ENDTAB
  0
TABLE
  2
LAYER
  5
2
102
{ACAD_XDICTIONARY
360
CB
102
}
330
0
100
AcDbSymbolTable
 70
    12
  0
LAYER
  5
10
102
{ACAD_XDICTIONARY
360
7DA9
102
}
330
2
100
AcDbSymbolTableRecord
100
AcDbLayerTableRecord
  2
0
 70
     0
 62
     7
  6
Continuous
370
    -3
390
F
347
96
348
0
  0
LAYER
  5
C5
102
{ACAD_XDICTIONARY
360
7DAB
102
}
330
2
100
AcDbSymbolTableRecord
100
AcDbLayerTableRecord
  2
标注
 70
     0
 62
    82
  6
Continuous
370
    -3
390
F
347
96
348
0
1001
AcadStringInfo
1000
MIFCodePage
1070
     5
  0
LAYER
  5
C6
102
{ACAD_XDICTIONARY
360
7DAD
102
}
330
2
100
AcDbSymbolTableRecord
100
AcDbLayerTableRecord
  2
粗实线
 70
     0
 62
     7
  6
Continuous
370
    30
390
F
347
96
348
0
1001
AcadStringInfo
1000
MIFCodePage
1070
     5
  0
LAYER
  5
C7
102
{ACAD_XDICTIONARY
360
7DAF
102
}
330
2
100
AcDbSymbolTableRecord
100
AcDbLayerTableRecord
  2
细实
 70
     0
 62
   131
  6
Continuous
370
    15
390
F
347
96
348
0
1001
AcadStringInfo
1000
MIFCodePage
1070
     5
  0
LAYER
  5
C8
102
{ACAD_XDICTIONARY
360
7DB1
102
}
330
2
100
AcDbSymbolTableRecord
100
AcDbLayerTableRecord
  2
粗实
 70
     0
 62
     7
  6
Continuous
370
    40
390
F
347
96
348
0
1001
AcadStringInfo
1000
MIFCodePage
1070
     5
  0
LAYER
  5
26A
102
{ACAD_XDICTIONARY
360
7DB3
102
}
330
2
100
AcDbSymbolTableRecord
100
AcDbLayerTableRecord
  2
细实线
 70
     0
 62
     7
  6
Continuous
370
    25
390
F
347
96
348
0
1001
AcAecLayerStandard
1000

1000

1001
AcadStringInfo
1000
MIFCodePage
1070
     5
  0
LAYER
  5
26B
102
{ACAD_XDICTIONARY
360
7DB5
102
}
330
2
100
AcDbSymbolTableRecord
100
AcDbLayerTableRecord
  2
标注线
 70
     0
 62
     6
  6
Continuous
370
    18
390
F
347
96
348
0
1001
AcAecLayerStandard
1000

1000

1001
AcadStringInfo
1000
MIFCodePage
1070
     5
  0
LAYER
  5
26C
102
{ACAD_XDICTIONARY
360
7DB7
102
}
330
2
100
AcDbSymbolTableRecord
100
AcDbLayerTableRecord
  2
虚线
 70
     0
 62
     2
  6
ACAD_ISO03W100
370
    18
390
F
347
96
348
0
1001
AcAecLayerStandard
1000

1000

1001
AcadStringInfo
1000
MIFCodePage
1070
     5
  0
LAYER
  5
26D
102
{ACAD_XDICTIONARY
360
7DB9
102
}
330
2
100
AcDbSymbolTableRecord
100
AcDbLayerTableRecord
  2
中心线
 70
     0
 62
     1
  6
CENTER
370
    18
390
F
347
96
348
0
1001
AcAecLayerStandard
1000

1000

1001
AcadStringInfo
1000
MIFCodePage
1070
     5
  0
LAYER
  5
26E
330
2
100
AcDbSymbolTableRecord
100
AcDbLayerTableRecord
  2
Defpoints
 70
     0
 62
     7
  6
Continuous
290
     0
370
    -3
390
F
347
96
348
0
  0
LAYER
  5
52B
102
{ACAD_XDICTIONARY
360
7DBB
102
}
330
2
100
AcDbSymbolTableRecord
100
AcDbLayerTableRecord
  2
06___PRT_ALL_SURFS
 70
     0
 62
     7
  6
Continuous
370
    -3
390
F
347
96
348
0
  0
LAYER
  5
3C36
102
{ACAD_XDICTIONARY
360
7DBD
102
}
330
2
100
AcDbSymbolTableRecord
100
AcDbLayerTableRecord
  2
AM_0
 70
     0
 62
     7
  6
Continuous
370
    35
390
F
347
96
348
0
1001
AcAecLayerStandard
1000

1000

  0
ENDTAB
  0
TABLE
  2
STYLE
  5
3
330
0
100
AcDbSymbolTable
 70
     2
  0
STYLE
  5
11
330
3
100
AcDbSymbolTableRecord
100
AcDbTextStyleTableRecord
  2
Standard
 70
     0
 40
0.0
 41
1.0
 50
0.0
 71
     0
 42
0.2
  3
txt
  4
gbcbig.shx
  0
STYLE
  5
C9
330
3
100
AcDbSymbolTableRecord
100
AcDbTextStyleTableRecord
  2
hz
 70
     0
 40
0.0
 41
0.667
 50
1.0
 71
     0
 42
3.0
  3
romans.shx
  4

  0
ENDTAB
  0
TABLE
  2
VIEW
  5
6
330
0
100
AcDbSymbolTable
 70
     0
  0
ENDTAB
  0
TABLE
  2
UCS
  5
7
330
0
100
AcDbSymbolTable
 70
     0
  0
ENDTAB
  0
TABLE
  2
APPID
  5
9
330
0
100
AcDbSymbolTable
 70
     6
  0
APPID
  5
12
330
9
100
AcDbSymbolTableRecord
100
AcDbRegAppTableRecord
  2
ACAD
 70
     0
  0
APPID
  5
CA
330
9
100
AcDbSymbolTableRecord
100
AcDbRegAppTableRecord
  2
ACAD_PSEXT
 70
     0
  0
APPID
  5
270
330
9
100
AcDbSymbolTableRecord
100
AcDbRegAppTableRecord
  2
AcAecLayerStandard
 70
     0
  0
APPID
  5
9E6
330
9
100
AcDbSymbolTableRecord
100
AcDbRegAppTableRecord
  2
ACAD_EXEMPT_FROM_CAD_STANDARDS
 70
     0
  0
APPID
  5
7DA1
330
9
100
AcDbSymbolTableRecord
100
AcDbRegAppTableRecord
  2
AcadStringInfo
 70
     0
  0
APPID
  5
7DBF
330
9
100
AcDbSymbolTableRecord
100
AcDbRegAppTableRecord
  2
ACAD_NAV_VCDISPLAY
 70
     0
  0
ENDTAB
  0
TABLE
  2
DIMSTYLE
  5
A
330
0
100
AcDbSymbolTable
 70
     2
100
AcDbDimStyleTable
 71
     2
340
27
340
26F
  0
DIMSTYLE
105
27
102
{ACAD_REACTORS
330
76D6
330
76D9
330
76DE
330
76E3
330
76E9
330
76EC
330
76EF
330
76F0
330
76F3
330
76F6
330
779E
102
}
330
A
100
AcDbSymbolTableRecord
100
AcDbDimStyleTableRecord
  2
Standard
 70
     0
 40
15.0
 41
2.5
 43
3.754999999999999
 44
1.25
 73
     0
 74
     0
 77
     1
 78
     8
 79
     2
140
3.0
141
2.5
147
0.625
172
     1
271
     0
272
     0
340
11
  0
DIMSTYLE
105
26F
330
A
100
AcDbSymbolTableRecord
100
AcDbDimStyleTableRecord
  2
ISO-25
 70
     0
 41
52.0
 42
0.0
 43
3.75
 44
35.0
 73
     0
 74
     0
 77
     1
 78
     8
140
60.0
141
40.0
143
0.03937007874016
147
15.0
171
     3
172
     1
271
     0
272
     0
274
     3
278
    44
283
     0
284
     8
340
11
  0
ENDTAB
  0
TABLE
  2
BLOCK_RECORD
  5
1
330
0
100
AcDbSymbolTable
 70
   143
  0
BLOCK_RECORD
  5
1F
102
{ACAD_XDICTIONARY
360
FB6
102
}
330
1
100
AcDbSymbolTableRecord
100
AcDbBlockTableRecord
  2
*Model_Space
340
22
 70
     0
280
     1
281
     0
  0
BLOCK_RECORD
  5
58
330
1
100
AcDbSymbolTableRecord
100
AcDbBlockTableRecord
  2
*Paper_Space
340
59
 70
     0
280
     1
281
     0
  0
BLOCK_RECORD
  5
5D
330
1
100
AcDbSymbolTableRecord
100
AcDbBlockTableRecord
  2
*Paper_Space0
340
5E
 70
     0
280
     1
281
     0
  0
BLOCK_RECORD
  5
77A1
330
1
100
AcDbSymbolTableRecord
100
AcDbBlockTableRecord
  2
*D105
340
0
 70
     0
280
     1
281
     0
  0
BLOCK_RECORD
  5
77AF
330
1
100
AcDbSymbolTableRecord
100
AcDbBlockTableRecord
  2
*D106
340
0
 70
     0
280
     1
281
     0
  0
BLOCK_RECORD
  5
77BB
330
1
100
AcDbSymbolTableRecord
100
AcDbBlockTableRecord
  2
*D107
340
0
 70
     0
280
     1
281
     0
  0
BLOCK_RECORD
  5
77C7
330
1
100
AcDbSymbolTableRecord
100
AcDbBlockTableRecord
  2
*D108
340
0
 70
     0
280
     1
281
     0
  0
BLOCK_RECORD
  5
77D3
330
1
100
AcDbSymbolTableRecord
100
AcDbBlockTableRecord
  2
*D109
340
0
 70
     0
280
     1
281
     0
  0
BLOCK_RECORD
  5
77EB
330
1
100
AcDbSymbolTableRecord
100
AcDbBlockTableRecord
  2
*D110
340
0
 70
     0
280
     1
281
     0
  0
BLOCK_RECORD
  5
77F7
330
1
100
AcDbSymbolTableRecord
100
AcDbBlockTableRecord
  2
*D111
340
0
 70
     0
280
     1
281
     0
  0
BLOCK_RECORD
  5
780E
330
1
100
AcDbSymbolTableRecord
100
AcDbBlockTableRecord
  2
*D112
340
0
 70
     0
280
     1
281
     0
  0
BLOCK_RECORD
  5
781D
330
1
100
AcDbSymbolTableRecord
100
AcDbBlockTableRecord
  2
*D113
340
0
 70
     0
280
     1
281
     0
  0
BLOCK_RECORD
  5
782B
330
1
100
AcDbSymbolTableRecord
100
AcDbBlockTableRecord
  2
*D114
340
0
 70
     0
280
     1
281
     0
  0
BLOCK_RECORD
  5
79BF
330
1
100
AcDbSymbolTableRecord
100
AcDbBlockTableRecord
  2
*D132
340
0
 70
     0
280
     1
281
     0
  0
ENDTAB
  0
ENDSEC
  0
SECTION
  2
BLOCKS
  0
BLOCK
  5
20
330
1F
100
AcDbEntity
  8
0
100
AcDbBlockBegin
  2
*Model_Space
 70
     0
 10
0.0
 20
0.0
 30
0.0
  3
*Model_Space
  1

  0
ENDBLK
  5
21
330
1F
100
AcDbEntity
  8
0
100
AcDbBlockEnd
  0
BLOCK
  5
5A
330
58
100
AcDbEntity
 67
     1
  8
0
100
AcDbBlockBegin
  2
*Paper_Space
 70
     0
 10
0.0
 20
0.0
 30
0.0
  3
*Paper_Space
  1

  0
ENDBLK
  5
5B
330
58
100
AcDbEntity
 67
     1
  8
0
100
AcDbBlockEnd
  0
BLOCK
  5
5F
330
5D
100
AcDbEntity
 67
     1
  8
0
100
AcDbBlockBegin
  2
*Paper_Space0
 70
     0
 10
0.0
 20
0.0
 30
0.0
  3
*Paper_Space0
  1

  0
ENDBLK
  5
60
330
5D
100
AcDbEntity
 67
     1
  8
0
100
AcDbBlockEnd
  0
BLOCK
  5
77AD
330
77A1
100
AcDbEntity
  8
0
100
AcDbBlockBegin
  2
*D105
 70
     1
 10
0.0
 20
0.0
 30
0.0
  3
*D105
  1

  0
LINE
  5
7B1D
330
77A1
100
AcDbEntity
  8
0
 62
     0
440
 16777216
370
    -2
100
AcDbLine
 10
7004.711931777059
 20
-10596.11651124219
 30
0.0
 11
7004.711931777059
 21
-10338.3009356869
 31
0.0
  0
LINE
  5
7B1E
330
77A1
100
AcDbEntity
  8
0
 62
     0
440
 16777216
370
    -2
100
AcDbLine
 10
7074.711931777059
 20
-10596.11651124219
 30
0.0
 11
7074.711931777059
 21
-10338.3009356869
 31
0.0
  0
LINE
  5
7B1F
330
77A1
100
AcDbEntity
  8
0
 62
     0
440
 16777216
370
    -2
100
AcDbLine
 10
6967.211931777059
 20
-10357.0509356869
 30
0.0
 11
6929.71193177706
 21
-10357.0509356869
 31
0.0
  0
LINE
  5
7B20
330
77A1
100
AcDbEntity
  8
0
 62
     0
440
 16777216
370
    -2
100
AcDbLine
 10
7112.21193177706
 20
-10357.0509356869
 30
0.0
 11
7235.961931777059
 21
-10357.0509356869
 31
0.0
  0
LINE
  5
7B21
330
77A1
100
AcDbEntity
  8
0
 62
     0
440
 16777216
370
    -2
100
AcDbLine
 10
7004.711931777059
 20
-10357.0509356869
 30
0.0
 11
7074.711931777059
 21
-10357.0509356869
 31
0.0
  0
SOLID
  5
7B22
330
77A1
100
AcDbEntity
  8
0
 62
     0
440
 16777216
100
AcDbTrace
 10
6967.211931777059
 20
-10350.8009356869
 30
0.0
 11
6967.211931777059
 21
-10363.3009356869
 31
0.0
 12
7004.711931777059
 22
-10357.0509356869
 32
0.0
 13
7004.711931777059
 23
-10357.0509356869
 33
0.0
  0
SOLID
  5
7B23
330
77A1
100
AcDbEntity
  8
0
 62
     0
440
 16777216
100
AcDbTrace
 10
7112.21193177706
 20
-10350.8009356869
 30
0.0
 11
7112.21193177706
 21
-10363.3009356869
 31
0.0
 12
7074.711931777059
 22
-10357.0509356869
 32
0.0
 13
7074.711931777059
 23
-10357.0509356869
 33
0.0
  0
MTEXT
  5
7B24
330
77A1
100
AcDbEntity
  8
0
 62
     0
440
 16777216
100
AcDbMText
 10
7192.836931777058
 20
-10325.1759356869
 30
0.0
 40
45.0
 41
0.0
 46
0.0
 71
     5
 72
     1
  1
\A1;70
 73
     1
 44
1.0
  0
POINT
  5
7B25
330
77A1
100
AcDbEntity
  8
Defpoints
 62
     0
440
 16777216
100
AcDbPoint
 10
7004.711931777059
 20
-10597.05401124219
 30
0.0
  0
POINT
  5
7B26
330
77A1
100
AcDbEntity
  8
Defpoints
 62
     0
440
 16777216
100
AcDbPoint
 10
7074.711931777059
 20
-10597.05401124219
 30
0.0
  0
POINT
  5
7B27
330
77A1
100
AcDbEntity
  8
Defpoints
 62
     0
440
 16777216
100
AcDbPoint
 10
7074.711931777059
 20
-10357.0509356869
 30
0.0
  0
ENDBLK
  5
77AE
330
77A1
100
AcDbEntity
  8
0
100
AcDbBlockEnd
  0
BLOCK
  5
77B9
330
77AF
100
AcDbEntity
  8
0
100
AcDbBlockBegin
  2
*D106
 70
     1
 10
0.0
 20
0.0
 30
0.0
  3
*D106
  1

  0
LINE
  5
7ADE
330
77AF
100
AcDbEntity
  8
0
 62
     0
440
 16777216
370
    -2
100
AcDbLine
 10
5384.711931778398
 20
-10797.00712738308
 30
0.0
 11
5384.711931778398
 21
-10233.89333827996
 31
0.0
  0
LINE
  5
7ADF
330
77AF
100
AcDbEntity
  8
0
 62
     0
440
 16777216
370
    -2
100
AcDbLine
 10
7074.711931777059
 20
-10797.00712738308
 30
0.0
 11
7074.711931777059
 21
-10233.89333827996
 31
0.0
  0
LINE
  5
7AE0
330
77AF
100
AcDbEntity
  8
0
 62
     0
440
 16777216
370
    -2
100
AcDbLine
 10
5422.211931778399
 20
-10252.64333827995
 30
0.0
 11
7037.21193177706
 21
-10252.64333827995
 31
0.0
  0
SOLID
  5
7AE1
330
77AF
100
AcDbEntity
  8
0
 62
     0
440
 16777216
100
AcDbTrace
 10
5422.211931778399
 20
-10246.39333827995
 30
0.0
 11
5422.211931778399
 21
-10258.89333827995
 31
0.0
 12
5384.711931778398
 22
-10252.64333827995
 32
0.0
 13
5384.711931778398
 23
-10252.64333827995
 33
0.0
  0
SOLID
  5
7AE2
330
77AF
100
AcDbEntity
  8
0
 62
     0
440
 16777216
100
AcDbTrace
 10
7037.21193177706
 20
-10246.39333827995
 30
0.0
 11
7037.21193177706
 21
-10258.89333827995
 31
0.0
 12
7074.711931777059
 22
-10252.64333827995
 32
0.0
 13
7074.711931777059
 23
-10252.64333827995
 33
0.0
  0
MTEXT
  5
7AE3
330
77AF
100
AcDbEntity
  8
0
 62
     0
440
 16777216
100
AcDbMText
 10
6229.711931777728
 20
-10220.76833827995
 30
0.0
 40
45.0
 41
0.0
 46
0.0
 71
     5
 72
     1
  1
\A1;1690
 73
     1
 44
1.0
  0
POINT
  5
7AE4
330
77AF
100
AcDbEntity
  8
Defpoints
 62
     0
440
 16777216
100
AcDbPoint
 10
5384.711931778398
 20
-10797.94462738308
 30
0.0
  0
POINT
  5
7AE5
330
77AF
100
AcDbEntity
  8
Defpoints
 62
     0
440
 16777216
100
AcDbPoint
 10
7074.711931777059
 20
-10797.94462738308
 30
0.0
  0
POINT
  5
7AE6
330
77AF
100
AcDbEntity
  8
Defpoints
 62
     0
440
 16777216
100
AcDbPoint
 10
7074.711931777059
 20
-10252.64333827995
 30
0.0
  0
ENDBLK
  5
77BA
330
77AF
100
AcDbEntity
  8
0
100
AcDbBlockEnd
  0
BLOCK
  5
77C5
330
77BB
100
AcDbEntity
  8
0
100
AcDbBlockBegin
  2
*D107
 70
     1
 10
0.0
 20
0.0
 30
0.0
  3
*D107
  1

  0
LINE
  5
7AE7
330
77BB
100
AcDbEntity
  8
0
 62
     0
440
 16777216
370
    -2
100
AcDbLine
 10
6318.774431777729
 20
-10397.94462738313
 30
0.0
 11
5168.752009004193
 21
-10397.94462738313
 31
0.0
  0
LINE
  5
7AE8
330
77BB
100
AcDbEntity
  8
0
 62
     0
440
 16777216
370
    -2
100
AcDbLine
 10
6318.774431777729
 20
-11197.94462738304
 30
0.0
 11
5168.752009004193
 21
-11197.94462738304
 31
0.0
  0
LINE
  5
7AE9
330
77BB
100
AcDbEntity
  8
0
 62
     0
440
 16777216
370
    -2
100
AcDbLine
 10
5187.502009004193
 20
-10435.44462738313
 30
0.0
 11
5187.502009004193
 21
-11160.44462738304
 31
0.0
  0
SOLID
  5
7AEA
330
77BB
100
AcDbEntity
  8
0
 62
     0
440
 16777216
100
AcDbTrace
 10
5181.252009004193
 20
-10435.44462738313
 30
0.0
 11
5193.752009004192
 21
-10435.44462738313
 31
0.0
 12
5187.502009004193
 22
-10397.94462738313
 32
0.0
 13
5187.502009004193
 23
-10397.94462738313
 33
0.0
  0
SOLID
  5
7AEB
330
77BB
100
AcDbEntity
  8
0
 62
     0
440
 16777216
100
AcDbTrace
 10
5181.252009004193
 20
-11160.44462738304
 30
0.0
 11
5193.752009004192
 21
-11160.44462738304
 31
0.0
 12
5187.502009004193
 22
-11197.94462738304
 32
0.0
 13
5187.502009004193
 23
-11197.94462738304
 33
0.0
  0
MTEXT
  5
7AEC
330
77BB
100
AcDbEntity
  8
0
 62
     0
440
 16777216
100
AcDbMText
 10
5155.627009004195
 20
-10797.94462738308
 30
0.0
 40
45.0
 41
0.0
 46
0.0
 71
     5
 72
     1
  1
\A1;800
 11
0.0000000000000001
 21
1.0
 31
0.0
 73
     1
 44
1.0
  0
POINT
  5
7AED
330
77BB
100
AcDbEntity
  8
Defpoints
 62
     0
440
 16777216
100
AcDbPoint
 10
6319.711931777728
 20
-10397.94462738313
 30
0.0
  0
POINT
  5
7AEE
330
77BB
100
AcDbEntity
  8
Defpoints
 62
     0
440
 16777216
100
AcDbPoint
 10
6319.711931777728
 20
-11197.94462738304
 30
0.0
  0
POINT
  5
7AEF
330
77BB
100
AcDbEntity
  8
Defpoints
 62
     0
440
 16777216
100
AcDbPoint
 10
5187.502009004193
 20
-11197.94462738304
 30
0.0
  0
ENDBLK
  5
77C6
330
77BB
100
AcDbEntity
  8
0
100
AcDbBlockEnd
  0
BLOCK
  5
77D1
330
77C7
100
AcDbEntity
  8
0
100
AcDbBlockBegin
  2
*D108
 70
     1
 10
0.0
 20
0.0
 30
0.0
  3
*D108
  1

  0
LINE
  5
7AF0
330
77C7
100
AcDbEntity
  8
0
 62
     0
440
 16777216
370
    -2
100
AcDbLine
 10
6824.976215311129
 20
-10797.94462738308
 30
0.0
 11
6824.976215311129
 21
-10662.50058009124
 31
0.0
  0
LINE
  5
7AF1
330
77C7
100
AcDbEntity
  8
0
 62
     0
440
 16777216
370
    -2
100
AcDbLine
 10
7074.711931777059
 20
-10797.94462738308
 30
0.0
 11
7074.711931777059
 21
-10662.50058009124
 31
0.0
  0
LINE
  5
7AF2
330
77C7
100
AcDbEntity
  8
0
 62
     0
440
 16777216
370
    -2
100
AcDbLine
 10
6862.476215311129
 20
-10681.25058009124
 30
0.0
 11
7037.21193177706
 21
-10681.25058009124
 31
0.0
  0
SOLID
  5
7AF3
330
77C7
100
AcDbEntity
  8
0
 62
     0
440
 16777216
100
AcDbTrace
 10
6862.476215311129
 20
-10675.00058009124
 30
0.0
 11
6862.476215311129
 21
-10687.50058009124
 31
0.0
 12
6824.976215311129
 22
-10681.25058009124
 32
0.0
 13
6824.976215311129
 23
-10681.25058009124
 33
0.0
  0
SOLID
  5
7AF4
330
77C7
100
AcDbEntity
  8
0
 62
     0
440
 16777216
100
AcDbTrace
 10
7037.21193177706
 20
-10675.00058009124
 30
0.0
 11
7037.21193177706
 21
-10687.50058009124
 31
0.0
 12
7074.711931777059
 22
-10681.25058009124
 32
0.0
 13
7074.711931777059
 23
-10681.25058009124
 33
0.0
  0
MTEXT
  5
7AF5
330
77C7
100
AcDbEntity
  8
0
 62
     0
440
 16777216
100
AcDbMText
 10
6949.844073544095
 20
-10649.37558009124
 30
0.0
 40
45.0
 41
0.0
 46
0.0
 71
     5
 72
     1
  1
\A1;250
 73
     1
 44
1.0
  0
POINT
  5
7AF6
330
77C7
100
AcDbEntity
  8
Defpoints
 62
     0
440
 16777216
100
AcDbPoint
 10
6824.976215311129
 20
-10798.88212738308
 30
0.0
  0
POINT
  5
7AF7
330
77C7
100
AcDbEntity
  8
Defpoints
 62
     0
440
 16777216
100
AcDbPoint
 10
7074.711931777059
 20
-10798.88212738308
 30
0.0
  0
POINT
  5
7AF8
330
77C7
100
AcDbEntity
  8
Defpoints
 62
     0
440
 16777216
100
AcDbPoint
 10
7074.711931777059
 20
-10681.25058009124
 30
0.0
  0
ENDBLK
  5
77D2
330
77C7
100
AcDbEntity
  8
0
100
AcDbBlockEnd
  0
BLOCK
  5
77DD
330
77D3
100
AcDbEntity
  8
0
100
AcDbBlockBegin
  2
*D109
 70
     1
 10
0.0
 20
0.0
 30
0.0
  3
*D109
  1

  0
LINE
  5
7AF9
330
77D3
100
AcDbEntity
  8
0
 62
     0
440
 16777216
370
    -2
100
AcDbLine
 10
8716.504738465328
 20
-11042.79938883975
 30
0.0
 11
8980.958740442915
 21
-11042.79938883975
 31
0.0
  0
LINE
  5
7AFA
330
77D3
100
AcDbEntity
  8
0
 62
     0
440
 16777216
370
    -2
100
AcDbLine
 10
8716.504738465328
 20
-10542.61934245086
 30
0.0
 11
8980.958740442915
 21
-10542.61934245086
 31
0.0
  0
LINE
  5
7AFB
330
77D3
100
AcDbEntity
  8
0
 62
     0
440
 16777216
370
    -2
100
AcDbLine
 10
8962.208740442916
 20
-11005.29938883974
 30
0.0
 11
8962.208740442916
 21
-10580.11934245086
 31
0.0
  0
SOLID
  5
7AFC
330
77D3
100
AcDbEntity
  8
0
 62
     0
440
 16777216
100
AcDbTrace
 10
8955.958740442914
 20
-11005.29938883974
 30
0.0
 11
8968.458740442915
 21
-11005.29938883974
 31
0.0
 12
8962.208740442916
 22
-11042.79938883975
 32
0.0
 13
8962.208740442916
 23
-11042.79938883975
 33
0.0
  0
SOLID
  5
7AFD
330
77D3
100
AcDbEntity
  8
0
 62
     0
440
 16777216
100
AcDbTrace
 10
8955.958740442914
 20
-10580.11934245086
 30
0.0
 11
8968.458740442915
 21
-10580.11934245086
 31
0.0
 12
8962.208740442916
 22
-10542.61934245086
 32
0.0
 13
8962.208740442916
 23
-10542.61934245086
 33
0.0
  0
MTEXT
  5
7AFE
330
77D3
100
AcDbEntity
  8
0
 62
     0
440
 16777216
100
AcDbMText
 10
8930.333740442916
 20
-10792.7093656453
 30
0.0
 40
45.0
 41
0.0
 46
0.0
 71
     5
 72
     1
  1
\A1;500
 11
0.0000000000000001
 21
1.0
 31
0.0
 73
     1
 44
1.0
  0
POINT
  5
7AFF
330
77D3
100
AcDbEntity
  8
Defpoints
 62
     0
440
 16777216
100
AcDbPoint
 10
8715.567238465329
 20
-11042.79938883975
 30
0.0
  0
POINT
  5
7B00
330
77D3
100
AcDbEntity
  8
Defpoints
 62
     0
440
 16777216
100
AcDbPoint
 10
8715.567238465329
 20
-10542.61934245086
 30
0.0
  0
POINT
  5
7B01
330
77D3
100
AcDbEntity
  8
Defpoints
 62
     0
440
 16777216
100
AcDbPoint
 10
8962.208740442916
 20
-10542.61934245086
 30
0.0
  0
ENDBLK
  5
77DE
330
77D3
100
AcDbEntity
  8
0
100
AcDbBlockEnd
  0
BLOCK
  5
77F5
330
77EB
100
AcDbEntity
  8
0
100
AcDbBlockBegin
  2
*D110
 70
     1
 10
0.0
 20
0.0
 30
0.0
  3
*D110
  1

  0
LINE
  5
7B0B
330
77EB
100
AcDbEntity
  8
0
 62
     0
440
 16777216
370
    -2
100
AcDbLine
 10
8805.889929778066
 20
-11026.75891873206
 30
0.0
 11
8645.952026498628
 21
-11026.75891873206
 31
0.0
  0
LINE
  5
7B0C
330
77EB
100
AcDbEntity
  8
0
 62
     0
440
 16777216
370
    -2
100
AcDbLine
 10
8827.797651999631
 20
-10542.61934245086
 30
0.0
 11
8645.952026498628
 21
-10542.61934245086
 31
0.0
  0
LINE
  5
7B0D
330
77EB
100
AcDbEntity
  8
0
 62
     0
440
 16777216
370
    -2
100
AcDbLine
 10
8664.702026498629
 20
-10989.25891873206
 30
0.0
 11
8664.702026498629
 21
-10580.11934245086
 31
0.0
  0
SOLID
  5
7B0E
330
77EB
100
AcDbEntity
  8
0
 62
     0
440
 16777216
100
AcDbTrace
 10
8658.452026498627
 20
-10989.25891873206
 30
0.0
 11
8670.952026498628
 21
-10989.25891873206
 31
0.0
 12
8664.702026498629
 22
-11026.75891873206
 32
0.0
 13
8664.702026498629
 23
-11026.75891873206
 33
0.0
  0
SOLID
  5
7B0F
330
77EB
100
AcDbEntity
  8
0
 62
     0
440
 16777216
100
AcDbTrace
 10
8658.452026498627
 20
-10580.11934245086
 30
0.0
 11
8670.952026498628
 21
-10580.11934245086
 31
0.0
 12
8664.702026498629
 22
-10542.61934245086
 32
0.0
 13
8664.702026498629
 23
-10542.61934245086
 33
0.0
  0
MTEXT
  5
7B10
330
77EB
100
AcDbEntity
  8
0
 62
     0
440
 16777216
100
AcDbMText
 10
8632.827026498629
 20
-10784.68913059146
 30
0.0
 40
45.0
 41
0.0
 46
0.0
 71
     5
 72
     1
  1
\A1;470
 11
0.0000000000000001
 21
1.0
 31
0.0
 73
     1
 44
1.0
  0
POINT
  5
7B11
330
77EB
100
AcDbEntity
  8
Defpoints
 62
     0
440
 16777216
100
AcDbPoint
 10
8806.827429778065
 20
-11026.75891873206
 30
0.0
  0
POINT
  5
7B12
330
77EB
100
AcDbEntity
  8
Defpoints
 62
     0
440
 16777216
100
AcDbPoint
 10
8828.735151999632
 20
-10542.61934245086
 30
0.0
  0
POINT
  5
7B13
330
77EB
100
AcDbEntity
  8
Defpoints
 62
     0
440
 16777216
100
AcDbPoint
 10
8664.702026498629
 20
-10542.61934245086
 30
0.0
  0
ENDBLK
  5
77F6
330
77EB
100
AcDbEntity
  8
0
100
AcDbBlockEnd
  0
BLOCK
  5
7801
330
77F7
100
AcDbEntity
  8
0
100
AcDbBlockBegin
  2
*D111
 70
     1
 10
0.0
 20
0.0
 30
0.0
  3
*D111
  1

  0
LINE
  5
7B14
330
77F7
100
AcDbEntity
  8
0
 62
     0
440
 16777216
370
    -2
100
AcDbLine
 10
5689.711931777059
 20
-10797.00712738308
 30
0.0
 11
5689.711931777059
 21
-10299.41273351766
 31
0.0
  0
LINE
  5
7B15
330
77F7
100
AcDbEntity
  8
0
 62
     0
440
 16777216
370
    -2
100
AcDbLine
 10
6924.711931777058
 20
-10797.00712738308
 30
0.0
 11
6924.711931777058
 21
-10299.41273351766
 31
0.0
  0
LINE
  5
7B16
330
77F7
100
AcDbEntity
  8
0
 62
     0
440
 16777216
370
    -2
100
AcDbLine
 10
5727.211931777059
 20
-10318.16273351767
 30
0.0
 11
6887.211931777058
 21
-10318.16273351767
 31
0.0
  0
SOLID
  5
7B17
330
77F7
100
AcDbEntity
  8
0
 62
     0
440
 16777216
100
AcDbTrace
 10
5727.211931777059
 20
-10311.91273351766
 30
0.0
 11
5727.211931777059
 21
-10324.41273351766
 31
0.0
 12
5689.711931777059
 22
-10318.16273351767
 32
0.0
 13
5689.711931777059
 23
-10318.16273351767
 33
0.0
  0
SOLID
  5
7B18
330
77F7
100
AcDbEntity
  8
0
 62
     0
440
 16777216
100
AcDbTrace
 10
6887.211931777058
 20
-10311.91273351766
 30
0.0
 11
6887.211931777058
 21
-10324.41273351766
 31
0.0
 12
6924.711931777058
 22
-10318.16273351767
 32
0.0
 13
6924.711931777058
 23
-10318.16273351767
 33
0.0
  0
MTEXT
  5
7B19
330
77F7
100
AcDbEntity
  8
0
 62
     0
440
 16777216
100
AcDbMText
 10
6307.211931777058
 20
-10286.28773351766
 30
0.0
 40
45.0
 41
0.0
 46
0.0
 71
     5
 72
     1
  1
\A1;1235
 73
     1
 44
1.0
  0
POINT
  5
7B1A
330
77F7
100
AcDbEntity
  8
Defpoints
 62
     0
440
 16777216
100
AcDbPoint
 10
5689.711931777059
 20
-10797.94462738308
 30
0.0
  0
POINT
  5
7B1B
330
77F7
100
AcDbEntity
  8
Defpoints
 62
     0
440
 16777216
100
AcDbPoint
 10
6924.711931777058
 20
-10797.94462738308
 30
0.0
  0
POINT
  5
7B1C
330
77F7
100
AcDbEntity
  8
Defpoints
 62
     0
440
 16777216
100
AcDbPoint
 10
6924.711931777058
 20
-10318.16273351767
 30
0.0
  0
ENDBLK
  5
7802
330
77F7
100
AcDbEntity
  8
0
100
AcDbBlockEnd
  0
BLOCK
  5
781B
330
780E
100
AcDbEntity
  8
0
100
AcDbBlockBegin
  2
*D112
 70
     1
 10
0.0
 20
0.0
 30
0.0
  3
*D112
  1

  0
LINE
  5
7B28
330
780E
100
AcDbEntity
  8
0
 62
     0
440
 16777216
370
    -2
100
AcDbLine
 10
5513.774431778398
 20
-10467.94462738313
 30
0.0
 11
5162.502009004194
 21
-10467.94462738313
 31
0.0
  0
LINE
  5
7B29
330
780E
100
AcDbEntity
  8
0
 62
     0
440
 16777216
370
    -2
100
AcDbLine
 10
5513.774431778398
 20
-10397.94462738313
 30
0.0
 11
5162.502009004194
 21
-10397.94462738313
 31
0.0
  0
LINE
  5
7B2A
330
780E
100
AcDbEntity
  8
0
 62
     0
440
 16777216
370
    -2
100
AcDbLine
 10
5181.252009004194
 20
-10505.44462738313
 30
0.0
 11
5181.252009004194
 21
-10542.94462738313
 31
0.0
  0
LINE
  5
7B2B
330
780E
100
AcDbEntity
  8
0
 62
     0
440
 16777216
370
    -2
100
AcDbLine
 10
5181.252009004194
 20
-10360.44462738313
 30
0.0
 11
5181.252009004194
 21
-10322.94462738313
 31
0.0
  0
LINE
  5
7B2C
330
780E
100
AcDbEntity
  8
0
 62
     0
440
 16777216
370
    -2
100
AcDbLine
 10
5181.252009004194
 20
-10322.94462738313
 30
0.0
 11
5258.127009004194
 21
-10322.94462738313
 31
0.0
  0
LINE
  5
7B2D
330
780E
100
AcDbEntity
  8
0
 62
     0
440
 16777216
370
    -2
100
AcDbLine
 10
5181.252009004194
 20
-10467.94462738313
 30
0.0
 11
5181.252009004194
 21
-10397.94462738313
 31
0.0
  0
SOLID
  5
7B2E
330
780E
100
AcDbEntity
  8
0
 62
     0
440
 16777216
100
AcDbTrace
 10
5175.002009004194
 20
-10505.44462738313
 30
0.0
 11
5187.502009004195
 21
-10505.44462738313
 31
0.0
 12
5181.252009004194
 22
-10467.94462738313
 32
0.0
 13
5181.252009004194
 23
-10467.94462738313
 33
0.0
  0
SOLID
  5
7B2F
330
780E
100
AcDbEntity
  8
0
 62
     0
440
 16777216
100
AcDbTrace
 10
5175.002009004194
 20
-10360.44462738313
 30
0.0
 11
5187.502009004195
 21
-10360.44462738313
 31
0.0
 12
5181.252009004194
 22
-10397.94462738313
 32
0.0
 13
5181.252009004194
 23
-10397.94462738313
 33
0.0
  0
MTEXT
  5
7B30
330
780E
100
AcDbEntity
  8
0
 62
     0
440
 16777216
100
AcDbMText
 10
5224.377009004196
 20
-10291.06962738313
 30
0.0
 40
45.0
 41
0.0
 46
0.0
 71
     5
 72
     1
  1
\A1;70
 73
     1
 44
1.0
  0
POINT
  5
7B31
330
780E
100
AcDbEntity
  8
Defpoints
 62
     0
440
 16777216
100
AcDbPoint
 10
5514.711931778398
 20
-10467.94462738313
 30
0.0
  0
POINT
  5
7B32
330
780E
100
AcDbEntity
  8
Defpoints
 62
     0
440
 16777216
100
AcDbPoint
 10
5514.711931778398
 20
-10397.94462738313
 30
0.0
  0
POINT
  5
7B33
330
780E
100
AcDbEntity
  8
Defpoints
 62
     0
440
 16777216
100
AcDbPoint
 10
5181.252009004194
 20
-10397.94462738313
 30
0.0
  0
ENDBLK
  5
781C
330
780E
100
AcDbEntity
  8
0
100
AcDbBlockEnd
  0
BLOCK
  5
7829
330
781D
100
AcDbEntity
  8
0
100
AcDbBlockBegin
  2
*D113
 70
     1
 10
0.0
 20
0.0
 30
0.0
  3
*D113
  1

  0
LINE
  5
7B34
330
781D
100
AcDbEntity
  8
0
 62
     0
440
 16777216
370
    -2
100
AcDbLine
 10
5454.7119317784
 20
-11068.88212738304
 30
0.0
 11
5454.7119317784
 21
-11297.46883076807
 31
0.0
  0
LINE
  5
7B35
330
781D
100
AcDbEntity
  8
0
 62
     0
440
 16777216
370
    -2
100
AcDbLine
 10
5384.7119317784
 20
-11068.88212738304
 30
0.0
 11
5384.7119317784
 21
-11297.46883076807
 31
0.0
  0
LINE
  5
7B36
330
781D
100
AcDbEntity
  8
0
 62
     0
440
 16777216
370
    -2
100
AcDbLine
 10
5492.2119317784
 20
-11278.71883076807
 30
0.0
 11
5529.7119317784
 21
-11278.71883076807
 31
0.0
  0
LINE
  5
7B37
330
781D
100
AcDbEntity
  8
0
 62
     0
440
 16777216
370
    -2
100
AcDbLine
 10
5347.211931778399
 20
-11278.71883076807
 30
0.0
 11
5223.4619317784
 21
-11278.71883076807
 31
0.0
  0
LINE
  5
7B38
330
781D
100
AcDbEntity
  8
0
 62
     0
440
 16777216
370
    -2
100
AcDbLine
 10
5454.7119317784
 20
-11278.71883076807
 30
0.0
 11
5384.7119317784
 21
-11278.71883076807
 31
0.0
  0
SOLID
  5
7B39
330
781D
100
AcDbEntity
  8
0
 62
     0
440
 16777216
100
AcDbTrace
 10
5492.2119317784
 20
-11272.46883076807
 30
0.0
 11
5492.2119317784
 21
-11284.96883076807
 31
0.0
 12
5454.7119317784
 22
-11278.71883076807
 32
0.0
 13
5454.7119317784
 23
-11278.71883076807
 33
0.0
  0
SOLID
  5
7B3A
330
781D
100
AcDbEntity
  8
0
 62
     0
440
 16777216
100
AcDbTrace
 10
5347.211931778399
 20
-11272.46883076807
 30
0.0
 11
5347.211931778399
 21
-11284.96883076807
 31
0.0
 12
5384.7119317784
 22
-11278.71883076807
 32
0.0
 13
5384.7119317784
 23
-11278.71883076807
 33
0.0
  0
MTEXT
  5
7B3B
330
781D
100
AcDbEntity
  8
0
 62
     0
440
 16777216
100
AcDbMText
 10
5266.5869317784
 20
-11246.84383076807
 30
0.0
 40
45.0
 41
0.0
 46
0.0
 71
     5
 72
     1
  1
\A1;70
 73
     1
 44
1.0
  0
POINT
  5
7B3C
330
781D
100
AcDbEntity
  8
Defpoints
 62
     0
440
 16777216
100
AcDbPoint
 10
5454.7119317784
 20
-11067.94462738304
 30
0.0
  0
POINT
  5
7B3D
330
781D
100
AcDbEntity
  8
Defpoints
 62
     0
440
 16777216
100
AcDbPoint
 10
5384.7119317784
 20
-11067.94462738304
 30
0.0
  0
POINT
  5
7B3E
330
781D
100
AcDbEntity
  8
Defpoints
 62
     0
440
 16777216
100
AcDbPoint
 10
5384.7119317784
 20
-11278.71883076807
 30
0.0
  0
ENDBLK
  5
782A
330
781D
100
AcDbEntity
  8
0
100
AcDbBlockEnd
  0
BLOCK
  5
7838
330
782B
100
AcDbEntity
  8
0
100
AcDbBlockBegin
  2
*D114
 70
     1
 10
0.0
 20
0.0
 30
0.0
  3
*D114
  1

  0
LINE
  5
7B3F
330
782B
100
AcDbEntity
  8
0
 62
     0
440
 16777216
370
    -2
100
AcDbLine
 10
6945.649431777059
 20
-11127.94462738304
 30
0.0
 11
7191.959090461198
 21
-11127.94462738304
 31
0.0
  0
LINE
  5
7B40
330
782B
100
AcDbEntity
  8
0
 62
     0
440
 16777216
370
    -2
100
AcDbLine
 10
6945.649431777059
 20
-11197.94462738304
 30
0.0
 11
7191.959090461198
 21
-11197.94462738304
 31
0.0
  0
LINE
  5
7B41
330
782B
100
AcDbEntity
  8
0
 62
     0
440
 16777216
370
    -2
100
AcDbLine
 10
7173.209090461198
 20
-11090.44462738304
 30
0.0
 11
7173.209090461198
 21
-11052.94462738304
 31
0.0
  0
LINE
  5
7B42
330
782B
100
AcDbEntity
  8
0
 62
     0
440
 16777216
370
    -2
100
AcDbLine
 10
7173.209090461198
 20
-11235.44462738303
 30
0.0
 11
7173.209090461198
 21
-11272.94462738304
 31
0.0
  0
LINE
  5
7B43
330
782B
100
AcDbEntity
  8
0
 62
     0
440
 16777216
370
    -2
100
AcDbLine
 10
7173.209090461198
 20
-11272.94462738304
 30
0.0
 11
7096.334090461198
 21
-11272.94462738304
 31
0.0
  0
LINE
  5
7B44
330
782B
100
AcDbEntity
  8
0
 62
     0
440
 16777216
370
    -2
100
AcDbLine
 10
7173.209090461198
 20
-11127.94462738304
 30
0.0
 11
7173.209090461198
 21
-11197.94462738304
 31
0.0
  0
SOLID
  5
7B45
330
782B
100
AcDbEntity
  8
0
 62
     0
440
 16777216
100
AcDbTrace
 10
7166.959090461197
 20
-11090.44462738304
 30
0.0
 11
7179.459090461198
 21
-11090.44462738304
 31
0.0
 12
7173.209090461198
 22
-11127.94462738304
 32
0.0
 13
7173.209090461198
 23
-11127.94462738304
 33
0.0
  0
SOLID
  5
7B46
330
782B
100
AcDbEntity
  8
0
 62
     0
440
 16777216
100
AcDbTrace
 10
7166.959090461197
 20
-11235.44462738303
 30
0.0
 11
7179.459090461198
 21
-11235.44462738303
 31
0.0
 12
7173.209090461198
 22
-11197.94462738304
 32
0.0
 13
7173.209090461198
 23
-11197.94462738304
 33
0.0
  0
MTEXT
  5
7B47
330
782B
100
AcDbEntity
  8
0
 62
     0
440
 16777216
100
AcDbMText
 10
7130.0840904612
 20
-11241.06962738303
 30
0.0
 40
45.0
 41
0.0
 46
0.0
 71
     5
 72
     1
  1
\A1;70
 73
     1
 44
1.0
  0
POINT
  5
7B48
330
782B
100
AcDbEntity
  8
Defpoints
 62
     0
440
 16777216
100
AcDbPoint
 10
6944.71193177706
 20
-11127.94462738304
 30
0.0
  0
POINT
  5
7B49
330
782B
100
AcDbEntity
  8
Defpoints
 62
     0
440
 16777216
100
AcDbPoint
 10
6944.71193177706
 20
-11197.94462738304
 30
0.0
  0
POINT
  5
7B4A
330
782B
100
AcDbEntity
  8
Defpoints
 62
     0
440
 16777216
100
AcDbPoint
 10
7173.209090461198
 20
-11197.94462738304
 30
0.0
  0
ENDBLK
  5
7839
330
782B
100
AcDbEntity
  8
0
100
AcDbBlockEnd
  0
BLOCK
  5
79C9
330
79BF
100
AcDbEntity
  8
0
100
AcDbBlockBegin
  2
*D132
 70
     1
 10
0.0
 20
0.0
 30
0.0
  3
*D132
  1

  0
LINE
  5
7CBF
330
79BF
100
AcDbEntity
  8
0
 62
     0
440
 16777216
370
    -2
100
AcDbLine
 10
6585.935332086951
 20
-10883.36801884174
 30
0.0
 11
6707.810332086953
 21
-10883.36801884174
 31
0.0
  0
LINE
  5
7CC0
330
79BF
100
AcDbEntity
  8
0
 62
     0
440
 16777216
370
    -2
100
AcDbLine
 10
6707.810332086953
 20
-10883.36801884174
 30
0.0
 11
6774.473679438639
 21
-10834.76505473595
 31
0.0
  0
LINE
  5
7CC1
330
79BF
100
AcDbEntity
  8
0
 62
     0
440
 16777216
370
    -2
100
AcDbLine
 10
6875.478751183623
 20
-10761.12420003022
 30
0.0
 11
6905.780272707116
 21
-10739.03194361849
 31
0.0
  0
MTEXT
  5
7CC2
330
79BF
100
AcDbEntity
  8
0
 62
     0
440
 16777216
100
AcDbMText
 10
6642.18533208695
 20
-10851.49301884174
 30
0.0
 40
45.0
 41
0.0
 46
0.0
 71
     5
 72
     1
  1
\A1;\U+220550
 73
     1
 44
1.0
  0
LINE
  5
7CC3
330
79BF
100
AcDbEntity
  8
0
 62
     0
440
 16777216
370
    -2
100
AcDbLine
 10
6845.177229660127
 20
-10783.21645644194
 30
0.0
 11
6804.775200962135
 21
-10812.67279832423
 31
0.0
  0
SOLID
  5
7CC4
330
79BF
100
AcDbEntity
  8
0
 62
     0
440
 16777216
100
AcDbTrace
 10
6871.796708448335
 20
-10756.07394644297
 30
0.0
 11
6879.160793918909
 21
-10766.17445361747
 31
0.0
 12
6845.177229660127
 22
-10783.21645644194
 32
0.0
 13
6845.177229660127
 23
-10783.21645644194
 33
0.0
  0
SOLID
  5
7CC5
330
79BF
100
AcDbEntity
  8
0
 62
     0
440
 16777216
100
AcDbTrace
 10
6770.791636703354
 20
-10829.7148011487
 30
0.0
 11
6778.155722173926
 21
-10839.8153083232
 31
0.0
 12
6804.775200962135
 22
-10812.67279832423
 32
0.0
 13
6804.775200962135
 23
-10812.67279832423
 33
0.0
  0
POINT
  5
7CC6
330
79BF
100
AcDbEntity
  8
Defpoints
 62
     0
440
 16777216
100
AcDbPoint
 10
6804.775200962135
 20
-10812.67279832423
 30
0.0
  0
POINT
  5
7CC7
330
79BF
100
AcDbEntity
  8
Defpoints
 62
     0
440
 16777216
100
AcDbPoint
 10
6845.177229660127
 20
-10783.21645644194
 30
0.0
  0
ENDBLK
  5
79CA
330
79BF
100
AcDbEntity
  8
0
100
AcDbBlockEnd
  0
ENDSEC
  0
SECTION
  2
ENTITIES
  0
LINE
  5
76A2
102
{ACAD_REACTORS
330
76E5
102
}
330
1F
100
AcDbEntity
  8
粗实线
  6
Continuous
 62
     7
100
AcDbLine
 10
7265.936684544937
 20
-10542.61934245086
 30
0.0
 11
8965.936684543606
 21
-10542.61934245086
 31
0.0
  0
LINE
  5
76A3
330
1F
100
AcDbEntity
  8
粗实线
  6
Continuous
 62
     7
100
AcDbLine
 10
5749.711931777057
 20
-10542.94462738281
 30
0.0
 11
6864.711931777057
 21
-10542.94462738281
 31
0.0
  0
ARC
  5
76A4
330
1F
100
AcDbEntity
  8
粗实线
  6
Continuous
 62
     7
100
AcDbCircle
 10
5749.711931777057
 20
-10602.94462738281
 30
0.0
 40
60.0
100
AcDbArc
 50
90.0
 51
180.0
  0
LINE
  5
76A5
330
1F
100
AcDbEntity
  8
粗实线
  6
Continuous
 62
     7
100
AcDbLine
 10
7064.711931777117
 20
-10397.94462738313
 30
0.0
 11
6319.711931777728
 21
-10397.94462738313
 31
0.0
  0
LINE
  5
76A6
330
1F
100
AcDbEntity
  8
粗实线
  6
Continuous
 62
     7
100
AcDbLine
 10
6944.71193177706
 20
-10467.94462738313
 30
0.0
 11
5514.711931778398
 21
-10467.94462738313
 31
0.0
  0
ARC
  5
76A7
330
1F
100
AcDbEntity
  8
粗实线
  6
Continuous
 62
     7
100
AcDbCircle
 10
6944.71193177706
 20
-10527.94462738313
 30
0.0
 40
60.0
100
AcDbArc
 50
0.0
 51
90.0
  0
ARC
  5
76A8
102
{ACAD_REACTORS
330
76F2
102
}
330
1F
100
AcDbEntity
  8
粗实线
  6
Continuous
 62
     7
100
AcDbCircle
 10
5514.711931778398
 20
-10527.94462738313
 30
0.0
 40
60.0
100
AcDbArc
 50
90.0
 51
180.0
  0
LINE
  5
76A9
102
{ACAD_REACTORS
330
76D8
102
}
330
1F
100
AcDbEntity
  8
粗实线
  6
Continuous
 62
     7
100
AcDbLine
 10
7074.711931777059
 20
-10797.94462738308
 30
0.0
 11
7074.711931777059
 21
-10407.94462738309
 31
0.0
  0
CIRCLE
  5
76AA
330
1F
100
AcDbEntity
  8
粗实线
  6
Continuous
 62
     0
100
AcDbCircle
 10
6824.976215311129
 20
-10798.88212738308
 30
0.0
 40
34.99999999986
  0
CIRCLE
  5
76AB
102
{ACAD_REACTORS
330
76E0
102
}
330
1F
100
AcDbEntity
  8
标注
  6
Continuous
 62
     0
100
AcDbCircle
 10
6824.976215311129
 20
-10798.88212738308
 30
0.0
 40
33.21621621666
  0
ARC
  5
76AC
330
1F
100
AcDbEntity
  8
粗实线
  6
Continuous
 62
     7
100
AcDbCircle
 10
7064.711931777117
 20
-10407.94462738309
 30
0.0
 40
9.999999999959998
100
AcDbArc
 50
0.0
 51
90.0
  0
LINE
  5
76AD
102
{ACAD_REACTORS
330
76EB
102
}
330
1F
100
AcDbEntity
  8
虚线
 62
     0
100
AcDbLine
 10
8806.827429778065
 20
-11026.75891873206
 30
0.0
 11
7545.932019731488
 21
-11002.75102260031
 31
0.0
  0
LINE
  5
76AE
330
1F
100
AcDbEntity
  8
虚线
 62
     0
100
AcDbLine
 10
8935.899611478694
 20
-10552.61934245086
 30
0.0
 11
8867.196267344127
 21
-10976.37224426081
 31
0.0
  0
ARC
  5
76AF
330
1F
100
AcDbEntity
  8
虚线
 62
     0
100
AcDbCircle
 10
8807.969644045995
 20
-10966.76979182921
 30
0.0
 40
60.0
100
AcDbArc
 50
268.9091998273415
 51
350.7907313066271
  0
LINE
  5
76B0
102
{ACAD_REACTORS
330
76D8
330
76EE
102
}
330
1F
100
AcDbEntity
  8
中心线
 62
     0
100
AcDbLine
 10
7175.804524647361
 20
-10797.94462738308
 30
0.0
 11
5406.216307532229
 21
-10797.94462738308
 31
0.0
  0
LINE
  5
76B1
330
1F
100
AcDbEntity
  8
中心线
 62
     0
100
AcDbLine
 10
8115.936684544271
 20
-11067.29159463414
 30
0.0
 11
8115.936684544271
 21
-10338.8301485046
 31
0.0
  0
LINE
  5
76B2
330
1F
100
AcDbEntity
  8
中心线
 62
     0
100
AcDbLine
 10
6307.211931777059
 20
-11450.53707119048
 30
0.0
 11
6307.211931777059
 21
-10112.91846884648
 31
0.0
  0
LINE
  5
76B3
330
1F
100
AcDbEntity
  8
粗实线
  6
Continuous
 62
     7
100
AcDbLine
 10
5749.71193177706
 20
-11052.94462738336
 30
0.0
 11
6864.711931777058
 21
-11052.94462738336
 31
0.0
  0
ARC
  5
76B4
330
1F
100
AcDbEntity
  8
粗实线
  6
Continuous
 62
     7
100
AcDbCircle
 10
6864.711931777058
 20
-10992.94462738336
 30
0.0
 40
60.0
100
AcDbArc
 50
270.0
 51
0.0
  0
LINE
  5
76B5
102
{ACAD_REACTORS
330
76F8
102
}
330
1F
100
AcDbEntity
  8
粗实线
  6
Continuous
 62
     7
100
AcDbLine
 10
7064.711931777117
 20
-11197.94462738304
 30
0.0
 11
6319.711931777728
 21
-11197.94462738304
 31
0.0
  0
LINE
  5
76B6
330
1F
100
AcDbEntity
  8
粗实线
  6
Continuous
 62
     7
100
AcDbLine
 10
6944.71193177706
 20
-11127.94462738304
 30
0.0
 11
5514.7119317784
 21
-11127.94462738304
 31
0.0
  0
ARC
  5
76B7
102
{ACAD_REACTORS
330
76F8
102
}
330
1F
100
AcDbEntity
  8
粗实线
  6
Continuous
 62
     7
100
AcDbCircle
 10
6944.71193177706
 20
-11067.94462738304
 30
0.0
 40
60.0
100
AcDbArc
 50
270.0
 51
0.0
  0
LINE
  5
76B8
102
{ACAD_REACTORS
330
76EE
102
}
330
1F
100
AcDbEntity
  8
粗实线
  6
Continuous
 62
     7
100
AcDbLine
 10
6924.71193177706
 20
-10992.94462738336
 30
0.0
 11
6924.711931777058
 21
-10602.94462738281
 31
0.0
  0
ARC
  5
76B9
330
1F
100
AcDbEntity
  8
粗实线
  6
Continuous
 62
     7
100
AcDbCircle
 10
6864.711931777057
 20
-10602.94462738281
 30
0.0
 40
60.0
100
AcDbArc
 50
0.0
 51
90.0
  0
LINE
  5
76BA
102
{ACAD_REACTORS
330
76E0
102
}
330
1F
100
AcDbEntity
  8
粗实线
  6
Continuous
 62
     7
100
AcDbLine
 10
7074.711931777059
 20
-10797.94462738308
 30
0.0
 11
7074.711931777059
 21
-11187.94462738307
 31
0.0
  0
LINE
  5
76BB
330
1F
100
AcDbEntity
  8
粗实线
  6
Continuous
 62
     7
100
AcDbLine
 10
7004.711931777059
 20
-10527.94462738313
 30
0.0
 11
7004.711931777059
 21
-11067.94462738304
 31
0.0
  0
ARC
  5
76BC
330
1F
100
AcDbEntity
  8
粗实线
  6
Continuous
 62
     7
100
AcDbCircle
 10
7064.711931777117
 20
-11187.94462738307
 30
0.0
 40
9.999999999959998
100
AcDbArc
 50
270.0
 51
0.0
  0
LINE
  5
76BD
102
{ACAD_REACTORS
330
76DB
102
}
330
1F
100
AcDbEntity
  8
粗实线
  6
Continuous
 62
     7
100
AcDbLine
 10
5394.71193177834
 20
-10397.94462738313
 30
0.0
 11
6319.711931777728
 21
-10397.94462738313
 31
0.0
  0
LINE
  5
76BE
102
{ACAD_REACTORS
330
76DB
102
}
330
1F
100
AcDbEntity
  8
粗实线
  6
Continuous
 62
     7
100
AcDbLine
 10
5394.71193177834
 20
-11197.94462738304
 30
0.0
 11
6319.711931777728
 21
-11197.94462738304
 31
0.0
  0
LINE
  5
76BF
330
1F
100
AcDbEntity
  8
粗实线
  6
HIDDEN
 62
     0
 48
150.0
370
    20
100
AcDbLine
 10
8680.575238465467
 20
-11042.79938883975
 30
0.0
 11
8680.575238465467
 21
-11028.46818883978
 31
0.0
  0
LINE
  5
76C0
330
1F
100
AcDbEntity
  8
粗实线
  6
HIDDEN
 62
     0
 48
150.0
370
    20
100
AcDbLine
 10
8680.575238465467
 20
-11036.13378883976
 30
0.0
 11
8680.575238465467
 21
-11035.00380515139
 31
0.0
  0
LINE
  5
76C1
330
1F
100
AcDbEntity
  8
粗实线
  6
HIDDEN
 62
     0
 48
150.0
370
    20
100
AcDbLine
 10
8685.240838465448
 20
-11042.79938883975
 30
0.0
 11
8685.240838465448
 21
-11040.00002884023
 31
0.0
  0
LINE
  5
76C2
330
1F
100
AcDbEntity
  8
粗实线
  6
HIDDEN
 62
     0
 48
150.0
370
    20
100
AcDbLine
 10
8745.909638465205
 20
-11042.79938883975
 30
0.0
 11
8745.909638465205
 21
-11040.00002884023
 31
0.0
  0
LINE
  5
76C3
330
1F
100
AcDbEntity
  8
粗实线
  6
HIDDEN
 62
     0
 48
150.0
370
    20
100
AcDbLine
 10
8750.575238465186
 20
-11036.13378883976
 30
0.0
 11
8750.575238465186
 21
-11035.00380515139
 31
0.0
  0
LINE
  5
76C4
330
1F
100
AcDbEntity
  8
粗实线
  6
HIDDEN
 62
     0
 48
150.0
370
    20
100
AcDbLine
 10
8750.559238465191
 20
-11042.79938883975
 30
0.0
 11
8750.559238465191
 21
-11028.46818883978
 31
0.0
  0
LINE
  5
76C5
102
{ACAD_REACTORS
330
76E5
102
}
330
1F
100
AcDbEntity
  8
粗实线
  6
HIDDEN
 62
     0
 48
150.0
370
    20
100
AcDbLine
 10
8680.575238465467
 20
-11042.79938883975
 30
0.0
 11
8750.559238465191
 21
-11042.79938883975
 31
0.0
  0
LINE
  5
76C6
330
1F
100
AcDbEntity
  8
粗实线
  6
HIDDEN
 62
     0
 48
150.0
370
    20
100
AcDbLine
 10
8685.240838465448
 20
-11042.79938883975
 30
0.0
 11
8745.909638465205
 21
-11042.79938883975
 31
0.0
  0
LINE
  5
76C7
330
1F
100
AcDbEntity
  8
粗实线
  6
HIDDEN
 62
     0
 48
150.0
370
    20
100
AcDbLine
 10
8750.575238465186
 20
-11036.13378883976
 30
0.0
 11
8680.575238465467
 21
-11036.13378883976
 31
0.0
  0
LINE
  5
76C8
330
1F
100
AcDbEntity
  8
粗实线
  6
HIDDEN
 62
     0
 48
150.0
370
    20
100
AcDbLine
 10
8680.575238465467
 20
-11028.46818883978
 30
0.0
 11
8750.559238465191
 21
-11028.46818883978
 31
0.0
  0
ARC
  5
76C9
330
1F
100
AcDbEntity
  8
粗实线
  6
HIDDEN
 62
     0
 48
150.0
370
    20
100
AcDbCircle
 10
8715.575238465325
 20
-11359.97765975572
 30
0.0
 40
331.5094709135716
100
AcDbArc
 50
84.22876837162442
 51
95.77123162837557
  0
ARC
  5
76CA
330
1F
100
AcDbEntity
  8
粗实线
  6
HIDDEN
 62
     0
 48
150.0
370
    20
100
AcDbCircle
 10
8743.439541403962
 20
-11034.73709095578
 30
0.0
 40
7.14067987040838
100
AcDbArc
 50
357.859426056841
 51
39.98583479127637
  0
ARC
  5
76CB
330
1F
100
AcDbEntity
  8
粗实线
  6
HIDDEN
 62
     0
 48
150.0
370
    20
100
AcDbCircle
 10
8687.710935526684
 20
-11034.73709095578
 30
0.0
 40
7.140679870408279
100
AcDbArc
 50
140.0141652087236
 51
182.1405739431589
  0
ARC
  5
76CC
330
1F
100
AcDbEntity
  8
粗实线
  6
HIDDEN
 62
     0
 48
150.0
370
    20
100
AcDbCircle
 10
8750.392333525651
 20
-11039.78029418628
 30
0.0
 40
4.488077352619552
100
AcDbArc
 50
125.6603469190277
 51
182.8063026719658
  0
ARC
  5
76CD
330
1F
100
AcDbEntity
  8
粗实线
  6
HIDDEN
 62
     0
 48
150.0
370
    20
100
AcDbCircle
 10
8680.758143404998
 20
-11039.78029418628
 30
0.0
 40
4.48807735261955
100
AcDbArc
 50
357.1936973280342
 51
54.33965308097231
  0
LINE
  5
76CE
330
1F
100
AcDbEntity
  8
虚线
 62
     0
100
AcDbLine
 10
7490.54575915281
 20
-10962.87486493417
 30
0.0
 11
7341.017819150835
 21
-10542.61934245086
 31
0.0
  0
ARC
  5
76CF
330
1F
100
AcDbEntity
  8
虚线
 62
     0
100
AcDbCircle
 10
7547.074233999414
 20
-10942.76189569746
 30
0.0
 40
60.0
100
AcDbArc
 50
199.5856826862885
 51
268.9091998273415
  0
LINE
  5
76D0
330
1F
100
AcDbEntity
  8
粗实线
  6
Continuous
 62
     7
100
AcDbLine
 10
5384.711931778398
 20
-10797.94462738308
 30
0.0
 11
5384.711931778398
 21
-10407.9446273831
 31
0.0
  0
ARC
  5
76D1
330
1F
100
AcDbEntity
  8
粗实线
  6
Continuous
 62
     7
100
AcDbCircle
 10
5394.71193177834
 20
-10407.9446273831
 30
0.0
 40
9.999999999959998
100
AcDbArc
 50
90.0
 51
180.0
  0
LINE
  5
76D2
102
{ACAD_REACTORS
330
76D8
330
76F5
102
}
330
1F
100
AcDbEntity
  8
粗实线
  6
Continuous
 62
     7
100
AcDbLine
 10
5384.711931778398
 20
-10797.94462738308
 30
0.0
 11
5384.7119317784
 21
-11187.94462738307
 31
0.0
  0
LINE
  5
76D3
102
{ACAD_REACTORS
330
76D8
102
}
330
1F
100
AcDbEntity
  8
粗实线
  6
Continuous
 62
     7
100
AcDbLine
 10
5454.711931778398
 20
-10527.94462738313
 30
0.0
 11
5454.7119317784
 21
-11067.94462738304
 31
0.0
  0
ARC
  5
76D4
102
{ACAD_REACTORS
330
76F5
102
}
330
1F
100
AcDbEntity
  8
粗实线
  6
Continuous
 62
     7
100
AcDbCircle
 10
5514.7119317784
 20
-11067.94462738304
 30
0.0
 40
60.0
100
AcDbArc
 50
180.0
 51
270.0
  0
ARC
  5
76D5
330
1F
100
AcDbEntity
  8
粗实线
  6
Continuous
 62
     7
100
AcDbCircle
 10
5394.711931778342
 20
-11187.94462738307
 30
0.0
 40
9.999999999959998
100
AcDbArc
 50
180.0
 51
270.0
  0
DIMENSION
  5
76D6
102
{ACAD_XDICTIONARY
360
76D7
102
}
102
{ACAD_REACTORS
330
76D8
102
}
330
1F
100
AcDbEntity
  8
0
100
AcDbDimension
280
     0
  2
*D106
 10
7074.711931777059
 20
-10252.64333827995
 30
0.0
 11
6229.711931777728
 21
-10220.76833827995
 31
0.0
 70
    32
  1
<>
 71
     5
 42
1689.999999998661
 73
     0
 74
     0
 75
     0
  3
Standard
100
AcDbAlignedDimension
 13
5384.711931778398
 23
-10797.94462738308
 33
0.0
 14
7074.711931777059
 24
-10797.94462738308
 34
0.0
100
AcDbRotatedDimension
1001
ACAD
1000
DSTYLE
1002
{
1070
    74
1070
     1
1002
}
  0
DIMENSION
  5
76D9
102
{ACAD_XDICTIONARY
360
76DA
102
}
102
{ACAD_REACTORS
330
76DB
102
}
330
1F
100
AcDbEntity
  8
0
100
AcDbDimension
280
     0
  2
*D107
 10
5187.502009004193
 20
-11197.94462738304
 30
0.0
 11
5155.627009004195
 21
-10797.94462738308
 31
0.0
 70
    32
 71
     5
 42
799.9999999999054
 73
     0
 74
     0
 75
     0
  3
Standard
100
AcDbAlignedDimension
 13
6319.711931777728
 23
-10397.94462738313
 33
0.0
 14
6319.711931777728
 24
-11197.94462738304
 34
0.0
 50
90.0
100
AcDbRotatedDimension
1001
ACAD
1000
DSTYLE
1002
{
1070
    74
1070
     1
1002
}
  0
LINE
  5
76DC
102
{ACAD_REACTORS
330
76EE
102
}
330
1F
100
AcDbEntity
  8
粗实线
  6
Continuous
 62
     7
100
AcDbLine
 10
5689.711931777059
 20
-10992.94462738336
 30
0.0
 11
5689.711931777058
 21
-10602.94462738281
 31
0.0
  0
ARC
  5
76DD
330
1F
100
AcDbEntity
  8
粗实线
  6
Continuous
 62
     7
100
AcDbCircle
 10
5749.71193177706
 20
-10992.94462738336
 30
0.0
 40
60.0
100
AcDbArc
 50
180.0
 51
270.0
  0
DIMENSION
  5
76DE
102
{ACAD_XDICTIONARY
360
76DF
102
}
102
{ACAD_REACTORS
330
76E0
102
}
330
1F
100
AcDbEntity
  8
0
100
AcDbDimension
280
     0
  2
*D108
 10
7074.711931777059
 20
-10681.25058009124
 30
0.0
 11
6949.844073544095
 21
-10681.25058009124
 31
0.0
 70
   160
 71
     5
 42
249.7357164659297
 73
     0
 74
     0
 75
     0
  3
Standard
100
AcDbAlignedDimension
 13
6824.976215311129
 23
-10798.88212738308
 33
0.0
 14
7074.711931777059
 24
-10798.88212738308
 34
0.0
100
AcDbRotatedDimension
1001
ACAD
1000
DSTYLE
1002
{
1070
    74
1070
     1
1002
}
  0
LINE
  5
76E1
330
1F
100
AcDbEntity
  8
0
370
    30
100
AcDbLine
 10
7265.936684544937
 20
-10542.61934245086
 30
0.0
 11
7265.936684544937
 21
-10567.61934245086
 31
0.0
  0
LINE
  5
76E2
330
1F
100
AcDbEntity
  8
0
370
    30
100
AcDbLine
 10
8965.936684543605
 20
-10542.61934245086
 30
0.0
 11
8965.936684543605
 21
-10567.61934245086
 31
0.0
  0
DIMENSION
  5
76E3
102
{ACAD_XDICTIONARY
360
76E4
102
}
102
{ACAD_REACTORS
330
76E5
102
}
330
1F
100
AcDbEntity
  8
0
100
AcDbDimension
280
     0
  2
*D109
 10
8962.208740442916
 20
-10542.61934245086
 30
0.0
 11
8962.208740442916
 21
-10792.7093656453
 31
0.0
 70
   160
 71
     5
 42
500.1800463888867
 73
     0
 74
     0
 75
     0
  3
Standard
100
AcDbAlignedDimension
 13
8715.567238465329
 23
-11042.79938883975
 33
0.0
 14
8715.567238465329
 24
-10542.61934245086
 34
0.0
 50
90.0
100
AcDbRotatedDimension
1001
ACAD
1000
DSTYLE
1002
{
1070
    74
1070
     1
1002
}
  0
DIMENSION
  5
76E9
102
{ACAD_XDICTIONARY
360
76EA
102
}
102
{ACAD_REACTORS
330
76EB
102
}
330
1F
100
AcDbEntity
  8
0
100
AcDbDimension
280
     0
  2
*D110
 10
8664.702026498629
 20
-10542.61934245086
 30
0.0
 11
8632.827026498629
 21
-10784.68913059146
 31
0.0
 70
    32
  1
470
 71
     5
 42
484.1395762812026
 73
     0
 74
     0
 75
     0
  3
Standard
100
AcDbAlignedDimension
 13
8806.827429778065
 23
-11026.75891873206
 33
0.0
 14
8828.735151999632
 24
-10542.61934245086
 34
0.0
 50
90.0
100
AcDbRotatedDimension
1001
ACAD
1000
DSTYLE
1002
{
1070
    74
1070
     1
1002
}
  0
DIMENSION
  5
76EC
102
{ACAD_XDICTIONARY
360
76ED
102
}
102
{ACAD_REACTORS
330
76EE
102
}
330
1F
100
AcDbEntity
  8
0
100
AcDbDimension
280
     0
  2
*D111
 10
6924.711931777058
 20
-10318.16273351767
 30
0.0
 11
6307.211931777058
 21
-10286.28773351766
 31
0.0
 70
    32
 71
     5
 42
1235.0
 73
     0
 74
     0
 75
     0
  3
Standard
100
AcDbAlignedDimension
 13
5689.711931777059
 23
-10797.94462738308
 33
0.0
 14
6924.711931777058
 24
-10797.94462738308
 34
0.0
100
AcDbRotatedDimension
1001
ACAD
1000
DSTYLE
1002
{
1070
    74
1070
     1
1002
}
  0
DIMENSION
  5
76EF
330
1F
100
AcDbEntity
  8
0
100
AcDbDimension
280
     0
  2
*D105
 10
7074.711931777059
 20
-10357.0509356869
 30
0.0
 11
7192.836931777058
 21
-10325.1759356869
 31
0.0
 70
    32
 71
     5
 42
70.0
 73
     0
 74
     0
 75
     0
  3
Standard
100
AcDbAlignedDimension
 13
7004.711931777059
 23
-10597.05401124219
 33
0.0
 14
7074.711931777059
 24
-10597.05401124219
 34
0.0
100
AcDbRotatedDimension
1001
ACAD
1000
DSTYLE
1002
{
1070
    74
1070
     1
1002
}
  0
DIMENSION
  5
76F0
102
{ACAD_XDICTIONARY
360
76F1
102
}
102
{ACAD_REACTORS
330
76F2
102
}
330
1F
100
AcDbEntity
  8
0
100
AcDbDimension
280
     0
  2
*D112
 10
5181.252009004194
 20
-10397.94462738313
 30
0.0
 11
5224.377009004196
 21
-10291.06962738313
 31
0.0
 70
    32
 71
     5
 42
70.0
 73
     0
 74
     0
 75
     0
  3
Standard
100
AcDbAlignedDimension
 13
5514.711931778398
 23
-10467.94462738313
 33
0.0
 14
5514.711931778398
 24
-10397.94462738313
 34
0.0
 50
90.0
100
AcDbRotatedDimension
1001
ACAD
1000
DSTYLE
1002
{
1070
    74
1070
     1
1002
}
  0
DIMENSION
  5
76F3
102
{ACAD_XDICTIONARY
360
76F4
102
}
102
{ACAD_REACTORS
330
76F5
102
}
330
1F
100
AcDbEntity
  8
0
100
AcDbDimension
280
     0
  2
*D113
 10
5384.7119317784
 20
-11278.71883076807
 30
0.0
 11
5266.5869317784
 21
-11246.84383076807
 31
0.0
 70
    32
 71
     5
 42
70.0
 73
     0
 74
     0
 75
     0
  3
Standard
100
AcDbAlignedDimension
 13
5454.7119317784
 23
-11067.94462738304
 33
0.0
 14
5384.7119317784
 24
-11067.94462738304
 34
0.0
100
AcDbRotatedDimension
1001
ACAD
1000
DSTYLE
1002
{
1070
    74
1070
     1
1002
}
  0
DIMENSION
  5
76F6
102
{ACAD_XDICTIONARY
360
76F7
102
}
102
{ACAD_REACTORS
330
76F8
102
}
330
1F
100
AcDbEntity
  8
0
100
AcDbDimension
280
     0
  2
*D114
 10
7173.209090461198
 20
-11197.94462738304
 30
0.0
 11
7130.0840904612
 21
-11241.06962738303
 31
0.0
 70
    32
 71
     5
 42
70.0
 73
     0
 74
     0
 75
     0
  3
Standard
100
AcDbAlignedDimension
 13
6944.71193177706
 23
-11127.94462738304
 33
0.0
 14
6944.71193177706
 24
-11197.94462738304
 34
0.0
 50
90.0
100
AcDbRotatedDimension
1001
ACAD
1000
DSTYLE
1002
{
1070
    74
1070
     1
1002
}
  0
CIRCLE
  5
779D
102
{ACAD_REACTORS
330
77A0
102
}
330
1F
100
AcDbEntity
  8
0
100
AcDbCircle
 10
6824.976215311129
 20
-10797.94462738308
 30
0.0
 40
25.0
  0
DIMENSION
  5
779E
102
{ACAD_XDICTIONARY
360
779F
102
}
102
{ACAD_REACTORS
330
77A0
102
}
330
1F
100
AcDbEntity
  8
0
100
AcDbDimension
280
     0
  2
*D132
 10
6845.177229660127
 20
-10783.21645644194
 30
0.0
 11
6642.18533208695
 21
-10851.49301884174
 31
0.0
 70
    35
 71
     5
 42
50.00000000000091
 73
     0
 74
     0
 75
     0
  3
Standard
100
AcDbDiametricDimension
 15
6804.775200962135
 25
-10812.67279832423
 35
0.0
 40
0.0
1001
ACAD
1000
DSTYLE
1002
{
1070
    74
1070
     1
1070
   288
1070
     1
1002
}
  0
ENDSEC
  0
SECTION
  2
OBJECTS
  0
DICTIONARY
  5
C
330
0
100
AcDbDictionary
281
     1
  3
ACAD_CIP_PREVIOUS_PRODUCT_INFO
350
7DA8
  3
ACAD_COLOR
350
73
  3
ACAD_DETAILVIEWSTYLE
350
7D9F
  3
ACAD_GROUP
350
D
  3
ACAD_LAYOUT
350
1A
  3
ACAD_MATERIAL
350
72
  3
ACAD_MLEADERSTYLE
350
7D9B
  3
ACAD_MLINESTYLE
350
17
  3
ACAD_PLOTSETTINGS
350
19
  3
ACAD_PLOTSTYLENAME
350
E
  3
ACAD_SCALELIST
350
7D89
  3
ACAD_SECTIONVIEWSTYLE
350
7D9D
  3
ACAD_TABLESTYLE
350
86
  3
ACAD_VISUALSTYLE
350
97
  3
ACDB_RECOMPOSE_DATA
350
7DDB
  3
AcDbVariableDictionary
350
66
  0
DICTIONARY
  5
937
330
8
100
AcDbDictionary
280
     1
281
     1
  0
DICTIONARY
  5
CB
330
2
100
AcDbDictionary
280
     1
281
     1
  3
ACAD_LAYERSTATES
360
CC
  0
DICTIONARY
  5
7DA9
330
10
100
AcDbDictionary
280
     1
281
     1
  3
ADSK_XREC_LAYER_RECONCILED
360
7DAA
  0
DICTIONARY
  5
7DAB
330
C5
100
AcDbDictionary
280
     1
281
     1
  3
ADSK_XREC_LAYER_RECONCILED
360
7DAC
  0
DICTIONARY
  5
7DAD
330
C6
100
AcDbDictionary
280
     1
281
     1
  3
ADSK_XREC_LAYER_RECONCILED
360
7DAE
  0
DICTIONARY
  5
7DAF
330
C7
100
AcDbDictionary
280
     1
281
     1
  3
ADSK_XREC_LAYER_RECONCILED
360
7DB0
  0
DICTIONARY
  5
7DB1
330
C8
100
AcDbDictionary
280
     1
281
     1
  3
ADSK_XREC_LAYER_RECONCILED
360
7DB2
  0
DICTIONARY
  5
7DB3
330
26A
100
AcDbDictionary
280
     1
281
     1
  3
ADSK_XREC_LAYER_RECONCILED
360
7DB4
  0
DICTIONARY
  5
7DB5
330
26B
100
AcDbDictionary
280
     1
281
     1
  3
ADSK_XREC_LAYER_RECONCILED
360
7DB6
  0
DICTIONARY
  5
7DB7
330
26C
100
AcDbDictionary
280
     1
281
     1
  3
ADSK_XREC_LAYER_RECONCILED
360
7DB8
  0
DICTIONARY
  5
7DB9
330
26D
100
AcDbDictionary
280
     1
281
     1
  3
ADSK_XREC_LAYER_RECONCILED
360
7DBA
  0
DICTIONARY
  5
7DBB
330
52B
100
AcDbDictionary
280
     1
281
     1
  3
ADSK_XREC_LAYER_RECONCILED
360
7DBC
  0
DICTIONARY
  5
7DBD
330
3C36
100
AcDbDictionary
280
     1
281
     1
  3
ADSK_XREC_LAYER_RECONCILED
360
7DBE
  0
DICTIONARY
  5
FB6
330
1F
100
AcDbDictionary
280
     1
281
     1
  3
ACAD_SORTENTS
360
FB7
  0
DICTIONARY
  5
76D7
330
76D6
100
AcDbDictionary
280
     1
281
     1
  3
ACAD_DIMASSOC
360
76D8
  0
DICTIONARY
  5
76DA
330
76D9
100
AcDbDictionary
280
     1
281
     1
  3
ACAD_DIMASSOC
360
76DB
  0
DICTIONARY
  5
76DF
330
76DE
100
AcDbDictionary
280
     1
281
     1
  3
ACAD_DIMASSOC
360
76E0
  0
DICTIONARY
  5
76E4
330
76E3
100
AcDbDictionary
280
     1
281
     1
  3
ACAD_DIMASSOC
360
76E5
  0
DICTIONARY
  5
76EA
330
76E9
100
AcDbDictionary
280
     1
281
     1
  3
ACAD_DIMASSOC
360
76EB
  0
DICTIONARY
  5
76ED
330
76EC
100
AcDbDictionary
280
     1
281
     1
  3
ACAD_DIMASSOC
360
76EE
  0
DICTIONARY
  5
76F1
330
76F0
100
AcDbDictionary
280
     1
281
     1
  3
ACAD_DIMASSOC
360
76F2
  0
DICTIONARY
  5
76F4
330
76F3
100
AcDbDictionary
280
     1
281
     1
  3
ACAD_DIMASSOC
360
76F5
  0
DICTIONARY
  5
76F7
330
76F6
100
AcDbDictionary
280
     1
281
     1
  3
ACAD_DIMASSOC
360
76F8
  0
DICTIONARY
  5
779F
330
779E
100
AcDbDictionary
280
     1
281
     1
  3
ACAD_DIMASSOC
360
77A0
  0
XRECORD
  5
7DA8
102
{ACAD_REACTORS
330
C
102
}
330
C
100
AcDbXrecord
280
     1
300
ACD
300
2017
300
ACD_F_S
  0
DICTIONARY
  5
73
102
{ACAD_REACTORS
330
C
102
}
330
C
100
AcDbDictionary
281
     1
  0
DICTIONARY
  5
7D9F
102
{ACAD_REACTORS
330
C
102
}
330
C
100
AcDbDictionary
281
     1
  3
Imperial24
350
7DA0
  0
DICTIONARY
  5
D
102
{ACAD_REACTORS
330
C
102
}
330
C
100
AcDbDictionary
281
     1
  0
DICTIONARY
  5
1A
102
{ACAD_REACTORS
330
C
102
}
330
C
100
AcDbDictionary
281
     1
  3
Model
350
22
  3
布局1
350
59
  3
布局2
350
5E
1001
AcadStringInfo
1000
MIFCodePage
1070
     5
  0
DICTIONARY
  5
72
102
{ACAD_REACTORS
330
C
102
}
330
C
100
AcDbDictionary
281
     1
  3
ByBlock
350
95
  3
ByLayer
350
94
  3
Global
350
96
  0
DICTIONARY
  5
7D9B
102
{ACAD_REACTORS
330
C
102
}
330
C
100
AcDbDictionary
281
     1
  3
Standard
350
7D9C
  0
DICTIONARY
  5
17
102
{ACAD_REACTORS
330
C
102
}
330
C
100
AcDbDictionary
281
     1
  3
Standard
350
18
  0
DICTIONARY
  5
19
102
{ACAD_REACTORS
330
C
102
}
330
C
100
AcDbDictionary
281
     1
  0
ACDBDICTIONARYWDFLT
  5
E
102
{ACAD_REACTORS
330
C
102
}
330
C
100
AcDbDictionary
281
     1
  3
Normal
350
F
100
AcDbDictionaryWithDefault
340
F
  0
DICTIONARY
  5
7D89
102
{ACAD_REACTORS
330
C
102
}
330
C
100
AcDbDictionary
281
     1
  3
A0
350
7D8A
  3
A1
350
7D8B
  3
A2
350
7D8C
  3
A3
350
7D8D
  3
A4
350
7D8E
  3
A5
350
7D8F
  3
A6
350
7D90
  3
A7
350
7D91
  3
A8
350
7D92
  3
A9
350
7D93
  3
B0
350
7D94
  3
B1
350
7D95
  3
B2
350
7D96
  3
B3
350
7D97
  3
B4
350
7D98
  3
B5
350
7D99
  3
B6
350
7D9A
  0
DICTIONARY
  5
7D9D
102
{ACAD_REACTORS
330
C
102
}
330
C
100
AcDbDictionary
281
     1
  3
Imperial24
350
7D9E
  0
DICTIONARY
  5
86
102
{ACAD_REACTORS
330
C
102
}
330
C
100
AcDbDictionary
281
     1
  3
Standard
350
87
  0
DICTIONARY
  5
97
102
{ACAD_REACTORS
330
C
102
}
330
C
100
AcDbDictionary
281
     1
  3
2dWireframe
350
9D
  3
3D Hidden
350
9F
  3
3dWireframe
350
9E
  3
Basic
350
9C
  3
Brighten
350
A3
  3
ColorChange
350
A7
  3
Conceptual
350
A0
  3
Dim
350
A2
  3
EdgeColorOff
350
7D88
  3
Facepattern
350
A6
  3
Flat
350
98
  3
FlatWithEdges
350
99
  3
Gouraud
350
9A
  3
GouraudWithEdges
350
9B
  3
Hidden
350
7D80
  3
JitterOff
350
7D86
  3
Linepattern
350
A5
  3
OverhangOff
350
7D87
  3
Realistic
350
A1
  3
Shaded
350
7D85
  3
Shaded with edges
350
7D84
  3
Shades of Gray
350
7D81
  3
Sketchy
350
7D82
  3
Thicken
350
A4
  3
Wireframe
350
7D7F
  3
X-Ray
350
7D83
  0
XRECORD
  5
7DDB
102
{ACAD_REACTORS
330
C
102
}
330
C
100
AcDbXrecord
280
     1
 90
        1
330
87
330
7D9E
330
7DA0
  0
DICTIONARY
  5
66
102
{ACAD_REACTORS
330
C
102
}
330
C
100
AcDbDictionary
281
     1
  3
CANNOSCALE
350
7DD1
  3
CMLEADERSTYLE
350
7DCD
  3
CTABLESTYLE
350
8B
  3
CVIEWDETAILSTYLE
350
7DCE
  3
CVIEWSECTIONSTYLE
350
7DCF
  3
DIMASSOC
350
67
  3
HIDETEXT
350
6B
  3
LAYEREVAL
350
7DD3
  3
LAYERNOTIFY
350
7DD4
  3
LIGHTINGUNITS
350
7DD2
  3
MSLTSCALE
350
7DD0
  0
DICTIONARY
  5
CC
102
{ACAD_REACTORS
330
CB
102
}
330
CB
100
AcDbDictionary
281
     1
  0
XRECORD
  5
7DAA
102
{ACAD_REACTORS
330
7DA9
102
}
330
7DA9
100
AcDbXrecord
280
     1
290
     1
  0
XRECORD
  5
7DAC
102
{ACAD_REACTORS
330
7DAB
102
}
330
7DAB
100
AcDbXrecord
280
     1
290
     1
  0
XRECORD
  5
7DAE
102
{ACAD_REACTORS
330
7DAD
102
}
330
7DAD
100
AcDbXrecord
280
     1
290
     1
  0
XRECORD
  5
7DB0
102
{ACAD_REACTORS
330
7DAF
102
}
330
7DAF
100
AcDbXrecord
280
     1
290
     1
  0
XRECORD
  5
7DB2
102
{ACAD_REACTORS
330
7DB1
102
}
330
7DB1
100
AcDbXrecord
280
     1
290
     1
  0
XRECORD
  5
7DB4
102
{ACAD_REACTORS
330
7DB3
102
}
330
7DB3
100
AcDbXrecord
280
     1
290
     1
  0
XRECORD
  5
7DB6
102
{ACAD_REACTORS
330
7DB5
102
}
330
7DB5
100
AcDbXrecord
280
     1
290
     1
  0
XRECORD
  5
7DB8
102
{ACAD_REACTORS
330
7DB7
102
}
330
7DB7
100
AcDbXrecord
280
     1
290
     1
  0
XRECORD
  5
7DBA
102
{ACAD_REACTORS
330
7DB9
102
}
330
7DB9
100
AcDbXrecord
280
     1
290
     1
  0
XRECORD
  5
7DBC
102
{ACAD_REACTORS
330
7DBB
102
}
330
7DBB
100
AcDbXrecord
280
     1
290
     1
  0
XRECORD
  5
7DBE
102
{ACAD_REACTORS
330
7DBD
102
}
330
7DBD
100
AcDbXrecord
280
     1
290
     1
  0
SORTENTSTABLE
  5
FB7
102
{ACAD_REACTORS
330
FB6
102
}
330
FB6
100
AcDbSortentsTable
330
1F
  0
DIMASSOC
  5
76D8
102
{ACAD_REACTORS
330
76D7
102
}
330
76D7
100
AcDbDimAssoc
330
76D6
 90
        3
 70
     0
 71
     0
  1
AcDbOsnapPointRef
 72
     6
331
76D2
 73
     2
 91
        0
 40
0.0
 10
0.0
 20
0.0
 30
0.0
332
76B0
 74
     2
 92
        0
 75
     0
  1
AcDbOsnapPointRef
 72
    13
331
76A9
 73
     2
 91
        0
 40
0.0
 10
0.0
 20
0.0
 30
2.000000000000000E+50
 75
     0
  0
DIMASSOC
  5
76DB
102
{ACAD_REACTORS
330
76DA
102
}
330
76DA
100
AcDbDimAssoc
330
76D9
 90
        3
 70
     0
 71
     0
  1
AcDbOsnapPointRef
 72
     1
331
76BD
 73
     2
 91
        0
 40
1.0
 10
0.0
 20
0.0
 30
2.000000000000000E+50
 75
     0
  1
AcDbOsnapPointRef
 72
     1
331
76BE
 73
     2
 91
        0
 40
1.0
 10
0.0
 20
0.0
 30
2.000000000000000E+50
 75
     0
  0
DIMASSOC
  5
76E0
102
{ACAD_REACTORS
330
76DF
102
}
330
76DF
100
AcDbDimAssoc
330
76DE
 90
        3
 70
     0
 71
     0
  1
AcDbOsnapPointRef
 72
     3
331
76AB
 73
     2
 91
        0
 40
0.0
 10
0.0
 20
0.0
 30
0.0
 75
     0
  1
AcDbOsnapPointRef
 72
     8
331
76BA
 73
     2
 91
        0
 40
0.0023437500000012
 10
0.0
 20
0.0
 30
0.0
 75
     1
  1
AcDbOsnapPointRef
 72
     3
331
76AB
 73
     2
 91
        0
 40
0.0
 10
0.0
 20
0.0
 30
0.0
 75
     0
  0
DIMASSOC
  5
76E5
102
{ACAD_REACTORS
330
76E4
102
}
330
76E4
100
AcDbDimAssoc
330
76E3
 90
        3
 70
     0
 71
     0
  1
AcDbOsnapPointRef
 72
     2
331
76C5
 73
     2
 91
        0
 40
0.5
 10
0.0
 20
0.0
 30
0.0
 75
     0
  1
AcDbOsnapPointRef
 72
     8
331
76A2
 73
     2
 91
        0
 40
0.8105215748509086
 10
0.0
 20
0.0
 30
0.0
 75
     1
  1
AcDbOsnapPointRef
 72
     2
331
76C5
 73
     2
 91
        0
 40
0.5
 10
0.0
 20
0.0
 30
0.0
 75
     0
  0
DIMASSOC
  5
76EB
102
{ACAD_REACTORS
330
76EA
102
}
330
76EA
100
AcDbDimAssoc
330
76E9
 90
        1
 70
     0
 71
     0
  1
AcDbOsnapPointRef
 72
    13
331
76AD
 73
     2
 91
        0
 40
0.0
 10
0.0
 20
0.0
 30
2.000000000000000E+50
 75
     0
  0
DIMASSOC
  5
76EE
102
{ACAD_REACTORS
330
76ED
102
}
330
76ED
100
AcDbDimAssoc
330
76EC
 90
        3
 70
     0
 71
     0
  1
AcDbOsnapPointRef
 72
     6
331
76DC
 73
     2
 91
        0
 40
0.5000000000000025
 10
0.0
 20
0.0
 30
0.0
332
76B0
 74
     2
 92
        0
 75
     0
  1
AcDbOsnapPointRef
 72
     8
331
76B8
 73
     2
 91
        0
 40
0.5000000000000161
 10
0.0
 20
0.0
 30
0.0
 75
     1
  1
AcDbOsnapPointRef
 72
     6
331
76DC
 73
     2
 91
        0
 40
0.5000000000000025
 10
0.0
 20
0.0
 30
0.0
332
76B0
 74
     2
 92
        0
 75
     0
  0
DIMASSOC
  5
76F2
102
{ACAD_REACTORS
330
76F1
102
}
330
76F1
100
AcDbDimAssoc
330
76F0
 90
        1
 70
     0
 71
     0
  1
AcDbOsnapPointRef
 72
    13
331
76A8
 73
     2
 91
        0
 40
1.570796326794896
 10
0.0
 20
0.0
 30
2.000000000000000E+50
 75
     0
  0
DIMASSOC
  5
76F5
102
{ACAD_REACTORS
330
76F4
102
}
330
76F4
100
AcDbDimAssoc
330
76F3
 90
        3
 70
     0
 71
     0
  1
AcDbOsnapPointRef
 72
    13
331
76D4
 73
     2
 91
        0
 40
3.141592653589796
 10
0.0
 20
0.0
 30
2.000000000000000E+50
 75
     0
  1
AcDbOsnapPointRef
 72
     8
331
76D2
 73
     2
 91
        0
 40
0.6874999999998992
 10
0.0
 20
0.0
 30
0.0
 75
     1
  1
AcDbOsnapPointRef
 72
    13
331
76D4
 73
     2
 91
        0
 40
3.141592653589796
 10
0.0
 20
0.0
 30
2.000000000000000E+50
 75
     0
  0
DIMASSOC
  5
76F8
102
{ACAD_REACTORS
330
76F7
102
}
330
76F7
100
AcDbDimAssoc
330
76F6
 90
        3
 70
     0
 71
     0
  1
AcDbOsnapPointRef
 72
    13
331
76B7
 73
     2
 91
        0
 40
4.712388980384689
 10
0.0
 20
0.0
 30
2.000000000000000E+50
 75
     0
  1
AcDbOsnapPointRef
 72
     8
331
76B5
 73
     2
 91
        0
 40
0.1666666666668801
 10
0.0
 20
0.0
 30
0.0
 75
     1
  1
AcDbOsnapPointRef
 72
    13
331
76B7
 73
     2
 91
        0
 40
4.712388980384689
 10
0.0
 20
0.0
 30
2.000000000000000E+50
 75
     0
  0
DIMASSOC
  5
77A0
102
{ACAD_REACTORS
330
779F
102
}
330
779F
100
AcDbDimAssoc
330
779E
 90
        2
 70
     0
 71
     0
  1
AcDbOsnapPointRef
 72
     3
331
779D
 73
     2
 91
        0
 40
0.0
 10
0.0
 20
0.0
 30
0.0
 75
     0
  0
ACDBDETAILVIEWSTYLE
  5
7DA0
102
{ACAD_XDICTIONARY
360
7DD9
102
}
102
{ACAD_REACTORS
330
7D9F
102
}
330
7D9F
100
AcDbModelDocViewStyle
 70
     0
  3
Imperial24
290
     0
100
AcDbDetailViewStyle
 70
     0
 71
     0
 90
        3
 71
     1
340
11
 62
   256
 40
0.24
340
0
 62
   256
 40
0.24
300

 40
0.36
280
     3
 71
     2
340
16
 90
       25
 62
   256
 71
     3
340
11
 62
   256
 40
0.24
 90
        1
 40
0.75
 90
        1
300
%<\AcVar ViewType \f "%tc1">% %<\AcVar ViewDetailId>%\PSCALE %<\AcVar ViewScale \f "%sn">%
 71
     4
340
16
 90
       25
 62
   256
340
16
 90
       25
 62
   256
280
     0
  0
LAYOUT
  5
22
102
{ACAD_REACTORS
330
1A
102
}
330
1A
100
AcDbPlotSettings
  1

  2
DWG To PDF.pc3
  4
ISO_expand_A4_(210.00_x_297.00_MM)
  6

 40
5.793749809265136
 41
10.79374980926513
 42
5.793746948242187
 43
10.79376220703125
 44
210.0
 45
297.0
 46
0.0
 47
5.584311844874662
 48
4892.983353965359
 49
-12691.75303121942
140
9347.983353965359
141
-9346.632022233599
142
1.0
143
16.85942646919551
 70
 11956
 72
     1
 73
     1
 74
     4
  7
acad.ctb
 75
     0
147
0.0593139987191817
 76
     0
 77
     2
 78
   300
148
-4892.983353965359
149
12691.75303121942
100
AcDbLayout
  1
Model
 70
     1
 71
     0
 10
0.0
 20
0.0
 11
12.0
 21
9.0
 12
0.0
 22
0.0
 32
0.0
 14
0.0
 24
0.0
 34
0.0
 15
0.0
 25
0.0
 35
0.0
146
0.0
 13
0.0
 23
0.0
 33
0.0
 16
1.0
 26
0.0
 36
0.0
 17
0.0
 27
1.0
 37
0.0
 76
     0
330
1F
331
92
1001
ACAD_PSEXT
1000
DWG To PDF.pc3
1000
PDF
1000
文件
1000

1070
     0
  0
LAYOUT
  5
59
102
{ACAD_REACTORS
330
1A
102
}
330
1A
100
AcDbPlotSettings
  1

  2
None
  4

  6

 40
0.0
 41
0.0
 42
0.0
 43
0.0
 44
0.0
 45
0.0
 46
0.0
 47
0.0
 48
0.0
 49
0.0
140
0.0
141
0.0
142
1.0
143
1.0
 70
   688
 72
     0
 73
     0
 74
     5
  7
acad.ctb
 75
    16
147
1.0
 76
     0
 77
     2
 78
   300
148
0.0
149
0.0
100
AcDbLayout
  1
布局1
 70
     1
 71
     1
 10
0.0
 20
0.0
 11
12.0
 21
9.0
 12
0.0
 22
0.0
 32
0.0
 14
0.0
 24
0.0
 34
0.0
 15
0.0
 25
0.0
 35
0.0
146
0.0
 13
0.0
 23
0.0
 33
0.0
 16
1.0
 26
0.0
 36
0.0
 17
0.0
 27
1.0
 37
0.0
 76
     0
330
58
1001
AcadStringInfo
1000
MIFCodePage
1070
     5
  0
LAYOUT
  5
5E
102
{ACAD_REACTORS
330
1A
102
}
330
1A
100
AcDbPlotSettings
  1

  2
None
  4

  6

 40
0.0
 41
0.0
 42
0.0
 43
0.0
 44
0.0
 45
0.0
 46
0.0
 47
0.0
 48
0.0
 49
0.0
140
0.0
141
0.0
142
1.0
143
1.0
 70
   688
 72
     0
 73
     0
 74
     5
  7
acad.ctb
 75
    16
147
1.0
 76
     0
 77
     2
 78
   300
148
0.0
149
0.0
100
AcDbLayout
  1
布局2
 70
     1
 71
     2
 10
0.0
 20
0.0
 11
12.0
 21
9.0
 12
0.0
 22
0.0
 32
0.0
 14
0.0
 24
0.0
 34
0.0
 15
0.0
 25
0.0
 35
0.0
146
0.0
 13
0.0
 23
0.0
 33
0.0
 16
1.0
 26
0.0
 36
0.0
 17
0.0
 27
1.0
 37
0.0
 76
     0
330
5D
1001
AcadStringInfo
1000
MIFCodePage
1070
     5
  0
MATERIAL
  5
95
102
{ACAD_REACTORS
330
72
102
}
330
72
100
AcDbMaterial
  1
ByBlock
 73
     1
 78
     1
172
     1
176
     1
270
     1
274
     1
 94
       63
  0
MATERIAL
  5
94
102
{ACAD_REACTORS
330
72
102
}
330
72
100
AcDbMaterial
  1
ByLayer
 73
     1
 78
     1
172
     1
176
     1
270
     1
274
     1
 94
       63
  0
MATERIAL
  5
96
102
{ACAD_REACTORS
330
72
102
}
330
72
100
AcDbMaterial
  1
Global
 73
     1
 78
     1
172
     1
176
     1
270
     1
274
     1
 94
       63
  0
MLEADERSTYLE
  5
7D9C
102
{ACAD_REACTORS
330
7D9B
102
}
330
7D9B
100
AcDbMLeaderStyle
179
     2
170
     2
171
     1
172
     0
 90
        2
 40
0.0
 41
0.0
173
     1
 91
-1056964608
340
14
 92
       -2
290
     1
 42
0.09
291
     1
 43
0.36
  3
Standard
 44
0.18
300

342
11
174
     1
178
     6
175
     1
176
     0
 93
-1056964608
 45
0.18
292
     0
297
     0
 46
0.18
 94
-1056964608
 47
1.0
 49
1.0
140
1.0
293
     1
141
0.0
294
     1
177
     0
142
1.0
295
     1
296
     0
143
0.125
271
     0
272
     9
273
     9
298
     1
  0
MLINESTYLE
  5
18
102
{ACAD_REACTORS
330
17
102
}
330
17
100
AcDbMlineStyle
  2
STANDARD
 70
     0
  3

 62
   256
 51
90.0
 52
90.0
 71
     2
 49
0.5
 62
   256
  6
BYLAYER
 49
-0.5
 62
   256
  6
BYLAYER
  0
ACDBPLACEHOLDER
  5
F
102
{ACAD_REACTORS
330
E
102
}
330
E
  0
SCALE
  5
7D8A
102
{ACAD_REACTORS
330
7D89
102
}
330
7D89
100
AcDbScale
 70
     0
300
1:1
140
1.0
141
1.0
290
     1
  0
SCALE
  5
7D8B
102
{ACAD_REACTORS
330
7D89
102
}
330
7D89
100
AcDbScale
 70
     0
300
1/128" = 1'-0"
140
0.0078125
141
12.0
290
     0
  0
SCALE
  5
7D8C
102
{ACAD_REACTORS
330
7D89
102
}
330
7D89
100
AcDbScale
 70
     0
300
1/64" = 1'-0"
140
0.015625
141
12.0
290
     0
  0
SCALE
  5
7D8D
102
{ACAD_REACTORS
330
7D89
102
}
330
7D89
100
AcDbScale
 70
     0
300
1/32" = 1'-0"
140
0.03125
141
12.0
290
     0
  0
SCALE
  5
7D8E
102
{ACAD_REACTORS
330
7D89
102
}
330
7D89
100
AcDbScale
 70
     0
300
1/16" = 1'-0"
140
0.0625
141
12.0
290
     0
  0
SCALE
  5
7D8F
102
{ACAD_REACTORS
330
7D89
102
}
330
7D89
100
AcDbScale
 70
     0
300
3/32" = 1'-0"
140
0.09375
141
12.0
290
     0
  0
SCALE
  5
7D90
102
{ACAD_REACTORS
330
7D89
102
}
330
7D89
100
AcDbScale
 70
     0
300
1/8" = 1'-0"
140
0.125
141
12.0
290
     0
  0
SCALE
  5
7D91
102
{ACAD_REACTORS
330
7D89
102
}
330
7D89
100
AcDbScale
 70
     0
300
3/16" = 1'-0"
140
0.1875
141
12.0
290
     0
  0
SCALE
  5
7D92
102
{ACAD_REACTORS
330
7D89
102
}
330
7D89
100
AcDbScale
 70
     0
300
1/4" = 1'-0"
140
0.25
141
12.0
290
     0
  0
SCALE
  5
7D93
102
{ACAD_REACTORS
330
7D89
102
}
330
7D89
100
AcDbScale
 70
     0
300
3/8" = 1'-0"
140
0.375
141
12.0
290
     0
  0
SCALE
  5
7D94
102
{ACAD_REACTORS
330
7D89
102
}
330
7D89
100
AcDbScale
 70
     0
300
1/2" = 1'-0"
140
0.5
141
12.0
290
     0
  0
SCALE
  5
7D95
102
{ACAD_REACTORS
330
7D89
102
}
330
7D89
100
AcDbScale
 70
     0
300
3/4" = 1'-0"
140
0.75
141
12.0
290
     0
  0
SCALE
  5
7D96
102
{ACAD_REACTORS
330
7D89
102
}
330
7D89
100
AcDbScale
 70
     0
300
1" = 1'-0"
140
1.0
141
12.0
290
     0
  0
SCALE
  5
7D97
102
{ACAD_REACTORS
330
7D89
102
}
330
7D89
100
AcDbScale
 70
     0
300
1-1/2" = 1'-0"
140
1.5
141
12.0
290
     0
  0
SCALE
  5
7D98
102
{ACAD_REACTORS
330
7D89
102
}
330
7D89
100
AcDbScale
 70
     0
300
3" = 1'-0"
140
3.0
141
12.0
290
     0
  0
SCALE
  5
7D99
102
{ACAD_REACTORS
330
7D89
102
}
330
7D89
100
AcDbScale
 70
     0
300
6" = 1'-0"
140
6.0
141
12.0
290
     0
  0
SCALE
  5
7D9A
102
{ACAD_REACTORS
330
7D89
102
}
330
7D89
100
AcDbScale
 70
     0
300
1'-0" = 1'-0"
140
12.0
141
12.0
290
     0
  0
ACDBSECTIONVIEWSTYLE
  5
7D9E
102
{ACAD_XDICTIONARY
360
7DD7
102
}
102
{ACAD_REACTORS
330
7D9D
102
}
330
7D9D
100
AcDbModelDocViewStyle
 70
     0
  3
Imperial24
290
     0
100
AcDbSectionViewStyle
 70
     0
 71
     0
 90
       78
 71
     1
340
11
 62
   256
 40
0.24
340
0
340
0
 62
   256
 40
0.24
300
I, O, Q, S, X, Z
 40
0.48
 90
        3
 40
0.18
 90
        1
 71
     2
340
16
 90
       25
 62
   256
340
16
 90
       50
 62
   256
 40
0.24
 40
0.0
 40
0.24
 71
     3
340
11
 62
   256
 40
0.24
 90
        1
 40
0.75
 90
        1
300
%<\AcVar ViewType \f "%tc1">% %<\AcVar ViewSectionStartId>%-%<\AcVar ViewSectionEndId>%\PSCALE %<\AcVar ViewScale \f "%sn">%
 71
     4
 62
   256
 62
   257
300
ANSI31
 40
1.0
 90
        0
290
     0
290
     0
 90
        6
 40
0.0
 40
1.570796326794896
 40
0.2617993877991494
 40
1.308996938995747
 40
-0.2617993877991494
 40
1.832595714594046
  0
TABLESTYLE
  5
87
102
{ACAD_XDICTIONARY
360
7DD5
102
}
102
{ACAD_REACTORS
330
86
102
}
330
86
100
AcDbTableStyle
280
     0
  3
Standard
 70
     0
 71
     0
 40
0.06
 41
0.06
280
     0
281
     0
  7
Standard
140
0.18
170
     2
 62
     0
 63
     7
283
     0
 90
      512
 91
        0
  1

274
    -2
284
     1
 64
     0
275
    -2
285
     1
 65
     0
276
    -2
286
     1
 66
     0
277
    -2
287
     1
 67
     0
278
    -2
288
     1
 68
     0
279
    -2
289
     1
 69
     0
  7
Standard
140
0.25
170
     5
 62
     0
 63
     7
283
     0
 90
      512
 91
        0
  1

274
    -2
284
     1
 64
     0
275
    -2
285
     1
 65
     0
276
    -2
286
     1
 66
     0
277
    -2
287
     1
 67
     0
278
    -2
288
     1
 68
     0
279
    -2
289
     1
 69
     0
  7
Standard
140
0.18
170
     5
 62
     0
 63
     7
283
     0
 90
      512
 91
        0
  1

274
    -2
284
     1
 64
     0
275
    -2
285
     1
 65
     0
276
    -2
286
     1
 66
     0
277
    -2
287
     1
 67
     0
278
    -2
288
     1
 68
     0
279
    -2
289
     1
 69
     0
  0
VISUALSTYLE
  5
9D
102
{ACAD_REACTORS
330
97
102
}
330
97
100
AcDbVisualStyle
  2
2dWireframe
 70
     4
177
     3
291
     0
 70
    58
 90
        0
176
     1
 90
        2
176
     1
 90
        1
176
     1
 90
        0
176
     1
 40
0.6
176
     1
 40
30.0
176
     1
 62
     7
420
 16777215
176
     1
 90
        1
176
     1
 90
        4
176
     1
 62
     7
176
     1
 62
   257
176
     1
 90
        1
176
     1
 90
        1
176
     1
 40
1.0
176
     1
 90
        0
176
     1
 62
   257
176
     1
 40
1.0
176
     1
 90
        1
176
     1
 90
        6
176
     1
 90
        2
176
     1
 62
     7
176
     1
 90
        5
176
     1
 90
        0
176
     1
 90
        0
176
     1
290
     0
176
     1
 90
        1
176
     1
 40
0.0
176
     1
 90
        0
176
     1
290
     1
176
     1
290
     1
176
     1
290
     0
176
     1
290
     0
176
     1
290
     0
176
     1
290
     0
176
     1
290
     0
176
     1
290
     0
176
     1
290
     0
176
     1
 90
       50
176
     1
 40
0.0
176
     1
 40
1.0
176
     1
 90
        0
176
     1
 62
    18
420
        0
176
     1
 90
       50
176
     1
 90
        3
176
     1
 62
     5
420
      255
176
     1
290
     0
176
     1
 90
       50
176
     1
 90
       50
176
     1
 90
       50
176
     1
290
     0
176
     1
 90
       50
176
     1
 62
   256
176
     0
 40
1.0
176
     0
 90
        2
176
     1
  1
strokes_ogs.tif
176
     1
290
     0
176
     1
 40
1.0
176
     1
 40
1.0
176
     1
  0
VISUALSTYLE
  5
9F
102
{ACAD_REACTORS
330
97
102
}
330
97
100
AcDbVisualStyle
  2
3D Hidden
 70
     6
177
     3
291
     0
 70
    58
 90
        1
176
     1
 90
        2
176
     1
 90
        2
176
     1
 90
        0
176
     1
 40
0.6
176
     1
 40
30.0
176
     1
 62
     7
420
 16777215
176
     1
 90
        2
176
     1
 90
        2
176
     1
 62
     7
176
     1
 62
   257
176
     1
 90
        2
176
     1
 90
        1
176
     1
 40
40.0
176
     1
 90
        0
176
     1
 62
   257
176
     1
 40
1.0
176
     1
 90
        1
176
     1
 90
        6
176
     1
 90
        2
176
     1
 62
     7
176
     1
 90
        3
176
     1
 90
        0
176
     1
 90
        0
176
     1
290
     0
176
     1
 90
        1
176
     1
 40
0.0
176
     1
 90
        0
176
     1
290
     0
176
     1
290
     1
176
     1
290
     1
176
     1
290
     0
176
     1
290
     0
176
     1
290
     0
176
     1
290
     0
176
     1
290
     0
176
     1
290
     0
176
     1
 90
       50
176
     1
 40
0.0
176
     1
 40
1.0
176
     1
 90
        0
176
     1
 62
    18
420
        0
176
     1
 90
       50
176
     1
 90
        3
176
     1
 62
     5
420
      255
176
     1
290
     0
176
     1
 90
       50
176
     1
 90
       50
176
     1
 90
       50
176
     1
290
     0
176
     1
 90
       50
176
     1
 62
   256
176
     0
 40
1.0
176
     0
 90
        2
176
     1
  1
strokes_ogs.tif
176
     1
290
     0
176
     1
 40
1.0
176
     1
 40
1.0
176
     1
  0
VISUALSTYLE
  5
9E
102
{ACAD_REACTORS
330
97
102
}
330
97
100
AcDbVisualStyle
  2
3dWireframe
 70
     5
177
     3
291
     0
 70
    58
 90
        0
176
     1
 90
        2
176
     1
 90
        1
176
     1
 90
        0
176
     1
 40
0.6
176
     1
 40
30.0
176
     1
 62
     7
420
 16777215
176
     1
 90
        1
176
     1
 90
        4
176
     1
 62
     7
176
     1
 62
   257
176
     1
 90
        1
176
     1
 90
        1
176
     1
 40
1.0
176
     1
 90
        0
176
     1
 62
   257
176
     1
 40
1.0
176
     1
 90
        1
176
     1
 90
        6
176
     1
 90
        2
176
     1
 62
     7
176
     1
 90
        5
176
     1
 90
        0
176
     1
 90
        0
176
     1
290
     0
176
     1
 90
        1
176
     1
 40
0.0
176
     1
 90
        0
176
     1
290
     0
176
     1
290
     1
176
     1
290
     1
176
     1
290
     0
176
     1
290
     0
176
     1
290
     0
176
     1
290
     0
176
     1
290
     0
176
     1
290
     0
176
     1
 90
       50
176
     1
 40
0.0
176
     1
 40
1.0
176
     1
 90
        0
176
     1
 62
    18
420
        0
176
     1
 90
       50
176
     1
 90
        3
176
     1
 62
     5
420
      255
176
     1
290
     0
176
     1
 90
       50
176
     1
 90
       50
176
     1
 90
       50
176
     1
290
     0
176
     1
 90
       50
176
     1
 62
   256
176
     0
 40
1.0
176
     0
 90
        2
176
     1
  1
strokes_ogs.tif
176
     1
290
     0
176
     1
 40
1.0
176
     1
 40
1.0
176
     1
  0
VISUALSTYLE
  5
9C
102
{ACAD_REACTORS
330
97
102
}
330
97
100
AcDbVisualStyle
  2
Basic
 70
     7
177
     3
291
     1
 70
    58
 90
        1
176
     1
 90
        0
176
     1
 90
        1
176
     1
 90
        0
176
     1
 40
0.6
176
     1
 40
30.0
176
     1
 62
     7
420
 16777215
176
     1
 90
        0
176
     1
 90
        4
176
     1
 62
     7
176
     1
 62
   257
176
     1
 90
        1
176
     1
 90
        1
176
     1
 40
1.0
176
     1
 90
        8
176
     1
 62
     7
176
     1
 40
1.0
176
     1
 90
        1
176
     1
 90
        6
176
     1
 90
        2
176
     1
 62
     7
176
     1
 90
        5
176
     1
 90
        0
176
     1
 90
        0
176
     1
290
     0
176
     1
 90
        1
176
     1
 40
0.0
176
     1
 90
        0
176
     1
290
     0
176
     1
290
     1
176
     1
290
     1
176
     1
290
     0
176
     1
290
     0
176
     1
290
     0
176
     1
290
     0
176
     1
290
     0
176
     1
290
     0
176
     1
 90
       50
176
     1
 40
0.0
176
     1
 40
1.0
176
     1
 90
        0
176
     1
 62
    18
420
        0
176
     1
 90
       50
176
     1
 90
        3
176
     1
 62
     5
420
      255
176
     1
290
     0
176
     1
 90
       50
176
     1
 90
       50
176
     1
 90
       50
176
     1
290
     0
176
     1
 90
       50
176
     1
 62
   256
176
     0
 40
1.0
176
     0
 90
        2
176
     1
  1
strokes_ogs.tif
176
     1
290
     0
176
     1
 40
1.0
176
     1
 40
1.0
176
     1
  0
VISUALSTYLE
  5
A3
102
{ACAD_REACTORS
330
97
102
}
330
97
100
AcDbVisualStyle
  2
Brighten
 70
    12
177
     3
291
     1
 70
    58
 90
        2
176
     1
 90
        2
176
     1
 90
        1
176
     1
 90
        0
176
     1
 40
0.6
176
     1
 40
30.0
176
     1
 62
     7
420
 16777215
176
     1
 90
        1
176
     1
 90
        4
176
     1
 62
     7
176
     1
 62
   257
176
     1
 90
        1
176
     1
 90
        1
176
     1
 40
1.0
176
     1
 90
        8
176
     1
 62
     7
176
     1
 40
1.0
176
     1
 90
        1
176
     1
 90
        6
176
     1
 90
        2
176
     1
 62
     7
176
     1
 90
        5
176
     1
 90
        0
176
     1
 90
        0
176
     1
290
     0
176
     1
 90
        1
176
     1
 40
50.0
176
     1
 90
        0
176
     1
290
     0
176
     1
290
     1
176
     1
290
     1
176
     1
290
     0
176
     1
290
     0
176
     1
290
     0
176
     1
290
     0
176
     1
290
     0
176
     1
290
     0
176
     1
 90
       50
176
     1
 40
0.0
176
     1
 40
1.0
176
     1
 90
        0
176
     1
 62
    18
420
        0
176
     1
 90
       50
176
     1
 90
        3
176
     1
 62
     5
420
      255
176
     1
290
     0
176
     1
 90
       50
176
     1
 90
       50
176
     1
 90
       50
176
     1
290
     0
176
     1
 90
       50
176
     1
 62
   256
176
     0
 40
1.0
176
     0
 90
        2
176
     1
  1
strokes_ogs.tif
176
     1
290
     0
176
     1
 40
1.0
176
     1
 40
1.0
176
     1
  0
VISUALSTYLE
  5
A7
102
{ACAD_REACTORS
330
97
102
}
330
97
100
AcDbVisualStyle
  2
ColorChange
 70
    16
177
     3
291
     1
 70
    58
 90
        2
176
     1
 90
        2
176
     1
 90
        3
176
     1
 90
        0
176
     1
 40
0.6
176
     1
 40
30.0
176
     1
 62
     8
420
  8421504
176
     1
 90
        1
176
     1
 90
        4
176
     1
 62
     7
176
     1
 62
   257
176
     1
 90
        1
176
     1
 90
        1
176
     1
 40
1.0
176
     1
 90
        8
176
     1
 62
     8
420
  8421504
176
     1
 40
1.0
176
     1
 90
        1
176
     1
 90
        6
176
     1
 90
        2
176
     1
 62
     7
176
     1
 90
        5
176
     1
 90
        0
176
     1
 90
        0
176
     1
290
     0
176
     1
 90
        1
176
     1
 40
0.0
176
     1
 90
        0
176
     1
290
     0
176
     1
290
     1
176
     1
290
     1
176
     1
290
     0
176
     1
290
     0
176
     1
290
     0
176
     1
290
     0
176
     1
290
     0
176
     1
290
     0
176
     1
 90
       50
176
     1
 40
0.0
176
     1
 40
1.0
176
     1
 90
        0
176
     1
 62
    18
420
        0
176
     1
 90
       50
176
     1
 90
        3
176
     1
 62
     5
420
      255
176
     1
290
     0
176
     1
 90
       50
176
     1
 90
       50
176
     1
 90
       50
176
     1
290
     0
176
     1
 90
       50
176
     1
 62
   256
176
     0
 40
1.0
176
     0
 90
        2
176
     1
  1
strokes_ogs.tif
176
     1
290
     0
176
     1
 40
1.0
176
     1
 40
1.0
176
     1
  0
VISUALSTYLE
  5
A0
102
{ACAD_REACTORS
330
97
102
}
330
97
100
AcDbVisualStyle
  2
Conceptual
 70
     9
177
     3
291
     0
 70
    58
 90
        3
176
     1
 90
        2
176
     1
 90
        1
176
     1
 90
        0
176
     1
 40
0.6
176
     1
 40
30.0
176
     1
 62
     7
420
 16777215
176
     1
 90
        2
176
     1
 90
        2
176
     1
 62
     7
176
     1
 62
   257
176
     1
 90
        1
176
     1
 90
        1
176
     1
 40
40.0
176
     1
 90
        8
176
     1
 62
     7
176
     1
 40
1.0
176
     1
 90
        1
176
     1
 90
        6
176
     1
 90
        2
176
     1
 62
     7
176
     1
 90
        3
176
     1
 90
        0
176
     1
 90
        0
176
     1
290
     0
176
     1
 90
        1
176
     1
 40
0.0
176
     1
 90
        0
176
     1
290
     0
176
     1
290
     1
176
     1
290
     1
176
     1
290
     0
176
     1
290
     0
176
     1
290
     0
176
     1
290
     0
176
     1
290
     0
176
     1
290
     0
176
     1
 90
       50
176
     1
 40
0.0
176
     1
 40
1.0
176
     1
 90
        0
176
     1
 62
    18
420
        0
176
     1
 90
       50
176
     1
 90
        3
176
     1
 62
     5
420
      255
176
     1
290
     0
176
     1
 90
       50
176
     1
 90
       50
176
     1
 90
       50
176
     1
290
     0
176
     1
 90
       50
176
     1
 62
   256
176
     0
 40
1.0
176
     0
 90
        2
176
     1
  1
strokes_ogs.tif
176
     1
290
     0
176
     1
 40
1.0
176
     1
 40
1.0
176
     1
  0
VISUALSTYLE
  5
A2
102
{ACAD_REACTORS
330
97
102
}
330
97
100
AcDbVisualStyle
  2
Dim
 70
    11
177
     3
291
     1
 70
    58
 90
        2
176
     1
 90
        2
176
     1
 90
        1
176
     1
 90
        0
176
     1
 40
0.6
176
     1
 40
30.0
176
     1
 62
     7
420
 16777215
176
     1
 90
        1
176
     1
 90
        4
176
     1
 62
     7
176
     1
 62
   257
176
     1
 90
        1
176
     1
 90
        1
176
     1
 40
1.0
176
     1
 90
        8
176
     1
 62
     7
176
     1
 40
1.0
176
     1
 90
        1
176
     1
 90
        6
176
     1
 90
        2
176
     1
 62
     7
176
     1
 90
        5
176
     1
 90
        0
176
     1
 90
        0
176
     1
290
     0
176
     1
 90
        1
176
     1
 40
-50.0
176
     1
 90
        0
176
     1
290
     0
176
     1
290
     1
176
     1
290
     1
176
     1
290
     0
176
     1
290
     0
176
     1
290
     0
176
     1
290
     0
176
     1
290
     0
176
     1
290
     0
176
     1
 90
       50
176
     1
 40
0.0
176
     1
 40
1.0
176
     1
 90
        0
176
     1
 62
    18
420
        0
176
     1
 90
       50
176
     1
 90
        3
176
     1
 62
     5
420
      255
176
     1
290
     0
176
     1
 90
       50
176
     1
 90
       50
176
     1
 90
       50
176
     1
290
     0
176
     1
 90
       50
176
     1
 62
   256
176
     0
 40
1.0
176
     0
 90
        2
176
     1
  1
strokes_ogs.tif
176
     1
290
     0
176
     1
 40
1.0
176
     1
 40
1.0
176
     1
  0
VISUALSTYLE
  5
7D88
102
{ACAD_REACTORS
330
97
102
}
330
97
100
AcDbVisualStyle
  2
EdgeColorOff
 70
    22
177
     3
291
     1
 70
    58
 90
        2
176
     0
 90
        2
176
     0
 90
        0
176
     0
 90
        0
176
     0
 40
0.6
176
     0
 40
30.0
176
     0
 62
     7
420
 16777215
176
     0
 90
        1
176
     0
 90
        4
176
     0
 62
     7
176
     0
 62
   257
176
     0
 90
        1
176
     0
 90
        1
176
     0
 40
1.0
176
     0
 90
        8
176
     2
 62
     7
176
     0
 40
1.0
176
     0
 90
        1
176
     0
 90
        6
176
     0
 90
        2
176
     0
 62
     7
176
     0
 90
        5
176
     0
 90
        0
176
     0
 90
        0
176
     0
290
     0
176
     0
 90
        1
176
     0
 40
0.0
176
     0
 90
        0
176
     0
290
     0
176
     0
290
     1
176
     0
290
     1
176
     0
290
     0
176
     0
290
     0
176
     0
290
     0
176
     0
290
     0
176
     0
290
     0
176
     0
290
     0
176
     0
 90
       50
176
     0
 40
0.0
176
     0
 40
1.0
176
     0
 90
        0
176
     0
 62
    18
420
        0
176
     0
 90
       50
176
     0
 90
        3
176
     0
 62
     5
420
      255
176
     0
290
     0
176
     0
 90
       50
176
     0
 90
       50
176
     0
 90
       50
176
     0
290
     0
176
     0
 90
       50
176
     0
 62
   256
176
     0
 40
1.0
176
     0
 90
        2
176
     0
  1
strokes_ogs.tif
176
     0
290
     0
176
     0
 40
1.0
176
     0
 40
1.0
176
     0
  0
VISUALSTYLE
  5
A6
102
{ACAD_REACTORS
330
97
102
}
330
97
100
AcDbVisualStyle
  2
Facepattern
 70
    15
177
     3
291
     1
 70
    58
 90
        2
176
     1
 90
        2
176
     1
 90
        1
176
     1
 90
        0
176
     1
 40
0.6
176
     1
 40
30.0
176
     1
 62
     7
420
 16777215
176
     1
 90
        1
176
     1
 90
        4
176
     1
 62
     7
176
     1
 62
   257
176
     1
 90
        1
176
     1
 90
        1
176
     1
 40
1.0
176
     1
 90
        8
176
     1
 62
     7
176
     1
 40
1.0
176
     1
 90
        1
176
     1
 90
        6
176
     1
 90
        2
176
     1
 62
     7
176
     1
 90
        5
176
     1
 90
        0
176
     1
 90
        0
176
     1
290
     0
176
     1
 90
        1
176
     1
 40
0.0
176
     1
 90
        0
176
     1
290
     0
176
     1
290
     1
176
     1
290
     1
176
     1
290
     0
176
     1
290
     0
176
     1
290
     0
176
     1
290
     0
176
     1
290
     0
176
     1
290
     0
176
     1
 90
       50
176
     1
 40
0.0
176
     1
 40
1.0
176
     1
 90
        0
176
     1
 62
    18
420
        0
176
     1
 90
       50
176
     1
 90
        3
176
     1
 62
     5
420
      255
176
     1
290
     0
176
     1
 90
       50
176
     1
 90
       50
176
     1
 90
       50
176
     1
290
     0
176
     1
 90
       50
176
     1
 62
   256
176
     0
 40
1.0
176
     0
 90
        2
176
     1
  1
strokes_ogs.tif
176
     1
290
     0
176
     1
 40
1.0
176
     1
 40
1.0
176
     1
  0
VISUALSTYLE
  5
98
102
{ACAD_REACTORS
330
97
102
}
330
97
100
AcDbVisualStyle
  2
Flat
 70
     0
177
     3
291
     1
 70
    58
 90
        2
176
     1
 90
        1
176
     1
 90
        1
176
     1
 90
        2
176
     1
 40
0.6
176
     1
 40
30.0
176
     1
 62
     7
420
 16777215
176
     1
 90
        0
176
     1
 90
        4
176
     1
 62
     7
176
     1
 62
   257
176
     1
 90
        1
176
     1
 90
        1
176
     1
 40
1.0
176
     1
 90
        8
176
     1
 62
     7
176
     1
 40
1.0
176
     1
 90
        1
176
     1
 90
        6
176
     1
 90
        2
176
     1
 62
     7
176
     1
 90
        5
176
     1
 90
        0
176
     1
 90
        0
176
     1
290
     0
176
     1
 90
        1
176
     1
 40
0.0
176
     1
 90
        0
176
     1
290
     0
176
     1
290
     1
176
     1
290
     1
176
     1
290
     0
176
     1
290
     0
176
     1
290
     0
176
     1
290
     0
176
     1
290
     0
176
     1
290
     0
176
     1
 90
       50
176
     1
 40
0.0
176
     1
 40
1.0
176
     1
 90
        0
176
     1
 62
    18
420
        0
176
     1
 90
       50
176
     1
 90
        3
176
     1
 62
     5
420
      255
176
     1
290
     0
176
     1
 90
       50
176
     1
 90
       50
176
     1
 90
       50
176
     1
290
     0
176
     1
 90
       50
176
     1
 62
   256
176
     0
 40
1.0
176
     0
 90
        2
176
     1
  1
strokes_ogs.tif
176
     1
290
     0
176
     1
 40
1.0
176
     1
 40
1.0
176
     1
  0
VISUALSTYLE
  5
99
102
{ACAD_REACTORS
330
97
102
}
330
97
100
AcDbVisualStyle
  2
FlatWithEdges
 70
     1
177
     3
291
     1
 70
    58
 90
        2
176
     1
 90
        1
176
     1
 90
        1
176
     1
 90
        2
176
     1
 40
0.6
176
     1
 40
30.0
176
     1
 62
     7
420
 16777215
176
     1
 90
        1
176
     1
 90
        4
176
     1
 62
     7
176
     1
 62
   257
176
     1
 90
        1
176
     1
 90
        1
176
     1
 40
1.0
176
     1
 90
        0
176
     1
 62
   257
176
     1
 40
1.0
176
     1
 90
        1
176
     1
 90
        6
176
     1
 90
        2
176
     1
 62
     7
176
     1
 90
        5
176
     1
 90
        0
176
     1
 90
        0
176
     1
290
     0
176
     1
 90
        1
176
     1
 40
0.0
176
     1
 90
        0
176
     1
290
     0
176
     1
290
     1
176
     1
290
     1
176
     1
290
     0
176
     1
290
     0
176
     1
290
     0
176
     1
290
     0
176
     1
290
     0
176
     1
290
     0
176
     1
 90
       50
176
     1
 40
0.0
176
     1
 40
1.0
176
     1
 90
        0
176
     1
 62
    18
420
        0
176
     1
 90
       50
176
     1
 90
        3
176
     1
 62
     5
420
      255
176
     1
290
     0
176
     1
 90
       50
176
     1
 90
       50
176
     1
 90
       50
176
     1
290
     0
176
     1
 90
       50
176
     1
 62
   256
176
     0
 40
1.0
176
     0
 90
        2
176
     1
  1
strokes_ogs.tif
176
     1
290
     0
176
     1
 40
1.0
176
     1
 40
1.0
176
     1
  0
VISUALSTYLE
  5
9A
102
{ACAD_REACTORS
330
97
102
}
330
97
100
AcDbVisualStyle
  2
Gouraud
 70
     2
177
     3
291
     1
 70
    58
 90
        2
176
     1
 90
        2
176
     1
 90
        1
176
     1
 90
        2
176
     1
 40
0.6
176
     1
 40
30.0
176
     1
 62
     7
420
 16777215
176
     1
 90
        0
176
     1
 90
        4
176
     1
 62
     7
176
     1
 62
   257
176
     1
 90
        1
176
     1
 90
        1
176
     1
 40
1.0
176
     1
 90
        0
176
     1
 62
     7
176
     1
 40
1.0
176
     1
 90
        1
176
     1
 90
        6
176
     1
 90
        2
176
     1
 62
     7
176
     1
 90
        5
176
     1
 90
        0
176
     1
 90
        0
176
     1
290
     0
176
     1
 90
        1
176
     1
 40
0.0
176
     1
 90
        0
176
     1
290
     0
176
     1
290
     1
176
     1
290
     1
176
     1
290
     0
176
     1
290
     0
176
     1
290
     0
176
     1
290
     0
176
     1
290
     0
176
     1
290
     0
176
     1
 90
       50
176
     1
 40
0.0
176
     1
 40
1.0
176
     1
 90
        0
176
     1
 62
    18
420
        0
176
     1
 90
       50
176
     1
 90
        3
176
     1
 62
     5
420
      255
176
     1
290
     0
176
     1
 90
       50
176
     1
 90
       50
176
     1
 90
       50
176
     1
290
     0
176
     1
 90
       50
176
     1
 62
   256
176
     0
 40
1.0
176
     0
 90
        2
176
     1
  1
strokes_ogs.tif
176
     1
290
     0
176
     1
 40
1.0
176
     1
 40
1.0
176
     1
  0
VISUALSTYLE
  5
9B
102
{ACAD_REACTORS
330
97
102
}
330
97
100
AcDbVisualStyle
  2
GouraudWithEdges
 70
     3
177
     3
291
     1
 70
    58
 90
        2
176
     1
 90
        2
176
     1
 90
        1
176
     1
 90
        2
176
     1
 40
0.6
176
     1
 40
30.0
176
     1
 62
     7
420
 16777215
176
     1
 90
        1
176
     1
 90
        4
176
     1
 62
     7
176
     1
 62
   257
176
     1
 90
        1
176
     1
 90
        1
176
     1
 40
1.0
176
     1
 90
        0
176
     1
 62
   257
176
     1
 40
1.0
176
     1
 90
        1
176
     1
 90
        6
176
     1
 90
        2
176
     1
 62
     7
176
     1
 90
        5
176
     1
 90
        0
176
     1
 90
        0
176
     1
290
     0
176
     1
 90
        1
176
     1
 40
0.0
176
     1
 90
        0
176
     1
290
     0
176
     1
290
     1
176
     1
290
     1
176
     1
290
     0
176
     1
290
     0
176
     1
290
     0
176
     1
290
     0
176
     1
290
     0
176
     1
290
     0
176
     1
 90
       50
176
     1
 40
0.0
176
     1
 40
1.0
176
     1
 90
        0
176
     1
 62
    18
420
        0
176
     1
 90
       50
176
     1
 90
        3
176
     1
 62
     5
420
      255
176
     1
290
     0
176
     1
 90
       50
176
     1
 90
       50
176
     1
 90
       50
176
     1
290
     0
176
     1
 90
       50
176
     1
 62
   256
176
     0
 40
1.0
176
     0
 90
        2
176
     1
  1
strokes_ogs.tif
176
     1
290
     0
176
     1
 40
1.0
176
     1
 40
1.0
176
     1
  0
VISUALSTYLE
  5
7D80
102
{ACAD_REACTORS
330
97
102
}
330
97
100
AcDbVisualStyle
  2
Hidden
 70
     6
177
     3
291
     0
 70
    58
 90
        1
176
     1
 90
        2
176
     1
 90
        2
176
     1
 90
        0
176
     1
 40
0.6
176
     1
 40
30.0
176
     1
 62
     7
420
 16777215
176
     1
 90
        2
176
     1
 90
        2
176
     1
 62
     7
176
     1
 62
   257
176
     1
 90
        2
176
     1
 90
        1
176
     1
 40
40.0
176
     1
 90
        0
176
     1
 62
   257
176
     1
 40
1.0
176
     1
 90
        1
176
     1
 90
        6
176
     1
 90
        2
176
     1
 62
     7
176
     1
 90
        3
176
     1
 90
        0
176
     1
 90
        0
176
     1
290
     0
176
     1
 90
        1
176
     1
 40
0.0
176
     1
 90
        0
176
     1
290
     0
176
     1
290
     1
176
     1
290
     1
176
     1
290
     0
176
     1
290
     0
176
     1
290
     0
176
     1
290
     0
176
     1
290
     0
176
     1
290
     0
176
     1
 90
       50
176
     1
 40
0.0
176
     1
 40
1.0
176
     1
 90
        0
176
     1
 62
    18
420
        0
176
     1
 90
       50
176
     1
 90
        3
176
     1
 62
     5
420
      255
176
     1
290
     0
176
     1
 90
       50
176
     1
 90
       50
176
     1
 90
       50
176
     1
290
     0
176
     1
 90
       50
176
     1
 62
   256
176
     0
 40
1.0
176
     0
 90
        2
176
     1
  1
strokes_ogs.tif
176
     1
290
     0
176
     1
 40
1.0
176
     1
 40
1.0
176
     1
  0
VISUALSTYLE
  5
7D86
102
{ACAD_REACTORS
330
97
102
}
330
97
100
AcDbVisualStyle
  2
JitterOff
 70
    20
177
     3
291
     1
 70
    58
 90
        2
176
     0
 90
        2
176
     0
 90
        0
176
     0
 90
        0
176
     0
 40
0.6
176
     0
 40
30.0
176
     0
 62
     7
420
 16777215
176
     0
 90
        1
176
     0
 90
        4
176
     0
 62
     7
176
     0
 62
   257
176
     0
 90
        1
176
     0
 90
        1
176
     0
 40
1.0
176
     0
 90
       10
176
     2
 62
     7
176
     0
 40
1.0
176
     0
 90
        1
176
     0
 90
        6
176
     0
 90
        2
176
     0
 62
     7
176
     0
 90
        5
176
     0
 90
        0
176
     0
 90
        0
176
     0
290
     0
176
     0
 90
        1
176
     0
 40
0.0
176
     0
 90
        0
176
     0
290
     0
176
     0
290
     1
176
     0
290
     1
176
     0
290
     0
176
     0
290
     0
176
     0
290
     0
176
     0
290
     0
176
     0
290
     0
176
     0
290
     0
176
     0
 90
       50
176
     0
 40
0.0
176
     0
 40
1.0
176
     0
 90
        0
176
     0
 62
    18
420
        0
176
     0
 90
       50
176
     0
 90
        3
176
     0
 62
     5
420
      255
176
     0
290
     0
176
     0
 90
       50
176
     0
 90
       50
176
     0
 90
       50
176
     0
290
     0
176
     0
 90
       50
176
     0
 62
   256
176
     0
 40
1.0
176
     0
 90
        2
176
     0
  1
strokes_ogs.tif
176
     0
290
     0
176
     0
 40
1.0
176
     0
 40
1.0
176
     0
  0
VISUALSTYLE
  5
A5
102
{ACAD_REACTORS
330
97
102
}
330
97
100
AcDbVisualStyle
  2
Linepattern
 70
    14
177
     3
291
     1
 70
    58
 90
        2
176
     1
 90
        2
176
     1
 90
        1
176
     1
 90
        0
176
     1
 40
0.6
176
     1
 40
30.0
176
     1
 62
     7
420
 16777215
176
     1
 90
        1
176
     1
 90
        4
176
     1
 62
     7
176
     1
 62
   257
176
     1
 90
        7
176
     1
 90
        7
176
     1
 40
1.0
176
     1
 90
        8
176
     1
 62
     7
176
     1
 40
1.0
176
     1
 90
        1
176
     1
 90
        6
176
     1
 90
        2
176
     1
 62
     7
176
     1
 90
        5
176
     1
 90
        0
176
     1
 90
        0
176
     1
290
     0
176
     1
 90
        1
176
     1
 40
0.0
176
     1
 90
        0
176
     1
290
     0
176
     1
290
     1
176
     1
290
     1
176
     1
290
     0
176
     1
290
     0
176
     1
290
     0
176
     1
290
     0
176
     1
290
     0
176
     1
290
     0
176
     1
 90
       50
176
     1
 40
0.0
176
     1
 40
1.0
176
     1
 90
        0
176
     1
 62
    18
420
        0
176
     1
 90
       50
176
     1
 90
        3
176
     1
 62
     5
420
      255
176
     1
290
     0
176
     1
 90
       50
176
     1
 90
       50
176
     1
 90
       50
176
     1
290
     0
176
     1
 90
       50
176
     1
 62
   256
176
     0
 40
1.0
176
     0
 90
        2
176
     1
  1
strokes_ogs.tif
176
     1
290
     0
176
     1
 40
1.0
176
     1
 40
1.0
176
     1
  0
VISUALSTYLE
  5
7D87
102
{ACAD_REACTORS
330
97
102
}
330
97
100
AcDbVisualStyle
  2
OverhangOff
 70
    21
177
     3
291
     1
 70
    58
 90
        2
176
     0
 90
        2
176
     0
 90
        0
176
     0
 90
        0
176
     0
 40
0.6
176
     0
 40
30.0
176
     0
 62
     7
420
 16777215
176
     0
 90
        1
176
     0
 90
        4
176
     0
 62
     7
176
     0
 62
   257
176
     0
 90
        1
176
     0
 90
        1
176
     0
 40
1.0
176
     0
 90
        9
176
     2
 62
     7
176
     0
 40
1.0
176
     0
 90
        1
176
     0
 90
        6
176
     0
 90
        2
176
     0
 62
     7
176
     0
 90
        5
176
     0
 90
        0
176
     0
 90
        0
176
     0
290
     0
176
     0
 90
        1
176
     0
 40
0.0
176
     0
 90
        0
176
     0
290
     0
176
     0
290
     1
176
     0
290
     1
176
     0
290
     0
176
     0
290
     0
176
     0
290
     0
176
     0
290
     0
176
     0
290
     0
176
     0
290
     0
176
     0
 90
       50
176
     0
 40
0.0
176
     0
 40
1.0
176
     0
 90
        0
176
     0
 62
    18
420
        0
176
     0
 90
       50
176
     0
 90
        3
176
     0
 62
     5
420
      255
176
     0
290
     0
176
     0
 90
       50
176
     0
 90
       50
176
     0
 90
       50
176
     0
290
     0
176
     0
 90
       50
176
     0
 62
   256
176
     0
 40
1.0
176
     0
 90
        2
176
     0
  1
strokes_ogs.tif
176
     0
290
     0
176
     0
 40
1.0
176
     0
 40
1.0
176
     0
  0
VISUALSTYLE
  5
A1
102
{ACAD_REACTORS
330
97
102
}
330
97
100
AcDbVisualStyle
  2
Realistic
 70
     8
177
     3
291
     0
 70
    58
 90
        2
176
     1
 90
        2
176
     1
 90
        1
176
     1
 90
        0
176
     1
 40
0.6
176
     1
 40
30.0
176
     1
 62
     7
420
 16777215
176
     1
 90
        1
176
     1
 90
        0
176
     1
 62
     7
176
     1
 62
   257
176
     1
 90
        1
176
     1
 90
        1
176
     1
 40
1.0
176
     1
 90
        8
176
     1
 62
     8
420
  7895160
176
     1
 40
1.0
176
     1
 90
        1
176
     1
 90
        6
176
     1
 90
        2
176
     1
 62
     7
176
     1
 90
        5
176
     1
 90
        0
176
     1
 90
        0
176
     1
290
     0
176
     1
 90
       13
176
     1
 40
0.0
176
     1
 90
        0
176
     1
290
     0
176
     1
290
     1
176
     1
290
     1
176
     1
290
     0
176
     1
290
     0
176
     1
290
     0
176
     1
290
     0
176
     1
290
     0
176
     1
290
     0
176
     1
 90
       50
176
     1
 40
0.0
176
     1
 40
1.0
176
     1
 90
        0
176
     1
 62
    18
420
        0
176
     1
 90
       50
176
     1
 90
        3
176
     1
 62
     5
420
      255
176
     1
290
     0
176
     1
 90
       50
176
     1
 90
       50
176
     1
 90
       50
176
     1
290
     0
176
     1
 90
       50
176
     1
 62
   256
176
     0
 40
1.0
176
     0
 90
        2
176
     1
  1
strokes_ogs.tif
176
     1
290
     0
176
     1
 40
1.0
176
     1
 40
1.0
176
     1
  0
VISUALSTYLE
  5
7D85
102
{ACAD_REACTORS
330
97
102
}
330
97
100
AcDbVisualStyle
  2
Shaded
 70
    27
177
     3
291
     0
 70
    58
 90
        2
176
     1
 90
        2
176
     1
 90
        1
176
     1
 90
        2
176
     1
 40
0.6
176
     1
 40
30.0
176
     1
 62
     7
420
 16777215
176
     1
 90
        0
176
     1
 90
        4
176
     1
 62
     7
176
     1
 62
   257
176
     1
 90
        1
176
     1
 90
        1
176
     1
 40
1.0
176
     1
 90
        8
176
     1
 62
   257
176
     1
 40
1.0
176
     1
 90
        1
176
     1
 90
        6
176
     1
 90
        2
176
     1
 62
     8
420
  7895160
176
     1
 90
        3
176
     1
 90
        0
176
     1
 90
        0
176
     1
290
     0
176
     1
 90
        5
176
     1
 40
0.0
176
     1
 90
        0
176
     1
290
     0
176
     1
290
     1
176
     1
290
     1
176
     1
290
     0
176
     1
290
     0
176
     1
290
     0
176
     1
290
     0
176
     1
290
     0
176
     1
290
     0
176
     1
 90
       50
176
     1
 40
0.0
176
     1
 40
1.0
176
     1
 90
        0
176
     1
 62
    18
420
        0
176
     1
 90
       50
176
     1
 90
        3
176
     1
 62
     5
420
      255
176
     1
290
     0
176
     1
 90
       50
176
     1
 90
       50
176
     1
 90
       50
176
     1
290
     0
176
     1
 90
       50
176
     1
 62
   256
176
     0
 40
1.0
176
     0
 90
        2
176
     1
  1
strokes_ogs.tif
176
     1
290
     0
176
     1
 40
1.0
176
     1
 40
1.0
176
     1
  0
VISUALSTYLE
  5
7D84
102
{ACAD_REACTORS
330
97
102
}
330
97
100
AcDbVisualStyle
  2
Shaded with edges
 70
    26
177
     3
291
     0
 70
    58
 90
        2
176
     1
 90
        2
176
     1
 90
        1
176
     1
 90
        2
176
     1
 40
0.6
176
     1
 40
30.0
176
     1
 62
     7
420
 16777215
176
     1
 90
        1
176
     1
 90
        2
176
     1
 62
     7
176
     1
 62
   257
176
     1
 90
        2
176
     1
 90
        1
176
     1
 40
1.0
176
     1
 90
        8
176
     1
 62
   257
176
     1
 40
1.0
176
     1
 90
        1
176
     1
 90
        6
176
     1
 90
        2
176
     1
 62
     7
176
     1
 90
        3
176
     1
 90
        0
176
     1
 90
        0
176
     1
290
     0
176
     1
 90
        5
176
     1
 40
0.0
176
     1
 90
        0
176
     1
290
     0
176
     1
290
     1
176
     1
290
     1
176
     1
290
     0
176
     1
290
     0
176
     1
290
     0
176
     1
290
     0
176
     1
290
     0
176
     1
290
     0
176
     1
 90
       50
176
     1
 40
0.0
176
     1
 40
1.0
176
     1
 90
        0
176
     1
 62
    18
420
        0
176
     1
 90
       50
176
     1
 90
        3
176
     1
 62
     5
420
      255
176
     1
290
     0
176
     1
 90
       50
176
     1
 90
       50
176
     1
 90
       50
176
     1
290
     0
176
     1
 90
       50
176
     1
 62
   256
176
     0
 40
1.0
176
     0
 90
        2
176
     1
  1
strokes_ogs.tif
176
     1
290
     0
176
     1
 40
1.0
176
     1
 40
1.0
176
     1
  0
VISUALSTYLE
  5
7D81
102
{ACAD_REACTORS
330
97
102
}
330
97
100
AcDbVisualStyle
  2
Shades of Gray
 70
    23
177
     3
291
     0
 70
    58
 90
        2
176
     1
 90
        2
176
     1
 90
        3
176
     1
 90
        0
176
     1
 40
0.6
176
     1
 40
30.0
176
     1
 62
     7
420
 16777215
176
     1
 90
        2
176
     1
 90
        2
176
     1
 62
     7
176
     1
 62
     7
176
     1
 90
        1
176
     1
 90
        1
176
     1
 40
40.0
176
     1
 90
        8
176
     1
 62
     7
176
     1
 40
1.0
176
     1
 90
        1
176
     1
 90
        6
176
     1
 90
        2
176
     1
 62
     7
176
     1
 90
        3
176
     1
 90
        0
176
     1
 90
        0
176
     1
290
     0
176
     1
 90
        1
176
     1
 40
0.0
176
     1
 90
        0
176
     1
290
     0
176
     1
290
     1
176
     1
290
     1
176
     1
290
     0
176
     1
290
     0
176
     1
290
     0
176
     1
290
     0
176
     1
290
     0
176
     1
290
     0
176
     1
 90
       50
176
     1
 40
0.0
176
     1
 40
1.0
176
     1
 90
        0
176
     1
 62
    18
420
        0
176
     1
 90
       50
176
     1
 90
        3
176
     1
 62
     5
420
      255
176
     1
290
     0
176
     1
 90
       50
176
     1
 90
       50
176
     1
 90
       50
176
     1
290
     0
176
     1
 90
       50
176
     1
 62
   256
176
     0
 40
1.0
176
     0
 90
        2
176
     1
  1
strokes_ogs.tif
176
     1
290
     0
176
     1
 40
1.0
176
     1
 40
1.0
176
     1
  0
VISUALSTYLE
  5
7D82
102
{ACAD_REACTORS
330
97
102
}
330
97
100
AcDbVisualStyle
  2
Sketchy
 70
    24
177
     3
291
     0
 70
    58
 90
        1
176
     1
 90
        2
176
     1
 90
        2
176
     1
 90
        0
176
     1
 40
0.6
176
     1
 40
30.0
176
     1
 62
     7
420
 16777215
176
     1
 90
        2
176
     1
 90
        2
176
     1
 62
     7
176
     1
 62
     7
176
     1
 90
        1
176
     1
 90
        1
176
     1
 40
40.0
176
     1
 90
       11
176
     1
 62
     7
176
     1
 40
1.0
176
     1
 90
        1
176
     1
 90
        6
176
     1
 90
        2
176
     1
 62
     7
176
     1
 90
        6
176
     1
 90
        0
176
     1
 90
        0
176
     1
290
     0
176
     1
 90
        1
176
     1
 40
0.0
176
     1
 90
        0
176
     1
290
     0
176
     1
290
     1
176
     1
290
     1
176
     1
290
     0
176
     1
290
     0
176
     1
290
     0
176
     1
290
     0
176
     1
290
     0
176
     1
290
     0
176
     1
 90
       50
176
     1
 40
0.0
176
     1
 40
1.0
176
     1
 90
        0
176
     1
 62
    18
420
        0
176
     1
 90
       50
176
     1
 90
        3
176
     1
 62
     5
420
      255
176
     1
290
     0
176
     1
 90
       50
176
     1
 90
       50
176
     1
 90
       50
176
     1
290
     0
176
     1
 90
       50
176
     1
 62
   256
176
     0
 40
1.0
176
     0
 90
        2
176
     1
  1
strokes_ogs.tif
176
     1
290
     0
176
     1
 40
1.0
176
     1
 40
1.0
176
     1
  0
VISUALSTYLE
  5
A4
102
{ACAD_REACTORS
330
97
102
}
330
97
100
AcDbVisualStyle
  2
Thicken
 70
    13
177
     3
291
     1
 70
    58
 90
        2
176
     1
 90
        2
176
     1
 90
        1
176
     1
 90
        0
176
     1
 40
0.6
176
     1
 40
30.0
176
     1
 62
     7
420
 16777215
176
     1
 90
        1
176
     1
 90
        4
176
     1
 62
     7
176
     1
 62
   257
176
     1
 90
        1
176
     1
 90
        1
176
     1
 40
1.0
176
     1
 90
       12
176
     1
 62
     7
176
     1
 40
1.0
176
     1
 90
        1
176
     1
 90
        6
176
     1
 90
        2
176
     1
 62
     7
176
     1
 90
        5
176
     1
 90
        0
176
     1
 90
        0
176
     1
290
     0
176
     1
 90
        1
176
     1
 40
0.0
176
     1
 90
        0
176
     1
290
     0
176
     1
290
     1
176
     1
290
     1
176
     1
290
     0
176
     1
290
     0
176
     1
290
     0
176
     1
290
     0
176
     1
290
     0
176
     1
290
     0
176
     1
 90
       50
176
     1
 40
0.0
176
     1
 40
1.0
176
     1
 90
        0
176
     1
 62
    18
420
        0
176
     1
 90
       50
176
     1
 90
        3
176
     1
 62
     5
420
      255
176
     1
290
     0
176
     1
 90
       50
176
     1
 90
       50
176
     1
 90
       50
176
     1
290
     0
176
     1
 90
       50
176
     1
 62
   256
176
     0
 40
1.0
176
     0
 90
        2
176
     1
  1
strokes_ogs.tif
176
     1
290
     0
176
     1
 40
1.0
176
     1
 40
1.0
176
     1
  0
VISUALSTYLE
  5
7D7F
102
{ACAD_REACTORS
330
97
102
}
330
97
100
AcDbVisualStyle
  2
Wireframe
 70
     5
177
     3
291
     0
 70
    58
 90
        0
176
     1
 90
        2
176
     1
 90
        0
176
     1
 90
        0
176
     1
 40
0.6
176
     1
 40
30.0
176
     1
 62
     7
420
 16777215
176
     1
 90
        1
176
     1
 90
        4
176
     1
 62
     7
176
     1
 62
   257
176
     1
 90
        1
176
     1
 90
        1
176
     1
 40
1.0
176
     1
 90
        0
176
     1
 62
   257
176
     1
 40
1.0
176
     1
 90
        1
176
     1
 90
        6
176
     1
 90
        2
176
     1
 62
     7
176
     1
 90
        3
176
     1
 90
        0
176
     1
 90
        0
176
     1
290
     0
176
     1
 90
        1
176
     1
 40
0.0
176
     1
 90
        0
176
     1
290
     0
176
     1
290
     1
176
     1
290
     1
176
     1
290
     0
176
     1
290
     0
176
     1
290
     0
176
     1
290
     0
176
     1
290
     0
176
     1
290
     0
176
     1
 90
       50
176
     1
 40
0.0
176
     1
 40
1.0
176
     1
 90
        0
176
     1
 62
    18
420
        0
176
     1
 90
       50
176
     1
 90
        3
176
     1
 62
     5
420
      255
176
     1
290
     0
176
     1
 90
       50
176
     1
 90
       50
176
     1
 90
       50
176
     1
290
     0
176
     1
 90
       50
176
     1
 62
   256
176
     0
 40
1.0
176
     0
 90
        2
176
     1
  1
strokes_ogs.tif
176
     1
290
     0
176
     1
 40
1.0
176
     1
 40
1.0
176
     1
  0
VISUALSTYLE
  5
7D83
102
{ACAD_REACTORS
330
97
102
}
330
97
100
AcDbVisualStyle
  2
X-Ray
 70
    25
177
     3
291
     0
 70
    58
 90
        2
176
     1
 90
        2
176
     1
 90
        1
176
     1
 90
        1
176
     1
 40
0.5
176
     1
 40
30.0
176
     1
 62
     7
420
 16777215
176
     1
 90
        1
176
     1
 90
        0
176
     1
 62
     7
176
     1
 62
   257
176
     1
 90
        1
176
     1
 90
        1
176
     1
 40
1.0
176
     1
 90
        8
176
     1
 62
     7
176
     1
 40
1.0
176
     1
 90
        1
176
     1
 90
        6
176
     1
 90
        2
176
     1
 62
     7
176
     1
 90
        3
176
     1
 90
        0
176
     1
 90
        0
176
     1
290
     0
176
     1
 90
       13
176
     1
 40
0.0
176
     1
 90
        0
176
     1
290
     0
176
     1
290
     1
176
     1
290
     1
176
     1
290
     0
176
     1
290
     0
176
     1
290
     0
176
     1
290
     0
176
     1
290
     0
176
     1
290
     0
176
     1
 90
       50
176
     1
 40
0.0
176
     1
 40
1.0
176
     1
 90
        0
176
     1
 62
    18
420
        0
176
     1
 90
       50
176
     1
 90
        3
176
     1
 62
     5
420
      255
176
     1
290
     0
176
     1
 90
       50
176
     1
 90
       50
176
     1
 90
       50
176
     1
290
     0
176
     1
 90
       50
176
     1
 62
   256
176
     0
 40
1.0
176
     0
 90
        2
176
     1
  1
strokes_ogs.tif
176
     1
290
     0
176
     1
 40
1.0
176
     1
 40
1.0
176
     1
  0
DICTIONARYVAR
  5
7DD1
102
{ACAD_REACTORS
330
66
102
}
330
66
100
DictionaryVariables
280
     0
  1
1:1
  0
DICTIONARYVAR
  5
7DCD
102
{ACAD_REACTORS
330
66
102
}
330
66
100
DictionaryVariables
280
     0
  1
STANDARD
  0
DICTIONARYVAR
  5
8B
102
{ACAD_REACTORS
330
66
102
}
330
66
100
DictionaryVariables
280
     0
  1
STANDARD
  0
DICTIONARYVAR
  5
7DCE
102
{ACAD_REACTORS
330
66
102
}
330
66
100
DictionaryVariables
280
     0
  1
Imperial24
  0
DICTIONARYVAR
  5
7DCF
102
{ACAD_REACTORS
330
66
102
}
330
66
100
DictionaryVariables
280
     0
  1
Imperial24
  0
DICTIONARYVAR
  5
67
102
{ACAD_REACTORS
330
66
102
}
330
66
100
DictionaryVariables
280
     0
  1
2
  0
DICTIONARYVAR
  5
6B
102
{ACAD_REACTORS
330
66
102
}
330
66
100
DictionaryVariables
280
     0
  1
1
  0
DICTIONARYVAR
  5
7DD3
102
{ACAD_REACTORS
330
66
102
}
330
66
100
DictionaryVariables
280
     0
  1
1
  0
DICTIONARYVAR
  5
7DD4
102
{ACAD_REACTORS
330
66
102
}
330
66
100
DictionaryVariables
280
     0
  1
15
  0
DICTIONARYVAR
  5
7DD2
102
{ACAD_REACTORS
330
66
102
}
330
66
100
DictionaryVariables
280
     0
  1
0
  0
DICTIONARYVAR
  5
7DD0
102
{ACAD_REACTORS
330
66
102
}
330
66
100
DictionaryVariables
280
     0
  1
0
  0
DICTIONARY
  5
7DD9
330
7DA0
100
AcDbDictionary
280
     1
281
     1
  3
ACAD_XREC_ROUNDTRIP
360
7DDA
  0
DICTIONARY
  5
7DD7
330
7D9E
100
AcDbDictionary
280
     1
281
     1
  3
ACAD_XREC_ROUNDTRIP
360
7DD8
  0
DICTIONARY
  5
7DD5
330
87
100
AcDbDictionary
280
     1
281
     1
  3
ACAD_ROUNDTRIP_2008_TABLESTYLE_CELLSTYLEMAP
360
7DD6
  0
XRECORD
  5
7DDA
102
{ACAD_REACTORS
330
7DD9
102
}
330
7DD9
100
AcDbXrecord
280
     1
102
DISPLAYNAME
  1
Imperial24
102
FLAGS
 90
        0
  0
XRECORD
  5
7DD8
102
{ACAD_REACTORS
330
7DD7
102
}
330
7DD7
100
AcDbXrecord
280
     1
102
DISPLAYNAME
  1
Imperial24
102
FLAGS
 90
        0
  0
CELLSTYLEMAP
  5
7DD6
102
{ACAD_REACTORS
330
7DD5
102
}
330
7DD5
100
AcDbCellStyleMap
 90
        3
300
CELLSTYLE
  1
TABLEFORMAT_BEGIN
 90
        5
170
     1
 91
        0
 92
    32768
 62
   257
 93
        1
300
CONTENTFORMAT
  1
CONTENTFORMAT_BEGIN
 90
        0
 91
        0
 92
      512
 93
        0
300

 40
0.0
140
1.0
 94
        5
 62
     0
340
11
144
0.25
309
CONTENTFORMAT_END
171
     0
 94
        6
 95
        1
302
GRIDFORMAT
  1
GRIDFORMAT_BEGIN
 90
        0
 91
        1
 62
     0
 92
       -2
340
0
 93
        0
 40
0.045
309
GRIDFORMAT_END
 95
        2
302
GRIDFORMAT
  1
GRIDFORMAT_BEGIN
 90
        0
 91
        1
 62
     0
 92
       -2
340
0
 93
        0
 40
0.045
309
GRIDFORMAT_END
 95
        4
302
GRIDFORMAT
  1
GRIDFORMAT_BEGIN
 90
        0
 91
        1
 62
     0
 92
       -2
340
0
 93
        0
 40
0.045
309
GRIDFORMAT_END
 95
        8
302
GRIDFORMAT
  1
GRIDFORMAT_BEGIN
 90
        0
 91
        1
 62
     0
 92
       -2
340
0
 93
        0
 40
0.045
309
GRIDFORMAT_END
 95
       16
302
GRIDFORMAT
  1
GRIDFORMAT_BEGIN
 90
        0
 91
        1
 62
     0
 92
       -2
340
0
 93
        0
 40
0.045
309
GRIDFORMAT_END
 95
       32
302
GRIDFORMAT
  1
GRIDFORMAT_BEGIN
 90
        0
 91
        1
 62
     0
 92
       -2
340
0
 93
        0
 40
0.045
309
GRIDFORMAT_END
309
TABLEFORMAT_END
  1
CELLSTYLE_BEGIN
 90
        1
 91
        1
300
_TITLE
309
CELLSTYLE_END
300
CELLSTYLE
  1
TABLEFORMAT_BEGIN
 90
        5
170
     1
 91
        0
 92
        0
 62
   257
 93
        1
300
CONTENTFORMAT
  1
CONTENTFORMAT_BEGIN
 90
        0
 91
        0
 92
      512
 93
        0
300

 40
0.0
140
1.0
 94
        5
 62
     0
340
11
144
0.18
309
CONTENTFORMAT_END
171
     0
 94
        6
 95
        1
302
GRIDFORMAT
  1
GRIDFORMAT_BEGIN
 90
        0
 91
        1
 62
     0
 92
       -2
340
0
 93
        0
 40
0.045
309
GRIDFORMAT_END
 95
        2
302
GRIDFORMAT
  1
GRIDFORMAT_BEGIN
 90
        0
 91
        1
 62
     0
 92
       -2
340
0
 93
        0
 40
0.045
309
GRIDFORMAT_END
 95
        4
302
GRIDFORMAT
  1
GRIDFORMAT_BEGIN
 90
        0
 91
        1
 62
     0
 92
       -2
340
0
 93
        0
 40
0.045
309
GRIDFORMAT_END
 95
        8
302
GRIDFORMAT
  1
GRIDFORMAT_BEGIN
 90
        0
 91
        1
 62
     0
 92
       -2
340
0
 93
        0
 40
0.045
309
GRIDFORMAT_END
 95
       16
302
GRIDFORMAT
  1
GRIDFORMAT_BEGIN
 90
        0
 91
        1
 62
     0
 92
       -2
340
0
 93
        0
 40
0.045
309
GRIDFORMAT_END
 95
       32
302
GRIDFORMAT
  1
GRIDFORMAT_BEGIN
 90
        0
 91
        1
 62
     0
 92
       -2
340
0
 93
        0
 40
0.045
309
GRIDFORMAT_END
309
TABLEFORMAT_END
  1
CELLSTYLE_BEGIN
 90
        2
 91
        1
300
_HEADER
309
CELLSTYLE_END
300
CELLSTYLE
  1
TABLEFORMAT_BEGIN
 90
        5
170
     1
 91
        0
 92
        0
 62
   257
 93
        1
300
CONTENTFORMAT
  1
CONTENTFORMAT_BEGIN
 90
        0
 91
        0
 92
      512
 93
        0
300

 40
0.0
140
1.0
 94
        2
 62
     0
340
11
144
0.18
309
CONTENTFORMAT_END
171
     0
 94
        6
 95
        1
302
GRIDFORMAT
  1
GRIDFORMAT_BEGIN
 90
        0
 91
        1
 62
     0
 92
       -2
340
0
 93
        0
 40
0.045
309
GRIDFORMAT_END
 95
        2
302
GRIDFORMAT
  1
GRIDFORMAT_BEGIN
 90
        0
 91
        1
 62
     0
 92
       -2
340
0
 93
        0
 40
0.045
309
GRIDFORMAT_END
 95
        4
302
GRIDFORMAT
  1
GRIDFORMAT_BEGIN
 90
        0
 91
        1
 62
     0
 92
       -2
340
0
 93
        0
 40
0.045
309
GRIDFORMAT_END
 95
        8
302
GRIDFORMAT
  1
GRIDFORMAT_BEGIN
 90
        0
 91
        1
 62
     0
 92
       -2
340
0
 93
        0
 40
0.045
309
GRIDFORMAT_END
 95
       16
302
GRIDFORMAT
  1
GRIDFORMAT_BEGIN
 90
        0
 91
        1
 62
     0
 92
       -2
340
0
 93
        0
 40
0.045
309
GRIDFORMAT_END
 95
       32
302
GRIDFORMAT
  1
GRIDFORMAT_BEGIN
 90
        0
 91
        1
 62
     0
 92
       -2
340
0
 93
        0
 40
0.045
309
GRIDFORMAT_END
309
TABLEFORMAT_END
  1
CELLSTYLE_BEGIN
 90
        3
 91
        2
300
_DATA
309
CELLSTYLE_END
  0
ENDSEC
  0
EOF
