  0
SECTION
  2
HEADER
  9
$ACADVER
  1
AC1014
  9
$ACADMAINTVER
 70
     9
  9
$DWGCODEPAGE
  3
ANSI_1252
  9
$INSBASE
 10
0.0
 20
0.0
 30
0.0
  9
$EXTMIN
 10
0.0
 20
0.0
 30
0.0
  9
$EXTMAX
 10
297.0
 20
210.0
 30
0.0
  9
$LIMMIN
 10
0.0
 20
0.0
  9
$LIMMAX
 10
297.0
 20
210.0
  9
$ORTHOMODE
 70
     0
  9
$REGENMODE
 70
     1
  9
$FILLMODE
 70
     1
  9
$QTEXTMODE
 70
     0
  9
$MIRRTEXT
 70
     1
  9
$DRAGMODE
 70
     2
  9
$LTSCALE
 40
1.0
  9
$OSMODE
 70
    37
  9
$ATTMODE
 70
     1
  9
$TEXTSIZE
 40
3.5
  9
$TRACEWID
 40
1.0
  9
$TEXTSTYLE
  7
STANDARD
  9
$CLAYER
  8
0
  9
$CELTYPE
  6
BYLAYER
  9
$CECOLOR
 62
   256
  9
$CELTSCALE
 40
1.0
  9
$DELOBJ
 70
     1
  9
$DISPSILH
 70
     0
  9
$DIMSCALE
 40
1.0
  9
$DIMASZ
 40
3.302
  9
$DIMEXO
 40
1.0
  9
$DIMDLI
 40
3.75
  9
$DIMRND
 40
0.0
  9
$DIMDLE
 40
0.0
  9
$DIMEXE
 40
1.0
  9
$DIMTP
 40
0.0
  9
$DIMTM
 40
0.0
  9
$DIMTXT
 40
3.5
  9
$DIMCEN
 40
2.5
  9
$DIMTSZ
 40
0.0
  9
$DIMTOL
 70
     0
  9
$DIMLIM
 70
     0
  9
$DIMTIH
 70
     1
  9
$DIMTOH
 70
     1
  9
$DIMSE1
 70
     0
  9
$DIMSE2
 70
     0
  9
$DIMTAD
 70
     1
  9
$DIMZIN
 70
     1
  9
$DIMBLK
  1

  9
$DIMASO
 70
     1
  9
$DIMSHO
 70
     1
  9
$DIMPOST
  1

  9
$DIMAPOST
  1

  9
$DIMALT
 70
     0
  9
$DIMALTD
 70
     3
  9
$DIMALTF
 40
0.0393700787
  9
$DIMLFAC
 40
10.0
  9
$DIMTOFL
 70
     1
  9
$DIMTVP
 40
0.0
  9
$DIMTIX
 70
     0
  9
$DIMSOXD
 70
     0
  9
$DIMSAH
 70
     0
  9
$DIMBLK1
  1

  9
$DIMBLK2
  1

  9
$DIMSTYLE
  2
ISO-25
  9
$DIMCLRD
 70
     0
  9
$DIMCLRE
 70
     0
  9
$DIMCLRT
 70
     0
  9
$DIMTFAC
 40
1.0
  9
$DIMGAP
 40
1.524
  9
$DIMJUST
 70
     0
  9
$DIMSD1
 70
     0
  9
$DIMSD2
 70
     0
  9
$DIMTOLJ
 70
     0
  9
$DIMTZIN
 70
     1
  9
$DIMALTZ
 70
     0
  9
$DIMALTTZ
 70
     0
  9
$DIMFIT
 70
     3
  9
$DIMUPT
 70
     0
  9
$DIMUNIT
 70
     2
  9
$DIMDEC
 70
     0
  9
$DIMTDEC
 70
     0
  9
$DIMALTU
 70
     2
  9
$DIMALTTD
 70
     3
  9
$DIMTXSTY
  7
STANDARD
  9
$DIMAUNIT
 70
     0
  9
$LUNITS
 70
     2
  9
$LUPREC
 70
     2
  9
$SKETCHINC
 40
1.0
  9
$FILLETRAD
 40
10.0
  9
$AUNITS
 70
     0
  9
$AUPREC
 70
     2
  9
$MENU
  1
.
  9
$ELEVATION
 40
0.0
  9
$PELEVATION
 40
0.0
  9
$THICKNESS
 40
0.0
  9
$LIMCHECK
 70
     0
  9
$CHAMFERA
 40
0.0
  9
$CHAMFERB
 40
0.0
  9
$CHAMFERC
 40
0.0
  9
$CHAMFERD
 40
0.0
  9
$SKPOLY
 70
     0
  9
$TDCREATE
 40
2457728.641986285
  9
$TDUPDATE
 40
2457728.641986574
  9
$TDINDWG
 40
0.0000000116
  9
$TDUSRTIMER
 40
0.0000000116
  9
$USRTIMER
 70
     1
  9
$ANGBASE
 50
0.0
  9
$ANGDIR
 70
     0
  9
$PDMODE
 70
     0
  9
$PDSIZE
 40
-1.0
  9
$PLINEWID
 40
0.0
  9
$COORDS
 70
     1
  9
$SPLFRAME
 70
     0
  9
$SPLINETYPE
 70
     6
  9
$SPLINESEGS
 70
     8
  9
$ATTDIA
 70
     0
  9
$ATTREQ
 70
     1
  9
$HANDLING
 70
     1
  9
$HANDSEED
  5
236
  9
$SURFTAB1
 70
     6
  9
$SURFTAB2
 70
     6
  9
$SURFTYPE
 70
     6
  9
$SURFU
 70
     6
  9
$SURFV
 70
     6
  9
$UCSNAME
  2

  9
$UCSORG
 10
0.0
 20
0.0
 30
0.0
  9
$UCSXDIR
 10
1.0
 20
0.0
 30
0.0
  9
$UCSYDIR
 10
0.0
 20
1.0
 30
0.0
  9
$PUCSNAME
  2

  9
$PUCSORG
 10
0.0
 20
0.0
 30
0.0
  9
$PUCSXDIR
 10
1.0
 20
0.0
 30
0.0
  9
$PUCSYDIR
 10
0.0
 20
1.0
 30
0.0
  9
$USERI1
 70
     0
  9
$USERI2
 70
     0
  9
$USERI3
 70
     0
  9
$USERI4
 70
     0
  9
$USERI5
 70
     0
  9
$USERR1
 40
0.0
  9
$USERR2
 40
0.0
  9
$USERR3
 40
0.0
  9
$USERR4
 40
0.0
  9
$USERR5
 40
0.0
  9
$WORLDVIEW
 70
     1
  9
$SHADEDGE
 70
     3
  9
$SHADEDIF
 70
    70
  9
$TILEMODE
 70
     1
  9
$MAXACTVP
 70
    64
  9
$PINSBASE
 10
0.0
 20
0.0
 30
0.0
  9
$PLIMCHECK
 70
     0
  9
$PEXTMIN
 10
1.0000000000E+20
 20
1.0000000000E+20
 30
1.0000000000E+20
  9
$PEXTMAX
 10
-1.0000000000E+20
 20
-1.0000000000E+20
 30
-1.0000000000E+20
  9
$PLIMMIN
 10
0.0
 20
0.0
  9
$PLIMMAX
 10
420.0
 20
297.0
  9
$UNITMODE
 70
     0
  9
$VISRETAIN
 70
     1
  9
$PLINEGEN
 70
     0
  9
$PSLTSCALE
 70
     1
  9
$TREEDEPTH
 70
  3020
  9
$PICKSTYLE
 70
     1
  9
$CMLSTYLE
  2
STANDARD
  9
$CMLJUST
 70
     0
  9
$CMLSCALE
 40
20.0
  9
$PROXYGRAPHICS
 70
     1
  9
$MEASUREMENT
 70
     1
  0
ENDSEC
  0
SECTION
  2
CLASSES
  0
CLASS
  1
ACDBDICTIONARYWDFLT
  2
AcDbDictionaryWithDefault
  3
ObjectDBX Classes
 90
        0
280
     0
281
     0
  0
CLASS
  1
VISUALSTYLE
  2
AcDbVisualStyle
  3
ObjectDBX Classes
 90
     4095
280
     0
281
     0
  0
CLASS
  1
MATERIAL
  2
AcDbMaterial
  3
ObjectDBX Classes
 90
     1153
280
     0
281
     0
  0
CLASS
  1
SCALE
  2
AcDbScale
  3
ObjectDBX Classes
 90
     1153
280
     0
281
     0
  0
CLASS
  1
TABLESTYLE
  2
AcDbTableStyle
  3
ObjectDBX Classes
 90
     4095
280
     0
281
     0
  0
CLASS
  1
MLEADERSTYLE
  2
AcDbMLeaderStyle
  3
ACDB_MLEADERSTYLE_CLASS
 90
     4095
280
     0
281
     0
  0
CLASS
  1
SUN
  2
AcDbSun
  3
SCENEOE
 90
     1153
280
     0
281
     0
  0
CLASS
  1
XRECORD
  2
AcDbXrecord
  3
ObjectDBX Classes
 90
        0
280
     0
281
     0
  0
CLASS
  1
LWPOLYLINE
  2
AcDbPolyline
  3
ObjectDBX Classes
 90
        0
280
     0
281
     1
  0
CLASS
  1
HATCH
  2
AcDbHatch
  3
ObjectDBX Classes
 90
        0
280
     0
281
     1
  0
ENDSEC
  0
SECTION
  2
TABLES
  0
TABLE
  2
VPORT
  5
8
330
0
100
AcDbSymbolTable
 70
     1
  0
VPORT
  5
29
330
8
100
AcDbSymbolTableRecord
100
AcDbViewportTableRecord
  2
*ACTIVE
 70
     0
 10
0.0
 20
0.0
 11
1.0
 21
1.0
 12
148.5
 22
105.0
 13
0.0
 23
0.0
 14
10.0
 24
10.0
 15
10.0
 25
10.0
 16
0.0
 26
0.0
 36
1.0
 17
0.0
 27
0.0
 37
0.0
 40
210.0
 41
1.4142857143
 42
50.0
 43
0.0
 44
0.0
 50
0.0
 51
0.0
 71
     0
 72
  2000
 73
     1
 74
     3
 75
     0
 76
     0
 77
     0
 78
     0
  0
ENDTAB
  0
TABLE
  2
LTYPE
  5
5
330
0
100
AcDbSymbolTable
 70
     6
  0
LTYPE
  5
14
330
5
100
AcDbSymbolTableRecord
100
AcDbLinetypeTableRecord
  2
BYBLOCK
 70
     0
  3

 72
    65
 73
     0
 40
0.0
  0
LTYPE
  5
15
330
5
100
AcDbSymbolTableRecord
100
AcDbLinetypeTableRecord
  2
BYLAYER
 70
     0
  3

 72
    65
 73
     0
 40
0.0
  0
LTYPE
  5
16
330
5
100
AcDbSymbolTableRecord
100
AcDbLinetypeTableRecord
  2
CONTINUOUS
 70
     0
  3
Solid line
 72
    65
 73
     0
 40
0.0
  0
LTYPE
  5
6E
330
5
100
AcDbSymbolTableRecord
100
AcDbLinetypeTableRecord
  2
HIDDEN
 70
     0
  3
Hidden __ __ __ __ __ __ __ __ __ __ __ __ __ __
 72
    65
 73
     2
 40
1.905
 49
1.27
 74
     0
 49
-0.635
 74
     0
  0
LTYPE
  5
6F
330
5
100
AcDbSymbolTableRecord
100
AcDbLinetypeTableRecord
  2
PHANTOM
 70
     0
  3
Phantom ______  __  __  ______  __  __  ______
 72
    65
 73
     6
 40
12.7
 49
6.35
 74
     0
 49
-1.27
 74
     0
 49
1.27
 74
     0
 49
-1.27
 74
     0
 49
1.27
 74
     0
 49
-1.27
 74
     0
  0
LTYPE
  5
70
330
5
100
AcDbSymbolTableRecord
100
AcDbLinetypeTableRecord
  2
CENTER
 70
     0
  3
Center ____ _ ____ _ ____ _ ____ _ ____ _ ____
 72
    65
 73
     4
 40
10.16
 49
6.35
 74
     0
 49
-1.27
 74
     0
 49
1.27
 74
     0
 49
-1.27
 74
     0
  0
LTYPE
  5
71
330
5
100
AcDbSymbolTableRecord
100
AcDbLinetypeTableRecord
  2
CENTERX2
 70
     0
  3
Center (2x) ________  __  ________  __  _____
 72
    65
 73
     4
 40
20.32
 49
12.7
 74
     0
 49
-2.54
 74
     0
 49
2.54
 74
     0
 49
-2.54
 74
     0
  0
LTYPE
  5
72
330
5
100
AcDbSymbolTableRecord
100
AcDbLinetypeTableRecord
  2
DOT2
 70
     0
  3
Dot (.5x) ........................................
 72
    65
 73
     2
 40
0.635
 49
0.0
 74
     0
 49
-0.635
 74
     0
  0
ENDTAB
  0
TABLE
  2
LAYER
  5
2
330
0
100
AcDbSymbolTable
 70
     3
  0
LAYER
  5
10
330
2
100
AcDbSymbolTableRecord
100
AcDbLayerTableRecord
  2
0
 70
     0
 62
     7
  6
CONTINUOUS
  0
LAYER
  5
73
330
2
100
AcDbSymbolTableRecord
100
AcDbLayerTableRecord
  2
SLD-0
 70
     0
 62
   179
  6
CONTINUOUS
  0
LAYER
  5
74
330
2
100
AcDbSymbolTableRecord
100
AcDbLayerTableRecord
  2
SLD-DEFPOINTS_0
 70
     0
 62
   179
  6
CONTINUOUS
  0
ENDTAB
  0
TABLE
  2
STYLE
  5
3
330
0
100
AcDbSymbolTable
 70
     3
  0
STYLE
  5
11
330
3
100
AcDbSymbolTableRecord
100
AcDbTextStyleTableRecord
  2
STANDARD
 70
     0
 40
0.0
 41
1.0
 50
0.0
 71
     0
 42
3.5
  3
txt
  4

  0
STYLE
  5
1D0
330
3
100
AcDbSymbolTableRecord
100
AcDbTextStyleTableRecord
  2
SLDTEXTSTYLE0
 70
     0
 40
0.0
 41
0.75
 50
0.0
 71
     0
 42
3.5
  3
TXT
  4

  0
STYLE
  5
1DB
330
3
100
AcDbSymbolTableRecord
100
AcDbTextStyleTableRecord
  2
SLDTEXTSTYLE1
 70
     0
 40
0.0
 41
0.96
 50
0.0
 71
     0
 42
3.5
  3
TXT
  4

  0
ENDTAB
  0
TABLE
  2
VIEW
  5
6
330
0
100
AcDbSymbolTable
 70
     0
  0
ENDTAB
  0
TABLE
  2
UCS
  5
7
330
0
100
AcDbSymbolTable
 70
     0
  0
ENDTAB
  0
TABLE
  2
APPID
  5
9
330
0
100
AcDbSymbolTable
 70
     1
  0
APPID
  5
12
330
9
100
AcDbSymbolTableRecord
100
AcDbRegAppTableRecord
  2
ACAD
 70
     0
  0
ENDTAB
  0
TABLE
  2
DIMSTYLE
  5
A
330
0
100
AcDbSymbolTable
 70
     3
  0
DIMSTYLE
105
27
330
A
100
AcDbSymbolTableRecord
100
AcDbDimStyleTableRecord
  2
ISO-25
 70
     0
  3

  4

  5

  6

  7

 40
1.0
 41
2.5
 42
0.625
 43
3.75
 44
1.25
 45
0.0
 46
0.0
 47
0.0
 48
0.0
140
2.5
141
2.5
142
0.0
143
0.0393700787
144
1.0
145
0.0
146
1.0
147
0.625
 71
     0
 72
     0
 73
     0
 74
     0
 75
     0
 76
     0
 77
     1
 78
     8
170
     0
171
     3
172
     1
173
     0
174
     0
175
     0
176
     0
177
     0
178
     0
270
     2
271
     2
272
     2
273
     2
274
     3
340
11
275
     0
280
     0
281
     0
282
     0
283
     0
284
     8
285
     0
286
     0
287
     3
288
     0
  0
DIMSTYLE
105
1D1
102
{ACAD_REACTORS
330
1CF
330
1DF
330
1EB
330
1F6
330
201
330
20C
330
221
330
22B
102
}
330
A
100
AcDbSymbolTableRecord
100
AcDbDimStyleTableRecord
  2
SLDDIMSTYLE0
 70
     0
  3

  4

  5

  6
NONE
  7
NONE
 40
1.0
 41
3.302
 42
0.0625
 43
0.38
 44
0.0
 45
0.000000001
 46
0.0
 47
0.0
 48
0.0
140
7.4083333333
141
0.09
142
0.0
143
25.4
144
10.0
145
0.0
146
1.0
147
1.8520833333
 71
     0
 72
     0
 73
     0
 74
     0
 75
     0
 76
     0
 77
     1
 78
    12
170
     0
171
     2
172
     0
173
     1
174
     0
175
     0
176
     0
177
     0
178
     0
270
     2
271
     0
272
     0
273
     2
274
     2
340
1D0
275
     0
280
     0
281
     0
282
     0
283
     1
284
    12
285
     0
286
     0
287
     3
288
     0
  0
DIMSTYLE
105
218
102
{ACAD_REACTORS
330
217
102
}
330
A
100
AcDbSymbolTableRecord
100
AcDbDimStyleTableRecord
  2
SLDDIMSTYLE1
 70
     0
  3

  4

  5

  6
NONE
  7
NONE
 40
1.0
 41
3.302
 42
0.0625
 43
0.38
 44
0.0
 45
0.0
 46
0.0
 47
0.0
 48
0.0
140
7.4083333333
141
0.09
142
0.0
143
25.4
144
10.0
145
0.0
146
1.0
147
1.8520833333
 71
     0
 72
     0
 73
     0
 74
     0
 75
     0
 76
     0
 77
     1
 78
    12
170
     0
171
     2
172
     0
173
     1
174
     0
175
     0
176
     0
177
     0
178
     0
270
     2
271
     4
272
     0
273
     2
274
     2
340
1D0
275
     0
280
     0
281
     0
282
     0
283
     1
284
    12
285
     0
286
     0
287
     3
288
     0
  0
ENDTAB
  0
TABLE
  2
BLOCK_RECORD
  5
1
330
0
100
AcDbSymbolTable
 70
    11
  0
BLOCK_RECORD
  5
1F
330
1
100
AcDbSymbolTableRecord
100
AcDbBlockTableRecord
  2
*MODEL_SPACE
  0
BLOCK_RECORD
  5
1B
330
1
100
AcDbSymbolTableRecord
100
AcDbBlockTableRecord
  2
*PAPER_SPACE
  0
BLOCK_RECORD
  5
23
330
1
100
AcDbSymbolTableRecord
100
AcDbBlockTableRecord
  2
*PAPER_SPACE0
  0
BLOCK_RECORD
  5
1D2
330
1
100
AcDbSymbolTableRecord
100
AcDbBlockTableRecord
  2
_NONE
  0
BLOCK_RECORD
  5
1D5
330
1
100
AcDbSymbolTableRecord
100
AcDbBlockTableRecord
  2
_D
  0
BLOCK_RECORD
  5
1E0
330
1
100
AcDbSymbolTableRecord
100
AcDbBlockTableRecord
  2
_D_1
  0
BLOCK_RECORD
  5
1EC
330
1
100
AcDbSymbolTableRecord
100
AcDbBlockTableRecord
  2
_D_2
  0
BLOCK_RECORD
  5
1F7
330
1
100
AcDbSymbolTableRecord
100
AcDbBlockTableRecord
  2
_D_3
  0
BLOCK_RECORD
  5
202
330
1
100
AcDbSymbolTableRecord
100
AcDbBlockTableRecord
  2
_D_4
  0
BLOCK_RECORD
  5
20D
330
1
100
AcDbSymbolTableRecord
100
AcDbBlockTableRecord
  2
_D_5
  0
BLOCK_RECORD
  5
219
330
1
100
AcDbSymbolTableRecord
100
AcDbBlockTableRecord
  2
_D_6
  0
BLOCK_RECORD
  5
222
330
1
100
AcDbSymbolTableRecord
100
AcDbBlockTableRecord
  2
_D_7
  0
BLOCK_RECORD
  5
22C
330
1
100
AcDbSymbolTableRecord
100
AcDbBlockTableRecord
  2
_D_8
  0
ENDTAB
  0
ENDSEC
  0
SECTION
  2
BLOCKS
  0
BLOCK
  5
20
330
1F
100
AcDbEntity
  8
0
100
AcDbBlockBegin
  2
*MODEL_SPACE
 70
     0
 10
0.0
 20
0.0
 30
0.0
  3
*MODEL_SPACE
  1

  0
ENDBLK
  5
21
330
1F
100
AcDbEntity
  8
0
100
AcDbBlockEnd
  0
BLOCK
  5
1C
330
1B
100
AcDbEntity
 67
     1
  8
0
100
AcDbBlockBegin
  2
*PAPER_SPACE
 70
     0
 10
0.0
 20
0.0
 30
0.0
  3
*PAPER_SPACE
  1

  0
ENDBLK
  5
1D
330
1B
100
AcDbEntity
 67
     1
  8
0
100
AcDbBlockEnd
  0
BLOCK
  5
24
330
23
100
AcDbEntity
  8
0
100
AcDbBlockBegin
  2
*PAPER_SPACE0
 70
     0
 10
0.0
 20
0.0
 30
0.0
  3
*PAPER_SPACE0
  1

  0
ENDBLK
  5
25
330
23
100
AcDbEntity
  8
0
100
AcDbBlockEnd
  0
BLOCK
  5
1D3
330
1D2
100
AcDbEntity
  8
0
100
AcDbBlockBegin
  2
_NONE
 70
     0
 10
0.0
 20
0.0
 30
0.0
  3
_NONE
  1

  0
ENDBLK
  5
1D4
330
1D2
100
AcDbEntity
  8
0
100
AcDbBlockEnd
  0
BLOCK
  5
1D6
330
1D5
100
AcDbEntity
  8
0
100
AcDbBlockBegin
  2
_D
 70
     0
 10
0.0
 20
0.0
 30
0.0
  3
_D
  1

  0
LINE
  5
1D8
330
1D5
100
AcDbEntity
  8
SLD-0
 62
   254
100
AcDbLine
 10
567.0174537653
 20
-347.2098505174
 30
0.0
 11
567.0174537653
 21
-369.4053117505
 31
0.0
  0
LINE
  5
1D9
330
1D5
100
AcDbEntity
  8
SLD-0
 62
   254
100
AcDbLine
 10
519.0174537653
 20
-347.2098505174
 30
0.0
 11
519.0174537653
 21
-369.4053117505
 31
0.0
  0
LINE
  5
1DA
330
1D5
100
AcDbEntity
  8
SLD-0
 62
   254
100
AcDbLine
 10
567.0174537653
 20
-368.4053117505
 30
0.0
 11
519.0174537653
 21
-368.4053117505
 31
0.0
  0
MTEXT
  5
1DC
330
1D5
100
AcDbEntity
  8
SLD-0
 62
   254
100
AcDbMText
 10
536.312946516
 20
-359.9661402478
 30
0.0
 40
7.4083333333
 41
0.0
 71
     1
 72
     1
  1
48
  7
SLDTEXTSTYLE1
  0
SOLID
  5
1DD
330
1D5
100
AcDbEntity
  8
SLD-0
 62
   254
100
AcDbTrace
 10
567.0174537653
 20
-368.4053117505
 30
0.0
 11
557.0174537653
 21
-366.9053117505
 31
0.0
 12
557.0174537653
 22
-369.9053117505
 32
0.0
 13
557.0174537653
 23
-369.9053117505
 33
0.0
  0
SOLID
  5
1DE
330
1D5
100
AcDbEntity
  8
SLD-0
 62
   254
100
AcDbTrace
 10
519.0174537653
 20
-368.4053117505
 30
0.0
 11
529.0174537653
 21
-369.9053117505
 31
0.0
 12
529.0174537653
 22
-366.9053117505
 32
0.0
 13
529.0174537653
 23
-366.9053117505
 33
0.0
  0
ENDBLK
  5
1D7
330
1D5
100
AcDbEntity
  8
0
100
AcDbBlockEnd
  0
BLOCK
  5
1E1
330
1E0
100
AcDbEntity
  8
0
100
AcDbBlockBegin
  2
_D_1
 70
     0
 10
0.0
 20
0.0
 30
0.0
  3
_D_1
  1

  0
LINE
  5
1E3
330
1E0
100
AcDbEntity
  8
SLD-0
 62
   254
100
AcDbLine
 10
568.0174537653
 20
-346.2098505174
 30
0.0
 11
581.8424458698
 21
-346.2098505174
 31
0.0
  0
LINE
  5
1E4
330
1E0
100
AcDbEntity
  8
SLD-0
 62
   254
100
AcDbLine
 10
568.0174537653
 20
-342.2098505174
 30
0.0
 11
581.8424458698
 21
-342.2098505174
 31
0.0
  0
LINE
  5
1E5
330
1E0
100
AcDbEntity
  8
SLD-0
 62
   254
100
AcDbLine
 10
586.3163809151
 20
-318.8106249418
 30
0.0
 11
580.8424458698
 21
-318.8106249418
 31
0.0
  0
LINE
  5
1E6
330
1E0
100
AcDbEntity
  8
SLD-0
 62
   254
100
AcDbLine
 10
580.8424458698
 20
-318.8106249418
 30
0.0
 11
580.8424458698
 21
-342.2098505174
 31
0.0
  0
LINE
  5
1E7
330
1E0
100
AcDbEntity
  8
SLD-0
 62
   254
100
AcDbLine
 10
580.8424458698
 20
-346.2098505174
 30
0.0
 11
580.8424458698
 21
-366.2098505174
 31
0.0
  0
MTEXT
  5
1E8
330
1E0
100
AcDbEntity
  8
SLD-0
 62
   254
100
AcDbMText
 10
580.8424458698
 20
-310.3714534391
 30
0.0
 40
7.4083333333
 41
0.0
 71
     1
 72
     1
  1
5
  7
SLDTEXTSTYLE1
  0
SOLID
  5
1E9
330
1E0
100
AcDbEntity
  8
SLD-0
 62
   254
100
AcDbTrace
 10
580.8424458698
 20
-346.2098505174
 30
0.0
 11
579.3424458698
 21
-356.2098505174
 31
0.0
 12
582.3424458698
 22
-356.2098505174
 32
0.0
 13
582.3424458698
 23
-356.2098505174
 33
0.0
  0
SOLID
  5
1EA
330
1E0
100
AcDbEntity
  8
SLD-0
 62
   254
100
AcDbTrace
 10
580.8424458698
 20
-342.2098505174
 30
0.0
 11
582.3424458698
 21
-332.2098505174
 31
0.0
 12
579.3424458698
 22
-332.2098505174
 32
0.0
 13
579.3424458698
 23
-332.2098505174
 33
0.0
  0
ENDBLK
  5
1E2
330
1E0
100
AcDbEntity
  8
0
100
AcDbBlockEnd
  0
BLOCK
  5
1ED
330
1EC
100
AcDbEntity
  8
0
100
AcDbBlockBegin
  2
_D_2
 70
     0
 10
0.0
 20
0.0
 30
0.0
  3
_D_2
  1

  0
LINE
  5
1EF
330
1EC
100
AcDbEntity
  8
SLD-0
 62
   254
100
AcDbLine
 10
522.9241119609
 20
-33.9285030279
 30
0.0
 11
522.9204219781
 21
-5.7538238432
 31
0.0
  0
LINE
  5
1F0
330
1EC
100
AcDbEntity
  8
SLD-0
 62
   254
100
AcDbLine
 10
562.9241116179
 20
-33.9232643059
 30
0.0
 11
562.920421635
 21
-5.7485851212
 31
0.0
  0
LINE
  5
1F1
330
1EC
100
AcDbEntity
  8
SLD-0
 62
   254
100
AcDbLine
 10
522.9205529461
 20
-6.7538238347
 30
0.0
 11
536.312946516
 21
-6.752069859
 31
0.0
  0
LINE
  5
1F2
330
1EC
100
AcDbEntity
  8
SLD-0
 62
   254
100
AcDbLine
 10
562.9205526031
 20
-6.7485851126
 30
0.0
 11
547.2608166066
 21
-6.7506360377
 31
0.0
  0
MTEXT
  5
1F3
330
1EC
100
AcDbEntity
  8
SLD-0
 62
   254
100
AcDbMText
 10
536.312946516
 20
-4.1976907541
 30
0.0
 40
7.4083333333
 41
0.0
 71
     1
 72
     1
  1
40
  7
SLDTEXTSTYLE1
  0
SOLID
  5
1F4
330
1EC
100
AcDbEntity
  8
SLD-0
 62
   254
100
AcDbTrace
 10
522.9205529461
 20
-6.7538238347
 30
0.0
 11
532.9207493124
 21
-8.2525141413
 31
0.0
 12
532.9203564083
 22
-5.252514167
 32
0.0
 13
532.9203564083
 23
-5.252514167
 33
0.0
  0
SOLID
  5
1F5
330
1EC
100
AcDbEntity
  8
SLD-0
 62
   254
100
AcDbTrace
 10
562.9205526031
 20
-6.7485851126
 30
0.0
 11
552.9203562368
 21
-5.249894806
 31
0.0
 12
552.9207491409
 22
-8.2498947803
 32
0.0
 13
552.9207491409
 23
-8.2498947803
 33
0.0
  0
ENDBLK
  5
1EE
330
1EC
100
AcDbEntity
  8
0
100
AcDbBlockEnd
  0
BLOCK
  5
1F8
330
1F7
100
AcDbEntity
  8
0
100
AcDbBlockBegin
  2
_D_3
 70
     0
 10
0.0
 20
0.0
 30
0.0
  3
_D_3
  1

  0
LINE
  5
1FA
330
1F7
100
AcDbEntity
  8
SLD-0
 62
   254
100
AcDbLine
 10
566.4815437886
 20
-34.9258836583
 30
0.0
 11
601.3458781327
 21
-34.9258836583
 31
0.0
  0
LINE
  5
1FB
330
1F7
100
AcDbEntity
  8
SLD-0
 62
   254
100
AcDbLine
 10
571.1868369379
 20
-346.2098505174
 30
0.0
 11
601.3458781327
 21
-346.2098505174
 31
0.0
  0
LINE
  5
1FC
330
1F7
100
AcDbEntity
  8
SLD-0
 62
   254
100
AcDbLine
 10
600.3458781327
 20
-34.9258836583
 30
0.0
 11
600.3458781327
 21
-174.7190901369
 31
0.0
  0
LINE
  5
1FD
330
1F7
100
AcDbEntity
  8
SLD-0
 62
   254
100
AcDbLine
 10
600.3458781327
 20
-346.2098505174
 30
0.0
 11
600.3458781327
 21
-186.4901087537
 31
0.0
  0
MTEXT
  5
1FE
330
1F7
100
AcDbEntity
  8
SLD-0
 62
   254
100
AcDbMText
 10
592.1349750991
 20
-178.050937251
 30
0.0
 40
7.4083333333
 41
0.0
 71
     1
 72
     1
  1
310
  7
SLDTEXTSTYLE1
  0
SOLID
  5
1FF
330
1F7
100
AcDbEntity
  8
SLD-0
 62
   254
100
AcDbTrace
 10
600.3458781327
 20
-34.9258836583
 30
0.0
 11
598.8458781327
 21
-44.9258836583
 31
0.0
 12
601.8458781327
 22
-44.9258836583
 32
0.0
 13
601.8458781327
 23
-44.9258836583
 33
0.0
  0
SOLID
  5
200
330
1F7
100
AcDbEntity
  8
SLD-0
 62
   254
100
AcDbTrace
 10
600.3458781327
 20
-346.2098505174
 30
0.0
 11
601.8458781327
 21
-336.2098505174
 31
0.0
 12
598.8458781327
 22
-336.2098505174
 32
0.0
 13
598.8458781327
 23
-336.2098505174
 33
0.0
  0
ENDBLK
  5
1F9
330
1F7
100
AcDbEntity
  8
0
100
AcDbBlockEnd
  0
BLOCK
  5
203
330
202
100
AcDbEntity
  8
0
100
AcDbBlockBegin
  2
_D_4
 70
     0
 10
0.0
 20
0.0
 30
0.0
  3
_D_4
  1

  0
LINE
  5
205
330
202
100
AcDbEntity
  8
SLD-0
 62
   254
100
AcDbLine
 10
754.0398559329
 20
-163.0098505174
 30
0.0
 11
736.2152281882
 21
-163.0098505174
 31
0.0
  0
LINE
  5
206
330
202
100
AcDbEntity
  8
SLD-0
 62
   254
100
AcDbLine
 10
848.4203418028
 20
-346.2098505174
 30
0.0
 11
736.2152281882
 21
-346.2098505174
 31
0.0
  0
LINE
  5
207
330
202
100
AcDbEntity
  8
SLD-0
 62
   254
100
AcDbLine
 10
737.2152281882
 20
-163.0098505174
 30
0.0
 11
737.2152281882
 21
-250.4754346671
 31
0.0
  0
LINE
  5
208
330
202
100
AcDbEntity
  8
SLD-0
 62
   254
100
AcDbLine
 10
737.2152281882
 20
-346.2098505174
 30
0.0
 11
737.2152281882
 21
-262.246453284
 31
0.0
  0
MTEXT
  5
209
330
202
100
AcDbEntity
  8
SLD-0
 62
   254
100
AcDbMText
 10
729.0043251546
 20
-253.8072817813
 30
0.0
 40
7.4083333333
 41
0.0
 71
     1
 72
     1
  1
185
  7
SLDTEXTSTYLE1
  0
SOLID
  5
20A
330
202
100
AcDbEntity
  8
SLD-0
 62
   254
100
AcDbTrace
 10
737.2152281882
 20
-163.0098505174
 30
0.0
 11
735.7152281882
 21
-173.0098505174
 31
0.0
 12
738.7152281882
 22
-173.0098505174
 32
0.0
 13
738.7152281882
 23
-173.0098505174
 33
0.0
  0
SOLID
  5
20B
330
202
100
AcDbEntity
  8
SLD-0
 62
   254
100
AcDbTrace
 10
737.2152281882
 20
-346.2098505174
 30
0.0
 11
738.7152281882
 21
-336.2098505174
 31
0.0
 12
735.7152281882
 22
-336.2098505174
 32
0.0
 13
735.7152281882
 23
-336.2098505174
 33
0.0
  0
ENDBLK
  5
204
330
202
100
AcDbEntity
  8
0
100
AcDbBlockEnd
  0
BLOCK
  5
20E
330
20D
100
AcDbEntity
  8
0
100
AcDbBlockBegin
  2
_D_5
 70
     0
 10
0.0
 20
0.0
 30
0.0
  3
_D_5
  1

  0
LINE
  5
210
330
20D
100
AcDbEntity
  8
SLD-0
 62
   254
100
AcDbLine
 10
748.9898559329
 20
-152.5309431316
 30
0.0
 11
734.95633847
 21
-128.224177877
 31
0.0
  0
LINE
  5
211
330
20D
100
AcDbEntity
  8
SLD-0
 62
   254
100
AcDbLine
 10
852.9203418028
 20
-92.5266491376
 30
0.0
 11
838.8868243399
 21
-68.219883883
 31
0.0
  0
LINE
  5
212
330
20D
100
AcDbEntity
  8
SLD-0
 62
   254
100
AcDbLine
 10
735.45633847
 20
-129.0902032808
 30
0.0
 11
773.1113396198
 21
-107.3500782306
 31
0.0
  0
LINE
  5
213
330
20D
100
AcDbEntity
  8
SLD-0
 62
   254
100
AcDbLine
 10
839.3868243399
 20
-69.0859092868
 30
0.0
 11
789.533145687
 21
-97.8689440771
 31
0.0
  0
MTEXT
  5
214
330
20D
100
AcDbEntity
  8
SLD-0
 62
   254
100
AcDbMText
 10
773.1113396198
 20
-100.0558489596
 30
0.0
 40
7.4083333333
 41
0.0
 71
     1
 72
     1
  1
120
  7
SLDTEXTSTYLE1
  0
SOLID
  5
215
330
20D
100
AcDbEntity
  8
SLD-0
 62
   254
100
AcDbTrace
 10
735.45633847
 20
-129.0902032808
 30
0.0
 11
744.8665925078
 21
-125.3892413865
 31
0.0
 12
743.3665925078
 22
-122.7911651751
 32
0.0
 13
743.3665925078
 23
-122.7911651751
 33
0.0
  0
SOLID
  5
216
330
20D
100
AcDbEntity
  8
SLD-0
 62
   254
100
AcDbTrace
 10
839.3868243399
 20
-69.0859092868
 30
0.0
 11
829.9765703021
 21
-72.7868711811
 31
0.0
 12
831.4765703021
 22
-75.3849473925
 32
0.0
 13
831.4765703021
 23
-75.3849473925
 33
0.0
  0
ENDBLK
  5
20F
330
20D
100
AcDbEntity
  8
0
100
AcDbBlockEnd
  0
BLOCK
  5
21A
330
219
100
AcDbEntity
  8
0
100
AcDbBlockBegin
  2
_D_6
 70
     0
 10
0.0
 20
0.0
 30
0.0
  3
_D_6
  1

  0
ARC
  5
21C
330
219
100
AcDbEntity
  8
SLD-0
 62
   254
100
AcDbCircle
 10
853.4203418028
 20
-119.0270264934
 30
0.0
 40
87.18714337893032
100
AcDbArc
 50
210.0
 51
234.4447448978
  0
ARC
  5
21D
330
219
100
AcDbEntity
  8
SLD-0
 62
   254
100
AcDbCircle
 10
853.4203418028
 20
-119.0270264934
 30
0.0
 40
87.18714337893023
100
AcDbArc
 50
245.7572972751
 51
270.0
  0
MTEXT
  5
21E
330
219
100
AcDbEntity
  8
SLD-0
 62
   254
100
AcDbMText
 10
802.722081167
 20
-192.177669931
 30
0.0
 40
7.4083333333
 41
0.0
 71
     1
 72
     1
  1
60°
  7
SLDTEXTSTYLE1
  0
SOLID
  5
21F
330
219
100
AcDbEntity
  8
SLD-0
 62
   254
100
AcDbTrace
 10
777.9140607532
 20
-162.6205981829
 30
0.0
 11
782.1460098194
 21
-171.8043124152
 31
0.0
 12
784.6542509556
 22
-170.158491525
 32
0.0
 13
784.6542509556
 23
-170.158491525
 33
0.0
  0
SOLID
  5
220
330
219
100
AcDbEntity
  8
SLD-0
 62
   254
100
AcDbTrace
 10
853.4203418028
 20
-206.2141698724
 30
0.0
 11
843.5222395764
 21
-204.1459406018
 31
0.0
 12
843.3510374434
 22
-207.1410515897
 32
0.0
 13
843.3510374434
 23
-207.1410515897
 33
0.0
  0
ENDBLK
  5
21B
330
219
100
AcDbEntity
  8
0
100
AcDbBlockEnd
  0
BLOCK
  5
223
330
222
100
AcDbEntity
  8
0
100
AcDbBlockBegin
  2
_D_7
 70
     0
 10
0.0
 20
0.0
 30
0.0
  3
_D_7
  1

  0
LINE
  5
225
330
222
100
AcDbEntity
  8
SLD-0
 62
   254
100
AcDbLine
 10
531.9174537653
 20
133.2704376079
 30
0.0
 11
511.9174537653
 21
133.2704376079
 31
0.0
  0
LINE
  5
226
330
222
100
AcDbEntity
  8
SLD-0
 62
   254
100
AcDbLine
 10
531.9174537653
 20
133.2704376079
 30
0.0
 11
554.1174537653
 21
133.2704376079
 31
0.0
  0
LINE
  5
227
330
222
100
AcDbEntity
  8
SLD-0
 62
   254
100
AcDbLine
 10
554.1174537653
 20
133.2704376079
 30
0.0
 11
582.3067606778
 21
133.2704376079
 31
0.0
  0
MTEXT
  5
228
330
222
100
AcDbEntity
  8
SLD-0
 62
   254
100
AcDbMText
 10
571.3588905872
 20
141.7096091106
 30
0.0
 40
7.4083333333
 41
0.0
 71
     1
 72
     1
  1
22
  7
SLDTEXTSTYLE1
  0
SOLID
  5
229
330
222
100
AcDbEntity
  8
SLD-0
 62
   254
100
AcDbTrace
 10
531.9174537653
 20
133.2704376079
 30
0.0
 11
521.9174537653
 21
134.7704376079
 31
0.0
 12
521.9174537653
 22
131.7704376079
 32
0.0
 13
521.9174537653
 23
131.7704376079
 33
0.0
  0
SOLID
  5
22A
330
222
100
AcDbEntity
  8
SLD-0
 62
   254
100
AcDbTrace
 10
554.1174537653
 20
133.2704376079
 30
0.0
 11
564.1174537653
 21
131.7704376079
 31
0.0
 12
564.1174537653
 22
134.7704376079
 32
0.0
 13
564.1174537653
 23
134.7704376079
 33
0.0
  0
ENDBLK
  5
224
330
222
100
AcDbEntity
  8
0
100
AcDbBlockEnd
  0
BLOCK
  5
22D
330
22C
100
AcDbEntity
  8
0
100
AcDbBlockBegin
  2
_D_8
 70
     0
 10
0.0
 20
0.0
 30
0.0
  3
_D_8
  1

  0
LINE
  5
22F
330
22C
100
AcDbEntity
  8
SLD-0
 62
   254
100
AcDbLine
 10
543.0429255716
 20
84.1889310364
 30
0.0
 11
597.532355903
 21
83.7600899872
 31
0.0
  0
LINE
  5
230
330
22C
100
AcDbEntity
  8
SLD-0
 62
   254
100
AcDbLine
 10
544.206301014
 20
232.0098199885
 30
0.0
 11
598.6957313454
 21
231.5809789392
 31
0.0
  0
LINE
  5
231
330
22C
100
AcDbEntity
  8
SLD-0
 62
   254
100
AcDbLine
 10
596.5323868713
 20
83.7679599129
 30
0.0
 11
597.0293186092
 21
146.9091339195
 31
0.0
  0
LINE
  5
232
330
22C
100
AcDbEntity
  8
SLD-0
 62
   254
100
AcDbLine
 10
597.6957623138
 20
231.5888488649
 30
0.0
 11
597.1219585202
 21
158.6801525364
 31
0.0
  0
MTEXT
  5
233
330
22C
100
AcDbEntity
  8
SLD-0
 62
   254
100
AcDbMText
 10
588.8647355311
 20
155.3483054222
 30
0.0
 40
7.4083333333
 41
0.0
 71
     1
 72
     1
  1
150
  7
SLDTEXTSTYLE1
  0
SOLID
  5
234
330
22C
100
AcDbEntity
  8
SLD-0
 62
   254
100
AcDbTrace
 10
596.5323868713
 20
83.7679599129
 30
0.0
 11
598.1110396759
 21
93.7558453409
 31
0.0
 12
595.111132581
 22
93.779455118
 32
0.0
 13
595.111132581
 23
93.779455118
 33
0.0
  0
SOLID
  5
235
330
22C
100
AcDbEntity
  8
SLD-0
 62
   254
100
AcDbTrace
 10
597.6957623138
 20
231.5888488649
 30
0.0
 11
596.1171095092
 21
221.600963437
 31
0.0
 12
599.1170166041
 22
221.5773536598
 32
0.0
 13
599.1170166041
 23
221.5773536598
 33
0.0
  0
ENDBLK
  5
22E
330
22C
100
AcDbEntity
  8
0
100
AcDbBlockEnd
  0
ENDSEC
  0
SECTION
  2
ENTITIES
  0
LINE
  5
75
330
1F
100
AcDbEntity
  8
SLD-0
  6
CONTINUOUS
 62
   254
100
AcDbLine
 10
531.9174539948
 20
-104.2734878933
 30
0.0
 11
531.9174539948
 21
-163.0098569071
 31
0.0
  0
LINE
  5
76
330
1F
100
AcDbEntity
  8
SLD-0
  6
CONTINUOUS
 62
   254
100
AcDbLine
 10
554.1174535358
 20
-163.0098569071
 30
0.0
 11
554.1174535358
 21
-104.2763042127
 31
0.0
  0
LINE
  5
77
330
1F
100
AcDbEntity
  8
SLD-0
  6
CONTINUOUS
 62
   254
100
AcDbLine
 10
567.0174539739
 20
-346.2098507074
 30
0.0
 11
567.0174539739
 21
-342.2098505174
 31
0.0
  0
LINE
  5
78
330
1F
100
AcDbEntity
  8
SLD-0
  6
CONTINUOUS
 62
   254
100
AcDbLine
 10
519.0174535567
 20
-342.2098505174
 30
0.0
 11
519.0174535567
 21
-346.2098507074
 31
0.0
  0
LINE
  5
79
330
1F
100
AcDbEntity
  8
SLD-0
  6
CONTINUOUS
 62
   254
100
AcDbLine
 10
562.9304864162
 20
-82.5951146757
 30
0.0
 11
562.9242428297
 21
-34.9232601797
 31
0.0
  0
LINE
  5
7A
330
1F
100
AcDbEntity
  8
SLD-0
  6
CONTINUOUS
 62
   254
100
AcDbLine
 10
522.9242437238
 20
-34.9285053884
 30
0.0
 11
522.9304500574
 21
-82.3204266702
 31
0.0
  0
LINE
  5
7B
330
1F
100
AcDbEntity
  8
SLD-0
  6
CONTINUOUS
 62
   254
100
AcDbLine
 10
561.0174529904
 20
-84.2098641073
 30
0.0
 11
560.6550828272
 21
-83.0916809713
 31
0.0
  0
LINE
  5
7C
330
1F
100
AcDbEntity
  8
SLD-0
  6
CONTINUOUS
 62
   254
100
AcDbLine
 10
560.6550828272
 20
-83.0916809713
 30
0.0
 11
560.5779376531
 21
-82.881157366
 31
0.0
  0
LINE
  5
7D
330
1F
100
AcDbEntity
  8
SLD-0
  6
CONTINUOUS
 62
   254
100
AcDbLine
 10
525.4572623128
 20
-82.8803825056
 30
0.0
 11
525.3798247033
 21
-83.0916809713
 31
0.0
  0
LINE
  5
7E
330
1F
100
AcDbEntity
  8
SLD-0
  6
CONTINUOUS
 62
   254
100
AcDbLine
 10
525.3798247033
 20
-83.0916809713
 30
0.0
 11
525.0174545401
 21
-84.2098641073
 31
0.0
  0
LINE
  5
7F
330
1F
100
AcDbEntity
  8
SLD-0
  6
CONTINUOUS
 62
   254
100
AcDbLine
 10
563.0174533183
 20
-342.2098505174
 30
0.0
 11
563.0174533183
 21
-84.2098641073
 31
0.0
  0
LINE
  5
80
330
1F
100
AcDbEntity
  8
SLD-0
  6
CONTINUOUS
 62
   254
100
AcDbLine
 10
523.0174542123
 20
-84.2098641073
 30
0.0
 11
523.0174542123
 21
-342.2098505174
 31
0.0
  0
LINE
  5
81
330
1F
100
AcDbEntity
  8
SLD-0
  6
CONTINUOUS
 62
   254
100
AcDbLine
 10
543.0174537653
 20
-153.3969688093
 30
0.0
 11
544.9994353296
 21
-153.5514491474
 31
0.0
  0
LINE
  5
82
330
1F
100
AcDbEntity
  8
SLD-0
  6
CONTINUOUS
 62
   254
100
AcDbLine
 10
544.9994353296
 20
-153.5514491474
 30
0.0
 11
546.917714197
 21
-154.009928075
 31
0.0
  0
LINE
  5
83
330
1F
100
AcDbEntity
  8
SLD-0
  6
CONTINUOUS
 62
   254
100
AcDbLine
 10
546.917714197
 20
-154.009928075
 30
0.0
 11
548.7106356488
 21
-154.7576832449
 31
0.0
  0
LINE
  5
84
330
1F
100
AcDbEntity
  8
SLD-0
  6
CONTINUOUS
 62
   254
100
AcDbLine
 10
548.7106356488
 20
-154.7576832449
 30
0.0
 11
550.3205734024
 21
-155.7706641828
 31
0.0
  0
LINE
  5
85
330
1F
100
AcDbEntity
  8
SLD-0
  6
CONTINUOUS
 62
   254
100
AcDbLine
 10
550.3205734024
 20
-155.7706641828
 30
0.0
 11
551.6957829425
 21
-157.0163118517
 31
0.0
  0
LINE
  5
86
330
1F
100
AcDbEntity
  8
SLD-0
  6
CONTINUOUS
 62
   254
100
AcDbLine
 10
551.6957829425
 20
-157.0163118517
 30
0.0
 11
552.7920641655
 21
-158.4546017324
 31
0.0
  0
LINE
  5
87
330
1F
100
AcDbEntity
  8
SLD-0
  6
CONTINUOUS
 62
   254
100
AcDbLine
 10
552.7920641655
 20
-158.4546017324
 30
0.0
 11
553.5741814131
 21
-160.0393104231
 31
0.0
  0
LINE
  5
88
330
1F
100
AcDbEntity
  8
SLD-0
  6
CONTINUOUS
 62
   254
100
AcDbLine
 10
553.5741814131
 20
-160.0393104231
 30
0.0
 11
554.0169964263
 21
-161.7194759523
 31
0.0
  0
LINE
  5
89
330
1F
100
AcDbEntity
  8
SLD-0
  6
CONTINUOUS
 62
   254
100
AcDbLine
 10
554.0169964263
 20
-161.7194759523
 30
0.0
 11
554.1062767336
 21
-163.4411263143
 31
0.0
  0
LINE
  5
8A
330
1F
100
AcDbEntity
  8
SLD-0
  6
CONTINUOUS
 62
   254
100
AcDbLine
 10
554.1062767336
 20
-163.4411263143
 30
0.0
 11
553.8391538614
 21
-165.1489185964
 31
0.0
  0
LINE
  5
8B
330
1F
100
AcDbEntity
  8
SLD-0
  6
CONTINUOUS
 62
   254
100
AcDbLine
 10
553.8391538614
 20
-165.1489185964
 30
0.0
 11
553.2242118099
 21
-166.7879569208
 31
0.0
  0
LINE
  5
8C
330
1F
100
AcDbEntity
  8
SLD-0
  6
CONTINUOUS
 62
   254
100
AcDbLine
 10
553.2242118099
 20
-166.7879569208
 30
0.0
 11
552.2812169695
 21
-168.3055507814
 31
0.0
  0
LINE
  5
8D
330
1F
100
AcDbEntity
  8
SLD-0
  6
CONTINUOUS
 62
   254
100
AcDbLine
 10
552.2812169695
 20
-168.3055507814
 30
0.0
 11
551.0404764393
 21
-169.65295848
 31
0.0
  0
LINE
  5
8E
330
1F
100
AcDbEntity
  8
SLD-0
  6
CONTINUOUS
 62
   254
100
AcDbLine
 10
551.0404764393
 20
-169.65295848
 30
0.0
 11
549.5418699177
 21
-170.7868325388
 31
0.0
  0
LINE
  5
8F
330
1F
100
AcDbEntity
  8
SLD-0
  6
CONTINUOUS
 62
   254
100
AcDbLine
 10
549.5418699177
 20
-170.7868325388
 30
0.0
 11
547.8335630798
 21
-171.6707545196
 31
0.0
  0
LINE
  5
90
330
1F
100
AcDbEntity
  8
SLD-0
  6
CONTINUOUS
 62
   254
100
AcDbLine
 10
547.8335630798
 20
-171.6707545196
 30
0.0
 11
545.9704627467
 21
-172.2763079082
 31
0.0
  0
LINE
  5
91
330
1F
100
AcDbEntity
  8
SLD-0
  6
CONTINUOUS
 62
   254
100
AcDbLine
 10
545.9704627467
 20
-172.2763079082
 30
0.0
 11
544.0124500494
 21
-172.584031788
 31
0.0
  0
LINE
  5
92
330
1F
100
AcDbEntity
  8
SLD-0
  6
CONTINUOUS
 62
   254
100
AcDbLine
 10
544.0124500494
 20
-172.584031788
 30
0.0
 11
542.0224574812
 21
-172.584031788
 31
0.0
  0
LINE
  5
93
330
1F
100
AcDbEntity
  8
SLD-0
  6
CONTINUOUS
 62
   254
100
AcDbLine
 10
542.0224574812
 20
-172.584031788
 30
0.0
 11
540.0644447839
 21
-172.2763079082
 31
0.0
  0
LINE
  5
94
330
1F
100
AcDbEntity
  8
SLD-0
  6
CONTINUOUS
 62
   254
100
AcDbLine
 10
540.0644447839
 20
-172.2763079082
 30
0.0
 11
538.2013444507
 21
-171.6707545196
 31
0.0
  0
LINE
  5
95
330
1F
100
AcDbEntity
  8
SLD-0
  6
CONTINUOUS
 62
   254
100
AcDbLine
 10
538.2013444507
 20
-171.6707545196
 30
0.0
 11
536.4930376129
 21
-170.7868325388
 31
0.0
  0
LINE
  5
96
330
1F
100
AcDbEntity
  8
SLD-0
  6
CONTINUOUS
 62
   254
100
AcDbLine
 10
536.4930376129
 20
-170.7868325388
 30
0.0
 11
534.9944310913
 21
-169.65295848
 31
0.0
  0
LINE
  5
97
330
1F
100
AcDbEntity
  8
SLD-0
  6
CONTINUOUS
 62
   254
100
AcDbLine
 10
534.9944310913
 20
-169.65295848
 30
0.0
 11
533.7536905611
 21
-168.3055507814
 31
0.0
  0
LINE
  5
98
330
1F
100
AcDbEntity
  8
SLD-0
  6
CONTINUOUS
 62
   254
100
AcDbLine
 10
533.7536905611
 20
-168.3055507814
 30
0.0
 11
532.8106957206
 21
-166.7879569208
 31
0.0
  0
LINE
  5
99
330
1F
100
AcDbEntity
  8
SLD-0
  6
CONTINUOUS
 62
   254
100
AcDbLine
 10
532.8106957206
 20
-166.7879569208
 30
0.0
 11
532.1957536692
 21
-165.1489185964
 31
0.0
  0
LINE
  5
9A
330
1F
100
AcDbEntity
  8
SLD-0
  6
CONTINUOUS
 62
   254
100
AcDbLine
 10
532.1957536692
 20
-165.1489185964
 30
0.0
 11
531.928630797
 21
-163.4411263143
 31
0.0
  0
LINE
  5
9B
330
1F
100
AcDbEntity
  8
SLD-0
  6
CONTINUOUS
 62
   254
100
AcDbLine
 10
531.928630797
 20
-163.4411263143
 30
0.0
 11
532.0179111043
 21
-161.7194759523
 31
0.0
  0
LINE
  5
9C
330
1F
100
AcDbEntity
  8
SLD-0
  6
CONTINUOUS
 62
   254
100
AcDbLine
 10
532.0179111043
 20
-161.7194759523
 30
0.0
 11
532.4607261175
 21
-160.0393104231
 31
0.0
  0
LINE
  5
9D
330
1F
100
AcDbEntity
  8
SLD-0
  6
CONTINUOUS
 62
   254
100
AcDbLine
 10
532.4607261175
 20
-160.0393104231
 30
0.0
 11
533.2428433651
 21
-158.4546017324
 31
0.0
  0
LINE
  5
9E
330
1F
100
AcDbEntity
  8
SLD-0
  6
CONTINUOUS
 62
   254
100
AcDbLine
 10
533.2428433651
 20
-158.4546017324
 30
0.0
 11
534.3391245881
 21
-157.0163118517
 31
0.0
  0
LINE
  5
9F
330
1F
100
AcDbEntity
  8
SLD-0
  6
CONTINUOUS
 62
   254
100
AcDbLine
 10
534.3391245881
 20
-157.0163118517
 30
0.0
 11
535.7143341282
 21
-155.7706641828
 31
0.0
  0
LINE
  5
A0
330
1F
100
AcDbEntity
  8
SLD-0
  6
CONTINUOUS
 62
   254
100
AcDbLine
 10
535.7143341282
 20
-155.7706641828
 30
0.0
 11
537.3242718817
 21
-154.7576832449
 31
0.0
  0
LINE
  5
A1
330
1F
100
AcDbEntity
  8
SLD-0
  6
CONTINUOUS
 62
   254
100
AcDbLine
 10
537.3242718817
 20
-154.7576832449
 30
0.0
 11
539.1171933336
 21
-154.009928075
 31
0.0
  0
LINE
  5
A2
330
1F
100
AcDbEntity
  8
SLD-0
  6
CONTINUOUS
 62
   254
100
AcDbLine
 10
539.1171933336
 20
-154.009928075
 30
0.0
 11
541.035472201
 21
-153.5514491474
 31
0.0
  0
LINE
  5
A3
330
1F
100
AcDbEntity
  8
SLD-0
  6
CONTINUOUS
 62
   254
100
AcDbLine
 10
541.035472201
 20
-153.5514491474
 30
0.0
 11
543.0174537653
 21
-153.3969688093
 31
0.0
  0
LINE
  5
A4
330
1F
100
AcDbEntity
  8
SLD-0
  6
CONTINUOUS
 62
   254
100
AcDbLine
 10
543.0174537653
 20
-154.2629944956
 30
0.0
 11
544.8395973256
 21
-154.4184136068
 31
0.0
  0
LINE
  5
A5
330
1F
100
AcDbEntity
  8
SLD-0
  6
CONTINUOUS
 62
   254
100
AcDbLine
 10
544.8395973256
 20
-154.4184136068
 30
0.0
 11
546.5917170698
 21
-154.8787104761
 31
0.0
  0
LINE
  5
A6
330
1F
100
AcDbEntity
  8
SLD-0
  6
CONTINUOUS
 62
   254
100
AcDbLine
 10
546.5917170698
 20
-154.8787104761
 30
0.0
 11
548.2064795399
 21
-155.6261825239
 31
0.0
  0
LINE
  5
A7
330
1F
100
AcDbEntity
  8
SLD-0
  6
CONTINUOUS
 62
   254
100
AcDbLine
 10
548.2064795399
 20
-155.6261825239
 30
0.0
 11
549.6218309456
 21
-156.6321152126
 31
0.0
  0
LINE
  5
A8
330
1F
100
AcDbEntity
  8
SLD-0
  6
CONTINUOUS
 62
   254
100
AcDbLine
 10
549.6218309456
 20
-156.6321152126
 30
0.0
 11
550.7833797203
 21
-157.8578400289
 31
0.0
  0
LINE
  5
A9
330
1F
100
AcDbEntity
  8
SLD-0
  6
CONTINUOUS
 62
   254
100
AcDbLine
 10
550.7833797203
 20
-157.8578400289
 30
0.0
 11
551.6464889699
 21
-159.2562693035
 31
0.0
  0
LINE
  5
AA
330
1F
100
AcDbEntity
  8
SLD-0
  6
CONTINUOUS
 62
   254
100
AcDbLine
 10
551.6464889699
 20
-159.2562693035
 30
0.0
 11
552.177988244
 21
-160.7736545479
 31
0.0
  0
LINE
  5
AB
330
1F
100
AcDbEntity
  8
SLD-0
  6
CONTINUOUS
 62
   254
100
AcDbLine
 10
552.177988244
 20
-160.7736545479
 30
0.0
 11
552.3574541041
 21
-162.3516726171
 31
0.0
  0
LINE
  5
AC
330
1F
100
AcDbEntity
  8
SLD-0
  6
CONTINUOUS
 62
   254
100
AcDbLine
 10
552.3574541041
 20
-162.3516726171
 30
0.0
 11
552.177988244
 21
-163.9296906864
 31
0.0
  0
LINE
  5
AD
330
1F
100
AcDbEntity
  8
SLD-0
  6
CONTINUOUS
 62
   254
100
AcDbLine
 10
552.177988244
 20
-163.9296906864
 30
0.0
 11
551.6464889699
 21
-165.4470759308
 31
0.0
  0
LINE
  5
AE
330
1F
100
AcDbEntity
  8
SLD-0
  6
CONTINUOUS
 62
   254
100
AcDbLine
 10
551.6464889699
 20
-165.4470759308
 30
0.0
 11
550.7833797203
 21
-166.8455052053
 31
0.0
  0
LINE
  5
AF
330
1F
100
AcDbEntity
  8
SLD-0
  6
CONTINUOUS
 62
   254
100
AcDbLine
 10
550.7833797203
 20
-166.8455052053
 30
0.0
 11
549.6218309456
 21
-168.0712300216
 31
0.0
  0
LINE
  5
B0
330
1F
100
AcDbEntity
  8
SLD-0
  6
CONTINUOUS
 62
   254
100
AcDbLine
 10
549.6218309456
 20
-168.0712300216
 30
0.0
 11
548.2064795399
 21
-169.0771627104
 31
0.0
  0
LINE
  5
B1
330
1F
100
AcDbEntity
  8
SLD-0
  6
CONTINUOUS
 62
   254
100
AcDbLine
 10
548.2064795399
 20
-169.0771627104
 30
0.0
 11
546.5917170698
 21
-169.8246347582
 31
0.0
  0
LINE
  5
B2
330
1F
100
AcDbEntity
  8
SLD-0
  6
CONTINUOUS
 62
   254
100
AcDbLine
 10
546.5917170698
 20
-169.8246347582
 30
0.0
 11
544.8395973256
 21
-170.2849316274
 31
0.0
  0
LINE
  5
B3
330
1F
100
AcDbEntity
  8
SLD-0
  6
CONTINUOUS
 62
   254
100
AcDbLine
 10
544.8395973256
 20
-170.2849316274
 30
0.0
 11
543.0174537653
 21
-170.4403507387
 31
0.0
  0
LINE
  5
B4
330
1F
100
AcDbEntity
  8
SLD-0
  6
CONTINUOUS
 62
   254
100
AcDbLine
 10
543.0174537653
 20
-170.4403507387
 30
0.0
 11
541.195310205
 21
-170.2849316274
 31
0.0
  0
LINE
  5
B5
330
1F
100
AcDbEntity
  8
SLD-0
  6
CONTINUOUS
 62
   254
100
AcDbLine
 10
541.195310205
 20
-170.2849316274
 30
0.0
 11
539.4431904608
 21
-169.8246347582
 31
0.0
  0
LINE
  5
B6
330
1F
100
AcDbEntity
  8
SLD-0
  6
CONTINUOUS
 62
   254
100
AcDbLine
 10
539.4431904608
 20
-169.8246347582
 30
0.0
 11
537.8284279907
 21
-169.0771627104
 31
0.0
  0
LINE
  5
B7
330
1F
100
AcDbEntity
  8
SLD-0
  6
CONTINUOUS
 62
   254
100
AcDbLine
 10
537.8284279907
 20
-169.0771627104
 30
0.0
 11
536.4130765849
 21
-168.0712300216
 31
0.0
  0
LINE
  5
B8
330
1F
100
AcDbEntity
  8
SLD-0
  6
CONTINUOUS
 62
   254
100
AcDbLine
 10
536.4130765849
 20
-168.0712300216
 30
0.0
 11
535.2515278103
 21
-166.8455052053
 31
0.0
  0
LINE
  5
B9
330
1F
100
AcDbEntity
  8
SLD-0
  6
CONTINUOUS
 62
   254
100
AcDbLine
 10
535.2515278103
 20
-166.8455052053
 30
0.0
 11
534.3884185606
 21
-165.4470759308
 31
0.0
  0
LINE
  5
BA
330
1F
100
AcDbEntity
  8
SLD-0
  6
CONTINUOUS
 62
   254
100
AcDbLine
 10
534.3884185606
 20
-165.4470759308
 30
0.0
 11
533.8569192866
 21
-163.9296906864
 31
0.0
  0
LINE
  5
BB
330
1F
100
AcDbEntity
  8
SLD-0
  6
CONTINUOUS
 62
   254
100
AcDbLine
 10
533.8569192866
 20
-163.9296906864
 30
0.0
 11
533.6774534264
 21
-162.3516726171
 31
0.0
  0
LINE
  5
BC
330
1F
100
AcDbEntity
  8
SLD-0
  6
CONTINUOUS
 62
   254
100
AcDbLine
 10
533.6774534264
 20
-162.3516726171
 30
0.0
 11
533.8569192866
 21
-160.7736545479
 31
0.0
  0
LINE
  5
BD
330
1F
100
AcDbEntity
  8
SLD-0
  6
CONTINUOUS
 62
   254
100
AcDbLine
 10
533.8569192866
 20
-160.7736545479
 30
0.0
 11
534.3884185606
 21
-159.2562693035
 31
0.0
  0
LINE
  5
BE
330
1F
100
AcDbEntity
  8
SLD-0
  6
CONTINUOUS
 62
   254
100
AcDbLine
 10
534.3884185606
 20
-159.2562693035
 30
0.0
 11
535.2515278103
 21
-157.8578400289
 31
0.0
  0
LINE
  5
BF
330
1F
100
AcDbEntity
  8
SLD-0
  6
CONTINUOUS
 62
   254
100
AcDbLine
 10
535.2515278103
 20
-157.8578400289
 30
0.0
 11
536.4130765849
 21
-156.6321152126
 31
0.0
  0
LINE
  5
C0
330
1F
100
AcDbEntity
  8
SLD-0
  6
CONTINUOUS
 62
   254
100
AcDbLine
 10
536.4130765849
 20
-156.6321152126
 30
0.0
 11
537.8284279907
 21
-155.6261825239
 31
0.0
  0
LINE
  5
C1
330
1F
100
AcDbEntity
  8
SLD-0
  6
CONTINUOUS
 62
   254
100
AcDbLine
 10
537.8284279907
 20
-155.6261825239
 30
0.0
 11
539.4431904608
 21
-154.8787104761
 31
0.0
  0
LINE
  5
C2
330
1F
100
AcDbEntity
  8
SLD-0
  6
CONTINUOUS
 62
   254
100
AcDbLine
 10
539.4431904608
 20
-154.8787104761
 30
0.0
 11
541.195310205
 21
-154.4184136068
 31
0.0
  0
LINE
  5
C3
330
1F
100
AcDbEntity
  8
SLD-0
  6
CONTINUOUS
 62
   254
100
AcDbLine
 10
541.195310205
 20
-154.4184136068
 30
0.0
 11
543.0174537653
 21
-154.2629944956
 31
0.0
  0
LINE
  5
C4
330
1F
100
AcDbEntity
  8
SLD-0
  6
CONTINUOUS
 62
   254
100
AcDbLine
 10
567.0174539739
 20
-342.2098505174
 30
0.0
 11
519.0174535567
 21
-342.2098505174
 31
0.0
  0
LINE
  5
C5
330
1F
100
AcDbEntity
  8
SLD-0
  6
CONTINUOUS
 62
   254
100
AcDbLine
 10
567.0174539739
 20
-346.2098507074
 30
0.0
 11
519.0174535567
 21
-346.2098507074
 31
0.0
  0
LINE
  5
C6
330
1F
100
AcDbEntity
  8
SLD-0
  6
CONTINUOUS
 62
   254
100
AcDbLine
 10
522.9728010202
 20
-82.9153406297
 30
0.0
 11
523.3423386419
 21
-82.8913795625
 31
0.0
  0
LINE
  5
C7
330
1F
100
AcDbEntity
  8
SLD-0
  6
CONTINUOUS
 62
   254
100
AcDbLine
 10
523.3423386419
 20
-82.8913795625
 30
0.0
 11
524.085683068
 21
-82.8680741464
 31
0.0
  0
LINE
  5
C8
330
1F
100
AcDbEntity
  8
SLD-0
  6
CONTINUOUS
 62
   254
100
AcDbLine
 10
524.085683068
 20
-82.8680741464
 30
0.0
 11
525.1886483932
 21
-82.8458416139
 31
0.0
  0
LINE
  5
C9
330
1F
100
AcDbEntity
  8
SLD-0
  6
CONTINUOUS
 62
   254
100
AcDbLine
 10
525.1886483932
 20
-82.8458416139
 30
0.0
 11
526.6301867271
 21
-82.8250693952
 31
0.0
  0
LINE
  5
CA
330
1F
100
AcDbEntity
  8
SLD-0
  6
CONTINUOUS
 62
   254
100
AcDbLine
 10
526.6301867271
 20
-82.8250693952
 30
0.0
 11
528.3827895948
 21
-82.8062045252
 31
0.0
  0
LINE
  5
CB
330
1F
100
AcDbEntity
  8
SLD-0
  6
CONTINUOUS
 62
   254
100
AcDbLine
 10
528.3827895948
 20
-82.8062045252
 30
0.0
 11
530.4130104089
 21
-82.7896046316
 31
0.0
  0
LINE
  5
CC
330
1F
100
AcDbEntity
  8
SLD-0
  6
CONTINUOUS
 62
   254
100
AcDbLine
 10
530.4130104089
 20
-82.7896046316
 30
0.0
 11
532.6821070814
 21
-82.7755379354
 31
0.0
  0
LINE
  5
CD
330
1F
100
AcDbEntity
  8
SLD-0
  6
CONTINUOUS
 62
   254
100
AcDbLine
 10
532.6821070814
 20
-82.7755379354
 30
0.0
 11
535.146776838
 21
-82.7643322622
 31
0.0
  0
LINE
  5
CE
330
1F
100
AcDbEntity
  8
SLD-0
  6
CONTINUOUS
 62
   254
100
AcDbLine
 10
535.146776838
 20
-82.7643322622
 30
0.0
 11
537.7599864917
 21
-82.7561664259
 31
0.0
  0
LINE
  5
CF
330
1F
100
AcDbEntity
  8
SLD-0
  6
CONTINUOUS
 62
   254
100
AcDbLine
 10
537.7599864917
 20
-82.7561664259
 30
0.0
 11
540.4718667453
 21
-82.751189438
 31
0.0
  0
LINE
  5
D0
330
1F
100
AcDbEntity
  8
SLD-0
  6
CONTINUOUS
 62
   254
100
AcDbLine
 10
540.4718667453
 20
-82.751189438
 30
0.0
 11
543.2306666082
 21
-82.749520508
 31
0.0
  0
LINE
  5
D1
330
1F
100
AcDbEntity
  8
SLD-0
  6
CONTINUOUS
 62
   254
100
AcDbLine
 10
543.2306666082
 20
-82.749520508
 30
0.0
 11
545.98373875
 21
-82.751189438
 31
0.0
  0
LINE
  5
D2
330
1F
100
AcDbEntity
  8
SLD-0
  6
CONTINUOUS
 62
   254
100
AcDbLine
 10
545.98373875
 20
-82.751189438
 30
0.0
 11
548.6785455325
 21
-82.7561664259
 31
0.0
  0
LINE
  5
D3
330
1F
100
AcDbEntity
  8
SLD-0
  6
CONTINUOUS
 62
   254
100
AcDbLine
 10
548.6785455325
 20
-82.7561664259
 30
0.0
 11
551.2636613751
 21
-82.7643322622
 31
0.0
  0
LINE
  5
D4
330
1F
100
AcDbEntity
  8
SLD-0
  6
CONTINUOUS
 62
   254
100
AcDbLine
 10
551.2636613751
 20
-82.7643322622
 30
0.0
 11
553.689753888
 21
-82.7755379354
 31
0.0
  0
LINE
  5
D5
330
1F
100
AcDbEntity
  8
SLD-0
  6
CONTINUOUS
 62
   254
100
AcDbLine
 10
553.689753888
 20
-82.7755379354
 30
0.0
 11
555.9105251634
 21
-82.7896046316
 31
0.0
  0
LINE
  5
D6
330
1F
100
AcDbEntity
  8
SLD-0
  6
CONTINUOUS
 62
   254
100
AcDbLine
 10
555.9105251634
 20
-82.7896046316
 30
0.0
 11
557.8835953677
 21
-82.8062045252
 31
0.0
  0
LINE
  5
D7
330
1F
100
AcDbEntity
  8
SLD-0
  6
CONTINUOUS
 62
   254
100
AcDbLine
 10
557.8835953677
 20
-82.8062045252
 30
0.0
 11
559.5713120604
 21
-82.8250693952
 31
0.0
  0
LINE
  5
D8
330
1F
100
AcDbEntity
  8
SLD-0
  6
CONTINUOUS
 62
   254
100
AcDbLine
 10
559.5713120604
 20
-82.8250693952
 30
0.0
 11
560.9414682442
 21
-82.8458416139
 31
0.0
  0
LINE
  5
D9
330
1F
100
AcDbEntity
  8
SLD-0
  6
CONTINUOUS
 62
   254
100
AcDbLine
 10
560.9414682442
 20
-82.8458416139
 30
0.0
 11
561.9679161066
 21
-82.8680741464
 31
0.0
  0
LINE
  5
DA
330
1F
100
AcDbEntity
  8
SLD-0
  6
CONTINUOUS
 62
   254
100
AcDbLine
 10
561.9679161066
 20
-82.8680741464
 30
0.0
 11
562.6310680711
 21
-82.8913795625
 31
0.0
  0
LINE
  5
DB
330
1F
100
AcDbEntity
  8
SLD-0
  6
CONTINUOUS
 62
   254
100
AcDbLine
 10
562.6310680711
 20
-82.8913795625
 30
0.0
 11
562.9182711893
 21
-82.9153406297
 31
0.0
  0
LINE
  5
DC
330
1F
100
AcDbEntity
  8
SLD-0
  6
CONTINUOUS
 62
   254
100
AcDbLine
 10
522.9242437238
 20
-34.9285053884
 30
0.0
 11
522.9912002289
 21
-34.914230076
 31
0.0
  0
LINE
  5
DD
330
1F
100
AcDbEntity
  8
SLD-0
  6
CONTINUOUS
 62
   254
100
AcDbLine
 10
522.9912002289
 20
-34.914230076
 30
0.0
 11
523.3869992846
 21
-34.8911332762
 31
0.0
  0
LINE
  5
DE
330
1F
100
AcDbEntity
  8
SLD-0
  6
CONTINUOUS
 62
   254
100
AcDbLine
 10
523.3869992846
 20
-34.8911332762
 30
0.0
 11
524.1314408088
 21
-34.8686325227
 31
0.0
  0
LINE
  5
DF
330
1F
100
AcDbEntity
  8
SLD-0
  6
CONTINUOUS
 62
   254
100
AcDbLine
 10
524.1314408088
 20
-34.8686325227
 30
0.0
 11
525.2112422788
 21
-34.8471748506
 31
0.0
  0
LINE
  5
E0
330
1F
100
AcDbEntity
  8
SLD-0
  6
CONTINUOUS
 62
   254
100
AcDbLine
 10
525.2112422788
 20
-34.8471748506
 30
0.0
 11
526.6071309054
 21
-34.8271178877
 31
0.0
  0
LINE
  5
E1
330
1F
100
AcDbEntity
  8
SLD-0
  6
CONTINUOUS
 62
   254
100
AcDbLine
 10
526.6071309054
 20
-34.8271178877
 30
0.0
 11
528.2941984663
 21
-34.8088192617
 31
0.0
  0
LINE
  5
E2
330
1F
100
AcDbEntity
  8
SLD-0
  6
CONTINUOUS
 62
   254
100
AcDbLine
 10
528.2941984663
 20
-34.8088192617
 30
0.0
 11
530.2423408905
 21
-34.7926067983
 31
0.0
  0
LINE
  5
E3
330
1F
100
AcDbEntity
  8
SLD-0
  6
CONTINUOUS
 62
   254
100
AcDbLine
 10
530.2423408905
 20
-34.7926067983
 30
0.0
 11
532.416790975
 21
-34.7787785207
 31
0.0
  0
LINE
  5
E4
330
1F
100
AcDbEntity
  8
SLD-0
  6
CONTINUOUS
 62
   254
100
AcDbLine
 10
532.416790975
 20
-34.7787785207
 30
0.0
 11
534.7787479589
 21
-34.7675728475
 31
0.0
  0
LINE
  5
E5
330
1F
100
AcDbEntity
  8
SLD-0
  6
CONTINUOUS
 62
   254
100
AcDbLine
 10
534.7787479589
 20
-34.7675728475
 30
0.0
 11
537.2860606478
 21
-34.7591983949
 31
0.0
  0
LINE
  5
E6
330
1F
100
AcDbEntity
  8
SLD-0
  6
CONTINUOUS
 62
   254
100
AcDbLine
 10
537.2860606478
 20
-34.7591983949
 30
0.0
 11
539.8939871413
 21
-34.7537743723
 31
0.0
  0
LINE
  5
E7
330
1F
100
AcDbEntity
  8
SLD-0
  6
CONTINUOUS
 62
   254
100
AcDbLine
 10
539.8939871413
 20
-34.7537743723
 30
0.0
 11
542.5559884936
 21
-34.7514497911
 31
0.0
  0
LINE
  5
E8
330
1F
100
AcDbEntity
  8
SLD-0
  6
CONTINUOUS
 62
   254
100
AcDbLine
 10
542.5559884936
 20
-34.7514497911
 30
0.0
 11
545.2245613744
 21
-34.7522246515
 31
0.0
  0
LINE
  5
E9
330
1F
100
AcDbEntity
  8
SLD-0
  6
CONTINUOUS
 62
   254
100
AcDbLine
 10
545.2245613744
 20
-34.7522246515
 30
0.0
 11
547.8520852232
 21
-34.7560989534
 31
0.0
  0
LINE
  5
EA
330
1F
100
AcDbEntity
  8
SLD-0
  6
CONTINUOUS
 62
   254
100
AcDbLine
 10
547.8520852232
 20
-34.7560989534
 30
0.0
 11
550.391671499
 21
-34.7630130922
 31
0.0
  0
LINE
  5
EB
330
1F
100
AcDbEntity
  8
SLD-0
  6
CONTINUOUS
 62
   254
100
AcDbLine
 10
550.391671499
 20
-34.7630130922
 30
0.0
 11
552.7980013469
 21
-34.7728180563
 31
0.0
  0
LINE
  5
EC
330
1F
100
AcDbEntity
  8
SLD-0
  6
CONTINUOUS
 62
   254
100
AcDbLine
 10
552.7980013469
 20
-34.7728180563
 30
0.0
 11
555.0281333456
 21
-34.785364834
 31
0.0
  0
LINE
  5
ED
330
1F
100
AcDbEntity
  8
SLD-0
  6
CONTINUOUS
 62
   254
100
AcDbLine
 10
555.0281333456
 20
-34.785364834
 30
0.0
 11
557.0422711501
 21
-34.8004150068
 31
0.0
  0
LINE
  5
EE
330
1F
100
AcDbEntity
  8
SLD-0
  6
CONTINUOUS
 62
   254
100
AcDbLine
 10
557.0422711501
 20
-34.8004150068
 30
0.0
 11
558.8044722283
 21
-34.8177301561
 31
0.0
  0
LINE
  5
EF
330
1F
100
AcDbEntity
  8
SLD-0
  6
CONTINUOUS
 62
   254
100
AcDbLine
 10
558.8044722283
 20
-34.8177301561
 30
0.0
 11
560.2832914049
 21
-34.8369526541
 31
0.0
  0
LINE
  5
F0
330
1F
100
AcDbEntity
  8
SLD-0
  6
CONTINUOUS
 62
   254
100
AcDbLine
 10
560.2832914049
 20
-34.8369526541
 30
0.0
 11
561.4523377919
 21
-34.8577546751
 31
0.0
  0
LINE
  5
F1
330
1F
100
AcDbEntity
  8
SLD-0
  6
CONTINUOUS
 62
   254
100
AcDbLine
 10
561.4523377919
 20
-34.8577546751
 30
0.0
 11
562.2907497639
 21
-34.8797785913
 31
0.0
  0
LINE
  5
F2
330
1F
100
AcDbEntity
  8
SLD-0
  6
CONTINUOUS
 62
   254
100
AcDbLine
 10
562.2907497639
 20
-34.8797785913
 30
0.0
 11
562.7835646922
 21
-34.9026071703
 31
0.0
  0
LINE
  5
F3
330
1F
100
AcDbEntity
  8
SLD-0
  6
CONTINUOUS
 62
   254
100
AcDbLine
 10
562.7835646922
 20
-34.9026071703
 30
0.0
 11
562.9242428297
 21
-34.9232601797
 31
0.0
  0
LINE
  5
F4
330
1F
100
AcDbEntity
  8
SLD-0
  6
CONTINUOUS
 62
   254
100
AcDbLine
 10
561.1660659963
 20
-82.9153406297
 30
0.0
 11
562.9182711893
 21
-82.9153406297
 31
0.0
  0
LINE
  5
F5
330
1F
100
AcDbEntity
  8
SLD-0
  6
CONTINUOUS
 62
   254
100
AcDbLine
 10
561.1660659963
 20
-82.9153406297
 30
0.0
 11
560.8718183541
 21
-82.8925418531
 31
0.0
  0
LINE
  5
F6
330
1F
100
AcDbEntity
  8
SLD-0
  6
CONTINUOUS
 62
   254
100
AcDbLine
 10
560.8718183541
 20
-82.8925418531
 30
0.0
 11
560.2042314315
 21
-82.8703987276
 31
0.0
  0
LINE
  5
F7
330
1F
100
AcDbEntity
  8
SLD-0
  6
CONTINUOUS
 62
   254
100
AcDbLine
 10
560.2042314315
 20
-82.8703987276
 30
0.0
 11
559.1771968359
 21
-82.8493880903
 31
0.0
  0
LINE
  5
F8
330
1F
100
AcDbEntity
  8
SLD-0
  6
CONTINUOUS
 62
   254
100
AcDbLine
 10
559.1771968359
 20
-82.8493880903
 30
0.0
 11
557.8120856264
 21
-82.8299271738
 31
0.0
  0
LINE
  5
F9
330
1F
100
AcDbEntity
  8
SLD-0
  6
CONTINUOUS
 62
   254
100
AcDbLine
 10
557.8120856264
 20
-82.8299271738
 30
0.0
 11
556.137304073
 21
-82.8124332105
 31
0.0
  0
LINE
  5
FA
330
1F
100
AcDbEntity
  8
SLD-0
  6
CONTINUOUS
 62
   254
100
AcDbLine
 10
556.137304073
 20
-82.8124332105
 30
0.0
 11
554.1877031976
 21
-82.7972340261
 31
0.0
  0
LINE
  5
FB
330
1F
100
AcDbEntity
  8
SLD-0
  6
CONTINUOUS
 62
   254
100
AcDbLine
 10
554.1877031976
 20
-82.7972340261
 30
0.0
 11
552.003852343
 21
-82.7846872484
 31
0.0
  0
LINE
  5
FC
330
1F
100
AcDbEntity
  8
SLD-0
  6
CONTINUOUS
 62
   254
100
AcDbLine
 10
552.003852343
 20
-82.7846872484
 30
0.0
 11
549.6311953941
 21
-82.7750610983
 31
0.0
  0
LINE
  5
FD
330
1F
100
AcDbEntity
  8
SLD-0
  6
CONTINUOUS
 62
   254
100
AcDbLine
 10
549.6311953941
 20
-82.7750610983
 30
0.0
 11
547.119104089
 21
-82.7685045873
 31
0.0
  0
LINE
  5
FE
330
1F
100
AcDbEntity
  8
SLD-0
  6
CONTINUOUS
 62
   254
100
AcDbLine
 10
547.119104089
 20
-82.7685045873
 30
0.0
 11
544.5198529817
 21
-82.7652263319
 31
0.0
  0
LINE
  5
FF
330
1F
100
AcDbEntity
  8
SLD-0
  6
CONTINUOUS
 62
   254
100
AcDbLine
 10
544.5198529817
 20
-82.7652263319
 30
0.0
 11
541.887529562
 21
-82.7652263319
 31
0.0
  0
LINE
  5
100
330
1F
100
AcDbEntity
  8
SLD-0
  6
CONTINUOUS
 62
   254
100
AcDbLine
 10
541.887529562
 20
-82.7652263319
 30
0.0
 11
539.2769100329
 21
-82.7685045873
 31
0.0
  0
LINE
  5
101
330
1F
100
AcDbEntity
  8
SLD-0
  6
CONTINUOUS
 62
   254
100
AcDbLine
 10
539.2769100329
 20
-82.7685045873
 30
0.0
 11
536.7423182072
 21
-82.7750610983
 31
0.0
  0
LINE
  5
102
330
1F
100
AcDbEntity
  8
SLD-0
  6
CONTINUOUS
 62
   254
100
AcDbLine
 10
536.7423182072
 20
-82.7750610983
 30
0.0
 11
534.3364973271
 21
-82.7846872484
 31
0.0
  0
LINE
  5
103
330
1F
100
AcDbEntity
  8
SLD-0
  6
CONTINUOUS
 62
   254
100
AcDbLine
 10
534.3364973271
 20
-82.7846872484
 30
0.0
 11
532.1095085421
 21
-82.7972340261
 31
0.0
  0
LINE
  5
104
330
1F
100
AcDbEntity
  8
SLD-0
  6
CONTINUOUS
 62
   254
100
AcDbLine
 10
532.1095085421
 20
-82.7972340261
 30
0.0
 11
530.1076949293
 21
-82.8124332105
 31
0.0
  0
LINE
  5
105
330
1F
100
AcDbEntity
  8
SLD-0
  6
CONTINUOUS
 62
   254
100
AcDbLine
 10
530.1076949293
 20
-82.8124332105
 30
0.0
 11
528.3727108219
 21
-82.8299271738
 31
0.0
  0
LINE
  5
106
330
1F
100
AcDbEntity
  8
SLD-0
  6
CONTINUOUS
 62
   254
100
AcDbLine
 10
528.3727108219
 20
-82.8299271738
 30
0.0
 11
526.9406598711
 21
-82.8493880903
 31
0.0
  0
LINE
  5
107
330
1F
100
AcDbEntity
  8
SLD-0
  6
CONTINUOUS
 62
   254
100
AcDbLine
 10
526.9406598711
 20
-82.8493880903
 30
0.0
 11
525.8413416052
 21
-82.8703987276
 31
0.0
  0
LINE
  5
108
330
1F
100
AcDbEntity
  8
SLD-0
  6
CONTINUOUS
 62
   254
100
AcDbLine
 10
525.8413416052
 20
-82.8703987276
 30
0.0
 11
525.0976321006
 21
-82.8925418531
 31
0.0
  0
LINE
  5
109
330
1F
100
AcDbEntity
  8
SLD-0
  6
CONTINUOUS
 62
   254
100
AcDbLine
 10
525.0976321006
 20
-82.8925418531
 30
0.0
 11
524.7250062132
 21
-82.9153406297
 31
0.0
  0
LINE
  5
10A
330
1F
100
AcDbEntity
  8
SLD-0
  6
CONTINUOUS
 62
   254
100
AcDbLine
 10
522.9728010202
 20
-82.9153406297
 30
0.0
 11
524.7250062132
 21
-82.9153406297
 31
0.0
  0
LINE
  5
10B
330
1F
100
AcDbEntity
  8
SLD-0
  6
CONTINUOUS
 62
   254
100
AcDbLine
 10
563.0174533183
 20
-84.2098641073
 30
0.0
 11
523.0174542123
 21
-84.2098641073
 31
0.0
  0
LINE
  5
10C
330
1F
100
AcDbEntity
  8
SLD-0
  6
CONTINUOUS
 62
   254
100
AcDbLine
 10
759.0736513269
 20
-171.6505932485
 30
0.0
 11
759.7898532879
 21
-171.2370860254
 31
0.0
  0
LINE
  5
10D
330
1F
100
AcDbEntity
  8
SLD-0
  6
CONTINUOUS
 62
   254
100
AcDbLine
 10
750.2898563873
 20
-154.7826128875
 30
0.0
 11
749.5736544263
 21
-155.1961052095
 31
0.0
  0
LINE
  5
10E
330
1F
100
AcDbEntity
  8
SLD-0
  6
CONTINUOUS
 62
   254
100
AcDbLine
 10
853.4203425588
 20
-93.3926754258
 30
0.0
 11
749.4898577463
 21
-153.3969688093
 31
0.0
  0
LINE
  5
10F
330
1F
100
AcDbEntity
  8
SLD-0
  6
CONTINUOUS
 62
   254
100
AcDbLine
 10
760.5898593795
 20
-172.6227301037
 30
0.0
 11
853.4203422498
 21
-119.0270232832
 31
0.0
  0
LINE
  5
110
330
1F
100
AcDbEntity
  8
SLD-0
  6
CONTINUOUS
 62
   254
100
AcDbLine
 10
853.5765918028
 20
-346.5973505174
 30
0.0
 11
893.2640918028
 21
-346.5973505174
 31
0.0
  0
LINE
  5
111
330
1F
100
AcDbEntity
  8
SLD-0
  6
CONTINUOUS
 62
   254
100
AcDbLine
 10
897.4203420114
 20
-346.2098507074
 30
0.0
 11
897.4203420114
 21
-342.2098505174
 31
0.0
  0
LINE
  5
112
330
1F
100
AcDbEntity
  8
SLD-0
  6
CONTINUOUS
 62
   254
100
AcDbLine
 10
849.4203415942
 20
-342.2098505174
 30
0.0
 11
849.4203415942
 21
-346.2098507074
 31
0.0
  0
LINE
  5
113
330
1F
100
AcDbEntity
  8
SLD-0
  6
CONTINUOUS
 62
   254
100
AcDbLine
 10
892.9762290102
 20
-73.3075189268
 30
0.0
 11
893.3096201402
 21
-35.100405184
 31
0.0
  0
LINE
  5
114
330
1F
100
AcDbEntity
  8
SLD-0
  6
CONTINUOUS
 62
   254
100
AcDbLine
 10
853.3111428153
 20
-34.7513603842
 30
0.0
 11
852.8923158776
 21
-82.7495503103
 31
0.0
  0
LINE
  5
115
330
1F
100
AcDbEntity
  8
SLD-0
  6
CONTINUOUS
 62
   254
100
AcDbLine
 10
855.8992323708
 20
-82.7766406214
 30
0.0
 11
855.7827127409
 21
-83.0916809713
 31
0.0
  0
LINE
  5
116
330
1F
100
AcDbEntity
  8
SLD-0
  6
CONTINUOUS
 62
   254
100
AcDbLine
 10
855.7827127409
 20
-83.0916809713
 30
0.0
 11
855.4203425777
 21
-84.2098641073
 31
0.0
  0
LINE
  5
117
330
1F
100
AcDbEntity
  8
SLD-0
  6
CONTINUOUS
 62
   254
100
AcDbLine
 10
893.4203416647
 20
-342.2098510526
 30
0.0
 11
893.4203416647
 21
-84.2098646424
 31
0.0
  0
LINE
  5
118
330
1F
100
AcDbEntity
  8
SLD-0
  6
CONTINUOUS
 62
   254
100
AcDbLine
 10
853.4203422498
 20
-119.0270232832
 30
0.0
 11
853.4203422498
 21
-342.2098505174
 31
0.0
  0
LINE
  5
119
330
1F
100
AcDbEntity
  8
SLD-0
  6
CONTINUOUS
 62
   254
100
AcDbLine
 10
853.4203425588
 20
-84.2098646424
 30
0.0
 11
853.4203425588
 21
-93.3926754258
 31
0.0
  0
LINE
  5
11A
330
1F
100
AcDbEntity
  8
SLD-0
  6
CONTINUOUS
 62
   254
100
AcDbLine
 10
759.7647969853
 20
-171.193693844
 30
0.0
 11
759.0485950243
 21
-171.607186166
 31
0.0
  0
LINE
  5
11B
330
1F
100
AcDbEntity
  8
SLD-0
  6
CONTINUOUS
 62
   254
100
AcDbLine
 10
759.0601806771
 20
-169.9732589399
 30
0.0
 11
758.3439787161
 21
-170.3867512619
 31
0.0
  0
LINE
  5
11C
330
1F
100
AcDbEntity
  8
SLD-0
  6
CONTINUOUS
 62
   254
100
AcDbLine
 10
758.3439787161
 20
-170.3867512619
 30
0.0
 11
758.2374056112
 21
-170.2021705782
 31
0.0
  0
LINE
  5
11D
330
1F
100
AcDbEntity
  8
SLD-0
  6
CONTINUOUS
 62
   254
100
AcDbLine
 10
758.2374056112
 20
-170.2021705782
 30
0.0
 11
758.1243132484
 21
-170.0062948143
 31
0.0
  0
LINE
  5
11E
330
1F
100
AcDbEntity
  8
SLD-0
  6
CONTINUOUS
 62
   254
100
AcDbLine
 10
758.1243132484
 20
-170.0062948143
 30
0.0
 11
758.0048953425
 21
-169.7994517957
 31
0.0
  0
LINE
  5
11F
330
1F
100
AcDbEntity
  8
SLD-0
  6
CONTINUOUS
 62
   254
100
AcDbLine
 10
758.0048953425
 20
-169.7994517957
 30
0.0
 11
757.8793456089
 21
-169.5819991504
 31
0.0
  0
LINE
  5
120
330
1F
100
AcDbEntity
  8
SLD-0
  6
CONTINUOUS
 62
   254
100
AcDbLine
 10
757.8793456089
 20
-169.5819991504
 30
0.0
 11
757.7478726637
 21
-169.3542796051
 31
0.0
  0
LINE
  5
121
330
1F
100
AcDbEntity
  8
SLD-0
  6
CONTINUOUS
 62
   254
100
AcDbLine
 10
757.7478726637
 20
-169.3542796051
 30
0.0
 11
757.6107000243
 21
-169.1166805898
 31
0.0
  0
LINE
  5
122
330
1F
100
AcDbEntity
  8
SLD-0
  6
CONTINUOUS
 62
   254
100
AcDbLine
 10
757.6107000243
 20
-169.1166805898
 30
0.0
 11
757.4680437576
 21
-168.8695895349
 31
0.0
  0
LINE
  5
123
330
1F
100
AcDbEntity
  8
SLD-0
  6
CONTINUOUS
 62
   254
100
AcDbLine
 10
757.4680437576
 20
-168.8695895349
 30
0.0
 11
757.3201571834
 21
-168.613438574
 31
0.0
  0
LINE
  5
124
330
1F
100
AcDbEntity
  8
SLD-0
  6
CONTINUOUS
 62
   254
100
AcDbLine
 10
758.0363591444
 20
-168.199946252
 30
0.0
 11
757.3201571834
 21
-168.613438574
 31
0.0
  0
LINE
  5
125
330
1F
100
AcDbEntity
  8
SLD-0
  6
CONTINUOUS
 62
   254
100
AcDbLine
 10
756.0938661229
 20
-164.8354577696
 30
0.0
 11
755.3776641619
 21
-165.2489500915
 31
0.0
  0
LINE
  5
126
330
1F
100
AcDbEntity
  8
SLD-0
  6
CONTINUOUS
 62
   254
100
AcDbLine
 10
755.3776641619
 20
-165.2489500915
 30
0.0
 11
755.1878010165
 21
-164.9200963651
 31
0.0
  0
LINE
  5
127
330
1F
100
AcDbEntity
  8
SLD-0
  6
CONTINUOUS
 62
   254
100
AcDbLine
 10
755.1878010165
 20
-164.9200963651
 30
0.0
 11
754.9964999091
 21
-164.5887541448
 31
0.0
  0
LINE
  5
128
330
1F
100
AcDbEntity
  8
SLD-0
  6
CONTINUOUS
 62
   254
100
AcDbLine
 10
754.9964999091
 20
-164.5887541448
 30
0.0
 11
754.804073764
 21
-164.2554747736
 31
0.0
  0
LINE
  5
129
330
1F
100
AcDbEntity
  8
SLD-0
  6
CONTINUOUS
 62
   254
100
AcDbLine
 10
754.804073764
 20
-164.2554747736
 30
0.0
 11
754.6108504068
 21
-163.9207946932
 31
0.0
  0
LINE
  5
12A
330
1F
100
AcDbEntity
  8
SLD-0
  6
CONTINUOUS
 62
   254
100
AcDbLine
 10
754.6108504068
 20
-163.9207946932
 30
0.0
 11
754.4171502125
 21
-163.5852950489
 31
0.0
  0
LINE
  5
12B
330
1F
100
AcDbEntity
  8
SLD-0
  6
CONTINUOUS
 62
   254
100
AcDbLine
 10
754.4171502125
 20
-163.5852950489
 30
0.0
 11
754.2232935559
 21
-163.2495271837
 31
0.0
  0
LINE
  5
12C
330
1F
100
AcDbEntity
  8
SLD-0
  6
CONTINUOUS
 62
   254
100
AcDbLine
 10
754.2232935559
 20
-163.2495271837
 30
0.0
 11
754.0296082627
 21
-162.9140424406
 31
0.0
  0
LINE
  5
12D
330
1F
100
AcDbEntity
  8
SLD-0
  6
CONTINUOUS
 62
   254
100
AcDbLine
 10
754.0296082627
 20
-162.9140424406
 30
0.0
 11
753.8364072573
 21
-162.5794070636
 31
0.0
  0
LINE
  5
12E
330
1F
100
AcDbEntity
  8
SLD-0
  6
CONTINUOUS
 62
   254
100
AcDbLine
 10
754.5526092183
 20
-162.1659147417
 30
0.0
 11
753.8364072573
 21
-162.5794070636
 31
0.0
  0
LINE
  5
12F
330
1F
100
AcDbEntity
  8
SLD-0
  6
CONTINUOUS
 62
   254
100
AcDbLine
 10
752.5101294052
 20
-158.6282449638
 30
0.0
 11
751.7939274442
 21
-159.0417372858
 31
0.0
  0
LINE
  5
130
330
1F
100
AcDbEntity
  8
SLD-0
  6
CONTINUOUS
 62
   254
100
AcDbLine
 10
751.7939274442
 20
-159.0417372858
 30
0.0
 11
751.6319890749
 21
-158.7612527286
 31
0.0
  0
LINE
  5
131
330
1F
100
AcDbEntity
  8
SLD-0
  6
CONTINUOUS
 62
   254
100
AcDbLine
 10
751.6319890749
 20
-158.7612527286
 30
0.0
 11
751.4745359551
 21
-158.4885465776
 31
0.0
  0
LINE
  5
132
330
1F
100
AcDbEntity
  8
SLD-0
  6
CONTINUOUS
 62
   254
100
AcDbLine
 10
751.4745359551
 20
-158.4885465776
 30
0.0
 11
751.3218288552
 21
-158.2240360653
 31
0.0
  0
LINE
  5
133
330
1F
100
AcDbEntity
  8
SLD-0
  6
CONTINUOUS
 62
   254
100
AcDbLine
 10
751.3218288552
 20
-158.2240360653
 30
0.0
 11
751.1741210949
 21
-157.9681980287
 31
0.0
  0
LINE
  5
134
330
1F
100
AcDbEntity
  8
SLD-0
  6
CONTINUOUS
 62
   254
100
AcDbLine
 10
751.1741210949
 20
-157.9681980287
 30
0.0
 11
751.0316585433
 21
-157.7214497005
 31
0.0
  0
LINE
  5
135
330
1F
100
AcDbEntity
  8
SLD-0
  6
CONTINUOUS
 62
   254
100
AcDbLine
 10
751.0316585433
 20
-157.7214497005
 30
0.0
 11
750.894679619
 21
-157.484193412
 31
0.0
  0
LINE
  5
136
330
1F
100
AcDbEntity
  8
SLD-0
  6
CONTINUOUS
 62
   254
100
AcDbLine
 10
750.894679619
 20
-157.484193412
 30
0.0
 11
750.7634152901
 21
-157.2568314945
 31
0.0
  0
LINE
  5
137
330
1F
100
AcDbEntity
  8
SLD-0
  6
CONTINUOUS
 62
   254
100
AcDbLine
 10
750.7634152901
 20
-157.2568314945
 30
0.0
 11
750.6380741727
 21
-157.0397513782
 31
0.0
  0
LINE
  5
138
330
1F
100
AcDbEntity
  8
SLD-0
  6
CONTINUOUS
 62
   254
100
AcDbLine
 10
751.3542761337
 20
-156.6262441551
 30
0.0
 11
750.6380741727
 21
-157.0397513782
 31
0.0
  0
LINE
  5
139
330
1F
100
AcDbEntity
  8
SLD-0
  6
CONTINUOUS
 62
   254
100
AcDbLine
 10
750.4082759153
 20
-154.9877124702
 30
0.0
 11
749.6920739543
 21
-155.4012196933
 31
0.0
  0
LINE
  5
13A
330
1F
100
AcDbEntity
  8
SLD-0
  6
CONTINUOUS
 62
   254
100
AcDbLine
 10
749.6920739543
 20
-155.4012196933
 30
0.0
 11
749.6529211533
 21
-155.3334045088
 31
0.0
  0
LINE
  5
13B
330
1F
100
AcDbEntity
  8
SLD-0
  6
CONTINUOUS
 62
   254
100
AcDbLine
 10
749.6529211533
 20
-155.3334045088
 30
0.0
 11
749.6215467584
 21
-155.279074875
 31
0.0
  0
LINE
  5
13C
330
1F
100
AcDbEntity
  8
SLD-0
  6
CONTINUOUS
 62
   254
100
AcDbLine
 10
749.6215467584
 20
-155.279074875
 30
0.0
 11
749.5980103743
 21
-155.238305298
 31
0.0
  0
LINE
  5
13D
330
1F
100
AcDbEntity
  8
SLD-0
  6
CONTINUOUS
 62
   254
100
AcDbLine
 10
749.5980103743
 20
-155.238305298
 30
0.0
 11
749.5823418033
 21
-155.2111553823
 31
0.0
  0
LINE
  5
13E
330
1F
100
AcDbEntity
  8
SLD-0
  6
CONTINUOUS
 62
   254
100
AcDbLine
 10
749.5823418033
 20
-155.2111553823
 30
0.0
 11
749.5745708477
 21
-155.1976996338
 31
0.0
  0
LINE
  5
13F
330
1F
100
AcDbEntity
  8
SLD-0
  6
CONTINUOUS
 62
   254
100
AcDbLine
 10
749.5745708477
 20
-155.1976996338
 30
0.0
 11
749.5736544263
 21
-155.1961052095
 31
0.0
  0
LINE
  5
140
330
1F
100
AcDbEntity
  8
SLD-0
  6
CONTINUOUS
 62
   254
100
AcDbLine
 10
751.0195364487
 20
-156.046439973
 30
0.0
 11
750.3033270371
 21
-156.4599471962
 31
0.0
  0
LINE
  5
141
330
1F
100
AcDbEntity
  8
SLD-0
  6
CONTINUOUS
 62
   254
100
AcDbLine
 10
753.9858435523
 20
-161.1842411434
 30
0.0
 11
753.2696415913
 21
-161.5977483665
 31
0.0
  0
LINE
  5
142
330
1F
100
AcDbEntity
  8
SLD-0
  6
CONTINUOUS
 62
   254
100
AcDbLine
 10
759.0736513269
 20
-171.6505932485
 30
0.0
 11
759.0725933444
 21
-171.6487604057
 31
0.0
  0
LINE
  5
143
330
1F
100
AcDbEntity
  8
SLD-0
  6
CONTINUOUS
 62
   254
100
AcDbLine
 10
759.0725933444
 20
-171.6487604057
 30
0.0
 11
759.0645392668
 21
-171.6348129188
 31
0.0
  0
LINE
  5
144
330
1F
100
AcDbEntity
  8
SLD-0
  6
CONTINUOUS
 62
   254
100
AcDbLine
 10
759.0645392668
 20
-171.6348129188
 30
0.0
 11
759.0485950243
 21
-171.607186166
 31
0.0
  0
LINE
  5
145
330
1F
100
AcDbEntity
  8
SLD-0
  6
CONTINUOUS
 62
   254
100
AcDbLine
 10
759.1430981886
 20
-170.1168763315
 30
0.0
 11
758.4268962276
 21
-170.5303686535
 31
0.0
  0
LINE
  5
146
330
1F
100
AcDbEntity
  8
SLD-0
  6
CONTINUOUS
 62
   254
100
AcDbLine
 10
758.3458190095
 20
-170.3899401104
 30
0.0
 11
758.3798160088
 21
-170.4488294994
 31
0.0
  0
LINE
  5
147
330
1F
100
AcDbEntity
  8
SLD-0
  6
CONTINUOUS
 62
   254
100
AcDbLine
 10
758.3798160088
 20
-170.4488294994
 30
0.0
 11
758.4070553314
 21
-170.4960214769
 31
0.0
  0
LINE
  5
148
330
1F
100
AcDbEntity
  8
SLD-0
  6
CONTINUOUS
 62
   254
100
AcDbLine
 10
758.4070553314
 20
-170.4960214769
 30
0.0
 11
758.4268962276
 21
-170.5303686535
 31
0.0
  0
LINE
  5
149
330
1F
100
AcDbEntity
  8
SLD-0
  6
CONTINUOUS
 62
   254
100
AcDbLine
 10
759.0620209705
 20
-169.9764477884
 30
0.0
 11
758.3458190095
 21
-170.3899401104
 31
0.0
  0
LINE
  5
14A
330
1F
100
AcDbEntity
  8
SLD-0
  6
CONTINUOUS
 62
   254
100
AcDbLine
 10
756.5205161702
 20
-167.2284352457
 30
0.0
 11
756.661145879
 21
-167.4720096266
 31
0.0
  0
LINE
  5
14B
330
1F
100
AcDbEntity
  8
SLD-0
  6
CONTINUOUS
 62
   254
100
AcDbLine
 10
756.661145879
 20
-167.4720096266
 30
0.0
 11
756.7978863847
 21
-167.7088486826
 31
0.0
  0
LINE
  5
14C
330
1F
100
AcDbEntity
  8
SLD-0
  6
CONTINUOUS
 62
   254
100
AcDbLine
 10
756.7978863847
 20
-167.7088486826
 30
0.0
 11
756.9258799088
 21
-167.9305332576
 31
0.0
  0
LINE
  5
14D
330
1F
100
AcDbEntity
  8
SLD-0
  6
CONTINUOUS
 62
   254
100
AcDbLine
 10
757.2367181313
 20
-166.8149280225
 30
0.0
 11
756.5205161702
 21
-167.2284352457
 31
0.0
  0
LINE
  5
14E
330
1F
100
AcDbEntity
  8
SLD-0
  6
CONTINUOUS
 62
   254
100
AcDbLine
 10
753.4083266985
 20
-161.837955085
 30
0.0
 11
753.5732080471
 21
-162.1235358392
 31
0.0
  0
LINE
  5
14F
330
1F
100
AcDbEntity
  8
SLD-0
  6
CONTINUOUS
 62
   254
100
AcDbLine
 10
753.5732080471
 20
-162.1235358392
 30
0.0
 11
753.7393410933
 21
-162.4112921631
 31
0.0
  0
LINE
  5
150
330
1F
100
AcDbEntity
  8
SLD-0
  6
CONTINUOUS
 62
   254
100
AcDbLine
 10
753.7393410933
 20
-162.4112921631
 30
0.0
 11
753.8364072573
 21
-162.5794070636
 31
0.0
  0
LINE
  5
151
330
1F
100
AcDbEntity
  8
SLD-0
  6
CONTINUOUS
 62
   254
100
AcDbLine
 10
754.1245286595
 20
-161.424462763
 30
0.0
 11
753.4083266985
 21
-161.837955085
 31
0.0
  0
LINE
  5
152
330
1F
100
AcDbEntity
  8
SLD-0
  6
CONTINUOUS
 62
   254
100
AcDbLine
 10
751.0176887047
 20
-156.0432511245
 30
0.0
 11
750.3014867436
 21
-156.4567583477
 31
0.0
  0
LINE
  5
153
330
1F
100
AcDbEntity
  8
SLD-0
  6
CONTINUOUS
 62
   254
100
AcDbLine
 10
752.842991544
 20
-159.2047708904
 30
0.0
 11
752.1267895829
 21
-159.6182632124
 31
0.0
  0
LINE
  5
154
330
1F
100
AcDbEntity
  8
SLD-0
  6
CONTINUOUS
 62
   254
100
AcDbLine
 10
757.6420818698
 20
-167.5170409357
 30
0.0
 11
756.9258799088
 21
-167.9305332576
 31
0.0
  0
LINE
  5
155
330
1F
100
AcDbEntity
  8
SLD-0
  6
CONTINUOUS
 62
   254
100
AcDbLine
 10
751.7939274442
 20
-159.0417372858
 30
0.0
 11
752.1267895829
 21
-159.6182632124
 31
0.0
  0
LINE
  5
156
330
1F
100
AcDbEntity
  8
SLD-0
  6
CONTINUOUS
 62
   254
100
AcDbLine
 10
756.9258799088
 20
-167.9305332576
 30
0.0
 11
757.3201571834
 21
-168.613438574
 31
0.0
  0
LINE
  5
157
330
1F
100
AcDbEntity
  8
SLD-0
  6
CONTINUOUS
 62
   254
100
AcDbLine
 10
749.6920739543
 20
-155.4012196933
 30
0.0
 11
750.3014867436
 21
-156.4567583477
 31
0.0
  0
LINE
  5
158
330
1F
100
AcDbEntity
  8
SLD-0
  6
CONTINUOUS
 62
   254
100
AcDbLine
 10
758.4268962276
 20
-170.5303686535
 30
0.0
 11
759.0485950243
 21
-171.607186166
 31
0.0
  0
LINE
  5
159
330
1F
100
AcDbEntity
  8
SLD-0
  6
CONTINUOUS
 62
   254
100
AcDbLine
 10
750.3033270371
 20
-156.4599471962
 30
0.0
 11
750.6380741727
 21
-157.0397513782
 31
0.0
  0
LINE
  5
15A
330
1F
100
AcDbEntity
  8
SLD-0
  6
CONTINUOUS
 62
   254
100
AcDbLine
 10
753.2696415913
 20
-161.5977483665
 30
0.0
 11
753.4083266985
 21
-161.837955085
 31
0.0
  0
LINE
  5
15B
330
1F
100
AcDbEntity
  8
SLD-0
  6
CONTINUOUS
 62
   254
100
AcDbLine
 10
749.4898577463
 20
-153.3969688093
 30
0.0
 11
749.5790486466
 21
-153.5514491474
 31
0.0
  0
LINE
  5
15C
330
1F
100
AcDbEntity
  8
SLD-0
  6
CONTINUOUS
 62
   254
100
AcDbLine
 10
749.5790486466
 20
-153.5514491474
 30
0.0
 11
749.8437528741
 21
-154.009928075
 31
0.0
  0
LINE
  5
15D
330
1F
100
AcDbEntity
  8
SLD-0
  6
CONTINUOUS
 62
   254
100
AcDbLine
 10
749.8437528741
 20
-154.009928075
 30
0.0
 11
750.2754618656
 21
-154.7576832449
 31
0.0
  0
LINE
  5
15E
330
1F
100
AcDbEntity
  8
SLD-0
  6
CONTINUOUS
 62
   254
100
AcDbLine
 10
750.2754618656
 20
-154.7576832449
 30
0.0
 11
750.8603100907
 21
-155.7706641828
 31
0.0
  0
LINE
  5
15F
330
1F
100
AcDbEntity
  8
SLD-0
  6
CONTINUOUS
 62
   254
100
AcDbLine
 10
750.8603100907
 20
-155.7706641828
 30
0.0
 11
751.5794848334
 21
-157.0163118517
 31
0.0
  0
LINE
  5
160
330
1F
100
AcDbEntity
  8
SLD-0
  6
CONTINUOUS
 62
   254
100
AcDbLine
 10
751.5794848334
 20
-157.0163118517
 30
0.0
 11
752.4098818433
 21
-158.4546017324
 31
0.0
  0
LINE
  5
161
330
1F
100
AcDbEntity
  8
SLD-0
  6
CONTINUOUS
 62
   254
100
AcDbLine
 10
752.4098818433
 20
-158.4546017324
 30
0.0
 11
753.3248131406
 21
-160.0393104231
 31
0.0
  0
LINE
  5
162
330
1F
100
AcDbEntity
  8
SLD-0
  6
CONTINUOUS
 62
   254
100
AcDbLine
 10
753.3248131406
 20
-160.0393104231
 30
0.0
 11
754.2948638331
 21
-161.7194759523
 31
0.0
  0
LINE
  5
163
330
1F
100
AcDbEntity
  8
SLD-0
  6
CONTINUOUS
 62
   254
100
AcDbLine
 10
754.2948638331
 20
-161.7194759523
 30
0.0
 11
755.2888532412
 21
-163.4411263143
 31
0.0
  0
LINE
  5
164
330
1F
100
AcDbEntity
  8
SLD-0
  6
CONTINUOUS
 62
   254
100
AcDbLine
 10
755.2888532412
 20
-163.4411263143
 30
0.0
 11
756.2748481762
 21
-165.1489185964
 31
0.0
  0
LINE
  5
165
330
1F
100
AcDbEntity
  8
SLD-0
  6
CONTINUOUS
 62
   254
100
AcDbLine
 10
756.2748481762
 20
-165.1489185964
 30
0.0
 11
757.2211464178
 21
-166.7879569208
 31
0.0
  0
LINE
  5
166
330
1F
100
AcDbEntity
  8
SLD-0
  6
CONTINUOUS
 62
   254
100
AcDbLine
 10
757.2211464178
 20
-166.7879569208
 30
0.0
 11
758.097334696
 21
-168.3055507814
 31
0.0
  0
LINE
  5
167
330
1F
100
AcDbEntity
  8
SLD-0
  6
CONTINUOUS
 62
   254
100
AcDbLine
 10
758.097334696
 20
-168.3055507814
 30
0.0
 11
758.8752572667
 21
-169.65295848
 31
0.0
  0
LINE
  5
168
330
1F
100
AcDbEntity
  8
SLD-0
  6
CONTINUOUS
 62
   254
100
AcDbLine
 10
758.8752572667
 20
-169.65295848
 30
0.0
 11
759.5299025309
 21
-170.7868325388
 31
0.0
  0
LINE
  5
169
330
1F
100
AcDbEntity
  8
SLD-0
  6
CONTINUOUS
 62
   254
100
AcDbLine
 10
759.5299025309
 20
-170.7868325388
 30
0.0
 11
760.0402300489
 21
-171.6707545196
 31
0.0
  0
LINE
  5
16A
330
1F
100
AcDbEntity
  8
SLD-0
  6
CONTINUOUS
 62
   254
100
AcDbLine
 10
760.0402300489
 20
-171.6707545196
 30
0.0
 11
760.3898485434
 21
-172.2763079082
 31
0.0
  0
LINE
  5
16B
330
1F
100
AcDbEntity
  8
SLD-0
  6
CONTINUOUS
 62
   254
100
AcDbLine
 10
760.3898485434
 20
-172.2763079082
 30
0.0
 11
760.5675150883
 21
-172.584031788
 31
0.0
  0
LINE
  5
16C
330
1F
100
AcDbEntity
  8
SLD-0
  6
CONTINUOUS
 62
   254
100
AcDbLine
 10
760.5675150883
 20
-172.584031788
 30
0.0
 11
760.5898593795
 21
-172.6227301037
 31
0.0
  0
LINE
  5
16D
330
1F
100
AcDbEntity
  8
SLD-0
  6
CONTINUOUS
 62
   254
100
AcDbLine
 10
897.4203420114
 20
-342.2098505174
 30
0.0
 11
849.4203415942
 21
-342.2098505174
 31
0.0
  0
LINE
  5
16E
330
1F
100
AcDbEntity
  8
SLD-0
  6
CONTINUOUS
 62
   254
100
AcDbLine
 10
897.4203420114
 20
-346.2098507074
 30
0.0
 11
849.4203415942
 21
-346.2098507074
 31
0.0
  0
LINE
  5
16F
330
1F
100
AcDbEntity
  8
SLD-0
  6
CONTINUOUS
 62
   254
100
AcDbLine
 10
855.8990386557
 20
-82.7771770632
 30
0.0
 11
855.7175108474
 21
-82.7755379354
 31
0.0
  0
LINE
  5
170
330
1F
100
AcDbEntity
  8
SLD-0
  6
CONTINUOUS
 62
   254
100
AcDbLine
 10
855.7175108474
 20
-82.7755379354
 30
0.0
 11
854.4690766614
 21
-82.7643322622
 31
0.0
  0
LINE
  5
171
330
1F
100
AcDbEntity
  8
SLD-0
  6
CONTINUOUS
 62
   254
100
AcDbLine
 10
854.4690766614
 20
-82.7643322622
 30
0.0
 11
853.5722037088
 21
-82.7561664259
 31
0.0
  0
LINE
  5
172
330
1F
100
AcDbEntity
  8
SLD-0
  6
CONTINUOUS
 62
   254
100
AcDbLine
 10
853.5722037088
 20
-82.7561664259
 30
0.0
 11
853.0440078359
 21
-82.751189438
 31
0.0
  0
LINE
  5
173
330
1F
100
AcDbEntity
  8
SLD-0
  6
CONTINUOUS
 62
   254
100
AcDbLine
 10
853.0440078359
 20
-82.751189438
 30
0.0
 11
852.8945678156
 21
-82.749520508
 31
0.0
  0
LINE
  5
174
330
1F
100
AcDbEntity
  8
SLD-0
  6
CONTINUOUS
 62
   254
100
AcDbLine
 10
852.8945678156
 20
-82.749520508
 30
0.0
 11
853.1267372202
 21
-82.751189438
 31
0.0
  0
LINE
  5
175
330
1F
100
AcDbEntity
  8
SLD-0
  6
CONTINUOUS
 62
   254
100
AcDbLine
 10
853.1267372202
 20
-82.751189438
 30
0.0
 11
853.7360829544
 21
-82.7561664259
 31
0.0
  0
LINE
  5
176
330
1F
100
AcDbEntity
  8
SLD-0
  6
CONTINUOUS
 62
   254
100
AcDbLine
 10
853.7360829544
 20
-82.7561664259
 30
0.0
 11
854.710978387
 21
-82.7643322622
 31
0.0
  0
LINE
  5
177
330
1F
100
AcDbEntity
  8
SLD-0
  6
CONTINUOUS
 62
   254
100
AcDbLine
 10
854.710978387
 20
-82.7643322622
 30
0.0
 11
856.0328175556
 21
-82.7755379354
 31
0.0
  0
LINE
  5
178
330
1F
100
AcDbEntity
  8
SLD-0
  6
CONTINUOUS
 62
   254
100
AcDbLine
 10
856.0328175556
 20
-82.7755379354
 30
0.0
 11
857.6763765198
 21
-82.7896046316
 31
0.0
  0
LINE
  5
179
330
1F
100
AcDbEntity
  8
SLD-0
  6
CONTINUOUS
 62
   254
100
AcDbLine
 10
857.6763765198
 20
-82.7896046316
 30
0.0
 11
859.6102929917
 21
-82.8062045252
 31
0.0
  0
LINE
  5
17A
330
1F
100
AcDbEntity
  8
SLD-0
  6
CONTINUOUS
 62
   254
100
AcDbLine
 10
859.6102929917
 20
-82.8062045252
 30
0.0
 11
861.7976577264
 21
-82.8250693952
 31
0.0
  0
LINE
  5
17B
330
1F
100
AcDbEntity
  8
SLD-0
  6
CONTINUOUS
 62
   254
100
AcDbLine
 10
861.7976577264
 20
-82.8250693952
 30
0.0
 11
864.1967316401
 21
-82.8458416139
 31
0.0
  0
LINE
  5
17C
330
1F
100
AcDbEntity
  8
SLD-0
  6
CONTINUOUS
 62
   254
100
AcDbLine
 10
864.1967316401
 20
-82.8458416139
 30
0.0
 11
866.7617304493
 21
-82.8680741464
 31
0.0
  0
LINE
  5
17D
330
1F
100
AcDbEntity
  8
SLD-0
  6
CONTINUOUS
 62
   254
100
AcDbLine
 10
866.7617304493
 20
-82.8680741464
 30
0.0
 11
869.4437066336
 21
-82.8913795625
 31
0.0
  0
LINE
  5
17E
330
1F
100
AcDbEntity
  8
SLD-0
  6
CONTINUOUS
 62
   254
100
AcDbLine
 10
869.4437066336
 20
-82.8913795625
 30
0.0
 11
872.1914790115
 21
-82.9153406297
 31
0.0
  0
LINE
  5
17F
330
1F
100
AcDbEntity
  8
SLD-0
  6
CONTINUOUS
 62
   254
100
AcDbLine
 10
873.6105302708
 20
-34.9258827841
 30
0.0
 11
876.2731896025
 21
-34.9491583978
 31
0.0
  0
LINE
  5
180
330
1F
100
AcDbEntity
  8
SLD-0
  6
CONTINUOUS
 62
   254
100
AcDbLine
 10
876.2731896025
 20
-34.9491583978
 30
0.0
 11
878.882977577
 21
-34.9719869768
 31
0.0
  0
LINE
  5
181
330
1F
100
AcDbEntity
  8
SLD-0
  6
CONTINUOUS
 62
   254
100
AcDbLine
 10
878.882977577
 20
-34.9719869768
 30
0.0
 11
881.3933226522
 21
-34.994010893
 31
0.0
  0
LINE
  5
182
330
1F
100
AcDbEntity
  8
SLD-0
  6
CONTINUOUS
 62
   254
100
AcDbLine
 10
881.3933226522
 20
-34.994010893
 30
0.0
 11
883.7594268155
 21
-35.0148129141
 31
0.0
  0
LINE
  5
183
330
1F
100
AcDbEntity
  8
SLD-0
  6
CONTINUOUS
 62
   254
100
AcDbLine
 10
883.7594268155
 20
-35.0148129141
 30
0.0
 11
885.9390680921
 21
-35.034035412
 31
0.0
  0
LINE
  5
184
330
1F
100
AcDbEntity
  8
SLD-0
  6
CONTINUOUS
 62
   254
100
AcDbLine
 10
885.9390680921
 20
-35.034035412
 30
0.0
 11
887.8933497947
 21
-35.0513505613
 31
0.0
  0
LINE
  5
185
330
1F
100
AcDbEntity
  8
SLD-0
  6
CONTINUOUS
 62
   254
100
AcDbLine
 10
887.8933497947
 20
-35.0513505613
 30
0.0
 11
889.5873976183
 21
-35.0664007341
 31
0.0
  0
LINE
  5
186
330
1F
100
AcDbEntity
  8
SLD-0
  6
CONTINUOUS
 62
   254
100
AcDbLine
 10
889.5873976183
 20
-35.0664007341
 30
0.0
 11
890.9909826946
 21
-35.0789475118
 31
0.0
  0
LINE
  5
187
330
1F
100
AcDbEntity
  8
SLD-0
  6
CONTINUOUS
 62
   254
100
AcDbLine
 10
890.9909826946
 20
-35.0789475118
 30
0.0
 11
892.0790561717
 21
-35.0887524759
 31
0.0
  0
LINE
  5
188
330
1F
100
AcDbEntity
  8
SLD-0
  6
CONTINUOUS
 62
   254
100
AcDbLine
 10
892.0790561717
 20
-35.0887524759
 30
0.0
 11
892.8322036993
 21
-35.0956666147
 31
0.0
  0
LINE
  5
189
330
1F
100
AcDbEntity
  8
SLD-0
  6
CONTINUOUS
 62
   254
100
AcDbLine
 10
892.8322036993
 20
-35.0956666147
 30
0.0
 11
893.2369825673
 21
-35.0995409166
 31
0.0
  0
LINE
  5
18A
330
1F
100
AcDbEntity
  8
SLD-0
  6
CONTINUOUS
 62
   254
100
AcDbLine
 10
893.2369825673
 20
-35.0995409166
 30
0.0
 11
893.3096201402
 21
-35.100405184
 31
0.0
  0
LINE
  5
18B
330
1F
100
AcDbEntity
  8
SLD-0
  6
CONTINUOUS
 62
   254
100
AcDbLine
 10
853.3111428153
 20
-34.7513603842
 30
0.0
 11
853.4438674581
 21
-34.7522246515
 31
0.0
  0
LINE
  5
18C
330
1F
100
AcDbEntity
  8
SLD-0
  6
CONTINUOUS
 62
   254
100
AcDbLine
 10
853.4438674581
 20
-34.7522246515
 30
0.0
 11
853.9277193379
 21
-34.7560989534
 31
0.0
  0
LINE
  5
18D
330
1F
100
AcDbEntity
  8
SLD-0
  6
CONTINUOUS
 62
   254
100
AcDbLine
 10
853.9277193379
 20
-34.7560989534
 30
0.0
 11
854.7574569714
 21
-34.7630130922
 31
0.0
  0
LINE
  5
18E
330
1F
100
AcDbEntity
  8
SLD-0
  6
CONTINUOUS
 62
   254
100
AcDbLine
 10
854.7574569714
 20
-34.7630130922
 30
0.0
 11
855.9182723295
 21
-34.7728180563
 31
0.0
  0
LINE
  5
18F
330
1F
100
AcDbEntity
  8
SLD-0
  6
CONTINUOUS
 62
   254
100
AcDbLine
 10
855.9182723295
 20
-34.7728180563
 30
0.0
 11
857.389449073
 21
-34.785364834
 31
0.0
  0
LINE
  5
190
330
1F
100
AcDbEntity
  8
SLD-0
  6
CONTINUOUS
 62
   254
100
AcDbLine
 10
857.389449073
 20
-34.785364834
 30
0.0
 11
859.1447350812
 21
-34.8004150068
 31
0.0
  0
LINE
  5
191
330
1F
100
AcDbEntity
  8
SLD-0
  6
CONTINUOUS
 62
   254
100
AcDbLine
 10
859.1447350812
 20
-34.8004150068
 30
0.0
 11
861.1528081131
 21
-34.8177301561
 31
0.0
  0
LINE
  5
192
330
1F
100
AcDbEntity
  8
SLD-0
  6
CONTINUOUS
 62
   254
100
AcDbLine
 10
861.1528081131
 20
-34.8177301561
 30
0.0
 11
863.3778327387
 21
-34.8369526541
 31
0.0
  0
LINE
  5
193
330
1F
100
AcDbEntity
  8
SLD-0
  6
CONTINUOUS
 62
   254
100
AcDbLine
 10
863.3778327387
 20
-34.8369526541
 30
0.0
 11
865.7801043485
 21
-34.8577546751
 31
0.0
  0
LINE
  5
194
330
1F
100
AcDbEntity
  8
SLD-0
  6
CONTINUOUS
 62
   254
100
AcDbLine
 10
865.7801043485
 20
-34.8577546751
 30
0.0
 11
868.3167536985
 21
-34.8797785913
 31
0.0
  0
LINE
  5
195
330
1F
100
AcDbEntity
  8
SLD-0
  6
CONTINUOUS
 62
   254
100
AcDbLine
 10
868.3167536985
 20
-34.8797785913
 30
0.0
 11
870.9425147865
 21
-34.9026071703
 31
0.0
  0
LINE
  5
196
330
1F
100
AcDbEntity
  8
SLD-0
  6
CONTINUOUS
 62
   254
100
AcDbLine
 10
870.9425147865
 20
-34.9026071703
 30
0.0
 11
873.6105302708
 21
-34.9258827841
 31
0.0
  0
LINE
  5
197
330
1F
100
AcDbEntity
  8
SLD-0
  6
CONTINUOUS
 62
   254
100
AcDbLine
 10
872.1651799754
 20
-82.9153406297
 30
0.0
 11
872.1914790115
 21
-82.9153406297
 31
0.0
  0
LINE
  5
198
330
1F
100
AcDbEntity
  8
SLD-0
  6
CONTINUOUS
 62
   254
100
AcDbLine
 10
872.1651799754
 20
-82.9153406297
 30
0.0
 11
869.5491549336
 21
-82.8925418531
 31
0.0
  0
LINE
  5
199
330
1F
100
AcDbEntity
  8
SLD-0
  6
CONTINUOUS
 62
   254
100
AcDbLine
 10
869.5491549336
 20
-82.8925418531
 30
0.0
 11
867.0026817602
 21
-82.8703987276
 31
0.0
  0
LINE
  5
19A
330
1F
100
AcDbEntity
  8
SLD-0
  6
CONTINUOUS
 62
   254
100
AcDbLine
 10
867.0026817602
 20
-82.8703987276
 30
0.0
 11
864.5787499156
 21
-82.8493880903
 31
0.0
  0
LINE
  5
19B
330
1F
100
AcDbEntity
  8
SLD-0
  6
CONTINUOUS
 62
   254
100
AcDbLine
 10
864.5787499156
 20
-82.8493880903
 30
0.0
 11
862.3277991321
 21
-82.8299271738
 31
0.0
  0
LINE
  5
19C
330
1F
100
AcDbEntity
  8
SLD-0
  6
CONTINUOUS
 62
   254
100
AcDbLine
 10
862.3277991321
 20
-82.8299271738
 30
0.0
 11
860.2966693472
 21
-82.8124332105
 31
0.0
  0
LINE
  5
19D
330
1F
100
AcDbEntity
  8
SLD-0
  6
CONTINUOUS
 62
   254
100
AcDbLine
 10
860.2966693472
 20
-82.8124332105
 30
0.0
 11
858.5276258421
 21
-82.7972340261
 31
0.0
  0
LINE
  5
19E
330
1F
100
AcDbEntity
  8
SLD-0
  6
CONTINUOUS
 62
   254
100
AcDbLine
 10
858.5276258421
 20
-82.7972340261
 30
0.0
 11
857.057481004
 21
-82.7846872484
 31
0.0
  0
LINE
  5
19F
330
1F
100
AcDbEntity
  8
SLD-0
  6
CONTINUOUS
 62
   254
100
AcDbLine
 10
857.057481004
 20
-82.7846872484
 30
0.0
 11
855.9168269169
 21
-82.7750610983
 31
0.0
  0
LINE
  5
1A0
330
1F
100
AcDbEntity
  8
SLD-0
  6
CONTINUOUS
 62
   254
100
AcDbLine
 10
855.9168269169
 20
-82.7750610983
 30
0.0
 11
855.129399268
 21
-82.7685045873
 31
0.0
  0
LINE
  5
1A1
330
1F
100
AcDbEntity
  8
SLD-0
  6
CONTINUOUS
 62
   254
100
AcDbLine
 10
855.129399268
 20
-82.7685045873
 30
0.0
 11
854.7115837466
 21
-82.7652263319
 31
0.0
  0
LINE
  5
1A2
330
1F
100
AcDbEntity
  8
SLD-0
  6
CONTINUOUS
 62
   254
100
AcDbLine
 10
854.7115837466
 20
-82.7652263319
 30
0.0
 11
854.6720751804
 21
-82.7652263319
 31
0.0
  0
LINE
  5
1A3
330
1F
100
AcDbEntity
  8
SLD-0
  6
CONTINUOUS
 62
   254
100
AcDbLine
 10
854.6720751804
 20
-82.7652263319
 30
0.0
 11
855.0116949957
 21
-82.7685045873
 31
0.0
  0
LINE
  5
1A4
330
1F
100
AcDbEntity
  8
SLD-0
  6
CONTINUOUS
 62
   254
100
AcDbLine
 10
855.0116949957
 20
-82.7685045873
 30
0.0
 11
855.723376317
 21
-82.7750610983
 31
0.0
  0
LINE
  5
1A5
330
1F
100
AcDbEntity
  8
SLD-0
  6
CONTINUOUS
 62
   254
100
AcDbLine
 10
855.723376317
 20
-82.7750610983
 30
0.0
 11
855.8992323708
 21
-82.7766406214
 31
0.0
  0
LINE
  5
1A6
330
1F
100
AcDbEntity
  8
SLD-0
  6
CONTINUOUS
 62
   254
100
AcDbLine
 10
893.4203416647
 20
-84.2098646424
 30
0.0
 11
853.4203425588
 21
-84.2098646424
 31
0.0
  0
LINE
  5
1A7
330
1F
100
AcDbEntity
  8
SLD-0
  6
CONTINUOUS
 62
   254
100
AcDbLine
 10
755.0398559329
 20
-163.0098505174
 30
0.0
 11
756.1798559329
 21
-162.3516712105
 31
0.0
  0
LINE
  5
1A8
330
1F
100
AcDbEntity
  8
SLD-0
  6
CONTINUOUS
 62
   254
100
AcDbLine
 10
531.9174539948
 20
190.7955946782
 30
0.0
 11
531.9174539948
 21
89.6379461893
 31
0.0
  0
LINE
  5
1A9
330
1F
100
AcDbEntity
  8
SLD-0
  6
CONTINUOUS
 62
   254
100
AcDbLine
 10
554.1174535358
 20
89.6379461893
 30
0.0
 11
554.1174535358
 21
190.9116076686
 31
0.0
  0
LINE
  5
1AA
330
1F
100
AcDbEntity
  8
SLD-0
  6
CONTINUOUS
 62
   254
100
AcDbLine
 10
562.9282155541
 20
207.793863876
 30
0.0
 11
562.921990594
 21
208.208621618
 31
0.0
  0
LINE
  5
1AB
330
1F
100
AcDbEntity
  8
SLD-0
  6
CONTINUOUS
 62
   254
100
AcDbLine
 10
522.9264953186
 20
207.6083235365
 30
0.0
 11
522.9327202787
 21
207.193565809
 31
0.0
  0
LINE
  5
1AC
330
1F
100
AcDbEntity
  8
SLD-0
  6
CONTINUOUS
 62
   254
100
AcDbLine
 10
543.0174537653
 20
84.087949098
 30
0.0
 11
544.9994353296
 21
84.1771399983
 31
0.0
  0
LINE
  5
1AD
330
1F
100
AcDbEntity
  8
SLD-0
  6
CONTINUOUS
 62
   254
100
AcDbLine
 10
544.9994353296
 20
84.1771399983
 30
0.0
 11
546.917714197
 21
84.4418442258
 31
0.0
  0
LINE
  5
1AE
330
1F
100
AcDbEntity
  8
SLD-0
  6
CONTINUOUS
 62
   254
100
AcDbLine
 10
546.917714197
 20
84.4418442258
 30
0.0
 11
548.7106356488
 21
84.8735532173
 31
0.0
  0
LINE
  5
1AF
330
1F
100
AcDbEntity
  8
SLD-0
  6
CONTINUOUS
 62
   254
100
AcDbLine
 10
548.7106356488
 20
84.8735532173
 30
0.0
 11
550.3205734024
 21
85.4584014424
 31
0.0
  0
LINE
  5
1B0
330
1F
100
AcDbEntity
  8
SLD-0
  6
CONTINUOUS
 62
   254
100
AcDbLine
 10
550.3205734024
 20
85.4584014424
 30
0.0
 11
551.6957829425
 21
86.1775761851
 31
0.0
  0
LINE
  5
1B1
330
1F
100
AcDbEntity
  8
SLD-0
  6
CONTINUOUS
 62
   254
100
AcDbLine
 10
551.6957829425
 20
86.1775761851
 30
0.0
 11
552.7920641655
 21
87.007973195
 31
0.0
  0
LINE
  5
1B2
330
1F
100
AcDbEntity
  8
SLD-0
  6
CONTINUOUS
 62
   254
100
AcDbLine
 10
552.7920641655
 20
87.007973195
 30
0.0
 11
553.5741814131
 21
87.9229044923
 31
0.0
  0
LINE
  5
1B3
330
1F
100
AcDbEntity
  8
SLD-0
  6
CONTINUOUS
 62
   254
100
AcDbLine
 10
553.5741814131
 20
87.9229044923
 30
0.0
 11
554.0169964263
 21
88.8929551848
 31
0.0
  0
LINE
  5
1B4
330
1F
100
AcDbEntity
  8
SLD-0
  6
CONTINUOUS
 62
   254
100
AcDbLine
 10
554.0169964263
 20
88.8929551848
 30
0.0
 11
554.1174535358
 21
89.6379461893
 31
0.0
  0
LINE
  5
1B5
330
1F
100
AcDbEntity
  8
SLD-0
  6
CONTINUOUS
 62
   254
100
AcDbLine
 10
531.9174539948
 20
89.6379461893
 30
0.0
 11
532.0179111043
 21
88.8929551848
 31
0.0
  0
LINE
  5
1B6
330
1F
100
AcDbEntity
  8
SLD-0
  6
CONTINUOUS
 62
   254
100
AcDbLine
 10
532.0179111043
 20
88.8929551848
 30
0.0
 11
532.4607261175
 21
87.9229044923
 31
0.0
  0
LINE
  5
1B7
330
1F
100
AcDbEntity
  8
SLD-0
  6
CONTINUOUS
 62
   254
100
AcDbLine
 10
532.4607261175
 20
87.9229044923
 30
0.0
 11
533.2428433651
 21
87.007973195
 31
0.0
  0
LINE
  5
1B8
330
1F
100
AcDbEntity
  8
SLD-0
  6
CONTINUOUS
 62
   254
100
AcDbLine
 10
533.2428433651
 20
87.007973195
 30
0.0
 11
534.3391245881
 21
86.1775761851
 31
0.0
  0
LINE
  5
1B9
330
1F
100
AcDbEntity
  8
SLD-0
  6
CONTINUOUS
 62
   254
100
AcDbLine
 10
534.3391245881
 20
86.1775761851
 30
0.0
 11
535.7143341282
 21
85.4584014424
 31
0.0
  0
LINE
  5
1BA
330
1F
100
AcDbEntity
  8
SLD-0
  6
CONTINUOUS
 62
   254
100
AcDbLine
 10
535.7143341282
 20
85.4584014424
 30
0.0
 11
537.3242718817
 21
84.8735532173
 31
0.0
  0
LINE
  5
1BB
330
1F
100
AcDbEntity
  8
SLD-0
  6
CONTINUOUS
 62
   254
100
AcDbLine
 10
537.3242718817
 20
84.8735532173
 30
0.0
 11
539.1171933336
 21
84.4418442258
 31
0.0
  0
LINE
  5
1BC
330
1F
100
AcDbEntity
  8
SLD-0
  6
CONTINUOUS
 62
   254
100
AcDbLine
 10
539.1171933336
 20
84.4418442258
 30
0.0
 11
541.035472201
 21
84.1771399983
 31
0.0
  0
LINE
  5
1BD
330
1F
100
AcDbEntity
  8
SLD-0
  6
CONTINUOUS
 62
   254
100
AcDbLine
 10
541.035472201
 20
84.1771399983
 30
0.0
 11
543.0174537653
 21
84.087949098
 31
0.0
  0
ARC
  5
1BE
330
1F
100
AcDbEntity
  8
SLD-0
  6
CONTINUOUS
 62
   254
100
AcDbCircle
 10
853.5765918028
 20
-345.8036005174
 30
0.0
 40
0.7937500000000455
100
AcDbArc
 50
210.7845365811
 51
270.0
  0
ARC
  5
1BF
330
1F
100
AcDbEntity
  8
SLD-0
  6
CONTINUOUS
 62
   254
100
AcDbCircle
 10
893.2640918028
 20
-345.8036005174
 30
0.0
 40
0.7937500000000851
100
AcDbArc
 50
270.0
 51
329.2154634189
  0
ARC
  5
1C0
330
1F
100
AcDbEntity
  8
SLD-0
  6
CONTINUOUS
 62
   254
100
AcDbCircle
 10
873.6491539864
 20
-89.3513370334
 30
0.0
 40
18.50000000000016
100
AcDbArc
 50
16.1359950008
 51
45.2634501009
  0
ARC
  5
1C1
330
1F
100
AcDbEntity
  8
SLD-0
  6
CONTINUOUS
 62
   254
100
AcDbCircle
 10
543.0174537653
 20
208.0184331545
 30
0.0
 40
24.00000000000011
100
AcDbArc
 50
297.5485459595
 51
90.0
  0
ARC
  5
1C2
330
1F
100
AcDbEntity
  8
SLD-0
  6
CONTINUOUS
 62
   254
100
AcDbCircle
 10
543.0174537653
 20
208.0184331545
 30
0.0
 40
24.00000000000011
100
AcDbArc
 50
90.0
 51
242.4514540405
  0
CIRCLE
  5
1C3
330
1F
100
AcDbEntity
  8
SLD-0
  6
CONTINUOUS
 62
   254
100
AcDbCircle
 10
542.9247635566
 20
207.9085506365
 30
0.0
 40
19.99947858544681
  0
ARC
  5
1C4
330
1F
100
AcDbEntity
  8
SLD-0
  6
CONTINUOUS
 62
   254
100
AcDbCircle
 10
542.930519456
 20
207.4902809652
 30
0.0
 40
20.00002985503261
100
AcDbArc
 50
183.7275878228
 51
357.992204024
  0
ARC
  5
1C5
330
1F
100
AcDbEntity
  8
SLD-0
  6
CONTINUOUS
 62
   254
100
AcDbCircle
 10
543.0174537653
 20
208.0184331545
 30
0.0
 40
20.00000000000037
100
AcDbArc
 50
349.8951032698
 51
90.0
  0
ARC
  5
1C6
330
1F
100
AcDbEntity
  8
SLD-0
  6
CONTINUOUS
 62
   254
100
AcDbCircle
 10
543.0174537653
 20
208.0184331545
 30
0.0
 40
20.00000000000037
100
AcDbArc
 50
90.0
 51
140.0507655923
  0
SPLINE
  5
1C7
330
1F
100
AcDbEntity
  8
SLD-0
  6
CONTINUOUS
 62
   254
100
AcDbSpline
210
0.0
220
0.0
230
1.0
 70
     8
 71
     3
 72
    13
 73
     9
 74
     0
 42
0.000000001
 43
0.00000001
 40
0.0
 40
0.0
 40
0.0
 40
0.0
 40
0.2090937254138805
 40
0.4181995540404631
 40
0.52092890522002
 40
0.6269724303411288
 40
0.8233181914002082
 40
1.0
 40
1.0
 40
1.0
 40
1.0
 10
543.0174537652856
 20
-93.39267489068348
 30
0.0
 10
544.2647667298979
 20
-93.49354904177277
 30
0.0
 10
546.7594648587735
 20
-93.69530318296599
 30
0.0
 10
549.5210307752164
 20
-95.05721027419779
 30
0.0
 10
551.3313889718412
 20
-96.5908274424715
 30
0.0
 10
552.7732411896914
 20
-98.38845632179954
 30
0.0
 10
553.9233740826614
 20
-100.9951243474007
 30
0.0
 10
554.041755439609
 20
-103.2231074177779
 30
0.0
 10
554.0978259125477
 20
-104.2783754741414
 30
0.0
  0
SPLINE
  5
1C8
330
1F
100
AcDbEntity
  8
SLD-0
  6
CONTINUOUS
 62
   254
100
AcDbSpline
210
0.0
220
0.0
230
1.0
 70
     8
 71
     3
 72
    13
 73
     9
 74
     0
 42
0.000000001
 43
0.00000001
 40
0.0
 40
0.0
 40
0.0
 40
0.0
 40
0.0092894505975478
 40
0.2076126793674164
 40
0.4066850981983439
 40
0.5931775824074993
 40
0.7906343988540203
 40
1.0
 40
1.0
 40
1.0
 40
1.0
 10
531.9325078928596
 20
-104.2721467887624
 30
0.0
 10
531.9275445253285
 20
-104.2173247307077
 30
0.0
 10
531.816616756127
 20
-102.9920903380315
 30
0.0
 10
532.2947142392112
 20
-100.5502964595777
 30
0.0
 10
533.7502419899495
 20
-97.47998077998324
 30
0.0
 10
536.1985361758344
 20
-95.20163126919134
 30
0.0
 10
539.3425301136187
 20
-93.69067092904504
 30
0.0
 10
541.768804690492
 20
-93.49392664796113
 30
0.0
 10
543.0174537652856
 20
-93.39267489068351
 30
0.0
  0
SPLINE
  5
1C9
330
1F
100
AcDbEntity
  8
SLD-0
  6
CONTINUOUS
 62
   254
100
AcDbSpline
210
0.0
220
0.0
230
1.0
 70
     8
 71
     3
 72
    22
 73
    18
 74
     0
 42
0.000000001
 43
0.00000001
 40
0.0
 40
0.0
 40
0.0
 40
0.0
 40
0.0971518851588022
 40
0.1943093938719609
 40
0.2420408602680924
 40
0.2913122018829977
 40
0.382540959666482
 40
0.4690782149612301
 40
0.5314487912261752
 40
0.5955842412660979
 40
0.6742309786056612
 40
0.7551514028107361
 40
0.8062319970763184
 40
0.8583690520110844
 40
0.9346899262825754
 40
0.9985310640142601
 40
1.0
 40
1.0
 40
1.0
 40
1.0
 10
853.420342558798
 20
-93.3926754257962
 30
0.0
 10
853.4892848214511
 20
-93.49354882530592
 30
0.0
 10
853.6271733374211
 20
-93.6953014632964
 30
0.0
 10
854.4628894589059
 20
-95.057217917151
 30
0.0
 10
855.2119573346938
 20
-96.59081571545309
 30
0.0
 10
855.9375788439824
 20
-98.38852285786065
 30
0.0
 10
856.6361700767294
 20
-101.0467007188174
 30
0.0
 10
856.8452324506342
 20
-104.1425546352398
 30
0.0
 10
856.6763157191407
 20
-106.8606197169338
 30
0.0
 10
856.2985530871684
 20
-109.3976519455341
 30
0.0
 10
855.7081070300331
 20
-112.0148398185008
 30
0.0
 10
855.0584276368533
 20
-114.2751397808967
 30
0.0
 10
854.4931992390169
 20
-116.027137540589
 30
0.0
 10
853.9731572414336
 20
-117.5323350273778
 30
0.0
 10
853.5689230305233
 20
-118.6336191516687
 30
0.0
 10
853.373855245574
 20
-119.1513355610577
 30
0.0
 10
853.4225406958362
 20
-119.0211454321322
 30
0.0
 10
853.4236357154218
 20
-119.0182172320172
 30
0.0
  0
ELLIPSE
  5
1CA
330
1F
100
AcDbEntity
  8
SLD-0
  6
CONTINUOUS
 62
   254
100
AcDbEllipse
 10
542.9304679155
 20
-82.4577660628
 30
0.0
 11
19.99985907079974
 21
-0.1743901191406678
 31
0.0
210
0.0
220
0.0
230
1.0
 40
0.457483502
 41
6.252221993902872
 42
6.28723426363008
  0
ELLIPSE
  5
1CB
330
1F
100
AcDbEntity
  8
SLD-0
  6
CONTINUOUS
 62
   254
100
AcDbEllipse
 10
542.9304679155
 20
-82.4577660628
 30
0.0
 11
19.99985907079974
 21
-0.1743901191406678
 31
0.0
210
0.0
220
0.0
230
1.0
 40
0.457483502
 41
3.145641610040389
 42
3.210671053924645
  0
ELLIPSE
  5
1CC
330
1F
100
AcDbEntity
  8
SLD-0
  6
CONTINUOUS
 62
   254
100
AcDbEllipse
 10
872.8956234891
 20
-82.4577660628
 30
0.0
 11
20.08053901177584
 21
9.150566363872175
 31
0.0
210
0.0
220
0.0
230
1.0
 40
0.0056405845
 41
4.674745520558215
 42
6.280555259856595
  0
ELLIPSE
  5
1CD
330
1F
100
AcDbEntity
  8
SLD-0
  6
CONTINUOUS
 62
   254
100
AcDbEllipse
 10
542.9304679155
 20
207.4937148408
 30
0.0
 11
-0.3013589986242096
 21
20.07836202709021
 31
0.0
210
0.0
220
0.0
230
1.0
 40
0.9959850117
 41
4.66236812239751
 42
4.712388979858479
  0
ELLIPSE
  5
1CE
330
1F
100
AcDbEntity
  8
SLD-0
  6
CONTINUOUS
 62
   254
100
AcDbEllipse
 10
542.9304679155
 20
207.4937148408
 30
0.0
 11
-0.3013589985957879
 21
20.07836202518831
 31
0.0
210
0.0
220
0.0
230
1.0
 40
0.9959850117
 41
1.570796326100263
 42
1.620817183600664
  0
DIMENSION
  5
1CF
330
1F
100
AcDbEntity
  8
SLD-0
 62
   254
100
AcDbDimension
  2
_D
 10
519.0174537653
 20
-362.519802442
 30
0.0
 11
541.7868815613
 21
-362.519802442
 31
0.0
 70
   160
  1
<>
  3
SLDDIMSTYLE0
100
AcDbAlignedDimension
 13
567.0174537653
 23
-346.2098505174
 33
0.0
 14
519.0174537653
 24
-346.2098505174
 34
0.0
100
AcDbRotatedDimension
  0
DIMENSION
  5
1DF
330
1F
100
AcDbEntity
  8
SLD-0
 62
   254
100
AcDbDimension
  2
_D_1
 10
580.1016125365
 20
-342.2098505174
 30
0.0
 11
580.1016125365
 21
-312.9251156333
 31
0.0
 70
   160
  1
<>
  3
SLDDIMSTYLE0
100
AcDbAlignedDimension
 13
567.0174537653
 23
-346.2098505174
 33
0.0
 14
567.0174537653
 24
-342.2098505174
 34
0.0
 50
90.0
100
AcDbRotatedDimension
  0
DIMENSION
  5
1EB
330
1F
100
AcDbEntity
  8
SLD-0
 62
   254
100
AcDbDimension
  2
_D_2
 10
562.920552603
 20
-6.7485851127
 30
0.0
 11
541.7868815613
 21
-6.7513529484
 31
0.0
 70
   160
  1
<>
  3
SLDDIMSTYLE0
100
AcDbAlignedDimension
 13
522.924242929
 23
-34.9285030193
 33
0.0
 14
562.9242425859
 24
-34.9232642973
 34
0.0
 50
0.0075039166
100
AcDbRotatedDimension
  0
DIMENSION
  5
1F6
330
1F
100
AcDbEntity
  8
SLD-0
 62
   254
100
AcDbDimension
  2
_D_3
 10
600.3458781327
 20
-346.2098505174
 30
0.0
 11
600.3458781327
 21
-180.6045994453
 31
0.0
 70
   160
  1
<>
  3
SLDDIMSTYLE0
100
AcDbAlignedDimension
 13
542.9242427575
 23
-34.9258836583
 33
0.0
 14
543.0174537653
 24
-346.2098505174
 34
0.0
 50
90.0
100
AcDbRotatedDimension
  0
DIMENSION
  5
201
330
1F
100
AcDbEntity
  8
SLD-0
 62
   254
100
AcDbDimension
  2
_D_4
 10
737.2152281882
 20
-346.2098505174
 30
0.0
 11
737.2152281882
 21
-256.3609439755
 31
0.0
 70
   160
  1
<>
  3
SLDDIMSTYLE0
100
AcDbAlignedDimension
 13
755.0398559329
 23
-163.0098505174
 33
0.0
 14
849.4203418028
 24
-346.2098505174
 34
0.0
 50
90.0
100
AcDbRotatedDimension
  0
DIMENSION
  5
20C
330
1F
100
AcDbEntity
  8
SLD-0
 62
   254
100
AcDbDimension
  2
_D_5
 10
839.3868243399
 20
-69.0859092868
 30
0.0
 11
781.3222426534
 21
-102.6095111539
 31
0.0
 70
   160
  1
<>
  3
SLDDIMSTYLE0
100
AcDbAlignedDimension
 13
749.4898559329
 23
-153.3969685354
 33
0.0
 14
853.4203418028
 24
-93.3926745414
 34
0.0
 50
30.0
100
AcDbRotatedDimension
  0
DIMENSION
  5
217
330
1F
100
AcDbEntity
  8
SLD-0
 62
   254
100
AcDbDimension
  2
_D_6
 10
853.4203418028
 20
-342.2098505174
 30
0.0
 11
810.1715721165
 21
-194.7313321253
 31
0.0
 70
   162
  1
<>
  3
SLDDIMSTYLE1
100
AcDb2LineAngularDimension
 13
760.5898559329
 23
-172.6227324994
 33
0.0
 14
853.4203541539
 24
-119.0270193625
 34
0.0
 15
853.4203418028
 25
-113.13276637
 35
0.0
 16
788.8545783749
 26
-177.6176414718
 36
0.0
  0
DIMENSION
  5
221
330
1F
100
AcDbEntity
  8
SLD-0
 62
   254
100
AcDbDimension
  2
_D_7
 10
554.1174537653
 20
139.1559469164
 30
0.0
 11
576.8328256325
 21
139.1559469164
 31
0.0
 70
   160
  1
<>
  3
SLDDIMSTYLE0
100
AcDbAlignedDimension
 13
531.9174537653
 23
89.6379472846
 33
0.0
 14
554.1174537653
 24
89.6379472846
 34
0.0
100
AcDbRotatedDimension
  0
DIMENSION
  5
22B
330
1F
100
AcDbEntity
  8
SLD-0
 62
   254
100
AcDbDimension
  2
_D_8
 10
597.6957623138
 20
231.5888488649
 30
0.0
 11
597.0756385647
 21
152.794643228
 31
0.0
 70
   160
  1
<>
  3
SLDDIMSTYLE0
100
AcDbAlignedDimension
 13
542.0429565399
 23
84.1968009621
 33
0.0
 14
543.2063319824
 24
232.0176899142
 34
0.0
 50
89.5490818169
100
AcDbRotatedDimension
  0
ENDSEC
  0
SECTION
  2
OBJECTS
  0
DICTIONARY
  5
C
330
0
100
AcDbDictionary
  3
ACAD_GROUP
350
D
  3
ACAD_MLINESTYLE
350
17
  3
ACAD_SCALELIST
350
47
  0
DICTIONARY
  5
D
102
{ACAD_REACTORS
330
C
102
}
330
C
100
AcDbDictionary
  0
DICTIONARY
  5
17
102
{ACAD_REACTORS
330
C
102
}
330
C
100
AcDbDictionary
  3
STANDARD
350
18
  0
DICTIONARY
  5
47
102
{ACAD_REACTORS
330
C
102
}
330
C
100
AcDbDictionary
  0
MLINESTYLE
  5
18
102
{ACAD_REACTORS
330
17
102
}
330
17
100
AcDbMlineStyle
  2
Standard
 70
     0
  3

 62
   256
 51
90.0
 52
90.0
 71
     2
 49
0.5
 62
   256
  6
BYLAYER
 49
-0.5
 62
   256
  6
BYLAYER
  0
ENDSEC
  0
EOF
