  0
SECTION
  2
HEADER
  9
$ACADVER
  1
AC1032
  9
$ACADMAINTVER
 90
      174
  9
$DWGCODEPAGE
  3
ANSI_1252
  9
$LASTSAVEDBY
  1
pengb
  9
$REQUIREDVERSIONS
160
                 0
  9
$INSBASE
 10
0.0
 20
0.0
 30
0.0
  9
$EXTMIN
 10
-39.35455400004082
 20
-55.8318221618731
 30
-0.0000000000000058
  9
$EXTMAX
 10
265.2557324218146
 20
223.6690518268906
 30
0.0000000000000104
  9
$LIMMIN
 10
0.0
 20
0.0
  9
$LIMMAX
 10
420.0
 20
297.0
  9
$ORTHOMODE
 70
     0
  9
$REGENMODE
 70
     1
  9
$FILLMODE
 70
     1
  9
$QTEXTMODE
 70
     0
  9
$MIRRTEXT
 70
     0
  9
$LTSCALE
 40
1.0
  9
$ATTMODE
 70
     1
  9
$TEXTSIZE
 40
2.5
  9
$TRACEWID
 40
1.0
  9
$TEXTSTYLE
  7
Large
  9
$CLAYER
  8
DIMENSION
  9
$CELTYPE
  6
ByLayer
  9
$CECOLOR
 62
     7
  9
$CELTSCALE
 40
1.0
  9
$DISPSILH
 70
     0
  9
$DIMSCALE
 40
12.0
  9
$DIMASZ
 40
5.0
  9
$DIMEXO
 40
1.0
  9
$DIMDLI
 40
10.0
  9
$DIMRND
 40
0.0
  9
$DIMDLE
 40
0.0
  9
$DIMEXE
 40
5.0
  9
$DIMTP
 40
0.0
  9
$DIMTM
 40
0.0
  9
$DIMTXT
 40
8.0
  9
$DIMCEN
 40
0.0
  9
$DIMTSZ
 40
0.0
  9
$DIMTOL
 70
     0
  9
$DIMLIM
 70
     0
  9
$DIMTIH
 70
     1
  9
$DIMTOH
 70
     1
  9
$DIMSE1
 70
     0
  9
$DIMSE2
 70
     0
  9
$DIMTAD
 70
     2
  9
$DIMZIN
 70
     0
  9
$DIMBLK
  1
None
  9
$DIMASO
 70
     1
  9
$DIMSHO
 70
     1
  9
$DIMPOST
  1

  9
$DIMAPOST
  1

  9
$DIMALT
 70
     0
  9
$DIMALTD
 70
     2
  9
$DIMALTF
 40
25.4
  9
$DIMLFAC
 40
1.0
  9
$DIMTOFL
 70
     1
  9
$DIMTVP
 40
0.0
  9
$DIMTIX
 70
     0
  9
$DIMSOXD
 70
     0
  9
$DIMSAH
 70
     0
  9
$DIMBLK1
  1

  9
$DIMBLK2
  1

  9
$DIMSTYLE
  2
RG Dimension Lines
  9
$DIMCLRD
 70
   256
  9
$DIMCLRE
 70
   256
  9
$DIMCLRT
 70
     7
  9
$DIMTFAC
 40
1.0
  9
$DIMGAP
 40
4.0
  9
$DIMJUST
 70
     0
  9
$DIMSD1
 70
     0
  9
$DIMSD2
 70
     0
  9
$DIMTOLJ
 70
     1
  9
$DIMTZIN
 70
     0
  9
$DIMALTZ
 70
     0
  9
$DIMALTTZ
 70
     0
  9
$DIMUPT
 70
     0
  9
$DIMDEC
 70
     0
  9
$DIMTDEC
 70
     0
  9
$DIMALTU
 70
     2
  9
$DIMALTTD
 70
     2
  9
$DIMTXSTY
  7
Standard
  9
$DIMAUNIT
 70
     0
  9
$DIMADEC
 70
     0
  9
$DIMALTRND
 40
0.0
  9
$DIMAZIN
 70
     0
  9
$DIMDSEP
 70
    46
  9
$DIMATFIT
 70
     3
  9
$DIMFRAC
 70
     0
  9
$DIMLDRBLK
  1
None
  9
$DIMLUNIT
 70
     2
  9
$DIMLWD
 70
     0
  9
$DIMLWE
 70
     0
  9
$DIMTMOVE
 70
     0
  9
$DIMFXL
 40
5.0
  9
$DIMFXLON
 70
     1
  9
$DIMJOGANG
 40
0.7853981633974483
  9
$DIMTFILL
 70
     0
  9
$DIMTFILLCLR
 70
     0
  9
$DIMARCSYM
 70
     0
  9
$DIMLTYPE
  6

  9
$DIMLTEX1
  6

  9
$DIMLTEX2
  6

  9
$DIMTXTDIRECTION
 70
     0
  9
$LUNITS
 70
     2
  9
$LUPREC
 70
     2
  9
$SKETCHINC
 40
1.0
  9
$FILLETRAD
 40
0.0
  9
$AUNITS
 70
     0
  9
$AUPREC
 70
     4
  9
$MENU
  1
.
  9
$ELEVATION
 40
0.0
  9
$PELEVATION
 40
0.0
  9
$THICKNESS
 40
0.0
  9
$LIMCHECK
 70
     0
  9
$CHAMFERA
 40
0.0
  9
$CHAMFERB
 40
0.0
  9
$CHAMFERC
 40
0.0
  9
$CHAMFERD
 40
0.0
  9
$SKPOLY
 70
     0
  9
$TDCREATE
 40
2460224.363530092
  9
$TDUCREATE
 40
2460223.905196759
  9
$TDUPDATE
 40
2460224.368506945
  9
$TDUUPDATE
 40
2460223.910173612
  9
$TDINDWG
 40
0.0024537037
  9
$TDUSRTIMER
 40
0.0024537037
  9
$USRTIMER
 70
     1
  9
$ANGBASE
 50
0.0
  9
$ANGDIR
 70
     0
  9
$PDMODE
 70
     0
  9
$PDSIZE
 40
0.0
  9
$PLINEWID
 40
0.0
  9
$SPLFRAME
 70
     0
  9
$SPLINETYPE
 70
     6
  9
$SPLINESEGS
 70
     8
  9
$HANDSEED
  5
EE5
  9
$SURFTAB1
 70
     6
  9
$SURFTAB2
 70
     6
  9
$SURFTYPE
 70
     6
  9
$SURFU
 70
     6
  9
$SURFV
 70
     6
  9
$UCSBASE
  2

  9
$UCSNAME
  2

  9
$UCSORG
 10
0.0
 20
0.0
 30
0.0
  9
$UCSXDIR
 10
1.0
 20
0.0
 30
0.0
  9
$UCSYDIR
 10
0.0
 20
1.0
 30
0.0
  9
$UCSORTHOREF
  2

  9
$UCSORTHOVIEW
 70
     0
  9
$UCSORGTOP
 10
0.0
 20
0.0
 30
0.0
  9
$UCSORGBOTTOM
 10
0.0
 20
0.0
 30
0.0
  9
$UCSORGLEFT
 10
0.0
 20
0.0
 30
0.0
  9
$UCSORGRIGHT
 10
0.0
 20
0.0
 30
0.0
  9
$UCSORGFRONT
 10
0.0
 20
0.0
 30
0.0
  9
$UCSORGBACK
 10
0.0
 20
0.0
 30
0.0
  9
$PUCSBASE
  2

  9
$PUCSNAME
  2

  9
$PUCSORG
 10
0.0
 20
0.0
 30
0.0
  9
$PUCSXDIR
 10
1.0
 20
0.0
 30
0.0
  9
$PUCSYDIR
 10
0.0
 20
1.0
 30
0.0
  9
$PUCSORTHOREF
  2

  9
$PUCSORTHOVIEW
 70
     0
  9
$PUCSORGTOP
 10
0.0
 20
0.0
 30
0.0
  9
$PUCSORGBOTTOM
 10
0.0
 20
0.0
 30
0.0
  9
$PUCSORGLEFT
 10
0.0
 20
0.0
 30
0.0
  9
$PUCSORGRIGHT
 10
0.0
 20
0.0
 30
0.0
  9
$PUCSORGFRONT
 10
0.0
 20
0.0
 30
0.0
  9
$PUCSORGBACK
 10
0.0
 20
0.0
 30
0.0
  9
$USERI1
 70
     0
  9
$USERI2
 70
     0
  9
$USERI3
 70
     0
  9
$USERI4
 70
     0
  9
$USERI5
 70
     0
  9
$USERR1
 40
0.0
  9
$USERR2
 40
0.0
  9
$USERR3
 40
0.0
  9
$USERR4
 40
0.0
  9
$USERR5
 40
0.0
  9
$WORLDVIEW
 70
     1
  9
$SHADEDGE
 70
     3
  9
$SHADEDIF
 70
    70
  9
$TILEMODE
 70
     1
  9
$MAXACTVP
 70
    64
  9
$PINSBASE
 10
0.0
 20
0.0
 30
0.0
  9
$PLIMCHECK
 70
     0
  9
$PEXTMIN
 10
2.301768454534453
 20
2.286098403531624
 30
0.0
  9
$PEXTMAX
 10
117.3017684545344
 20
87.44976840353162
 30
0.0
  9
$PLIMMIN
 10
0.0
 20
0.0
  9
$PLIMMAX
 10
120.0
 20
90.0
  9
$UNITMODE
 70
     0
  9
$VISRETAIN
 70
     1
  9
$PLINEGEN
 70
     0
  9
$PSLTSCALE
 70
     1
  9
$TREEDEPTH
 70
  3020
  9
$CMLSTYLE
  2
Standard
  9
$CMLJUST
 70
     0
  9
$CMLSCALE
 40
20.0
  9
$PROXYGRAPHICS
 70
     1
  9
$MEASUREMENT
 70
     1
  9
$CELWEIGHT
370
    -1
  9
$ENDCAPS
280
     0
  9
$JOINSTYLE
280
     0
  9
$LWDISPLAY
290
     0
  9
$INSUNITS
 70
     4
  9
$HYPERLINKBASE
  1

  9
$STYLESHEET
  1

  9
$XEDIT
290
     1
  9
$CEPSNTYPE
380
     0
  9
$PSTYLEMODE
290
     1
  9
$FINGERPRINTGUID
  2
{25ADC2A0-76DE-A644-ADF7-BB95F5193BB5}
  9
$VERSIONGUID
  2
{6FCF3030-6E92-F84F-8F95-96E42622648A}
  9
$EXTNAMES
290
     1
  9
$PSVPSCALE
 40
0.0
  9
$OLESTARTUP
290
     0
  9
$SORTENTS
280
   127
  9
$INDEXCTL
280
     0
  9
$HIDETEXT
280
     1
  9
$XCLIPFRAME
280
     2
  9
$HALOGAP
280
     0
  9
$OBSCOLOR
 70
   257
  9
$OBSLTYPE
280
     0
  9
$INTERSECTIONDISPLAY
280
     0
  9
$INTERSECTIONCOLOR
 70
   257
  9
$DIMASSOC
280
     2
  9
$PROJECTNAME
  1

  9
$CAMERADISPLAY
290
     0
  9
$LENSLENGTH
 40
50.0
  9
$CAMERAHEIGHT
 40
0.0
  9
$STEPSPERSEC
 40
2.0
  9
$STEPSIZE
 40
6.0
  9
$3DDWFPREC
 40
2.0
  9
$PSOLWIDTH
 40
5.0
  9
$PSOLHEIGHT
 40
80.0
  9
$LOFTANG1
 40
1.570796326794896
  9
$LOFTANG2
 40
1.570796326794896
  9
$LOFTMAG1
 40
0.0
  9
$LOFTMAG2
 40
0.0
  9
$LOFTPARAM
 70
     7
  9
$LOFTNORMALS
280
     1
  9
$LATITUDE
 40
37.795
  9
$LONGITUDE
 40
-122.394
  9
$NORTHDIRECTION
 40
0.0
  9
$TIMEZONE
 70
 -8000
  9
$LIGHTGLYPHDISPLAY
280
     1
  9
$TILEMODELIGHTSYNCH
280
     1
  9
$CMATERIAL
347
EC
  9
$SOLIDHIST
280
     0
  9
$SHOWHIST
280
     1
  9
$DWFFRAME
280
     2
  9
$DGNFRAME
280
     0
  9
$REALWORLDSCALE
290
     1
  9
$INTERFERECOLOR
 62
     1
  9
$INTERFEREOBJVS
345
F9
  9
$INTERFEREVPVS
346
F6
  9
$CSHADOW
280
     0
  9
$SHADOWPLANELOCATION
 40
0.0
  0
ENDSEC
  0
SECTION
  2
CLASSES
  0
CLASS
  1
ACDBDICTIONARYWDFLT
  2
AcDbDictionaryWithDefault
  3
ObjectDBX Classes
 90
        0
 91
        1
280
     0
281
     0
  0
CLASS
  1
ACDBPLACEHOLDER
  2
AcDbPlaceHolder
  3
ObjectDBX Classes
 90
        0
 91
        1
280
     0
281
     0
  0
CLASS
  1
LAYOUT
  2
AcDbLayout
  3
ObjectDBX Classes
 90
        0
 91
        2
280
     0
281
     0
  0
CLASS
  1
DICTIONARYVAR
  2
AcDbDictionaryVar
  3
ObjectDBX Classes
 90
        0
 91
       11
280
     0
281
     0
  0
CLASS
  1
TABLESTYLE
  2
AcDbTableStyle
  3
ObjectDBX Classes
 90
     4095
 91
        1
280
     0
281
     0
  0
CLASS
  1
MATERIAL
  2
AcDbMaterial
  3
ObjectDBX Classes
 90
     1153
 91
        3
280
     0
281
     0
  0
CLASS
  1
VISUALSTYLE
  2
AcDbVisualStyle
  3
ObjectDBX Classes
 90
     4095
 91
       24
280
     0
281
     0
  0
CLASS
  1
SCALE
  2
AcDbScale
  3
ObjectDBX Classes
 90
     1153
 91
       17
280
     0
281
     0
  0
CLASS
  1
MLEADERSTYLE
  2
AcDbMLeaderStyle
  3
ACDB_MLEADERSTYLE_CLASS
 90
     4095
 91
        2
280
     0
281
     0
  0
CLASS
  1
CELLSTYLEMAP
  2
AcDbCellStyleMap
  3
ObjectDBX Classes
 90
     1152
 91
        1
280
     0
281
     0
  0
CLASS
  1
EXACXREFPANELOBJECT
  2
ExAcXREFPanelObject
  3
EXAC_ESW
 90
     1025
 91
        0
280
     0
281
     0
  0
CLASS
  1
NPOCOLLECTION
  2
AcDbImpNonPersistentObjectsCollection
  3
ObjectDBX Classes
 90
     1153
 91
        0
280
     0
281
     0
  0
CLASS
  1
LAYER_INDEX
  2
AcDbLayerIndex
  3
ObjectDBX Classes
 90
        0
 91
        0
280
     0
281
     0
  0
CLASS
  1
SPATIAL_INDEX
  2
AcDbSpatialIndex
  3
ObjectDBX Classes
 90
        0
 91
        0
280
     0
281
     0
  0
CLASS
  1
IDBUFFER
  2
AcDbIdBuffer
  3
ObjectDBX Classes
 90
        0
 91
        0
280
     0
281
     0
  0
CLASS
  1
ACDBSECTIONVIEWSTYLE
  2
AcDbSectionViewStyle
  3
ObjectDBX Classes
 90
     1025
 91
        2
280
     0
281
     0
  0
CLASS
  1
ACDBDETAILVIEWSTYLE
  2
AcDbDetailViewStyle
  3
ObjectDBX Classes
 90
     1025
 91
        2
280
     0
281
     0
  0
CLASS
  1
RAPIDRTRENDERSETTINGS
  2
AcDbRapidRTRenderSettings
  3
ObjectDBX Classes
 90
     1024
 91
        7
280
     0
281
     0
  0
CLASS
  1
SURFACE
  2
AcDbSurface
  3
ObjectDBX Classes
 90
     4095
 91
        0
280
     0
281
     1
  0
CLASS
  1
ACDBASSOCPERSSUBENTMANAGER
  2
AcDbAssocPersSubentManager
  3
ObjectDBX Classes
 90
     1024
 91
        1
280
     0
281
     0
  0
CLASS
  1
DIMASSOC
  2
AcDbDimAssoc
  3
"AcDbDimAssoc|Product Desc:     AcDim ARX App For Dimension|Company:          Autodesk, Inc.|WEB Address:      www.autodesk.com"
 90
        0
 91
        8
280
     0
281
     0
  0
CLASS
  1
ACDB_ALDIMOBJECTCONTEXTDATA_CLASS
  2
AcDbAlignedDimensionObjectContextData
  3
ObjectDBX Classes
 90
     1153
 91
        9
280
     0
281
     0
  0
CLASS
  1
SORTENTSTABLE
  2
AcDbSortentsTable
  3
ObjectDBX Classes
 90
        0
 91
        0
280
     0
281
     0
  0
CLASS
  1
ACDB_DMDIMOBJECTCONTEXTDATA_CLASS
  2
AcDbDiametricDimensionObjectContextData
  3
ObjectDBX Classes
 90
     1153
 91
        0
280
     0
281
     0
  0
ENDSEC
  0
SECTION
  2
TABLES
  0
TABLE
  2
VPORT
  5
8
330
0
100
AcDbSymbolTable
 70
     1
  0
VPORT
  5
EA
330
8
100
AcDbSymbolTableRecord
100
AcDbViewportTableRecord
  2
*Active
 70
     0
 10
0.0
 20
0.0
 11
1.0
 21
1.0
 12
112.9505892108869
 22
83.91861483250876
 13
0.0
 23
0.0
 14
10.0
 24
10.0
 15
10.0
 25
10.0
 16
0.0
 26
0.0
 36
1.0
 17
0.0
 27
0.0
 37
0.0
 40
280.8489489436935
 41
3.312148028962188
 42
50.0
 43
0.0
 44
0.0
 50
0.0
 51
0.0
 71
     0
 72
  1000
 73
     1
 74
     3
 75
     1
 76
     1
 77
     0
 78
     0
281
     0
 65
     1
110
0.0
120
0.0
130
0.0
111
1.0
121
0.0
131
0.0
112
0.0
122
1.0
132
0.0
 79
     0
146
0.0
348
F5
 60
     3
 61
     5
292
     1
282
     1
141
0.0
142
0.0
 63
   250
421
  3355443
1001
ACAD_NAV_VCDISPLAY
1070
     3
  0
ENDTAB
  0
TABLE
  2
LTYPE
  5
5
330
0
100
AcDbSymbolTable
 70
     1
  0
LTYPE
  5
14
330
5
100
AcDbSymbolTableRecord
100
AcDbLinetypeTableRecord
  2
ByBlock
 70
     0
  3

 72
    65
 73
     0
 40
0.0
  0
LTYPE
  5
15
330
5
100
AcDbSymbolTableRecord
100
AcDbLinetypeTableRecord
  2
ByLayer
 70
     0
  3

 72
    65
 73
     0
 40
0.0
  0
LTYPE
  5
16
330
5
100
AcDbSymbolTableRecord
100
AcDbLinetypeTableRecord
  2
Continuous
 70
     0
  3
Solid line
 72
    65
 73
     0
 40
0.0
  0
ENDTAB
  0
TABLE
  2
LAYER
  5
2
102
{ACAD_XDICTIONARY
360
1FF
102
}
330
0
100
AcDbSymbolTable
 70
     8
  0
LAYER
  5
10
102
{ACAD_XDICTIONARY
360
13C
102
}
330
2
100
AcDbSymbolTableRecord
100
AcDbLayerTableRecord
  2
0
 70
     0
 62
   255
  6
Continuous
370
    -3
390
F
347
EE
348
0
  0
LAYER
  5
2A8
330
2
100
AcDbSymbolTableRecord
100
AcDbLayerTableRecord
  2
OBJECTS
 70
     0
 62
   255
  6
Continuous
370
    -3
390
F
347
EE
348
0
1001
AcAecLayerStandard
1000

1000

1001
AcCmTransparency
1071
        0
  0
LAYER
  5
582
330
2
100
AcDbSymbolTableRecord
100
AcDbLayerTableRecord
  2
Defpoints
 70
     0
 62
     7
  6
Continuous
290
     0
370
    -3
390
F
347
EE
348
0
  0
LAYER
  5
65C
330
2
100
AcDbSymbolTableRecord
100
AcDbLayerTableRecord
  2
DIMENSION
 70
     0
 62
   255
  6
Continuous
370
    -3
390
F
347
EE
348
0
  0
LAYER
  5
718
330
2
100
AcDbSymbolTableRecord
100
AcDbLayerTableRecord
  2
Layer 1
 70
     0
 62
     7
  6
Continuous
370
     0
390
F
347
EE
348
0
  0
LAYER
  5
C15
102
{ACAD_XDICTIONARY
360
C16
102
}
330
2
100
AcDbSymbolTableRecord
100
AcDbLayerTableRecord
  2
09centre
 70
     0
 62
     7
  6
Continuous
370
     9
390
F
347
EE
348
0
  0
LAYER
  5
C17
102
{ACAD_XDICTIONARY
360
C18
102
}
330
2
100
AcDbSymbolTableRecord
100
AcDbLayerTableRecord
  2
09dimension
 70
     0
 62
     7
  6
Continuous
370
     9
390
F
347
EE
348
0
  0
LAYER
  5
DBA
330
2
100
AcDbSymbolTableRecord
100
AcDbLayerTableRecord
  2
GEB-KONTUR-A
 70
     0
 62
     5
  6
Continuous
370
    -3
390
F
347
EE
348
0
  0
ENDTAB
  0
TABLE
  2
STYLE
  5
3
330
0
100
AcDbSymbolTable
 70
     3
  0
STYLE
  5
11
330
3
100
AcDbSymbolTableRecord
100
AcDbTextStyleTableRecord
  2
Standard
 70
     0
 40
8.0
 41
1.0
 50
0.0
 71
     0
 42
2.5
  3
HV______.TTF
  4

1001
AcadAnnotative
1000
AnnotativeData
1002
{
1070
     1
1070
     1
1002
}
1001
ACAD
1000
Helvetica
1071
        2
  0
STYLE
  5
C19
330
3
100
AcDbSymbolTableRecord
100
AcDbTextStyleTableRecord
  2
style1
 70
     0
 40
1.7
 41
1.0
 50
0.0
 71
     0
 42
1.7
  3
techb___.ttf
  4

1001
ACAD
1000
TechnicBold
1071
      514
  0
STYLE
  5
CFB
330
3
100
AcDbSymbolTableRecord
100
AcDbTextStyleTableRecord
  2
Large
 70
     0
 40
20.0
 41
1.0
 50
0.0
 71
     0
 42
2.5
  3
HV______.TTF
  4

1001
AcadAnnotative
1000
AnnotativeData
1002
{
1070
     1
1070
     1
1002
}
1001
ACAD
1000
Helvetica
1071
        2
  0
ENDTAB
  0
TABLE
  2
VIEW
  5
6
330
0
100
AcDbSymbolTable
 70
     1
  0
ENDTAB
  0
TABLE
  2
UCS
  5
7
330
0
100
AcDbSymbolTable
 70
     0
  0
ENDTAB
  0
TABLE
  2
APPID
  5
9
330
0
100
AcDbSymbolTable
 70
    19
  0
APPID
  5
12
330
9
100
AcDbSymbolTableRecord
100
AcDbRegAppTableRecord
  2
ACAD
 70
     0
  0
APPID
  5
9E
330
9
100
AcDbSymbolTableRecord
100
AcDbRegAppTableRecord
  2
ACAD_PSEXT
 70
     0
  0
APPID
  5
133
330
9
100
AcDbSymbolTableRecord
100
AcDbRegAppTableRecord
  2
AcadAnnoPO
 70
     0
  0
APPID
  5
134
330
9
100
AcDbSymbolTableRecord
100
AcDbRegAppTableRecord
  2
AcadAnnotative
 70
     0
  0
APPID
  5
135
330
9
100
AcDbSymbolTableRecord
100
AcDbRegAppTableRecord
  2
ACAD_DSTYLE_DIMJAG
 70
     0
  0
APPID
  5
136
330
9
100
AcDbSymbolTableRecord
100
AcDbRegAppTableRecord
  2
ACAD_DSTYLE_DIMTALN
 70
     0
  0
APPID
  5
165
330
9
100
AcDbSymbolTableRecord
100
AcDbRegAppTableRecord
  2
ACAD_MLEADERVER
 70
     0
  0
APPID
  5
217
330
9
100
AcDbSymbolTableRecord
100
AcDbRegAppTableRecord
  2
ACAD_NAV_VCDISPLAY
 70
     0
  0
APPID
  5
2A9
330
9
100
AcDbSymbolTableRecord
100
AcDbRegAppTableRecord
  2
AcAecLayerStandard
 70
     0
  0
APPID
  5
2AA
330
9
100
AcDbSymbolTableRecord
100
AcDbRegAppTableRecord
  2
AcCmTransparency
 70
     0
  0
APPID
  5
2AB
330
9
100
AcDbSymbolTableRecord
100
AcDbRegAppTableRecord
  2
ACAD_EXEMPT_FROM_CAD_STANDARDS
 70
     0
  0
APPID
  5
2B2
330
9
100
AcDbSymbolTableRecord
100
AcDbRegAppTableRecord
  2
Acad_TC
 70
     0
  0
APPID
  5
2BA
330
9
100
AcDbSymbolTableRecord
100
AcDbRegAppTableRecord
  2
AcadStringInfo
 70
     0
  0
APPID
  5
4A1
330
9
100
AcDbSymbolTableRecord
100
AcDbRegAppTableRecord
  2
ACAD_DIMASSOC_CALC_DIMLFAC
 70
     0
  0
APPID
  5
4A2
330
9
100
AcDbSymbolTableRecord
100
AcDbRegAppTableRecord
  2
ACAD_DIMASSOC_DIMLFAC
 70
     0
  0
APPID
  5
4A3
330
9
100
AcDbSymbolTableRecord
100
AcDbRegAppTableRecord
  2
ACAD_DIMASSOC_OVERRIDDEN_DIMLFAC
 70
     0
  0
APPID
  5
50B
330
9
100
AcDbSymbolTableRecord
100
AcDbRegAppTableRecord
  2
ACAD_STEPID
 70
     0
  0
APPID
  5
65E
330
9
100
AcDbSymbolTableRecord
100
AcDbRegAppTableRecord
  2
ACAD_DSTYLE_DIMBREAK
 70
     0
  0
APPID
  5
E5A
330
9
100
AcDbSymbolTableRecord
100
AcDbRegAppTableRecord
  2
ACAD_DSTYLE_DIMRADIAL_EXTENSION
 70
     0
  0
ENDTAB
  0
TABLE
  2
DIMSTYLE
  5
A
330
0
100
AcDbSymbolTable
 70
     4
100
AcDbDimStyleTable
 71
     3
340
65D
340
9C7
340
C1A
  0
DIMSTYLE
105
65D
102
{ACAD_REACTORS
330
E2A
330
E3A
330
E4A
330
E5B
330
E79
330
EA0
330
EC3
102
}
330
A
100
AcDbSymbolTableRecord
100
AcDbDimStyleTableRecord
  2
RG Dimension Lines
 70
     0
 40
12.0
 41
5.0
 42
1.0
 43
10.0
 44
5.0
 49
5.0
 77
     2
140
8.0
141
0.0
147
4.0
172
     1
176
   256
177
   256
178
     7
271
     0
272
     0
290
     1
340
11
341
5DD
342
5DD
371
     0
372
     0
1001
ACAD_DSTYLE_DIMBREAK
1070
   391
1040
0.125
1001
AcadAnnotative
1000
AnnotativeData
1002
{
1070
     1
1070
     1
1002
}
1001
ACAD_DSTYLE_DIMJAG
1070
   388
1040
1.5
1001
ACAD_DSTYLE_DIMTALN
1070
   392
1070
     0
  0
DIMSTYLE
105
719
330
A
100
AcDbSymbolTableRecord
100
AcDbDimStyleTableRecord
  2
Standard
 70
     0
340
11
  0
DIMSTYLE
105
9C7
330
A
100
AcDbSymbolTableRecord
100
AcDbDimStyleTableRecord
  2
RG Dimension Lines_Large
 70
     0
 40
12.0
 41
5.0
 42
6.0
 43
10.0
 44
20.0
 49
20.0
 77
     2
140
20.0
141
0.0
147
10.0
172
     1
176
   256
177
   256
178
     7
271
     0
272
     0
290
     1
340
CFB
341
5DD
342
5DD
371
     0
372
     0
1001
ACAD_DSTYLE_DIMBREAK
1070
   391
1040
0.125
1001
AcadAnnotative
1000
AnnotativeData
1002
{
1070
     1
1070
     1
1002
}
1001
ACAD_DSTYLE_DIMJAG
1070
   388
1040
1.5
1001
ACAD_DSTYLE_DIMTALN
1070
   392
1070
     0
  0
DIMSTYLE
105
C1A
330
A
100
AcDbSymbolTableRecord
100
AcDbDimStyleTableRecord
  2
ISO-25
 70
     0
 41
2.0
 42
0.625
 43
3.75
 44
1.25
 73
     0
 74
     0
 77
     1
 78
     8
140
1.8
141
2.5
143
0.03937007874016
147
0.625
171
     3
172
     1
271
     2
272
     2
274
     3
278
    44
283
     0
284
     8
340
11
341
C0D
342
C11
  0
ENDTAB
  0
TABLE
  2
BLOCK_RECORD
  5
1
330
0
100
AcDbSymbolTable
 70
    31
  0
BLOCK_RECORD
  5
1F
102
{ACAD_XDICTIONARY
360
1CE
102
}
330
1
100
AcDbSymbolTableRecord
100
AcDbBlockTableRecord
  2
*Model_Space
340
22
 70
     0
280
     1
281
     0
  0
BLOCK_RECORD
  5
4ED
330
1
100
AcDbSymbolTableRecord
100
AcDbBlockTableRecord
  2
*Paper_Space
340
4EE
 70
     0
280
     1
281
     0
  0
BLOCK_RECORD
  5
5DD
330
1
100
AcDbSymbolTableRecord
100
AcDbBlockTableRecord
  2
_None
340
0
 70
     0
280
     1
281
     0
  0
BLOCK_RECORD
  5
6B5
330
1
100
AcDbSymbolTableRecord
100
AcDbBlockTableRecord
  2
Block_0
340
0
 70
     0
280
     1
281
     0
  0
BLOCK_RECORD
  5
6B9
330
1
100
AcDbSymbolTableRecord
100
AcDbBlockTableRecord
  2
Block_1
340
0
102
{BLKREFS
331
6B7
102
}
 70
     0
280
     1
281
     0
  0
BLOCK_RECORD
  5
6C4
330
1
100
AcDbSymbolTableRecord
100
AcDbBlockTableRecord
  2
Block_2
340
0
 70
     0
280
     1
281
     0
  0
BLOCK_RECORD
  5
6C8
330
1
100
AcDbSymbolTableRecord
100
AcDbBlockTableRecord
  2
Block_3
340
0
102
{BLKREFS
331
6C6
102
}
 70
     0
280
     1
281
     0
  0
BLOCK_RECORD
  5
6D0
330
1
100
AcDbSymbolTableRecord
100
AcDbBlockTableRecord
  2
Block_4
340
0
 70
     0
280
     1
281
     0
  0
BLOCK_RECORD
  5
6D4
330
1
100
AcDbSymbolTableRecord
100
AcDbBlockTableRecord
  2
Block_5
340
0
102
{BLKREFS
331
6D2
102
}
 70
     0
280
     1
281
     0
  0
BLOCK_RECORD
  5
6DE
330
1
100
AcDbSymbolTableRecord
100
AcDbBlockTableRecord
  2
Block_6
340
0
 70
     0
280
     1
281
     0
  0
BLOCK_RECORD
  5
6E4
330
1
100
AcDbSymbolTableRecord
100
AcDbBlockTableRecord
  2
Block_7
340
0
 70
     0
280
     1
281
     0
  0
BLOCK_RECORD
  5
6E9
330
1
100
AcDbSymbolTableRecord
100
AcDbBlockTableRecord
  2
Block_8
340
0
 70
     0
280
     1
281
     0
  0
BLOCK_RECORD
  5
6EE
330
1
100
AcDbSymbolTableRecord
100
AcDbBlockTableRecord
  2
Block_9
340
0
 70
     0
280
     1
281
     0
  0
BLOCK_RECORD
  5
6F4
330
1
100
AcDbSymbolTableRecord
100
AcDbBlockTableRecord
  2
Block_10
340
0
 70
     0
280
     1
281
     0
  0
BLOCK_RECORD
  5
6F9
330
1
100
AcDbSymbolTableRecord
100
AcDbBlockTableRecord
  2
Block_11
340
0
 70
     0
280
     1
281
     0
  0
BLOCK_RECORD
  5
6FE
330
1
100
AcDbSymbolTableRecord
100
AcDbBlockTableRecord
  2
Block_12
340
0
 70
     0
280
     1
281
     0
  0
BLOCK_RECORD
  5
702
330
1
100
AcDbSymbolTableRecord
100
AcDbBlockTableRecord
  2
Block_13
340
0
102
{BLKREFS
331
700
102
}
 70
     0
280
     1
281
     0
  0
BLOCK_RECORD
  5
70A
330
1
100
AcDbSymbolTableRecord
100
AcDbBlockTableRecord
  2
Block_14
340
0
 70
     0
280
     1
281
     0
  0
BLOCK_RECORD
  5
70E
330
1
100
AcDbSymbolTableRecord
100
AcDbBlockTableRecord
  2
Block_15
340
0
102
{BLKREFS
331
70C
102
}
 70
     0
280
     1
281
     0
  0
BLOCK_RECORD
  5
91A
330
1
100
AcDbSymbolTableRecord
100
AcDbBlockTableRecord
  2
SW_CENTERMARKSYMBOL_0
340
0
 70
     0
280
     1
281
     0
  0
BLOCK_RECORD
  5
925
330
1
100
AcDbSymbolTableRecord
100
AcDbBlockTableRecord
  2
SW_CENTERMARKSYMBOL_1
340
0
 70
     0
280
     1
281
     0
  0
BLOCK_RECORD
  5
930
330
1
100
AcDbSymbolTableRecord
100
AcDbBlockTableRecord
  2
SW_CENTERMARKSYMBOL_2
340
0
 70
     0
280
     1
281
     0
  0
BLOCK_RECORD
  5
C0D
330
1
100
AcDbSymbolTableRecord
100
AcDbBlockTableRecord
  2
_DotSmall
340
0
 70
     0
280
     1
281
     0
  0
BLOCK_RECORD
  5
C11
330
1
100
AcDbSymbolTableRecord
100
AcDbBlockTableRecord
  2
_ArchTick
340
0
 70
     0
280
     1
281
     0
  0
BLOCK_RECORD
  5
D23
330
1
100
AcDbSymbolTableRecord
100
AcDbBlockTableRecord
  2
*D22
340
0
 70
     0
280
     1
281
     0
  0
BLOCK_RECORD
  5
D2D
102
{ACAD_XDICTIONARY
360
D33
102
}
330
1
100
AcDbSymbolTableRecord
100
AcDbBlockTableRecord
  2
A$Cf085e5ce
340
0
 70
     4
280
     1
281
     0
  0
BLOCK_RECORD
  5
E2F
330
1
100
AcDbSymbolTableRecord
100
AcDbBlockTableRecord
  2
*D24
340
0
 70
     0
280
     1
281
     0
  0
BLOCK_RECORD
  5
E3F
330
1
100
AcDbSymbolTableRecord
100
AcDbBlockTableRecord
  2
*D25
340
0
 70
     0
280
     1
281
     0
  0
BLOCK_RECORD
  5
E4F
330
1
100
AcDbSymbolTableRecord
100
AcDbBlockTableRecord
  2
*D26
340
0
 70
     0
280
     1
281
     0
  0
BLOCK_RECORD
  5
E60
330
1
100
AcDbSymbolTableRecord
100
AcDbBlockTableRecord
  2
*D27
340
0
 70
     0
280
     1
281
     0
  0
BLOCK_RECORD
  5
E7E
330
1
100
AcDbSymbolTableRecord
100
AcDbBlockTableRecord
  2
*D28
340
0
 70
     0
280
     1
281
     0
  0
BLOCK_RECORD
  5
EA5
330
1
100
AcDbSymbolTableRecord
100
AcDbBlockTableRecord
  2
*D29
340
0
 70
     0
280
     1
281
     0
  0
BLOCK_RECORD
  5
EC8
330
1
100
AcDbSymbolTableRecord
100
AcDbBlockTableRecord
  2
*D30
340
0
 70
     0
280
     1
281
     0
  0
ENDTAB
  0
ENDSEC
  0
SECTION
  2
BLOCKS
  0
BLOCK
  5
20
330
1F
100
AcDbEntity
  8
0
100
AcDbBlockBegin
  2
*Model_Space
 70
     0
 10
0.0
 20
0.0
 30
0.0
  3
*Model_Space
  1

  0
ENDBLK
  5
21
330
1F
100
AcDbEntity
  8
0
100
AcDbBlockEnd
  0
BLOCK
  5
4EF
330
4ED
100
AcDbEntity
 67
     1
  8
0
100
AcDbBlockBegin
  2
*Paper_Space
 70
     0
 10
0.0
 20
0.0
 30
0.0
  3
*Paper_Space
  1

  0
ENDBLK
  5
4F0
330
4ED
100
AcDbEntity
 67
     1
  8
0
100
AcDbBlockEnd
  0
BLOCK
  5
5DE
330
5DD
100
AcDbEntity
  8
0
100
AcDbBlockBegin
  2
_None
 70
     0
 10
0.0
 20
0.0
 30
0.0
  3
_None
  1

  0
ENDBLK
  5
5DF
330
5DD
100
AcDbEntity
  8
0
100
AcDbBlockEnd
  0
BLOCK
  5
6B6
330
6B5
100
AcDbEntity
  8
0
100
AcDbBlockBegin
  2
Block_0
 70
     0
 10
0.0
 20
0.0
 30
0.0
  3
Block_0
  1

  0
INSERT
  5
6B7
330
6B5
100
AcDbEntity
  8
Layer 1
100
AcDbBlockReference
  2
Block_1
 10
0.0
 20
0.0
 30
0.0
  0
ENDBLK
  5
6B8
330
6B5
100
AcDbEntity
  8
0
100
AcDbBlockEnd
  0
BLOCK
  5
6BA
330
6B9
100
AcDbEntity
  8
0
100
AcDbBlockBegin
  2
Block_1
 70
     0
 10
0.0
 20
0.0
 30
0.0
  3
Block_1
  1

  0
SPLINE
  5
6BB
330
6B9
100
AcDbEntity
  8
Layer 1
100
AcDbSpline
210
0.0
220
0.0
230
1.0
 70
    11
 71
     3
 72
    41
 73
    37
 74
     0
 42
0.000000001
 43
0.0000000001
 40
0.0
 40
0.0
 40
0.0
 40
0.0
 40
1.0
 40
1.0
 40
1.0
 40
2.0
 40
2.0
 40
2.0
 40
3.0
 40
3.0
 40
3.0
 40
4.0
 40
4.0
 40
4.0
 40
5.0
 40
5.0
 40
5.0
 40
6.0
 40
6.0
 40
6.0
 40
7.0
 40
7.0
 40
7.0
 40
8.0
 40
8.0
 40
8.0
 40
9.0
 40
9.0
 40
9.0
 40
10.0
 40
10.0
 40
10.0
 40
11.0
 40
11.0
 40
11.0
 40
12.0
 40
12.0
 40
12.0
 40
12.0
 10
161.7001953125
 20
265.833984375
 30
0.0
 10
161.7001953125
 20
265.833984375
 30
0.0
 10
161.7001953125
 20
262.55859375
 30
0.0
 10
161.7001953125
 20
262.55859375
 30
0.0
 10
161.7001953125
 20
262.55859375
 30
0.0
 10
161.0146484375
 20
262.55859375
 30
0.0
 10
161.0146484375
 20
262.55859375
 30
0.0
 10
161.0146484375
 20
262.55859375
 30
0.0
 10
161.0146484375
 20
263.77734375
 30
0.0
 10
161.0146484375
 20
263.77734375
 30
0.0
 10
161.0146484375
 20
263.77734375
 30
0.0
 10
156.51171875
 20
263.77734375
 30
0.0
 10
156.51171875
 20
263.77734375
 30
0.0
 10
156.51171875
 20
263.77734375
 30
0.0
 10
156.51171875
 20
262.55859375
 30
0.0
 10
156.51171875
 20
262.55859375
 30
0.0
 10
156.51171875
 20
262.55859375
 30
0.0
 10
155.8984375
 20
262.55859375
 30
0.0
 10
155.8984375
 20
262.55859375
 30
0.0
 10
155.8984375
 20
263.01953125
 30
0.0
 10
155.8330078125
 20
263.357421875
 30
0.0
 10
155.7021484375
 20
263.576171875
 30
0.0
 10
155.5712890625
 20
263.7939453125
 30
0.0
 10
155.3232421875
 20
263.916015625
 30
0.0
 10
154.9599609375
 20
263.943359375
 30
0.0
 10
154.9599609375
 20
263.943359375
 30
0.0
 10
154.9599609375
 20
264.642578125
 30
0.0
 10
154.9599609375
 20
264.642578125
 30
0.0
 10
154.9599609375
 20
264.642578125
 30
0.0
 10
161.0146484375
 20
264.642578125
 30
0.0
 10
161.0146484375
 20
264.642578125
 30
0.0
 10
161.0146484375
 20
264.642578125
 30
0.0
 10
161.0146484375
 20
265.833984375
 30
0.0
 10
161.0146484375
 20
265.833984375
 30
0.0
 10
161.0146484375
 20
265.833984375
 30
0.0
 10
161.7001953125
 20
265.833984375
 30
0.0
 10
161.7001953125
 20
265.833984375
 30
0.0
  0
HATCH
  5
6BC
330
6B9
100
AcDbEntity
  8
Layer 1
 62
     7
100
AcDbHatch
 10
0.0
 20
0.0
 30
0.0
210
0.0
220
0.0
230
1.0
  2
SOLID
 70
     1
 71
     1
 91
        1
 92
        1
 93
        1
 72
     4
 94
        3
 73
     0
 74
     0
 95
       41
 96
       37
 40
0.0
 40
0.0
 40
0.0
 40
0.0
 40
1.0
 40
1.0
 40
1.0
 40
2.0
 40
2.0
 40
2.0
 40
3.0
 40
3.0
 40
3.0
 40
4.0
 40
4.0
 40
4.0
 40
5.0
 40
5.0
 40
5.0
 40
6.0
 40
6.0
 40
6.0
 40
7.0
 40
7.0
 40
7.0
 40
8.0
 40
8.0
 40
8.0
 40
9.0
 40
9.0
 40
9.0
 40
10.0
 40
10.0
 40
10.0
 40
11.0
 40
11.0
 40
11.0
 40
12.0
 40
12.0
 40
12.0
 40
12.0
 10
161.7001953125
 20
265.833984375
 10
161.7001953125
 20
265.833984375
 10
161.7001953125
 20
262.55859375
 10
161.7001953125
 20
262.55859375
 10
161.7001953125
 20
262.55859375
 10
161.0146484375
 20
262.55859375
 10
161.0146484375
 20
262.55859375
 10
161.0146484375
 20
262.55859375
 10
161.0146484375
 20
263.77734375
 10
161.0146484375
 20
263.77734375
 10
161.0146484375
 20
263.77734375
 10
156.51171875
 20
263.77734375
 10
156.51171875
 20
263.77734375
 10
156.51171875
 20
263.77734375
 10
156.51171875
 20
262.55859375
 10
156.51171875
 20
262.55859375
 10
156.51171875
 20
262.55859375
 10
155.8984375
 20
262.55859375
 10
155.8984375
 20
262.55859375
 10
155.8984375
 20
263.01953125
 10
155.8330078125
 20
263.357421875
 10
155.7021484375
 20
263.576171875
 10
155.5712890625
 20
263.7939453125
 10
155.3232421875
 20
263.916015625
 10
154.9599609375
 20
263.943359375
 10
154.9599609375
 20
263.943359375
 10
154.9599609375
 20
264.642578125
 10
154.9599609375
 20
264.642578125
 10
154.9599609375
 20
264.642578125
 10
161.0146484375
 20
264.642578125
 10
161.0146484375
 20
264.642578125
 10
161.0146484375
 20
264.642578125
 10
161.0146484375
 20
265.833984375
 10
161.0146484375
 20
265.833984375
 10
161.0146484375
 20
265.833984375
 10
161.7001953125
 20
265.833984375
 10
161.7001953125
 20
265.833984375
 97
        0
 97
        1
330
6BB
 75
     2
 76
     1
 98
        1
 10
0.0
 20
0.0
450
        0
451
        0
460
0.0
461
0.0
452
        0
462
0.0
453
        0
470

  0
SPLINE
  5
6BD
330
6B9
100
AcDbEntity
  8
Layer 1
100
AcDbSpline
210
0.0
220
0.0
230
1.0
 70
     9
 71
     3
 72
    47
 73
    43
 74
     0
 42
0.000000001
 43
0.0000000001
 40
0.0
 40
0.0
 40
0.0
 40
0.0
 40
1.0
 40
1.0
 40
1.0
 40
2.0
 40
2.0
 40
2.0
 40
3.0
 40
3.0
 40
3.0
 40
4.0
 40
4.0
 40
4.0
 40
5.0
 40
5.0
 40
5.0
 40
6.0
 40
6.0
 40
6.0
 40
7.0
 40
7.0
 40
7.0
 40
8.0
 40
8.0
 40
8.0
 40
9.0
 40
9.0
 40
9.0
 40
10.0
 40
10.0
 40
10.0
 40
11.0
 40
11.0
 40
11.0
 40
12.0
 40
12.0
 40
12.0
 40
13.0
 40
13.0
 40
13.0
 40
14.0
 40
14.0
 40
14.0
 40
14.0
 10
159.5576171875
 20
270.4091796875
 30
0.0
 10
159.2802734375
 20
270.4091796875
 30
0.0
 10
159.048828125
 20
270.373046875
 30
0.0
 10
158.8623046875
 20
270.30078125
 30
0.0
 10
158.67578125
 20
270.228515625
 30
0.0
 10
158.5166015625
 20
270.111328125
 30
0.0
 10
158.3837890625
 20
269.94921875
 30
0.0
 10
158.2880859375
 20
269.83203125
 30
0.0
 10
158.224609375
 20
269.6982421875
 30
0.0
 10
158.1943359375
 20
269.548828125
 30
0.0
 10
158.1650390625
 20
269.400390625
 30
0.0
 10
158.1494140625
 20
269.248046875
 30
0.0
 10
158.1494140625
 20
269.091796875
 30
0.0
 10
158.1494140625
 20
268.880859375
 30
0.0
 10
158.1806640625
 20
268.67578125
 30
0.0
 10
158.244140625
 20
268.478515625
 30
0.0
 10
158.3076171875
 20
268.279296875
 30
0.0
 10
158.3994140625
 20
268.083984375
 30
0.0
 10
158.51953125
 20
267.8916015625
 30
0.0
 10
158.5859375
 20
267.884765625
 30
0.0
 10
158.6494140625
 20
267.880859375
 30
0.0
 10
158.7109375
 20
267.8779296875
 30
0.0
 10
158.7724609375
 20
267.875
 30
0.0
 10
158.8505859375
 20
267.873046875
 30
0.0
 10
158.943359375
 20
267.873046875
 30
0.0
 10
159.41015625
 20
267.873046875
 30
0.0
 10
159.7861328125
 20
267.9189453125
 30
0.0
 10
160.0712890625
 20
268.0107421875
 30
0.0
 10
160.357421875
 20
268.1025390625
 30
0.0
 10
160.57421875
 20
268.216796875
 30
0.0
 10
160.720703125
 20
268.3515625
 30
0.0
 10
160.8623046875
 20
268.48046875
 30
0.0
 10
160.9619140625
 20
268.61328125
 30
0.0
 10
161.0185546875
 20
268.7509765625
 30
0.0
 10
161.076171875
 20
268.8876953125
 30
0.0
 10
161.1044921875
 20
269.03515625
 30
0.0
 10
161.1044921875
 20
269.1953125
 30
0.0
 10
161.1044921875
 20
269.556640625
 30
0.0
 10
160.9755859375
 20
269.8486328125
 30
0.0
 10
160.716796875
 20
270.072265625
 30
0.0
 10
160.4580078125
 20
270.296875
 30
0.0
 10
160.0712890625
 20
270.4091796875
 30
0.0
 10
159.5576171875
 20
270.4091796875
 30
0.0
  0
SPLINE
  5
6BE
330
6B9
100
AcDbEntity
  8
Layer 1
100
AcDbSpline
210
0.0
220
0.0
230
1.0
 70
     9
 71
     3
 72
    83
 73
    79
 74
     0
 42
0.000000001
 43
0.0000000001
 40
0.0
 40
0.0
 40
0.0
 40
0.0
 40
1.0
 40
1.0
 40
1.0
 40
2.0
 40
2.0
 40
2.0
 40
3.0
 40
3.0
 40
3.0
 40
4.0
 40
4.0
 40
4.0
 40
5.0
 40
5.0
 40
5.0
 40
6.0
 40
6.0
 40
6.0
 40
7.0
 40
7.0
 40
7.0
 40
8.0
 40
8.0
 40
8.0
 40
9.0
 40
9.0
 40
9.0
 40
10.0
 40
10.0
 40
10.0
 40
11.0
 40
11.0
 40
11.0
 40
12.0
 40
12.0
 40
12.0
 40
13.0
 40
13.0
 40
13.0
 40
14.0
 40
14.0
 40
14.0
 40
15.0
 40
15.0
 40
15.0
 40
16.0
 40
16.0
 40
16.0
 40
17.0
 40
17.0
 40
17.0
 40
18.0
 40
18.0
 40
18.0
 40
19.0
 40
19.0
 40
19.0
 40
20.0
 40
20.0
 40
20.0
 40
21.0
 40
21.0
 40
21.0
 40
22.0
 40
22.0
 40
22.0
 40
23.0
 40
23.0
 40
23.0
 40
24.0
 40
24.0
 40
24.0
 40
25.0
 40
25.0
 40
25.0
 40
26.0
 40
26.0
 40
26.0
 40
26.0
 10
159.521484375
 20
271.32421875
 30
0.0
 10
159.8671875
 20
271.32421875
 30
0.0
 10
160.185546875
 20
271.267578125
 30
0.0
 10
160.4775390625
 20
271.1533203125
 30
0.0
 10
160.76953125
 20
271.0390625
 30
0.0
 10
161.0126953125
 20
270.8857421875
 30
0.0
 10
161.2080078125
 20
270.693359375
 30
0.0
 10
161.416015625
 20
270.4921875
 30
0.0
 10
161.5732421875
 20
270.265625
 30
0.0
 10
161.6796875
 20
270.0166015625
 30
0.0
 10
161.787109375
 20
269.7666015625
 30
0.0
 10
161.83984375
 20
269.4921875
 30
0.0
 10
161.83984375
 20
269.19140625
 30
0.0
 10
161.83984375
 20
268.88671875
 30
0.0
 10
161.7890625
 20
268.611328125
 30
0.0
 10
161.6865234375
 20
268.36328125
 30
0.0
 10
161.583984375
 20
268.115234375
 30
0.0
 10
161.4326171875
 20
267.896484375
 30
0.0
 10
161.2314453125
 20
267.70703125
 30
0.0
 10
160.9873046875
 20
267.474609375
 30
0.0
 10
160.662109375
 20
267.29296875
 30
0.0
 10
160.25390625
 20
267.162109375
 30
0.0
 10
159.8466796875
 20
267.03125
 30
0.0
 10
159.3447265625
 20
266.966796875
 30
0.0
 10
158.75
 20
266.966796875
 30
0.0
 10
158.166015625
 20
266.966796875
 30
0.0
 10
157.638671875
 20
267.02734375
 30
0.0
 10
157.16796875
 20
267.146484375
 30
0.0
 10
156.697265625
 20
267.267578125
 30
0.0
 10
156.2880859375
 20
267.4521484375
 30
0.0
 10
155.9384765625
 20
267.7021484375
 30
0.0
 10
155.5986328125
 20
267.9453125
 30
0.0
 10
155.3330078125
 20
268.259765625
 30
0.0
 10
155.142578125
 20
268.64453125
 30
0.0
 10
154.951171875
 20
269.029296875
 30
0.0
 10
154.85546875
 20
269.474609375
 30
0.0
 10
154.85546875
 20
269.98046875
 30
0.0
 10
154.85546875
 20
270.130859375
 30
0.0
 10
154.86328125
 20
270.2705078125
 30
0.0
 10
154.87890625
 20
270.400390625
 30
0.0
 10
154.8935546875
 20
270.529296875
 30
0.0
 10
154.91796875
 20
270.6435546875
 30
0.0
 10
154.9501953125
 20
270.7421875
 30
0.0
 10
154.9501953125
 20
270.7421875
 30
0.0
 10
155.8125
 20
270.7421875
 30
0.0
 10
155.8125
 20
270.7421875
 30
0.0
 10
155.8125
 20
270.7421875
 30
0.0
 10
155.8125
 20
270.7021484375
 30
0.0
 10
155.8125
 20
270.7021484375
 30
0.0
 10
155.767578125
 20
270.62109375
 30
0.0
 10
155.7255859375
 20
270.50390625
 30
0.0
 10
155.6884765625
 20
270.349609375
 30
0.0
 10
155.650390625
 20
270.197265625
 30
0.0
 10
155.6318359375
 20
270.033203125
 30
0.0
 10
155.6318359375
 20
269.8583984375
 30
0.0
 10
155.6318359375
 20
269.298828125
 30
0.0
 10
155.8203125
 20
268.84765625
 30
0.0
 10
156.1982421875
 20
268.5029296875
 30
0.0
 10
156.5751953125
 20
268.158203125
 30
0.0
 10
157.1357421875
 20
267.955078125
 30
0.0
 10
157.87890625
 20
267.8916015625
 30
0.0
 10
157.728515625
 20
268.10546875
 30
0.0
 10
157.6123046875
 20
268.32421875
 30
0.0
 10
157.53125
 20
268.55078125
 30
0.0
 10
157.4501953125
 20
268.775390625
 30
0.0
 10
157.4091796875
 20
269.0224609375
 30
0.0
 10
157.4091796875
 20
269.2900390625
 30
0.0
 10
157.4091796875
 20
269.5517578125
 30
0.0
 10
157.435546875
 20
269.78125
 30
0.0
 10
157.48828125
 20
269.978515625
 30
0.0
 10
157.541015625
 20
270.1748046875
 30
0.0
 10
157.6474609375
 20
270.380859375
 30
0.0
 10
157.806640625
 20
270.59375
 30
0.0
 10
157.9931640625
 20
270.83984375
 30
0.0
 10
158.2294921875
 20
271.0234375
 30
0.0
 10
158.5146484375
 20
271.14453125
 30
0.0
 10
158.80078125
 20
271.2646484375
 30
0.0
 10
159.1357421875
 20
271.32421875
 30
0.0
 10
159.521484375
 20
271.32421875
 30
0.0
  0
HATCH
  5
6BF
330
6B9
100
AcDbEntity
  8
Layer 1
 62
     7
100
AcDbHatch
 10
0.0
 20
0.0
 30
0.0
210
0.0
220
0.0
230
1.0
  2
SOLID
 70
     1
 71
     1
 91
        2
 92
        1
 93
        1
 72
     4
 94
        3
 73
     0
 74
     0
 95
       47
 96
       43
 40
0.0
 40
0.0
 40
0.0
 40
0.0
 40
1.0
 40
1.0
 40
1.0
 40
2.0
 40
2.0
 40
2.0
 40
3.0
 40
3.0
 40
3.0
 40
4.0
 40
4.0
 40
4.0
 40
5.0
 40
5.0
 40
5.0
 40
6.0
 40
6.0
 40
6.0
 40
7.0
 40
7.0
 40
7.0
 40
8.0
 40
8.0
 40
8.0
 40
9.0
 40
9.0
 40
9.0
 40
10.0
 40
10.0
 40
10.0
 40
11.0
 40
11.0
 40
11.0
 40
12.0
 40
12.0
 40
12.0
 40
13.0
 40
13.0
 40
13.0
 40
14.0
 40
14.0
 40
14.0
 40
14.0
 10
159.5576171875
 20
270.4091796875
 10
159.2802734375
 20
270.4091796875
 10
159.048828125
 20
270.373046875
 10
158.8623046875
 20
270.30078125
 10
158.67578125
 20
270.228515625
 10
158.5166015625
 20
270.111328125
 10
158.3837890625
 20
269.94921875
 10
158.2880859375
 20
269.83203125
 10
158.224609375
 20
269.6982421875
 10
158.1943359375
 20
269.548828125
 10
158.1650390625
 20
269.400390625
 10
158.1494140625
 20
269.248046875
 10
158.1494140625
 20
269.091796875
 10
158.1494140625
 20
268.880859375
 10
158.1806640625
 20
268.67578125
 10
158.244140625
 20
268.478515625
 10
158.3076171875
 20
268.279296875
 10
158.3994140625
 20
268.083984375
 10
158.51953125
 20
267.8916015625
 10
158.5859375
 20
267.884765625
 10
158.6494140625
 20
267.880859375
 10
158.7109375
 20
267.8779296875
 10
158.7724609375
 20
267.875
 10
158.8505859375
 20
267.873046875
 10
158.943359375
 20
267.873046875
 10
159.41015625
 20
267.873046875
 10
159.7861328125
 20
267.9189453125
 10
160.0712890625
 20
268.0107421875
 10
160.357421875
 20
268.1025390625
 10
160.57421875
 20
268.216796875
 10
160.720703125
 20
268.3515625
 10
160.8623046875
 20
268.48046875
 10
160.9619140625
 20
268.61328125
 10
161.0185546875
 20
268.7509765625
 10
161.076171875
 20
268.8876953125
 10
161.1044921875
 20
269.03515625
 10
161.1044921875
 20
269.1953125
 10
161.1044921875
 20
269.556640625
 10
160.9755859375
 20
269.8486328125
 10
160.716796875
 20
270.072265625
 10
160.4580078125
 20
270.296875
 10
160.0712890625
 20
270.4091796875
 10
159.5576171875
 20
270.4091796875
 97
        0
 97
        1
330
6BD
 92
        1
 93
        1
 72
     4
 94
        3
 73
     0
 74
     0
 95
       83
 96
       79
 40
0.0
 40
0.0
 40
0.0
 40
0.0
 40
1.0
 40
1.0
 40
1.0
 40
2.0
 40
2.0
 40
2.0
 40
3.0
 40
3.0
 40
3.0
 40
4.0
 40
4.0
 40
4.0
 40
5.0
 40
5.0
 40
5.0
 40
6.0
 40
6.0
 40
6.0
 40
7.0
 40
7.0
 40
7.0
 40
8.0
 40
8.0
 40
8.0
 40
9.0
 40
9.0
 40
9.0
 40
10.0
 40
10.0
 40
10.0
 40
11.0
 40
11.0
 40
11.0
 40
12.0
 40
12.0
 40
12.0
 40
13.0
 40
13.0
 40
13.0
 40
14.0
 40
14.0
 40
14.0
 40
15.0
 40
15.0
 40
15.0
 40
16.0
 40
16.0
 40
16.0
 40
17.0
 40
17.0
 40
17.0
 40
18.0
 40
18.0
 40
18.0
 40
19.0
 40
19.0
 40
19.0
 40
20.0
 40
20.0
 40
20.0
 40
21.0
 40
21.0
 40
21.0
 40
22.0
 40
22.0
 40
22.0
 40
23.0
 40
23.0
 40
23.0
 40
24.0
 40
24.0
 40
24.0
 40
25.0
 40
25.0
 40
25.0
 40
26.0
 40
26.0
 40
26.0
 40
26.0
 10
159.521484375
 20
271.32421875
 10
159.8671875
 20
271.32421875
 10
160.185546875
 20
271.267578125
 10
160.4775390625
 20
271.1533203125
 10
160.76953125
 20
271.0390625
 10
161.0126953125
 20
270.8857421875
 10
161.2080078125
 20
270.693359375
 10
161.416015625
 20
270.4921875
 10
161.5732421875
 20
270.265625
 10
161.6796875
 20
270.0166015625
 10
161.787109375
 20
269.7666015625
 10
161.83984375
 20
269.4921875
 10
161.83984375
 20
269.19140625
 10
161.83984375
 20
268.88671875
 10
161.7890625
 20
268.611328125
 10
161.6865234375
 20
268.36328125
 10
161.583984375
 20
268.115234375
 10
161.4326171875
 20
267.896484375
 10
161.2314453125
 20
267.70703125
 10
160.9873046875
 20
267.474609375
 10
160.662109375
 20
267.29296875
 10
160.25390625
 20
267.162109375
 10
159.8466796875
 20
267.03125
 10
159.3447265625
 20
266.966796875
 10
158.75
 20
266.966796875
 10
158.166015625
 20
266.966796875
 10
157.638671875
 20
267.02734375
 10
157.16796875
 20
267.146484375
 10
156.697265625
 20
267.267578125
 10
156.2880859375
 20
267.4521484375
 10
155.9384765625
 20
267.7021484375
 10
155.5986328125
 20
267.9453125
 10
155.3330078125
 20
268.259765625
 10
155.142578125
 20
268.64453125
 10
154.951171875
 20
269.029296875
 10
154.85546875
 20
269.474609375
 10
154.85546875
 20
269.98046875
 10
154.85546875
 20
270.130859375
 10
154.86328125
 20
270.2705078125
 10
154.87890625
 20
270.400390625
 10
154.8935546875
 20
270.529296875
 10
154.91796875
 20
270.6435546875
 10
154.9501953125
 20
270.7421875
 10
154.9501953125
 20
270.7421875
 10
155.8125
 20
270.7421875
 10
155.8125
 20
270.7421875
 10
155.8125
 20
270.7421875
 10
155.8125
 20
270.7021484375
 10
155.8125
 20
270.7021484375
 10
155.767578125
 20
270.62109375
 10
155.7255859375
 20
270.50390625
 10
155.6884765625
 20
270.349609375
 10
155.650390625
 20
270.197265625
 10
155.6318359375
 20
270.033203125
 10
155.6318359375
 20
269.8583984375
 10
155.6318359375
 20
269.298828125
 10
155.8203125
 20
268.84765625
 10
156.1982421875
 20
268.5029296875
 10
156.5751953125
 20
268.158203125
 10
157.1357421875
 20
267.955078125
 10
157.87890625
 20
267.8916015625
 10
157.728515625
 20
268.10546875
 10
157.6123046875
 20
268.32421875
 10
157.53125
 20
268.55078125
 10
157.4501953125
 20
268.775390625
 10
157.4091796875
 20
269.0224609375
 10
157.4091796875
 20
269.2900390625
 10
157.4091796875
 20
269.5517578125
 10
157.435546875
 20
269.78125
 10
157.48828125
 20
269.978515625
 10
157.541015625
 20
270.1748046875
 10
157.6474609375
 20
270.380859375
 10
157.806640625
 20
270.59375
 10
157.9931640625
 20
270.83984375
 10
158.2294921875
 20
271.0234375
 10
158.5146484375
 20
271.14453125
 10
158.80078125
 20
271.2646484375
 10
159.1357421875
 20
271.32421875
 10
159.521484375
 20
271.32421875
 97
        0
 97
        1
330
6BE
 75
     2
 76
     1
 98
        1
 10
0.0
 20
0.0
450
        0
451
        0
460
0.0
461
0.0
452
        0
462
0.0
453
        0
470

  0
SPLINE
  5
6C0
330
6B9
100
AcDbEntity
  8
Layer 1
100
AcDbSpline
210
0.0
220
0.0
230
1.0
 70
     9
 71
     3
 72
    53
 73
    49
 74
     0
 42
0.000000001
 43
0.0000000001
 40
0.0
 40
0.0
 40
0.0
 40
0.0
 40
1.0
 40
1.0
 40
1.0
 40
2.0
 40
2.0
 40
2.0
 40
3.0
 40
3.0
 40
3.0
 40
4.0
 40
4.0
 40
4.0
 40
5.0
 40
5.0
 40
5.0
 40
6.0
 40
6.0
 40
6.0
 40
7.0
 40
7.0
 40
7.0
 40
8.0
 40
8.0
 40
8.0
 40
9.0
 40
9.0
 40
9.0
 40
10.0
 40
10.0
 40
10.0
 40
11.0
 40
11.0
 40
11.0
 40
12.0
 40
12.0
 40
12.0
 40
13.0
 40
13.0
 40
13.0
 40
14.0
 40
14.0
 40
14.0
 40
15.0
 40
15.0
 40
15.0
 40
16.0
 40
16.0
 40
16.0
 40
16.0
 10
160.3876953125
 20
275.1416015625
 30
0.0
 10
160.1650390625
 20
275.228515625
 30
0.0
 10
159.8837890625
 20
275.291015625
 30
0.0
 10
159.5439453125
 20
275.326171875
 30
0.0
 10
159.2041015625
 20
275.36328125
 30
0.0
 10
158.8017578125
 20
275.380859375
 30
0.0
 10
158.3388671875
 20
275.380859375
 30
0.0
 10
157.87890625
 20
275.380859375
 30
0.0
 10
157.478515625
 20
275.36328125
 30
0.0
 10
157.138671875
 20
275.326171875
 30
0.0
 10
156.798828125
 20
275.291015625
 30
0.0
 10
156.5166015625
 20
275.2275390625
 30
0.0
 10
156.291015625
 20
275.13671875
 30
0.0
 10
156.0625
 20
275.046875
 30
0.0
 10
155.888671875
 20
274.9228515625
 30
0.0
 10
155.76953125
 20
274.7646484375
 30
0.0
 10
155.650390625
 20
274.607421875
 30
0.0
 10
155.591796875
 20
274.40234375
 30
0.0
 10
155.591796875
 20
274.1484375
 30
0.0
 10
155.591796875
 20
273.8994140625
 30
0.0
 10
155.650390625
 20
273.693359375
 30
0.0
 10
155.76953125
 20
273.533203125
 30
0.0
 10
155.888671875
 20
273.3720703125
 30
0.0
 10
156.0654296875
 20
273.2451171875
 30
0.0
 10
156.2998046875
 20
273.15234375
 30
0.0
 10
156.5283203125
 20
273.0615234375
 30
0.0
 10
156.8173828125
 20
273.0
 30
0.0
 10
157.166015625
 20
272.966796875
 30
0.0
 10
157.5146484375
 20
272.93359375
 30
0.0
 10
157.9091796875
 20
272.91796875
 30
0.0
 10
158.34765625
 20
272.91796875
 30
0.0
 10
158.8173828125
 20
272.91796875
 30
0.0
 10
159.2099609375
 20
272.931640625
 30
0.0
 10
159.525390625
 20
272.9599609375
 30
0.0
 10
159.841796875
 20
272.98828125
 30
0.0
 10
160.1240234375
 20
273.05078125
 30
0.0
 10
160.3740234375
 20
273.1474609375
 30
0.0
 10
160.60546875
 20
273.234375
 30
0.0
 10
160.783203125
 20
273.359375
 30
0.0
 10
160.908203125
 20
273.51953125
 30
0.0
 10
161.033203125
 20
273.6806640625
 30
0.0
 10
161.095703125
 20
273.890625
 30
0.0
 10
161.095703125
 20
274.1484375
 30
0.0
 10
161.095703125
 20
274.3984375
 30
0.0
 10
161.0361328125
 20
274.603515625
 30
0.0
 10
160.9169921875
 20
274.7646484375
 30
0.0
 10
160.798828125
 20
274.92578125
 30
0.0
 10
160.6220703125
 20
275.05078125
 30
0.0
 10
160.3876953125
 20
275.1416015625
 30
0.0
  0
SPLINE
  5
6C1
330
6B9
100
AcDbEntity
  8
Layer 1
100
AcDbSpline
210
0.0
220
0.0
230
1.0
 70
     9
 71
     3
 72
    29
 73
    25
 74
     0
 42
0.000000001
 43
0.0000000001
 40
0.0
 40
0.0
 40
0.0
 40
0.0
 40
1.0
 40
1.0
 40
1.0
 40
2.0
 40
2.0
 40
2.0
 40
3.0
 40
3.0
 40
3.0
 40
4.0
 40
4.0
 40
4.0
 40
5.0
 40
5.0
 40
5.0
 40
6.0
 40
6.0
 40
6.0
 40
7.0
 40
7.0
 40
7.0
 40
8.0
 40
8.0
 40
8.0
 40
8.0
 10
158.3388671875
 20
276.296875
 30
0.0
 10
159.544921875
 20
276.296875
 30
0.0
 10
160.4296875
 20
276.12109375
 30
0.0
 10
160.994140625
 20
275.771484375
 30
0.0
 10
161.5576171875
 20
275.419921875
 30
0.0
 10
161.83984375
 20
274.8798828125
 30
0.0
 10
161.83984375
 20
274.1484375
 30
0.0
 10
161.83984375
 20
273.4091796875
 30
0.0
 10
161.552734375
 20
272.8662109375
 30
0.0
 10
160.978515625
 20
272.5205078125
 30
0.0
 10
160.404296875
 20
272.173828125
 30
0.0
 10
159.52734375
 20
272.001953125
 30
0.0
 10
158.34765625
 20
272.001953125
 30
0.0
 10
157.1357421875
 20
272.001953125
 30
0.0
 10
156.2490234375
 20
272.1767578125
 30
0.0
 10
155.6884765625
 20
272.52734375
 30
0.0
 10
155.126953125
 20
272.876953125
 30
0.0
 10
154.8466796875
 20
273.41796875
 30
0.0
 10
154.8466796875
 20
274.1484375
 30
0.0
 10
154.8466796875
 20
274.888671875
 30
0.0
 10
155.13671875
 20
275.431640625
 30
0.0
 10
155.7177734375
 20
275.77734375
 30
0.0
 10
156.2978515625
 20
276.123046875
 30
0.0
 10
157.171875
 20
276.296875
 30
0.0
 10
158.3388671875
 20
276.296875
 30
0.0
  0
HATCH
  5
6C2
330
6B9
100
AcDbEntity
  8
Layer 1
 62
     7
100
AcDbHatch
 10
0.0
 20
0.0
 30
0.0
210
0.0
220
0.0
230
1.0
  2
SOLID
 70
     1
 71
     1
 91
        2
 92
        1
 93
        1
 72
     4
 94
        3
 73
     0
 74
     0
 95
       53
 96
       49
 40
0.0
 40
0.0
 40
0.0
 40
0.0
 40
1.0
 40
1.0
 40
1.0
 40
2.0
 40
2.0
 40
2.0
 40
3.0
 40
3.0
 40
3.0
 40
4.0
 40
4.0
 40
4.0
 40
5.0
 40
5.0
 40
5.0
 40
6.0
 40
6.0
 40
6.0
 40
7.0
 40
7.0
 40
7.0
 40
8.0
 40
8.0
 40
8.0
 40
9.0
 40
9.0
 40
9.0
 40
10.0
 40
10.0
 40
10.0
 40
11.0
 40
11.0
 40
11.0
 40
12.0
 40
12.0
 40
12.0
 40
13.0
 40
13.0
 40
13.0
 40
14.0
 40
14.0
 40
14.0
 40
15.0
 40
15.0
 40
15.0
 40
16.0
 40
16.0
 40
16.0
 40
16.0
 10
160.3876953125
 20
275.1416015625
 10
160.1650390625
 20
275.228515625
 10
159.8837890625
 20
275.291015625
 10
159.5439453125
 20
275.326171875
 10
159.2041015625
 20
275.36328125
 10
158.8017578125
 20
275.380859375
 10
158.3388671875
 20
275.380859375
 10
157.87890625
 20
275.380859375
 10
157.478515625
 20
275.36328125
 10
157.138671875
 20
275.326171875
 10
156.798828125
 20
275.291015625
 10
156.5166015625
 20
275.2275390625
 10
156.291015625
 20
275.13671875
 10
156.0625
 20
275.046875
 10
155.888671875
 20
274.9228515625
 10
155.76953125
 20
274.7646484375
 10
155.650390625
 20
274.607421875
 10
155.591796875
 20
274.40234375
 10
155.591796875
 20
274.1484375
 10
155.591796875
 20
273.8994140625
 10
155.650390625
 20
273.693359375
 10
155.76953125
 20
273.533203125
 10
155.888671875
 20
273.3720703125
 10
156.0654296875
 20
273.2451171875
 10
156.2998046875
 20
273.15234375
 10
156.5283203125
 20
273.0615234375
 10
156.8173828125
 20
273.0
 10
157.166015625
 20
272.966796875
 10
157.5146484375
 20
272.93359375
 10
157.9091796875
 20
272.91796875
 10
158.34765625
 20
272.91796875
 10
158.8173828125
 20
272.91796875
 10
159.2099609375
 20
272.931640625
 10
159.525390625
 20
272.9599609375
 10
159.841796875
 20
272.98828125
 10
160.1240234375
 20
273.05078125
 10
160.3740234375
 20
273.1474609375
 10
160.60546875
 20
273.234375
 10
160.783203125
 20
273.359375
 10
160.908203125
 20
273.51953125
 10
161.033203125
 20
273.6806640625
 10
161.095703125
 20
273.890625
 10
161.095703125
 20
274.1484375
 10
161.095703125
 20
274.3984375
 10
161.0361328125
 20
274.603515625
 10
160.9169921875
 20
274.7646484375
 10
160.798828125
 20
274.92578125
 10
160.6220703125
 20
275.05078125
 10
160.3876953125
 20
275.1416015625
 97
        0
 97
        1
330
6C0
 92
        1
 93
        1
 72
     4
 94
        3
 73
     0
 74
     0
 95
       29
 96
       25
 40
0.0
 40
0.0
 40
0.0
 40
0.0
 40
1.0
 40
1.0
 40
1.0
 40
2.0
 40
2.0
 40
2.0
 40
3.0
 40
3.0
 40
3.0
 40
4.0
 40
4.0
 40
4.0
 40
5.0
 40
5.0
 40
5.0
 40
6.0
 40
6.0
 40
6.0
 40
7.0
 40
7.0
 40
7.0
 40
8.0
 40
8.0
 40
8.0
 40
8.0
 10
158.3388671875
 20
276.296875
 10
159.544921875
 20
276.296875
 10
160.4296875
 20
276.12109375
 10
160.994140625
 20
275.771484375
 10
161.5576171875
 20
275.419921875
 10
161.83984375
 20
274.8798828125
 10
161.83984375
 20
274.1484375
 10
161.83984375
 20
273.4091796875
 10
161.552734375
 20
272.8662109375
 10
160.978515625
 20
272.5205078125
 10
160.404296875
 20
272.173828125
 10
159.52734375
 20
272.001953125
 10
158.34765625
 20
272.001953125
 10
157.1357421875
 20
272.001953125
 10
156.2490234375
 20
272.1767578125
 10
155.6884765625
 20
272.52734375
 10
155.126953125
 20
272.876953125
 10
154.8466796875
 20
273.41796875
 10
154.8466796875
 20
274.1484375
 10
154.8466796875
 20
274.888671875
 10
155.13671875
 20
275.431640625
 10
155.7177734375
 20
275.77734375
 10
156.2978515625
 20
276.123046875
 10
157.171875
 20
276.296875
 10
158.3388671875
 20
276.296875
 97
        0
 97
        1
330
6C1
 75
     2
 76
     1
 98
        1
 10
0.0
 20
0.0
450
        0
451
        0
460
0.0
461
0.0
452
        0
462
0.0
453
        0
470

  0
ENDBLK
  5
6C3
330
6B9
100
AcDbEntity
  8
0
100
AcDbBlockEnd
  0
BLOCK
  5
6C5
330
6C4
100
AcDbEntity
  8
0
100
AcDbBlockBegin
  2
Block_2
 70
     0
 10
0.0
 20
0.0
 30
0.0
  3
Block_2
  1

  0
INSERT
  5
6C6
330
6C4
100
AcDbEntity
  8
Layer 1
100
AcDbBlockReference
  2
Block_3
 10
0.0
 20
0.0
 30
0.0
  0
ENDBLK
  5
6C7
330
6C4
100
AcDbEntity
  8
0
100
AcDbBlockEnd
  0
BLOCK
  5
6C9
330
6C8
100
AcDbEntity
  8
0
100
AcDbBlockBegin
  2
Block_3
 70
     0
 10
0.0
 20
0.0
 30
0.0
  3
Block_3
  1

  0
SPLINE
  5
6CA
330
6C8
100
AcDbEntity
  8
Layer 1
100
AcDbSpline
210
0.0
220
0.0
230
1.0
 70
    11
 71
     3
 72
    41
 73
    37
 74
     0
 42
0.000000001
 43
0.0000000001
 40
0.0
 40
0.0
 40
0.0
 40
0.0
 40
1.0
 40
1.0
 40
1.0
 40
2.0
 40
2.0
 40
2.0
 40
3.0
 40
3.0
 40
3.0
 40
4.0
 40
4.0
 40
4.0
 40
5.0
 40
5.0
 40
5.0
 40
6.0
 40
6.0
 40
6.0
 40
7.0
 40
7.0
 40
7.0
 40
8.0
 40
8.0
 40
8.0
 40
9.0
 40
9.0
 40
9.0
 40
10.0
 40
10.0
 40
10.0
 40
11.0
 40
11.0
 40
11.0
 40
12.0
 40
12.0
 40
12.0
 40
12.0
 10
121.87744140625
 20
409.0107421875
 30
0.0
 10
121.87744140625
 20
409.0107421875
 30
0.0
 10
125.15283203125
 20
409.0107421875
 30
0.0
 10
125.15283203125
 20
409.0107421875
 30
0.0
 10
125.15283203125
 20
409.0107421875
 30
0.0
 10
125.15283203125
 20
408.3251953125
 30
0.0
 10
125.15283203125
 20
408.3251953125
 30
0.0
 10
125.15283203125
 20
408.3251953125
 30
0.0
 10
123.9345703125
 20
408.3251953125
 30
0.0
 10
123.9345703125
 20
408.3251953125
 30
0.0
 10
123.9345703125
 20
408.3251953125
 30
0.0
 10
123.9345703125
 20
403.822265625
 30
0.0
 10
123.9345703125
 20
403.822265625
 30
0.0
 10
123.9345703125
 20
403.822265625
 30
0.0
 10
125.15283203125
 20
403.822265625
 30
0.0
 10
125.15283203125
 20
403.822265625
 30
0.0
 10
125.15283203125
 20
403.822265625
 30
0.0
 10
125.15283203125
 20
403.2089843749999
 30
0.0
 10
125.15283203125
 20
403.2089843749999
 30
0.0
 10
124.6923828125
 20
403.2089843749999
 30
0.0
 10
124.353515625
 20
403.1435546875
 30
0.0
 10
124.13525390625
 20
403.0126953125
 30
0.0
 10
123.91748046875
 20
402.8818359375
 30
0.0
 10
123.794921875
 20
402.6337890625
 30
0.0
 10
123.767578125
 20
402.2705078125
 30
0.0
 10
123.767578125
 20
402.2705078125
 30
0.0
 10
123.068359375
 20
402.2705078125
 30
0.0
 10
123.068359375
 20
402.2705078125
 30
0.0
 10
123.068359375
 20
402.2705078125
 30
0.0
 10
123.068359375
 20
408.3251953125
 30
0.0
 10
123.068359375
 20
408.3251953125
 30
0.0
 10
123.068359375
 20
408.3251953125
 30
0.0
 10
121.87744140625
 20
408.3251953125
 30
0.0
 10
121.87744140625
 20
408.3251953125
 30
0.0
 10
121.87744140625
 20
408.3251953125
 30
0.0
 10
121.87744140625
 20
409.0107421875
 30
0.0
 10
121.87744140625
 20
409.0107421875
 30
0.0
  0
HATCH
  5
6CB
330
6C8
100
AcDbEntity
  8
Layer 1
 62
     7
100
AcDbHatch
 10
0.0
 20
0.0
 30
0.0
210
0.0
220
0.0
230
1.0
  2
SOLID
 70
     1
 71
     1
 91
        1
 92
        1
 93
        1
 72
     4
 94
        3
 73
     0
 74
     0
 95
       41
 96
       37
 40
0.0
 40
0.0
 40
0.0
 40
0.0
 40
1.0
 40
1.0
 40
1.0
 40
2.0
 40
2.0
 40
2.0
 40
3.0
 40
3.0
 40
3.0
 40
4.0
 40
4.0
 40
4.0
 40
5.0
 40
5.0
 40
5.0
 40
6.0
 40
6.0
 40
6.0
 40
7.0
 40
7.0
 40
7.0
 40
8.0
 40
8.0
 40
8.0
 40
9.0
 40
9.0
 40
9.0
 40
10.0
 40
10.0
 40
10.0
 40
11.0
 40
11.0
 40
11.0
 40
12.0
 40
12.0
 40
12.0
 40
12.0
 10
121.87744140625
 20
409.0107421875
 10
121.87744140625
 20
409.0107421875
 10
125.15283203125
 20
409.0107421875
 10
125.15283203125
 20
409.0107421875
 10
125.15283203125
 20
409.0107421875
 10
125.15283203125
 20
408.3251953125
 10
125.15283203125
 20
408.3251953125
 10
125.15283203125
 20
408.3251953125
 10
123.9345703125
 20
408.3251953125
 10
123.9345703125
 20
408.3251953125
 10
123.9345703125
 20
408.3251953125
 10
123.9345703125
 20
403.822265625
 10
123.9345703125
 20
403.822265625
 10
123.9345703125
 20
403.822265625
 10
125.15283203125
 20
403.822265625
 10
125.15283203125
 20
403.822265625
 10
125.15283203125
 20
403.822265625
 10
125.15283203125
 20
403.2089843749999
 10
125.15283203125
 20
403.2089843749999
 10
124.6923828125
 20
403.2089843749999
 10
124.353515625
 20
403.1435546875
 10
124.13525390625
 20
403.0126953125
 10
123.91748046875
 20
402.8818359375
 10
123.794921875
 20
402.6337890625
 10
123.767578125
 20
402.2705078125
 10
123.767578125
 20
402.2705078125
 10
123.068359375
 20
402.2705078125
 10
123.068359375
 20
402.2705078125
 10
123.068359375
 20
402.2705078125
 10
123.068359375
 20
408.3251953125
 10
123.068359375
 20
408.3251953125
 10
123.068359375
 20
408.3251953125
 10
121.87744140625
 20
408.3251953125
 10
121.87744140625
 20
408.3251953125
 10
121.87744140625
 20
408.3251953125
 10
121.87744140625
 20
409.0107421875
 10
121.87744140625
 20
409.0107421875
 97
        0
 97
        1
330
6CA
 75
     2
 76
     1
 98
        1
 10
0.0
 20
0.0
450
        0
451
        0
460
0.0
461
0.0
452
        0
462
0.0
453
        0
470

  0
SPLINE
  5
6CC
330
6C8
100
AcDbEntity
  8
Layer 1
100
AcDbSpline
210
0.0
220
0.0
230
1.0
 70
     9
 71
     3
 72
    53
 73
    49
 74
     0
 42
0.000000001
 43
0.0000000001
 40
0.0
 40
0.0
 40
0.0
 40
0.0
 40
1.0
 40
1.0
 40
1.0
 40
2.0
 40
2.0
 40
2.0
 40
3.0
 40
3.0
 40
3.0
 40
4.0
 40
4.0
 40
4.0
 40
5.0
 40
5.0
 40
5.0
 40
6.0
 40
6.0
 40
6.0
 40
7.0
 40
7.0
 40
7.0
 40
8.0
 40
8.0
 40
8.0
 40
9.0
 40
9.0
 40
9.0
 40
10.0
 40
10.0
 40
10.0
 40
11.0
 40
11.0
 40
11.0
 40
12.0
 40
12.0
 40
12.0
 40
13.0
 40
13.0
 40
13.0
 40
14.0
 40
14.0
 40
14.0
 40
15.0
 40
15.0
 40
15.0
 40
16.0
 40
16.0
 40
16.0
 40
16.0
 10
117.61376953125
 20
407.6982421874999
 30
0.0
 10
117.5263671875
 20
407.4755859375
 30
0.0
 10
117.46484375
 20
407.1943359375
 30
0.0
 10
117.4287109375
 20
406.8544921875
 30
0.0
 10
117.392578125
 20
406.5146484375
 30
0.0
 10
117.37451171875
 20
406.1123046875
 30
0.0
 10
117.37451171875
 20
405.6494140625
 30
0.0
 10
117.37451171875
 20
405.189453125
 30
0.0
 10
117.392578125
 20
404.7890624999999
 30
0.0
 10
117.4287109375
 20
404.44921875
 30
0.0
 10
117.46484375
 20
404.1093749999999
 30
0.0
 10
117.52783203125
 20
403.8271484375
 30
0.0
 10
117.6181640625
 20
403.6015625
 30
0.0
 10
117.70849609375
 20
403.3730468749999
 30
0.0
 10
117.83251953125
 20
403.19921875
 30
0.0
 10
117.99072265625
 20
403.0800781249999
 30
0.0
 10
118.1484375
 20
402.9609374999999
 30
0.0
 10
118.353515625
 20
402.90234375
 30
0.0
 10
118.6064453125
 20
402.90234375
 30
0.0
 10
118.85595703125
 20
402.90234375
 30
0.0
 10
119.0615234375
 20
402.9609374999999
 30
0.0
 10
119.22216796875
 20
403.0800781249999
 30
0.0
 10
119.38330078125
 20
403.19921875
 30
0.0
 10
119.51025390625
 20
403.3759765624999
 30
0.0
 10
119.603515625
 20
403.6103515625
 30
0.0
 10
119.69384765625
 20
403.8388671875
 30
0.0
 10
119.75537109375
 20
404.1279296875
 30
0.0
 10
119.78857421875
 20
404.4765625
 30
0.0
 10
119.82177734375
 20
404.8251953124999
 30
0.0
 10
119.837890625
 20
405.2197265624999
 30
0.0
 10
119.837890625
 20
405.658203125
 30
0.0
 10
119.837890625
 20
406.1279296875
 30
0.0
 10
119.82373046875
 20
406.5205078125
 30
0.0
 10
119.79541015625
 20
406.8359375
 30
0.0
 10
119.7666015625
 20
407.1523437499999
 30
0.0
 10
119.7041015625
 20
407.4345703125
 30
0.0
 10
119.60791015625
 20
407.6845703125
 30
0.0
 10
119.52099609375
 20
407.916015625
 30
0.0
 10
119.396484375
 20
408.09375
 30
0.0
 10
119.23583984375
 20
408.2187499999999
 30
0.0
 10
119.07470703125
 20
408.34375
 30
0.0
 10
118.865234375
 20
408.4062499999999
 30
0.0
 10
118.6064453125
 20
408.4062499999999
 30
0.0
 10
118.35693359375
 20
408.4062499999999
 30
0.0
 10
118.1513671875
 20
408.3466796875
 30
0.0
 10
117.99072265625
 20
408.2275390625
 30
0.0
 10
117.82958984375
 20
408.1093749999999
 30
0.0
 10
117.7041015625
 20
407.9326171875
 30
0.0
 10
117.61376953125
 20
407.6982421874999
 30
0.0
  0
SPLINE
  5
6CD
330
6C8
100
AcDbEntity
  8
Layer 1
100
AcDbSpline
210
0.0
220
0.0
230
1.0
 70
     9
 71
     3
 72
    29
 73
    25
 74
     0
 42
0.000000001
 43
0.0000000001
 40
0.0
 40
0.0
 40
0.0
 40
0.0
 40
1.0
 40
1.0
 40
1.0
 40
2.0
 40
2.0
 40
2.0
 40
3.0
 40
3.0
 40
3.0
 40
4.0
 40
4.0
 40
4.0
 40
5.0
 40
5.0
 40
5.0
 40
6.0
 40
6.0
 40
6.0
 40
7.0
 40
7.0
 40
7.0
 40
8.0
 40
8.0
 40
8.0
 40
8.0
 10
116.458984375
 20
405.6494140625
 30
0.0
 10
116.458984375
 20
406.8554687499999
 30
0.0
 10
116.63427734375
 20
407.740234375
 30
0.0
 10
116.984375
 20
408.3046874999999
 30
0.0
 10
117.3349609375
 20
408.8681640625
 30
0.0
 10
117.87548828125
 20
409.1503906249999
 30
0.0
 10
118.6064453125
 20
409.1503906249999
 30
0.0
 10
119.34619140625
 20
409.1503906249999
 30
0.0
 10
119.88916015625
 20
408.86328125
 30
0.0
 10
120.23486328125
 20
408.2890625
 30
0.0
 10
120.5810546875
 20
407.71484375
 30
0.0
 10
120.75390625
 20
406.837890625
 30
0.0
 10
120.75390625
 20
405.658203125
 30
0.0
 10
120.75390625
 20
404.4462890624999
 30
0.0
 10
120.57861328125
 20
403.5595703124999
 30
0.0
 10
120.228515625
 20
402.9990234375
 30
0.0
 10
119.8779296875
 20
402.4375
 30
0.0
 10
119.33740234375
 20
402.1572265625
 30
0.0
 10
118.6064453125
 20
402.1572265625
 30
0.0
 10
117.8662109375
 20
402.1572265625
 30
0.0
 10
117.32373046875
 20
402.447265625
 30
0.0
 10
116.9775390625
 20
403.0283203125
 30
0.0
 10
116.6318359375
 20
403.6083984374999
 30
0.0
 10
116.458984375
 20
404.4824218749999
 30
0.0
 10
116.458984375
 20
405.6494140625
 30
0.0
  0
HATCH
  5
6CE
330
6C8
100
AcDbEntity
  8
Layer 1
 62
     7
100
AcDbHatch
 10
0.0
 20
0.0
 30
0.0
210
0.0
220
0.0
230
1.0
  2
SOLID
 70
     1
 71
     1
 91
        2
 92
        1
 93
        1
 72
     4
 94
        3
 73
     0
 74
     0
 95
       53
 96
       49
 40
0.0
 40
0.0
 40
0.0
 40
0.0
 40
1.0
 40
1.0
 40
1.0
 40
2.0
 40
2.0
 40
2.0
 40
3.0
 40
3.0
 40
3.0
 40
4.0
 40
4.0
 40
4.0
 40
5.0
 40
5.0
 40
5.0
 40
6.0
 40
6.0
 40
6.0
 40
7.0
 40
7.0
 40
7.0
 40
8.0
 40
8.0
 40
8.0
 40
9.0
 40
9.0
 40
9.0
 40
10.0
 40
10.0
 40
10.0
 40
11.0
 40
11.0
 40
11.0
 40
12.0
 40
12.0
 40
12.0
 40
13.0
 40
13.0
 40
13.0
 40
14.0
 40
14.0
 40
14.0
 40
15.0
 40
15.0
 40
15.0
 40
16.0
 40
16.0
 40
16.0
 40
16.0
 10
117.61376953125
 20
407.6982421874999
 10
117.5263671875
 20
407.4755859375
 10
117.46484375
 20
407.1943359375
 10
117.4287109375
 20
406.8544921875
 10
117.392578125
 20
406.5146484375
 10
117.37451171875
 20
406.1123046875
 10
117.37451171875
 20
405.6494140625
 10
117.37451171875
 20
405.189453125
 10
117.392578125
 20
404.7890624999999
 10
117.4287109375
 20
404.44921875
 10
117.46484375
 20
404.1093749999999
 10
117.52783203125
 20
403.8271484375
 10
117.6181640625
 20
403.6015625
 10
117.70849609375
 20
403.3730468749999
 10
117.83251953125
 20
403.19921875
 10
117.99072265625
 20
403.0800781249999
 10
118.1484375
 20
402.9609374999999
 10
118.353515625
 20
402.90234375
 10
118.6064453125
 20
402.90234375
 10
118.85595703125
 20
402.90234375
 10
119.0615234375
 20
402.9609374999999
 10
119.22216796875
 20
403.0800781249999
 10
119.38330078125
 20
403.19921875
 10
119.51025390625
 20
403.3759765624999
 10
119.603515625
 20
403.6103515625
 10
119.69384765625
 20
403.8388671875
 10
119.75537109375
 20
404.1279296875
 10
119.78857421875
 20
404.4765625
 10
119.82177734375
 20
404.8251953124999
 10
119.837890625
 20
405.2197265624999
 10
119.837890625
 20
405.658203125
 10
119.837890625
 20
406.1279296875
 10
119.82373046875
 20
406.5205078125
 10
119.79541015625
 20
406.8359375
 10
119.7666015625
 20
407.1523437499999
 10
119.7041015625
 20
407.4345703125
 10
119.60791015625
 20
407.6845703125
 10
119.52099609375
 20
407.916015625
 10
119.396484375
 20
408.09375
 10
119.23583984375
 20
408.2187499999999
 10
119.07470703125
 20
408.34375
 10
118.865234375
 20
408.4062499999999
 10
118.6064453125
 20
408.4062499999999
 10
118.35693359375
 20
408.4062499999999
 10
118.1513671875
 20
408.3466796875
 10
117.99072265625
 20
408.2275390625
 10
117.82958984375
 20
408.1093749999999
 10
117.7041015625
 20
407.9326171875
 10
117.61376953125
 20
407.6982421874999
 97
        0
 97
        1
330
6CC
 92
        1
 93
        1
 72
     4
 94
        3
 73
     0
 74
     0
 95
       29
 96
       25
 40
0.0
 40
0.0
 40
0.0
 40
0.0
 40
1.0
 40
1.0
 40
1.0
 40
2.0
 40
2.0
 40
2.0
 40
3.0
 40
3.0
 40
3.0
 40
4.0
 40
4.0
 40
4.0
 40
5.0
 40
5.0
 40
5.0
 40
6.0
 40
6.0
 40
6.0
 40
7.0
 40
7.0
 40
7.0
 40
8.0
 40
8.0
 40
8.0
 40
8.0
 10
116.458984375
 20
405.6494140625
 10
116.458984375
 20
406.8554687499999
 10
116.63427734375
 20
407.740234375
 10
116.984375
 20
408.3046874999999
 10
117.3349609375
 20
408.8681640625
 10
117.87548828125
 20
409.1503906249999
 10
118.6064453125
 20
409.1503906249999
 10
119.34619140625
 20
409.1503906249999
 10
119.88916015625
 20
408.86328125
 10
120.23486328125
 20
408.2890625
 10
120.5810546875
 20
407.71484375
 10
120.75390625
 20
406.837890625
 10
120.75390625
 20
405.658203125
 10
120.75390625
 20
404.4462890624999
 10
120.57861328125
 20
403.5595703124999
 10
120.228515625
 20
402.9990234375
 10
119.8779296875
 20
402.4375
 10
119.33740234375
 20
402.1572265625
 10
118.6064453125
 20
402.1572265625
 10
117.8662109375
 20
402.1572265625
 10
117.32373046875
 20
402.447265625
 10
116.9775390625
 20
403.0283203125
 10
116.6318359375
 20
403.6083984374999
 10
116.458984375
 20
404.4824218749999
 10
116.458984375
 20
405.6494140625
 97
        0
 97
        1
330
6CD
 75
     2
 76
     1
 98
        1
 10
0.0
 20
0.0
450
        0
451
        0
460
0.0
461
0.0
452
        0
462
0.0
453
        0
470

  0
ENDBLK
  5
6CF
330
6C8
100
AcDbEntity
  8
0
100
AcDbBlockEnd
  0
BLOCK
  5
6D1
330
6D0
100
AcDbEntity
  8
0
100
AcDbBlockBegin
  2
Block_4
 70
     0
 10
0.0
 20
0.0
 30
0.0
  3
Block_4
  1

  0
INSERT
  5
6D2
330
6D0
100
AcDbEntity
  8
Layer 1
100
AcDbBlockReference
  2
Block_5
 10
0.0
 20
0.0
 30
0.0
  0
ENDBLK
  5
6D3
330
6D0
100
AcDbEntity
  8
0
100
AcDbBlockEnd
  0
BLOCK
  5
6D5
330
6D4
100
AcDbEntity
  8
0
100
AcDbBlockBegin
  2
Block_5
 70
     0
 10
0.0
 20
0.0
 30
0.0
  3
Block_5
  1

  0
SPLINE
  5
6D6
330
6D4
100
AcDbEntity
  8
Layer 1
100
AcDbSpline
210
0.0
220
0.0
230
1.0
 70
    11
 71
     3
 72
    41
 73
    37
 74
     0
 42
0.000000001
 43
0.0000000001
 40
0.0
 40
0.0
 40
0.0
 40
0.0
 40
1.0
 40
1.0
 40
1.0
 40
2.0
 40
2.0
 40
2.0
 40
3.0
 40
3.0
 40
3.0
 40
4.0
 40
4.0
 40
4.0
 40
5.0
 40
5.0
 40
5.0
 40
6.0
 40
6.0
 40
6.0
 40
7.0
 40
7.0
 40
7.0
 40
8.0
 40
8.0
 40
8.0
 40
9.0
 40
9.0
 40
9.0
 40
10.0
 40
10.0
 40
10.0
 40
11.0
 40
11.0
 40
11.0
 40
12.0
 40
12.0
 40
12.0
 40
12.0
 10
383.8798828125
 20
265.65234375
 30
0.0
 10
383.8798828125
 20
265.65234375
 30
0.0
 10
383.8798828125
 20
262.376953125
 30
0.0
 10
383.8798828125
 20
262.376953125
 30
0.0
 10
383.8798828125
 20
262.376953125
 30
0.0
 10
383.1943359375
 20
262.376953125
 30
0.0
 10
383.1943359375
 20
262.376953125
 30
0.0
 10
383.1943359375
 20
262.376953125
 30
0.0
 10
383.1943359375
 20
263.595703125
 30
0.0
 10
383.1943359375
 20
263.595703125
 30
0.0
 10
383.1943359375
 20
263.595703125
 30
0.0
 10
378.69140625
 20
263.595703125
 30
0.0
 10
378.69140625
 20
263.595703125
 30
0.0
 10
378.69140625
 20
263.595703125
 30
0.0
 10
378.69140625
 20
262.376953125
 30
0.0
 10
378.69140625
 20
262.376953125
 30
0.0
 10
378.69140625
 20
262.376953125
 30
0.0
 10
378.078125
 20
262.376953125
 30
0.0
 10
378.078125
 20
262.376953125
 30
0.0
 10
378.078125
 20
262.8369140625
 30
0.0
 10
378.0126953125
 20
263.1767578125
 30
0.0
 10
377.8818359375
 20
263.39453125
 30
0.0
 10
377.7509765625
 20
263.6123046875
 30
0.0
 10
377.5029296875
 20
263.7353515625
 30
0.0
 10
377.1396484375
 20
263.76171875
 30
0.0
 10
377.1396484375
 20
263.76171875
 30
0.0
 10
377.1396484375
 20
264.4619140625
 30
0.0
 10
377.1396484375
 20
264.4619140625
 30
0.0
 10
377.1396484375
 20
264.4619140625
 30
0.0
 10
383.1943359375
 20
264.4619140625
 30
0.0
 10
383.1943359375
 20
264.4619140625
 30
0.0
 10
383.1943359375
 20
264.4619140625
 30
0.0
 10
383.1943359375
 20
265.65234375
 30
0.0
 10
383.1943359375
 20
265.65234375
 30
0.0
 10
383.1943359375
 20
265.65234375
 30
0.0
 10
383.8798828125
 20
265.65234375
 30
0.0
 10
383.8798828125
 20
265.65234375
 30
0.0
  0
HATCH
  5
6D7
330
6D4
100
AcDbEntity
  8
Layer 1
 62
     7
100
AcDbHatch
 10
0.0
 20
0.0
 30
0.0
210
0.0
220
0.0
230
1.0
  2
SOLID
 70
     1
 71
     1
 91
        1
 92
        1
 93
        1
 72
     4
 94
        3
 73
     0
 74
     0
 95
       41
 96
       37
 40
0.0
 40
0.0
 40
0.0
 40
0.0
 40
1.0
 40
1.0
 40
1.0
 40
2.0
 40
2.0
 40
2.0
 40
3.0
 40
3.0
 40
3.0
 40
4.0
 40
4.0
 40
4.0
 40
5.0
 40
5.0
 40
5.0
 40
6.0
 40
6.0
 40
6.0
 40
7.0
 40
7.0
 40
7.0
 40
8.0
 40
8.0
 40
8.0
 40
9.0
 40
9.0
 40
9.0
 40
10.0
 40
10.0
 40
10.0
 40
11.0
 40
11.0
 40
11.0
 40
12.0
 40
12.0
 40
12.0
 40
12.0
 10
383.8798828125
 20
265.65234375
 10
383.8798828125
 20
265.65234375
 10
383.8798828125
 20
262.376953125
 10
383.8798828125
 20
262.376953125
 10
383.8798828125
 20
262.376953125
 10
383.1943359375
 20
262.376953125
 10
383.1943359375
 20
262.376953125
 10
383.1943359375
 20
262.376953125
 10
383.1943359375
 20
263.595703125
 10
383.1943359375
 20
263.595703125
 10
383.1943359375
 20
263.595703125
 10
378.69140625
 20
263.595703125
 10
378.69140625
 20
263.595703125
 10
378.69140625
 20
263.595703125
 10
378.69140625
 20
262.376953125
 10
378.69140625
 20
262.376953125
 10
378.69140625
 20
262.376953125
 10
378.078125
 20
262.376953125
 10
378.078125
 20
262.376953125
 10
378.078125
 20
262.8369140625
 10
378.0126953125
 20
263.1767578125
 10
377.8818359375
 20
263.39453125
 10
377.7509765625
 20
263.6123046875
 10
377.5029296875
 20
263.7353515625
 10
377.1396484375
 20
263.76171875
 10
377.1396484375
 20
263.76171875
 10
377.1396484375
 20
264.4619140625
 10
377.1396484375
 20
264.4619140625
 10
377.1396484375
 20
264.4619140625
 10
383.1943359375
 20
264.4619140625
 10
383.1943359375
 20
264.4619140625
 10
383.1943359375
 20
264.4619140625
 10
383.1943359375
 20
265.65234375
 10
383.1943359375
 20
265.65234375
 10
383.1943359375
 20
265.65234375
 10
383.8798828125
 20
265.65234375
 10
383.8798828125
 20
265.65234375
 97
        0
 97
        1
330
6D6
 75
     2
 76
     1
 98
        1
 10
0.0
 20
0.0
450
        0
451
        0
460
0.0
461
0.0
452
        0
462
0.0
453
        0
470

  0
SPLINE
  5
6D8
330
6D4
100
AcDbEntity
  8
Layer 1
100
AcDbSpline
210
0.0
220
0.0
230
1.0
 70
     9
 71
     3
 72
   143
 73
   139
 74
     0
 42
0.000000001
 43
0.0000000001
 40
0.0
 40
0.0
 40
0.0
 40
0.0
 40
1.0
 40
1.0
 40
1.0
 40
2.0
 40
2.0
 40
2.0
 40
3.0
 40
3.0
 40
3.0
 40
4.0
 40
4.0
 40
4.0
 40
5.0
 40
5.0
 40
5.0
 40
6.0
 40
6.0
 40
6.0
 40
7.0
 40
7.0
 40
7.0
 40
8.0
 40
8.0
 40
8.0
 40
9.0
 40
9.0
 40
9.0
 40
10.0
 40
10.0
 40
10.0
 40
11.0
 40
11.0
 40
11.0
 40
12.0
 40
12.0
 40
12.0
 40
13.0
 40
13.0
 40
13.0
 40
14.0
 40
14.0
 40
14.0
 40
15.0
 40
15.0
 40
15.0
 40
16.0
 40
16.0
 40
16.0
 40
17.0
 40
17.0
 40
17.0
 40
18.0
 40
18.0
 40
18.0
 40
19.0
 40
19.0
 40
19.0
 40
20.0
 40
20.0
 40
20.0
 40
21.0
 40
21.0
 40
21.0
 40
22.0
 40
22.0
 40
22.0
 40
23.0
 40
23.0
 40
23.0
 40
24.0
 40
24.0
 40
24.0
 40
25.0
 40
25.0
 40
25.0
 40
26.0
 40
26.0
 40
26.0
 40
27.0
 40
27.0
 40
27.0
 40
28.0
 40
28.0
 40
28.0
 40
29.0
 40
29.0
 40
29.0
 40
30.0
 40
30.0
 40
30.0
 40
31.0
 40
31.0
 40
31.0
 40
32.0
 40
32.0
 40
32.0
 40
33.0
 40
33.0
 40
33.0
 40
34.0
 40
34.0
 40
34.0
 40
35.0
 40
35.0
 40
35.0
 40
36.0
 40
36.0
 40
36.0
 40
37.0
 40
37.0
 40
37.0
 40
38.0
 40
38.0
 40
38.0
 40
39.0
 40
39.0
 40
39.0
 40
40.0
 40
40.0
 40
40.0
 40
41.0
 40
41.0
 40
41.0
 40
42.0
 40
42.0
 40
42.0
 40
43.0
 40
43.0
 40
43.0
 40
44.0
 40
44.0
 40
44.0
 40
45.0
 40
45.0
 40
45.0
 40
46.0
 40
46.0
 40
46.0
 40
46.0
 10
377.802734375
 20
268.70703125
 30
0.0
 10
377.802734375
 20
268.5439453125
 30
0.0
 10
377.822265625
 20
268.3818359375
 30
0.0
 10
377.861328125
 20
268.2197265625
 30
0.0
 10
377.900390625
 20
268.0576171875
 30
0.0
 10
377.951171875
 20
267.8974609375
 30
0.0
 10
378.0146484375
 20
267.7412109375
 30
0.0
 10
378.0751953125
 20
267.5966796875
 30
0.0
 10
378.1376953125
 20
267.4716796875
 30
0.0
 10
378.2041015625
 20
267.3642578125
 30
0.0
 10
378.2705078125
 20
267.2578125
 30
0.0
 10
378.33203125
 20
267.162109375
 30
0.0
 10
378.388671875
 20
267.078125
 30
0.0
 10
378.388671875
 20
267.078125
 30
0.0
 10
378.388671875
 20
267.0244140625
 30
0.0
 10
378.388671875
 20
267.0244140625
 30
0.0
 10
378.388671875
 20
267.0244140625
 30
0.0
 10
377.4375
 20
267.0244140625
 30
0.0
 10
377.4375
 20
267.0244140625
 30
0.0
 10
377.33203125
 20
267.2197265625
 30
0.0
 10
377.236328125
 20
267.4853515625
 30
0.0
 10
377.150390625
 20
267.8203125
 30
0.0
 10
377.064453125
 20
268.1552734375
 30
0.0
 10
377.0224609375
 20
268.4755859375
 30
0.0
 10
377.0224609375
 20
268.779296875
 30
0.0
 10
377.0224609375
 20
269.0830078125
 30
0.0
 10
377.052734375
 20
269.3486328125
 30
0.0
 10
377.1142578125
 20
269.5751953125
 30
0.0
 10
377.17578125
 20
269.802734375
 30
0.0
 10
377.271484375
 20
270.0078125
 30
0.0
 10
377.4013671875
 20
270.19140625
 30
0.0
 10
377.5458984375
 20
270.3896484375
 30
0.0
 10
377.7197265625
 20
270.5390625
 30
0.0
 10
377.9248046875
 20
270.6396484375
 30
0.0
 10
378.12890625
 20
270.7412109375
 30
0.0
 10
378.3681640625
 20
270.791015625
 30
0.0
 10
378.6416015625
 20
270.791015625
 30
0.0
 10
379.01171875
 20
270.791015625
 30
0.0
 10
379.3369140625
 20
270.669921875
 30
0.0
 10
379.6162109375
 20
270.42578125
 30
0.0
 10
379.896484375
 20
270.1826171875
 30
0.0
 10
380.0732421875
 20
269.890625
 30
0.0
 10
380.1484375
 20
269.55078125
 30
0.0
 10
380.1484375
 20
269.55078125
 30
0.0
 10
380.2119140625
 20
269.55078125
 30
0.0
 10
380.2119140625
 20
269.55078125
 30
0.0
 10
380.2392578125
 20
269.69140625
 30
0.0
 10
380.28515625
 20
269.8427734375
 30
0.0
 10
380.3515625
 20
270.00390625
 30
0.0
 10
380.41796875
 20
270.1650390625
 30
0.0
 10
380.515625
 20
270.314453125
 30
0.0
 10
380.64453125
 20
270.453125
 30
0.0
 10
380.7744140625
 20
270.5908203125
 30
0.0
 10
380.9404296875
 20
270.7041015625
 30
0.0
 10
381.1435546875
 20
270.791015625
 30
0.0
 10
381.3466796875
 20
270.87890625
 30
0.0
 10
381.59375
 20
270.921875
 30
0.0
 10
381.8857421875
 20
270.921875
 30
0.0
 10
382.189453125
 20
270.921875
 30
0.0
 10
382.46875
 20
270.8701171875
 30
0.0
 10
382.72265625
 20
270.7666015625
 30
0.0
 10
382.9765625
 20
270.6630859375
 30
0.0
 10
383.201171875
 20
270.515625
 30
0.0
 10
383.3974609375
 20
270.326171875
 30
0.0
 10
383.6015625
 20
270.130859375
 30
0.0
 10
383.7568359375
 20
269.89453125
 30
0.0
 10
383.8623046875
 20
269.6181640625
 30
0.0
 10
383.966796875
 20
269.341796875
 30
0.0
 10
384.01953125
 20
269.02734375
 30
0.0
 10
384.01953125
 20
268.6748046875
 30
0.0
 10
384.01953125
 20
268.337890625
 30
0.0
 10
383.9794921875
 20
268.0048828125
 30
0.0
 10
383.8974609375
 20
267.673828125
 30
0.0
 10
383.81640625
 20
267.3427734375
 30
0.0
 10
383.71875
 20
267.064453125
 30
0.0
 10
383.6044921875
 20
266.8388671875
 30
0.0
 10
383.6044921875
 20
266.8388671875
 30
0.0
 10
382.65234375
 20
266.8388671875
 30
0.0
 10
382.65234375
 20
266.8388671875
 30
0.0
 10
382.65234375
 20
266.8388671875
 30
0.0
 10
382.65234375
 20
266.90234375
 30
0.0
 10
382.65234375
 20
266.90234375
 30
0.0
 10
382.791015625
 20
267.091796875
 30
0.0
 10
382.923828125
 20
267.345703125
 30
0.0
 10
383.0498046875
 20
267.6650390625
 30
0.0
 10
383.17578125
 20
267.9833984375
 30
0.0
 10
383.2392578125
 20
268.302734375
 30
0.0
 10
383.2392578125
 20
268.62109375
 30
0.0
 10
383.2392578125
 20
268.8046875
 30
0.0
 10
383.2099609375
 20
268.9892578125
 30
0.0
 10
383.1513671875
 20
269.173828125
 30
0.0
 10
383.0927734375
 20
269.3583984375
 30
0.0
 10
382.9970703125
 20
269.5126953125
 30
0.0
 10
382.8642578125
 20
269.63671875
 30
0.0
 10
382.732421875
 20
269.7568359375
 30
0.0
 10
382.5869140625
 20
269.8486328125
 30
0.0
 10
382.4267578125
 20
269.9111328125
 30
0.0
 10
382.267578125
 20
269.974609375
 30
0.0
 10
382.06640625
 20
270.005859375
 30
0.0
 10
381.822265625
 20
270.005859375
 30
0.0
 10
381.5791015625
 20
270.005859375
 30
0.0
 10
381.37890625
 20
269.970703125
 30
0.0
 10
381.22265625
 20
269.900390625
 30
0.0
 10
381.06640625
 20
269.8291015625
 30
0.0
 10
380.9423828125
 20
269.7314453125
 30
0.0
 10
380.8525390625
 20
269.6044921875
 30
0.0
 10
380.7626953125
 20
269.478515625
 30
0.0
 10
380.7001953125
 20
269.3291015625
 30
0.0
 10
380.6650390625
 20
269.15625
 30
0.0
 10
380.630859375
 20
268.982421875
 30
0.0
 10
380.61328125
 20
268.7958984375
 30
0.0
 10
380.61328125
 20
268.59375
 30
0.0
 10
380.61328125
 20
268.59375
 30
0.0
 10
380.61328125
 20
268.2109375
 30
0.0
 10
380.61328125
 20
268.2109375
 30
0.0
 10
380.61328125
 20
268.2109375
 30
0.0
 10
379.8642578125
 20
268.2109375
 30
0.0
 10
379.8642578125
 20
268.2109375
 30
0.0
 10
379.8642578125
 20
268.2109375
 30
0.0
 10
379.8642578125
 20
268.5087890625
 30
0.0
 10
379.8642578125
 20
268.5087890625
 30
0.0
 10
379.8642578125
 20
268.9140625
 30
0.0
 10
379.7685546875
 20
269.244140625
 30
0.0
 10
379.576171875
 20
269.4990234375
 30
0.0
 10
379.3828125
 20
269.7529296875
 30
0.0
 10
379.103515625
 20
269.8798828125
 30
0.0
 10
378.736328125
 20
269.8798828125
 30
0.0
 10
378.568359375
 20
269.8798828125
 30
0.0
 10
378.4228515625
 20
269.8466796875
 30
0.0
 10
378.30078125
 20
269.7802734375
 30
0.0
 10
378.1796875
 20
269.71484375
 30
0.0
 10
378.08203125
 20
269.6298828125
 30
0.0
 10
378.009765625
 20
269.5283203125
 30
0.0
 10
377.931640625
 20
269.4140625
 30
0.0
 10
377.8779296875
 20
269.287109375
 30
0.0
 10
377.84765625
 20
269.1494140625
 30
0.0
 10
377.8173828125
 20
269.0107421875
 30
0.0
 10
377.802734375
 20
268.86328125
 30
0.0
 10
377.802734375
 20
268.70703125
 30
0.0
  0
HATCH
  5
6D9
330
6D4
100
AcDbEntity
  8
Layer 1
 62
     7
100
AcDbHatch
 10
0.0
 20
0.0
 30
0.0
210
0.0
220
0.0
230
1.0
  2
SOLID
 70
     1
 71
     1
 91
        1
 92
        1
 93
        1
 72
     4
 94
        3
 73
     0
 74
     0
 95
      143
 96
      139
 40
0.0
 40
0.0
 40
0.0
 40
0.0
 40
1.0
 40
1.0
 40
1.0
 40
2.0
 40
2.0
 40
2.0
 40
3.0
 40
3.0
 40
3.0
 40
4.0
 40
4.0
 40
4.0
 40
5.0
 40
5.0
 40
5.0
 40
6.0
 40
6.0
 40
6.0
 40
7.0
 40
7.0
 40
7.0
 40
8.0
 40
8.0
 40
8.0
 40
9.0
 40
9.0
 40
9.0
 40
10.0
 40
10.0
 40
10.0
 40
11.0
 40
11.0
 40
11.0
 40
12.0
 40
12.0
 40
12.0
 40
13.0
 40
13.0
 40
13.0
 40
14.0
 40
14.0
 40
14.0
 40
15.0
 40
15.0
 40
15.0
 40
16.0
 40
16.0
 40
16.0
 40
17.0
 40
17.0
 40
17.0
 40
18.0
 40
18.0
 40
18.0
 40
19.0
 40
19.0
 40
19.0
 40
20.0
 40
20.0
 40
20.0
 40
21.0
 40
21.0
 40
21.0
 40
22.0
 40
22.0
 40
22.0
 40
23.0
 40
23.0
 40
23.0
 40
24.0
 40
24.0
 40
24.0
 40
25.0
 40
25.0
 40
25.0
 40
26.0
 40
26.0
 40
26.0
 40
27.0
 40
27.0
 40
27.0
 40
28.0
 40
28.0
 40
28.0
 40
29.0
 40
29.0
 40
29.0
 40
30.0
 40
30.0
 40
30.0
 40
31.0
 40
31.0
 40
31.0
 40
32.0
 40
32.0
 40
32.0
 40
33.0
 40
33.0
 40
33.0
 40
34.0
 40
34.0
 40
34.0
 40
35.0
 40
35.0
 40
35.0
 40
36.0
 40
36.0
 40
36.0
 40
37.0
 40
37.0
 40
37.0
 40
38.0
 40
38.0
 40
38.0
 40
39.0
 40
39.0
 40
39.0
 40
40.0
 40
40.0
 40
40.0
 40
41.0
 40
41.0
 40
41.0
 40
42.0
 40
42.0
 40
42.0
 40
43.0
 40
43.0
 40
43.0
 40
44.0
 40
44.0
 40
44.0
 40
45.0
 40
45.0
 40
45.0
 40
46.0
 40
46.0
 40
46.0
 40
46.0
 10
377.802734375
 20
268.70703125
 10
377.802734375
 20
268.5439453125
 10
377.822265625
 20
268.3818359375
 10
377.861328125
 20
268.2197265625
 10
377.900390625
 20
268.0576171875
 10
377.951171875
 20
267.8974609375
 10
378.0146484375
 20
267.7412109375
 10
378.0751953125
 20
267.5966796875
 10
378.1376953125
 20
267.4716796875
 10
378.2041015625
 20
267.3642578125
 10
378.2705078125
 20
267.2578125
 10
378.33203125
 20
267.162109375
 10
378.388671875
 20
267.078125
 10
378.388671875
 20
267.078125
 10
378.388671875
 20
267.0244140625
 10
378.388671875
 20
267.0244140625
 10
378.388671875
 20
267.0244140625
 10
377.4375
 20
267.0244140625
 10
377.4375
 20
267.0244140625
 10
377.33203125
 20
267.2197265625
 10
377.236328125
 20
267.4853515625
 10
377.150390625
 20
267.8203125
 10
377.064453125
 20
268.1552734375
 10
377.0224609375
 20
268.4755859375
 10
377.0224609375
 20
268.779296875
 10
377.0224609375
 20
269.0830078125
 10
377.052734375
 20
269.3486328125
 10
377.1142578125
 20
269.5751953125
 10
377.17578125
 20
269.802734375
 10
377.271484375
 20
270.0078125
 10
377.4013671875
 20
270.19140625
 10
377.5458984375
 20
270.3896484375
 10
377.7197265625
 20
270.5390625
 10
377.9248046875
 20
270.6396484375
 10
378.12890625
 20
270.7412109375
 10
378.3681640625
 20
270.791015625
 10
378.6416015625
 20
270.791015625
 10
379.01171875
 20
270.791015625
 10
379.3369140625
 20
270.669921875
 10
379.6162109375
 20
270.42578125
 10
379.896484375
 20
270.1826171875
 10
380.0732421875
 20
269.890625
 10
380.1484375
 20
269.55078125
 10
380.1484375
 20
269.55078125
 10
380.2119140625
 20
269.55078125
 10
380.2119140625
 20
269.55078125
 10
380.2392578125
 20
269.69140625
 10
380.28515625
 20
269.8427734375
 10
380.3515625
 20
270.00390625
 10
380.41796875
 20
270.1650390625
 10
380.515625
 20
270.314453125
 10
380.64453125
 20
270.453125
 10
380.7744140625
 20
270.5908203125
 10
380.9404296875
 20
270.7041015625
 10
381.1435546875
 20
270.791015625
 10
381.3466796875
 20
270.87890625
 10
381.59375
 20
270.921875
 10
381.8857421875
 20
270.921875
 10
382.189453125
 20
270.921875
 10
382.46875
 20
270.8701171875
 10
382.72265625
 20
270.7666015625
 10
382.9765625
 20
270.6630859375
 10
383.201171875
 20
270.515625
 10
383.3974609375
 20
270.326171875
 10
383.6015625
 20
270.130859375
 10
383.7568359375
 20
269.89453125
 10
383.8623046875
 20
269.6181640625
 10
383.966796875
 20
269.341796875
 10
384.01953125
 20
269.02734375
 10
384.01953125
 20
268.6748046875
 10
384.01953125
 20
268.337890625
 10
383.9794921875
 20
268.0048828125
 10
383.8974609375
 20
267.673828125
 10
383.81640625
 20
267.3427734375
 10
383.71875
 20
267.064453125
 10
383.6044921875
 20
266.8388671875
 10
383.6044921875
 20
266.8388671875
 10
382.65234375
 20
266.8388671875
 10
382.65234375
 20
266.8388671875
 10
382.65234375
 20
266.8388671875
 10
382.65234375
 20
266.90234375
 10
382.65234375
 20
266.90234375
 10
382.791015625
 20
267.091796875
 10
382.923828125
 20
267.345703125
 10
383.0498046875
 20
267.6650390625
 10
383.17578125
 20
267.9833984375
 10
383.2392578125
 20
268.302734375
 10
383.2392578125
 20
268.62109375
 10
383.2392578125
 20
268.8046875
 10
383.2099609375
 20
268.9892578125
 10
383.1513671875
 20
269.173828125
 10
383.0927734375
 20
269.3583984375
 10
382.9970703125
 20
269.5126953125
 10
382.8642578125
 20
269.63671875
 10
382.732421875
 20
269.7568359375
 10
382.5869140625
 20
269.8486328125
 10
382.4267578125
 20
269.9111328125
 10
382.267578125
 20
269.974609375
 10
382.06640625
 20
270.005859375
 10
381.822265625
 20
270.005859375
 10
381.5791015625
 20
270.005859375
 10
381.37890625
 20
269.970703125
 10
381.22265625
 20
269.900390625
 10
381.06640625
 20
269.8291015625
 10
380.9423828125
 20
269.7314453125
 10
380.8525390625
 20
269.6044921875
 10
380.7626953125
 20
269.478515625
 10
380.7001953125
 20
269.3291015625
 10
380.6650390625
 20
269.15625
 10
380.630859375
 20
268.982421875
 10
380.61328125
 20
268.7958984375
 10
380.61328125
 20
268.59375
 10
380.61328125
 20
268.59375
 10
380.61328125
 20
268.2109375
 10
380.61328125
 20
268.2109375
 10
380.61328125
 20
268.2109375
 10
379.8642578125
 20
268.2109375
 10
379.8642578125
 20
268.2109375
 10
379.8642578125
 20
268.2109375
 10
379.8642578125
 20
268.5087890625
 10
379.8642578125
 20
268.5087890625
 10
379.8642578125
 20
268.9140625
 10
379.7685546875
 20
269.244140625
 10
379.576171875
 20
269.4990234375
 10
379.3828125
 20
269.7529296875
 10
379.103515625
 20
269.8798828125
 10
378.736328125
 20
269.8798828125
 10
378.568359375
 20
269.8798828125
 10
378.4228515625
 20
269.8466796875
 10
378.30078125
 20
269.7802734375
 10
378.1796875
 20
269.71484375
 10
378.08203125
 20
269.6298828125
 10
378.009765625
 20
269.5283203125
 10
377.931640625
 20
269.4140625
 10
377.8779296875
 20
269.287109375
 10
377.84765625
 20
269.1494140625
 10
377.8173828125
 20
269.0107421875
 10
377.802734375
 20
268.86328125
 10
377.802734375
 20
268.70703125
 97
        0
 97
        1
330
6D8
 75
     2
 76
     1
 98
        1
 10
0.0
 20
0.0
450
        0
451
        0
460
0.0
461
0.0
452
        0
462
0.0
453
        0
470

  0
SPLINE
  5
6DA
330
6D4
100
AcDbEntity
  8
Layer 1
100
AcDbSpline
210
0.0
220
0.0
230
1.0
 70
     9
 71
     3
 72
    47
 73
    43
 74
     0
 42
0.000000001
 43
0.0000000001
 40
0.0
 40
0.0
 40
0.0
 40
0.0
 40
1.0
 40
1.0
 40
1.0
 40
2.0
 40
2.0
 40
2.0
 40
3.0
 40
3.0
 40
3.0
 40
4.0
 40
4.0
 40
4.0
 40
5.0
 40
5.0
 40
5.0
 40
6.0
 40
6.0
 40
6.0
 40
7.0
 40
7.0
 40
7.0
 40
8.0
 40
8.0
 40
8.0
 40
9.0
 40
9.0
 40
9.0
 40
10.0
 40
10.0
 40
10.0
 40
11.0
 40
11.0
 40
11.0
 40
12.0
 40
12.0
 40
12.0
 40
13.0
 40
13.0
 40
13.0
 40
14.0
 40
14.0
 40
14.0
 40
14.0
 10
379.9228515625
 20
275.19921875
 30
0.0
 10
379.4658203125
 20
275.19921875
 30
0.0
 10
379.09375
 20
275.1572265625
 30
0.0
 10
378.806640625
 20
275.072265625
 30
0.0
 10
378.51953125
 20
274.98828125
 30
0.0
 10
378.2978515625
 20
274.873046875
 30
0.0
 10
378.140625
 20
274.7255859375
 30
0.0
 10
377.9970703125
 20
274.5927734375
 30
0.0
 10
377.8974609375
 20
274.458984375
 30
0.0
 10
377.8427734375
 20
274.32421875
 30
0.0
 10
377.7890625
 20
274.1884765625
 30
0.0
 10
377.76171875
 20
274.0390625
 30
0.0
 10
377.76171875
 20
273.876953125
 30
0.0
 10
377.76171875
 20
273.5068359375
 30
0.0
 10
377.89453125
 20
273.2119140625
 30
0.0
 10
378.1591796875
 20
272.9931640625
 30
0.0
 10
378.423828125
 20
272.7734375
 30
0.0
 10
378.8076171875
 20
272.6630859375
 30
0.0
 10
379.3095703125
 20
272.6630859375
 30
0.0
 10
379.591796875
 20
272.6630859375
 30
0.0
 10
379.8251953125
 20
272.69921875
 30
0.0
 10
380.0087890625
 20
272.771484375
 30
0.0
 10
380.1923828125
 20
272.84375
 30
0.0
 10
380.3505859375
 20
272.9609375
 30
0.0
 10
380.482421875
 20
273.1240234375
 30
0.0
 10
380.576171875
 20
273.23828125
 30
0.0
 10
380.638671875
 20
273.3671875
 30
0.0
 10
380.669921875
 20
273.51171875
 30
0.0
 10
380.701171875
 20
273.65625
 30
0.0
 10
380.716796875
 20
273.810546875
 30
0.0
 10
380.716796875
 20
273.9765625
 30
0.0
 10
380.716796875
 20
274.1689453125
 30
0.0
 10
380.68359375
 20
274.3759765625
 30
0.0
 10
380.615234375
 20
274.5986328125
 30
0.0
 10
380.5478515625
 20
274.8212890625
 30
0.0
 10
380.458984375
 20
275.015625
 30
0.0
 10
380.34765625
 20
275.1806640625
 30
0.0
 10
380.3017578125
 20
275.18359375
 30
0.0
 10
380.2431640625
 20
275.1875
 30
0.0
 10
380.1689453125
 20
275.1923828125
 30
0.0
 10
380.095703125
 20
275.197265625
 30
0.0
 10
380.013671875
 20
275.19921875
 30
0.0
 10
379.9228515625
 20
275.19921875
 30
0.0
  0
SPLINE
  5
6DB
330
6D4
100
AcDbEntity
  8
Layer 1
100
AcDbSpline
210
0.0
220
0.0
230
1.0
 70
     9
 71
     3
 72
    83
 73
    79
 74
     0
 42
0.000000001
 43
0.0000000001
 40
0.0
 40
0.0
 40
0.0
 40
0.0
 40
1.0
 40
1.0
 40
1.0
 40
2.0
 40
2.0
 40
2.0
 40
3.0
 40
3.0
 40
3.0
 40
4.0
 40
4.0
 40
4.0
 40
5.0
 40
5.0
 40
5.0
 40
6.0
 40
6.0
 40
6.0
 40
7.0
 40
7.0
 40
7.0
 40
8.0
 40
8.0
 40
8.0
 40
9.0
 40
9.0
 40
9.0
 40
10.0
 40
10.0
 40
10.0
 40
11.0
 40
11.0
 40
11.0
 40
12.0
 40
12.0
 40
12.0
 40
13.0
 40
13.0
 40
13.0
 40
14.0
 40
14.0
 40
14.0
 40
15.0
 40
15.0
 40
15.0
 40
16.0
 40
16.0
 40
16.0
 40
17.0
 40
17.0
 40
17.0
 40
18.0
 40
18.0
 40
18.0
 40
19.0
 40
19.0
 40
19.0
 40
20.0
 40
20.0
 40
20.0
 40
21.0
 40
21.0
 40
21.0
 40
22.0
 40
22.0
 40
22.0
 40
23.0
 40
23.0
 40
23.0
 40
24.0
 40
24.0
 40
24.0
 40
25.0
 40
25.0
 40
25.0
 40
26.0
 40
26.0
 40
26.0
 40
26.0
 10
379.345703125
 20
271.748046875
 30
0.0
 10
379.0
 20
271.748046875
 30
0.0
 10
378.68359375
 20
271.8037109375
 30
0.0
 10
378.3984375
 20
271.9169921875
 30
0.0
 10
378.1123046875
 20
272.029296875
 30
0.0
 10
377.8662109375
 20
272.18359375
 30
0.0
 10
377.658203125
 20
272.37890625
 30
0.0
 10
377.4599609375
 20
272.5654296875
 30
0.0
 10
377.3046875
 20
272.7939453125
 30
0.0
 10
377.193359375
 20
273.0625
 30
0.0
 10
377.08203125
 20
273.33203125
 30
0.0
 10
377.0263671875
 20
273.6044921875
 30
0.0
 10
377.0263671875
 20
273.8818359375
 30
0.0
 10
377.0263671875
 20
274.19140625
 30
0.0
 10
377.078125
 20
274.4716796875
 30
0.0
 10
377.1826171875
 20
274.72265625
 30
0.0
 10
377.2861328125
 20
274.974609375
 30
0.0
 10
377.435546875
 20
275.19140625
 30
0.0
 10
377.630859375
 20
275.375
 30
0.0
 10
377.8779296875
 20
275.6064453125
 30
0.0
 10
378.201171875
 20
275.7861328125
 30
0.0
 10
378.6015625
 20
275.9140625
 30
0.0
 10
379.0009765625
 20
276.0419921875
 30
0.0
 10
379.5068359375
 20
276.10546875
 30
0.0
 10
380.1171875
 20
276.10546875
 30
0.0
 10
380.673828125
 20
276.10546875
 30
0.0
 10
381.201171875
 20
276.0439453125
 30
0.0
 10
381.6982421875
 20
275.9189453125
 30
0.0
 10
382.1962890625
 20
275.7939453125
 30
0.0
 10
382.609375
 20
275.609375
 30
0.0
 10
382.9365234375
 20
275.3662109375
 30
0.0
 10
383.2861328125
 20
275.107421875
 30
0.0
 10
383.5517578125
 20
274.796875
 30
0.0
 10
383.7353515625
 20
274.4345703125
 30
0.0
 10
383.9189453125
 20
274.072265625
 30
0.0
 10
384.0107421875
 20
273.6240234375
 30
0.0
 10
384.0107421875
 20
273.091796875
 30
0.0
 10
384.0107421875
 20
272.9716796875
 30
0.0
 10
384.00390625
 20
272.84375
 30
0.0
 10
383.990234375
 20
272.708984375
 30
0.0
 10
383.9765625
 20
272.5732421875
 30
0.0
 10
383.9521484375
 20
272.447265625
 30
0.0
 10
383.916015625
 20
272.330078125
 30
0.0
 10
383.916015625
 20
272.330078125
 30
0.0
 10
383.0546875
 20
272.330078125
 30
0.0
 10
383.0546875
 20
272.330078125
 30
0.0
 10
383.0546875
 20
272.330078125
 30
0.0
 10
383.0546875
 20
272.375
 30
0.0
 10
383.0546875
 20
272.375
 30
0.0
 10
383.0966796875
 20
272.4501953125
 30
0.0
 10
383.13671875
 20
272.5673828125
 30
0.0
 10
383.17578125
 20
272.7265625
 30
0.0
 10
383.21484375
 20
272.8857421875
 30
0.0
 10
383.234375
 20
273.048828125
 30
0.0
 10
383.234375
 20
273.2138671875
 30
0.0
 10
383.234375
 20
273.8037109375
 30
0.0
 10
383.041015625
 20
274.2666015625
 30
0.0
 10
382.65234375
 20
274.603515625
 30
0.0
 10
382.2646484375
 20
274.9404296875
 30
0.0
 10
381.7099609375
 20
275.1318359375
 30
0.0
 10
380.98828125
 20
275.1767578125
 30
0.0
 10
381.150390625
 20
274.935546875
 30
0.0
 10
381.26953125
 20
274.7060546875
 30
0.0
 10
381.3447265625
 20
274.48828125
 30
0.0
 10
381.419921875
 20
274.2705078125
 30
0.0
 10
381.45703125
 20
274.033203125
 30
0.0
 10
381.45703125
 20
273.7783203125
 30
0.0
 10
381.45703125
 20
273.5283203125
 30
0.0
 10
381.4296875
 20
273.30078125
 30
0.0
 10
381.3759765625
 20
273.0966796875
 30
0.0
 10
381.3212890625
 20
272.8916015625
 30
0.0
 10
381.216796875
 20
272.685546875
 30
0.0
 10
381.0595703125
 20
272.478515625
 30
0.0
 10
380.876953125
 20
272.23828125
 30
0.0
 10
380.64453125
 20
272.0556640625
 30
0.0
 10
380.36328125
 20
271.9326171875
 30
0.0
 10
380.08203125
 20
271.8095703125
 30
0.0
 10
379.7421875
 20
271.748046875
 30
0.0
 10
379.345703125
 20
271.748046875
 30
0.0
  0
HATCH
  5
6DC
330
6D4
100
AcDbEntity
  8
Layer 1
 62
     7
100
AcDbHatch
 10
0.0
 20
0.0
 30
0.0
210
0.0
220
0.0
230
1.0
  2
SOLID
 70
     1
 71
     1
 91
        2
 92
        1
 93
        1
 72
     4
 94
        3
 73
     0
 74
     0
 95
       47
 96
       43
 40
0.0
 40
0.0
 40
0.0
 40
0.0
 40
1.0
 40
1.0
 40
1.0
 40
2.0
 40
2.0
 40
2.0
 40
3.0
 40
3.0
 40
3.0
 40
4.0
 40
4.0
 40
4.0
 40
5.0
 40
5.0
 40
5.0
 40
6.0
 40
6.0
 40
6.0
 40
7.0
 40
7.0
 40
7.0
 40
8.0
 40
8.0
 40
8.0
 40
9.0
 40
9.0
 40
9.0
 40
10.0
 40
10.0
 40
10.0
 40
11.0
 40
11.0
 40
11.0
 40
12.0
 40
12.0
 40
12.0
 40
13.0
 40
13.0
 40
13.0
 40
14.0
 40
14.0
 40
14.0
 40
14.0
 10
379.9228515625
 20
275.19921875
 10
379.4658203125
 20
275.19921875
 10
379.09375
 20
275.1572265625
 10
378.806640625
 20
275.072265625
 10
378.51953125
 20
274.98828125
 10
378.2978515625
 20
274.873046875
 10
378.140625
 20
274.7255859375
 10
377.9970703125
 20
274.5927734375
 10
377.8974609375
 20
274.458984375
 10
377.8427734375
 20
274.32421875
 10
377.7890625
 20
274.1884765625
 10
377.76171875
 20
274.0390625
 10
377.76171875
 20
273.876953125
 10
377.76171875
 20
273.5068359375
 10
377.89453125
 20
273.2119140625
 10
378.1591796875
 20
272.9931640625
 10
378.423828125
 20
272.7734375
 10
378.8076171875
 20
272.6630859375
 10
379.3095703125
 20
272.6630859375
 10
379.591796875
 20
272.6630859375
 10
379.8251953125
 20
272.69921875
 10
380.0087890625
 20
272.771484375
 10
380.1923828125
 20
272.84375
 10
380.3505859375
 20
272.9609375
 10
380.482421875
 20
273.1240234375
 10
380.576171875
 20
273.23828125
 10
380.638671875
 20
273.3671875
 10
380.669921875
 20
273.51171875
 10
380.701171875
 20
273.65625
 10
380.716796875
 20
273.810546875
 10
380.716796875
 20
273.9765625
 10
380.716796875
 20
274.1689453125
 10
380.68359375
 20
274.3759765625
 10
380.615234375
 20
274.5986328125
 10
380.5478515625
 20
274.8212890625
 10
380.458984375
 20
275.015625
 10
380.34765625
 20
275.1806640625
 10
380.3017578125
 20
275.18359375
 10
380.2431640625
 20
275.1875
 10
380.1689453125
 20
275.1923828125
 10
380.095703125
 20
275.197265625
 10
380.013671875
 20
275.19921875
 10
379.9228515625
 20
275.19921875
 97
        0
 97
        1
330
6DA
 92
        1
 93
        1
 72
     4
 94
        3
 73
     0
 74
     0
 95
       83
 96
       79
 40
0.0
 40
0.0
 40
0.0
 40
0.0
 40
1.0
 40
1.0
 40
1.0
 40
2.0
 40
2.0
 40
2.0
 40
3.0
 40
3.0
 40
3.0
 40
4.0
 40
4.0
 40
4.0
 40
5.0
 40
5.0
 40
5.0
 40
6.0
 40
6.0
 40
6.0
 40
7.0
 40
7.0
 40
7.0
 40
8.0
 40
8.0
 40
8.0
 40
9.0
 40
9.0
 40
9.0
 40
10.0
 40
10.0
 40
10.0
 40
11.0
 40
11.0
 40
11.0
 40
12.0
 40
12.0
 40
12.0
 40
13.0
 40
13.0
 40
13.0
 40
14.0
 40
14.0
 40
14.0
 40
15.0
 40
15.0
 40
15.0
 40
16.0
 40
16.0
 40
16.0
 40
17.0
 40
17.0
 40
17.0
 40
18.0
 40
18.0
 40
18.0
 40
19.0
 40
19.0
 40
19.0
 40
20.0
 40
20.0
 40
20.0
 40
21.0
 40
21.0
 40
21.0
 40
22.0
 40
22.0
 40
22.0
 40
23.0
 40
23.0
 40
23.0
 40
24.0
 40
24.0
 40
24.0
 40
25.0
 40
25.0
 40
25.0
 40
26.0
 40
26.0
 40
26.0
 40
26.0
 10
379.345703125
 20
271.748046875
 10
379.0
 20
271.748046875
 10
378.68359375
 20
271.8037109375
 10
378.3984375
 20
271.9169921875
 10
378.1123046875
 20
272.029296875
 10
377.8662109375
 20
272.18359375
 10
377.658203125
 20
272.37890625
 10
377.4599609375
 20
272.5654296875
 10
377.3046875
 20
272.7939453125
 10
377.193359375
 20
273.0625
 10
377.08203125
 20
273.33203125
 10
377.0263671875
 20
273.6044921875
 10
377.0263671875
 20
273.8818359375
 10
377.0263671875
 20
274.19140625
 10
377.078125
 20
274.4716796875
 10
377.1826171875
 20
274.72265625
 10
377.2861328125
 20
274.974609375
 10
377.435546875
 20
275.19140625
 10
377.630859375
 20
275.375
 10
377.8779296875
 20
275.6064453125
 10
378.201171875
 20
275.7861328125
 10
378.6015625
 20
275.9140625
 10
379.0009765625
 20
276.0419921875
 10
379.5068359375
 20
276.10546875
 10
380.1171875
 20
276.10546875
 10
380.673828125
 20
276.10546875
 10
381.201171875
 20
276.0439453125
 10
381.6982421875
 20
275.9189453125
 10
382.1962890625
 20
275.7939453125
 10
382.609375
 20
275.609375
 10
382.9365234375
 20
275.3662109375
 10
383.2861328125
 20
275.107421875
 10
383.5517578125
 20
274.796875
 10
383.7353515625
 20
274.4345703125
 10
383.9189453125
 20
274.072265625
 10
384.0107421875
 20
273.6240234375
 10
384.0107421875
 20
273.091796875
 10
384.0107421875
 20
272.9716796875
 10
384.00390625
 20
272.84375
 10
383.990234375
 20
272.708984375
 10
383.9765625
 20
272.5732421875
 10
383.9521484375
 20
272.447265625
 10
383.916015625
 20
272.330078125
 10
383.916015625
 20
272.330078125
 10
383.0546875
 20
272.330078125
 10
383.0546875
 20
272.330078125
 10
383.0546875
 20
272.330078125
 10
383.0546875
 20
272.375
 10
383.0546875
 20
272.375
 10
383.0966796875
 20
272.4501953125
 10
383.13671875
 20
272.5673828125
 10
383.17578125
 20
272.7265625
 10
383.21484375
 20
272.8857421875
 10
383.234375
 20
273.048828125
 10
383.234375
 20
273.2138671875
 10
383.234375
 20
273.8037109375
 10
383.041015625
 20
274.2666015625
 10
382.65234375
 20
274.603515625
 10
382.2646484375
 20
274.9404296875
 10
381.7099609375
 20
275.1318359375
 10
380.98828125
 20
275.1767578125
 10
381.150390625
 20
274.935546875
 10
381.26953125
 20
274.7060546875
 10
381.3447265625
 20
274.48828125
 10
381.419921875
 20
274.2705078125
 10
381.45703125
 20
274.033203125
 10
381.45703125
 20
273.7783203125
 10
381.45703125
 20
273.5283203125
 10
381.4296875
 20
273.30078125
 10
381.3759765625
 20
273.0966796875
 10
381.3212890625
 20
272.8916015625
 10
381.216796875
 20
272.685546875
 10
381.0595703125
 20
272.478515625
 10
380.876953125
 20
272.23828125
 10
380.64453125
 20
272.0556640625
 10
380.36328125
 20
271.9326171875
 10
380.08203125
 20
271.8095703125
 10
379.7421875
 20
271.748046875
 10
379.345703125
 20
271.748046875
 97
        0
 97
        1
330
6DB
 75
     2
 76
     1
 98
        1
 10
0.0
 20
0.0
450
        0
451
        0
460
0.0
461
0.0
452
        0
462
0.0
453
        0
470

  0
ENDBLK
  5
6DD
330
6D4
100
AcDbEntity
  8
0
100
AcDbBlockEnd
  0
BLOCK
  5
6DF
330
6DE
100
AcDbEntity
  8
0
100
AcDbBlockBegin
  2
Block_6
 70
     0
 10
0.0
 20
0.0
 30
0.0
  3
Block_6
  1

  0
SPLINE
  5
6E0
330
6DE
100
AcDbEntity
  8
Layer 1
100
AcDbSpline
210
0.0
220
0.0
230
1.0
 70
     9
 71
     3
 72
    38
 73
    34
 74
     0
 42
0.000000001
 43
0.0000000001
 40
0.0
 40
0.0
 40
0.0
 40
0.0
 40
1.0
 40
1.0
 40
1.0
 40
2.0
 40
2.0
 40
2.0
 40
3.0
 40
3.0
 40
3.0
 40
4.0
 40
4.0
 40
4.0
 40
5.0
 40
5.0
 40
5.0
 40
6.0
 40
6.0
 40
6.0
 40
7.0
 40
7.0
 40
7.0
 40
8.0
 40
8.0
 40
8.0
 40
9.0
 40
9.0
 40
9.0
 40
10.0
 40
10.0
 40
10.0
 40
11.0
 40
11.0
 40
11.0
 40
11.0
 10
347.9052734375
 20
397.7255859375
 30
0.0
 10
347.728515625
 20
397.8095703125
 30
0.0
 10
347.5576171875
 20
397.8525390625
 30
0.0
 10
347.3896484375
 20
397.85546875
 30
0.0
 10
347.2236328125
 20
397.857421875
 30
0.0
 10
347.0654296875
 20
397.814453125
 30
0.0
 10
346.9169921875
 20
397.724609375
 30
0.0
 10
346.7861328125
 20
397.6455078125
 30
0.0
 10
346.669921875
 20
397.5380859375
 30
0.0
 10
346.56640625
 20
397.400390625
 30
0.0
 10
346.462890625
 20
397.263671875
 30
0.0
 10
346.357421875
 20
397.0810546875
 30
0.0
 10
346.2509765625
 20
396.8564453125
 30
0.0
 10
346.2509765625
 20
396.8564453125
 30
0.0
 10
345.873046875
 20
396.056640625
 30
0.0
 10
345.873046875
 20
396.056640625
 30
0.0
 10
345.873046875
 20
396.056640625
 30
0.0
 10
348.166015625
 20
394.97265625
 30
0.0
 10
348.166015625
 20
394.97265625
 30
0.0
 10
348.166015625
 20
394.97265625
 30
0.0
 10
348.501953125
 20
395.6826171875
 30
0.0
 10
348.501953125
 20
395.6826171875
 30
0.0
 10
348.611328125
 20
395.9140625
 30
0.0
 10
348.6884765625
 20
396.1318359375
 30
0.0
 10
348.7353515625
 20
396.3359375
 30
0.0
 10
348.78125
 20
396.5390625
 30
0.0
 10
348.7724609375
 20
396.7373046875
 30
0.0
 10
348.7060546875
 20
396.9287109375
 30
0.0
 10
348.6474609375
 20
397.0986328125
 30
0.0
 10
348.5517578125
 20
397.25
 30
0.0
 10
348.4208984375
 20
397.3798828125
 30
0.0
 10
348.2890625
 20
397.509765625
 30
0.0
 10
348.1171875
 20
397.6259765625
 30
0.0
 10
347.9052734375
 20
397.7255859375
 30
0.0
  0
SPLINE
  5
6E1
330
6DE
100
AcDbEntity
  8
Layer 1
100
AcDbSpline
210
0.0
220
0.0
230
1.0
 70
    11
 71
     3
 72
    47
 73
    43
 74
     0
 42
0.000000001
 43
0.0000000001
 40
0.0
 40
0.0
 40
0.0
 40
0.0
 40
1.0
 40
1.0
 40
1.0
 40
2.0
 40
2.0
 40
2.0
 40
3.0
 40
3.0
 40
3.0
 40
4.0
 40
4.0
 40
4.0
 40
5.0
 40
5.0
 40
5.0
 40
6.0
 40
6.0
 40
6.0
 40
7.0
 40
7.0
 40
7.0
 40
8.0
 40
8.0
 40
8.0
 40
9.0
 40
9.0
 40
9.0
 40
10.0
 40
10.0
 40
10.0
 40
11.0
 40
11.0
 40
11.0
 40
12.0
 40
12.0
 40
12.0
 40
13.0
 40
13.0
 40
13.0
 40
14.0
 40
14.0
 40
14.0
 40
14.0
 10
353.0947265625
 20
397.408203125
 30
0.0
 10
353.0947265625
 20
397.408203125
 30
0.0
 10
352.599609375
 20
396.3603515625
 30
0.0
 10
352.599609375
 20
396.3603515625
 30
0.0
 10
352.599609375
 20
396.3603515625
 30
0.0
 10
349.2744140625
 20
395.576171875
 30
0.0
 10
349.2744140625
 20
395.576171875
 30
0.0
 10
349.2744140625
 20
395.576171875
 30
0.0
 10
348.8388671875
 20
394.654296875
 30
0.0
 10
348.8388671875
 20
394.654296875
 30
0.0
 10
348.8388671875
 20
394.654296875
 30
0.0
 10
351.25390625
 20
393.5126953125
 30
0.0
 10
351.25390625
 20
393.5126953125
 30
0.0
 10
351.25390625
 20
393.5126953125
 30
0.0
 10
350.8720703125
 20
392.7060546875
 30
0.0
 10
350.8720703125
 20
392.7060546875
 30
0.0
 10
350.8720703125
 20
392.7060546875
 30
0.0
 10
344.7978515625
 20
395.5771484375
 30
0.0
 10
344.7978515625
 20
395.5771484375
 30
0.0
 10
344.7978515625
 20
395.5771484375
 30
0.0
 10
345.5390625
 20
397.1435546875
 30
0.0
 10
345.5390625
 20
397.1435546875
 30
0.0
 10
345.703125
 20
397.4912109375
 30
0.0
 10
345.859375
 20
397.7734375
 30
0.0
 10
346.009765625
 20
397.9912109375
 30
0.0
 10
346.1591796875
 20
398.2080078125
 30
0.0
 10
346.3525390625
 20
398.3896484375
 30
0.0
 10
346.591796875
 20
398.537109375
 30
0.0
 10
346.828125
 20
398.6845703125
 30
0.0
 10
347.0830078125
 20
398.76953125
 30
0.0
 10
347.3564453125
 20
398.791015625
 30
0.0
 10
347.62890625
 20
398.8134765625
 30
0.0
 10
347.9248046875
 20
398.75
 30
0.0
 10
348.2421875
 20
398.599609375
 30
0.0
 10
348.689453125
 20
398.388671875
 30
0.0
 10
349.0087890625
 20
398.099609375
 30
0.0
 10
349.201171875
 20
397.732421875
 30
0.0
 10
349.3935546875
 20
397.365234375
 30
0.0
 10
349.4697265625
 20
396.953125
 30
0.0
 10
349.4296875
 20
396.49609375
 30
0.0
 10
349.4296875
 20
396.49609375
 30
0.0
 10
353.0947265625
 20
397.408203125
 30
0.0
 10
353.0947265625
 20
397.408203125
 30
0.0
  0
HATCH
  5
6E2
330
6DE
100
AcDbEntity
  8
Layer 1
 62
     7
100
AcDbHatch
 10
0.0
 20
0.0
 30
0.0
210
0.0
220
0.0
230
1.0
  2
SOLID
 70
     1
 71
     1
 91
        2
 92
        1
 93
        1
 72
     4
 94
        3
 73
     0
 74
     0
 95
       38
 96
       34
 40
0.0
 40
0.0
 40
0.0
 40
0.0
 40
1.0
 40
1.0
 40
1.0
 40
2.0
 40
2.0
 40
2.0
 40
3.0
 40
3.0
 40
3.0
 40
4.0
 40
4.0
 40
4.0
 40
5.0
 40
5.0
 40
5.0
 40
6.0
 40
6.0
 40
6.0
 40
7.0
 40
7.0
 40
7.0
 40
8.0
 40
8.0
 40
8.0
 40
9.0
 40
9.0
 40
9.0
 40
10.0
 40
10.0
 40
10.0
 40
11.0
 40
11.0
 40
11.0
 40
11.0
 10
347.9052734375
 20
397.7255859375
 10
347.728515625
 20
397.8095703125
 10
347.5576171875
 20
397.8525390625
 10
347.3896484375
 20
397.85546875
 10
347.2236328125
 20
397.857421875
 10
347.0654296875
 20
397.814453125
 10
346.9169921875
 20
397.724609375
 10
346.7861328125
 20
397.6455078125
 10
346.669921875
 20
397.5380859375
 10
346.56640625
 20
397.400390625
 10
346.462890625
 20
397.263671875
 10
346.357421875
 20
397.0810546875
 10
346.2509765625
 20
396.8564453125
 10
346.2509765625
 20
396.8564453125
 10
345.873046875
 20
396.056640625
 10
345.873046875
 20
396.056640625
 10
345.873046875
 20
396.056640625
 10
348.166015625
 20
394.97265625
 10
348.166015625
 20
394.97265625
 10
348.166015625
 20
394.97265625
 10
348.501953125
 20
395.6826171875
 10
348.501953125
 20
395.6826171875
 10
348.611328125
 20
395.9140625
 10
348.6884765625
 20
396.1318359375
 10
348.7353515625
 20
396.3359375
 10
348.78125
 20
396.5390625
 10
348.7724609375
 20
396.7373046875
 10
348.7060546875
 20
396.9287109375
 10
348.6474609375
 20
397.0986328125
 10
348.5517578125
 20
397.25
 10
348.4208984375
 20
397.3798828125
 10
348.2890625
 20
397.509765625
 10
348.1171875
 20
397.6259765625
 10
347.9052734375
 20
397.7255859375
 97
        0
 97
        1
330
6E0
 92
        1
 93
        1
 72
     4
 94
        3
 73
     0
 74
     0
 95
       47
 96
       43
 40
0.0
 40
0.0
 40
0.0
 40
0.0
 40
1.0
 40
1.0
 40
1.0
 40
2.0
 40
2.0
 40
2.0
 40
3.0
 40
3.0
 40
3.0
 40
4.0
 40
4.0
 40
4.0
 40
5.0
 40
5.0
 40
5.0
 40
6.0
 40
6.0
 40
6.0
 40
7.0
 40
7.0
 40
7.0
 40
8.0
 40
8.0
 40
8.0
 40
9.0
 40
9.0
 40
9.0
 40
10.0
 40
10.0
 40
10.0
 40
11.0
 40
11.0
 40
11.0
 40
12.0
 40
12.0
 40
12.0
 40
13.0
 40
13.0
 40
13.0
 40
14.0
 40
14.0
 40
14.0
 40
14.0
 10
353.0947265625
 20
397.408203125
 10
353.0947265625
 20
397.408203125
 10
352.599609375
 20
396.3603515625
 10
352.599609375
 20
396.3603515625
 10
352.599609375
 20
396.3603515625
 10
349.2744140625
 20
395.576171875
 10
349.2744140625
 20
395.576171875
 10
349.2744140625
 20
395.576171875
 10
348.8388671875
 20
394.654296875
 10
348.8388671875
 20
394.654296875
 10
348.8388671875
 20
394.654296875
 10
351.25390625
 20
393.5126953125
 10
351.25390625
 20
393.5126953125
 10
351.25390625
 20
393.5126953125
 10
350.8720703125
 20
392.7060546875
 10
350.8720703125
 20
392.7060546875
 10
350.8720703125
 20
392.7060546875
 10
344.7978515625
 20
395.5771484375
 10
344.7978515625
 20
395.5771484375
 10
344.7978515625
 20
395.5771484375
 10
345.5390625
 20
397.1435546875
 10
345.5390625
 20
397.1435546875
 10
345.703125
 20
397.4912109375
 10
345.859375
 20
397.7734375
 10
346.009765625
 20
397.9912109375
 10
346.1591796875
 20
398.2080078125
 10
346.3525390625
 20
398.3896484375
 10
346.591796875
 20
398.537109375
 10
346.828125
 20
398.6845703125
 10
347.0830078125
 20
398.76953125
 10
347.3564453125
 20
398.791015625
 10
347.62890625
 20
398.8134765625
 10
347.9248046875
 20
398.75
 10
348.2421875
 20
398.599609375
 10
348.689453125
 20
398.388671875
 10
349.0087890625
 20
398.099609375
 10
349.201171875
 20
397.732421875
 10
349.3935546875
 20
397.365234375
 10
349.4697265625
 20
396.953125
 10
349.4296875
 20
396.49609375
 10
349.4296875
 20
396.49609375
 10
353.0947265625
 20
397.408203125
 10
353.0947265625
 20
397.408203125
 97
        0
 97
        1
330
6E1
 75
     2
 76
     1
 98
        1
 10
0.0
 20
0.0
450
        0
451
        0
460
0.0
461
0.0
452
        0
462
0.0
453
        0
470

  0
ENDBLK
  5
6E3
330
6DE
100
AcDbEntity
  8
0
100
AcDbBlockEnd
  0
BLOCK
  5
6E5
330
6E4
100
AcDbEntity
  8
0
100
AcDbBlockBegin
  2
Block_7
 70
     0
 10
0.0
 20
0.0
 30
0.0
  3
Block_7
  1

  0
SPLINE
  5
6E6
330
6E4
100
AcDbEntity
  8
Layer 1
100
AcDbSpline
210
0.0
220
0.0
230
1.0
 70
    11
 71
     3
 72
    41
 73
    37
 74
     0
 42
0.000000001
 43
0.0000000001
 40
0.0
 40
0.0
 40
0.0
 40
0.0
 40
1.0
 40
1.0
 40
1.0
 40
2.0
 40
2.0
 40
2.0
 40
3.0
 40
3.0
 40
3.0
 40
4.0
 40
4.0
 40
4.0
 40
5.0
 40
5.0
 40
5.0
 40
6.0
 40
6.0
 40
6.0
 40
7.0
 40
7.0
 40
7.0
 40
8.0
 40
8.0
 40
8.0
 40
9.0
 40
9.0
 40
9.0
 40
10.0
 40
10.0
 40
10.0
 40
11.0
 40
11.0
 40
11.0
 40
12.0
 40
12.0
 40
12.0
 40
12.0
 10
354.875
 20
401.1914062499999
 30
0.0
 10
354.875
 20
401.1914062499999
 30
0.0
 10
353.4765625
 20
398.23046875
 30
0.0
 10
353.4765625
 20
398.23046875
 30
0.0
 10
353.4765625
 20
398.23046875
 30
0.0
 10
352.857421875
 20
398.5234375
 30
0.0
 10
352.857421875
 20
398.5234375
 30
0.0
 10
352.857421875
 20
398.5234375
 30
0.0
 10
353.376953125
 20
399.625
 30
0.0
 10
353.376953125
 20
399.625
 30
0.0
 10
353.376953125
 20
399.625
 30
0.0
 10
349.306640625
 20
401.5498046874999
 30
0.0
 10
349.306640625
 20
401.5498046874999
 30
0.0
 10
349.306640625
 20
401.5498046874999
 30
0.0
 10
348.78515625
 20
400.4482421875
 30
0.0
 10
348.78515625
 20
400.4482421875
 30
0.0
 10
348.78515625
 20
400.4482421875
 30
0.0
 10
348.23046875
 20
400.7109374999999
 30
0.0
 10
348.23046875
 20
400.7109374999999
 30
0.0
 10
348.427734375
 20
401.1269531249999
 30
0.0
 10
348.513671875
 20
401.4619140625
 30
0.0
 10
348.48828125
 20
401.71484375
 30
0.0
 10
348.462890625
 20
401.966796875
 30
0.0
 10
348.291015625
 20
402.1845703124999
 30
0.0
 10
347.974609375
 20
402.3632812499999
 30
0.0
 10
347.974609375
 20
402.3632812499999
 30
0.0
 10
348.2734375
 20
402.99609375
 30
0.0
 10
348.2734375
 20
402.99609375
 30
0.0
 10
348.2734375
 20
402.99609375
 30
0.0
 10
353.748046875
 20
400.408203125
 30
0.0
 10
353.748046875
 20
400.408203125
 30
0.0
 10
353.748046875
 20
400.408203125
 30
0.0
 10
354.255859375
 20
401.4843749999999
 30
0.0
 10
354.255859375
 20
401.4843749999999
 30
0.0
 10
354.255859375
 20
401.4843749999999
 30
0.0
 10
354.875
 20
401.1914062499999
 30
0.0
 10
354.875
 20
401.1914062499999
 30
0.0
  0
HATCH
  5
6E7
330
6E4
100
AcDbEntity
  8
Layer 1
 62
     7
100
AcDbHatch
 10
0.0
 20
0.0
 30
0.0
210
0.0
220
0.0
230
1.0
  2
SOLID
 70
     1
 71
     1
 91
        1
 92
        1
 93
        1
 72
     4
 94
        3
 73
     0
 74
     0
 95
       41
 96
       37
 40
0.0
 40
0.0
 40
0.0
 40
0.0
 40
1.0
 40
1.0
 40
1.0
 40
2.0
 40
2.0
 40
2.0
 40
3.0
 40
3.0
 40
3.0
 40
4.0
 40
4.0
 40
4.0
 40
5.0
 40
5.0
 40
5.0
 40
6.0
 40
6.0
 40
6.0
 40
7.0
 40
7.0
 40
7.0
 40
8.0
 40
8.0
 40
8.0
 40
9.0
 40
9.0
 40
9.0
 40
10.0
 40
10.0
 40
10.0
 40
11.0
 40
11.0
 40
11.0
 40
12.0
 40
12.0
 40
12.0
 40
12.0
 10
354.875
 20
401.1914062499999
 10
354.875
 20
401.1914062499999
 10
353.4765625
 20
398.23046875
 10
353.4765625
 20
398.23046875
 10
353.4765625
 20
398.23046875
 10
352.857421875
 20
398.5234375
 10
352.857421875
 20
398.5234375
 10
352.857421875
 20
398.5234375
 10
353.376953125
 20
399.625
 10
353.376953125
 20
399.625
 10
353.376953125
 20
399.625
 10
349.306640625
 20
401.5498046874999
 10
349.306640625
 20
401.5498046874999
 10
349.306640625
 20
401.5498046874999
 10
348.78515625
 20
400.4482421875
 10
348.78515625
 20
400.4482421875
 10
348.78515625
 20
400.4482421875
 10
348.23046875
 20
400.7109374999999
 10
348.23046875
 20
400.7109374999999
 10
348.427734375
 20
401.1269531249999
 10
348.513671875
 20
401.4619140625
 10
348.48828125
 20
401.71484375
 10
348.462890625
 20
401.966796875
 10
348.291015625
 20
402.1845703124999
 10
347.974609375
 20
402.3632812499999
 10
347.974609375
 20
402.3632812499999
 10
348.2734375
 20
402.99609375
 10
348.2734375
 20
402.99609375
 10
348.2734375
 20
402.99609375
 10
353.748046875
 20
400.408203125
 10
353.748046875
 20
400.408203125
 10
353.748046875
 20
400.408203125
 10
354.255859375
 20
401.4843749999999
 10
354.255859375
 20
401.4843749999999
 10
354.255859375
 20
401.4843749999999
 10
354.875
 20
401.1914062499999
 10
354.875
 20
401.1914062499999
 97
        0
 97
        1
330
6E6
 75
     2
 76
     1
 98
        1
 10
0.0
 20
0.0
450
        0
451
        0
460
0.0
461
0.0
452
        0
462
0.0
453
        0
470

  0
ENDBLK
  5
6E8
330
6E4
100
AcDbEntity
  8
0
100
AcDbBlockEnd
  0
BLOCK
  5
6EA
330
6E9
100
AcDbEntity
  8
0
100
AcDbBlockBegin
  2
Block_8
 70
     0
 10
0.0
 20
0.0
 30
0.0
  3
Block_8
  1

  0
SPLINE
  5
6EB
330
6E9
100
AcDbEntity
  8
Layer 1
100
AcDbSpline
210
0.0
220
0.0
230
1.0
 70
    11
 71
     3
 72
    41
 73
    37
 74
     0
 42
0.000000001
 43
0.0000000001
 40
0.0
 40
0.0
 40
0.0
 40
0.0
 40
1.0
 40
1.0
 40
1.0
 40
2.0
 40
2.0
 40
2.0
 40
3.0
 40
3.0
 40
3.0
 40
4.0
 40
4.0
 40
4.0
 40
5.0
 40
5.0
 40
5.0
 40
6.0
 40
6.0
 40
6.0
 40
7.0
 40
7.0
 40
7.0
 40
8.0
 40
8.0
 40
8.0
 40
9.0
 40
9.0
 40
9.0
 40
10.0
 40
10.0
 40
10.0
 40
11.0
 40
11.0
 40
11.0
 40
12.0
 40
12.0
 40
12.0
 40
12.0
 10
357.0361328125
 20
405.7529296874999
 30
0.0
 10
357.0361328125
 20
405.7529296874999
 30
0.0
 10
355.6357421875
 20
402.7919921875
 30
0.0
 10
355.6357421875
 20
402.7919921875
 30
0.0
 10
355.6357421875
 20
402.7919921875
 30
0.0
 10
355.0166015625
 20
403.0849609375
 30
0.0
 10
355.0166015625
 20
403.0849609375
 30
0.0
 10
355.0166015625
 20
403.0849609375
 30
0.0
 10
355.537109375
 20
404.1855468749999
 30
0.0
 10
355.537109375
 20
404.1855468749999
 30
0.0
 10
355.537109375
 20
404.1855468749999
 30
0.0
 10
351.4658203125
 20
406.1103515624999
 30
0.0
 10
351.4658203125
 20
406.1103515624999
 30
0.0
 10
351.4658203125
 20
406.1103515624999
 30
0.0
 10
350.9453125
 20
405.009765625
 30
0.0
 10
350.9453125
 20
405.009765625
 30
0.0
 10
350.9453125
 20
405.009765625
 30
0.0
 10
350.390625
 20
405.271484375
 30
0.0
 10
350.390625
 20
405.271484375
 30
0.0
 10
350.587890625
 20
405.6874999999999
 30
0.0
 10
350.673828125
 20
406.0224609375
 30
0.0
 10
350.6484375
 20
406.275390625
 30
0.0
 10
350.623046875
 20
406.5283203125
 30
0.0
 10
350.451171875
 20
406.7460937499999
 30
0.0
 10
350.1337890625
 20
406.9248046874999
 30
0.0
 10
350.1337890625
 20
406.9248046874999
 30
0.0
 10
350.43359375
 20
407.5576171875
 30
0.0
 10
350.43359375
 20
407.5576171875
 30
0.0
 10
350.43359375
 20
407.5576171875
 30
0.0
 10
355.9072265625
 20
404.9697265625
 30
0.0
 10
355.9072265625
 20
404.9697265625
 30
0.0
 10
355.9072265625
 20
404.9697265625
 30
0.0
 10
356.416015625
 20
406.0458984374999
 30
0.0
 10
356.416015625
 20
406.0458984374999
 30
0.0
 10
356.416015625
 20
406.0458984374999
 30
0.0
 10
357.0361328125
 20
405.7529296874999
 30
0.0
 10
357.0361328125
 20
405.7529296874999
 30
0.0
  0
HATCH
  5
6EC
330
6E9
100
AcDbEntity
  8
Layer 1
 62
     7
100
AcDbHatch
 10
0.0
 20
0.0
 30
0.0
210
0.0
220
0.0
230
1.0
  2
SOLID
 70
     1
 71
     1
 91
        1
 92
        1
 93
        1
 72
     4
 94
        3
 73
     0
 74
     0
 95
       41
 96
       37
 40
0.0
 40
0.0
 40
0.0
 40
0.0
 40
1.0
 40
1.0
 40
1.0
 40
2.0
 40
2.0
 40
2.0
 40
3.0
 40
3.0
 40
3.0
 40
4.0
 40
4.0
 40
4.0
 40
5.0
 40
5.0
 40
5.0
 40
6.0
 40
6.0
 40
6.0
 40
7.0
 40
7.0
 40
7.0
 40
8.0
 40
8.0
 40
8.0
 40
9.0
 40
9.0
 40
9.0
 40
10.0
 40
10.0
 40
10.0
 40
11.0
 40
11.0
 40
11.0
 40
12.0
 40
12.0
 40
12.0
 40
12.0
 10
357.0361328125
 20
405.7529296874999
 10
357.0361328125
 20
405.7529296874999
 10
355.6357421875
 20
402.7919921875
 10
355.6357421875
 20
402.7919921875
 10
355.6357421875
 20
402.7919921875
 10
355.0166015625
 20
403.0849609375
 10
355.0166015625
 20
403.0849609375
 10
355.0166015625
 20
403.0849609375
 10
355.537109375
 20
404.1855468749999
 10
355.537109375
 20
404.1855468749999
 10
355.537109375
 20
404.1855468749999
 10
351.4658203125
 20
406.1103515624999
 10
351.4658203125
 20
406.1103515624999
 10
351.4658203125
 20
406.1103515624999
 10
350.9453125
 20
405.009765625
 10
350.9453125
 20
405.009765625
 10
350.9453125
 20
405.009765625
 10
350.390625
 20
405.271484375
 10
350.390625
 20
405.271484375
 10
350.587890625
 20
405.6874999999999
 10
350.673828125
 20
406.0224609375
 10
350.6484375
 20
406.275390625
 10
350.623046875
 20
406.5283203125
 10
350.451171875
 20
406.7460937499999
 10
350.1337890625
 20
406.9248046874999
 10
350.1337890625
 20
406.9248046874999
 10
350.43359375
 20
407.5576171875
 10
350.43359375
 20
407.5576171875
 10
350.43359375
 20
407.5576171875
 10
355.9072265625
 20
404.9697265625
 10
355.9072265625
 20
404.9697265625
 10
355.9072265625
 20
404.9697265625
 10
356.416015625
 20
406.0458984374999
 10
356.416015625
 20
406.0458984374999
 10
356.416015625
 20
406.0458984374999
 10
357.0361328125
 20
405.7529296874999
 10
357.0361328125
 20
405.7529296874999
 97
        0
 97
        1
330
6EB
 75
     2
 76
     1
 98
        1
 10
0.0
 20
0.0
450
        0
451
        0
460
0.0
461
0.0
452
        0
462
0.0
453
        0
470

  0
ENDBLK
  5
6ED
330
6E9
100
AcDbEntity
  8
0
100
AcDbBlockEnd
  0
BLOCK
  5
6EF
330
6EE
100
AcDbEntity
  8
0
100
AcDbBlockBegin
  2
Block_9
 70
     0
 10
0.0
 20
0.0
 30
0.0
  3
Block_9
  1

  0
SPLINE
  5
6F0
330
6EE
100
AcDbEntity
  8
Layer 1
100
AcDbSpline
210
0.0
220
0.0
230
1.0
 70
     9
 71
     3
 72
    38
 73
    34
 74
     0
 42
0.000000001
 43
0.0000000001
 40
0.0
 40
0.0
 40
0.0
 40
0.0
 40
1.0
 40
1.0
 40
1.0
 40
2.0
 40
2.0
 40
2.0
 40
3.0
 40
3.0
 40
3.0
 40
4.0
 40
4.0
 40
4.0
 40
5.0
 40
5.0
 40
5.0
 40
6.0
 40
6.0
 40
6.0
 40
7.0
 40
7.0
 40
7.0
 40
8.0
 40
8.0
 40
8.0
 40
9.0
 40
9.0
 40
9.0
 40
10.0
 40
10.0
 40
10.0
 40
11.0
 40
11.0
 40
11.0
 40
11.0
 10
375.0673828125
 20
401.26171875
 30
0.0
 10
374.9365234375
 20
401.4072265624999
 30
0.0
 10
374.7939453125
 20
401.51171875
 30
0.0
 10
374.6416015625
 20
401.5781249999999
 30
0.0
 10
374.4892578125
 20
401.6464843749999
 30
0.0
 10
374.326171875
 20
401.666015625
 30
0.0
 10
374.154296875
 20
401.6416015625
 30
0.0
 10
374.0048828125
 20
401.6191406249999
 30
0.0
 10
373.8544921875
 20
401.5654296874999
 30
0.0
 10
373.70703125
 20
401.478515625
 30
0.0
 10
373.55859375
 20
401.3906249999999
 30
0.0
 10
373.3916015625
 20
401.263671875
 30
0.0
 10
373.2060546875
 20
401.0976562499999
 30
0.0
 10
373.2060546875
 20
401.0976562499999
 30
0.0
 10
372.548828125
 20
400.505859375
 30
0.0
 10
372.548828125
 20
400.505859375
 30
0.0
 10
372.548828125
 20
400.505859375
 30
0.0
 10
374.2451171875
 20
398.62109375
 30
0.0
 10
374.2451171875
 20
398.62109375
 30
0.0
 10
374.2451171875
 20
398.62109375
 30
0.0
 10
374.8291015625
 20
399.146484375
 30
0.0
 10
374.8291015625
 20
399.146484375
 30
0.0
 10
375.0185546875
 20
399.318359375
 30
0.0
 10
375.1748046875
 20
399.48828125
 30
0.0
 10
375.296875
 20
399.658203125
 30
0.0
 10
375.41796875
 20
399.828125
 30
0.0
 10
375.4853515625
 20
400.0156249999999
 30
0.0
 10
375.498046875
 20
400.216796875
 30
0.0
 10
375.509765625
 20
400.396484375
 30
0.0
 10
375.4794921875
 20
400.5722656249999
 30
0.0
 10
375.4091796875
 20
400.7441406249999
 30
0.0
 10
375.3388671875
 20
400.9140624999999
 30
0.0
 10
375.2236328125
 20
401.087890625
 30
0.0
 10
375.0673828125
 20
401.26171875
 30
0.0
  0
SPLINE
  5
6F1
330
6EE
100
AcDbEntity
  8
Layer 1
100
AcDbSpline
210
0.0
220
0.0
230
1.0
 70
    11
 71
     3
 72
    47
 73
    43
 74
     0
 42
0.000000001
 43
0.0000000001
 40
0.0
 40
0.0
 40
0.0
 40
0.0
 40
1.0
 40
1.0
 40
1.0
 40
2.0
 40
2.0
 40
2.0
 40
3.0
 40
3.0
 40
3.0
 40
4.0
 40
4.0
 40
4.0
 40
5.0
 40
5.0
 40
5.0
 40
6.0
 40
6.0
 40
6.0
 40
7.0
 40
7.0
 40
7.0
 40
8.0
 40
8.0
 40
8.0
 40
9.0
 40
9.0
 40
9.0
 40
10.0
 40
10.0
 40
10.0
 40
11.0
 40
11.0
 40
11.0
 40
12.0
 40
12.0
 40
12.0
 40
13.0
 40
13.0
 40
13.0
 40
14.0
 40
14.0
 40
14.0
 40
14.0
 10
379.7314453125
 20
398.966796875
 30
0.0
 10
379.7314453125
 20
398.966796875
 30
0.0
 10
378.8701171875
 20
398.19140625
 30
0.0
 10
378.8701171875
 20
398.19140625
 30
0.0
 10
378.8701171875
 20
398.19140625
 30
0.0
 10
375.5009765625
 20
398.75
 30
0.0
 10
375.5009765625
 20
398.75
 30
0.0
 10
375.5009765625
 20
398.75
 30
0.0
 10
374.7431640625
 20
398.068359375
 30
0.0
 10
374.7431640625
 20
398.068359375
 30
0.0
 10
374.7431640625
 20
398.068359375
 30
0.0
 10
376.5302734375
 20
396.083984375
 30
0.0
 10
376.5302734375
 20
396.083984375
 30
0.0
 10
376.5302734375
 20
396.083984375
 30
0.0
 10
375.8662109375
 20
395.486328125
 30
0.0
 10
375.8662109375
 20
395.486328125
 30
0.0
 10
375.8662109375
 20
395.486328125
 30
0.0
 10
371.3720703125
 20
400.4785156249999
 30
0.0
 10
371.3720703125
 20
400.4785156249999
 30
0.0
 10
371.3720703125
 20
400.4785156249999
 30
0.0
 10
372.6591796875
 20
401.63671875
 30
0.0
 10
372.6591796875
 20
401.63671875
 30
0.0
 10
372.9462890625
 20
401.8945312499999
 30
0.0
 10
373.19921875
 20
402.0947265624999
 30
0.0
 10
373.4208984375
 20
402.23828125
 30
0.0
 10
373.6416015625
 20
402.380859375
 30
0.0
 10
373.8916015625
 20
402.4736328124999
 30
0.0
 10
374.16796875
 20
402.5166015625
 30
0.0
 10
374.4423828125
 20
402.5615234375
 30
0.0
 10
374.7119140625
 20
402.5419921874999
 30
0.0
 10
374.9716796875
 20
402.4570312499999
 30
0.0
 10
375.2333984375
 20
402.3710937499999
 30
0.0
 10
375.48046875
 20
402.19921875
 30
0.0
 10
375.7158203125
 20
401.9365234374999
 30
0.0
 10
376.0458984375
 20
401.5703124999999
 30
0.0
 10
376.2294921875
 20
401.1796874999999
 30
0.0
 10
376.265625
 20
400.7675781249999
 30
0.0
 10
376.2998046875
 20
400.35546875
 30
0.0
 10
376.2119140625
 20
399.9453125
 30
0.0
 10
376.0
 20
399.5390625
 30
0.0
 10
376.0
 20
399.5390625
 30
0.0
 10
379.7314453125
 20
398.966796875
 30
0.0
 10
379.7314453125
 20
398.966796875
 30
0.0
  0
HATCH
  5
6F2
330
6EE
100
AcDbEntity
  8
Layer 1
 62
     7
100
AcDbHatch
 10
0.0
 20
0.0
 30
0.0
210
0.0
220
0.0
230
1.0
  2
SOLID
 70
     1
 71
     1
 91
        2
 92
        1
 93
        1
 72
     4
 94
        3
 73
     0
 74
     0
 95
       38
 96
       34
 40
0.0
 40
0.0
 40
0.0
 40
0.0
 40
1.0
 40
1.0
 40
1.0
 40
2.0
 40
2.0
 40
2.0
 40
3.0
 40
3.0
 40
3.0
 40
4.0
 40
4.0
 40
4.0
 40
5.0
 40
5.0
 40
5.0
 40
6.0
 40
6.0
 40
6.0
 40
7.0
 40
7.0
 40
7.0
 40
8.0
 40
8.0
 40
8.0
 40
9.0
 40
9.0
 40
9.0
 40
10.0
 40
10.0
 40
10.0
 40
11.0
 40
11.0
 40
11.0
 40
11.0
 10
375.0673828125
 20
401.26171875
 10
374.9365234375
 20
401.4072265624999
 10
374.7939453125
 20
401.51171875
 10
374.6416015625
 20
401.5781249999999
 10
374.4892578125
 20
401.6464843749999
 10
374.326171875
 20
401.666015625
 10
374.154296875
 20
401.6416015625
 10
374.0048828125
 20
401.6191406249999
 10
373.8544921875
 20
401.5654296874999
 10
373.70703125
 20
401.478515625
 10
373.55859375
 20
401.3906249999999
 10
373.3916015625
 20
401.263671875
 10
373.2060546875
 20
401.0976562499999
 10
373.2060546875
 20
401.0976562499999
 10
372.548828125
 20
400.505859375
 10
372.548828125
 20
400.505859375
 10
372.548828125
 20
400.505859375
 10
374.2451171875
 20
398.62109375
 10
374.2451171875
 20
398.62109375
 10
374.2451171875
 20
398.62109375
 10
374.8291015625
 20
399.146484375
 10
374.8291015625
 20
399.146484375
 10
375.0185546875
 20
399.318359375
 10
375.1748046875
 20
399.48828125
 10
375.296875
 20
399.658203125
 10
375.41796875
 20
399.828125
 10
375.4853515625
 20
400.0156249999999
 10
375.498046875
 20
400.216796875
 10
375.509765625
 20
400.396484375
 10
375.4794921875
 20
400.5722656249999
 10
375.4091796875
 20
400.7441406249999
 10
375.3388671875
 20
400.9140624999999
 10
375.2236328125
 20
401.087890625
 10
375.0673828125
 20
401.26171875
 97
        0
 97
        1
330
6F0
 92
        1
 93
        1
 72
     4
 94
        3
 73
     0
 74
     0
 95
       47
 96
       43
 40
0.0
 40
0.0
 40
0.0
 40
0.0
 40
1.0
 40
1.0
 40
1.0
 40
2.0
 40
2.0
 40
2.0
 40
3.0
 40
3.0
 40
3.0
 40
4.0
 40
4.0
 40
4.0
 40
5.0
 40
5.0
 40
5.0
 40
6.0
 40
6.0
 40
6.0
 40
7.0
 40
7.0
 40
7.0
 40
8.0
 40
8.0
 40
8.0
 40
9.0
 40
9.0
 40
9.0
 40
10.0
 40
10.0
 40
10.0
 40
11.0
 40
11.0
 40
11.0
 40
12.0
 40
12.0
 40
12.0
 40
13.0
 40
13.0
 40
13.0
 40
14.0
 40
14.0
 40
14.0
 40
14.0
 10
379.7314453125
 20
398.966796875
 10
379.7314453125
 20
398.966796875
 10
378.8701171875
 20
398.19140625
 10
378.8701171875
 20
398.19140625
 10
378.8701171875
 20
398.19140625
 10
375.5009765625
 20
398.75
 10
375.5009765625
 20
398.75
 10
375.5009765625
 20
398.75
 10
374.7431640625
 20
398.068359375
 10
374.7431640625
 20
398.068359375
 10
374.7431640625
 20
398.068359375
 10
376.5302734375
 20
396.083984375
 10
376.5302734375
 20
396.083984375
 10
376.5302734375
 20
396.083984375
 10
375.8662109375
 20
395.486328125
 10
375.8662109375
 20
395.486328125
 10
375.8662109375
 20
395.486328125
 10
371.3720703125
 20
400.4785156249999
 10
371.3720703125
 20
400.4785156249999
 10
371.3720703125
 20
400.4785156249999
 10
372.6591796875
 20
401.63671875
 10
372.6591796875
 20
401.63671875
 10
372.9462890625
 20
401.8945312499999
 10
373.19921875
 20
402.0947265624999
 10
373.4208984375
 20
402.23828125
 10
373.6416015625
 20
402.380859375
 10
373.8916015625
 20
402.4736328124999
 10
374.16796875
 20
402.5166015625
 10
374.4423828125
 20
402.5615234375
 10
374.7119140625
 20
402.5419921874999
 10
374.9716796875
 20
402.4570312499999
 10
375.2333984375
 20
402.3710937499999
 10
375.48046875
 20
402.19921875
 10
375.7158203125
 20
401.9365234374999
 10
376.0458984375
 20
401.5703124999999
 10
376.2294921875
 20
401.1796874999999
 10
376.265625
 20
400.7675781249999
 10
376.2998046875
 20
400.35546875
 10
376.2119140625
 20
399.9453125
 10
376.0
 20
399.5390625
 10
376.0
 20
399.5390625
 10
379.7314453125
 20
398.966796875
 10
379.7314453125
 20
398.966796875
 97
        0
 97
        1
330
6F1
 75
     2
 76
     1
 98
        1
 10
0.0
 20
0.0
450
        0
451
        0
460
0.0
461
0.0
452
        0
462
0.0
453
        0
470

  0
ENDBLK
  5
6F3
330
6EE
100
AcDbEntity
  8
0
100
AcDbBlockEnd
  0
BLOCK
  5
6F5
330
6F4
100
AcDbEntity
  8
0
100
AcDbBlockBegin
  2
Block_10
 70
     0
 10
0.0
 20
0.0
 30
0.0
  3
Block_10
  1

  0
SPLINE
  5
6F6
330
6F4
100
AcDbEntity
  8
Layer 1
100
AcDbSpline
210
0.0
220
0.0
230
1.0
 70
    11
 71
     3
 72
    41
 73
    37
 74
     0
 42
0.000000001
 43
0.0000000001
 40
0.0
 40
0.0
 40
0.0
 40
0.0
 40
1.0
 40
1.0
 40
1.0
 40
2.0
 40
2.0
 40
2.0
 40
3.0
 40
3.0
 40
3.0
 40
4.0
 40
4.0
 40
4.0
 40
5.0
 40
5.0
 40
5.0
 40
6.0
 40
6.0
 40
6.0
 40
7.0
 40
7.0
 40
7.0
 40
8.0
 40
8.0
 40
8.0
 40
9.0
 40
9.0
 40
9.0
 40
10.0
 40
10.0
 40
10.0
 40
11.0
 40
11.0
 40
11.0
 40
12.0
 40
12.0
 40
12.0
 40
12.0
 10
382.873046875
 20
401.7441406249999
 30
0.0
 10
382.873046875
 20
401.7441406249999
 30
0.0
 10
380.4375
 20
399.552734375
 30
0.0
 10
380.4375
 20
399.552734375
 30
0.0
 10
380.4375
 20
399.552734375
 30
0.0
 10
379.98046875
 20
400.0615234375
 30
0.0
 10
379.98046875
 20
400.0615234375
 30
0.0
 10
379.98046875
 20
400.0615234375
 30
0.0
 10
380.884765625
 20
400.876953125
 30
0.0
 10
380.884765625
 20
400.876953125
 30
0.0
 10
380.884765625
 20
400.876953125
 30
0.0
 10
377.873046875
 20
404.2226562499999
 30
0.0
 10
377.873046875
 20
404.2226562499999
 30
0.0
 10
377.873046875
 20
404.2226562499999
 30
0.0
 10
376.966796875
 20
403.4072265625
 30
0.0
 10
376.966796875
 20
403.4072265625
 30
0.0
 10
376.966796875
 20
403.4072265625
 30
0.0
 10
376.556640625
 20
403.86328125
 30
0.0
 10
376.556640625
 20
403.86328125
 30
0.0
 10
376.8984375
 20
404.171875
 30
0.0
 10
377.10546875
 20
404.4472656249999
 30
0.0
 10
377.181640625
 20
404.6914062499999
 30
0.0
 10
377.255859375
 20
404.93359375
 30
0.0
 10
377.181640625
 20
405.1992187499999
 30
0.0
 10
376.95703125
 20
405.4882812499999
 30
0.0
 10
376.95703125
 20
405.4882812499999
 30
0.0
 10
377.4765625
 20
405.955078125
 30
0.0
 10
377.4765625
 20
405.955078125
 30
0.0
 10
377.4765625
 20
405.955078125
 30
0.0
 10
381.529296875
 20
401.4560546874999
 30
0.0
 10
381.529296875
 20
401.4560546874999
 30
0.0
 10
381.529296875
 20
401.4560546874999
 30
0.0
 10
382.4140625
 20
402.2539062499999
 30
0.0
 10
382.4140625
 20
402.2539062499999
 30
0.0
 10
382.4140625
 20
402.2539062499999
 30
0.0
 10
382.873046875
 20
401.7441406249999
 30
0.0
 10
382.873046875
 20
401.7441406249999
 30
0.0
  0
HATCH
  5
6F7
330
6F4
100
AcDbEntity
  8
Layer 1
 62
     7
100
AcDbHatch
 10
0.0
 20
0.0
 30
0.0
210
0.0
220
0.0
230
1.0
  2
SOLID
 70
     1
 71
     1
 91
        1
 92
        1
 93
        1
 72
     4
 94
        3
 73
     0
 74
     0
 95
       41
 96
       37
 40
0.0
 40
0.0
 40
0.0
 40
0.0
 40
1.0
 40
1.0
 40
1.0
 40
2.0
 40
2.0
 40
2.0
 40
3.0
 40
3.0
 40
3.0
 40
4.0
 40
4.0
 40
4.0
 40
5.0
 40
5.0
 40
5.0
 40
6.0
 40
6.0
 40
6.0
 40
7.0
 40
7.0
 40
7.0
 40
8.0
 40
8.0
 40
8.0
 40
9.0
 40
9.0
 40
9.0
 40
10.0
 40
10.0
 40
10.0
 40
11.0
 40
11.0
 40
11.0
 40
12.0
 40
12.0
 40
12.0
 40
12.0
 10
382.873046875
 20
401.7441406249999
 10
382.873046875
 20
401.7441406249999
 10
380.4375
 20
399.552734375
 10
380.4375
 20
399.552734375
 10
380.4375
 20
399.552734375
 10
379.98046875
 20
400.0615234375
 10
379.98046875
 20
400.0615234375
 10
379.98046875
 20
400.0615234375
 10
380.884765625
 20
400.876953125
 10
380.884765625
 20
400.876953125
 10
380.884765625
 20
400.876953125
 10
377.873046875
 20
404.2226562499999
 10
377.873046875
 20
404.2226562499999
 10
377.873046875
 20
404.2226562499999
 10
376.966796875
 20
403.4072265625
 10
376.966796875
 20
403.4072265625
 10
376.966796875
 20
403.4072265625
 10
376.556640625
 20
403.86328125
 10
376.556640625
 20
403.86328125
 10
376.8984375
 20
404.171875
 10
377.10546875
 20
404.4472656249999
 10
377.181640625
 20
404.6914062499999
 10
377.255859375
 20
404.93359375
 10
377.181640625
 20
405.1992187499999
 10
376.95703125
 20
405.4882812499999
 10
376.95703125
 20
405.4882812499999
 10
377.4765625
 20
405.955078125
 10
377.4765625
 20
405.955078125
 10
377.4765625
 20
405.955078125
 10
381.529296875
 20
401.4560546874999
 10
381.529296875
 20
401.4560546874999
 10
381.529296875
 20
401.4560546874999
 10
382.4140625
 20
402.2539062499999
 10
382.4140625
 20
402.2539062499999
 10
382.4140625
 20
402.2539062499999
 10
382.873046875
 20
401.7441406249999
 10
382.873046875
 20
401.7441406249999
 97
        0
 97
        1
330
6F6
 75
     2
 76
     1
 98
        1
 10
0.0
 20
0.0
450
        0
451
        0
460
0.0
461
0.0
452
        0
462
0.0
453
        0
470

  0
ENDBLK
  5
6F8
330
6F4
100
AcDbEntity
  8
0
100
AcDbBlockEnd
  0
BLOCK
  5
6FA
330
6F9
100
AcDbEntity
  8
0
100
AcDbBlockBegin
  2
Block_11
 70
     0
 10
0.0
 20
0.0
 30
0.0
  3
Block_11
  1

  0
SPLINE
  5
6FB
330
6F9
100
AcDbEntity
  8
Layer 1
100
AcDbSpline
210
0.0
220
0.0
230
1.0
 70
    11
 71
     3
 72
    89
 73
    85
 74
     0
 42
0.000000001
 43
0.0000000001
 40
0.0
 40
0.0
 40
0.0
 40
0.0
 40
1.0
 40
1.0
 40
1.0
 40
2.0
 40
2.0
 40
2.0
 40
3.0
 40
3.0
 40
3.0
 40
4.0
 40
4.0
 40
4.0
 40
5.0
 40
5.0
 40
5.0
 40
6.0
 40
6.0
 40
6.0
 40
7.0
 40
7.0
 40
7.0
 40
8.0
 40
8.0
 40
8.0
 40
9.0
 40
9.0
 40
9.0
 40
10.0
 40
10.0
 40
10.0
 40
11.0
 40
11.0
 40
11.0
 40
12.0
 40
12.0
 40
12.0
 40
13.0
 40
13.0
 40
13.0
 40
14.0
 40
14.0
 40
14.0
 40
15.0
 40
15.0
 40
15.0
 40
16.0
 40
16.0
 40
16.0
 40
17.0
 40
17.0
 40
17.0
 40
18.0
 40
18.0
 40
18.0
 40
19.0
 40
19.0
 40
19.0
 40
20.0
 40
20.0
 40
20.0
 40
21.0
 40
21.0
 40
21.0
 40
22.0
 40
22.0
 40
22.0
 40
23.0
 40
23.0
 40
23.0
 40
24.0
 40
24.0
 40
24.0
 40
25.0
 40
25.0
 40
25.0
 40
26.0
 40
26.0
 40
26.0
 40
27.0
 40
27.0
 40
27.0
 40
28.0
 40
28.0
 40
28.0
 40
28.0
 10
386.845703125
 20
405.3945312499999
 30
0.0
 10
386.845703125
 20
405.3945312499999
 30
0.0
 10
383.765625
 20
402.62109375
 30
0.0
 10
383.765625
 20
402.62109375
 30
0.0
 10
383.765625
 20
402.62109375
 30
0.0
 10
383.134765625
 20
403.3203125
 30
0.0
 10
383.134765625
 20
403.3203125
 30
0.0
 10
383.166015625
 20
403.7304687499999
 30
0.0
 10
383.1943359375
 20
404.119140625
 30
0.0
 10
383.216796875
 20
404.48828125
 30
0.0
 10
383.2412109375
 20
404.8574218749999
 30
0.0
 10
383.25390625
 20
405.23046875
 30
0.0
 10
383.25390625
 20
405.6083984375
 30
0.0
 10
383.2578125
 20
406.3681640625
 30
0.0
 10
383.216796875
 20
406.9365234374999
 30
0.0
 10
383.12890625
 20
407.3125
 30
0.0
 10
383.0400390625
 20
407.6894531249999
 30
0.0
 10
382.875
 20
408.0107421874999
 30
0.0
 10
382.634765625
 20
408.2783203125
 30
0.0
 10
382.509765625
 20
408.4169921875
 30
0.0
 10
382.3779296875
 20
408.5195312499999
 30
0.0
 10
382.240234375
 20
408.5859375
 30
0.0
 10
382.1015625
 20
408.6513671875
 30
0.0
 10
381.962890625
 20
408.685546875
 30
0.0
 10
381.8251953125
 20
408.685546875
 30
0.0
 10
381.685546875
 20
408.6826171874999
 30
0.0
 10
381.55078125
 20
408.6503906249999
 30
0.0
 10
381.41796875
 20
408.591796875
 30
0.0
 10
381.28515625
 20
408.533203125
 30
0.0
 10
381.15625
 20
408.4482421875
 30
0.0
 10
381.033203125
 20
408.337890625
 30
0.0
 10
380.9140625
 20
408.2314453124999
 30
0.0
 10
380.80859375
 20
408.107421875
 30
0.0
 10
380.71484375
 20
407.9677734375
 30
0.0
 10
380.619140625
 20
407.8281249999999
 30
0.0
 10
380.5361328125
 20
407.6855468749999
 30
0.0
 10
380.46484375
 20
407.5400390625
 30
0.0
 10
380.404296875
 20
407.4169921874999
 30
0.0
 10
380.35546875
 20
407.2910156249999
 30
0.0
 10
380.3173828125
 20
407.158203125
 30
0.0
 10
380.27734375
 20
407.025390625
 30
0.0
 10
380.248046875
 20
406.9160156249999
 30
0.0
 10
380.2294921875
 20
406.8310546874999
 30
0.0
 10
380.2294921875
 20
406.8310546874999
 30
0.0
 10
380.1923828125
 20
406.796875
 30
0.0
 10
380.1923828125
 20
406.796875
 30
0.0
 10
380.1923828125
 20
406.796875
 30
0.0
 10
379.552734375
 20
407.5078125
 30
0.0
 10
379.552734375
 20
407.5078125
 30
0.0
 10
379.62890625
 20
407.7011718749999
 30
0.0
 10
379.759765625
 20
407.943359375
 30
0.0
 10
379.94921875
 20
408.2314453124999
 30
0.0
 10
380.13671875
 20
408.5195312499999
 30
0.0
 10
380.33984375
 20
408.7636718749999
 30
0.0
 10
380.560546875
 20
408.9628906249999
 30
0.0
 10
381.0263671875
 20
409.380859375
 30
0.0
 10
381.501953125
 20
409.5859374999999
 30
0.0
 10
381.98828125
 20
409.576171875
 30
0.0
 10
382.474609375
 20
409.56640625
 30
0.0
 10
382.9072265625
 20
409.3505859375
 30
0.0
 10
383.287109375
 20
408.927734375
 30
0.0
 10
383.462890625
 20
408.734375
 30
0.0
 10
383.6015625
 20
408.533203125
 30
0.0
 10
383.705078125
 20
408.326171875
 30
0.0
 10
383.80859375
 20
408.1210937499999
 30
0.0
 10
383.8828125
 20
407.91015625
 30
0.0
 10
383.9296875
 20
407.6972656249999
 30
0.0
 10
383.9775390625
 20
407.4765625
 30
0.0
 10
384.0078125
 20
407.244140625
 30
0.0
 10
384.0205078125
 20
406.99609375
 30
0.0
 10
384.033203125
 20
406.748046875
 30
0.0
 10
384.037109375
 20
406.49609375
 30
0.0
 10
384.03125
 20
406.2412109374999
 30
0.0
 10
384.02734375
 20
405.82421875
 30
0.0
 10
384.005859375
 20
405.3759765625
 30
0.0
 10
383.96875
 20
404.8984374999999
 30
0.0
 10
383.9326171875
 20
404.419921875
 30
0.0
 10
383.9013671875
 20
404.0390624999999
 30
0.0
 10
383.875
 20
403.7578125
 30
0.0
 10
383.875
 20
403.7578125
 30
0.0
 10
386.330078125
 20
405.9677734374999
 30
0.0
 10
386.330078125
 20
405.9677734374999
 30
0.0
 10
386.330078125
 20
405.9677734374999
 30
0.0
 10
386.845703125
 20
405.3945312499999
 30
0.0
 10
386.845703125
 20
405.3945312499999
 30
0.0
  0
HATCH
  5
6FC
330
6F9
100
AcDbEntity
  8
Layer 1
 62
     7
100
AcDbHatch
 10
0.0
 20
0.0
 30
0.0
210
0.0
220
0.0
230
1.0
  2
SOLID
 70
     1
 71
     1
 91
        1
 92
        1
 93
        1
 72
     4
 94
        3
 73
     0
 74
     0
 95
       89
 96
       85
 40
0.0
 40
0.0
 40
0.0
 40
0.0
 40
1.0
 40
1.0
 40
1.0
 40
2.0
 40
2.0
 40
2.0
 40
3.0
 40
3.0
 40
3.0
 40
4.0
 40
4.0
 40
4.0
 40
5.0
 40
5.0
 40
5.0
 40
6.0
 40
6.0
 40
6.0
 40
7.0
 40
7.0
 40
7.0
 40
8.0
 40
8.0
 40
8.0
 40
9.0
 40
9.0
 40
9.0
 40
10.0
 40
10.0
 40
10.0
 40
11.0
 40
11.0
 40
11.0
 40
12.0
 40
12.0
 40
12.0
 40
13.0
 40
13.0
 40
13.0
 40
14.0
 40
14.0
 40
14.0
 40
15.0
 40
15.0
 40
15.0
 40
16.0
 40
16.0
 40
16.0
 40
17.0
 40
17.0
 40
17.0
 40
18.0
 40
18.0
 40
18.0
 40
19.0
 40
19.0
 40
19.0
 40
20.0
 40
20.0
 40
20.0
 40
21.0
 40
21.0
 40
21.0
 40
22.0
 40
22.0
 40
22.0
 40
23.0
 40
23.0
 40
23.0
 40
24.0
 40
24.0
 40
24.0
 40
25.0
 40
25.0
 40
25.0
 40
26.0
 40
26.0
 40
26.0
 40
27.0
 40
27.0
 40
27.0
 40
28.0
 40
28.0
 40
28.0
 40
28.0
 10
386.845703125
 20
405.3945312499999
 10
386.845703125
 20
405.3945312499999
 10
383.765625
 20
402.62109375
 10
383.765625
 20
402.62109375
 10
383.765625
 20
402.62109375
 10
383.134765625
 20
403.3203125
 10
383.134765625
 20
403.3203125
 10
383.166015625
 20
403.7304687499999
 10
383.1943359375
 20
404.119140625
 10
383.216796875
 20
404.48828125
 10
383.2412109375
 20
404.8574218749999
 10
383.25390625
 20
405.23046875
 10
383.25390625
 20
405.6083984375
 10
383.2578125
 20
406.3681640625
 10
383.216796875
 20
406.9365234374999
 10
383.12890625
 20
407.3125
 10
383.0400390625
 20
407.6894531249999
 10
382.875
 20
408.0107421874999
 10
382.634765625
 20
408.2783203125
 10
382.509765625
 20
408.4169921875
 10
382.3779296875
 20
408.5195312499999
 10
382.240234375
 20
408.5859375
 10
382.1015625
 20
408.6513671875
 10
381.962890625
 20
408.685546875
 10
381.8251953125
 20
408.685546875
 10
381.685546875
 20
408.6826171874999
 10
381.55078125
 20
408.6503906249999
 10
381.41796875
 20
408.591796875
 10
381.28515625
 20
408.533203125
 10
381.15625
 20
408.4482421875
 10
381.033203125
 20
408.337890625
 10
380.9140625
 20
408.2314453124999
 10
380.80859375
 20
408.107421875
 10
380.71484375
 20
407.9677734375
 10
380.619140625
 20
407.8281249999999
 10
380.5361328125
 20
407.6855468749999
 10
380.46484375
 20
407.5400390625
 10
380.404296875
 20
407.4169921874999
 10
380.35546875
 20
407.2910156249999
 10
380.3173828125
 20
407.158203125
 10
380.27734375
 20
407.025390625
 10
380.248046875
 20
406.9160156249999
 10
380.2294921875
 20
406.8310546874999
 10
380.2294921875
 20
406.8310546874999
 10
380.1923828125
 20
406.796875
 10
380.1923828125
 20
406.796875
 10
380.1923828125
 20
406.796875
 10
379.552734375
 20
407.5078125
 10
379.552734375
 20
407.5078125
 10
379.62890625
 20
407.7011718749999
 10
379.759765625
 20
407.943359375
 10
379.94921875
 20
408.2314453124999
 10
380.13671875
 20
408.5195312499999
 10
380.33984375
 20
408.7636718749999
 10
380.560546875
 20
408.9628906249999
 10
381.0263671875
 20
409.380859375
 10
381.501953125
 20
409.5859374999999
 10
381.98828125
 20
409.576171875
 10
382.474609375
 20
409.56640625
 10
382.9072265625
 20
409.3505859375
 10
383.287109375
 20
408.927734375
 10
383.462890625
 20
408.734375
 10
383.6015625
 20
408.533203125
 10
383.705078125
 20
408.326171875
 10
383.80859375
 20
408.1210937499999
 10
383.8828125
 20
407.91015625
 10
383.9296875
 20
407.6972656249999
 10
383.9775390625
 20
407.4765625
 10
384.0078125
 20
407.244140625
 10
384.0205078125
 20
406.99609375
 10
384.033203125
 20
406.748046875
 10
384.037109375
 20
406.49609375
 10
384.03125
 20
406.2412109374999
 10
384.02734375
 20
405.82421875
 10
384.005859375
 20
405.3759765625
 10
383.96875
 20
404.8984374999999
 10
383.9326171875
 20
404.419921875
 10
383.9013671875
 20
404.0390624999999
 10
383.875
 20
403.7578125
 10
383.875
 20
403.7578125
 10
386.330078125
 20
405.9677734374999
 10
386.330078125
 20
405.9677734374999
 10
386.330078125
 20
405.9677734374999
 10
386.845703125
 20
405.3945312499999
 10
386.845703125
 20
405.3945312499999
 97
        0
 97
        1
330
6FB
 75
     2
 76
     1
 98
        1
 10
0.0
 20
0.0
450
        0
451
        0
460
0.0
461
0.0
452
        0
462
0.0
453
        0
470

  0
ENDBLK
  5
6FD
330
6F9
100
AcDbEntity
  8
0
100
AcDbBlockEnd
  0
BLOCK
  5
6FF
330
6FE
100
AcDbEntity
  8
0
100
AcDbBlockBegin
  2
Block_12
 70
     0
 10
0.0
 20
0.0
 30
0.0
  3
Block_12
  1

  0
INSERT
  5
700
330
6FE
100
AcDbEntity
  8
Layer 1
100
AcDbBlockReference
  2
Block_13
 10
0.0
 20
0.0
 30
0.0
  0
ENDBLK
  5
701
330
6FE
100
AcDbEntity
  8
0
100
AcDbBlockEnd
  0
BLOCK
  5
703
330
702
100
AcDbEntity
  8
0
100
AcDbBlockBegin
  2
Block_13
 70
     0
 10
0.0
 20
0.0
 30
0.0
  3
Block_13
  1

  0
SPLINE
  5
704
330
702
100
AcDbEntity
  8
Layer 1
100
AcDbSpline
210
0.0
220
0.0
230
1.0
 70
     9
 71
     3
 72
   104
 73
   100
 74
     0
 42
0.000000001
 43
0.0000000001
 40
0.0
 40
0.0
 40
0.0
 40
0.0
 40
1.0
 40
1.0
 40
1.0
 40
2.0
 40
2.0
 40
2.0
 40
3.0
 40
3.0
 40
3.0
 40
4.0
 40
4.0
 40
4.0
 40
5.0
 40
5.0
 40
5.0
 40
6.0
 40
6.0
 40
6.0
 40
7.0
 40
7.0
 40
7.0
 40
8.0
 40
8.0
 40
8.0
 40
9.0
 40
9.0
 40
9.0
 40
10.0
 40
10.0
 40
10.0
 40
11.0
 40
11.0
 40
11.0
 40
12.0
 40
12.0
 40
12.0
 40
13.0
 40
13.0
 40
13.0
 40
14.0
 40
14.0
 40
14.0
 40
15.0
 40
15.0
 40
15.0
 40
16.0
 40
16.0
 40
16.0
 40
17.0
 40
17.0
 40
17.0
 40
18.0
 40
18.0
 40
18.0
 40
19.0
 40
19.0
 40
19.0
 40
20.0
 40
20.0
 40
20.0
 40
21.0
 40
21.0
 40
21.0
 40
22.0
 40
22.0
 40
22.0
 40
23.0
 40
23.0
 40
23.0
 40
24.0
 40
24.0
 40
24.0
 40
25.0
 40
25.0
 40
25.0
 40
26.0
 40
26.0
 40
26.0
 40
27.0
 40
27.0
 40
27.0
 40
28.0
 40
28.0
 40
28.0
 40
29.0
 40
29.0
 40
29.0
 40
30.0
 40
30.0
 40
30.0
 40
31.0
 40
31.0
 40
31.0
 40
32.0
 40
32.0
 40
32.0
 40
33.0
 40
33.0
 40
33.0
 40
33.0
 10
305.87109375
 20
137.4716796875
 30
0.0
 10
305.87109375
 20
137.796875
 30
0.0
 10
305.9228515625
 20
138.09765625
 30
0.0
 10
306.02734375
 20
138.3740234375
 30
0.0
 10
306.130859375
 20
138.6513671875
 30
0.0
 10
306.275390625
 20
138.8896484375
 30
0.0
 10
306.4619140625
 20
139.091796875
 30
0.0
 10
306.6513671875
 20
139.2958984375
 30
0.0
 10
306.88671875
 20
139.45703125
 30
0.0
 10
307.16796875
 20
139.57421875
 30
0.0
 10
307.44921875
 20
139.69140625
 30
0.0
 10
307.7646484375
 20
139.75
 30
0.0
 10
308.11328125
 20
139.75
 30
0.0
 10
308.435546875
 20
139.75
 30
0.0
 10
308.751953125
 20
139.71484375
 30
0.0
 10
309.0634765625
 20
139.64453125
 30
0.0
 10
309.375
 20
139.5732421875
 30
0.0
 10
309.64453125
 20
139.4814453125
 30
0.0
 10
309.873046875
 20
139.3671875
 30
0.0
 10
309.873046875
 20
139.3671875
 30
0.0
 10
309.873046875
 20
138.4150390625
 30
0.0
 10
309.873046875
 20
138.4150390625
 30
0.0
 10
309.873046875
 20
138.4150390625
 30
0.0
 10
309.8095703125
 20
138.4150390625
 30
0.0
 10
309.8095703125
 20
138.4150390625
 30
0.0
 10
309.7412109375
 20
138.4658203125
 30
0.0
 10
309.6416015625
 20
138.5234375
 30
0.0
 10
309.5126953125
 20
138.5888671875
 30
0.0
 10
309.3828125
 20
138.6533203125
 30
0.0
 10
309.240234375
 20
138.7138671875
 30
0.0
 10
309.083984375
 20
138.771484375
 30
0.0
 10
308.90625
 20
138.833984375
 30
0.0
 10
308.744140625
 20
138.8828125
 30
0.0
 10
308.5966796875
 20
138.91796875
 30
0.0
 10
308.44921875
 20
138.9521484375
 30
0.0
 10
308.283203125
 20
138.9697265625
 30
0.0
 10
308.099609375
 20
138.9697265625
 30
0.0
 10
307.919921875
 20
138.9697265625
 30
0.0
 10
307.7431640625
 20
138.9375
 30
0.0
 10
307.572265625
 20
138.873046875
 30
0.0
 10
307.400390625
 20
138.8076171875
 30
0.0
 10
307.2529296875
 20
138.703125
 30
0.0
 10
307.1298828125
 20
138.5595703125
 30
0.0
 10
307.0185546875
 20
138.4267578125
 30
0.0
 10
306.93359375
 20
138.271484375
 30
0.0
 10
306.875
 20
138.0947265625
 30
0.0
 10
306.81640625
 20
137.9169921875
 30
0.0
 10
306.787109375
 20
137.7080078125
 30
0.0
 10
306.787109375
 20
137.4677734375
 30
0.0
 10
306.787109375
 20
137.2294921875
 30
0.0
 10
306.8193359375
 20
137.0341796875
 30
0.0
 10
306.8837890625
 20
136.880859375
 30
0.0
 10
306.94921875
 20
136.7275390625
 30
0.0
 10
307.04296875
 20
136.6005859375
 30
0.0
 10
307.166015625
 20
136.501953125
 30
0.0
 10
307.2958984375
 20
136.3876953125
 30
0.0
 10
307.4541015625
 20
136.306640625
 30
0.0
 10
307.642578125
 20
136.2607421875
 30
0.0
 10
307.830078125
 20
136.2138671875
 30
0.0
 10
308.0400390625
 20
136.1904296875
 30
0.0
 10
308.271484375
 20
136.1904296875
 30
0.0
 10
308.5146484375
 20
136.1904296875
 30
0.0
 10
308.7607421875
 20
136.208984375
 30
0.0
 10
309.0068359375
 20
136.2470703125
 30
0.0
 10
309.25390625
 20
136.2841796875
 30
0.0
 10
309.4501953125
 20
136.3203125
 30
0.0
 10
309.59765625
 20
136.3525390625
 30
0.0
 10
309.59765625
 20
136.3525390625
 30
0.0
 10
309.59765625
 20
132.892578125
 30
0.0
 10
309.59765625
 20
132.892578125
 30
0.0
 10
309.59765625
 20
132.892578125
 30
0.0
 10
305.912109375
 20
132.892578125
 30
0.0
 10
305.912109375
 20
132.892578125
 30
0.0
 10
305.912109375
 20
132.892578125
 30
0.0
 10
305.912109375
 20
133.681640625
 30
0.0
 10
305.912109375
 20
133.681640625
 30
0.0
 10
305.912109375
 20
133.681640625
 30
0.0
 10
308.7275390625
 20
133.681640625
 30
0.0
 10
308.7275390625
 20
133.681640625
 30
0.0
 10
308.7275390625
 20
133.681640625
 30
0.0
 10
308.7275390625
 20
135.46875
 30
0.0
 10
308.7275390625
 20
135.46875
 30
0.0
 10
308.619140625
 20
135.45703125
 30
0.0
 10
308.51171875
 20
135.447265625
 30
0.0
 10
308.4072265625
 20
135.44140625
 30
0.0
 10
308.3017578125
 20
135.435546875
 30
0.0
 10
308.205078125
 20
135.4326171875
 30
0.0
 10
308.1181640625
 20
135.4326171875
 30
0.0
 10
307.775390625
 20
135.4326171875
 30
0.0
 10
307.4853515625
 20
135.4609375
 30
0.0
 10
307.2470703125
 20
135.5185546875
 30
0.0
 10
307.009765625
 20
135.5751953125
 30
0.0
 10
306.78125
 20
135.6865234375
 30
0.0
 10
306.5615234375
 20
135.8525390625
 30
0.0
 10
306.3388671875
 20
136.0205078125
 30
0.0
 10
306.16796875
 20
136.2314453125
 30
0.0
 10
306.0498046875
 20
136.4833984375
 30
0.0
 10
305.9306640625
 20
136.736328125
 30
0.0
 10
305.87109375
 20
137.0654296875
 30
0.0
 10
305.87109375
 20
137.4716796875
 30
0.0
  0
HATCH
  5
705
330
702
100
AcDbEntity
  8
Layer 1
 62
     7
100
AcDbHatch
 10
0.0
 20
0.0
 30
0.0
210
0.0
220
0.0
230
1.0
  2
SOLID
 70
     1
 71
     1
 91
        1
 92
        1
 93
        1
 72
     4
 94
        3
 73
     0
 74
     0
 95
      104
 96
      100
 40
0.0
 40
0.0
 40
0.0
 40
0.0
 40
1.0
 40
1.0
 40
1.0
 40
2.0
 40
2.0
 40
2.0
 40
3.0
 40
3.0
 40
3.0
 40
4.0
 40
4.0
 40
4.0
 40
5.0
 40
5.0
 40
5.0
 40
6.0
 40
6.0
 40
6.0
 40
7.0
 40
7.0
 40
7.0
 40
8.0
 40
8.0
 40
8.0
 40
9.0
 40
9.0
 40
9.0
 40
10.0
 40
10.0
 40
10.0
 40
11.0
 40
11.0
 40
11.0
 40
12.0
 40
12.0
 40
12.0
 40
13.0
 40
13.0
 40
13.0
 40
14.0
 40
14.0
 40
14.0
 40
15.0
 40
15.0
 40
15.0
 40
16.0
 40
16.0
 40
16.0
 40
17.0
 40
17.0
 40
17.0
 40
18.0
 40
18.0
 40
18.0
 40
19.0
 40
19.0
 40
19.0
 40
20.0
 40
20.0
 40
20.0
 40
21.0
 40
21.0
 40
21.0
 40
22.0
 40
22.0
 40
22.0
 40
23.0
 40
23.0
 40
23.0
 40
24.0
 40
24.0
 40
24.0
 40
25.0
 40
25.0
 40
25.0
 40
26.0
 40
26.0
 40
26.0
 40
27.0
 40
27.0
 40
27.0
 40
28.0
 40
28.0
 40
28.0
 40
29.0
 40
29.0
 40
29.0
 40
30.0
 40
30.0
 40
30.0
 40
31.0
 40
31.0
 40
31.0
 40
32.0
 40
32.0
 40
32.0
 40
33.0
 40
33.0
 40
33.0
 40
33.0
 10
305.87109375
 20
137.4716796875
 10
305.87109375
 20
137.796875
 10
305.9228515625
 20
138.09765625
 10
306.02734375
 20
138.3740234375
 10
306.130859375
 20
138.6513671875
 10
306.275390625
 20
138.8896484375
 10
306.4619140625
 20
139.091796875
 10
306.6513671875
 20
139.2958984375
 10
306.88671875
 20
139.45703125
 10
307.16796875
 20
139.57421875
 10
307.44921875
 20
139.69140625
 10
307.7646484375
 20
139.75
 10
308.11328125
 20
139.75
 10
308.435546875
 20
139.75
 10
308.751953125
 20
139.71484375
 10
309.0634765625
 20
139.64453125
 10
309.375
 20
139.5732421875
 10
309.64453125
 20
139.4814453125
 10
309.873046875
 20
139.3671875
 10
309.873046875
 20
139.3671875
 10
309.873046875
 20
138.4150390625
 10
309.873046875
 20
138.4150390625
 10
309.873046875
 20
138.4150390625
 10
309.8095703125
 20
138.4150390625
 10
309.8095703125
 20
138.4150390625
 10
309.7412109375
 20
138.4658203125
 10
309.6416015625
 20
138.5234375
 10
309.5126953125
 20
138.5888671875
 10
309.3828125
 20
138.6533203125
 10
309.240234375
 20
138.7138671875
 10
309.083984375
 20
138.771484375
 10
308.90625
 20
138.833984375
 10
308.744140625
 20
138.8828125
 10
308.5966796875
 20
138.91796875
 10
308.44921875
 20
138.9521484375
 10
308.283203125
 20
138.9697265625
 10
308.099609375
 20
138.9697265625
 10
307.919921875
 20
138.9697265625
 10
307.7431640625
 20
138.9375
 10
307.572265625
 20
138.873046875
 10
307.400390625
 20
138.8076171875
 10
307.2529296875
 20
138.703125
 10
307.1298828125
 20
138.5595703125
 10
307.0185546875
 20
138.4267578125
 10
306.93359375
 20
138.271484375
 10
306.875
 20
138.0947265625
 10
306.81640625
 20
137.9169921875
 10
306.787109375
 20
137.7080078125
 10
306.787109375
 20
137.4677734375
 10
306.787109375
 20
137.2294921875
 10
306.8193359375
 20
137.0341796875
 10
306.8837890625
 20
136.880859375
 10
306.94921875
 20
136.7275390625
 10
307.04296875
 20
136.6005859375
 10
307.166015625
 20
136.501953125
 10
307.2958984375
 20
136.3876953125
 10
307.4541015625
 20
136.306640625
 10
307.642578125
 20
136.2607421875
 10
307.830078125
 20
136.2138671875
 10
308.0400390625
 20
136.1904296875
 10
308.271484375
 20
136.1904296875
 10
308.5146484375
 20
136.1904296875
 10
308.7607421875
 20
136.208984375
 10
309.0068359375
 20
136.2470703125
 10
309.25390625
 20
136.2841796875
 10
309.4501953125
 20
136.3203125
 10
309.59765625
 20
136.3525390625
 10
309.59765625
 20
136.3525390625
 10
309.59765625
 20
132.892578125
 10
309.59765625
 20
132.892578125
 10
309.59765625
 20
132.892578125
 10
305.912109375
 20
132.892578125
 10
305.912109375
 20
132.892578125
 10
305.912109375
 20
132.892578125
 10
305.912109375
 20
133.681640625
 10
305.912109375
 20
133.681640625
 10
305.912109375
 20
133.681640625
 10
308.7275390625
 20
133.681640625
 10
308.7275390625
 20
133.681640625
 10
308.7275390625
 20
133.681640625
 10
308.7275390625
 20
135.46875
 10
308.7275390625
 20
135.46875
 10
308.619140625
 20
135.45703125
 10
308.51171875
 20
135.447265625
 10
308.4072265625
 20
135.44140625
 10
308.3017578125
 20
135.435546875
 10
308.205078125
 20
135.4326171875
 10
308.1181640625
 20
135.4326171875
 10
307.775390625
 20
135.4326171875
 10
307.4853515625
 20
135.4609375
 10
307.2470703125
 20
135.5185546875
 10
307.009765625
 20
135.5751953125
 10
306.78125
 20
135.6865234375
 10
306.5615234375
 20
135.8525390625
 10
306.3388671875
 20
136.0205078125
 10
306.16796875
 20
136.2314453125
 10
306.0498046875
 20
136.4833984375
 10
305.9306640625
 20
136.736328125
 10
305.87109375
 20
137.0654296875
 10
305.87109375
 20
137.4716796875
 97
        0
 97
        1
330
704
 75
     2
 76
     1
 98
        1
 10
0.0
 20
0.0
450
        0
451
        0
460
0.0
461
0.0
452
        0
462
0.0
453
        0
470

  0
SPLINE
  5
706
330
702
100
AcDbEntity
  8
Layer 1
100
AcDbSpline
210
0.0
220
0.0
230
1.0
 70
     9
 71
     3
 72
    47
 73
    43
 74
     0
 42
0.000000001
 43
0.0000000001
 40
0.0
 40
0.0
 40
0.0
 40
0.0
 40
1.0
 40
1.0
 40
1.0
 40
2.0
 40
2.0
 40
2.0
 40
3.0
 40
3.0
 40
3.0
 40
4.0
 40
4.0
 40
4.0
 40
5.0
 40
5.0
 40
5.0
 40
6.0
 40
6.0
 40
6.0
 40
7.0
 40
7.0
 40
7.0
 40
8.0
 40
8.0
 40
8.0
 40
9.0
 40
9.0
 40
9.0
 40
10.0
 40
10.0
 40
10.0
 40
11.0
 40
11.0
 40
11.0
 40
12.0
 40
12.0
 40
12.0
 40
13.0
 40
13.0
 40
13.0
 40
14.0
 40
14.0
 40
14.0
 40
14.0
 10
301.634765625
 20
135.6533203125
 30
0.0
 10
301.634765625
 20
135.1962890625
 30
0.0
 10
301.6767578125
 20
134.82421875
 30
0.0
 10
301.76171875
 20
134.537109375
 30
0.0
 10
301.845703125
 20
134.25
 30
0.0
 10
301.9609375
 20
134.0283203125
 30
0.0
 10
302.1083984375
 20
133.87109375
 30
0.0
 10
302.2412109375
 20
133.7275390625
 30
0.0
 10
302.375
 20
133.6279296875
 30
0.0
 10
302.509765625
 20
133.5732421875
 30
0.0
 10
302.6455078125
 20
133.51953125
 30
0.0
 10
302.794921875
 20
133.4921875
 30
0.0
 10
302.95703125
 20
133.4921875
 30
0.0
 10
303.3271484375
 20
133.4921875
 30
0.0
 10
303.6220703125
 20
133.625
 30
0.0
 10
303.8408203125
 20
133.8896484375
 30
0.0
 10
304.060546875
 20
134.154296875
 30
0.0
 10
304.1708984375
 20
134.5380859375
 30
0.0
 10
304.1708984375
 20
135.0400390625
 30
0.0
 10
304.1708984375
 20
135.322265625
 30
0.0
 10
304.134765625
 20
135.5556640625
 30
0.0
 10
304.0625
 20
135.7392578125
 30
0.0
 10
303.990234375
 20
135.9228515625
 30
0.0
 10
303.873046875
 20
136.0810546875
 30
0.0
 10
303.7099609375
 20
136.212890625
 30
0.0
 10
303.595703125
 20
136.306640625
 30
0.0
 10
303.466796875
 20
136.369140625
 30
0.0
 10
303.322265625
 20
136.400390625
 30
0.0
 10
303.177734375
 20
136.431640625
 30
0.0
 10
303.0234375
 20
136.447265625
 30
0.0
 10
302.857421875
 20
136.447265625
 30
0.0
 10
302.6650390625
 20
136.447265625
 30
0.0
 10
302.4580078125
 20
136.4140625
 30
0.0
 10
302.2353515625
 20
136.345703125
 30
0.0
 10
302.0126953125
 20
136.2783203125
 30
0.0
 10
301.818359375
 20
136.189453125
 30
0.0
 10
301.6533203125
 20
136.078125
 30
0.0
 10
301.650390625
 20
136.0322265625
 30
0.0
 10
301.646484375
 20
135.9736328125
 30
0.0
 10
301.6416015625
 20
135.8994140625
 30
0.0
 10
301.63671875
 20
135.826171875
 30
0.0
 10
301.634765625
 20
135.744140625
 30
0.0
 10
301.634765625
 20
135.6533203125
 30
0.0
  0
SPLINE
  5
707
330
702
100
AcDbEntity
  8
Layer 1
100
AcDbSpline
210
0.0
220
0.0
230
1.0
 70
     9
 71
     3
 72
    83
 73
    79
 74
     0
 42
0.000000001
 43
0.0000000001
 40
0.0
 40
0.0
 40
0.0
 40
0.0
 40
1.0
 40
1.0
 40
1.0
 40
2.0
 40
2.0
 40
2.0
 40
3.0
 40
3.0
 40
3.0
 40
4.0
 40
4.0
 40
4.0
 40
5.0
 40
5.0
 40
5.0
 40
6.0
 40
6.0
 40
6.0
 40
7.0
 40
7.0
 40
7.0
 40
8.0
 40
8.0
 40
8.0
 40
9.0
 40
9.0
 40
9.0
 40
10.0
 40
10.0
 40
10.0
 40
11.0
 40
11.0
 40
11.0
 40
12.0
 40
12.0
 40
12.0
 40
13.0
 40
13.0
 40
13.0
 40
14.0
 40
14.0
 40
14.0
 40
15.0
 40
15.0
 40
15.0
 40
16.0
 40
16.0
 40
16.0
 40
17.0
 40
17.0
 40
17.0
 40
18.0
 40
18.0
 40
18.0
 40
19.0
 40
19.0
 40
19.0
 40
20.0
 40
20.0
 40
20.0
 40
21.0
 40
21.0
 40
21.0
 40
22.0
 40
22.0
 40
22.0
 40
23.0
 40
23.0
 40
23.0
 40
24.0
 40
24.0
 40
24.0
 40
25.0
 40
25.0
 40
25.0
 40
26.0
 40
26.0
 40
26.0
 40
26.0
 10
305.0859375
 20
135.076171875
 30
0.0
 10
305.0859375
 20
134.73046875
 30
0.0
 10
305.0302734375
 20
134.4140625
 30
0.0
 10
304.9169921875
 20
134.12890625
 30
0.0
 10
304.8046875
 20
133.8427734375
 30
0.0
 10
304.650390625
 20
133.5966796875
 30
0.0
 10
304.455078125
 20
133.388671875
 30
0.0
 10
304.2685546875
 20
133.1904296875
 30
0.0
 10
304.0400390625
 20
133.03515625
 30
0.0
 10
303.771484375
 20
132.923828125
 30
0.0
 10
303.501953125
 20
132.8125
 30
0.0
 10
303.2294921875
 20
132.7568359375
 30
0.0
 10
302.9521484375
 20
132.7568359375
 30
0.0
 10
302.642578125
 20
132.7568359375
 30
0.0
 10
302.3623046875
 20
132.80859375
 30
0.0
 10
302.111328125
 20
132.9130859375
 30
0.0
 10
301.859375
 20
133.0166015625
 30
0.0
 10
301.642578125
 20
133.166015625
 30
0.0
 10
301.458984375
 20
133.361328125
 30
0.0
 10
301.2275390625
 20
133.6083984375
 30
0.0
 10
301.0478515625
 20
133.931640625
 30
0.0
 10
300.919921875
 20
134.33203125
 30
0.0
 10
300.7919921875
 20
134.7314453125
 30
0.0
 10
300.728515625
 20
135.2373046875
 30
0.0
 10
300.728515625
 20
135.84765625
 30
0.0
 10
300.728515625
 20
136.404296875
 30
0.0
 10
300.7900390625
 20
136.931640625
 30
0.0
 10
300.9150390625
 20
137.4287109375
 30
0.0
 10
301.0400390625
 20
137.9267578125
 30
0.0
 10
301.224609375
 20
138.33984375
 30
0.0
 10
301.4677734375
 20
138.6669921875
 30
0.0
 10
301.7265625
 20
139.0166015625
 30
0.0
 10
302.037109375
 20
139.2822265625
 30
0.0
 10
302.3994140625
 20
139.4658203125
 30
0.0
 10
302.76171875
 20
139.6494140625
 30
0.0
 10
303.2099609375
 20
139.7412109375
 30
0.0
 10
303.7421875
 20
139.7412109375
 30
0.0
 10
303.8623046875
 20
139.7412109375
 30
0.0
 10
303.990234375
 20
139.734375
 30
0.0
 10
304.125
 20
139.720703125
 30
0.0
 10
304.2607421875
 20
139.70703125
 30
0.0
 10
304.38671875
 20
139.6826171875
 30
0.0
 10
304.50390625
 20
139.646484375
 30
0.0
 10
304.50390625
 20
139.646484375
 30
0.0
 10
304.50390625
 20
138.78515625
 30
0.0
 10
304.50390625
 20
138.78515625
 30
0.0
 10
304.50390625
 20
138.78515625
 30
0.0
 10
304.458984375
 20
138.78515625
 30
0.0
 10
304.458984375
 20
138.78515625
 30
0.0
 10
304.3837890625
 20
138.8271484375
 30
0.0
 10
304.2666015625
 20
138.8671875
 30
0.0
 10
304.107421875
 20
138.90625
 30
0.0
 10
303.9482421875
 20
138.9453125
 30
0.0
 10
303.78515625
 20
138.96484375
 30
0.0
 10
303.6201171875
 20
138.96484375
 30
0.0
 10
303.0302734375
 20
138.96484375
 30
0.0
 10
302.5673828125
 20
138.771484375
 30
0.0
 10
302.23046875
 20
138.3828125
 30
0.0
 10
301.8935546875
 20
137.9951171875
 30
0.0
 10
301.7021484375
 20
137.4404296875
 30
0.0
 10
301.6572265625
 20
136.71875
 30
0.0
 10
301.8984375
 20
136.880859375
 30
0.0
 10
302.1279296875
 20
137.0
 30
0.0
 10
302.345703125
 20
137.0751953125
 30
0.0
 10
302.5634765625
 20
137.150390625
 30
0.0
 10
302.80078125
 20
137.1875
 30
0.0
 10
303.0556640625
 20
137.1875
 30
0.0
 10
303.3056640625
 20
137.1875
 30
0.0
 10
303.533203125
 20
137.16015625
 30
0.0
 10
303.7373046875
 20
137.1064453125
 30
0.0
 10
303.9423828125
 20
137.0517578125
 30
0.0
 10
304.1484375
 20
136.947265625
 30
0.0
 10
304.35546875
 20
136.7900390625
 30
0.0
 10
304.595703125
 20
136.607421875
 30
0.0
 10
304.7783203125
 20
136.375
 30
0.0
 10
304.9013671875
 20
136.09375
 30
0.0
 10
305.0244140625
 20
135.8125
 30
0.0
 10
305.0859375
 20
135.47265625
 30
0.0
 10
305.0859375
 20
135.076171875
 30
0.0
  0
HATCH
  5
708
330
702
100
AcDbEntity
  8
Layer 1
 62
     7
100
AcDbHatch
 10
0.0
 20
0.0
 30
0.0
210
0.0
220
0.0
230
1.0
  2
SOLID
 70
     1
 71
     1
 91
        2
 92
        1
 93
        1
 72
     4
 94
        3
 73
     0
 74
     0
 95
       47
 96
       43
 40
0.0
 40
0.0
 40
0.0
 40
0.0
 40
1.0
 40
1.0
 40
1.0
 40
2.0
 40
2.0
 40
2.0
 40
3.0
 40
3.0
 40
3.0
 40
4.0
 40
4.0
 40
4.0
 40
5.0
 40
5.0
 40
5.0
 40
6.0
 40
6.0
 40
6.0
 40
7.0
 40
7.0
 40
7.0
 40
8.0
 40
8.0
 40
8.0
 40
9.0
 40
9.0
 40
9.0
 40
10.0
 40
10.0
 40
10.0
 40
11.0
 40
11.0
 40
11.0
 40
12.0
 40
12.0
 40
12.0
 40
13.0
 40
13.0
 40
13.0
 40
14.0
 40
14.0
 40
14.0
 40
14.0
 10
301.634765625
 20
135.6533203125
 10
301.634765625
 20
135.1962890625
 10
301.6767578125
 20
134.82421875
 10
301.76171875
 20
134.537109375
 10
301.845703125
 20
134.25
 10
301.9609375
 20
134.0283203125
 10
302.1083984375
 20
133.87109375
 10
302.2412109375
 20
133.7275390625
 10
302.375
 20
133.6279296875
 10
302.509765625
 20
133.5732421875
 10
302.6455078125
 20
133.51953125
 10
302.794921875
 20
133.4921875
 10
302.95703125
 20
133.4921875
 10
303.3271484375
 20
133.4921875
 10
303.6220703125
 20
133.625
 10
303.8408203125
 20
133.8896484375
 10
304.060546875
 20
134.154296875
 10
304.1708984375
 20
134.5380859375
 10
304.1708984375
 20
135.0400390625
 10
304.1708984375
 20
135.322265625
 10
304.134765625
 20
135.5556640625
 10
304.0625
 20
135.7392578125
 10
303.990234375
 20
135.9228515625
 10
303.873046875
 20
136.0810546875
 10
303.7099609375
 20
136.212890625
 10
303.595703125
 20
136.306640625
 10
303.466796875
 20
136.369140625
 10
303.322265625
 20
136.400390625
 10
303.177734375
 20
136.431640625
 10
303.0234375
 20
136.447265625
 10
302.857421875
 20
136.447265625
 10
302.6650390625
 20
136.447265625
 10
302.4580078125
 20
136.4140625
 10
302.2353515625
 20
136.345703125
 10
302.0126953125
 20
136.2783203125
 10
301.818359375
 20
136.189453125
 10
301.6533203125
 20
136.078125
 10
301.650390625
 20
136.0322265625
 10
301.646484375
 20
135.9736328125
 10
301.6416015625
 20
135.8994140625
 10
301.63671875
 20
135.826171875
 10
301.634765625
 20
135.744140625
 10
301.634765625
 20
135.6533203125
 97
        0
 97
        1
330
706
 92
        1
 93
        1
 72
     4
 94
        3
 73
     0
 74
     0
 95
       83
 96
       79
 40
0.0
 40
0.0
 40
0.0
 40
0.0
 40
1.0
 40
1.0
 40
1.0
 40
2.0
 40
2.0
 40
2.0
 40
3.0
 40
3.0
 40
3.0
 40
4.0
 40
4.0
 40
4.0
 40
5.0
 40
5.0
 40
5.0
 40
6.0
 40
6.0
 40
6.0
 40
7.0
 40
7.0
 40
7.0
 40
8.0
 40
8.0
 40
8.0
 40
9.0
 40
9.0
 40
9.0
 40
10.0
 40
10.0
 40
10.0
 40
11.0
 40
11.0
 40
11.0
 40
12.0
 40
12.0
 40
12.0
 40
13.0
 40
13.0
 40
13.0
 40
14.0
 40
14.0
 40
14.0
 40
15.0
 40
15.0
 40
15.0
 40
16.0
 40
16.0
 40
16.0
 40
17.0
 40
17.0
 40
17.0
 40
18.0
 40
18.0
 40
18.0
 40
19.0
 40
19.0
 40
19.0
 40
20.0
 40
20.0
 40
20.0
 40
21.0
 40
21.0
 40
21.0
 40
22.0
 40
22.0
 40
22.0
 40
23.0
 40
23.0
 40
23.0
 40
24.0
 40
24.0
 40
24.0
 40
25.0
 40
25.0
 40
25.0
 40
26.0
 40
26.0
 40
26.0
 40
26.0
 10
305.0859375
 20
135.076171875
 10
305.0859375
 20
134.73046875
 10
305.0302734375
 20
134.4140625
 10
304.9169921875
 20
134.12890625
 10
304.8046875
 20
133.8427734375
 10
304.650390625
 20
133.5966796875
 10
304.455078125
 20
133.388671875
 10
304.2685546875
 20
133.1904296875
 10
304.0400390625
 20
133.03515625
 10
303.771484375
 20
132.923828125
 10
303.501953125
 20
132.8125
 10
303.2294921875
 20
132.7568359375
 10
302.9521484375
 20
132.7568359375
 10
302.642578125
 20
132.7568359375
 10
302.3623046875
 20
132.80859375
 10
302.111328125
 20
132.9130859375
 10
301.859375
 20
133.0166015625
 10
301.642578125
 20
133.166015625
 10
301.458984375
 20
133.361328125
 10
301.2275390625
 20
133.6083984375
 10
301.0478515625
 20
133.931640625
 10
300.919921875
 20
134.33203125
 10
300.7919921875
 20
134.7314453125
 10
300.728515625
 20
135.2373046875
 10
300.728515625
 20
135.84765625
 10
300.728515625
 20
136.404296875
 10
300.7900390625
 20
136.931640625
 10
300.9150390625
 20
137.4287109375
 10
301.0400390625
 20
137.9267578125
 10
301.224609375
 20
138.33984375
 10
301.4677734375
 20
138.6669921875
 10
301.7265625
 20
139.0166015625
 10
302.037109375
 20
139.2822265625
 10
302.3994140625
 20
139.4658203125
 10
302.76171875
 20
139.6494140625
 10
303.2099609375
 20
139.7412109375
 10
303.7421875
 20
139.7412109375
 10
303.8623046875
 20
139.7412109375
 10
303.990234375
 20
139.734375
 10
304.125
 20
139.720703125
 10
304.2607421875
 20
139.70703125
 10
304.38671875
 20
139.6826171875
 10
304.50390625
 20
139.646484375
 10
304.50390625
 20
139.646484375
 10
304.50390625
 20
138.78515625
 10
304.50390625
 20
138.78515625
 10
304.50390625
 20
138.78515625
 10
304.458984375
 20
138.78515625
 10
304.458984375
 20
138.78515625
 10
304.3837890625
 20
138.8271484375
 10
304.2666015625
 20
138.8671875
 10
304.107421875
 20
138.90625
 10
303.9482421875
 20
138.9453125
 10
303.78515625
 20
138.96484375
 10
303.6201171875
 20
138.96484375
 10
303.0302734375
 20
138.96484375
 10
302.5673828125
 20
138.771484375
 10
302.23046875
 20
138.3828125
 10
301.8935546875
 20
137.9951171875
 10
301.7021484375
 20
137.4404296875
 10
301.6572265625
 20
136.71875
 10
301.8984375
 20
136.880859375
 10
302.1279296875
 20
137.0
 10
302.345703125
 20
137.0751953125
 10
302.5634765625
 20
137.150390625
 10
302.80078125
 20
137.1875
 10
303.0556640625
 20
137.1875
 10
303.3056640625
 20
137.1875
 10
303.533203125
 20
137.16015625
 10
303.7373046875
 20
137.1064453125
 10
303.9423828125
 20
137.0517578125
 10
304.1484375
 20
136.947265625
 10
304.35546875
 20
136.7900390625
 10
304.595703125
 20
136.607421875
 10
304.7783203125
 20
136.375
 10
304.9013671875
 20
136.09375
 10
305.0244140625
 20
135.8125
 10
305.0859375
 20
135.47265625
 10
305.0859375
 20
135.076171875
 97
        0
 97
        1
330
707
 75
     2
 76
     1
 98
        1
 10
0.0
 20
0.0
450
        0
451
        0
460
0.0
461
0.0
452
        0
462
0.0
453
        0
470

  0
ENDBLK
  5
709
330
702
100
AcDbEntity
  8
0
100
AcDbBlockEnd
  0
BLOCK
  5
70B
330
70A
100
AcDbEntity
  8
0
100
AcDbBlockBegin
  2
Block_14
 70
     0
 10
0.0
 20
0.0
 30
0.0
  3
Block_14
  1

  0
INSERT
  5
70C
330
70A
100
AcDbEntity
  8
Layer 1
100
AcDbBlockReference
  2
Block_15
 10
0.0
 20
0.0
 30
0.0
  0
ENDBLK
  5
70D
330
70A
100
AcDbEntity
  8
0
100
AcDbBlockEnd
  0
BLOCK
  5
70F
330
70E
100
AcDbEntity
  8
0
100
AcDbBlockBegin
  2
Block_15
 70
     0
 10
0.0
 20
0.0
 30
0.0
  3
Block_15
  1

  0
SPLINE
  5
710
330
70E
100
AcDbEntity
  8
Layer 1
100
AcDbSpline
210
0.0
220
0.0
230
1.0
 70
     9
 71
     3
 72
    35
 73
    31
 74
     0
 42
0.000000001
 43
0.0000000001
 40
0.0
 40
0.0
 40
0.0
 40
0.0
 40
1.0
 40
1.0
 40
1.0
 40
2.0
 40
2.0
 40
2.0
 40
3.0
 40
3.0
 40
3.0
 40
4.0
 40
4.0
 40
4.0
 40
5.0
 40
5.0
 40
5.0
 40
6.0
 40
6.0
 40
6.0
 40
7.0
 40
7.0
 40
7.0
 40
8.0
 40
8.0
 40
8.0
 40
9.0
 40
9.0
 40
9.0
 40
10.0
 40
10.0
 40
10.0
 40
10.0
 10
159.9130859375
 20
578.1035156249999
 30
0.0
 10
159.63623046875
 20
578.1035156249999
 30
0.0
 10
159.4169921875
 20
578.04931640625
 30
0.0
 10
159.25439453125
 20
577.9414062499999
 30
0.0
 10
159.091796875
 20
577.8330078125
 30
0.0
 10
158.9267578125
 20
577.6240234374999
 30
0.0
 10
158.75830078125
 20
577.3139648437499
 30
0.0
 10
158.701171875
 20
577.2119140625
 30
0.0
 10
158.63916015625
 20
577.07568359375
 30
0.0
 10
158.5732421875
 20
576.90576171875
 30
0.0
 10
158.5068359375
 20
576.73583984375
 30
0.0
 10
158.4287109375
 20
576.5439453125
 30
0.0
 10
158.33837890625
 20
576.33056640625
 30
0.0
 10
158.50390625
 20
576.0810546874999
 30
0.0
 10
158.70751953125
 20
575.8901367187499
 30
0.0
 10
158.94970703125
 20
575.7578125
 30
0.0
 10
159.19189453125
 20
575.625
 30
0.0
 10
159.4677734375
 20
575.55908203125
 30
0.0
 10
159.77783203125
 20
575.55908203125
 30
0.0
 10
160.18359375
 20
575.55908203125
 30
0.0
 10
160.51904296875
 20
575.681640625
 30
0.0
 10
160.78369140625
 20
575.9267578124999
 30
0.0
 10
161.04833984375
 20
576.171875
 30
0.0
 10
161.1806640625
 20
576.4794921875
 30
0.0
 10
161.1806640625
 20
576.849609375
 30
0.0
 10
161.1806640625
 20
577.2285156249999
 30
0.0
 10
161.0673828125
 20
577.5322265625
 30
0.0
 10
160.84033203125
 20
577.7607421875
 30
0.0
 10
160.61328125
 20
577.9892578124999
 30
0.0
 10
160.30419921875
 20
578.1035156249999
 30
0.0
 10
159.9130859375
 20
578.1035156249999
 30
0.0
  0
SPLINE
  5
711
330
70E
100
AcDbEntity
  8
Layer 1
100
AcDbSpline
210
0.0
220
0.0
230
1.0
 70
     9
 71
     3
 72
    35
 73
    31
 74
     0
 42
0.000000001
 43
0.0000000001
 40
0.0
 40
0.0
 40
0.0
 40
0.0
 40
1.0
 40
1.0
 40
1.0
 40
2.0
 40
2.0
 40
2.0
 40
3.0
 40
3.0
 40
3.0
 40
4.0
 40
4.0
 40
4.0
 40
5.0
 40
5.0
 40
5.0
 40
6.0
 40
6.0
 40
6.0
 40
7.0
 40
7.0
 40
7.0
 40
8.0
 40
8.0
 40
8.0
 40
9.0
 40
9.0
 40
9.0
 40
10.0
 40
10.0
 40
10.0
 40
10.0
 10
156.54736328125
 20
577.9775390624999
 30
0.0
 10
156.24658203125
 20
577.9775390624999
 30
0.0
 10
155.99560546875
 20
577.8764648437499
 30
0.0
 10
155.7939453125
 20
577.67529296875
 30
0.0
 10
155.59228515625
 20
577.4736328124999
 30
0.0
 10
155.49169921875
 20
577.19384765625
 30
0.0
 10
155.49169921875
 20
576.8359375
 30
0.0
 10
155.49169921875
 20
576.5078125
 30
0.0
 10
155.58203125
 20
576.2397460937499
 30
0.0
 10
155.76220703125
 20
576.03076171875
 30
0.0
 10
155.94287109375
 20
575.8212890624999
 30
0.0
 10
156.1865234375
 20
575.716796875
 30
0.0
 10
156.4931640625
 20
575.716796875
 30
0.0
 10
156.7158203125
 20
575.716796875
 30
0.0
 10
156.90380859375
 20
575.7705078125
 30
0.0
 10
157.05712890625
 20
575.876953125
 30
0.0
 10
157.21044921875
 20
575.9838867187499
 30
0.0
 10
157.34912109375
 20
576.14404296875
 30
0.0
 10
157.47216796875
 20
576.357421875
 30
0.0
 10
157.5234375
 20
576.45068359375
 30
0.0
 10
157.59423828125
 20
576.5927734375
 30
0.0
 10
157.68408203125
 20
576.7841796875
 30
0.0
 10
157.7744140625
 20
576.97509765625
 30
0.0
 10
157.84521484375
 20
577.14892578125
 30
0.0
 10
157.896484375
 20
577.30517578125
 30
0.0
 10
157.69482421875
 20
577.5668945312499
 30
0.0
 10
157.48779296875
 20
577.744140625
 30
0.0
 10
157.27587890625
 20
577.83740234375
 30
0.0
 10
157.06396484375
 20
577.9306640625
 30
0.0
 10
156.8212890625
 20
577.9775390624999
 30
0.0
 10
156.54736328125
 20
577.9775390624999
 30
0.0
  0
SPLINE
  5
712
330
70E
100
AcDbEntity
  8
Layer 1
100
AcDbSpline
210
0.0
220
0.0
230
1.0
 70
     9
 71
     3
 72
    65
 73
    61
 74
     0
 42
0.000000001
 43
0.0000000001
 40
0.0
 40
0.0
 40
0.0
 40
0.0
 40
1.0
 40
1.0
 40
1.0
 40
2.0
 40
2.0
 40
2.0
 40
3.0
 40
3.0
 40
3.0
 40
4.0
 40
4.0
 40
4.0
 40
5.0
 40
5.0
 40
5.0
 40
6.0
 40
6.0
 40
6.0
 40
7.0
 40
7.0
 40
7.0
 40
8.0
 40
8.0
 40
8.0
 40
9.0
 40
9.0
 40
9.0
 40
10.0
 40
10.0
 40
10.0
 40
11.0
 40
11.0
 40
11.0
 40
12.0
 40
12.0
 40
12.0
 40
13.0
 40
13.0
 40
13.0
 40
14.0
 40
14.0
 40
14.0
 40
15.0
 40
15.0
 40
15.0
 40
16.0
 40
16.0
 40
16.0
 40
17.0
 40
17.0
 40
17.0
 40
18.0
 40
18.0
 40
18.0
 40
19.0
 40
19.0
 40
19.0
 40
20.0
 40
20.0
 40
20.0
 40
20.0
 10
161.85302734375
 20
576.84033203125
 30
0.0
 10
161.85302734375
 20
576.50634765625
 30
0.0
 10
161.8037109375
 20
576.20263671875
 30
0.0
 10
161.7041015625
 20
575.92919921875
 30
0.0
 10
161.60498046875
 20
575.6552734375
 30
0.0
 10
161.4619140625
 20
575.4223632812499
 30
0.0
 10
161.275390625
 20
575.2294921875
 30
0.0
 10
161.09521484375
 20
575.0400390624999
 30
0.0
 10
160.880859375
 20
574.896484375
 30
0.0
 10
160.6328125
 20
574.798828125
 30
0.0
 10
160.384765625
 20
574.701171875
 30
0.0
 10
160.1220703125
 20
574.65234375
 30
0.0
 10
159.84521484375
 20
574.65234375
 30
0.0
 10
159.4814453125
 20
574.65234375
 30
0.0
 10
159.14697265625
 20
574.7490234375
 30
0.0
 10
158.84130859375
 20
574.943359375
 30
0.0
 10
158.5361328125
 20
575.1372070312499
 30
0.0
 10
158.29345703125
 20
575.41943359375
 30
0.0
 10
158.11279296875
 20
575.7890624999999
 30
0.0
 10
158.11279296875
 20
575.7890624999999
 30
0.0
 10
158.0859375
 20
575.7890624999999
 30
0.0
 10
158.0859375
 20
575.7890624999999
 30
0.0
 10
157.8935546875
 20
575.4584960937499
 30
0.0
 10
157.6826171875
 20
575.21337890625
 30
0.0
 10
157.4541015625
 20
575.0537109375
 30
0.0
 10
157.2255859375
 20
574.89453125
 30
0.0
 10
156.93994140625
 20
574.814453125
 30
0.0
 10
156.59716796875
 20
574.814453125
 30
0.0
 10
156.091796875
 20
574.814453125
 30
0.0
 10
155.67041015625
 20
575.005859375
 30
0.0
 10
155.33349609375
 20
575.3876953125
 30
0.0
 10
154.9970703125
 20
575.76953125
 30
0.0
 10
154.828125
 20
576.25390625
 30
0.0
 10
154.828125
 20
576.84033203125
 30
0.0
 10
154.828125
 20
577.451171875
 30
0.0
 10
154.98876953125
 20
577.9404296874999
 30
0.0
 10
155.30908203125
 20
578.30908203125
 30
0.0
 10
155.62939453125
 20
578.6772460937499
 30
0.0
 10
156.0390625
 20
578.86181640625
 30
0.0
 10
156.5380859375
 20
578.86181640625
 30
0.0
 10
156.8388671875
 20
578.86181640625
 30
0.0
 10
157.13671875
 20
578.7734375
 30
0.0
 10
157.431640625
 20
578.59765625
 30
0.0
 10
157.7265625
 20
578.4218749999999
 30
0.0
 10
157.95654296875
 20
578.1684570312499
 30
0.0
 10
158.1220703125
 20
577.83740234375
 30
0.0
 10
158.1220703125
 20
577.83740234375
 30
0.0
 10
158.14892578125
 20
577.83740234375
 30
0.0
 10
158.14892578125
 20
577.83740234375
 30
0.0
 10
158.33251953125
 20
578.228515625
 30
0.0
 10
158.55517578125
 20
578.52490234375
 30
0.0
 10
158.81689453125
 20
578.7260742187499
 30
0.0
 10
159.07861328125
 20
578.927734375
 30
0.0
 10
159.41552734375
 20
579.02880859375
 30
0.0
 10
159.8271484375
 20
579.02880859375
 30
0.0
 10
160.40185546875
 20
579.02880859375
 30
0.0
 10
160.88330078125
 20
578.8203124999999
 30
0.0
 10
161.27099609375
 20
578.40380859375
 30
0.0
 10
161.6591796875
 20
577.9873046875
 30
0.0
 10
161.85302734375
 20
577.4658203125
 30
0.0
 10
161.85302734375
 20
576.84033203125
 30
0.0
  0
HATCH
  5
713
330
70E
100
AcDbEntity
  8
Layer 1
 62
     7
100
AcDbHatch
 10
0.0
 20
0.0
 30
0.0
210
0.0
220
0.0
230
1.0
  2
SOLID
 70
     1
 71
     1
 91
        3
 92
        1
 93
        1
 72
     4
 94
        3
 73
     0
 74
     0
 95
       35
 96
       31
 40
0.0
 40
0.0
 40
0.0
 40
0.0
 40
1.0
 40
1.0
 40
1.0
 40
2.0
 40
2.0
 40
2.0
 40
3.0
 40
3.0
 40
3.0
 40
4.0
 40
4.0
 40
4.0
 40
5.0
 40
5.0
 40
5.0
 40
6.0
 40
6.0
 40
6.0
 40
7.0
 40
7.0
 40
7.0
 40
8.0
 40
8.0
 40
8.0
 40
9.0
 40
9.0
 40
9.0
 40
10.0
 40
10.0
 40
10.0
 40
10.0
 10
159.9130859375
 20
578.1035156249999
 10
159.63623046875
 20
578.1035156249999
 10
159.4169921875
 20
578.04931640625
 10
159.25439453125
 20
577.9414062499999
 10
159.091796875
 20
577.8330078125
 10
158.9267578125
 20
577.6240234374999
 10
158.75830078125
 20
577.3139648437499
 10
158.701171875
 20
577.2119140625
 10
158.63916015625
 20
577.07568359375
 10
158.5732421875
 20
576.90576171875
 10
158.5068359375
 20
576.73583984375
 10
158.4287109375
 20
576.5439453125
 10
158.33837890625
 20
576.33056640625
 10
158.50390625
 20
576.0810546874999
 10
158.70751953125
 20
575.8901367187499
 10
158.94970703125
 20
575.7578125
 10
159.19189453125
 20
575.625
 10
159.4677734375
 20
575.55908203125
 10
159.77783203125
 20
575.55908203125
 10
160.18359375
 20
575.55908203125
 10
160.51904296875
 20
575.681640625
 10
160.78369140625
 20
575.9267578124999
 10
161.04833984375
 20
576.171875
 10
161.1806640625
 20
576.4794921875
 10
161.1806640625
 20
576.849609375
 10
161.1806640625
 20
577.2285156249999
 10
161.0673828125
 20
577.5322265625
 10
160.84033203125
 20
577.7607421875
 10
160.61328125
 20
577.9892578124999
 10
160.30419921875
 20
578.1035156249999
 10
159.9130859375
 20
578.1035156249999
 97
        0
 97
        1
330
710
 92
        1
 93
        1
 72
     4
 94
        3
 73
     0
 74
     0
 95
       35
 96
       31
 40
0.0
 40
0.0
 40
0.0
 40
0.0
 40
1.0
 40
1.0
 40
1.0
 40
2.0
 40
2.0
 40
2.0
 40
3.0
 40
3.0
 40
3.0
 40
4.0
 40
4.0
 40
4.0
 40
5.0
 40
5.0
 40
5.0
 40
6.0
 40
6.0
 40
6.0
 40
7.0
 40
7.0
 40
7.0
 40
8.0
 40
8.0
 40
8.0
 40
9.0
 40
9.0
 40
9.0
 40
10.0
 40
10.0
 40
10.0
 40
10.0
 10
156.54736328125
 20
577.9775390624999
 10
156.24658203125
 20
577.9775390624999
 10
155.99560546875
 20
577.8764648437499
 10
155.7939453125
 20
577.67529296875
 10
155.59228515625
 20
577.4736328124999
 10
155.49169921875
 20
577.19384765625
 10
155.49169921875
 20
576.8359375
 10
155.49169921875
 20
576.5078125
 10
155.58203125
 20
576.2397460937499
 10
155.76220703125
 20
576.03076171875
 10
155.94287109375
 20
575.8212890624999
 10
156.1865234375
 20
575.716796875
 10
156.4931640625
 20
575.716796875
 10
156.7158203125
 20
575.716796875
 10
156.90380859375
 20
575.7705078125
 10
157.05712890625
 20
575.876953125
 10
157.21044921875
 20
575.9838867187499
 10
157.34912109375
 20
576.14404296875
 10
157.47216796875
 20
576.357421875
 10
157.5234375
 20
576.45068359375
 10
157.59423828125
 20
576.5927734375
 10
157.68408203125
 20
576.7841796875
 10
157.7744140625
 20
576.97509765625
 10
157.84521484375
 20
577.14892578125
 10
157.896484375
 20
577.30517578125
 10
157.69482421875
 20
577.5668945312499
 10
157.48779296875
 20
577.744140625
 10
157.27587890625
 20
577.83740234375
 10
157.06396484375
 20
577.9306640625
 10
156.8212890625
 20
577.9775390624999
 10
156.54736328125
 20
577.9775390624999
 97
        0
 97
        1
330
711
 92
        1
 93
        1
 72
     4
 94
        3
 73
     0
 74
     0
 95
       65
 96
       61
 40
0.0
 40
0.0
 40
0.0
 40
0.0
 40
1.0
 40
1.0
 40
1.0
 40
2.0
 40
2.0
 40
2.0
 40
3.0
 40
3.0
 40
3.0
 40
4.0
 40
4.0
 40
4.0
 40
5.0
 40
5.0
 40
5.0
 40
6.0
 40
6.0
 40
6.0
 40
7.0
 40
7.0
 40
7.0
 40
8.0
 40
8.0
 40
8.0
 40
9.0
 40
9.0
 40
9.0
 40
10.0
 40
10.0
 40
10.0
 40
11.0
 40
11.0
 40
11.0
 40
12.0
 40
12.0
 40
12.0
 40
13.0
 40
13.0
 40
13.0
 40
14.0
 40
14.0
 40
14.0
 40
15.0
 40
15.0
 40
15.0
 40
16.0
 40
16.0
 40
16.0
 40
17.0
 40
17.0
 40
17.0
 40
18.0
 40
18.0
 40
18.0
 40
19.0
 40
19.0
 40
19.0
 40
20.0
 40
20.0
 40
20.0
 40
20.0
 10
161.85302734375
 20
576.84033203125
 10
161.85302734375
 20
576.50634765625
 10
161.8037109375
 20
576.20263671875
 10
161.7041015625
 20
575.92919921875
 10
161.60498046875
 20
575.6552734375
 10
161.4619140625
 20
575.4223632812499
 10
161.275390625
 20
575.2294921875
 10
161.09521484375
 20
575.0400390624999
 10
160.880859375
 20
574.896484375
 10
160.6328125
 20
574.798828125
 10
160.384765625
 20
574.701171875
 10
160.1220703125
 20
574.65234375
 10
159.84521484375
 20
574.65234375
 10
159.4814453125
 20
574.65234375
 10
159.14697265625
 20
574.7490234375
 10
158.84130859375
 20
574.943359375
 10
158.5361328125
 20
575.1372070312499
 10
158.29345703125
 20
575.41943359375
 10
158.11279296875
 20
575.7890624999999
 10
158.11279296875
 20
575.7890624999999
 10
158.0859375
 20
575.7890624999999
 10
158.0859375
 20
575.7890624999999
 10
157.8935546875
 20
575.4584960937499
 10
157.6826171875
 20
575.21337890625
 10
157.4541015625
 20
575.0537109375
 10
157.2255859375
 20
574.89453125
 10
156.93994140625
 20
574.814453125
 10
156.59716796875
 20
574.814453125
 10
156.091796875
 20
574.814453125
 10
155.67041015625
 20
575.005859375
 10
155.33349609375
 20
575.3876953125
 10
154.9970703125
 20
575.76953125
 10
154.828125
 20
576.25390625
 10
154.828125
 20
576.84033203125
 10
154.828125
 20
577.451171875
 10
154.98876953125
 20
577.9404296874999
 10
155.30908203125
 20
578.30908203125
 10
155.62939453125
 20
578.6772460937499
 10
156.0390625
 20
578.86181640625
 10
156.5380859375
 20
578.86181640625
 10
156.8388671875
 20
578.86181640625
 10
157.13671875
 20
578.7734375
 10
157.431640625
 20
578.59765625
 10
157.7265625
 20
578.4218749999999
 10
157.95654296875
 20
578.1684570312499
 10
158.1220703125
 20
577.83740234375
 10
158.1220703125
 20
577.83740234375
 10
158.14892578125
 20
577.83740234375
 10
158.14892578125
 20
577.83740234375
 10
158.33251953125
 20
578.228515625
 10
158.55517578125
 20
578.52490234375
 10
158.81689453125
 20
578.7260742187499
 10
159.07861328125
 20
578.927734375
 10
159.41552734375
 20
579.02880859375
 10
159.8271484375
 20
579.02880859375
 10
160.40185546875
 20
579.02880859375
 10
160.88330078125
 20
578.8203124999999
 10
161.27099609375
 20
578.40380859375
 10
161.6591796875
 20
577.9873046875
 10
161.85302734375
 20
577.4658203125
 10
161.85302734375
 20
576.84033203125
 97
        0
 97
        1
330
712
 75
     2
 76
     1
 98
        1
 10
0.0
 20
0.0
450
        0
451
        0
460
0.0
461
0.0
452
        0
462
0.0
453
        0
470

  0
SPLINE
  5
714
330
70E
100
AcDbEntity
  8
Layer 1
100
AcDbSpline
210
0.0
220
0.0
230
1.0
 70
     9
 71
     3
 72
    53
 73
    49
 74
     0
 42
0.000000001
 43
0.0000000001
 40
0.0
 40
0.0
 40
0.0
 40
0.0
 40
1.0
 40
1.0
 40
1.0
 40
2.0
 40
2.0
 40
2.0
 40
3.0
 40
3.0
 40
3.0
 40
4.0
 40
4.0
 40
4.0
 40
5.0
 40
5.0
 40
5.0
 40
6.0
 40
6.0
 40
6.0
 40
7.0
 40
7.0
 40
7.0
 40
8.0
 40
8.0
 40
8.0
 40
9.0
 40
9.0
 40
9.0
 40
10.0
 40
10.0
 40
10.0
 40
11.0
 40
11.0
 40
11.0
 40
12.0
 40
12.0
 40
12.0
 40
13.0
 40
13.0
 40
13.0
 40
14.0
 40
14.0
 40
14.0
 40
15.0
 40
15.0
 40
15.0
 40
16.0
 40
16.0
 40
16.0
 40
16.0
 10
160.38671875
 20
582.8769531249999
 30
0.0
 10
160.1640625
 20
582.96435546875
 30
0.0
 10
159.8828125
 20
583.02587890625
 30
0.0
 10
159.54296875
 20
583.06201171875
 30
0.0
 10
159.203125
 20
583.09814453125
 30
0.0
 10
158.8017578125
 20
583.1162109374999
 30
0.0
 10
158.33837890625
 20
583.1162109374999
 30
0.0
 10
157.87841796875
 20
583.1162109374999
 30
0.0
 10
157.478515625
 20
583.09814453125
 30
0.0
 10
157.13818359375
 20
583.06201171875
 30
0.0
 10
156.79833984375
 20
583.02587890625
 30
0.0
 10
156.515625
 20
582.9628906249999
 30
0.0
 10
156.2900390625
 20
582.8725585937499
 30
0.0
 10
156.0615234375
 20
582.7822265625
 30
0.0
 10
155.8876953125
 20
582.658203125
 30
0.0
 10
155.76904296875
 20
582.5
 30
0.0
 10
155.650390625
 20
582.34228515625
 30
0.0
 10
155.5908203125
 20
582.13720703125
 30
0.0
 10
155.5908203125
 20
581.8842773437499
 30
0.0
 10
155.5908203125
 20
581.634765625
 30
0.0
 10
155.650390625
 20
581.42919921875
 30
0.0
 10
155.76904296875
 20
581.2685546875
 30
0.0
 10
155.8876953125
 20
581.1074218749999
 30
0.0
 10
156.064453125
 20
580.9804687499999
 30
0.0
 10
156.29931640625
 20
580.8872070312499
 30
0.0
 10
156.52783203125
 20
580.7968749999999
 30
0.0
 10
156.81640625
 20
580.7353515625
 30
0.0
 10
157.16552734375
 20
580.7021484375
 30
0.0
 10
157.51416015625
 20
580.6689453125
 30
0.0
 10
157.908203125
 20
580.65283203125
 30
0.0
 10
158.34765625
 20
580.65283203125
 30
0.0
 10
158.81689453125
 20
580.65283203125
 30
0.0
 10
159.20947265625
 20
580.6669921874999
 30
0.0
 10
159.52490234375
 20
580.6953124999999
 30
0.0
 10
159.8408203125
 20
580.7241210937499
 30
0.0
 10
160.12353515625
 20
580.78662109375
 30
0.0
 10
160.373046875
 20
580.8828124999999
 30
0.0
 10
160.60498046875
 20
580.9697265625
 30
0.0
 10
160.783203125
 20
581.0942382812499
 30
0.0
 10
160.90771484375
 20
581.2548828125
 30
0.0
 10
161.03271484375
 20
581.4160156249999
 30
0.0
 10
161.09521484375
 20
581.62548828125
 30
0.0
 10
161.09521484375
 20
581.8842773437499
 30
0.0
 10
161.09521484375
 20
582.1337890625
 30
0.0
 10
161.03564453125
 20
582.3393554687499
 30
0.0
 10
160.9169921875
 20
582.5
 30
0.0
 10
160.79833984375
 20
582.6611328124999
 30
0.0
 10
160.62158203125
 20
582.7866210937499
 30
0.0
 10
160.38671875
 20
582.8769531249999
 30
0.0
  0
SPLINE
  5
715
330
70E
100
AcDbEntity
  8
Layer 1
100
AcDbSpline
210
0.0
220
0.0
230
1.0
 70
     9
 71
     3
 72
    29
 73
    25
 74
     0
 42
0.000000001
 43
0.0000000001
 40
0.0
 40
0.0
 40
0.0
 40
0.0
 40
1.0
 40
1.0
 40
1.0
 40
2.0
 40
2.0
 40
2.0
 40
3.0
 40
3.0
 40
3.0
 40
4.0
 40
4.0
 40
4.0
 40
5.0
 40
5.0
 40
5.0
 40
6.0
 40
6.0
 40
6.0
 40
7.0
 40
7.0
 40
7.0
 40
8.0
 40
8.0
 40
8.0
 40
8.0
 10
158.33837890625
 20
584.0317382812499
 30
0.0
 10
159.54443359375
 20
584.0317382812499
 30
0.0
 10
160.4296875
 20
583.8564453125
 30
0.0
 10
160.99365234375
 20
583.50634765625
 30
0.0
 10
161.5576171875
 20
583.15576171875
 30
0.0
 10
161.83935546875
 20
582.615234375
 30
0.0
 10
161.83935546875
 20
581.8842773437499
 30
0.0
 10
161.83935546875
 20
581.14453125
 30
0.0
 10
161.55224609375
 20
580.6015624999999
 30
0.0
 10
160.97802734375
 20
580.2558593749999
 30
0.0
 10
160.4033203125
 20
579.90966796875
 30
0.0
 10
159.5263671875
 20
579.73681640625
 30
0.0
 10
158.34765625
 20
579.73681640625
 30
0.0
 10
157.13525390625
 20
579.73681640625
 30
0.0
 10
156.2490234375
 20
579.912109375
 30
0.0
 10
155.68798828125
 20
580.26220703125
 30
0.0
 10
155.126953125
 20
580.61279296875
 30
0.0
 10
154.84619140625
 20
581.1533203125
 30
0.0
 10
154.84619140625
 20
581.8842773437499
 30
0.0
 10
154.84619140625
 20
582.6245117187499
 30
0.0
 10
155.13671875
 20
583.1669921875
 30
0.0
 10
155.71728515625
 20
583.51318359375
 30
0.0
 10
156.2978515625
 20
583.85888671875
 30
0.0
 10
157.17138671875
 20
584.0317382812499
 30
0.0
 10
158.33837890625
 20
584.0317382812499
 30
0.0
  0
HATCH
  5
716
330
70E
100
AcDbEntity
  8
Layer 1
 62
     7
100
AcDbHatch
 10
0.0
 20
0.0
 30
0.0
210
0.0
220
0.0
230
1.0
  2
SOLID
 70
     1
 71
     1
 91
        2
 92
        1
 93
        1
 72
     4
 94
        3
 73
     0
 74
     0
 95
       53
 96
       49
 40
0.0
 40
0.0
 40
0.0
 40
0.0
 40
1.0
 40
1.0
 40
1.0
 40
2.0
 40
2.0
 40
2.0
 40
3.0
 40
3.0
 40
3.0
 40
4.0
 40
4.0
 40
4.0
 40
5.0
 40
5.0
 40
5.0
 40
6.0
 40
6.0
 40
6.0
 40
7.0
 40
7.0
 40
7.0
 40
8.0
 40
8.0
 40
8.0
 40
9.0
 40
9.0
 40
9.0
 40
10.0
 40
10.0
 40
10.0
 40
11.0
 40
11.0
 40
11.0
 40
12.0
 40
12.0
 40
12.0
 40
13.0
 40
13.0
 40
13.0
 40
14.0
 40
14.0
 40
14.0
 40
15.0
 40
15.0
 40
15.0
 40
16.0
 40
16.0
 40
16.0
 40
16.0
 10
160.38671875
 20
582.8769531249999
 10
160.1640625
 20
582.96435546875
 10
159.8828125
 20
583.02587890625
 10
159.54296875
 20
583.06201171875
 10
159.203125
 20
583.09814453125
 10
158.8017578125
 20
583.1162109374999
 10
158.33837890625
 20
583.1162109374999
 10
157.87841796875
 20
583.1162109374999
 10
157.478515625
 20
583.09814453125
 10
157.13818359375
 20
583.06201171875
 10
156.79833984375
 20
583.02587890625
 10
156.515625
 20
582.9628906249999
 10
156.2900390625
 20
582.8725585937499
 10
156.0615234375
 20
582.7822265625
 10
155.8876953125
 20
582.658203125
 10
155.76904296875
 20
582.5
 10
155.650390625
 20
582.34228515625
 10
155.5908203125
 20
582.13720703125
 10
155.5908203125
 20
581.8842773437499
 10
155.5908203125
 20
581.634765625
 10
155.650390625
 20
581.42919921875
 10
155.76904296875
 20
581.2685546875
 10
155.8876953125
 20
581.1074218749999
 10
156.064453125
 20
580.9804687499999
 10
156.29931640625
 20
580.8872070312499
 10
156.52783203125
 20
580.7968749999999
 10
156.81640625
 20
580.7353515625
 10
157.16552734375
 20
580.7021484375
 10
157.51416015625
 20
580.6689453125
 10
157.908203125
 20
580.65283203125
 10
158.34765625
 20
580.65283203125
 10
158.81689453125
 20
580.65283203125
 10
159.20947265625
 20
580.6669921874999
 10
159.52490234375
 20
580.6953124999999
 10
159.8408203125
 20
580.7241210937499
 10
160.12353515625
 20
580.78662109375
 10
160.373046875
 20
580.8828124999999
 10
160.60498046875
 20
580.9697265625
 10
160.783203125
 20
581.0942382812499
 10
160.90771484375
 20
581.2548828125
 10
161.03271484375
 20
581.4160156249999
 10
161.09521484375
 20
581.62548828125
 10
161.09521484375
 20
581.8842773437499
 10
161.09521484375
 20
582.1337890625
 10
161.03564453125
 20
582.3393554687499
 10
160.9169921875
 20
582.5
 10
160.79833984375
 20
582.6611328124999
 10
160.62158203125
 20
582.7866210937499
 10
160.38671875
 20
582.8769531249999
 97
        0
 97
        1
330
714
 92
        1
 93
        1
 72
     4
 94
        3
 73
     0
 74
     0
 95
       29
 96
       25
 40
0.0
 40
0.0
 40
0.0
 40
0.0
 40
1.0
 40
1.0
 40
1.0
 40
2.0
 40
2.0
 40
2.0
 40
3.0
 40
3.0
 40
3.0
 40
4.0
 40
4.0
 40
4.0
 40
5.0
 40
5.0
 40
5.0
 40
6.0
 40
6.0
 40
6.0
 40
7.0
 40
7.0
 40
7.0
 40
8.0
 40
8.0
 40
8.0
 40
8.0
 10
158.33837890625
 20
584.0317382812499
 10
159.54443359375
 20
584.0317382812499
 10
160.4296875
 20
583.8564453125
 10
160.99365234375
 20
583.50634765625
 10
161.5576171875
 20
583.15576171875
 10
161.83935546875
 20
582.615234375
 10
161.83935546875
 20
581.8842773437499
 10
161.83935546875
 20
581.14453125
 10
161.55224609375
 20
580.6015624999999
 10
160.97802734375
 20
580.2558593749999
 10
160.4033203125
 20
579.90966796875
 10
159.5263671875
 20
579.73681640625
 10
158.34765625
 20
579.73681640625
 10
157.13525390625
 20
579.73681640625
 10
156.2490234375
 20
579.912109375
 10
155.68798828125
 20
580.26220703125
 10
155.126953125
 20
580.61279296875
 10
154.84619140625
 20
581.1533203125
 10
154.84619140625
 20
581.8842773437499
 10
154.84619140625
 20
582.6245117187499
 10
155.13671875
 20
583.1669921875
 10
155.71728515625
 20
583.51318359375
 10
156.2978515625
 20
583.85888671875
 10
157.17138671875
 20
584.0317382812499
 10
158.33837890625
 20
584.0317382812499
 97
        0
 97
        1
330
715
 75
     2
 76
     1
 98
        1
 10
0.0
 20
0.0
450
        0
451
        0
460
0.0
461
0.0
452
        0
462
0.0
453
        0
470

  0
ENDBLK
  5
717
330
70E
100
AcDbEntity
  8
0
100
AcDbBlockEnd
  0
BLOCK
  5
91B
330
91A
100
AcDbEntity
  8
0
100
AcDbBlockBegin
  2
SW_CENTERMARKSYMBOL_0
 70
     0
 10
0.0
 20
0.0
 30
0.0
  3
SW_CENTERMARKSYMBOL_0
  1

  0
LINE
  5
91C
330
91A
100
AcDbEntity
  8
0
  6
Continuous
 62
     0
100
AcDbLine
 10
0.0
 20
0.0
 30
0.0
 11
0.0
 21
0.508
 31
0.0
  0
LINE
  5
91D
330
91A
100
AcDbEntity
  8
0
  6
Continuous
 62
     0
100
AcDbLine
 10
0.0
 20
0.0
 30
0.0
 11
-0.508
 21
0.0
 31
0.0
  0
LINE
  5
91E
330
91A
100
AcDbEntity
  8
0
  6
Continuous
 62
     0
100
AcDbLine
 10
0.0
 20
0.0
 30
0.0
 11
0.0
 21
-0.508
 31
0.0
  0
LINE
  5
91F
330
91A
100
AcDbEntity
  8
0
  6
Continuous
 62
     0
100
AcDbLine
 10
0.0
 20
0.0
 30
0.0
 11
0.508
 21
0.0
 31
0.0
  0
LINE
  5
920
330
91A
100
AcDbEntity
  8
0
  6
Continuous
 62
     0
100
AcDbLine
 10
0.0
 20
1.016
 30
0.0
 11
0.0
 21
4.008
 31
0.0
  0
LINE
  5
921
330
91A
100
AcDbEntity
  8
0
  6
Continuous
 62
     0
100
AcDbLine
 10
-1.016
 20
0.0
 30
0.0
 11
-4.008
 21
0.0
 31
0.0
  0
LINE
  5
922
330
91A
100
AcDbEntity
  8
0
  6
Continuous
 62
     0
100
AcDbLine
 10
0.0
 20
-1.016
 30
0.0
 11
0.0
 21
-4.008
 31
0.0
  0
LINE
  5
923
330
91A
100
AcDbEntity
  8
0
  6
Continuous
 62
     0
100
AcDbLine
 10
1.016
 20
0.0
 30
0.0
 11
4.008
 21
0.0
 31
0.0
  0
ENDBLK
  5
924
330
91A
100
AcDbEntity
  8
0
100
AcDbBlockEnd
  0
BLOCK
  5
926
330
925
100
AcDbEntity
  8
0
100
AcDbBlockBegin
  2
SW_CENTERMARKSYMBOL_1
 70
     0
 10
0.0
 20
0.0
 30
0.0
  3
SW_CENTERMARKSYMBOL_1
  1

  0
LINE
  5
927
330
925
100
AcDbEntity
  8
0
  6
Continuous
 62
     0
100
AcDbLine
 10
0.0
 20
0.0
 30
0.0
 11
0.0
 21
0.508
 31
0.0
  0
LINE
  5
928
330
925
100
AcDbEntity
  8
0
  6
Continuous
 62
     0
100
AcDbLine
 10
0.0
 20
0.0
 30
0.0
 11
-0.508
 21
0.0
 31
0.0
  0
LINE
  5
929
330
925
100
AcDbEntity
  8
0
  6
Continuous
 62
     0
100
AcDbLine
 10
0.0
 20
0.0
 30
0.0
 11
0.0
 21
-0.508
 31
0.0
  0
LINE
  5
92A
330
925
100
AcDbEntity
  8
0
  6
Continuous
 62
     0
100
AcDbLine
 10
0.0
 20
0.0
 30
0.0
 11
0.508
 21
0.0
 31
0.0
  0
LINE
  5
92B
330
925
100
AcDbEntity
  8
0
  6
Continuous
 62
     0
100
AcDbLine
 10
0.0
 20
1.016
 30
0.0
 11
0.0
 21
4.508
 31
0.0
  0
LINE
  5
92C
330
925
100
AcDbEntity
  8
0
  6
Continuous
 62
     0
100
AcDbLine
 10
-1.016
 20
0.0
 30
0.0
 11
-4.508
 21
0.0
 31
0.0
  0
LINE
  5
92D
330
925
100
AcDbEntity
  8
0
  6
Continuous
 62
     0
100
AcDbLine
 10
0.0
 20
-1.016
 30
0.0
 11
0.0
 21
-4.508
 31
0.0
  0
LINE
  5
92E
330
925
100
AcDbEntity
  8
0
  6
Continuous
 62
     0
100
AcDbLine
 10
1.016
 20
0.0
 30
0.0
 11
4.508
 21
0.0
 31
0.0
  0
ENDBLK
  5
92F
330
925
100
AcDbEntity
  8
0
100
AcDbBlockEnd
  0
BLOCK
  5
931
330
930
100
AcDbEntity
  8
0
100
AcDbBlockBegin
  2
SW_CENTERMARKSYMBOL_2
 70
     0
 10
0.0
 20
0.0
 30
0.0
  3
SW_CENTERMARKSYMBOL_2
  1

  0
LINE
  5
932
330
930
100
AcDbEntity
  8
0
  6
Continuous
 62
     0
100
AcDbLine
 10
0.0
 20
0.0
 30
0.0
 11
0.0
 21
0.508
 31
0.0
  0
LINE
  5
933
330
930
100
AcDbEntity
  8
0
  6
Continuous
 62
     0
100
AcDbLine
 10
0.0
 20
0.0
 30
0.0
 11
-0.508
 21
0.0
 31
0.0
  0
LINE
  5
934
330
930
100
AcDbEntity
  8
0
  6
Continuous
 62
     0
100
AcDbLine
 10
0.0
 20
0.0
 30
0.0
 11
0.0
 21
-0.508
 31
0.0
  0
LINE
  5
935
330
930
100
AcDbEntity
  8
0
  6
Continuous
 62
     0
100
AcDbLine
 10
0.0
 20
0.0
 30
0.0
 11
0.508
 21
0.0
 31
0.0
  0
LINE
  5
936
330
930
100
AcDbEntity
  8
0
  6
Continuous
 62
     0
100
AcDbLine
 10
0.0
 20
1.016
 30
0.0
 11
0.0
 21
3.008
 31
0.0
  0
LINE
  5
937
330
930
100
AcDbEntity
  8
0
  6
Continuous
 62
     0
100
AcDbLine
 10
-1.016
 20
0.0
 30
0.0
 11
-3.008
 21
0.0
 31
0.0
  0
LINE
  5
938
330
930
100
AcDbEntity
  8
0
  6
Continuous
 62
     0
100
AcDbLine
 10
0.0
 20
-1.016
 30
0.0
 11
0.0
 21
-3.008
 31
0.0
  0
LINE
  5
939
330
930
100
AcDbEntity
  8
0
  6
Continuous
 62
     0
100
AcDbLine
 10
1.016
 20
0.0
 30
0.0
 11
3.008
 21
0.0
 31
0.0
  0
ENDBLK
  5
93A
330
930
100
AcDbEntity
  8
0
100
AcDbBlockEnd
  0
BLOCK
  5
C0E
330
C0D
100
AcDbEntity
  8
0
100
AcDbBlockBegin
  2
_DotSmall
 70
     0
 10
0.0
 20
0.0
 30
0.0
  3
_DotSmall
  1

  0
LWPOLYLINE
  5
C0F
330
C0D
100
AcDbEntity
  8
0
  6
ByBlock
 62
     0
100
AcDbPolyline
 90
        2
 70
     1
 43
0.5
 10
-0.0625
 20
0.0
 42
1.0
 10
0.0625
 20
0.0
 42
1.0
  0
ENDBLK
  5
C10
330
C0D
100
AcDbEntity
  8
0
100
AcDbBlockEnd
  0
BLOCK
  5
C12
330
C11
100
AcDbEntity
  8
0
100
AcDbBlockBegin
  2
_ArchTick
 70
     0
 10
0.0
 20
0.0
 30
0.0
  3
_ArchTick
  1

  0
LWPOLYLINE
  5
C13
330
C11
100
AcDbEntity
  8
0
  6
ByBlock
 62
     0
100
AcDbPolyline
 90
        2
 70
     0
 43
0.15
 10
-0.5
 20
-0.5
 10
0.5
 20
0.5
  0
ENDBLK
  5
C14
330
C11
100
AcDbEntity
  8
0
100
AcDbBlockEnd
  0
BLOCK
  5
D24
330
D23
100
AcDbEntity
  8
0
 62
     7
100
AcDbBlockBegin
  2
*D22
 70
     1
 10
0.0
 20
0.0
 30
0.0
  3
*D22
  1

  0
LINE
  5
D25
330
D23
100
AcDbEntity
  8
DIMENSION
440
 16777216
370
     0
100
AcDbLine
 10
1730.349694619938
 20
1835.484931339779
 30
0.0
 11
1730.371992431189
 21
1855.484918909966
 31
0.0
  0
LINE
  5
D26
330
D23
100
AcDbEntity
  8
DIMENSION
440
 16777216
370
     0
100
AcDbLine
 10
2330.409677881795
 20
1834.815929711686
 30
0.0
 11
2330.431975693047
 21
1854.815917281872
 31
0.0
  0
LINE
  5
D27
330
D23
100
AcDbEntity
  8
DIMENSION
440
 16777216
370
     0
100
AcDbLine
 10
1730.360843525563
 20
1845.484925124873
 30
0.0
 11
2330.420826787421
 21
1844.815923496779
 31
0.0
  0
MTEXT
  5
D28
330
D23
100
AcDbEntity
  8
DIMENSION
 62
     7
440
 16777216
100
AcDbMText
 10
2030.410600112115
 20
1862.878570913613
 30
0.0
 40
15.0
 41
0.0
 46
0.0
 71
     5
 72
     1
  1
\A1;600
  7
Large
 73
     1
 44
1.0
  0
POINT
  5
D29
330
D23
100
AcDbEntity
  8
Defpoints
 62
     0
440
 16777216
100
AcDbPoint
 10
1730.183163506849
 20
1686.115105114705
 30
0.0
  0
POINT
  5
D2A
330
D23
100
AcDbEntity
  8
Defpoints
 62
     0
440
 16777216
100
AcDbPoint
 10
2330.243146768706
 20
1685.446103486611
 30
0.0
  0
POINT
  5
D2B
330
D23
100
AcDbEntity
  8
Defpoints
 62
     0
440
 16777216
100
AcDbPoint
 10
2330.420826787421
 20
1844.815923496779
 30
0.0
  0
ENDBLK
  5
D2C
330
D23
100
AcDbEntity
  8
0
 62
     7
100
AcDbBlockEnd
  0
BLOCK
  5
D34
330
D2D
100
AcDbEntity
  8
0
 62
     7
100
AcDbBlockBegin
  2
A$Cf085e5ce
 70
     0
 10
0.0
 20
0.0
 30
0.0
  3
A$Cf085e5ce
  1

  0
DIMENSION
  5
D2E
102
{ACAD_XDICTIONARY
360
D2F
102
}
330
D2D
100
AcDbEntity
  8
DIMENSION
 62
     7
100
AcDbDimension
280
     0
  2
*D22
 10
600.2376632805721
 20
159.3698200101673
 30
0.0
 11
300.2274366052664
 21
177.4324674270019
 31
0.0
 12
-1730.183163506849
 22
-1685.446103486611
 32
0.0
 70
     1
 71
     5
 42
600.0603561937746
 73
     0
 74
     0
 75
     0
  3
RG Dimension Lines_Large
100
AcDbAlignedDimension
 13
0.0
 23
0.669001628093838
 33
0.0
 14
600.0599832618582
 24
0.0
 34
0.0
1001
AcadAnnotative
1000
AnnotativeData
1002
{
1070
     1
1070
     1
1002
}
  0
ENDBLK
  5
D35
330
D2D
100
AcDbEntity
  8
0
 62
     7
100
AcDbBlockEnd
  0
BLOCK
  5
E30
330
E2F
100
AcDbEntity
  8
0
 62
     7
100
AcDbBlockBegin
  2
*D24
 70
     1
 10
0.0
 20
0.0
 30
0.0
  3
*D24
  1

  0
LINE
  5
E32
330
E2F
100
AcDbEntity
  8
DIMENSION
440
 16777216
370
     0
100
AcDbLine
 10
52.31909692743556
 20
204.2992518250271
 30
0.0
 11
52.31909692743556
 21
214.2992518250271
 31
0.0
  0
LINE
  5
E33
330
E2F
100
AcDbEntity
  8
DIMENSION
440
 16777216
370
     0
100
AcDbLine
 10
264.3190969274356
 20
204.2992518250271
 30
0.0
 11
264.3190969274356
 21
214.2992518250271
 31
0.0
  0
LINE
  5
E34
330
E2F
100
AcDbEntity
  8
DIMENSION
440
 16777216
370
     0
100
AcDbLine
 10
52.31909692743556
 20
209.2992518250271
 30
0.0
 11
264.3190969274356
 21
209.2992518250271
 31
0.0
  0
MTEXT
  5
E35
330
E2F
100
AcDbEntity
  8
DIMENSION
 62
     7
440
 16777216
100
AcDbMText
 10
158.3190969274355
 20
217.2992518250271
 30
0.0
 40
8.0
 41
0.0
 46
0.0
 71
     5
 72
     1
  1
\A1;212
 73
     1
 44
1.0
  0
POINT
  5
E36
330
E2F
100
AcDbEntity
  8
Defpoints
 62
     0
440
 16777216
100
AcDbPoint
 10
52.31909692743556
 20
190.8059900669727
 30
0.0
  0
POINT
  5
E37
330
E2F
100
AcDbEntity
  8
Defpoints
 62
     0
440
 16777216
100
AcDbPoint
 10
264.3190969274356
 20
190.8059900669727
 30
0.0
  0
POINT
  5
E38
330
E2F
100
AcDbEntity
  8
Defpoints
 62
     0
440
 16777216
100
AcDbPoint
 10
264.3190969274356
 20
209.2992518250271
 30
0.0
  0
ENDBLK
  5
E31
330
E2F
100
AcDbEntity
  8
0
 62
     7
100
AcDbBlockEnd
  0
BLOCK
  5
E40
330
E3F
100
AcDbEntity
  8
0
 62
     7
100
AcDbBlockBegin
  2
*D25
 70
     1
 10
0.0
 20
0.0
 30
0.0
  3
*D25
  1

  0
LINE
  5
E42
330
E3F
100
AcDbEntity
  8
DIMENSION
440
 16777216
370
     0
100
AcDbLine
 10
-12.29943497413658
 20
-0.000000000000002
 30
0.0
 11
-22.29943497413658
 21
-0.0000000000000036
 31
0.0
  0
LINE
  5
E43
330
E3F
100
AcDbEntity
  8
DIMENSION
440
 16777216
370
     0
100
AcDbLine
 10
-12.29943497413661
 20
142.0
 30
0.0
 11
-22.29943497413661
 21
142.0
 31
0.0
  0
LINE
  5
E44
330
E3F
100
AcDbEntity
  8
DIMENSION
440
 16777216
370
     0
100
AcDbLine
 10
-17.29943497413658
 20
-0.0000000000000028
 30
0.0
 11
-17.29943497413661
 21
142.0
 31
0.0
  0
MTEXT
  5
E45
330
E3F
100
AcDbEntity
  8
DIMENSION
 62
     7
440
 16777216
100
AcDbMText
 10
-29.7562594866714
 20
71.00000000000001
 30
0.0
 40
8.0
 41
0.0
 46
0.0
 71
     5
 72
     1
  1
\A1;142
 73
     1
 44
1.0
  0
POINT
  5
E46
330
E3F
100
AcDbEntity
  8
Defpoints
 62
     0
440
 16777216
100
AcDbPoint
 10
0.0
 20
0.0
 30
0.0
  0
POINT
  5
E47
330
E3F
100
AcDbEntity
  8
Defpoints
 62
     0
440
 16777216
100
AcDbPoint
 10
0.0000000000007958
 20
142.0
 30
0.0
  0
POINT
  5
E48
330
E3F
100
AcDbEntity
  8
Defpoints
 62
     0
440
 16777216
100
AcDbPoint
 10
-17.29943497413661
 20
142.0
 30
0.0
  0
ENDBLK
  5
E41
330
E3F
100
AcDbEntity
  8
0
 62
     7
100
AcDbBlockEnd
  0
BLOCK
  5
E50
330
E4F
100
AcDbEntity
  8
0
 62
     7
100
AcDbBlockBegin
  2
*D26
 70
     1
 10
0.0
 20
0.0
 30
0.0
  3
*D26
  1

  0
LINE
  5
E52
330
E4F
100
AcDbEntity
  8
DIMENSION
440
 16777216
370
     0
100
AcDbLine
 10
121.7521821110863
 20
-12.11011352939295
 30
0.0
 11
121.7521821110863
 21
-22.11011352939295
 31
0.0
  0
LINE
  5
E53
330
E4F
100
AcDbEntity
  8
DIMENSION
440
 16777216
370
     0
100
AcDbLine
 10
203.2521821110862
 20
-12.11011352939294
 30
0.0
 11
203.2521821110862
 21
-22.11011352939295
 31
0.0
  0
LINE
  5
E54
330
E4F
100
AcDbEntity
  8
DIMENSION
440
 16777216
370
     0
100
AcDbLine
 10
121.7521821110863
 20
-17.11011352939294
 30
0.0
 11
203.2521821110862
 21
-17.11011352939294
 31
0.0
  0
MTEXT
  5
E55
330
E4F
100
AcDbEntity
  8
DIMENSION
 62
     7
440
 16777216
100
AcDbMText
 10
162.5021821110862
 20
-25.21596311156565
 30
0.0
 40
8.0
 41
0.0
 46
0.0
 71
     5
 72
     1
  1
\A1;82
 73
     1
 44
1.0
  0
POINT
  5
E56
330
E4F
100
AcDbEntity
  8
Defpoints
 62
     0
440
 16777216
100
AcDbPoint
 10
121.7521821110863
 20
35.60778043001624
 30
0.0
  0
POINT
  5
E57
330
E4F
100
AcDbEntity
  8
Defpoints
 62
     0
440
 16777216
100
AcDbPoint
 10
203.2521821110862
 20
41.70778043001623
 30
0.0
  0
POINT
  5
E58
330
E4F
100
AcDbEntity
  8
Defpoints
 62
     0
440
 16777216
100
AcDbPoint
 10
203.2521821110862
 20
-17.11011352939294
 30
0.0
  0
ENDBLK
  5
E51
330
E4F
100
AcDbEntity
  8
0
 62
     7
100
AcDbBlockEnd
  0
BLOCK
  5
E61
330
E60
100
AcDbEntity
  8
0
 62
     7
100
AcDbBlockBegin
  2
*D27
 70
     1
 10
0.0
 20
0.0
 30
0.0
  3
*D27
  1

  0
LINE
  5
E89
330
E60
100
AcDbEntity
  8
DIMENSION
440
 16777216
370
     0
100
AcDbLine
 10
85.80218211108627
 20
-36.21387516275991
 30
0.0
 11
85.80218211108627
 21
-46.2138751627599
 31
0.0
  0
LINE
  5
E8A
330
E60
100
AcDbEntity
  8
DIMENSION
440
 16777216
370
     0
100
AcDbLine
 10
157.7021821110863
 20
-36.21387516275991
 30
0.0
 11
157.7021821110863
 21
-46.2138751627599
 31
0.0
  0
LINE
  5
E8B
330
E60
100
AcDbEntity
  8
DIMENSION
440
 16777216
370
     0
100
AcDbLine
 10
85.80218211108627
 20
-41.2138751627599
 30
0.0
 11
157.7021821110863
 21
-41.2138751627599
 31
0.0
  0
MTEXT
  5
E8C
330
E60
100
AcDbEntity
  8
DIMENSION
 62
     7
440
 16777216
100
AcDbMText
 10
121.7521821110863
 20
-49.42557432710531
 30
0.0
 40
8.0
 41
0.0
 46
0.0
 71
     5
 72
     1
  1
\A1;Ø72
 73
     1
 44
1.0
  0
POINT
  5
E8D
330
E60
100
AcDbEntity
  8
Defpoints
 62
     0
440
 16777216
100
AcDbPoint
 10
85.80218211108627
 20
71.55778043001624
 30
0.0
  0
POINT
  5
E8E
330
E60
100
AcDbEntity
  8
Defpoints
 62
     0
440
 16777216
100
AcDbPoint
 10
157.7021821110863
 20
71.55778043001624
 30
0.0
  0
POINT
  5
E8F
330
E60
100
AcDbEntity
  8
Defpoints
 62
     0
440
 16777216
100
AcDbPoint
 10
157.7021821110863
 20
-41.2138751627599
 30
0.0
  0
ENDBLK
  5
E62
330
E60
100
AcDbEntity
  8
0
 62
     7
100
AcDbBlockEnd
  0
BLOCK
  5
E7F
330
E7E
100
AcDbEntity
  8
0
 62
     7
100
AcDbBlockBegin
  2
*D28
 70
     1
 10
0.0
 20
0.0
 30
0.0
  3
*D28
  1

  0
LINE
  5
E90
330
E7E
100
AcDbEntity
  8
DIMENSION
440
 16777216
370
     0
100
AcDbLine
 10
173.4021821110862
 20
-36.21387516275991
 30
0.0
 11
173.4021821110862
 21
-46.2138751627599
 31
0.0
  0
LINE
  5
E91
330
E7E
100
AcDbEntity
  8
DIMENSION
440
 16777216
370
     0
100
AcDbLine
 10
233.1021821110863
 20
-36.21387516275991
 30
0.0
 11
233.1021821110863
 21
-46.2138751627599
 31
0.0
  0
LINE
  5
E92
330
E7E
100
AcDbEntity
  8
DIMENSION
440
 16777216
370
     0
100
AcDbLine
 10
173.4021821110862
 20
-41.2138751627599
 30
0.0
 11
233.1021821110863
 21
-41.2138751627599
 31
0.0
  0
MTEXT
  5
E93
330
E7E
100
AcDbEntity
  8
DIMENSION
 62
     7
440
 16777216
100
AcDbMText
 10
203.2521821110862
 20
-49.42557432710531
 30
0.0
 40
8.0
 41
0.0
 46
0.0
 71
     5
 72
     1
  1
\A1;Ø60
 73
     1
 44
1.0
  0
POINT
  5
E94
330
E7E
100
AcDbEntity
  8
Defpoints
 62
     0
440
 16777216
100
AcDbPoint
 10
173.4021821110862
 20
71.55778043001624
 30
0.0
  0
POINT
  5
E95
330
E7E
100
AcDbEntity
  8
Defpoints
 62
     0
440
 16777216
100
AcDbPoint
 10
233.1021821110863
 20
71.55778043001624
 30
0.0
  0
POINT
  5
E96
330
E7E
100
AcDbEntity
  8
Defpoints
 62
     0
440
 16777216
100
AcDbPoint
 10
233.1021821110863
 20
-41.2138751627599
 30
0.0
  0
ENDBLK
  5
E80
330
E7E
100
AcDbEntity
  8
0
 62
     7
100
AcDbBlockEnd
  0
BLOCK
  5
EA6
330
EA5
100
AcDbEntity
  8
0
 62
     7
100
AcDbBlockBegin
  2
*D29
 70
     1
 10
0.0
 20
0.0
 30
0.0
  3
*D29
  1

  0
LINE
  5
EA8
330
EA5
100
AcDbEntity
  8
DIMENSION
440
 16777216
370
     0
100
AcDbLine
 10
0.0000000000007963
 20
149.5573628452192
 30
0.0
 11
0.0000000000007969
 21
159.5573628452192
 31
0.0
  0
LINE
  5
EA9
330
EA5
100
AcDbEntity
  8
DIMENSION
440
 16777216
370
     0
100
AcDbLine
 10
11.00000000000079
 20
149.5573628452192
 30
0.0
 11
11.0000000000008
 21
159.5573628452192
 31
0.0
  0
LINE
  5
EAA
330
EA5
100
AcDbEntity
  8
DIMENSION
440
 16777216
370
     0
100
AcDbLine
 10
0.0000000000007966
 20
154.5573628452192
 30
0.0
 11
11.00000000000079
 21
154.5573628452192
 31
0.0
  0
LINE
  5
EAB
330
EA5
100
AcDbEntity
  8
DIMENSION
440
 16777216
370
     0
100
AcDbLine
 10
11.00000000000079
 20
154.5573628452192
 30
0.0
 11
33.06963788300915
 21
154.5573628452192
 31
0.0
  0
MTEXT
  5
EAC
330
EA5
100
AcDbEntity
  8
DIMENSION
 62
     7
440
 16777216
100
AcDbMText
 10
24.53481894150498
 20
162.5573628452192
 30
0.0
 40
8.0
 41
0.0
 46
0.0
 71
     5
 72
     1
  1
\A1;11
 73
     1
 44
1.0
  0
POINT
  5
EAD
330
EA5
100
AcDbEntity
  8
Defpoints
 62
     0
440
 16777216
100
AcDbPoint
 10
0.0000000000007958
 20
142.0
 30
0.0
  0
POINT
  5
EAE
330
EA5
100
AcDbEntity
  8
Defpoints
 62
     0
440
 16777216
100
AcDbPoint
 10
11.00000000000079
 20
141.5
 30
0.0
  0
POINT
  5
EAF
330
EA5
100
AcDbEntity
  8
Defpoints
 62
     0
440
 16777216
100
AcDbPoint
 10
11.00000000000079
 20
154.5573628452192
 30
0.0
  0
ENDBLK
  5
EA7
330
EA5
100
AcDbEntity
  8
0
 62
     7
100
AcDbBlockEnd
  0
BLOCK
  5
EC9
330
EC8
100
AcDbEntity
  8
0
 62
     7
100
AcDbBlockBegin
  2
*D30
 70
     1
 10
0.0
 20
0.0
 30
0.0
  3
*D30
  1

  0
LINE
  5
ED4
330
EC8
100
AcDbEntity
  8
DIMENSION
440
 16777216
370
     0
100
AcDbLine
 10
14.50000000002035
 20
173.6123918830293
 30
0.0
 11
14.50000000002035
 21
183.6123918830293
 31
0.0
  0
LINE
  5
ED5
330
EC8
100
AcDbEntity
  8
DIMENSION
440
 16777216
370
     0
100
AcDbLine
 10
0.0000000000007977
 20
173.6123918830293
 30
0.0
 11
0.0000000000007984
 21
183.6123918830293
 31
0.0
  0
LINE
  5
ED6
330
EC8
100
AcDbEntity
  8
DIMENSION
440
 16777216
370
     0
100
AcDbLine
 10
0.000000000000798
 20
178.6123918830293
 30
0.0
 11
14.50000000002035
 21
178.6123918830293
 31
0.0
  0
LINE
  5
ED7
330
EC8
100
AcDbEntity
  8
DIMENSION
440
 16777216
370
     0
100
AcDbLine
 10
14.50000000002035
 20
178.6123918830293
 30
0.0
 11
38.29665738163595
 21
178.6123918830293
 31
0.0
  0
MTEXT
  5
ED8
330
EC8
100
AcDbEntity
  8
DIMENSION
 62
     7
440
 16777216
100
AcDbMText
 10
28.89832869082815
 20
186.718241465202
 30
0.0
 40
8.0
 41
0.0
 46
0.0
 71
     5
 72
     1
  1
\A1;15
 73
     1
 44
1.0
  0
POINT
  5
ED9
330
EC8
100
AcDbEntity
  8
Defpoints
 62
     0
440
 16777216
100
AcDbPoint
 10
14.50000000002035
 20
103.9500000000001
 30
0.0
  0
POINT
  5
EDA
330
EC8
100
AcDbEntity
  8
Defpoints
 62
     0
440
 16777216
100
AcDbPoint
 10
0.0000000000007958
 20
142.0
 30
0.0
  0
POINT
  5
EDB
330
EC8
100
AcDbEntity
  8
Defpoints
 62
     0
440
 16777216
100
AcDbPoint
 10
0.000000000000798
 20
178.6123918830293
 30
0.0
  0
ENDBLK
  5
ECA
330
EC8
100
AcDbEntity
  8
0
 62
     7
100
AcDbBlockEnd
  0
ENDSEC
  0
SECTION
  2
ENTITIES
  0
CIRCLE
  5
DF5
330
1F
100
AcDbEntity
  8
OBJECTS
 48
25.0
100
AcDbCircle
 10
203.2521821110862
 20
71.55778043001624
 30
0.0
 40
25.95000000000001
  0
CIRCLE
  5
DF6
330
1F
100
AcDbEntity
  8
OBJECTS
 48
25.0
100
AcDbCircle
 10
121.7521821110863
 20
71.55778043001624
 30
0.0
 40
32.05
  0
CIRCLE
  5
DF7
102
{ACAD_REACTORS
330
E59
330
E88
102
}
330
1F
100
AcDbEntity
  8
OBJECTS
 48
25.0
100
AcDbCircle
 10
203.2521821110862
 20
71.55778043001624
 30
0.0
 40
29.85
  0
CIRCLE
  5
DF8
330
1F
100
AcDbEntity
  8
OBJECTS
 48
25.0
100
AcDbCircle
 10
203.2521821110862
 20
71.55778043001624
 30
0.0
 40
26.85
  0
CIRCLE
  5
DF9
102
{ACAD_REACTORS
330
E59
330
E6A
102
}
330
1F
100
AcDbEntity
  8
OBJECTS
 48
25.0
100
AcDbCircle
 10
121.7521821110863
 20
71.55778043001624
 30
0.0
 40
35.95000000000001
  0
CIRCLE
  5
DFA
330
1F
100
AcDbEntity
  8
OBJECTS
 48
25.0
100
AcDbCircle
 10
121.7521821110863
 20
71.55778043001624
 30
0.0
 40
32.95
  0
ARC
  5
DFB
330
1F
100
AcDbEntity
  8
OBJECTS
 48
25.0
100
AcDbCircle
 10
56.25218211108625
 20
139.5577804300162
 30
0.0
 40
3.000000000000024
100
AcDbArc
 50
90.0
 51
180.0
  0
LINE
  5
DFC
330
1F
100
AcDbEntity
  8
OBJECTS
 48
25.0
100
AcDbLine
 10
53.25218211108623
 20
139.5577804300162
 30
0.0
 11
53.25218211108631
 21
3.557780430016123
 31
0.0
  0
ARC
  5
DFD
330
1F
100
AcDbEntity
  8
OBJECTS
 48
25.0
100
AcDbCircle
 10
56.25218211108634
 20
3.557780430016237
 30
0.0
 40
3.000000000000024
100
AcDbArc
 50
180.0
 51
270.0
  0
LINE
  5
DFE
330
1F
100
AcDbEntity
  8
OBJECTS
 48
25.0
100
AcDbLine
 10
56.25218211108631
 20
0.5577804300161234
 30
0.0
 11
262.2521821110863
 21
0.5577804300163507
 31
0.0
  0
ARC
  5
DFF
330
1F
100
AcDbEntity
  8
OBJECTS
 48
25.0
100
AcDbCircle
 10
262.2521821110863
 20
3.55778043001635
 30
0.0
 40
3.000000000000024
100
AcDbArc
 50
270.0
 51
0.0
  0
LINE
  5
E00
330
1F
100
AcDbEntity
  8
OBJECTS
 48
25.0
100
AcDbLine
 10
265.2521821110864
 20
3.557780430016237
 30
0.0
 11
265.2521821110862
 21
139.5577804300163
 31
0.0
  0
ARC
  5
E01
330
1F
100
AcDbEntity
  8
OBJECTS
 48
25.0
100
AcDbCircle
 10
262.2521821110863
 20
139.5577804300163
 30
0.0
 40
3.000000000000024
100
AcDbArc
 50
0.0
 51
89.99999999999836
  0
LINE
  5
E02
330
1F
100
AcDbEntity
  8
OBJECTS
 48
25.0
100
AcDbLine
 10
262.2521821110863
 20
142.5577804300163
 30
0.0
 11
56.25218211108625
 21
142.5577804300161
 31
0.0
  0
LINE
  5
E03
330
1F
100
AcDbEntity
  8
OBJECTS
 48
25.0
100
AcDbLine
 10
172.4690969274356
 20
177.3979007697511
 30
0.0
 11
232.1690969274357
 21
177.3979007697511
 31
0.0
  0
LINE
  5
E04
330
1F
100
AcDbEntity
  8
OBJECTS
 48
25.0
100
AcDbLine
 10
229.1690969274356
 20
176.3059900669525
 30
0.0
 11
175.4690969274356
 21
176.3059900669525
 31
0.0
  0
LINE
  5
E05
330
1F
100
AcDbEntity
  8
OBJECTS
 48
25.0
100
AcDbLine
 10
175.4690969274356
 20
176.3059900669525
 30
0.0
 11
172.4690969274356
 21
177.3979007697511
 31
0.0
  0
LINE
  5
E06
330
1F
100
AcDbEntity
  8
OBJECTS
 48
25.0
100
AcDbLine
 10
229.1690969274356
 20
176.3059900669525
 30
0.0
 11
232.1690969274357
 21
177.3979007697511
 31
0.0
  0
LINE
  5
E07
330
1F
100
AcDbEntity
  8
OBJECTS
 48
25.0
100
AcDbLine
 10
84.86909692743562
 20
177.3979007697511
 30
0.0
 11
156.7690969274356
 21
177.3979007697511
 31
0.0
  0
LINE
  5
E08
330
1F
100
AcDbEntity
  8
OBJECTS
 48
25.0
100
AcDbLine
 10
153.7690969274356
 20
176.3059900669525
 30
0.0
 11
87.86909692743565
 21
176.3059900669525
 31
0.0
  0
LINE
  5
E09
330
1F
100
AcDbEntity
  8
OBJECTS
 48
25.0
100
AcDbLine
 10
87.86909692743565
 20
176.3059900669525
 30
0.0
 11
84.86909692743562
 21
177.3979007697511
 31
0.0
  0
LINE
  5
E0A
330
1F
100
AcDbEntity
  8
OBJECTS
 48
25.0
100
AcDbLine
 10
153.7690969274356
 20
176.3059900669525
 30
0.0
 11
156.7690969274356
 21
177.3979007697511
 31
0.0
  0
ARC
  5
E0B
330
1F
100
AcDbEntity
  8
OBJECTS
 48
25.0
100
AcDbCircle
 10
52.81909692743558
 20
180.3059900669726
 30
0.0
 40
0.5000000000000071
100
AcDbArc
 50
180.0
 51
270.0
  0
LINE
  5
E0C
330
1F
100
AcDbEntity
  8
OBJECTS
 48
25.0
100
AcDbLine
 10
55.31909692743555
 20
179.8059900669734
 30
0.0
 11
52.81909692743558
 21
179.8059900669726
 31
0.0
  0
ARC
  5
E0D
330
1F
100
AcDbEntity
  8
OBJECTS
 48
25.0
100
AcDbCircle
 10
263.8190969274355
 20
180.3059900669726
 30
0.0
 40
0.5000000000000071
100
AcDbArc
 50
270.0
 51
0.0
  0
LINE
  5
E0E
330
1F
100
AcDbEntity
  8
OBJECTS
 48
25.0
100
AcDbLine
 10
263.8190969274355
 20
179.8059900669726
 30
0.0
 11
261.3190969274355
 21
179.8059900669734
 31
0.0
  0
LINE
  5
E0F
330
1F
100
AcDbEntity
  8
OBJECTS
 48
25.0
100
AcDbLine
 10
55.31909692743558
 20
179.8059900669734
 30
0.0
 11
261.3190969274355
 21
179.8059900669734
 31
0.0
  0
LINE
  5
E10
330
1F
100
AcDbEntity
  8
OBJECTS
 48
25.0
100
AcDbLine
 10
52.31909692743556
 20
190.8059900669727
 30
0.0
 11
52.31909692743556
 21
180.3059900669726
 31
0.0
  0
LINE
  5
E11
102
{ACAD_REACTORS
330
E39
102
}
330
1F
100
AcDbEntity
  8
OBJECTS
 48
25.0
100
AcDbLine
 10
55.31909692743558
 20
190.8059900669736
 30
0.0
 11
52.31909692743556
 21
190.8059900669727
 31
0.0
  0
LINE
  5
E12
330
1F
100
AcDbEntity
  8
OBJECTS
 48
25.0
100
AcDbLine
 10
264.3190969274356
 20
190.8059900669727
 30
0.0
 11
264.3190969274356
 21
180.3059900669726
 31
0.0
  0
LINE
  5
E13
102
{ACAD_REACTORS
330
E39
102
}
330
1F
100
AcDbEntity
  8
OBJECTS
 48
25.0
100
AcDbLine
 10
264.3190969274356
 20
190.8059900669727
 30
0.0
 11
261.3190969274355
 21
190.8059900669736
 31
0.0
  0
LINE
  5
E14
330
1F
100
AcDbEntity
  8
OBJECTS
 48
25.0
100
AcDbLine
 10
55.31909692743558
 20
190.8059900669736
 30
0.0
 11
261.3190969274355
 21
190.8059900669736
 31
0.0
  0
LINE
  5
E15
330
1F
100
AcDbEntity
  8
OBJECTS
 48
25.0
100
AcDbLine
 10
232.1690969274357
 20
179.8059900669525
 30
0.0
 11
232.1690969274357
 21
177.3979007697511
 31
0.0
  0
LINE
  5
E16
330
1F
100
AcDbEntity
  8
OBJECTS
 48
25.0
100
AcDbLine
 10
172.4690969274356
 20
179.8059900669525
 30
0.0
 11
172.4690969274356
 21
177.3979007697511
 31
0.0
  0
LINE
  5
E17
330
1F
100
AcDbEntity
  8
OBJECTS
 48
25.0
100
AcDbLine
 10
156.7690969274356
 20
179.8059900669525
 30
0.0
 11
156.7690969274356
 21
177.3979007697511
 31
0.0
  0
LINE
  5
E18
330
1F
100
AcDbEntity
  8
OBJECTS
 48
25.0
100
AcDbLine
 10
84.86909692743562
 20
179.8059900669525
 30
0.0
 11
84.86909692743562
 21
177.3979007697511
 31
0.0
  0
LINE
  5
E19
330
1F
100
AcDbEntity
  8
OBJECTS
 48
25.0
100
AcDbLine
 10
13.40808929722163
 20
35.05000000000018
 30
0.0
 11
13.40808929722163
 21
106.95
 31
0.0
  0
LINE
  5
E1A
330
1F
100
AcDbEntity
  8
OBJECTS
 48
25.0
100
AcDbLine
 10
14.50000000002035
 20
103.9500000000001
 30
0.0
 11
14.50000000002035
 21
38.05000000000007
 31
0.0
  0
LINE
  5
E1B
330
1F
100
AcDbEntity
  8
OBJECTS
 48
25.0
100
AcDbLine
 10
14.50000000002035
 20
38.05000000000007
 30
0.0
 11
13.40808929722163
 21
35.05000000000018
 31
0.0
  0
LINE
  5
E1C
102
{ACAD_REACTORS
330
ED3
102
}
330
1F
100
AcDbEntity
  8
OBJECTS
 48
25.0
100
AcDbLine
 10
14.50000000002035
 20
103.9500000000001
 30
0.0
 11
13.40808929722163
 21
106.95
 31
0.0
  0
ARC
  5
E1D
102
{ACAD_REACTORS
330
EB0
102
}
330
1F
100
AcDbEntity
  8
OBJECTS
 48
25.0
100
AcDbCircle
 10
10.50000000000079
 20
141.5000000000001
 30
0.0
 40
0.5000000000000027
100
AcDbArc
 50
0.0
 51
90.0
  0
LINE
  5
E1E
102
{ACAD_REACTORS
330
EB0
102
}
330
1F
100
AcDbEntity
  8
OBJECTS
 48
25.0
100
AcDbLine
 10
11.00000000000079
 20
141.5000000000001
 30
0.0
 11
11.00000000000011
 21
139.0000000000001
 31
0.0
  0
LINE
  5
E1F
330
1F
100
AcDbEntity
  8
OBJECTS
 48
25.0
100
AcDbLine
 10
11.00000000000011
 20
3.000000000000113
 30
0.0
 11
11.00000000000011
 21
139.0000000000001
 31
0.0
  0
ARC
  5
E20
330
1F
100
AcDbEntity
  8
OBJECTS
 48
25.0
100
AcDbCircle
 10
10.50000000000079
 20
0.5
 30
0.0
 40
0.4999999999999983
100
AcDbArc
 50
270.0
 51
0.0
  0
LINE
  5
E21
330
1F
100
AcDbEntity
  8
OBJECTS
 48
25.0
100
AcDbLine
 10
11.00000000000011
 20
3.000000000000113
 30
0.0
 11
11.00000000000079
 21
0.5000000000001137
 31
0.0
  0
LINE
  5
E22
330
1F
100
AcDbEntity
  8
OBJECTS
 48
25.0
100
AcDbLine
 10
0.0000000000007958
 20
0.0
 30
0.0
 11
10.50000000000079
 21
0.0
 31
0.0
  0
LINE
  5
E23
102
{ACAD_REACTORS
330
E49
102
}
330
1F
100
AcDbEntity
  8
OBJECTS
 48
25.0
100
AcDbLine
 10
0.0
 20
3.0
 30
0.0
 11
0.0000000000007958
 21
0.0
 31
0.0
  0
LINE
  5
E24
330
1F
100
AcDbEntity
  8
OBJECTS
 48
25.0
100
AcDbLine
 10
0.0
 20
3.0
 30
0.0
 11
0.0
 21
139.0000000000001
 31
0.0
  0
LINE
  5
E25
330
1F
100
AcDbEntity
  8
OBJECTS
 48
25.0
100
AcDbLine
 10
0.0000000000007958
 20
142.0
 30
0.0
 11
10.50000000000079
 21
142.0
 31
0.0
  0
LINE
  5
E26
102
{ACAD_REACTORS
330
E49
102
}
330
1F
100
AcDbEntity
  8
OBJECTS
 48
25.0
100
AcDbLine
 10
0.0000000000007958
 20
142.0
 30
0.0
 11
0.0
 21
139.0000000000001
 31
0.0
  0
LINE
  5
E27
330
1F
100
AcDbEntity
  8
OBJECTS
 48
25.0
100
AcDbLine
 10
11.00000000002023
 20
106.95
 30
0.0
 11
13.40808929722163
 21
106.95
 31
0.0
  0
LINE
  5
E28
330
1F
100
AcDbEntity
  8
OBJECTS
 48
25.0
100
AcDbLine
 10
11.00000000002023
 20
35.05000000000018
 30
0.0
 11
13.40808929722163
 21
35.05000000000018
 31
0.0
  0
DIMENSION
  5
E2A
102
{ACAD_XDICTIONARY
360
E2B
102
}
102
{ACAD_REACTORS
330
E39
102
}
330
1F
100
AcDbEntity
  8
DIMENSION
 62
     7
100
AcDbDimension
280
     0
  2
*D24
 10
264.3190969274356
 20
209.2992518250271
 30
0.0
 11
158.3190969274355
 21
217.2992518250271
 31
0.0
 70
    32
 71
     5
 42
212.0
 73
     0
 74
     0
 75
     0
  3
RG Dimension Lines
100
AcDbAlignedDimension
 13
52.31909692743556
 23
190.8059900669727
 33
0.0
 14
264.3190969274356
 24
190.8059900669727
 34
0.0
100
AcDbRotatedDimension
1001
AcadAnnotative
1000
AnnotativeData
1002
{
1070
     1
1070
     1
1002
}
  0
DIMENSION
  5
E3A
102
{ACAD_XDICTIONARY
360
E3B
102
}
102
{ACAD_REACTORS
330
E49
102
}
330
1F
100
AcDbEntity
  8
DIMENSION
 62
     7
100
AcDbDimension
280
     0
  2
*D25
 10
-17.29943497413661
 20
142.0
 30
0.0
 11
-29.7562594866714
 21
71.00000000000001
 31
0.0
 70
    32
 71
     5
 42
142.0
 73
     0
 74
     0
 75
     0
  3
RG Dimension Lines
100
AcDbAlignedDimension
 13
0.0
 23
0.0
 33
0.0
 14
0.0000000000007958
 24
142.0
 34
0.0
 50
90.0
100
AcDbRotatedDimension
1001
AcadAnnotative
1000
AnnotativeData
1002
{
1070
     1
1070
     1
1002
}
  0
DIMENSION
  5
E4A
102
{ACAD_XDICTIONARY
360
E4B
102
}
102
{ACAD_REACTORS
330
E59
102
}
330
1F
100
AcDbEntity
  8
DIMENSION
 62
     7
100
AcDbDimension
280
     0
  2
*D26
 10
203.2521821110862
 20
-17.11011352939294
 30
0.0
 11
162.5021821110862
 21
-25.21596311156565
 31
0.0
 70
    32
 71
     5
 42
81.49999999999996
 73
     0
 74
     0
 75
     0
  3
RG Dimension Lines
100
AcDbAlignedDimension
 13
121.7521821110863
 23
35.60778043001624
 33
0.0
 14
203.2521821110862
 24
41.70778043001623
 34
0.0
100
AcDbRotatedDimension
1001
AcadAnnotative
1000
AnnotativeData
1002
{
1070
     1
1070
     1
1002
}
  0
DIMENSION
  5
E5B
102
{ACAD_XDICTIONARY
360
E5C
102
}
102
{ACAD_REACTORS
330
E6A
102
}
330
1F
100
AcDbEntity
  8
DIMENSION
 62
     7
100
AcDbDimension
280
     0
  2
*D27
 10
157.7021821110863
 20
-41.2138751627599
 30
0.0
 11
121.7521821110863
 21
-49.42557432710531
 31
0.0
 70
    32
 71
     5
 42
71.90000000000002
 73
     0
 74
     0
 75
     0
  3
RG Dimension Lines
100
AcDbAlignedDimension
 13
85.80218211108627
 23
71.55778043001624
 33
0.0
 14
157.7021821110863
 24
71.55778043001624
 34
0.0
100
AcDbRotatedDimension
1001
AcadAnnotative
1000
AnnotativeData
1002
{
1070
     1
1070
     1
1002
}
1001
ACAD
1000
DSTYLE
1002
{
1070
     3
1000
Ø<>
1002
}
  0
DIMENSION
  5
E79
102
{ACAD_XDICTIONARY
360
E7A
102
}
102
{ACAD_REACTORS
330
E88
102
}
330
1F
100
AcDbEntity
  8
DIMENSION
 62
     7
100
AcDbDimension
280
     0
  2
*D28
 10
233.1021821110863
 20
-41.2138751627599
 30
0.0
 11
203.2521821110862
 21
-49.42557432710531
 31
0.0
 70
    32
 71
     5
 42
59.69999999999998
 73
     0
 74
     0
 75
     0
  3
RG Dimension Lines
100
AcDbAlignedDimension
 13
173.4021821110862
 23
71.55778043001624
 33
0.0
 14
233.1021821110863
 24
71.55778043001624
 34
0.0
100
AcDbRotatedDimension
1001
AcadAnnotative
1000
AnnotativeData
1002
{
1070
     1
1070
     1
1002
}
1001
ACAD
1000
DSTYLE
1002
{
1070
     3
1000
Ø<>
1002
}
  0
DIMENSION
  5
EA0
102
{ACAD_XDICTIONARY
360
EA1
102
}
102
{ACAD_REACTORS
330
EB0
102
}
330
1F
100
AcDbEntity
  8
DIMENSION
 62
     7
100
AcDbDimension
280
     0
  2
*D29
 10
11.00000000000079
 20
154.5573628452192
 30
0.0
 11
24.53481894150498
 21
162.5573628452192
 31
0.0
 70
    32
 71
     5
 42
11.0
 73
     0
 74
     0
 75
     0
  3
RG Dimension Lines
100
AcDbAlignedDimension
 13
0.0000000000007958
 23
142.0
 33
0.0
 14
11.00000000000079
 24
141.5
 34
0.0
100
AcDbRotatedDimension
1001
AcadAnnotative
1000
AnnotativeData
1002
{
1070
     1
1070
     1
1002
}
  0
DIMENSION
  5
EC3
102
{ACAD_XDICTIONARY
360
EC4
102
}
102
{ACAD_REACTORS
330
ED3
102
}
330
1F
100
AcDbEntity
  8
DIMENSION
 62
     7
100
AcDbDimension
280
     0
  2
*D30
 10
0.000000000000798
 20
178.6123918830293
 30
0.0
 11
28.89832869082815
 21
178.6123918830293
 31
0.0
 70
   160
 71
     5
 42
14.50000000001955
 73
     0
 74
     0
 75
     0
  3
RG Dimension Lines
100
AcDbAlignedDimension
 13
14.50000000002035
 23
103.9500000000001
 33
0.0
 14
0.0000000000007958
 24
142.0
 34
0.0
100
AcDbRotatedDimension
1001
AcadAnnotative
1000
AnnotativeData
1002
{
1070
     1
1070
     1
1002
}
  0
VIEWPORT
  5
4F4
102
{ACAD_XDICTIONARY
360
4F5
102
}
330
4ED
100
AcDbEntity
 67
     1
  8
0
100
AcDbViewport
 10
59.99999999999999
 20
45.62195677911125
 30
0.0
 40
182.9078573311613
 41
96.46713461578604
 68
     1
 69
     1
 12
59.99999999999999
 22
45.62195677911125
 13
0.0
 23
0.0
 14
10.0
 24
10.0
 15
10.0
 25
10.0
 16
0.0
 26
0.0
 36
1.0
 17
0.0
 27
0.0
 37
0.0
 42
50.0
 43
0.0
 44
0.0
 45
96.46713461578604
 50
0.0
 51
0.0
 72
  1000
 90
   819232
  1

281
     0
 71
     1
 74
     0
110
0.0
120
0.0
130
0.0
111
1.0
121
0.0
131
0.0
112
0.0
122
1.0
132
0.0
 79
     0
146
0.0
170
     0
 61
     5
348
F5
292
     1
282
     1
141
0.0
142
0.0
 63
   250
421
  3355443
  0
VIEWPORT
  5
4F8
102
{ACAD_XDICTIONARY
360
4F9
102
}
330
4ED
100
AcDbEntity
 67
     1
  8
0
100
AcDbViewport
 10
59.80176845453446
 20
44.86793340353162
 30
0.0
 40
115.0
 41
85.16367
 68
     2
 69
     2
 12
2298.838443018999
 22
1342.95630387494
 13
0.0
 23
0.0
 14
10.0
 24
10.0
 15
10.0
 25
10.0
 16
0.0
 26
0.0
 36
1.0
 17
0.0
 27
0.0
 37
0.0
 42
50.0
 43
0.0
 44
0.0
 45
1578.695211197358
 50
0.0
 51
0.0
 72
  1000
 90
   819296
  1

281
     0
 71
     1
 74
     0
110
0.0
120
0.0
130
0.0
111
1.0
121
0.0
131
0.0
112
0.0
122
1.0
132
0.0
 79
     0
146
0.0
170
     0
 61
     5
348
F5
292
     1
282
     1
141
0.0
142
0.0
 63
   250
421
  3355443
  0
ENDSEC
  0
SECTION
  2
OBJECTS
  0
DICTIONARY
  5
C
330
0
100
AcDbDictionary
281
     1
  3
ACAD_ASSOCPERSSUBENTMANAGER
350
50A
  3
ACAD_CIP_PREVIOUS_PRODUCT_INFO
350
216
  3
ACAD_COLOR
350
6B
  3
ACAD_DETAILVIEWSTYLE
350
21B
  3
ACAD_FLATSHOT
350
3BA
  3
ACAD_GROUP
350
D
  3
ACAD_LAYOUT
350
1A
  3
ACAD_MATERIAL
350
6A
  3
ACAD_MLEADERSTYLE
350
12D
  3
ACAD_MLINESTYLE
350
17
  3
ACAD_PLOTSETTINGS
350
19
  3
ACAD_PLOTSTYLENAME
350
E
  3
ACAD_RENDER_ACTIVE_RAPIDRT_SETTINGS
350
2A7
  3
ACAD_RENDER_RAPIDRT_SETTINGS
350
2A0
  3
ACAD_SCALELIST
350
10C
  3
ACAD_SECTIONVIEWSTYLE
350
219
  3
ACAD_TABLESTYLE
350
7E
  3
ACAD_VISUALSTYLE
350
EF
  3
ACDB_RECOMPOSE_DATA
350
EE4
  3
AcDbVariableDictionary
350
5E
  0
DICTIONARY
  5
1FF
330
2
100
AcDbDictionary
280
     1
281
     1
  3
ACAD_LAYERSTATES
360
200
  0
DICTIONARY
  5
13C
330
10
100
AcDbDictionary
280
     1
281
     1
  0
DICTIONARY
  5
C16
330
C15
100
AcDbDictionary
280
     1
281
     1
  0
DICTIONARY
  5
C18
330
C17
100
AcDbDictionary
280
     1
281
     1
  0
DICTIONARY
  5
1CE
330
1F
100
AcDbDictionary
280
     1
281
     1
  0
DICTIONARY
  5
D33
330
D2D
100
AcDbDictionary
280
     1
281
     1
  0
DICTIONARY
  5
D2F
330
D2E
100
AcDbDictionary
280
     1
281
     1
  3
AcDbContextDataManager
360
D30
  0
DICTIONARY
  5
E2B
330
E2A
100
AcDbDictionary
280
     1
281
     1
  3
ACAD_DIMASSOC
360
E39
  3
AcDbContextDataManager
360
E2C
  0
DICTIONARY
  5
E3B
330
E3A
100
AcDbDictionary
280
     1
281
     1
  3
ACAD_DIMASSOC
360
E49
  3
AcDbContextDataManager
360
E3C
  0
DICTIONARY
  5
E4B
330
E4A
100
AcDbDictionary
280
     1
281
     1
  3
ACAD_DIMASSOC
360
E59
  3
AcDbContextDataManager
360
E4C
  0
DICTIONARY
  5
E5C
330
E5B
100
AcDbDictionary
280
     1
281
     1
  3
ACAD_DIMASSOC
360
E6A
  3
AcDbContextDataManager
360
E5D
  0
DICTIONARY
  5
E7A
330
E79
100
AcDbDictionary
280
     1
281
     1
  3
ACAD_DIMASSOC
360
E88
  3
AcDbContextDataManager
360
E7B
  0
DICTIONARY
  5
EA1
330
EA0
100
AcDbDictionary
280
     1
281
     1
  3
ACAD_DIMASSOC
360
EB0
  3
AcDbContextDataManager
360
EA2
  0
DICTIONARY
  5
EC4
330
EC3
100
AcDbDictionary
280
     1
281
     1
  3
ACAD_DIMASSOC
360
ED3
  3
AcDbContextDataManager
360
EC5
  0
DICTIONARY
  5
4F5
330
4F4
100
AcDbDictionary
280
     1
281
     1
  3
ASDK_XREC_ANNOTATION_SCALE_INFO
360
4F6
  0
DICTIONARY
  5
4F9
330
4F8
100
AcDbDictionary
280
     1
281
     1
  3
ASDK_XREC_ANNOTATION_SCALE_INFO
360
4FA
  0
ACDBASSOCPERSSUBENTMANAGER
  5
50A
102
{ACAD_REACTORS
330
C
102
}
330
C
100
AcDbAssocPersSubentManager
 90
        2
 90
        3
 90
        0
 90
        2
 90
       13
 90
        0
 90
       13
 90
        1
 90
        2
 90
        3
 90
        4
 90
        5
 90
        6
 90
        7
 90
        8
 90
        9
 90
       10
 90
       11
 90
       12
 90
       13
 90
        0
 90
        0
290
     0
  0
XRECORD
  5
216
102
{ACAD_REACTORS
330
C
102
}
330
C
100
AcDbXrecord
280
     1
300
ACD
300
2021
300

  0
DICTIONARY
  5
6B
102
{ACAD_REACTORS
330
C
102
}
330
C
100
AcDbDictionary
281
     1
  0
DICTIONARY
  5
21B
102
{ACAD_REACTORS
330
C
102
}
330
C
100
AcDbDictionary
281
     1
  3
Imperial24
350
2BC
  3
Metric50
350
21C
  0
XRECORD
  5
3BA
102
{ACAD_REACTORS
330
C
102
}
330
C
100
AcDbXrecord
280
     1
 71
     0
  0
DICTIONARY
  5
D
102
{ACAD_REACTORS
330
C
102
}
330
C
100
AcDbDictionary
281
     1
  0
DICTIONARY
  5
1A
102
{ACAD_REACTORS
330
C
102
}
330
C
100
AcDbDictionary
281
     1
  3
Layout1
350
4EE
  3
Model
350
22
  0
DICTIONARY
  5
6A
102
{ACAD_REACTORS
330
C
102
}
330
C
100
AcDbDictionary
281
     1
  3
ByBlock
350
ED
  3
ByLayer
350
EC
  3
Global
350
EE
  0
DICTIONARY
  5
12D
102
{ACAD_REACTORS
330
C
102
}
330
C
100
AcDbDictionary
281
     1
  3
Annotative
350
13B
  3
Standard
350
12E
  0
DICTIONARY
  5
17
102
{ACAD_REACTORS
330
C
102
}
330
C
100
AcDbDictionary
281
     1
  3
Standard
350
18
  0
DICTIONARY
  5
19
102
{ACAD_REACTORS
330
C
102
}
330
C
100
AcDbDictionary
281
     1
  0
ACDBDICTIONARYWDFLT
  5
E
102
{ACAD_REACTORS
330
C
102
}
330
C
100
AcDbDictionary
281
     1
  3
Normal
350
F
100
AcDbDictionaryWithDefault
340
F
  0
ACAD_PROXY_OBJECT
  5
2A7
102
{ACAD_REACTORS
330
C
102
}
330
C
100
AcDbProxyObject
 90
      499
 91
      517
 71
    33
 97
      174
 70
     0
162
               534
311
419340194019001A401D401B4024690401C001C001B001A4019401CC008000D4008001C8019401B80190019401C801A401B8019C008001B0019401D8019401B001CC00
161
               201
310
40AE40E4150140502000000000000021000000000000000840CC
 94
        0
  0
DICTIONARY
  5
2A0
102
{ACAD_REACTORS
330
C
102
}
330
C
100
AcDbDictionary
281
     1
  3
Coffee-Break Quality
350
2A4
  3
High
350
2A3
  3
Low
350
2A1
  3
Lunch Quality
350
2A5
  3
Medium
350
2A2
  3
Overnight Quality
350
2A6
  0
DICTIONARY
  5
10C
102
{ACAD_REACTORS
330
C
102
}
330
C
100
AcDbDictionary
281
     1
  3
A0
350
10D
  3
A1
350
1BE
  3
A2
350
1BF
  3
A3
350
1C0
  3
A4
350
1C1
  3
A5
350
1C2
  3
A6
350
1C3
  3
A7
350
1C4
  3
A8
350
1C5
  3
A9
350
1C6
  3
B0
350
1C7
  3
B1
350
1C8
  3
B2
350
1C9
  3
B3
350
1CA
  3
B4
350
1CB
  3
B5
350
1CC
  3
B6
350
1CD
  0
DICTIONARY
  5
219
102
{ACAD_REACTORS
330
C
102
}
330
C
100
AcDbDictionary
281
     1
  3
Imperial24
350
2BB
  3
Metric50
350
21A
  0
DICTIONARY
  5
7E
102
{ACAD_REACTORS
330
C
102
}
330
C
100
AcDbDictionary
281
     1
  3
Standard
350
7F
  0
DICTIONARY
  5
EF
102
{ACAD_REACTORS
330
C
102
}
330
C
100
AcDbDictionary
281
     1
  3
2dWireframe
350
F5
  3
Basic
350
F4
  3
Brighten
350
FB
  3
ColorChange
350
FF
  3
Conceptual
350
F8
  3
Dim
350
FA
  3
EdgeColorOff
350
1E6
  3
Facepattern
350
FE
  3
Flat
350
F0
  3
FlatWithEdges
350
F1
  3
Gouraud
350
F2
  3
GouraudWithEdges
350
F3
  3
Hidden
350
F7
  3
JitterOff
350
1E4
  3
Linepattern
350
FD
  3
OverhangOff
350
1E5
  3
Realistic
350
F9
  3
Shaded
350
1F3
  3
Shaded with edges
350
1F2
  3
Shades of Gray
350
1EF
  3
Sketchy
350
1F0
  3
Thicken
350
FC
  3
Wireframe
350
F6
  3
X-Ray
350
1F1
  0
XRECORD
  5
EE4
102
{ACAD_REACTORS
330
C
102
}
330
C
100
AcDbXrecord
280
     1
 90
        1
330
7F
  0
DICTIONARY
  5
5E
102
{ACAD_REACTORS
330
C
102
}
330
C
100
AcDbDictionary
281
     1
  3
CANNOSCALE
350
146
  3
CENTEREXE
350
259
  3
CENTERLTYPEFILE
350
25A
  3
CMLEADERSTYLE
350
145
  3
CTABLESTYLE
350
84
  3
CVIEWDETAILSTYLE
350
227
  3
CVIEWSECTIONSTYLE
350
228
  3
DIMASSOC
350
5F
  3
HIDETEXT
350
63
  3
LAYEREVAL
350
1AE
  3
LAYERNOTIFY
350
1AF
  0
DICTIONARY
  5
200
102
{ACAD_REACTORS
330
1FF
102
}
330
1FF
100
AcDbDictionary
281
     1
  0
DICTIONARY
  5
D30
102
{ACAD_REACTORS
330
D2F
102
}
330
D2F
100
AcDbDictionary
281
     1
  3
ACDB_ANNOTATIONSCALES
350
D31
  0
DIMASSOC
  5
E39
102
{ACAD_REACTORS
330
E2B
102
}
330
E2B
100
AcDbDimAssoc
330
E2A
 90
        3
 70
     0
 71
     0
  1
AcDbOsnapPointRef
 72
     1
331
E11
 73
     2
 91
        0
 40
1.0
 10
52.31909692743556
 20
190.8059900669727
 30
0.0
 75
     0
  1
AcDbOsnapPointRef
 72
    13
331
E13
 73
     2
 91
        0
 40
0.0
 10
264.3190969274356
 20
190.8059900669727
 30
0.0
 75
     0
  0
DICTIONARY
  5
E2C
102
{ACAD_REACTORS
330
E2B
102
}
330
E2B
100
AcDbDictionary
281
     1
  3
ACDB_ANNOTATIONSCALES
350
E2D
  0
DIMASSOC
  5
E49
102
{ACAD_REACTORS
330
E3B
102
}
330
E3B
100
AcDbDimAssoc
330
E3A
 90
        3
 70
     0
 71
     0
  1
AcDbOsnapPointRef
 72
     1
331
E23
 73
     2
 91
        0
 40
1.0
 10
0.0000000000007958
 20
0.0
 30
0.0
 75
     0
  1
AcDbOsnapPointRef
 72
    13
331
E26
 73
     2
 91
        0
 40
0.0
 10
0.0000000000007958
 20
142.0
 30
0.0
 75
     0
  0
DICTIONARY
  5
E3C
102
{ACAD_REACTORS
330
E3B
102
}
330
E3B
100
AcDbDictionary
281
     1
  3
ACDB_ANNOTATIONSCALES
350
E3D
  0
DIMASSOC
  5
E59
102
{ACAD_REACTORS
330
E4B
102
}
330
E4B
100
AcDbDimAssoc
330
E4A
 90
        3
 70
     0
 71
     0
  1
AcDbOsnapPointRef
 72
     5
331
DF9
 73
     2
 91
        0
 40
4.712388980384689
 10
121.7521821110863
 20
35.60778043001624
 30
0.0
 75
     0
  1
AcDbOsnapPointRef
 72
     5
331
DF7
 73
     2
 91
        0
 40
4.712388980384689
 10
203.2521821110862
 20
41.70778043001623
 30
0.0
 75
     0
  0
DICTIONARY
  5
E4C
102
{ACAD_REACTORS
330
E4B
102
}
330
E4B
100
AcDbDictionary
281
     1
  3
ACDB_ANNOTATIONSCALES
350
E4D
  0
DIMASSOC
  5
E6A
102
{ACAD_REACTORS
330
E5C
102
}
330
E5C
100
AcDbDimAssoc
330
E5B
 90
        3
 70
     0
 71
     0
  1
AcDbOsnapPointRef
 72
     5
331
DF9
 73
     2
 91
        0
 40
3.141592653589793
 10
85.80218211108627
 20
71.55778043001624
 30
0.0
 75
     0
  1
AcDbOsnapPointRef
 72
     5
331
DF9
 73
     2
 91
        0
 40
0.0
 10
157.7021821110863
 20
71.55778043001624
 30
0.0
 75
     0
  0
DICTIONARY
  5
E5D
102
{ACAD_REACTORS
330
E5C
102
}
330
E5C
100
AcDbDictionary
281
     1
  3
ACDB_ANNOTATIONSCALES
350
E5E
  0
DIMASSOC
  5
E88
102
{ACAD_REACTORS
330
E7A
102
}
330
E7A
100
AcDbDimAssoc
330
E79
 90
        3
 70
     0
 71
     0
  1
AcDbOsnapPointRef
 72
     5
331
DF7
 73
     2
 91
        0
 40
3.141592653589793
 10
173.4021821110862
 20
71.55778043001624
 30
0.0
 75
     0
  1
AcDbOsnapPointRef
 72
     5
331
DF7
 73
     2
 91
        0
 40
0.0
 10
233.1021821110863
 20
71.55778043001624
 30
0.0
 75
     0
  0
DICTIONARY
  5
E7B
102
{ACAD_REACTORS
330
E7A
102
}
330
E7A
100
AcDbDictionary
281
     1
  3
ACDB_ANNOTATIONSCALES
350
E7C
  0
DIMASSOC
  5
EB0
102
{ACAD_REACTORS
330
EA1
102
}
330
EA1
100
AcDbDimAssoc
330
EA0
 90
        2
 70
     0
 71
     0
  1
AcDbOsnapPointRef
 72
    11
331
E1E
 73
     2
 91
        0
 40
0.0000000000000568
 10
11.00000000000079
 20
141.5
 30
0.0
332
E1D
 74
     2
 92
        0
 75
     0
  0
DICTIONARY
  5
EA2
102
{ACAD_REACTORS
330
EA1
102
}
330
EA1
100
AcDbDictionary
281
     1
  3
ACDB_ANNOTATIONSCALES
350
EA3
  0
DIMASSOC
  5
ED3
102
{ACAD_REACTORS
330
EC4
102
}
330
EC4
100
AcDbDimAssoc
330
EC3
 90
        1
 70
     0
 71
     0
  1
AcDbOsnapPointRef
 72
    13
331
E1C
 73
     2
 91
        0
 40
0.0
 10
14.50000000002035
 20
103.9500000000001
 30
0.0
 75
     0
  0
DICTIONARY
  5
EC5
102
{ACAD_REACTORS
330
EC4
102
}
330
EC4
100
AcDbDictionary
281
     1
  3
ACDB_ANNOTATIONSCALES
350
EC6
  0
XRECORD
  5
4F6
102
{ACAD_REACTORS
330
4F5
102
}
330
4F5
100
AcDbXrecord
280
     1
 90
        1
340
10D
  0
XRECORD
  5
4FA
102
{ACAD_REACTORS
330
4F9
102
}
330
4F9
100
AcDbXrecord
280
     1
 90
        1
340
10D
  0
ACDBDETAILVIEWSTYLE
  5
2BC
102
{ACAD_REACTORS
330
21B
102
}
330
21B
100
AcDbModelDocViewStyle
 70
     0
  3
Imperial24
290
     0
300
Imperial24
 90
        0
100
AcDbDetailViewStyle
 70
     0
 71
     0
 90
        3
 71
     1
340
11
 62
   256
 40
0.24
340
0
 62
   256
 40
0.24
300

 40
0.36
280
     3
 71
     2
340
16
 90
       25
 62
   256
 71
     3
340
11
 62
   256
 40
0.24
 90
        1
 40
0.75
 90
        1
300
%<\AcVar ViewType \f "%tc1">% %<\AcVar ViewDetailId>%\PSCALE %<\AcVar ViewScale \f "%sn">%
 71
     4
340
16
 90
       25
 62
   256
340
16
 90
       25
 62
   256
280
     0
  0
ACDBDETAILVIEWSTYLE
  5
21C
102
{ACAD_REACTORS
330
21B
102
}
330
21B
100
AcDbModelDocViewStyle
 70
     0
  3
Metric50
290
     0
300
Metric50
 90
        0
100
AcDbDetailViewStyle
 70
     0
 71
     0
 90
        3
 71
     1
340
11
 62
   256
 40
5.0
340
0
 62
   256
 40
5.0
300

 40
0.0
280
     1
 71
     2
340
16
 90
       25
 62
   256
 71
     3
340
11
 62
   256
 40
5.0
 90
        0
 40
15.0
 90
        1
300
%<\AcVar ViewDetailId>% (%<\AcVar ViewScale \f "%sn">%)
 71
     4
340
16
 90
       25
 62
   256
340
16
 90
       25
 62
   256
280
     0
  0
LAYOUT
  5
4EE
102
{ACAD_REACTORS
330
1A
102
}
330
1A
100
AcDbPlotSettings
  1

  2
DWG To PDF.pc3
  4
User-1
  6

 40
0.0
 41
0.0
 42
0.0
 43
0.0
 44
90.0
 45
120.0
 46
0.0
 47
0.0
 48
0.0
 49
0.0
140
0.0
141
0.0
142
1.0
143
1.0
 70
   688
 72
     1
 73
     1
 74
     5
  7
monochrome.ctb
 75
    16
147
1.0
 76
     0
 77
     2
 78
   300
148
0.0
149
0.0
100
AcDbLayout
  1
Layout1
 70
     1
 71
     1
 10
0.0
 20
0.0
 11
120.0
 21
90.0
 12
0.0
 22
0.0
 32
0.0
 14
2.301768454534453
 24
2.286098403531624
 34
0.0
 15
117.3017684545344
 25
87.44976840353162
 35
0.0
146
0.0
 13
0.0
 23
0.0
 33
0.0
 16
1.0
 26
0.0
 36
0.0
 17
0.0
 27
1.0
 37
0.0
 76
     0
330
4ED
331
4F4
1001
ACAD_PSEXT
1000
DWG To PDF.pc3
1000
DWG To PDF
1000
File
1000

1070
     0
  0
LAYOUT
  5
22
102
{ACAD_XDICTIONARY
360
205
102
}
102
{ACAD_REACTORS
330
1A
102
}
330
1A
100
AcDbPlotSettings
  1

  2
none_device
  4
ISO_A4_(210.00_x_297.00_MM)
  6

 40
7.5
 41
20.0
 42
7.5
 43
20.0
 44
210.0
 45
297.0
 46
11.54999923706054
 47
-13.65000009536743
 48
0.0
 49
0.0
140
0.0
141
0.0
142
1.0
143
8.704084754739808
 70
 11952
 72
     1
 73
     0
 74
     0
  7

 75
     0
147
0.1148885871608098
 76
     0
 77
     2
 78
   300
148
0.0
149
0.0
100
AcDbLayout
  1
Model
 70
     1
 71
     0
 10
0.0
 20
0.0
 11
12.0
 21
9.0
 12
0.0
 22
0.0
 32
0.0
 14
0.0
 24
0.0
 34
0.0
 15
0.0
 25
0.0
 35
0.0
146
0.0
 13
0.0
 23
0.0
 33
0.0
 16
1.0
 26
0.0
 36
0.0
 17
0.0
 27
1.0
 37
0.0
 76
     0
330
1F
331
EA
1001
ACAD_PSEXT
1000
None
1000
None
1000
Not applicable
1000
The layout will not be plotted unless a new plotter configuration name is selected.
1070
     0
  0
MATERIAL
  5
ED
102
{ACAD_XDICTIONARY
360
1F9
102
}
102
{ACAD_REACTORS
330
6A
102
}
330
6A
100
AcDbMaterial
  1
ByBlock
 94
       63
  0
MATERIAL
  5
EC
102
{ACAD_XDICTIONARY
360
1F7
102
}
102
{ACAD_REACTORS
330
6A
102
}
330
6A
100
AcDbMaterial
  1
ByLayer
 94
       63
  0
MATERIAL
  5
EE
102
{ACAD_XDICTIONARY
360
173
102
}
102
{ACAD_REACTORS
330
6A
102
}
330
6A
100
AcDbMaterial
  1
Global
 43
0.0007999999797903
 43
0.0
 43
0.0
 43
0.0
 43
0.0
 43
0.0007999999797903
 43
0.0
 43
0.0
 43
0.0
 43
0.0
 43
1.0
 43
0.0
 43
0.0
 43
0.0
 43
0.0
 43
1.0
 49
0.0007999999797903
 49
0.0
 49
0.0
 49
0.0
 49
0.0
 49
0.0007999999797903
 49
0.0
 49
0.0
 49
0.0
 49
0.0
 49
1.0
 49
0.0
 49
0.0
 49
0.0
 49
0.0
 49
1.0
142
0.0007999999797903
142
0.0
142
0.0
142
0.0
142
0.0
142
0.0007999999797903
142
0.0
142
0.0
142
0.0
142
0.0
142
1.0
142
0.0
142
0.0
142
0.0
142
0.0
142
1.0
144
0.0007999999797903
144
0.0
144
0.0
144
0.0
144
0.0
144
0.0007999999797903
144
0.0
144
0.0
144
0.0
144
0.0
144
1.0
144
0.0
144
0.0
144
0.0
144
0.0
144
1.0
 94
       63
1001
ACAD
1070
    -1
1070
     3
1070
     0
1000

1071
        0
1070
     0
  0
MLEADERSTYLE
  5
13B
102
{ACAD_REACTORS
330
12D
102
}
330
12D
100
AcDbMLeaderStyle
179
     2
170
     2
171
     1
172
     0
 90
        2
 40
0.0
 41
0.0
173
     1
 91
-1056964608
340
14
 92
       -2
290
     1
 42
2.0
291
     1
 43
8.0
  3
Standard
 44
4.0
300

342
11
174
     1
178
     1
175
     1
176
     0
 93
-1056964608
 45
4.0
292
     0
297
     0
 46
4.0
 94
-1056964608
 47
1.0
 49
1.0
140
1.0
293
     1
141
0.0
294
     1
177
     0
142
1.0
295
     0
296
     1
143
3.75
271
     0
272
     9
273
     9
298
     0
  0
MLEADERSTYLE
  5
12E
102
{ACAD_REACTORS
330
12D
102
}
330
12D
100
AcDbMLeaderStyle
179
     2
170
     2
171
     1
172
     0
 90
        2
 40
0.0
 41
0.0
173
     1
 91
-1056964608
340
14
 92
       -2
290
     1
 42
2.0
291
     1
 43
8.0
  3
Standard
 44
4.0
300

342
11
174
     1
178
     1
175
     1
176
     0
 93
-1056964608
 45
4.0
292
     0
297
     0
 46
4.0
 94
-1056964608
 47
1.0
 49
1.0
140
1.0
293
     1
141
0.0
294
     1
177
     0
142
1.0
295
     0
296
     0
143
3.75
271
     0
272
     9
273
     9
298
     0
  0
MLINESTYLE
  5
18
102
{ACAD_REACTORS
330
17
102
}
330
17
100
AcDbMlineStyle
  2
STANDARD
 70
     0
  3

 62
   256
 51
90.0
 52
90.0
 71
     2
 49
0.5
 62
   256
  6
BYLAYER
 49
-0.5
 62
   256
  6
BYLAYER
  0
ACDBPLACEHOLDER
  5
F
102
{ACAD_REACTORS
330
E
102
}
330
E
  0
ACAD_PROXY_OBJECT
  5
2A4
102
{ACAD_REACTORS
330
2A0
102
}
330
2A0
100
AcDbProxyObject
 90
      499
 91
      517
 71
    33
 97
      174
 70
     0
162
               694
311
4510C01BC019801980194019400B4010801C80194018401AC0080014401D4018401B001A401D001E40245948019401B80190019401C801CC0080019801BC01C8008000C400C0008001B401A401B801D401D0019401CC00
161
               217
310
40AD0340D014050A40502000000000000021000000000000000840CC
 94
        0
  0
ACAD_PROXY_OBJECT
  5
2A3
102
{ACAD_REACTORS
330
2A0
102
}
330
2A0
100
AcDbProxyObject
 90
      499
 91
      517
 71
    33
 97
      174
 70
     0
162
               518
311
4112001A4019C01A00246D0401C001C001B001A4019401CC008000C400C0008001C8019401B80190019401C801A401B8019C008001B0019401D8019401B001CC00
161
               209
310
40AD0240E4290140902000000000000021000000000000000840CC
 94
        0
  0
ACAD_PROXY_OBJECT
  5
2A1
102
{ACAD_REACTORS
330
2A0
102
}
330
2A0
100
AcDbProxyObject
 90
      499
 91
      517
 71
    33
 97
      174
 70
     0
162
               470
311
40D3001BC01DC024650401C001C001B001A4019401CC008000C4008001C8019401B80190019401C801A401B8019C008001B0019401D8019401B000
161
               193
310
40AE40E40501902000000000000021000000000000000840CC
 94
        0
  0
ACAD_PROXY_OBJECT
  5
2A5
102
{ACAD_REACTORS
330
2A0
102
}
330
2A0
100
AcDbProxyObject
 90
      499
 91
      517
 71
    33
 97
      174
 70
     0
162
               582
311
4353001D401B8018C01A00080014401D4018401B001A401D001E40245948019401B80190019401C801CC0080019801BC01C8008000D800C0008001B401A401B801D401D0019401CC00
161
               217
310
40AD0440D014053C40902000000000000021000000000000000840CC
 94
        0
  0
ACAD_PROXY_OBJECT
  5
2A2
102
{ACAD_REACTORS
330
2A0
102
}
330
2A0
100
AcDbProxyObject
 90
      499
 91
      517
 71
    33
 97
      174
 70
     0
162
               534
311
419340194019001A401D401B4024690401C001C001B001A4019401CC008000D4008001C8019401B80190019401C801A401B8019C008001B0019401D8019401B001CC00
161
               209
310
40AD0140E4150140502000000000000021000000000000000840CC
 94
        0
  0
ACAD_PROXY_OBJECT
  5
2A6
102
{ACAD_REACTORS
330
2A0
102
}
330
2A0
100
AcDbProxyObject
 90
      499
 91
      517
 71
    33
 97
      174
 70
     0
162
               614
311
4453C01D8019401C801B801A4019C01A001D00080014401D4018401B001A401D001E40245148019401B80190019401C801CC0080019801BC01C8008000C400C8008001A001BC01D401C801CC00
161
               241
310
40AD0540D01404D002000040902000000000000021000000000000000840CC
 94
        0
  0
SCALE
  5
10D
102
{ACAD_REACTORS
330
10C
102
}
330
10C
100
AcDbScale
 70
     0
300
1:1
140
1.0
141
1.0
290
     1
  0
SCALE
  5
1BE
102
{ACAD_REACTORS
330
10C
102
}
330
10C
100
AcDbScale
 70
     0
300
1:2
140
1.0
141
2.0
290
     0
  0
SCALE
  5
1BF
102
{ACAD_REACTORS
330
10C
102
}
330
10C
100
AcDbScale
 70
     0
300
1:4
140
1.0
141
4.0
290
     0
  0
SCALE
  5
1C0
102
{ACAD_REACTORS
330
10C
102
}
330
10C
100
AcDbScale
 70
     0
300
1:5
140
1.0
141
5.0
290
     0
  0
SCALE
  5
1C1
102
{ACAD_REACTORS
330
10C
102
}
330
10C
100
AcDbScale
 70
     0
300
1:8
140
1.0
141
8.0
290
     0
  0
SCALE
  5
1C2
102
{ACAD_REACTORS
330
10C
102
}
330
10C
100
AcDbScale
 70
     0
300
1:10
140
1.0
141
10.0
290
     0
  0
SCALE
  5
1C3
102
{ACAD_REACTORS
330
10C
102
}
330
10C
100
AcDbScale
 70
     0
300
1:16
140
1.0
141
16.0
290
     0
  0
SCALE
  5
1C4
102
{ACAD_REACTORS
330
10C
102
}
330
10C
100
AcDbScale
 70
     0
300
1:20
140
1.0
141
20.0
290
     0
  0
SCALE
  5
1C5
102
{ACAD_REACTORS
330
10C
102
}
330
10C
100
AcDbScale
 70
     0
300
1:30
140
1.0
141
30.0
290
     0
  0
SCALE
  5
1C6
102
{ACAD_REACTORS
330
10C
102
}
330
10C
100
AcDbScale
 70
     0
300
1:40
140
1.0
141
40.0
290
     0
  0
SCALE
  5
1C7
102
{ACAD_REACTORS
330
10C
102
}
330
10C
100
AcDbScale
 70
     0
300
1:50
140
1.0
141
50.0
290
     0
  0
SCALE
  5
1C8
102
{ACAD_REACTORS
330
10C
102
}
330
10C
100
AcDbScale
 70
     0
300
1:100
140
1.0
141
100.0
290
     0
  0
SCALE
  5
1C9
102
{ACAD_REACTORS
330
10C
102
}
330
10C
100
AcDbScale
 70
     0
300
2:1
140
2.0
141
1.0
290
     0
  0
SCALE
  5
1CA
102
{ACAD_REACTORS
330
10C
102
}
330
10C
100
AcDbScale
 70
     0
300
4:1
140
4.0
141
1.0
290
     0
  0
SCALE
  5
1CB
102
{ACAD_REACTORS
330
10C
102
}
330
10C
100
AcDbScale
 70
     0
300
8:1
140
8.0
141
1.0
290
     0
  0
SCALE
  5
1CC
102
{ACAD_REACTORS
330
10C
102
}
330
10C
100
AcDbScale
 70
     0
300
10:1
140
10.0
141
1.0
290
     0
  0
SCALE
  5
1CD
102
{ACAD_REACTORS
330
10C
102
}
330
10C
100
AcDbScale
 70
     0
300
100:1
140
100.0
141
1.0
290
     0
  0
ACDBSECTIONVIEWSTYLE
  5
2BB
102
{ACAD_REACTORS
330
219
102
}
330
219
100
AcDbModelDocViewStyle
 70
     0
  3
Imperial24
290
     0
300
Imperial24
 90
        0
100
AcDbSectionViewStyle
 70
     0
 71
     0
 90
       78
 71
     1
340
11
 62
   256
 40
0.24
340
0
340
0
 62
   256
 40
0.24
300
I, O, Q, S, X, Z
 40
0.48
 90
        3
 40
0.18
 90
        1
 71
     2
340
16
 90
       25
 62
   256
340
16
 90
       50
 62
   256
 40
0.24
 40
0.0
 40
0.24
 71
     3
340
11
 62
   256
 40
0.24
 90
        1
 40
0.75
 90
        1
300
%<\AcVar ViewType \f "%tc1">% %<\AcVar ViewSectionStartId>%-%<\AcVar ViewSectionEndId>%\PSCALE %<\AcVar ViewScale \f "%sn">%
 71
     4
 62
   256
 62
   257
300
ANSI31
 40
1.0
 90
        0
290
     0
290
     0
 90
        6
 40
0.0
 40
1.570796326794896
 40
0.2617993877991494
 40
1.308996938995747
 40
-0.2617993877991494
 40
1.832595714594046
  0
ACDBSECTIONVIEWSTYLE
  5
21A
102
{ACAD_REACTORS
330
219
102
}
330
219
100
AcDbModelDocViewStyle
 70
     0
  3
Metric50
290
     0
300
Metric50
 90
        0
100
AcDbSectionViewStyle
 70
     0
 71
     0
 90
      102
 71
     1
340
11
 62
   256
 40
5.0
340
0
340
0
 62
   256
 40
5.0
300
I, O, Q, S, X, Z
 40
10.0
 90
        0
 40
2.5
 90
        0
 71
     2
340
16
 90
       25
 62
   256
340
16
 90
       50
 62
   256
 40
5.0
 40
2.5
 40
5.0
 71
     3
340
11
 62
   256
 40
5.0
 90
        0
 40
15.0
 90
        1
300
%<\AcVar ViewSectionStartId>%-%<\AcVar ViewSectionEndId>% (%<\AcVar ViewScale \f "%sn">%)
 71
     4
 62
   256
 62
   257
300
ANSI31
 40
1.0
 90
        0
290
     0
290
     0
 90
        6
 40
0.0
 40
1.570796326794896
 40
0.2617993877991494
 40
1.308996938995747
 40
-0.2617993877991494
 40
1.832595714594046
  0
TABLESTYLE
  5
7F
102
{ACAD_XDICTIONARY
360
162
102
}
102
{ACAD_REACTORS
330
7E
102
}
330
7E
100
AcDbTableStyle
280
     0
  3
Standard
 70
     0
 71
     0
 40
1.5
 41
1.5
280
     0
281
     0
  7
Standard
140
4.5
170
     2
 62
     0
 63
     7
283
     0
 90
      512
 91
        0
  1

274
    -2
284
     1
 64
     0
275
    -2
285
     1
 65
     0
276
    -2
286
     1
 66
     0
277
    -2
287
     1
 67
     0
278
    -2
288
     1
 68
     0
279
    -2
289
     1
 69
     0
  7
Standard
140
6.0
170
     5
 62
     0
 63
     7
283
     0
 90
      512
 91
        0
  1

274
    -2
284
     1
 64
     0
275
    -2
285
     1
 65
     0
276
    -2
286
     1
 66
     0
277
    -2
287
     1
 67
     0
278
    -2
288
     1
 68
     0
279
    -2
289
     1
 69
     0
  7
Standard
140
4.5
170
     5
 62
     0
 63
     7
283
     0
 90
      512
 91
        0
  1

274
    -2
284
     1
 64
     0
275
    -2
285
     1
 65
     0
276
    -2
286
     1
 66
     0
277
    -2
287
     1
 67
     0
278
    -2
288
     1
 68
     0
279
    -2
289
     1
 69
     0
  0
VISUALSTYLE
  5
F5
102
{ACAD_REACTORS
330
EF
102
}
330
EF
100
AcDbVisualStyle
  2
2dWireframe
 70
     4
177
     3
291
     0
 70
    58
 90
        0
176
     1
 90
        2
176
     1
 90
        1
176
     1
 90
        0
176
     1
 40
0.6
176
     1
 40
30.0
176
     1
 62
     7
420
 16777215
176
     1
 90
        1
176
     1
 90
        4
176
     1
 62
     7
176
     1
 62
   257
176
     1
 90
        1
176
     1
 90
        1
176
     1
 40
1.0
176
     1
 90
        0
176
     1
 62
   257
176
     1
 40
1.0
176
     1
 90
        1
176
     1
 90
        6
176
     1
 90
        2
176
     1
 62
     7
176
     1
 90
        5
176
     1
 90
        0
176
     1
 90
        0
176
     1
290
     0
176
     1
 90
        1
176
     1
 40
0.0
176
     1
 90
        0
176
     1
290
     1
176
     1
290
     1
176
     1
290
     0
176
     1
290
     0
176
     1
290
     0
176
     1
290
     0
176
     1
290
     0
176
     1
290
     0
176
     1
290
     0
176
     1
 90
       50
176
     1
 40
0.0
176
     1
 40
1.0
176
     1
 90
        0
176
     1
 62
    18
420
        0
176
     1
 90
       50
176
     1
 90
        3
176
     1
 62
     5
420
      255
176
     1
290
     0
176
     1
 90
       50
176
     1
 90
       50
176
     1
 90
       50
176
     1
290
     0
176
     1
 90
       50
176
     1
 62
   256
176
     0
 40
1.0
176
     0
 90
        2
176
     1
  1
strokes_ogs.tif
176
     1
290
     0
176
     1
 40
1.0
176
     1
 40
1.0
176
     1
  0
VISUALSTYLE
  5
F4
102
{ACAD_REACTORS
330
EF
102
}
330
EF
100
AcDbVisualStyle
  2
Basic
 70
     7
177
     3
291
     1
 70
    58
 90
        1
176
     1
 90
        0
176
     1
 90
        1
176
     1
 90
        0
176
     1
 40
0.6
176
     1
 40
30.0
176
     1
 62
     7
420
 16777215
176
     1
 90
        0
176
     1
 90
        4
176
     1
 62
     7
176
     1
 62
   257
176
     1
 90
        1
176
     1
 90
        1
176
     1
 40
1.0
176
     1
 90
        8
176
     1
 62
     7
176
     1
 40
1.0
176
     1
 90
        1
176
     1
 90
        6
176
     1
 90
        2
176
     1
 62
     7
176
     1
 90
        5
176
     1
 90
        0
176
     1
 90
        0
176
     1
290
     0
176
     1
 90
        1
176
     1
 40
0.0
176
     1
 90
        0
176
     1
290
     0
176
     1
290
     1
176
     1
290
     1
176
     1
290
     0
176
     1
290
     0
176
     1
290
     0
176
     1
290
     0
176
     1
290
     0
176
     1
290
     0
176
     1
 90
       50
176
     1
 40
0.0
176
     1
 40
1.0
176
     1
 90
        0
176
     1
 62
    18
420
        0
176
     1
 90
       50
176
     1
 90
        3
176
     1
 62
     5
420
      255
176
     1
290
     0
176
     1
 90
       50
176
     1
 90
       50
176
     1
 90
       50
176
     1
290
     0
176
     1
 90
       50
176
     1
 62
   256
176
     0
 40
1.0
176
     0
 90
        2
176
     1
  1
strokes_ogs.tif
176
     1
290
     0
176
     1
 40
1.0
176
     1
 40
1.0
176
     1
  0
VISUALSTYLE
  5
FB
102
{ACAD_REACTORS
330
EF
102
}
330
EF
100
AcDbVisualStyle
  2
Brighten
 70
    12
177
     3
291
     1
 70
    58
 90
        2
176
     1
 90
        2
176
     1
 90
        1
176
     1
 90
        0
176
     1
 40
0.6
176
     1
 40
30.0
176
     1
 62
     7
420
 16777215
176
     1
 90
        1
176
     1
 90
        4
176
     1
 62
     7
176
     1
 62
   257
176
     1
 90
        1
176
     1
 90
        1
176
     1
 40
1.0
176
     1
 90
        8
176
     1
 62
     7
176
     1
 40
1.0
176
     1
 90
        1
176
     1
 90
        6
176
     1
 90
        2
176
     1
 62
     7
176
     1
 90
        5
176
     1
 90
        0
176
     1
 90
        0
176
     1
290
     0
176
     1
 90
        1
176
     1
 40
50.0
176
     1
 90
        0
176
     1
290
     0
176
     1
290
     1
176
     1
290
     1
176
     1
290
     0
176
     1
290
     0
176
     1
290
     0
176
     1
290
     0
176
     1
290
     0
176
     1
290
     0
176
     1
 90
       50
176
     1
 40
0.0
176
     1
 40
1.0
176
     1
 90
        0
176
     1
 62
    18
420
        0
176
     1
 90
       50
176
     1
 90
        3
176
     1
 62
     5
420
      255
176
     1
290
     0
176
     1
 90
       50
176
     1
 90
       50
176
     1
 90
       50
176
     1
290
     0
176
     1
 90
       50
176
     1
 62
   256
176
     0
 40
1.0
176
     0
 90
        2
176
     1
  1
strokes_ogs.tif
176
     1
290
     0
176
     1
 40
1.0
176
     1
 40
1.0
176
     1
  0
VISUALSTYLE
  5
FF
102
{ACAD_REACTORS
330
EF
102
}
330
EF
100
AcDbVisualStyle
  2
ColorChange
 70
    16
177
     3
291
     1
 70
    58
 90
        2
176
     1
 90
        2
176
     1
 90
        3
176
     1
 90
        0
176
     1
 40
0.6
176
     1
 40
30.0
176
     1
 62
     8
420
  8421504
176
     1
 90
        1
176
     1
 90
        4
176
     1
 62
     7
176
     1
 62
   257
176
     1
 90
        1
176
     1
 90
        1
176
     1
 40
1.0
176
     1
 90
        8
176
     1
 62
     8
420
  8421504
176
     1
 40
1.0
176
     1
 90
        1
176
     1
 90
        6
176
     1
 90
        2
176
     1
 62
     7
176
     1
 90
        5
176
     1
 90
        0
176
     1
 90
        0
176
     1
290
     0
176
     1
 90
        1
176
     1
 40
0.0
176
     1
 90
        0
176
     1
290
     0
176
     1
290
     1
176
     1
290
     1
176
     1
290
     0
176
     1
290
     0
176
     1
290
     0
176
     1
290
     0
176
     1
290
     0
176
     1
290
     0
176
     1
 90
       50
176
     1
 40
0.0
176
     1
 40
1.0
176
     1
 90
        0
176
     1
 62
    18
420
        0
176
     1
 90
       50
176
     1
 90
        3
176
     1
 62
     5
420
      255
176
     1
290
     0
176
     1
 90
       50
176
     1
 90
       50
176
     1
 90
       50
176
     1
290
     0
176
     1
 90
       50
176
     1
 62
   256
176
     0
 40
1.0
176
     0
 90
        2
176
     1
  1
strokes_ogs.tif
176
     1
290
     0
176
     1
 40
1.0
176
     1
 40
1.0
176
     1
  0
VISUALSTYLE
  5
F8
102
{ACAD_REACTORS
330
EF
102
}
330
EF
100
AcDbVisualStyle
  2
Conceptual
 70
     9
177
     3
291
     0
 70
    58
 90
        3
176
     1
 90
        2
176
     1
 90
        1
176
     1
 90
        0
176
     1
 40
0.6
176
     1
 40
30.0
176
     1
 62
     7
420
 16777215
176
     1
 90
        2
176
     1
 90
        2
176
     1
 62
     7
176
     1
 62
   257
176
     1
 90
        1
176
     1
 90
        1
176
     1
 40
40.0
176
     1
 90
        8
176
     1
 62
     7
176
     1
 40
1.0
176
     1
 90
        1
176
     1
 90
        6
176
     1
 90
        2
176
     1
 62
     7
176
     1
 90
        3
176
     1
 90
        0
176
     1
 90
        0
176
     1
290
     0
176
     1
 90
        1
176
     1
 40
0.0
176
     1
 90
        0
176
     1
290
     0
176
     1
290
     1
176
     1
290
     1
176
     1
290
     0
176
     1
290
     0
176
     1
290
     0
176
     1
290
     0
176
     1
290
     0
176
     1
290
     0
176
     1
 90
       50
176
     1
 40
0.0
176
     1
 40
1.0
176
     1
 90
        0
176
     1
 62
    18
420
        0
176
     1
 90
       50
176
     1
 90
        3
176
     1
 62
     5
420
      255
176
     1
290
     0
176
     1
 90
       50
176
     1
 90
       50
176
     1
 90
       50
176
     1
290
     0
176
     1
 90
       50
176
     1
 62
   256
176
     0
 40
1.0
176
     0
 90
        2
176
     1
  1
strokes_ogs.tif
176
     1
290
     0
176
     1
 40
1.0
176
     1
 40
1.0
176
     1
  0
VISUALSTYLE
  5
FA
102
{ACAD_REACTORS
330
EF
102
}
330
EF
100
AcDbVisualStyle
  2
Dim
 70
    11
177
     3
291
     1
 70
    58
 90
        2
176
     1
 90
        2
176
     1
 90
        1
176
     1
 90
        0
176
     1
 40
0.6
176
     1
 40
30.0
176
     1
 62
     7
420
 16777215
176
     1
 90
        1
176
     1
 90
        4
176
     1
 62
     7
176
     1
 62
   257
176
     1
 90
        1
176
     1
 90
        1
176
     1
 40
1.0
176
     1
 90
        8
176
     1
 62
     7
176
     1
 40
1.0
176
     1
 90
        1
176
     1
 90
        6
176
     1
 90
        2
176
     1
 62
     7
176
     1
 90
        5
176
     1
 90
        0
176
     1
 90
        0
176
     1
290
     0
176
     1
 90
        1
176
     1
 40
-50.0
176
     1
 90
        0
176
     1
290
     0
176
     1
290
     1
176
     1
290
     1
176
     1
290
     0
176
     1
290
     0
176
     1
290
     0
176
     1
290
     0
176
     1
290
     0
176
     1
290
     0
176
     1
 90
       50
176
     1
 40
0.0
176
     1
 40
1.0
176
     1
 90
        0
176
     1
 62
    18
420
        0
176
     1
 90
       50
176
     1
 90
        3
176
     1
 62
     5
420
      255
176
     1
290
     0
176
     1
 90
       50
176
     1
 90
       50
176
     1
 90
       50
176
     1
290
     0
176
     1
 90
       50
176
     1
 62
   256
176
     0
 40
1.0
176
     0
 90
        2
176
     1
  1
strokes_ogs.tif
176
     1
290
     0
176
     1
 40
1.0
176
     1
 40
1.0
176
     1
  0
VISUALSTYLE
  5
1E6
102
{ACAD_REACTORS
330
EF
102
}
330
EF
100
AcDbVisualStyle
  2
EdgeColorOff
 70
    22
177
     3
291
     1
 70
    58
 90
        2
176
     0
 90
        2
176
     0
 90
        0
176
     0
 90
        0
176
     0
 40
0.6
176
     0
 40
30.0
176
     0
 62
     7
420
 16777215
176
     0
 90
        1
176
     0
 90
        4
176
     0
 62
     7
176
     0
 62
   257
176
     0
 90
        1
176
     0
 90
        1
176
     0
 40
1.0
176
     0
 90
        8
176
     2
 62
     7
176
     0
 40
1.0
176
     0
 90
        1
176
     0
 90
        6
176
     0
 90
        2
176
     0
 62
     7
176
     0
 90
        5
176
     0
 90
        0
176
     0
 90
        0
176
     0
290
     0
176
     0
 90
        1
176
     0
 40
0.0
176
     0
 90
        0
176
     0
290
     0
176
     1
290
     1
176
     1
290
     1
176
     1
290
     0
176
     1
290
     0
176
     1
290
     0
176
     1
290
     0
176
     1
290
     0
176
     1
290
     0
176
     1
 90
       50
176
     1
 40
0.0
176
     1
 40
1.0
176
     1
 90
        0
176
     1
 62
    18
420
        0
176
     1
 90
       50
176
     1
 90
        3
176
     1
 62
     5
420
      255
176
     1
290
     0
176
     1
 90
       50
176
     1
 90
       50
176
     1
 90
       50
176
     1
290
     0
176
     1
 90
       50
176
     1
 62
   256
176
     0
 40
1.0
176
     0
 90
        2
176
     1
  1
strokes_ogs.tif
176
     1
290
     0
176
     1
 40
1.0
176
     1
 40
1.0
176
     1
  0
VISUALSTYLE
  5
FE
102
{ACAD_REACTORS
330
EF
102
}
330
EF
100
AcDbVisualStyle
  2
Facepattern
 70
    15
177
     3
291
     1
 70
    58
 90
        2
176
     1
 90
        2
176
     1
 90
        1
176
     1
 90
        0
176
     1
 40
0.6
176
     1
 40
30.0
176
     1
 62
     7
420
 16777215
176
     1
 90
        1
176
     1
 90
        4
176
     1
 62
     7
176
     1
 62
   257
176
     1
 90
        1
176
     1
 90
        1
176
     1
 40
1.0
176
     1
 90
        8
176
     1
 62
     7
176
     1
 40
1.0
176
     1
 90
        1
176
     1
 90
        6
176
     1
 90
        2
176
     1
 62
     7
176
     1
 90
        5
176
     1
 90
        0
176
     1
 90
        0
176
     1
290
     0
176
     1
 90
        1
176
     1
 40
0.0
176
     1
 90
        0
176
     1
290
     0
176
     1
290
     1
176
     1
290
     1
176
     1
290
     0
176
     1
290
     0
176
     1
290
     0
176
     1
290
     0
176
     1
290
     0
176
     1
290
     0
176
     1
 90
       50
176
     1
 40
0.0
176
     1
 40
1.0
176
     1
 90
        0
176
     1
 62
    18
420
        0
176
     1
 90
       50
176
     1
 90
        3
176
     1
 62
     5
420
      255
176
     1
290
     0
176
     1
 90
       50
176
     1
 90
       50
176
     1
 90
       50
176
     1
290
     0
176
     1
 90
       50
176
     1
 62
   256
176
     0
 40
1.0
176
     0
 90
        2
176
     1
  1
strokes_ogs.tif
176
     1
290
     0
176
     1
 40
1.0
176
     1
 40
1.0
176
     1
  0
VISUALSTYLE
  5
F0
102
{ACAD_REACTORS
330
EF
102
}
330
EF
100
AcDbVisualStyle
  2
Flat
 70
     0
177
     3
291
     1
 70
    58
 90
        2
176
     1
 90
        1
176
     1
 90
        1
176
     1
 90
        2
176
     1
 40
0.6
176
     1
 40
30.0
176
     1
 62
     7
420
 16777215
176
     1
 90
        0
176
     1
 90
        0
176
     1
 62
     7
176
     1
 62
   257
176
     1
 90
        1
176
     1
 90
        1
176
     1
 40
1.0
176
     1
 90
        8
176
     1
 62
     7
176
     1
 40
1.0
176
     1
 90
        1
176
     1
 90
        6
176
     1
 90
        2
176
     1
 62
     7
176
     1
 90
        5
176
     1
 90
        0
176
     1
 90
        0
176
     1
290
     0
176
     1
 90
       13
176
     1
 40
0.0
176
     1
 90
        0
176
     1
290
     0
176
     1
290
     1
176
     1
290
     1
176
     1
290
     0
176
     1
290
     0
176
     1
290
     0
176
     1
290
     0
176
     1
290
     0
176
     1
290
     0
176
     1
 90
       50
176
     1
 40
0.0
176
     1
 40
1.0
176
     1
 90
        0
176
     1
 62
    18
420
        0
176
     1
 90
       50
176
     1
 90
        3
176
     1
 62
     5
420
      255
176
     1
290
     0
176
     1
 90
       50
176
     1
 90
       50
176
     1
 90
       50
176
     1
290
     0
176
     1
 90
       50
176
     1
 62
   256
176
     0
 40
1.0
176
     0
 90
        2
176
     1
  1
strokes_ogs.tif
176
     1
290
     0
176
     1
 40
1.0
176
     1
 40
1.0
176
     1
  0
VISUALSTYLE
  5
F1
102
{ACAD_REACTORS
330
EF
102
}
330
EF
100
AcDbVisualStyle
  2
FlatWithEdges
 70
     1
177
     3
291
     1
 70
    58
 90
        2
176
     1
 90
        1
176
     1
 90
        1
176
     1
 90
        2
176
     1
 40
0.6
176
     1
 40
30.0
176
     1
 62
     7
420
 16777215
176
     1
 90
        1
176
     1
 90
        0
176
     1
 62
     7
176
     1
 62
   257
176
     1
 90
        1
176
     1
 90
        1
176
     1
 40
1.0
176
     1
 90
        0
176
     1
 62
   257
176
     1
 40
1.0
176
     1
 90
        1
176
     1
 90
        6
176
     1
 90
        2
176
     1
 62
     7
176
     1
 90
        5
176
     1
 90
        0
176
     1
 90
        0
176
     1
290
     0
176
     1
 90
       13
176
     1
 40
0.0
176
     1
 90
        0
176
     1
290
     0
176
     1
290
     1
176
     1
290
     1
176
     1
290
     0
176
     1
290
     0
176
     1
290
     0
176
     1
290
     0
176
     1
290
     0
176
     1
290
     0
176
     1
 90
       50
176
     1
 40
0.0
176
     1
 40
1.0
176
     1
 90
        0
176
     1
 62
    18
420
        0
176
     1
 90
       50
176
     1
 90
        3
176
     1
 62
     5
420
      255
176
     1
290
     0
176
     1
 90
       50
176
     1
 90
       50
176
     1
 90
       50
176
     1
290
     0
176
     1
 90
       50
176
     1
 62
   256
176
     0
 40
1.0
176
     0
 90
        2
176
     1
  1
strokes_ogs.tif
176
     1
290
     0
176
     1
 40
1.0
176
     1
 40
1.0
176
     1
  0
VISUALSTYLE
  5
F2
102
{ACAD_REACTORS
330
EF
102
}
330
EF
100
AcDbVisualStyle
  2
Gouraud
 70
     2
177
     3
291
     1
 70
    58
 90
        2
176
     1
 90
        2
176
     1
 90
        1
176
     1
 90
        2
176
     1
 40
0.6
176
     1
 40
30.0
176
     1
 62
     7
420
 16777215
176
     1
 90
        0
176
     1
 90
        0
176
     1
 62
     7
176
     1
 62
   257
176
     1
 90
        1
176
     1
 90
        1
176
     1
 40
1.0
176
     1
 90
        0
176
     1
 62
     7
176
     1
 40
1.0
176
     1
 90
        1
176
     1
 90
        6
176
     1
 90
        2
176
     1
 62
     7
176
     1
 90
        5
176
     1
 90
        0
176
     1
 90
        0
176
     1
290
     0
176
     1
 90
       13
176
     1
 40
0.0
176
     1
 90
        0
176
     1
290
     0
176
     1
290
     1
176
     1
290
     1
176
     1
290
     0
176
     1
290
     0
176
     1
290
     0
176
     1
290
     0
176
     1
290
     0
176
     1
290
     0
176
     1
 90
       50
176
     1
 40
0.0
176
     1
 40
1.0
176
     1
 90
        0
176
     1
 62
    18
420
        0
176
     1
 90
       50
176
     1
 90
        3
176
     1
 62
     5
420
      255
176
     1
290
     0
176
     1
 90
       50
176
     1
 90
       50
176
     1
 90
       50
176
     1
290
     0
176
     1
 90
       50
176
     1
 62
   256
176
     0
 40
1.0
176
     0
 90
        2
176
     1
  1
strokes_ogs.tif
176
     1
290
     0
176
     1
 40
1.0
176
     1
 40
1.0
176
     1
  0
VISUALSTYLE
  5
F3
102
{ACAD_REACTORS
330
EF
102
}
330
EF
100
AcDbVisualStyle
  2
GouraudWithEdges
 70
     3
177
     3
291
     1
 70
    58
 90
        2
176
     1
 90
        2
176
     1
 90
        1
176
     1
 90
        2
176
     1
 40
0.6
176
     1
 40
30.0
176
     1
 62
     7
420
 16777215
176
     1
 90
        1
176
     1
 90
        0
176
     1
 62
     7
176
     1
 62
   257
176
     1
 90
        1
176
     1
 90
        1
176
     1
 40
1.0
176
     1
 90
        0
176
     1
 62
   257
176
     1
 40
1.0
176
     1
 90
        1
176
     1
 90
        6
176
     1
 90
        2
176
     1
 62
     7
176
     1
 90
        5
176
     1
 90
        0
176
     1
 90
        0
176
     1
290
     0
176
     1
 90
       13
176
     1
 40
0.0
176
     1
 90
        0
176
     1
290
     0
176
     1
290
     1
176
     1
290
     1
176
     1
290
     0
176
     1
290
     0
176
     1
290
     0
176
     1
290
     0
176
     1
290
     0
176
     1
290
     0
176
     1
 90
       50
176
     1
 40
0.0
176
     1
 40
1.0
176
     1
 90
        0
176
     1
 62
    18
420
        0
176
     1
 90
       50
176
     1
 90
        3
176
     1
 62
     5
420
      255
176
     1
290
     0
176
     1
 90
       50
176
     1
 90
       50
176
     1
 90
       50
176
     1
290
     0
176
     1
 90
       50
176
     1
 62
   256
176
     0
 40
1.0
176
     0
 90
        2
176
     1
  1
strokes_ogs.tif
176
     1
290
     0
176
     1
 40
1.0
176
     1
 40
1.0
176
     1
  0
VISUALSTYLE
  5
F7
102
{ACAD_REACTORS
330
EF
102
}
330
EF
100
AcDbVisualStyle
  2
Hidden
 70
     6
177
     3
291
     0
 70
    58
 90
        1
176
     1
 90
        2
176
     1
 90
        2
176
     1
 90
        0
176
     1
 40
0.6
176
     1
 40
30.0
176
     1
 62
     7
420
 16777215
176
     1
 90
        2
176
     1
 90
        2
176
     1
 62
     7
176
     1
 62
   257
176
     1
 90
        2
176
     1
 90
        1
176
     1
 40
40.0
176
     1
 90
        0
176
     1
 62
   257
176
     1
 40
1.0
176
     1
 90
        1
176
     1
 90
        6
176
     1
 90
        2
176
     1
 62
     7
176
     1
 90
        3
176
     1
 90
        0
176
     1
 90
        0
176
     1
290
     0
176
     1
 90
        1
176
     1
 40
0.0
176
     1
 90
        0
176
     1
290
     0
176
     1
290
     1
176
     1
290
     1
176
     1
290
     0
176
     1
290
     0
176
     1
290
     0
176
     1
290
     0
176
     1
290
     0
176
     1
290
     0
176
     1
 90
       50
176
     1
 40
0.0
176
     1
 40
1.0
176
     1
 90
        0
176
     1
 62
    18
420
        0
176
     1
 90
       50
176
     1
 90
        3
176
     1
 62
     5
420
      255
176
     1
290
     0
176
     1
 90
       50
176
     1
 90
       50
176
     1
 90
       50
176
     1
290
     0
176
     1
 90
       50
176
     1
 62
   256
176
     0
 40
1.0
176
     0
 90
        2
176
     1
  1
strokes_ogs.tif
176
     1
290
     0
176
     1
 40
1.0
176
     1
 40
1.0
176
     1
  0
VISUALSTYLE
  5
1E4
102
{ACAD_REACTORS
330
EF
102
}
330
EF
100
AcDbVisualStyle
  2
JitterOff
 70
    20
177
     3
291
     1
 70
    58
 90
        2
176
     0
 90
        2
176
     0
 90
        0
176
     0
 90
        0
176
     0
 40
0.6
176
     0
 40
30.0
176
     0
 62
     7
420
 16777215
176
     0
 90
        1
176
     0
 90
        4
176
     0
 62
     7
176
     0
 62
   257
176
     0
 90
        1
176
     0
 90
        1
176
     0
 40
1.0
176
     0
 90
       10
176
     2
 62
     7
176
     0
 40
1.0
176
     0
 90
        1
176
     0
 90
        6
176
     0
 90
        2
176
     0
 62
     7
176
     0
 90
        5
176
     0
 90
        0
176
     0
 90
        0
176
     0
290
     0
176
     0
 90
        1
176
     0
 40
0.0
176
     0
 90
        0
176
     0
290
     0
176
     1
290
     1
176
     1
290
     1
176
     1
290
     0
176
     1
290
     0
176
     1
290
     0
176
     1
290
     0
176
     1
290
     0
176
     1
290
     0
176
     1
 90
       50
176
     1
 40
0.0
176
     1
 40
1.0
176
     1
 90
        0
176
     1
 62
    18
420
        0
176
     1
 90
       50
176
     1
 90
        3
176
     1
 62
     5
420
      255
176
     1
290
     0
176
     1
 90
       50
176
     1
 90
       50
176
     1
 90
       50
176
     1
290
     0
176
     1
 90
       50
176
     1
 62
   256
176
     0
 40
1.0
176
     0
 90
        2
176
     1
  1
strokes_ogs.tif
176
     1
290
     0
176
     1
 40
1.0
176
     1
 40
1.0
176
     1
  0
VISUALSTYLE
  5
FD
102
{ACAD_REACTORS
330
EF
102
}
330
EF
100
AcDbVisualStyle
  2
Linepattern
 70
    14
177
     3
291
     1
 70
    58
 90
        2
176
     1
 90
        2
176
     1
 90
        1
176
     1
 90
        0
176
     1
 40
0.6
176
     1
 40
30.0
176
     1
 62
     7
420
 16777215
176
     1
 90
        1
176
     1
 90
        4
176
     1
 62
     7
176
     1
 62
   257
176
     1
 90
        7
176
     1
 90
        7
176
     1
 40
1.0
176
     1
 90
        8
176
     1
 62
     7
176
     1
 40
1.0
176
     1
 90
        1
176
     1
 90
        6
176
     1
 90
        2
176
     1
 62
     7
176
     1
 90
        5
176
     1
 90
        0
176
     1
 90
        0
176
     1
290
     0
176
     1
 90
        1
176
     1
 40
0.0
176
     1
 90
        0
176
     1
290
     0
176
     1
290
     1
176
     1
290
     1
176
     1
290
     0
176
     1
290
     0
176
     1
290
     0
176
     1
290
     0
176
     1
290
     0
176
     1
290
     0
176
     1
 90
       50
176
     1
 40
0.0
176
     1
 40
1.0
176
     1
 90
        0
176
     1
 62
    18
420
        0
176
     1
 90
       50
176
     1
 90
        3
176
     1
 62
     5
420
      255
176
     1
290
     0
176
     1
 90
       50
176
     1
 90
       50
176
     1
 90
       50
176
     1
290
     0
176
     1
 90
       50
176
     1
 62
   256
176
     0
 40
1.0
176
     0
 90
        2
176
     1
  1
strokes_ogs.tif
176
     1
290
     0
176
     1
 40
1.0
176
     1
 40
1.0
176
     1
  0
VISUALSTYLE
  5
1E5
102
{ACAD_REACTORS
330
EF
102
}
330
EF
100
AcDbVisualStyle
  2
OverhangOff
 70
    21
177
     3
291
     1
 70
    58
 90
        2
176
     0
 90
        2
176
     0
 90
        0
176
     0
 90
        0
176
     0
 40
0.6
176
     0
 40
30.0
176
     0
 62
     7
420
 16777215
176
     0
 90
        1
176
     0
 90
        4
176
     0
 62
     7
176
     0
 62
   257
176
     0
 90
        1
176
     0
 90
        1
176
     0
 40
1.0
176
     0
 90
        9
176
     2
 62
     7
176
     0
 40
1.0
176
     0
 90
        1
176
     0
 90
        6
176
     0
 90
        2
176
     0
 62
     7
176
     0
 90
        5
176
     0
 90
        0
176
     0
 90
        0
176
     0
290
     0
176
     0
 90
        1
176
     0
 40
0.0
176
     0
 90
        0
176
     0
290
     0
176
     1
290
     1
176
     1
290
     1
176
     1
290
     0
176
     1
290
     0
176
     1
290
     0
176
     1
290
     0
176
     1
290
     0
176
     1
290
     0
176
     1
 90
       50
176
     1
 40
0.0
176
     1
 40
1.0
176
     1
 90
        0
176
     1
 62
    18
420
        0
176
     1
 90
       50
176
     1
 90
        3
176
     1
 62
     5
420
      255
176
     1
290
     0
176
     1
 90
       50
176
     1
 90
       50
176
     1
 90
       50
176
     1
290
     0
176
     1
 90
       50
176
     1
 62
   256
176
     0
 40
1.0
176
     0
 90
        2
176
     1
  1
strokes_ogs.tif
176
     1
290
     0
176
     1
 40
1.0
176
     1
 40
1.0
176
     1
  0
VISUALSTYLE
  5
F9
102
{ACAD_REACTORS
330
EF
102
}
330
EF
100
AcDbVisualStyle
  2
Realistic
 70
     8
177
     3
291
     0
 70
    58
 90
        2
176
     1
 90
        3
176
     1
 90
        0
176
     1
 90
        2
176
     1
 40
0.6
176
     1
 40
30.0
176
     1
 62
     7
420
 16777215
176
     1
 90
        0
176
     1
 90
        0
176
     1
 62
     7
176
     1
 62
   257
176
     1
 90
        1
176
     1
 90
        1
176
     1
 40
1.0
176
     1
 90
        8
176
     1
 62
   257
176
     1
 40
1.0
176
     1
 90
        1
176
     1
 90
        6
176
     1
 90
        2
176
     1
 62
     7
176
     1
 90
        3
176
     1
 90
        0
176
     1
 90
        0
176
     1
290
     0
176
     1
 90
       13
176
     1
 40
0.0
176
     1
 90
        0
176
     1
290
     0
176
     1
290
     1
176
     1
290
     1
176
     1
290
     0
176
     1
290
     0
176
     1
290
     0
176
     1
290
     0
176
     1
290
     0
176
     1
290
     0
176
     1
 90
       50
176
     1
 40
0.0
176
     1
 40
1.0
176
     1
 90
        0
176
     1
 62
    18
420
        0
176
     1
 90
       50
176
     1
 90
        3
176
     1
 62
     5
420
      255
176
     1
290
     0
176
     1
 90
       50
176
     1
 90
       50
176
     1
 90
       50
176
     1
290
     0
176
     1
 90
       50
176
     1
 62
   256
176
     0
 40
1.0
176
     0
 90
        2
176
     1
  1
strokes_ogs.tif
176
     1
290
     0
176
     1
 40
1.0
176
     1
 40
1.0
176
     1
  0
VISUALSTYLE
  5
1F3
102
{ACAD_REACTORS
330
EF
102
}
330
EF
100
AcDbVisualStyle
  2
Shaded
 70
    27
177
     3
291
     0
 70
    58
 90
        2
176
     1
 90
        2
176
     1
 90
        1
176
     1
 90
        2
176
     1
 40
0.6
176
     1
 40
30.0
176
     1
 62
     7
420
 16777215
176
     1
 90
        0
176
     1
 90
        4
176
     1
 62
     7
176
     1
 62
   257
176
     1
 90
        1
176
     1
 90
        1
176
     1
 40
1.0
176
     1
 90
        8
176
     1
 62
   257
176
     1
 40
1.0
176
     1
 90
        1
176
     1
 90
        6
176
     1
 90
        2
176
     1
 62
     8
420
  7895160
176
     1
 90
        3
176
     1
 90
        0
176
     1
 90
        0
176
     1
290
     0
176
     1
 90
        5
176
     1
 40
0.0
176
     1
 90
        0
176
     1
290
     0
176
     1
290
     1
176
     1
290
     1
176
     1
290
     0
176
     1
290
     0
176
     1
290
     0
176
     1
290
     0
176
     1
290
     0
176
     1
290
     0
176
     1
 90
       50
176
     1
 40
0.0
176
     1
 40
1.0
176
     1
 90
        0
176
     1
 62
    18
420
        0
176
     1
 90
       50
176
     1
 90
        3
176
     1
 62
     5
420
      255
176
     1
290
     0
176
     1
 90
       50
176
     1
 90
       50
176
     1
 90
       50
176
     1
290
     0
176
     1
 90
       50
176
     1
 62
   256
176
     0
 40
1.0
176
     0
 90
        2
176
     1
  1
strokes_ogs.tif
176
     1
290
     0
176
     1
 40
1.0
176
     1
 40
1.0
176
     1
  0
VISUALSTYLE
  5
1F2
102
{ACAD_REACTORS
330
EF
102
}
330
EF
100
AcDbVisualStyle
  2
Shaded with edges
 70
    26
177
     3
291
     0
 70
    58
 90
        2
176
     1
 90
        2
176
     1
 90
        1
176
     1
 90
        2
176
     1
 40
0.6
176
     1
 40
30.0
176
     1
 62
     7
420
 16777215
176
     1
 90
        1
176
     1
 90
        2
176
     1
 62
     7
176
     1
 62
   257
176
     1
 90
        2
176
     1
 90
        1
176
     1
 40
1.0
176
     1
 90
        8
176
     1
 62
   257
176
     1
 40
1.0
176
     1
 90
        1
176
     1
 90
        6
176
     1
 90
        2
176
     1
 62
     7
176
     1
 90
        3
176
     1
 90
        0
176
     1
 90
        0
176
     1
290
     0
176
     1
 90
        5
176
     1
 40
0.0
176
     1
 90
        0
176
     1
290
     0
176
     1
290
     1
176
     1
290
     1
176
     1
290
     0
176
     1
290
     0
176
     1
290
     0
176
     1
290
     0
176
     1
290
     0
176
     1
290
     0
176
     1
 90
       50
176
     1
 40
0.0
176
     1
 40
1.0
176
     1
 90
        0
176
     1
 62
    18
420
        0
176
     1
 90
       50
176
     1
 90
        3
176
     1
 62
     5
420
      255
176
     1
290
     0
176
     1
 90
       50
176
     1
 90
       50
176
     1
 90
       50
176
     1
290
     0
176
     1
 90
       50
176
     1
 62
   256
176
     0
 40
1.0
176
     0
 90
        2
176
     1
  1
strokes_ogs.tif
176
     1
290
     0
176
     1
 40
1.0
176
     1
 40
1.0
176
     1
  0
VISUALSTYLE
  5
1EF
102
{ACAD_REACTORS
330
EF
102
}
330
EF
100
AcDbVisualStyle
  2
Shades of Gray
 70
    23
177
     3
291
     0
 70
    58
 90
        2
176
     1
 90
        2
176
     1
 90
        3
176
     1
 90
        0
176
     1
 40
0.6
176
     1
 40
30.0
176
     1
 62
     7
420
 16777215
176
     1
 90
        2
176
     1
 90
        2
176
     1
 62
     7
176
     1
 62
     7
176
     1
 90
        1
176
     1
 90
        1
176
     1
 40
40.0
176
     1
 90
        8
176
     1
 62
     7
176
     1
 40
1.0
176
     1
 90
        1
176
     1
 90
        6
176
     1
 90
        2
176
     1
 62
     7
176
     1
 90
        3
176
     1
 90
        0
176
     1
 90
        0
176
     1
290
     0
176
     1
 90
        1
176
     1
 40
0.0
176
     1
 90
        0
176
     1
290
     0
176
     1
290
     1
176
     1
290
     1
176
     1
290
     0
176
     1
290
     0
176
     1
290
     0
176
     1
290
     0
176
     1
290
     0
176
     1
290
     0
176
     1
 90
       50
176
     1
 40
0.0
176
     1
 40
1.0
176
     1
 90
        0
176
     1
 62
    18
420
        0
176
     1
 90
       50
176
     1
 90
        3
176
     1
 62
     5
420
      255
176
     1
290
     0
176
     1
 90
       50
176
     1
 90
       50
176
     1
 90
       50
176
     1
290
     0
176
     1
 90
       50
176
     1
 62
   256
176
     0
 40
1.0
176
     0
 90
        2
176
     1
  1
strokes_ogs.tif
176
     1
290
     0
176
     1
 40
1.0
176
     1
 40
1.0
176
     1
  0
VISUALSTYLE
  5
1F0
102
{ACAD_REACTORS
330
EF
102
}
330
EF
100
AcDbVisualStyle
  2
Sketchy
 70
    24
177
     3
291
     0
 70
    58
 90
        1
176
     1
 90
        2
176
     1
 90
        2
176
     1
 90
        0
176
     1
 40
0.6
176
     1
 40
30.0
176
     1
 62
     7
420
 16777215
176
     1
 90
        2
176
     1
 90
        2
176
     1
 62
     7
176
     1
 62
     7
176
     1
 90
        1
176
     1
 90
        1
176
     1
 40
40.0
176
     1
 90
       11
176
     1
 62
     7
176
     1
 40
1.0
176
     1
 90
        1
176
     1
 90
        6
176
     1
 90
        2
176
     1
 62
     7
176
     1
 90
        6
176
     1
 90
        0
176
     1
 90
        0
176
     1
290
     0
176
     1
 90
        1
176
     1
 40
0.0
176
     1
 90
        0
176
     1
290
     0
176
     1
290
     1
176
     1
290
     1
176
     1
290
     0
176
     1
290
     0
176
     1
290
     0
176
     1
290
     0
176
     1
290
     0
176
     1
290
     0
176
     1
 90
       50
176
     1
 40
0.0
176
     1
 40
1.0
176
     1
 90
        0
176
     1
 62
    18
420
        0
176
     1
 90
       50
176
     1
 90
        3
176
     1
 62
     5
420
      255
176
     1
290
     0
176
     1
 90
       50
176
     1
 90
       50
176
     1
 90
       50
176
     1
290
     0
176
     1
 90
       50
176
     1
 62
   256
176
     0
 40
1.0
176
     0
 90
        2
176
     1
  1
strokes_ogs.tif
176
     1
290
     0
176
     1
 40
1.0
176
     1
 40
1.0
176
     1
  0
VISUALSTYLE
  5
FC
102
{ACAD_REACTORS
330
EF
102
}
330
EF
100
AcDbVisualStyle
  2
Thicken
 70
    13
177
     3
291
     1
 70
    58
 90
        2
176
     1
 90
        2
176
     1
 90
        1
176
     1
 90
        0
176
     1
 40
0.6
176
     1
 40
30.0
176
     1
 62
     7
420
 16777215
176
     1
 90
        1
176
     1
 90
        4
176
     1
 62
     7
176
     1
 62
   257
176
     1
 90
        1
176
     1
 90
        1
176
     1
 40
1.0
176
     1
 90
       12
176
     1
 62
     7
176
     1
 40
1.0
176
     1
 90
        1
176
     1
 90
        6
176
     1
 90
        2
176
     1
 62
     7
176
     1
 90
        5
176
     1
 90
        0
176
     1
 90
        0
176
     1
290
     0
176
     1
 90
        1
176
     1
 40
0.0
176
     1
 90
        0
176
     1
290
     0
176
     1
290
     1
176
     1
290
     1
176
     1
290
     0
176
     1
290
     0
176
     1
290
     0
176
     1
290
     0
176
     1
290
     0
176
     1
290
     0
176
     1
 90
       50
176
     1
 40
0.0
176
     1
 40
1.0
176
     1
 90
        0
176
     1
 62
    18
420
        0
176
     1
 90
       50
176
     1
 90
        3
176
     1
 62
     5
420
      255
176
     1
290
     0
176
     1
 90
       50
176
     1
 90
       50
176
     1
 90
       50
176
     1
290
     0
176
     1
 90
       50
176
     1
 62
   256
176
     0
 40
1.0
176
     0
 90
        2
176
     1
  1
strokes_ogs.tif
176
     1
290
     0
176
     1
 40
1.0
176
     1
 40
1.0
176
     1
  0
VISUALSTYLE
  5
F6
102
{ACAD_REACTORS
330
EF
102
}
330
EF
100
AcDbVisualStyle
  2
Wireframe
 70
     5
177
     3
291
     0
 70
    58
 90
        0
176
     1
 90
        2
176
     1
 90
        0
176
     1
 90
        0
176
     1
 40
0.6
176
     1
 40
30.0
176
     1
 62
     7
420
 16777215
176
     1
 90
        1
176
     1
 90
        4
176
     1
 62
     7
176
     1
 62
   257
176
     1
 90
        1
176
     1
 90
        1
176
     1
 40
1.0
176
     1
 90
        0
176
     1
 62
   257
176
     1
 40
1.0
176
     1
 90
        1
176
     1
 90
        6
176
     1
 90
        2
176
     1
 62
     7
176
     1
 90
        3
176
     1
 90
        0
176
     1
 90
        0
176
     1
290
     0
176
     1
 90
        1
176
     1
 40
0.0
176
     1
 90
        0
176
     1
290
     0
176
     1
290
     1
176
     1
290
     1
176
     1
290
     0
176
     1
290
     0
176
     1
290
     0
176
     1
290
     0
176
     1
290
     0
176
     1
290
     0
176
     1
 90
       50
176
     1
 40
0.0
176
     1
 40
1.0
176
     1
 90
        0
176
     1
 62
    18
420
        0
176
     1
 90
       50
176
     1
 90
        3
176
     1
 62
     5
420
      255
176
     1
290
     0
176
     1
 90
       50
176
     1
 90
       50
176
     1
 90
       50
176
     1
290
     0
176
     1
 90
       50
176
     1
 62
   256
176
     0
 40
1.0
176
     0
 90
        2
176
     1
  1
strokes_ogs.tif
176
     1
290
     0
176
     1
 40
1.0
176
     1
 40
1.0
176
     1
  0
VISUALSTYLE
  5
1F1
102
{ACAD_REACTORS
330
EF
102
}
330
EF
100
AcDbVisualStyle
  2
X-Ray
 70
    25
177
     3
291
     0
 70
    58
 90
        2
176
     1
 90
        2
176
     1
 90
        1
176
     1
 90
        1
176
     1
 40
0.5
176
     1
 40
30.0
176
     1
 62
     7
420
 16777215
176
     1
 90
        1
176
     1
 90
        0
176
     1
 62
     7
176
     1
 62
   257
176
     1
 90
        1
176
     1
 90
        1
176
     1
 40
1.0
176
     1
 90
        8
176
     1
 62
     7
176
     1
 40
1.0
176
     1
 90
        1
176
     1
 90
        6
176
     1
 90
        2
176
     1
 62
     7
176
     1
 90
        3
176
     1
 90
        0
176
     1
 90
        0
176
     1
290
     0
176
     1
 90
       13
176
     1
 40
0.0
176
     1
 90
        0
176
     1
290
     0
176
     1
290
     1
176
     1
290
     1
176
     1
290
     0
176
     1
290
     0
176
     1
290
     0
176
     1
290
     0
176
     1
290
     0
176
     1
290
     0
176
     1
 90
       50
176
     1
 40
0.0
176
     1
 40
1.0
176
     1
 90
        0
176
     1
 62
    18
420
        0
176
     1
 90
       50
176
     1
 90
        3
176
     1
 62
     5
420
      255
176
     1
290
     0
176
     1
 90
       50
176
     1
 90
       50
176
     1
 90
       50
176
     1
290
     0
176
     1
 90
       50
176
     1
 62
   256
176
     0
 40
1.0
176
     0
 90
        2
176
     1
  1
strokes_ogs.tif
176
     1
290
     0
176
     1
 40
1.0
176
     1
 40
1.0
176
     1
  0
DICTIONARYVAR
  5
146
102
{ACAD_REACTORS
330
5E
102
}
330
5E
100
DictionaryVariables
280
     0
  1
1:1
  0
DICTIONARYVAR
  5
259
102
{ACAD_REACTORS
330
5E
102
}
330
5E
100
DictionaryVariables
280
     0
  1
3.500000
  0
DICTIONARYVAR
  5
25A
102
{ACAD_REACTORS
330
5E
102
}
330
5E
100
DictionaryVariables
280
     0
  1
acadiso.lin
  0
DICTIONARYVAR
  5
145
102
{ACAD_REACTORS
330
5E
102
}
330
5E
100
DictionaryVariables
280
     0
  1
STANDARD
  0
DICTIONARYVAR
  5
84
102
{ACAD_REACTORS
330
5E
102
}
330
5E
100
DictionaryVariables
280
     0
  1
STANDARD
  0
DICTIONARYVAR
  5
227
102
{ACAD_REACTORS
330
5E
102
}
330
5E
100
DictionaryVariables
280
     0
  1
Metric50
  0
DICTIONARYVAR
  5
228
102
{ACAD_REACTORS
330
5E
102
}
330
5E
100
DictionaryVariables
280
     0
  1
Metric50
  0
DICTIONARYVAR
  5
5F
102
{ACAD_REACTORS
330
5E
102
}
330
5E
100
DictionaryVariables
280
     0
  1
2
  0
DICTIONARYVAR
  5
63
102
{ACAD_REACTORS
330
5E
102
}
330
5E
100
DictionaryVariables
280
     0
  1
1
  0
DICTIONARYVAR
  5
1AE
102
{ACAD_REACTORS
330
5E
102
}
330
5E
100
DictionaryVariables
280
     0
  1
0
  0
DICTIONARYVAR
  5
1AF
102
{ACAD_REACTORS
330
5E
102
}
330
5E
100
DictionaryVariables
280
     0
  1
0
  0
DICTIONARY
  5
D31
102
{ACAD_REACTORS
330
D30
102
}
330
D30
100
AcDbDictionary
281
     1
  3
*A1
350
D32
  0
DICTIONARY
  5
E2D
102
{ACAD_REACTORS
330
E2C
102
}
330
E2C
100
AcDbDictionary
281
     1
  3
*A1
350
E2E
  0
DICTIONARY
  5
E3D
102
{ACAD_REACTORS
330
E3C
102
}
330
E3C
100
AcDbDictionary
281
     1
  3
*A1
350
E3E
  0
DICTIONARY
  5
E4D
102
{ACAD_REACTORS
330
E4C
102
}
330
E4C
100
AcDbDictionary
281
     1
  3
*A1
350
E4E
  0
DICTIONARY
  5
E5E
102
{ACAD_REACTORS
330
E5D
102
}
330
E5D
100
AcDbDictionary
281
     1
  3
*A1
350
E5F
  0
DICTIONARY
  5
E7C
102
{ACAD_REACTORS
330
E7B
102
}
330
E7B
100
AcDbDictionary
281
     1
  3
*A1
350
E7D
  0
DICTIONARY
  5
EA3
102
{ACAD_REACTORS
330
EA2
102
}
330
EA2
100
AcDbDictionary
281
     1
  3
*A1
350
EA4
  0
DICTIONARY
  5
EC6
102
{ACAD_REACTORS
330
EC5
102
}
330
EC5
100
AcDbDictionary
281
     1
  3
*A1
350
EC7
  0
DICTIONARY
  5
205
330
22
100
AcDbDictionary
280
     1
281
     1
  0
DICTIONARY
  5
1F9
330
ED
100
AcDbDictionary
280
     1
281
     1
  3
FBXASSET
360
1FA
  0
DICTIONARY
  5
1F7
330
EC
100
AcDbDictionary
280
     1
281
     1
  3
FBXASSET
360
1F8
  0
DICTIONARY
  5
173
330
EE
100
AcDbDictionary
280
     1
281
     1
  3
BUMPTILE
360
175
  3
DIFFUSETILE
360
174
  3
FBXASSET
360
1FB
  3
OPACITYTILE
360
176
  3
REFLECTIONTILE
360
177
  0
DICTIONARY
  5
162
330
7F
100
AcDbDictionary
280
     1
281
     1
  3
ACAD_ROUNDTRIP_2008_TABLESTYLE_CELLSTYLEMAP
360
EE3
  0
ACDB_ALDIMOBJECTCONTEXTDATA_CLASS
  5
D32
102
{ACAD_REACTORS
330
D31
102
}
330
D31
100
AcDbObjectContextData
 70
     4
290
     1
100
AcDbAnnotScaleObjectContextData
340
10D
100
AcDbDimensionObjectContextData
  2
*D22
293
     0
 10
300.2274366052664
 20
177.4324674270019
294
     1
140
0.0
298
     0
291
     0
 70
     0
292
     0
 71
     0
280
     0
295
     0
296
     0
297
     0
100
AcDbAlignedDimensionObjectContextData
 11
600.2376632805721
 21
159.3698200101673
 31
0.0
  0
ACDB_ALDIMOBJECTCONTEXTDATA_CLASS
  5
E2E
102
{ACAD_REACTORS
330
E2D
102
}
330
E2D
100
AcDbObjectContextData
 70
     4
290
     1
100
AcDbAnnotScaleObjectContextData
340
10D
100
AcDbDimensionObjectContextData
  2
*D24
293
     0
 10
158.3190969274355
 20
217.2992518250271
294
     1
140
0.0
298
     0
291
     0
 70
     0
292
     0
 71
     0
280
     0
295
     0
296
     0
297
     0
100
AcDbAlignedDimensionObjectContextData
 11
264.3190969274356
 21
209.2992518250271
 31
0.0
  0
ACDB_ALDIMOBJECTCONTEXTDATA_CLASS
  5
E3E
102
{ACAD_REACTORS
330
E3D
102
}
330
E3D
100
AcDbObjectContextData
 70
     4
290
     1
100
AcDbAnnotScaleObjectContextData
340
10D
100
AcDbDimensionObjectContextData
  2
*D25
293
     0
 10
-29.7562594866714
 20
71.00000000000001
294
     1
140
0.0
298
     0
291
     0
 70
     0
292
     0
 71
     0
280
     0
295
     0
296
     0
297
     0
100
AcDbAlignedDimensionObjectContextData
 11
-17.29943497413661
 21
142.0
 31
0.0
  0
ACDB_ALDIMOBJECTCONTEXTDATA_CLASS
  5
E4E
102
{ACAD_REACTORS
330
E4D
102
}
330
E4D
100
AcDbObjectContextData
 70
     4
290
     1
100
AcDbAnnotScaleObjectContextData
340
10D
100
AcDbDimensionObjectContextData
  2
*D26
293
     0
 10
162.5021821110862
 20
-25.21596311156565
294
     1
140
0.0
298
     0
291
     0
 70
     0
292
     0
 71
     0
280
     0
295
     0
296
     0
297
     0
100
AcDbAlignedDimensionObjectContextData
 11
203.2521821110862
 21
-17.11011352939294
 31
0.0
  0
ACDB_ALDIMOBJECTCONTEXTDATA_CLASS
  5
E5F
102
{ACAD_REACTORS
330
E5E
102
}
330
E5E
100
AcDbObjectContextData
 70
     4
290
     1
100
AcDbAnnotScaleObjectContextData
340
10D
100
AcDbDimensionObjectContextData
  2
*D27
293
     0
 10
121.7521821110863
 20
-49.42557432710531
294
     1
140
0.0
298
     0
291
     0
 70
     0
292
     0
 71
     0
280
     0
295
     0
296
     0
297
     0
100
AcDbAlignedDimensionObjectContextData
 11
157.7021821110863
 21
-41.2138751627599
 31
0.0
  0
ACDB_ALDIMOBJECTCONTEXTDATA_CLASS
  5
E7D
102
{ACAD_REACTORS
330
E7C
102
}
330
E7C
100
AcDbObjectContextData
 70
     4
290
     1
100
AcDbAnnotScaleObjectContextData
340
10D
100
AcDbDimensionObjectContextData
  2
*D28
293
     0
 10
203.2521821110862
 20
-49.42557432710531
294
     1
140
0.0
298
     0
291
     0
 70
     0
292
     0
 71
     0
280
     0
295
     0
296
     0
297
     0
100
AcDbAlignedDimensionObjectContextData
 11
233.1021821110863
 21
-41.2138751627599
 31
0.0
  0
ACDB_ALDIMOBJECTCONTEXTDATA_CLASS
  5
EA4
102
{ACAD_REACTORS
330
EA3
102
}
330
EA3
100
AcDbObjectContextData
 70
     4
290
     1
100
AcDbAnnotScaleObjectContextData
340
10D
100
AcDbDimensionObjectContextData
  2
*D29
293
     0
 10
24.53481894150498
 20
162.5573628452192
294
     1
140
0.0
298
     0
291
     0
 70
     0
292
     0
 71
     0
280
     0
295
     0
296
     0
297
     0
100
AcDbAlignedDimensionObjectContextData
 11
11.00000000000079
 21
154.5573628452192
 31
0.0
  0
ACDB_ALDIMOBJECTCONTEXTDATA_CLASS
  5
EC7
102
{ACAD_REACTORS
330
EC6
102
}
330
EC6
100
AcDbObjectContextData
 70
     4
290
     1
100
AcDbAnnotScaleObjectContextData
340
10D
100
AcDbDimensionObjectContextData
  2
*D30
293
     0
 10
28.89832869082815
 20
178.6123918830293
294
     0
140
0.0
298
     0
291
     0
 70
     0
292
     0
 71
     0
280
     0
295
     0
296
     0
297
     0
100
AcDbAlignedDimensionObjectContextData
 11
0.000000000000798
 21
178.6123918830293
 31
0.0
  0
XRECORD
  5
1FA
102
{ACAD_REACTORS
330
1F9
102
}
330
1F9
100
AcDbXrecord
280
     1
 70
     1
 90
429727718
  1
D62C5603-E3A1-4AEA-B7FB-FE5D8D0755AF
310
504B03040A0000080000CC70623B3DEE336E79000000790000001B0000006175746F6465736B2D64657369676E2D7061636B6167652E786D6C3C3F786D6C2076657273696F6E3D22312E302220656E636F64696E673D227574662D3822203F3E3C666F726D6174733E3C666F726D61743E687474703A2F2F736368656D612E
310
6175746F6465736B2E636F6D2F64657369676E2D7061636B6167652F323030393C2F666F726D61743E3C2F666F726D6174733E504B0304140006080800CC70623BD486FD9CA0000000F4000000130000005B436F6E74656E745F54797065735D2E786D6C7D8EC10E82300C865F65E91D8A1E8C310C0EEA1BF002731658846E
310
D98AC1B77784ABF1D8FE5FBFBF75BBCE937A534CCEB38643598122B6FEE978D0B0485F9C41B54DDD7D022595594E1A469170414C76A4D9A4D207E29CF43ECE46F218070CC6BECC4078ACAA135ACF422C856C0E68EA1BF5669944DDD7BCDE7B1F8E415D77AECB980613C2E4AC91FC167A2B244592486606FC29C8FD7F045B9A
310
EF7053A7E60B504B0304140006080800CC70623B853B8169EB0000007C01000008000000636F72652E786D6C8D90416EC3201045AF62CDB6C206821CC7C244919D9CA01740401C94182C03558F5F9C3852BBEB6A467FFE9B197D7EFC9E1EC5975982F5AE035262288C535E5B377690E21535501C055FBC8FBF6C503839990E
310
5619041F179FE64D52DE45E362569DD7661365082642A11EB9E920A89B99642953CC8E702F67A9EE7234257977194EC9EAE275C4EABCCF5EAD5940D4AC6F0E35A568B8F43562CD7046CD199FD07E60174276A7BE677B5EADB0E0D14EEFFB6A31321A0D82627C4084204C3F096B71DD52F6819B16635EADF63F509AF53FA164
310
5DDCD1EDDD17164090FCC8732078B56691CB33A85CD7DCC40F504B0304140006080800CC70623B55019EA25F0000007C00000007000000636E782E786D6C4DCB3B0E80201045D1AD90E915ED2CF8AC45050C11660C8261F98AB1B07AC9C97D42D718D865D3E909258CFD00CCE24AC6E326A164D74DC0B4128928FF32603847
310
2BA13128B1252AC747C6BAB984FC68F0B87FE8960A5C09FE86CFB69FBA01504B0304140006080800CC70623BDBABAAF470010000D40300000C0000006662782F636F72652E786D6CC553D16E823014FD95A6AF4B694182CC941A83FA05FB810A9511A125A5257EFE2E82712ECEB8A7F100CD39F7F69E734AF9FADC366850B6
310
AF8DCE7018308C942E4C59EB2AC3DE1D498AD15A706B8CFB56869196ADCAF00863C12B6B7C374385D14E6907A836A59A41D9F7CA615434B0C8705F7CAA5606D23BA8E84F41278B93AC54100640439DE0BDB320004D43C63716C7C399D30917DCFBBA9CD9BA8469F5B156168B24CED3F7248AC8769F27244EB73B92EED8862C
310
B7F13E0C179B3C8F979C8ECD82BBBABDAA2BAC924E9558448CBD9330242CFA08E3154B5651FCC6D215639C8EE5774DBE2B5F6CF2B5768B68963BB5F5588420E442FC700B1139D4CB01F450C1E918227C2E09DF070D8140C84E1E9AAB8F1340832A9CB13130A5F1376A908D57309505ECF2A0DF179C4E9D30F5B239B87E3823
310
7A79C6F31DE1A8A5AEC08474B03C7837EAE4938639B44E5932B833D2C6B6B279CDC613877FA26EE21F4A2A4C63EC7F29A2F301D1F9F7A0E37D145F504B0304140006080800CC70623B9C113CC27E0000009D0000000B0000006662782F636E782E786D6C4DCCDF0A83201C86E15B91DFB94BFB330DD428C8FB886521330DA7
310
6397BF1A1DECE883878F57749FCDA1B7892F1BBC047A23808C7F84D9FA55424E0BE6803A256208E9EF06C84F9B91703228B1C690F78B66B34CD9A5439DF5CF0BFBF65E35BCA1B8D6A5C6F540381E886698B5741C695F9503EBA150A2F8958E3DC3EA0B504B0304140006080800CC70623B7DF2F77C2A010000120200003100
310
00006662782F41393633353835312D344632462D344230382D423046372D3739314545314133324237412F636F72652E786D6C8D51DB8EC22014FC15C2939B0D2DB4B45643319AE817EC0F6041255A68B86CFCFC856D4D76DF7CE190393373060EDB3DC707F856CE6B6B7A480A0C81328395DA5C7B18C3057510EC3873D686
310
3F34088C18550F330C39BB3A1BA7051AAC09CA84841A2BD5020AEF55806078A44B0FFD7053A328440C89E1EFC52486BBB8AA8214A99D789CF9E05200300FC927E4FB4D5B375D43103D5527440FB843077C5AA3F5861C8F645F5787F59E95B390B318B55CE45AA638FAA2957BD7248B390B7A7CC51F9C124149C82B8C378810
310
84AB2F42B7B8DD56F413775B8C5999E9FF4471926F8AA236A1AE96B8B3CC434E5839373893369E1FAF30EA395917409EB7F26AF8801C171837A4A6AC9C89E9F9C9B1A58BA30FD6A5EF5DDDCF894B9AD9B6A59C957943A9FCAE2FD5BC4DFE03504B0304140006080800CC70623BAD7543B64E01000033030000300000006662
310
782F41393633353835312D344632462D344230382D423046372D3739314545314133324237412F636E782E786D6CD593CD6EC32010845F0571AD6CE3D48AD20813A9873E410FBD12D82434182C7EAAE6EDBB2424CD25871E7B41D6EC30B3FA84F9E67BB2E40B4234DE8DB46F1925E094D7C6ED479AD3AE5951B2113C789FEE
310
6C943839C1488B4C05DF079FE72A69D8C96C13AAD6B8631503449F83828872B949AC57D26200B826A308D316B4064D6E46FCDA41C05550DC9E483A00797BFD207EFB092A45DE9514C1BBD22178396BD39D891265658C238DEA00936C654E5E433CB65A26D9F6EDB5EBC14EBF49A45CB856E66048291F6939A9A81BB5C89177
310
38143CA680F4AA299D66A042CEB3354A2684DC9D8D178FE0D9B8B41CAAD720F880EE7EF93C0C18769E099ECC04D5A102C8049A8A05632F4DDF376CF1DE0F6BB65C2F8627B65A33C6BB62177CEBBDAD973006829F89F22E814B54F4BC2BE347F8AA8F681390B50FA73F804400B5F542E796F19FF974E7F78DB802FE05E20750
310
4B0304140006080800CC70623BE75B7789680500003C100000340000006662782F41393633353835312D344632462D344230382D423046372D3739314545314133324237412F6F626A656374732E786D6CAD575B8F9B3818FD2B887D06C22499CB8AA1CA655245D5B455A356FB305264C061D8018C6C3393D95FBFC7600890
310
A4CD5EF210B0B1BFEBF98E3F7B1FF6596ABC522E1296DF9BAE3D320D9A872C4AF2F8DE2CE5CEBA358D0FBEC719939D65A691938CDE9B6ADAF4BD98B3B2D05311DD91329583D9D5FC0F438434A7A611A644887B5384CF34233629258BA878B12322891DEFF6B66BD70BFB62634E8AE781D082709A4B588AF91C528CDA28B73F
310
1C998EEF39EABBEFA97FBD6A7C7E9553F9D3D79FE442923C3C523610337627CB87ABE99D359D4CC6D6E4FACAB5E6ABF9D2726FC6A3C5F56271377BB88362213924694B38DD99FE47C48627A1E7D49F5A8BB5E1A74C0A599ED3B0F21F1E56366B89112D681E218F0915D0D6F17AD41FBA2A369DCF6335D62ABBD39779D5DDD1
310
11D4D8DE3CBB96B2E04FB8202E41051754A1AA8E8F76B4C6DFE810B580B1547F4B84911149794252234D024EF8BBE963A95AE27B3D310A9D5C215C7960FAEE415ED75694C6AFB17BCACA5D99A60A9AA65F217B0BFC53292ACB92BF283FAD0D3621576592CB5BED907C2FA8E9DF794E35E97BEA31BED21FEB401ABB94C44839
310
DCACBF0E1C5DA8DA5B2F4DFFD32AD86F543D9E565E7056502E157C00AD2671CD534549AB752FCA9CDA00677A313F04E51B22FF19E57B300579E3C97EB29F682D92935CEC18CF901B7B54FD8C51F362B56FC72FE0B3C1EAE335EDCCBF5AEC39ADB17DC238973F804BA5E6F6BFE7AF1FB32E523BE9F3BD571418E3631DCA4D48
310
5250CF639223210A9446CA30052EDF057BD35F8329C1ECD84552BF0DC8D18BE7BCE23BFE6BD960AB4A7DE79923A103BEBD80F911CBAA2C60DB19B01CF164A5583B772EE6D3FFA56666CBCDA74DC97724A48F9A58967497E489C4D979006FD7A05E227A1EBDD0F737C623387A9C844D3709995625106D157315F8B8392CD4E0
310
A0B9A720C4BE9829CEF37EA1E13111214D53925356365ADA634861B52519DD27A00AEB808EAF0628E6F435519D446F45CF2C9CF5214F0A15B2F6D06B79DA3EE3CBF7F56780D2F4E7EF73A0F5E5B02A38D07DC852C6B7C1FBB6664213E0C39E3EBA7FF4E1AD23EA2829407C85E586727488B751B2DB9502BC7B228A3FD68B6E
310
A65A22397E690AA8D158D7E404EC8CDA235CC3B7D1898680131CEC2CDF2638C65196279577750F15884AEE19F94199155B92B13297978469D4F8D358DF0AEF7631E28DC8F0D9F437D5D39A83B2231A1D52D543813A824EF8D44BCFF2FA6A31BD1E8DAD87F1CCB526B3879935BF59CDADD5C37479BB1CDD4CA7B3556B516589
310
EF352754B706114D9C885EC9131DE6EFEB43D99AFE2391C2F958179413D7CFEF6B1B6DB1E7600F00DE6E5C67454A339A4BA2E0FBA85ED26F045D454F463DBFCE484C2F90F2E5E3666003662ED8F755951A7D1BECD5B30B550B2785C8E7320B7292A4838DDA71BBC863ED7613CAF659337A3354231D4FF4A182A54904C2898C
310
98B28C4AD0CE056CCF332A80986E571EE9DBC305BB5FEB7E509220A58D25CF042D712A806AC0AD0C657FDEF80D2D9CEAA2EE4D1C76F60BFE74219A06527D6F82DF6412526107381E55E353090704D085B52408A8913C4ED159D79BDA71BB4BC506F4831350EB6F975CD22D69BF7AC49B91A2C0A9DDA3D5CA36AD20FC478E37
310
E61844E2352865EBCB61A275A65283CAAA9DD27703B4102F5AF51EF5F573B75CBB5AD38BC845F7A49F82A0966A49C2E3EA5EA0ECD326CD965F1DB402C6FA8B51A4658C5C5E2EC9E214602E55810345408596591009A82E7E7FFACA19EEA299B14A0081A705CB3296EBC14CDF658DCD336EA6D1136881AAEB87B81AB9EE53D5
310
F5EB8BC8362082DA24122F98680A4E7930C01A0079749CEA14382A0783E5EBA5A10F8C098456A03D6A4AEB6BB881E2513747552A5DB22C7EDAF83BD5528081A365F7FF06504B0304140006080000CC70623B000000000000000000000000350000006662782F41393633353835312D344632462D344230382D423046372D37
310
39314545314133324237412F76657274696365732E62696E504B0304140006080800CC70623BF270F1330600000004000000360000006662782F41393633353835312D344632462D344230382D423046372D3739314545314133324237412F747269616E676C65732E62696E636660600000504B0304140006080000CC7062
310
3B000000000000000000000000370000006662782F41393633353835312D344632462D344230382D423046372D3739314545314133324237412F617474726962757465732E62696E504B0304140006080800CC70623B08DA0BD19000000041010000360000006662782F41393633353835312D344632462D344230382D4230
310
46372D3739314545314133324237412F6469726563746F72792E786D6C858F410AC3201045AF22B36F53E9A60B35CBEEBAE80D244E44489C6234F4F835464A48035D0DF398FF9F8AF63D0E6CC63039F212F8F9020C7D47C6792B21C5FE7403D62A1188E2E60C98D7234A5830286103A55745067B9D86B8A3CF9C7F90C11DE6
310
07FB144396D7B6A82D282E9A152AD114D5EF2CB866EEE831B8EEA07A7BB5A8D7D61A2BAAEB7FD5F70921FF497D00504B0304140006080800CC70623BEDD1DC58FD000000A00100003B0000006662782F41393633353835312D344632462D344230382D423046372D3739314545314133324237412F7265736F75726365732F
310
636F72652E786D6C8D504B6E833010BD0A9A6D65B00922041947112427E8052C33A156828DFCA97AFC9A40A576D7CDCCE87D344F8F9FBFE667F689CE6B6B3A6039850C8DB2A336530731DC4903D95970676DF82583CCC8193B5861107C72362E3BA4AC096842428D1D7107A5F7182053CF7474E0D507CE32973124857FE48B
310
540F3961CEF244279DE03EB81420DB9EAC1384436FA353E879B1B182C7A8C75DA3C7F453DF353A1075D537A7BA6464B8F535A99AE14A9A2BBD90E350DD183B5CFABE3AF262350B1EF4FC9351399401471025A527C218A1E53BAB5A5AB765F5469B96525EACF23FA6B88CFF34456DC2A1DCE36E360F82A5202F42F062ED2BAD
310
579969AFDD8A6F504B010214000A0000080000CC70623B3DEE336E79000000790000001B00000000000000000000000000000000006175746F6465736B2D64657369676E2D7061636B6167652E786D6C504B01021400140006080800CC70623BD486FD9CA0000000F40000001300000000000000000000000000B20000005B
310
436F6E74656E745F54797065735D2E786D6C504B01021400140006080800CC70623B853B8169EB0000007C010000080000000000000000000000000083010000636F72652E786D6C504B01021400140006080800CC70623B55019EA25F0000007C000000070000000000000000000000000094020000636E782E786D6C504B
310
01021400140006080800CC70623BDBABAAF470010000D40300000C00000000000000000000000000180300006662782F636F72652E786D6C504B01021400140006080800CC70623B9C113CC27E0000009D0000000B00000000000000000000000000B20400006662782F636E782E786D6C504B01021400140006080800CC70
310
623B7DF2F77C2A010000120200003100000000000000000000000000590500006662782F41393633353835312D344632462D344230382D423046372D3739314545314133324237412F636F72652E786D6C504B01021400140006080800CC70623BAD7543B64E010000330300003000000000000000000000000000D2060000
310
6662782F41393633353835312D344632462D344230382D423046372D3739314545314133324237412F636E782E786D6C504B01021400140006080800CC70623BE75B7789680500003C10000034000000000000000000000000006E0800006662782F41393633353835312D344632462D344230382D423046372D3739314545
310
314133324237412F6F626A656374732E786D6C504B01021400140006080000CC70623B0000000000000000000000003500000000000000000000000000280E00006662782F41393633353835312D344632462D344230382D423046372D3739314545314133324237412F76657274696365732E62696E504B01021400140006
310
080800CC70623BF270F133060000000400000036000000000000000000000000007B0E00006662782F41393633353835312D344632462D344230382D423046372D3739314545314133324237412F747269616E676C65732E62696E504B01021400140006080000CC70623B0000000000000000000000003700000000000000
310
000000000000D50E00006662782F41393633353835312D344632462D344230382D423046372D3739314545314133324237412F617474726962757465732E62696E504B01021400140006080800CC70623B08DA0BD1900000004101000036000000000000000000000000002A0F00006662782F41393633353835312D344632
310
462D344230382D423046372D3739314545314133324237412F6469726563746F72792E786D6C504B01021400140006080800CC70623BEDD1DC58FD000000A00100003B000000000000000000000000000E1000006662782F41393633353835312D344632462D344230382D423046372D3739314545314133324237412F7265
310
736F75726365732F636F72652E786D6C504B0506000000000E000E0080040000641100000000
  0
XRECORD
  5
1F8
102
{ACAD_REACTORS
330
1F7
102
}
330
1F7
100
AcDbXrecord
280
     1
 70
     1
 90
429727718
  1
30362254-06B7-45E0-A893-8CFA70E3D6BC
310
504B03040A0000080000CC70623B3DEE336E79000000790000001B0000006175746F6465736B2D64657369676E2D7061636B6167652E786D6C3C3F786D6C2076657273696F6E3D22312E302220656E636F64696E673D227574662D3822203F3E3C666F726D6174733E3C666F726D61743E687474703A2F2F736368656D612E
310
6175746F6465736B2E636F6D2F64657369676E2D7061636B6167652F323030393C2F666F726D61743E3C2F666F726D6174733E504B0304140006080800CC70623BD486FD9CA0000000F4000000130000005B436F6E74656E745F54797065735D2E786D6C7D8EC10E82300C865F65E91D8A1E8C310C0EEA1BF002731658846E
310
D98AC1B77784ABF1D8FE5FBFBF75BBCE937A534CCEB38643598122B6FEE978D0B0485F9C41B54DDD7D022595594E1A469170414C76A4D9A4D207E29CF43ECE46F218070CC6BECC4078ACAA135ACF422C856C0E68EA1BF5669944DDD7BCDE7B1F8E415D77AECB980613C2E4AC91FC167A2B244592486606FC29C8FD7F045B9A
310
EF7053A7E60B504B0304140006080800CC70623B1EC5D7A3EB0000007C01000008000000636F72652E786D6C8D90416EC3201045AF82665B6103C6756C6122AB4D4ED00B204C5C94182C03558F5F9C3852BBEB6A467FFE9B197D71FC9E6FE8CBACC17AD7032D0820E3B41FAD9B7A48F1820F808E52ACDEC75F36404ECDA687
310
4D0629A6D5A76597B477D1B89855E747B38B2A041301E95B6E7A08FAD3CCAA50296647B8168BD2573599823EBB0CA76447F43862C7BCCF5EAC59410E4DDD9C7973C2755553CCCFA4C603E3040F1565ED3B1FDE4E432BCA0D9622DAF9795FAF464533826484B498524CD807E51D79ED187F21878E10516EF63F505AC67F42C9
310
BA58B1FDDD071640D2FCC87D2045B96591CB3DA85CB7DCE40F504B0304140006080800CC70623B55019EA25F0000007C00000007000000636E782E786D6C4DCB3B0E80201045D1AD90E915ED2CF8AC45050C11660C8261F98AB1B07AC9C97D42D718D865D3E909258CFD00CCE24AC6E326A164D74DC0B4128928FF32603847
310
2BA13128B1252AC747C6BAB984FC68F0B87FE8960A5C09FE86CFB69FBA01504B0304140006080800CC70623B8C9102E971010000D40300000C0000006662782F636F72652E786D6CC5535B6E833010BC8AE5DF0A6C08340F1947A84D4ED00B38C6A128602363A31CBFCB234A53A551FA553EC09AD9F5CE8C31DB9E9B1AF5CA
310
7695D1198E428A91D2D214952E33ECDD315861B4E5CC1AE3BE9561A445A3323CC098B3D21ADFCE9034DA29ED00D5A6503328BA4E398C640D8B0C77F253352214DE4145770A5B214FA2546114020D759C75CE8200340D19DE981F0F6746269C33EFAB6266AB02A655C74A59CCF365BADC27CB5D902ED22848F6340DF238A141
310
BE88E2F57B92BFEDF23523433367AE6A2EEAA455C2A902F398D2751045018D3FA264435F3771F242571B4A1919CA6F9A7C5B3CD9E42BED16F12C776AEB308F40C848FC700B1139D4891EF410CEC810227CC6846F8386402064270EF5C5C709A05E49676C024C61FC95EA45ED154CA5211D1FF4FB8291A913A68E9B83EBBB33
310
E2A7673CDE118E5AE8124C0807CB8377834E366998436B950D7A7746DAD846D4CFD978E0F04FD455FC5D49D2D4C6FE9722321F10997F0F32DC47FE05504B0304140006080800CC70623BFFEA85907E0000009D0000000B0000006662782F636E782E786D6C4DCCD10A83201886E15B91FFDC95D95A811AB6F23E625948A6C3
310
E9D8E5AF46073BFAE0E1E365ED67B3E8ADC3CB78C7815C7240DA3DFC64DCC221C519D7805AC182F7F1EF06C88D9BE6703008B6049F9E274D7A1E938DBB5AE3D6131B2589BA0D3D965551E0B2EA732C9B9A624AAEB41E3A557677029960D9AFB4EF11165F504B0304140006080800CC70623B4FEEA4082C0100001202000031
310
0000006662782F39464131463745442D413632322D343644302D413938332D3331353338454246344243312F636F72652E786D6C8D515B6EC32010BC0AE2AB55850DD871ED0813254D72825EC00192A2C460F1A872FC42ED48ED5F7E00CDCECCCEB26C731F6FE05B39AFADE921293004CA082BB5B9F43086336A21D870E6AC
310
0D7F68109861543DCC30E4ECE26C9C164858139409093556AA051CBC570102714B8F1E7AF1A5C6A11862480C7F2DA6415C878B2A4891CA89C7990F2E050073937C42DE1DB7E4F87ED8A36D4329AA9B3D46DBAEAD504556557BD81DEBDD0761E52CE42C462D17B996298E3E6BE59E35C962CE821E1FF18553435012728A7187
310
0841987E927A8D9B35ADDF70BBC6989599FE4F1427F9A4286A132ABAC49D651EF234CD5CE04CDA78BA3DC2A8FB645D00B9DF8B57E215725C60BCA2A463E54C4CE327C7A65E1C7DB02E7DEFCBF594B864C5CA6CDBD49C957943E9FA5D5FBAF336F90F504B0304140006080800CC70623BAD7543B64E01000033030000300000
310
006662782F39464131463745442D413632322D343644302D413938332D3331353338454246344243312F636E782E786D6CD593CD6EC32010845F0571AD6CE3D48AD20813A9873E410FBD12D82434182C7EAAE6EDBB2424CD25871E7B41D6EC30B3FA84F9E67BB2E40B4234DE8DB46F1925E094D7C6ED479AD3AE5951B2113C
310
789FEE6C943839C1488B4C05DF079FE72A69D8C96C13AAD6B8631503449F83828872B949AC57D26200B826A308D316B4064D6E46FCDA41C05550DC9E483A00797BFD207EFB092A45DE9514C1BBD22178396BD39D891265658C238DEA00936C654E5E433CB65A26D9F6EDB5EBC14EBF49A45CB856E66048291F6939A9A81BB5
310
C8917738143CA680F4AA299D66A042CEB3354A2684DC9D8D178FE0D9B8B41CAAD720F880EE7EF93C0C18769E099ECC04D5A102C8049A8A05632F4DDF376CF1DE0F6BB65C2F8627B65A33C6BB62177CEBBDAD973006829F89F22E814B54F4BC2BE347F8AA8F681390B50FA73F804400B5F542E796F19FF974E7F78DB802FE05
310
E207504B0304140006080800CC70623B16AB87BA640500003C100000340000006662782F39464131463745442D413632322D343644302D413938332D3331353338454246344243312F6F626A656374732E786D6CAD575B6FA33818FD2B887DE6924B3BED8A326A92B68A663B534DD4D13E548A0C38942D60649B369D5FBFC7
310
600890A493BDE42160637FD7F31D7FF63E6FB3D478A55C242CBF3247B66B1A340F5994E4F19559CA8D75611A9F7D8F33263BCB4C232719BD32D5B4E97B316765A1A722BA21652A07B3B7B33F0D11D29C9A46981221AE4C113ED38CD8A4942CA2E2C58E882476BCD9DA23BB5ED8171B73523C0F841684D35CC252CCE79062D4
310
468DFA43D7747CCF51DF7D4FFDEB5593E3AB9CCA9FBEFE241792E4E19EB28198C968BAB8199F5D5A67D3E9C49A9E8F47D6EC76B6B0469F26EEFC7C3EBFBCBEB98462213924694B38DD98FE1D62C393D073EA4FADC5DAF04326852CCF6958F90F0F2B9BB5C48816348F90C7840A68EB78EDF68723159BCEE7891A6B95DDE9D3
310
BCEAEEE8086A6C6F9E5D4B59F0175C10A7A0820BAA5055C7473B5AE3CFDD452D602CD5DF12616444529E90D448938013FE6EFA58AA96F85E4F8C42275708571E98FE6827AF6B2B4AE3D7D83D64E5A64C53054DD3AF90BD06FEA9149565C94FCA0F6B834DC85599E4F2423B24DF0B6AFA979E534DFA9E7A4CC6FA631D486393
310
921829879BF5D781A373557BCB85E97FB90DB62B558F8795179C15944B051F40AB495CF35451D26A4727654E6D8033BD98EF82F21D91FF8AF2DD9982BCF1643BDD4EB516C9492E368C67C88DED563FC36D5EACF66DFF057C3658BDBFA69DF9578B3DA735B64F18C7F20770A9D45CFCF7FCF563D6456A277DBEF78A02637CA2
310
43B90A490AEAB94F72244481D24819A6C0E59B606BFA4B3025981DBB48EAB701D97BF19C577CC77F2D1B6C55A9EF3C732474C0B727303F625995056C3B02963D9EAC146BE78EC5FCEC7FA999EBC5EACBAAE41B12D27B4D2C0BBA49F244E2ECDC81B76B502F113D8F5EE8FB1BE3111CDD4FC2AA9B844CAB1288B68AB90A7CDC
310
1C166AB0D3DC5310625FCC14E779BFD0709F8890A629C9292B1B2DED31A4B0DA928CEE135085754027E3018A397D4D5427D15BD1330B677DC8934285AC3DF45A9EB68FF8F2B8FC0A509AFEECFD0FF2DE25CC6047F7214B195F07EFEB9A094D800F7BFAE8FED187B78EA8A3A400F115961BCAD1215E47C966530AF0EE8128FE
310
58CEBB996A8964FFA529A046635D9353B0336A8F700DDF46271A024E70B0B37C9DE01847591E54DED53D54202AB947E4076556AC49C6CA5C9E1226B7F1A7B1BE15DEED62C41B91E1B3E9AFAAA735036547343A925075041DF0A9979E893B391F8FCFA6967B3EFB644DCF6E5CEBFAE272625DCC6FAF3FB93793C5F90CE1EF57
310
407342756B10D1C489E8953CD1617E5CEECAD6F4EF8914CE5D5D504E5C3F1F9736DA62CFC11E00BCDDB8CC8A9466349744C1F75EBDA4DF09BA8A9E8C7A7E9991989E20E5DBDD6A6003664ED8F7A04A8DBE0DF6EAD9B9AA858342E47399053949D2C146EDB85DE4B176BB0965FBAC19BD19AA918E27FA50C1D22402E144464C
310
59462568E704B6E71915404CB72B8FF4EDE184DDAF753F284990D2C6926782963815403548A70C657FDEF80D2D9CEAA2AE4C1C76F60BFE74219A06527D6582DF6412526107381E55E353090704D085B52408D0933C4ED159D79BDA71BB4BC506F4831350EB6F979CD22D69BF7AC49B91A2C0A9DDA3D5CA36AD20FC478E37E6
310
1844E2352865EBCB6EA275A652E3836BE04EFB400BF1A2556F515F1FBB35B2AB35BD889C744FFA1004B5544B121E57F70215746DD2F5E2C1412B602CBF19455AC6C8E5E9922C4E01E65215385004546899059180EAFCF7A707CE7017CD8CDB0410789AB32C63B91E5CEBBBACB17AC6CD347A022D5075FD106377347AAABA7E
310
7D11590744509B44E205134DC1290F06580320F78E537D3D73540E06CB970B431F185308AD40BBD794D6D77003C5A36E8EAA54BA64597CD8F83BD552A080A365F7FF06504B0304140006080000CC70623B000000000000000000000000350000006662782F39464131463745442D413632322D343644302D413938332D3331
310
353338454246344243312F76657274696365732E62696E504B0304140006080800CC70623BF270F1330600000004000000360000006662782F39464131463745442D413632322D343644302D413938332D3331353338454246344243312F747269616E676C65732E62696E636660600000504B0304140006080000CC70623B
310
000000000000000000000000370000006662782F39464131463745442D413632322D343644302D413938332D3331353338454246344243312F617474726962757465732E62696E504B0304140006080800CC70623B08DA0BD19000000041010000360000006662782F39464131463745442D413632322D343644302D413938
310
332D3331353338454246344243312F6469726563746F72792E786D6C858F410AC3201045AF22B36F53E9A60B35CBEEBAE80D244E44489C6234F4F835464A48035D0DF398FF9F8AF63D0E6CC63039F212F8F9020C7D47C6792B21C5FE7403D62A1188E2E60C98D7234A5830286103A55745067B9D86B8A3CF9C7F90C11DE607
310
FB144396D7B6A82D282E9A152AD114D5EF2CB866EEE831B8EEA07A7BB5A8D7D61A2BAAEB7FD5F70921FF497D00504B0304140006080800CC70623B0D6EF93BFE000000A00100003B0000006662782F39464131463745442D413632322D343644302D413938332D3331353338454246344243312F7265736F75726365732F63
310
6F72652E786D6C8D50596E833010BD0A9ADFCA60B334011947A8694ED00B586642AC041B79A97AFC9A40A5F6AF3F33A3B7689E1E3F7DCD8FEC139DD7D6F4C0720A191A65476DA61E62B892236427C19DB5E1970C322367EC618541F0C9D9B8EC90B226A009093576C41D94DE63804C3DD2D18357379C652E63480A7FCF17A9
310
EE72C29CE5894E3AC17D702940B63D59270887DE46A7D0F36263058F518FBB468FE9A7BE6A7420864373B8D4873369AA8691FA421B3294352543C5CAF65C0F6FEF43CB8BD52C78D0F34F46E550061C419494B6843142CB0F5677F4B52BEB177AEC28E5C52AFF638ACBF84F53D42654E51E77B379102C05791282176B5F693D
310
CB4C7BED567C03504B010214000A0000080000CC70623B3DEE336E79000000790000001B00000000000000000000000000000000006175746F6465736B2D64657369676E2D7061636B6167652E786D6C504B01021400140006080800CC70623BD486FD9CA0000000F40000001300000000000000000000000000B20000005B
310
436F6E74656E745F54797065735D2E786D6C504B01021400140006080800CC70623B1EC5D7A3EB0000007C010000080000000000000000000000000083010000636F72652E786D6C504B01021400140006080800CC70623B55019EA25F0000007C000000070000000000000000000000000094020000636E782E786D6C504B
310
01021400140006080800CC70623B8C9102E971010000D40300000C00000000000000000000000000180300006662782F636F72652E786D6C504B01021400140006080800CC70623BFFEA85907E0000009D0000000B00000000000000000000000000B30400006662782F636E782E786D6C504B01021400140006080800CC70
310
623B4FEEA4082C0100001202000031000000000000000000000000005A0500006662782F39464131463745442D413632322D343644302D413938332D3331353338454246344243312F636F72652E786D6C504B01021400140006080800CC70623BAD7543B64E010000330300003000000000000000000000000000D5060000
310
6662782F39464131463745442D413632322D343644302D413938332D3331353338454246344243312F636E782E786D6C504B01021400140006080800CC70623B16AB87BA640500003C1000003400000000000000000000000000710800006662782F39464131463745442D413632322D343644302D413938332D3331353338
310
454246344243312F6F626A656374732E786D6C504B01021400140006080000CC70623B0000000000000000000000003500000000000000000000000000270E00006662782F39464131463745442D413632322D343644302D413938332D3331353338454246344243312F76657274696365732E62696E504B01021400140006
310
080800CC70623BF270F133060000000400000036000000000000000000000000007A0E00006662782F39464131463745442D413632322D343644302D413938332D3331353338454246344243312F747269616E676C65732E62696E504B01021400140006080000CC70623B0000000000000000000000003700000000000000
310
000000000000D40E00006662782F39464131463745442D413632322D343644302D413938332D3331353338454246344243312F617474726962757465732E62696E504B01021400140006080800CC70623B08DA0BD190000000410100003600000000000000000000000000290F00006662782F39464131463745442D413632
310
322D343644302D413938332D3331353338454246344243312F6469726563746F72792E786D6C504B01021400140006080800CC70623B0D6EF93BFE000000A00100003B000000000000000000000000000D1000006662782F39464131463745442D413632322D343644302D413938332D3331353338454246344243312F7265
310
736F75726365732F636F72652E786D6C504B0506000000000E000E0080040000641100000000
  0
XRECORD
  5
175
102
{ACAD_REACTORS
330
173
102
}
330
173
100
AcDbXrecord
280
     1
270
     1
271
     1
  0
XRECORD
  5
174
102
{ACAD_REACTORS
330
173
102
}
330
173
100
AcDbXrecord
280
     1
270
     1
271
     1
  0
XRECORD
  5
1FB
102
{ACAD_REACTORS
330
173
102
}
330
173
100
AcDbXrecord
280
     1
 70
     0
 90
1673772943
  1
ECE7A1D2-D628-4531-984C-D00F80459256
310
504B03040A0000080000CC70623B3DEE336E79000000790000001B0000006175746F6465736B2D64657369676E2D7061636B6167652E786D6C3C3F786D6C2076657273696F6E3D22312E302220656E636F64696E673D227574662D3822203F3E3C666F726D6174733E3C666F726D61743E687474703A2F2F736368656D612E
310
6175746F6465736B2E636F6D2F64657369676E2D7061636B6167652F323030393C2F666F726D61743E3C2F666F726D6174733E504B0304140006080800CC70623BD486FD9CA0000000F4000000130000005B436F6E74656E745F54797065735D2E786D6C7D8EC10E82300C865F65E91D8A1E8C310C0EEA1BF002731658846E
310
D98AC1B77784ABF1D8FE5FBFBF75BBCE937A534CCEB38643598122B6FEE978D0B0485F9C41B54DDD7D022595594E1A469170414C76A4D9A4D207E29CF43ECE46F218070CC6BECC4078ACAA135ACF422C856C0E68EA1BF5669944DDD7BCDE7B1F8E415D77AECB980613C2E4AC91FC167A2B244592486606FC29C8FD7F045B9A
310
EF7053A7E60B504B0304140006080800CC70623BD9DDAED0EC0000007C01000008000000636F72652E786D6C8D90416EC3201045AF82665B61836D9CD8C2444DD39CA01740405C94182C03558F5F9C3852BBEB6A467FFE9B197D7EF89E6EE8CB2CC17A37002D0820E394D7D68D03A478C17B4007C117EFE32F1B20272733C0
310
2A83E0E3E2D3BC49CABB685CCCAAF3DA6CA20CC14440EA969B0182FA34932C648AD911AEC52CD5558EA6A0CF2EC329598D1E47ACCEFBECC59A050463A7EA5833865FEBDD0E37353BE3EE8DBDE3F6786A48D375FBF6CC78B9C282473B3DEFABC5C86834888A900E538A49F5419B9EB47DD5BC907D4F082F57FB1F28CDFA9F50
310
B22ED6D5F6EE030B20687EE43E10BC5CB3C8E51E54AE6B6EE207504B0304140006080800CC70623B55019EA25F0000007C00000007000000636E782E786D6C4DCB3B0E80201045D1AD90E915ED2CF8AC45050C11660C8261F98AB1B07AC9C97D42D718D865D3E909258CFD00CCE24AC6E326A164D74DC0B4128928FF326038
310
472BA13128B1252AC747C6BAB984FC68F0B87FE8960A5C09FE86CFB69FBA01504B0304140006080800CC70623BA24EB22D72010000D40300000C0000006662782F636F72652E786D6CC5535B6E833010BC8AE5DF0A6C5E49888CA3A6694ED00B38E05014B091B1518EDFE511A5A9D228FD2A1F60CDEC7A67C6986DCE4D8D7A
310
69BA4AAB0C073EC548AA5C17952A33ECECD15B61B4E1CC686DBF9561A44423333CC098B3D268D7CE50AE9595CA02AA74216750749DB418E5352C32DCE59FB211BE70162ABA93DF8AFC244AE9073ED050C759670D0840D390E18DF9F1706664C23973AE2A66B62A605A75ACA4C13C4976E1364A12EF355A2EBD384AF65EFA96
310
BC7B8BED2EA6719AAE16FB8491A199335B351775B991C2CA02F390D2D40B028F861F41BCA68B7518BFD0D59A524686F29B26D7164F36B94AD9289CE54E6D1DE6010819891F6E21228B3AD1831EC219194284CF98F06DD01008846CC5A1BEF83801D4CBDC6A1303536877A57A513B0953A94FC707FDBE6064EA84A9E3E6E0FA
310
EE8CF0E9198F7784A316AA0413C2C2F2E0ECA0934D1AE6D05A69BCDE9E91D2A611F573361E38FC1375157F5752AE6B6DFE4B11990F88CCBF0719EE23FF02504B0304140006080800CC70623B408A7D3B7C0000009D0000000B0000006662782F636E782E786D6C4DCCD10A83201886E15B91FFDC552A92A0064DBC8F581632
310
D3703A76F9ABD1C18E3E78F878E5F0D9027ABBFCF2292AE86E2D20171F69F6715550CB827B40839639A5F2770314A7CD293819B45C73AAFB45B35BA61ACAA1C1C7E7855C58C15BC331339661262CC762340413D68D77DA5B42298546CBE6573AF60CEB2F504B0304140006080800CC70623B449FB9BD290100001202000031
310
0000006662782F36394639363044362D344446342D343946362D394244322D3234314243333846323333332F636F72652E786D6C8D515B6EC32010BC0AE22B55850D98B871848994463E412FE002495162B07854397EA176A4F62F3F2C9A9D991D587EB84F37F0AD7D30CEF6905418026DA553C65E7A98E219ED203808EE9D
310
8B7F6810D871D23D2C3014FCE25D9A57483A1BB58D19B54EE9151C43D0110279CB971E06F9A5A7B11A53CC8C70ADE6515EC78BAE4895DB992778883E0700CB907242D17643D7E2538BD869608875438BBAE38922CAC8F1BDD90DB4691A5E2F42C153326A951B95E398B3D1FE599322163C9AE9115F7A3D46ADA0A018778810
310
84E907617BDCEE297BC5BB3DC6BC2EF47FA234AB2745C9D8D8D035EE220B50105E2F0DC1954B9FB747187D9F9D8FA0CCDB042D5FA0C015C65B42DF78BD10F3F3B363CB56C7109DCFDFBBB97E662ED92EB62D13BC2E1BCAE5777DB9966D8A1F504B0304140006080800CC70623BAD7543B64E01000033030000300000006662
310
782F36394639363044362D344446342D343946362D394244322D3234314243333846323333332F636E782E786D6CD593CD6EC32010845F0571AD6CE3D48AD20813A9873E410FBD12D82434182C7EAAE6EDBB2424CD25871E7B41D6EC30B3FA84F9E67BB2E40B4234DE8DB46F1925E094D7C6ED479AD3AE5951B2113C789FEE
310
6C943839C1488B4C05DF079FE72A69D8C96C13AAD6B8631503449F83828872B949AC57D26200B826A308D316B4064D6E46FCDA41C05550DC9E483A00797BFD207EFB092A45DE9514C1BBD22178396BD39D891265658C238DEA00936C654E5E433CB65A26D9F6EDB5EBC14EBF49A45CB856E66048291F6939A9A81BB5C89177
310
38143CA680F4AA299D66A042CEB3354A2684DC9D8D178FE0D9B8B41CAAD720F880EE7EF93C0C18769E099ECC04D5A102C8049A8A05632F4DDF376CF1DE0F6BB65C2F8627B65A33C6BB62177CEBBDAD973006829F89F22E814B54F4BC2BE347F8AA8F681390B50FA73F804400B5F542E796F19FF974E7F78DB802FE05E20750
310
4B0304140006080800CC70623B8D05915C650500003B100000340000006662782F36394639363044362D344446342D343946362D394244322D3234314243333846323333332F6F626A656374732E786D6CAD575B6FA33814FE2B887D06429276DA1565D4266D158D3A339A6846FB502932E050B66023DB74D2FDF5FB190C01
310
9276B2973C046C8ECFF53B17071F77456EBD502133CEAE6CDF9DD81665314F32965ED995DA3A17B6F5310C04E7AA47665B8C14F4CAD6DB7618A48257A5D94AE89654B91AEDDEDDFC61C998326A5B714EA4BCB265FC440BE2924AF184CA6737218AB8E976E7FA6E4338649B0A523E8D98964450A6A029F619B8588D52FE7039
310
B1BD30F0F4F730D0FF866AF6369557DB33949F31A9088B0F848DD8CCFCF9F2767A76E99CCDE733677E3EF59D9BBB9BA5E37F984D16E78BC5E5F5ED25044B25C0C96822E8D60EEFE11B91C581D77CEA34368A1F5329E68CD1B8B61F16D63A1B8E092D294B10C78C4A48EB593D192E7DED9BDEE7995E1B91FDEDD3ACEA9FE831
310
6A756F9F7D4D79F4274C90A7A04248AA51D5F8C718DAE06FB2F75AC4796EBE65D22A88A22223B995679120E2D50E41AA49C260C046A35368846B0BECD0DFF3EBEB8AD4F835768F69B9ADF25C43D30E6B646F807FAA64AD59F61715C7A54127C4AACA98BA3006A9D792DAE165E0D59B61A01FB3A9F9D838D2DAE62445C86166
310
F37564E842E7DE6A69879FEEA2DD5AE7E371E1A5E025154AC307D06A03D73EB5978C58FFA4C8E9033066E0F3BD53BEC1F39F91BE7B55103791EDE6BBB991A2046172CB4581D8B893FA674DDA17A77B3B7C413D1B511FD2743BFF8A38F03A658705E3ADF8015C3A3417FF3D7E439FF591DA0B5F18BC20C1B8981957AE6392A3
310
F43C640C01D1A0B4728E2DD4F26DB4B3C3152A252A3B4E913CEC1C72F012782FF88EFF8637AA552DBEF76408E8A8DE9E50F9E1CB3A2DA0DB1B6039A893B56063DC5B3E3FFB5F72E67AB9FEB4AEC496C4F4C1149625DD662C53E89D7BF0F6151A046260D1337DFDC94502430F83B0EE07A130A224BCAD7DAE1D9FB6CD422FF6
310
920702629C4BB9AE79C12F243C6432A6794E18E5552BA56B431AAB5D91317302B2B071E86C3A42B1A02F999E24061403B5D0EB639195DA655DD3EBEAB4FB862DDF579F014AD0E73C22F99E28DA57FB98E75C6CA2D74D53086D600F4786E0FE3144B771A8A7B900F03594DB8A633CBC49B2EDB69228BB479CF863B5E807AAAB
310
23872F6DFEB4129B949CA33823F58830E86D65621E10047D9DB34D862E8EAC3C2ABC2F7B2C40D67CDFE01F5545B92105AF983AC54D93D69E56FB8E797F88913F898A9FEC705D3F9D1B54EC8426FB500D40A03BD0119B06E1B95DDC7EB8F6975367793EBD70E66733DFB9BC982F9CE564727731999F5D4ECFCE3B8D6A4DC2A0
310
6D50FD148437D110834A64C6CDDF57FBACB5C307A2A477DFE4939736CFEF2B175371E0E10CF0DD1D5C15654E0BCA14D1E87DD02FF93782A162C0A3D95F1524A52770F972BF1EE9809D13CE7DD599467F8ECE9ADD85CE85A34CD45355448C64F9E8A031DC2D596ACC6E5DD93D9B82DE2EF5CAF81363A8E47996A0DE24564A79
310
4115AACE09C55E14540231FDA13C319787134EBF34E3A022514E5B4D9E0826E25C02D5805B15ABE1BEF51B26383D445DD9E875EE33FE4C22DA16427D65A3BCA92CA6D28DD01DF5DC53330704308475351050232CCD31583787BA75774AFB06E5070DD0C8EF484E19968C5D83BA5B90B244D31E54D55A372320FE4786B7EA58
310
44E135AA5467CB7EA333A61683CC6A8C3257034C10CF46F40EF9F5BE59BE5BD30C3C72D235E95D10345C1D45445A5F0BB47E46A5EBE5570F9380B5FA629579952296A773720405982B9DE04011506178964401AA8BDF1FBF0A8EAB6861DD6580C0E38217056766716DAEB2D6FA0917D3E4116581EADB879C4E7CFFB11EFACD
310
3D641311495D92C8676CB409A72D18610D803CE8A626049E8EC1887CB5B44CC39883690DDA8399B4B9855B481E7D71D4A9D22F96E5BB73BF5793020C02137BF837504B0304140006080000CC70623B000000000000000000000000350000006662782F36394639363044362D344446342D343946362D394244322D32343142
310
43333846323333332F76657274696365732E62696E504B0304140006080800CC70623BF270F1330600000004000000360000006662782F36394639363044362D344446342D343946362D394244322D3234314243333846323333332F747269616E676C65732E62696E636660600000504B0304140006080000CC70623B0000
310
00000000000000000000370000006662782F36394639363044362D344446342D343946362D394244322D3234314243333846323333332F617474726962757465732E62696E504B0304140006080800CC70623B08DA0BD19000000041010000360000006662782F36394639363044362D344446342D343946362D394244322D
310
3234314243333846323333332F6469726563746F72792E786D6C858F410AC3201045AF22B36F53E9A60B35CBEEBAE80D244E44489C6234F4F835464A48035D0DF398FF9F8AF63D0E6CC63039F212F8F9020C7D47C6792B21C5FE7403D62A1188E2E60C98D7234A5830286103A55745067B9D86B8A3CF9C7F90C11DE607FB14
310
4396D7B6A82D282E9A152AD114D5EF2CB866EEE831B8EEA07A7BB5A8D7D61A2BAAEB7FD5F70921FF497D00504B0304140006080800CC70623BCA768048FE000000A00100003B0000006662782F36394639363044362D344446342D343946362D394244322D3234314243333846323333332F7265736F75726365732F636F72
310
652E786D6C8D50596E833010BD0A9ADFCA60D600328E9AA639412F609909B1126CE4A5EAF16B0295DABFFECC8CDEA2797AECF8353F924FB44E193D409E5248504B332A3D0D10FC95B4901C39B3C6F85F3248B49871801506CE266BC2B243D2688FDA47549B11775038871E12F988C7004EDE7016A9083E2ADC3D5D84BC8B09
310
D33C8D74D471E6BC8D0192EDC93A815B742658898E651BCB59086ADC356A8C3FD555A1055ED7E7E254D615792D0F075295F585746FF53B694EE78A565DD736979A65AB9933AFE69F8CD2A2F038022F28ED489E135A7CE4554F9BBEA85E68DB53CAB255FEC71496F19FA6A0B42F8B3DEE6673C0F318E4497096AD7DC5F52C33
310
EEB55BFE0D504B010214000A0000080000CC70623B3DEE336E79000000790000001B00000000000000000000000000000000006175746F6465736B2D64657369676E2D7061636B6167652E786D6C504B01021400140006080800CC70623BD486FD9CA0000000F40000001300000000000000000000000000B20000005B436F
310
6E74656E745F54797065735D2E786D6C504B01021400140006080800CC70623BD9DDAED0EC0000007C010000080000000000000000000000000083010000636F72652E786D6C504B01021400140006080800CC70623B55019EA25F0000007C000000070000000000000000000000000095020000636E782E786D6C504B0102
310
1400140006080800CC70623BA24EB22D72010000D40300000C00000000000000000000000000190300006662782F636F72652E786D6C504B01021400140006080800CC70623B408A7D3B7C0000009D0000000B00000000000000000000000000B50400006662782F636E782E786D6C504B01021400140006080800CC70623B
310
449FB9BD290100001202000031000000000000000000000000005A0500006662782F36394639363044362D344446342D343946362D394244322D3234314243333846323333332F636F72652E786D6C504B01021400140006080800CC70623BAD7543B64E010000330300003000000000000000000000000000D20600006662
310
782F36394639363044362D344446342D343946362D394244322D3234314243333846323333332F636E782E786D6C504B01021400140006080800CC70623B8D05915C650500003B10000034000000000000000000000000006E0800006662782F36394639363044362D344446342D343946362D394244322D32343142433338
310
46323333332F6F626A656374732E786D6C504B01021400140006080000CC70623B0000000000000000000000003500000000000000000000000000250E00006662782F36394639363044362D344446342D343946362D394244322D3234314243333846323333332F76657274696365732E62696E504B010214001400060808
310
00CC70623BF270F13306000000040000003600000000000000000000000000780E00006662782F36394639363044362D344446342D343946362D394244322D3234314243333846323333332F747269616E676C65732E62696E504B01021400140006080000CC70623B00000000000000000000000037000000000000000000
310
00000000D20E00006662782F36394639363044362D344446342D343946362D394244322D3234314243333846323333332F617474726962757465732E62696E504B01021400140006080800CC70623B08DA0BD190000000410100003600000000000000000000000000270F00006662782F36394639363044362D344446342D
310
343946362D394244322D3234314243333846323333332F6469726563746F72792E786D6C504B01021400140006080800CC70623BCA768048FE000000A00100003B000000000000000000000000000B1000006662782F36394639363044362D344446342D343946362D394244322D3234314243333846323333332F7265736F
310
75726365732F636F72652E786D6C504B0506000000000E000E0080040000621100000000
  0
XRECORD
  5
176
102
{ACAD_REACTORS
330
173
102
}
330
173
100
AcDbXrecord
280
     1
270
     1
271
     1
  0
XRECORD
  5
177
102
{ACAD_REACTORS
330
173
102
}
330
173
100
AcDbXrecord
280
     1
270
     1
271
     1
  0
CELLSTYLEMAP
  5
EE3
102
{ACAD_REACTORS
330
162
102
}
330
162
100
AcDbCellStyleMap
 90
        3
300
CELLSTYLE
  1
TABLEFORMAT_BEGIN
 90
        5
170
     1
 91
        0
 92
    32768
 62
   257
 93
        1
300
CONTENTFORMAT
  1
CONTENTFORMAT_BEGIN
 90
        0
 91
        0
 92
      512
 93
        0
300

 40
0.0
140
1.0
 94
        5
 62
     0
340
11
144
6.0
309
CONTENTFORMAT_END
171
     1
301
MARGIN
  1
CELLMARGIN_BEGIN
 40
1.5
 40
1.5
 40
1.5
 40
1.5
 40
4.5
 40
4.5
309
CELLMARGIN_END
 94
        6
 95
        1
302
GRIDFORMAT
  1
GRIDFORMAT_BEGIN
 90
        0
 91
        1
 62
     0
 92
       -2
340
14
 93
        0
 40
1.125
309
GRIDFORMAT_END
 95
        2
302
GRIDFORMAT
  1
GRIDFORMAT_BEGIN
 90
        0
 91
        1
 62
     0
 92
       -2
340
14
 93
        0
 40
1.125
309
GRIDFORMAT_END
 95
        4
302
GRIDFORMAT
  1
GRIDFORMAT_BEGIN
 90
        0
 91
        1
 62
     0
 92
       -2
340
14
 93
        0
 40
1.125
309
GRIDFORMAT_END
 95
        8
302
GRIDFORMAT
  1
GRIDFORMAT_BEGIN
 90
        0
 91
        1
 62
     0
 92
       -2
340
14
 93
        0
 40
1.125
309
GRIDFORMAT_END
 95
       16
302
GRIDFORMAT
  1
GRIDFORMAT_BEGIN
 90
        0
 91
        1
 62
     0
 92
       -2
340
14
 93
        0
 40
1.125
309
GRIDFORMAT_END
 95
       32
302
GRIDFORMAT
  1
GRIDFORMAT_BEGIN
 90
        0
 91
        1
 62
     0
 92
       -2
340
14
 93
        0
 40
1.125
309
GRIDFORMAT_END
309
TABLEFORMAT_END
  1
CELLSTYLE_BEGIN
 90
        1
 91
        1
300
_TITLE
309
CELLSTYLE_END
300
CELLSTYLE
  1
TABLEFORMAT_BEGIN
 90
        5
170
     1
 91
        0
 92
        0
 62
   257
 93
        1
300
CONTENTFORMAT
  1
CONTENTFORMAT_BEGIN
 90
        0
 91
        0
 92
      512
 93
        0
300

 40
0.0
140
1.0
 94
        5
 62
     0
340
11
144
4.5
309
CONTENTFORMAT_END
171
     1
301
MARGIN
  1
CELLMARGIN_BEGIN
 40
1.5
 40
1.5
 40
1.5
 40
1.5
 40
4.5
 40
4.5
309
CELLMARGIN_END
 94
        6
 95
        1
302
GRIDFORMAT
  1
GRIDFORMAT_BEGIN
 90
        0
 91
        1
 62
     0
 92
       -2
340
14
 93
        0
 40
1.125
309
GRIDFORMAT_END
 95
        2
302
GRIDFORMAT
  1
GRIDFORMAT_BEGIN
 90
        0
 91
        1
 62
     0
 92
       -2
340
14
 93
        0
 40
1.125
309
GRIDFORMAT_END
 95
        4
302
GRIDFORMAT
  1
GRIDFORMAT_BEGIN
 90
        0
 91
        1
 62
     0
 92
       -2
340
14
 93
        0
 40
1.125
309
GRIDFORMAT_END
 95
        8
302
GRIDFORMAT
  1
GRIDFORMAT_BEGIN
 90
        0
 91
        1
 62
     0
 92
       -2
340
14
 93
        0
 40
1.125
309
GRIDFORMAT_END
 95
       16
302
GRIDFORMAT
  1
GRIDFORMAT_BEGIN
 90
        0
 91
        1
 62
     0
 92
       -2
340
14
 93
        0
 40
1.125
309
GRIDFORMAT_END
 95
       32
302
GRIDFORMAT
  1
GRIDFORMAT_BEGIN
 90
        0
 91
        1
 62
     0
 92
       -2
340
14
 93
        0
 40
1.125
309
GRIDFORMAT_END
309
TABLEFORMAT_END
  1
CELLSTYLE_BEGIN
 90
        2
 91
        1
300
_HEADER
309
CELLSTYLE_END
300
CELLSTYLE
  1
TABLEFORMAT_BEGIN
 90
        5
170
     1
 91
        0
 92
        0
 62
   257
 93
        1
300
CONTENTFORMAT
  1
CONTENTFORMAT_BEGIN
 90
        0
 91
        0
 92
      512
 93
        0
300

 40
0.0
140
1.0
 94
        2
 62
     0
340
11
144
4.5
309
CONTENTFORMAT_END
171
     1
301
MARGIN
  1
CELLMARGIN_BEGIN
 40
1.5
 40
1.5
 40
1.5
 40
1.5
 40
4.5
 40
4.5
309
CELLMARGIN_END
 94
        6
 95
        1
302
GRIDFORMAT
  1
GRIDFORMAT_BEGIN
 90
        0
 91
        1
 62
     0
 92
       -2
340
14
 93
        0
 40
1.125
309
GRIDFORMAT_END
 95
        2
302
GRIDFORMAT
  1
GRIDFORMAT_BEGIN
 90
        0
 91
        1
 62
     0
 92
       -2
340
14
 93
        0
 40
1.125
309
GRIDFORMAT_END
 95
        4
302
GRIDFORMAT
  1
GRIDFORMAT_BEGIN
 90
        0
 91
        1
 62
     0
 92
       -2
340
14
 93
        0
 40
1.125
309
GRIDFORMAT_END
 95
        8
302
GRIDFORMAT
  1
GRIDFORMAT_BEGIN
 90
        0
 91
        1
 62
     0
 92
       -2
340
14
 93
        0
 40
1.125
309
GRIDFORMAT_END
 95
       16
302
GRIDFORMAT
  1
GRIDFORMAT_BEGIN
 90
        0
 91
        1
 62
     0
 92
       -2
340
14
 93
        0
 40
1.125
309
GRIDFORMAT_END
 95
       32
302
GRIDFORMAT
  1
GRIDFORMAT_BEGIN
 90
        0
 91
        1
 62
     0
 92
       -2
340
14
 93
        0
 40
1.125
309
GRIDFORMAT_END
309
TABLEFORMAT_END
  1
CELLSTYLE_BEGIN
 90
        3
 91
        2
300
_DATA
309
CELLSTYLE_END
  0
ENDSEC
  0
SECTION
  2
ACDSDATA
 70
     2
 71
     8
  0
ACDSSCHEMA
 90
        0
  1
AcDb_Thumbnail_Schema
  2
AcDbDs::ID
280
    10
 91
        8
  2
Thumbnail_Data
280
    15
 91
        0
101
ACDSRECORD
 95
        0
 90
        1
  2
AcDbDs::TreatedAsObjectData
280
     1
291
     1
101
ACDSRECORD
 95
        0
 90
        2
  2
AcDbDs::Legacy
280
     1
291
     1
101
ACDSRECORD
  1
AcDbDs::ID
 90
        3
  2
AcDs:Indexable
280
     1
291
     1
101
ACDSRECORD
  1
AcDbDs::ID
 90
        4
  2
AcDbDs::HandleAttribute
280
     7
282
     1
  0
ACDSSCHEMA
 90
        1
  1
AcDbDs::TreatedAsObjectDataSchema
  2
AcDbDs::TreatedAsObjectData
280
     1
 91
        0
  0
ACDSSCHEMA
 90
        2
  1
AcDbDs::LegacySchema
  2
AcDbDs::Legacy
280
     1
 91
        0
  0
ACDSSCHEMA
 90
        3
  1
AcDbDs::IndexedPropertySchema
  2
AcDs:Indexable
280
     1
 91
        0
  0
ACDSSCHEMA
 90
        4
  1
AcDbDs::HandleAttributeSchema
  2
AcDbDs::HandleAttribute
280
     7
 91
        1
284
     1
  0
ACDSSCHEMA
 90
        5
  1
AcDb3DSolid_ASM_Data
  2
AcDbDs::ID
280
    10
 91
        8
  2
ASM_Data
280
    15
 91
        0
101
ACDSRECORD
 95
        5
 90
        1
  2
AcDbDs::TreatedAsObjectData
280
     1
291
     1
101
ACDSRECORD
 95
        5
 90
        2
  2
AcDbDs::Legacy
280
     1
291
     1
101
ACDSRECORD
  1
AcDbDs::ID
 90
        3
  2
AcDs:Indexable
280
     1
291
     1
101
ACDSRECORD
  1
AcDbDs::ID
 90
        4
  2
AcDbDs::HandleAttribute
280
     7
282
     1
  0
ACDSRECORD
 90
        0
  2
AcDbDs::ID
280
    10
320
4EE
  2
Thumbnail_Data
280
    15
 94
     1322
310
89504E470D0A1A0A0000000D4948445200000100000000BF08030000002647F24000000300504C5445FFFFFFFFFFFFFFFFFF0000000000000000000000000000000000000000000000000000330000660000990000CC0000FF0033000033330033660033990033CC0033FF0066000066330066660066990066CC0066FF0099
310
000099330099660099990099CC0099FF00CC0000CC3300CC6600CC9900CCCC00CCFF00FF0000FF3300FF6600FF9900FFCC00FFFF3300003300333300663300993300CC3300FF3333003333333333663333993333CC3333FF3366003366333366663366993366CC3366FF3399003399333399663399993399CC3399FF33CC00
310
33CC3333CC6633CC9933CCCC33CCFF33FF0033FF3333FF6633FF9933FFCC33FFFF6600006600336600666600996600CC6600FF6633006633336633666633996633CC6633FF6666006666336666666666996666CC6666FF6699006699336699666699996699CC6699FF66CC0066CC3366CC6666CC9966CCCC66CCFF66FF0066
310
FF3366FF6666FF9966FFCC66FFFF9900009900339900669900999900CC9900FF9933009933339933669933999933CC9933FF9966009966339966669966999966CC9966FF9999009999339999669999999999CC9999FF99CC0099CC3399CC6699CC9999CCCC99CCFF99FF0099FF3399FF6699FF9999FFCC99FFFFCC0000CC00
310
33CC0066CC0099CC00CCCC00FFCC3300CC3333CC3366CC3399CC33CCCC33FFCC6600CC6633CC6666CC6699CC66CCCC66FFCC9900CC9933CC9966CC9999CC99CCCC99FFCCCC00CCCC33CCCC66CCCC99CCCCCCCCCCFFCCFF00CCFF33CCFF66CCFF99CCFFCCCCFFFFFF0000FF0033FF0066FF0099FF00CCFF00FFFF3300FF3333
310
FF3366FF3399FF33CCFF33FFFF6600FF6633FF6666FF6699FF66CCFF66FFFF9900FF9933FF9966FF9999FF99CCFF99FFFFCC00FFCC33FFCC66FFCC99FFCCCCFFCCFFFFFF00FFFF33FFFF66FFFF99FFFFCCFFFFFF0000000D0D0D1A1A1A2828283535354343435050505D5D5D6B6B6B787878868686939393A1A1A1AEAEAEBB
310
BBBBC9C9C9D6D6D6E4E4E4F1F1F1FFFFFF000000000000000000000000000000000000000000000000000000000000AD4AB4E4000001E54944415478DAEDDD418EC2300C0040FEFFCC9C57F21756EC8105090EB50D6DF158425C9A42A6A149516B5F7E86C76574000000E0EF3D06C623C0BC630F0000000000000000000000
310
00000000000000000000000000000000000000000000000000601AC0EDAE99B100E561B0B645573FB6DF18F52680B5F610D8366CEFB76E06D8DCA31682EDBFDAFF16BD0099DED405A2D2A81520D995224194864D2340BE1F1581C2A415BD00A5C3986E1CD5B173108074EBA89E3DDA008AA7B264F3E29AE54000C9F6D5556B
310
B40194E7B2D40ECAAB7600C70148EDA17EDD164D000DEBD9C42E1AAE5B4F0D106F00B87E8BF3001CE8FF801D01563ABE0520FD814F01D67080150086FF040098058C80D927C165043807B816000000000000000000000000000000000000000000000000000000000000000000000000000000000000000000000000000000
310
00000000000000000000BE03400E114F8E7A76180080C900F2079805AC0300C8270860178173A7D49454753CC0F8C4CA526B8F4FAE2EBDFE5E05168A336067898D64C1946A858D28C9B51759599F51AB12C4CB222BC54A53D9ABD2CF12DC6DDF5F6BECE495A6C6050000000000000000000000000000000000000000000000
310
0000000000000000000000000080610003E301606C000000E0FA1A1DE3017E0139B1CC45EE4968550000000049454E44AE426082
  0
ACDSRECORD
 90
        0
  2
AcDbDs::ID
280
    10
320
22
  2
Thumbnail_Data
280
    15
 94
     1224
310
89504E470D0A1A0A0000000D49484452000001000000004D08030000007E1D4A5200000300504C5445212830FFFFFF2128300000000000000000000000000000000000000000000000000000330000660000990000CC0000FF0033000033330033660033990033CC0033FF0066000066330066660066990066CC0066FF0099
310
000099330099660099990099CC0099FF00CC0000CC3300CC6600CC9900CCCC00CCFF00FF0000FF3300FF6600FF9900FFCC00FFFF3300003300333300663300993300CC3300FF3333003333333333663333993333CC3333FF3366003366333366663366993366CC3366FF3399003399333399663399993399CC3399FF33CC00
310
33CC3333CC6633CC9933CCCC33CCFF33FF0033FF3333FF6633FF9933FFCC33FFFF6600006600336600666600996600CC6600FF6633006633336633666633996633CC6633FF6666006666336666666666996666CC6666FF6699006699336699666699996699CC6699FF66CC0066CC3366CC6666CC9966CCCC66CCFF66FF0066
310
FF3366FF6666FF9966FFCC66FFFF9900009900339900669900999900CC9900FF9933009933339933669933999933CC9933FF9966009966339966669966999966CC9966FF9999009999339999669999999999CC9999FF99CC0099CC3399CC6699CC9999CCCC99CCFF99FF0099FF3399FF6699FF9999FFCC99FFFFCC0000CC00
310
33CC0066CC0099CC00CCCC00FFCC3300CC3333CC3366CC3399CC33CCCC33FFCC6600CC6633CC6666CC6699CC66CCCC66FFCC9900CC9933CC9966CC9999CC99CCCC99FFCCCC00CCCC33CCCC66CCCC99CCCCCCCCCCFFCCFF00CCFF33CCFF66CCFF99CCFFCCCCFFFFFF0000FF0033FF0066FF0099FF00CCFF00FFFF3300FF3333
310
FF3366FF3399FF33CCFF33FFFF6600FF6633FF6666FF6699FF66CCFF66FFFF9900FF9933FF9966FF9999FF99CCFF99FFFFCC00FFCC33FFCC66FFCC99FFCCCCFFCCFFFFFF00FFFF33FFFF66FFFF99FFFFCCFFFFFF0000000D0D0D1A1A1A2828283535354343435050505D5D5D6B6B6B787878868686939393A1A1A1AEAEAEBB
310
BBBBC9C9C9D6D6D6E4E4E4F1F1F1FFFFFF0000000000000000000000000000000000000000000000000000000000002E4550F10000015C4944415478DAED9B6D0F82300C84FBFFFFEF7D3741031BB443678C70774D8C4884A40FB7BE6C23C27611C3620640EFE63400303DE7296357C0EFAEB4D96C97087EDA417005A01704
310
B17C94017422161C02C89F5EE5235FFD031731B62D091880A2EF6D16D49DE8109EED819380B2F6B7AF6101C45A08E2380430391E70CB719401C0B49E5814A0D40D1A80011880011880010C01BC5FE6DD1A000A37CA4A373B450800ED72495FF51DA91002683DEC8E5F17ECA83002487FA03D640600A4DD4E81C500E801C41A
310
10F32E980E009076FC852EEE06E099C44600900080120079053806380B54008AFF0855822152099EF502A0EF05A2DB169375C9F4F301512E7C256502258074EA83704668E8063EB81925803000033000033000035001E02D323A9BA4BC4DCE66FB22BC0B495E7ECC5B01BBB42107205200610036BDD097BD630966BD6BBC3A
310
3B5640E7E4AA80E62C7B542897455402A201FC1BC003B6B7A828BD0ED6320000000049454E44AE426082ADB6A279B3B59A756CDC6E4F44444444A4611EA4E7EB47348E8C660000000049454E44AE426082
  0
ENDSEC
  0
EOF
