  0
SECTION
  2
HEADER
  9
$ACADVER
  1
AC1027
  9
$ACADMAINTVER
 70
   125
  9
$DWGCODEPAGE
  3
ANSI_1252
  9
$LASTSAVEDBY
  1
fleminab
  9
$REQUIREDVERSIONS
160
                 0
  9
$INSBASE
 10
0.0
 20
0.0
 30
0.0
  9
$EXTMIN
 10
330.9455253449803
 20
-327.3195019589977
 30
-0.0015258207003583
  9
$EXTMAX
 10
630.0784255560172
 20
194.0291386450133
 30
0.0000000349246037
  9
$LIMMIN
 10
0.0
 20
0.0
  9
$LIMMAX
 10
297.0
 20
210.0
  9
$ORTHOMODE
 70
     0
  9
$REGENMODE
 70
     1
  9
$FILLMODE
 70
     1
  9
$QTEXTMODE
 70
     0
  9
$MIRRTEXT
 70
     1
  9
$LTSCALE
 40
1.0
  9
$ATTMODE
 70
     1
  9
$TEXTSIZE
 40
2.5
  9
$TRACEWID
 40
1.0
  9
$TEXTSTYLE
  7
Standard
  9
$CLAYER
  8
0
  9
$CELTYPE
  6
ByLayer
  9
$CECOLOR
 62
   256
  9
$CELTSCALE
 40
1.0
  9
$DISPSILH
 70
     0
  9
$DIMSCALE
 40
1.0
  9
$DIMASZ
 40
2.0
  9
$DIMEXO
 40
1.0
  9
$DIMDLI
 40
3.75
  9
$DIMRND
 40
0.0
  9
$DIMDLE
 40
0.0
  9
$DIMEXE
 40
1.5
  9
$DIMTP
 40
0.0
  9
$DIMTM
 40
0.0
  9
$DIMTXT
 40
2.5
  9
$DIMCEN
 40
2.5
  9
$DIMTSZ
 40
0.0
  9
$DIMTOL
 70
     0
  9
$DIMLIM
 70
     0
  9
$DIMTIH
 70
     1
  9
$DIMTOH
 70
     1
  9
$DIMSE1
 70
     0
  9
$DIMSE2
 70
     0
  9
$DIMTAD
 70
     1
  9
$DIMZIN
 70
     0
  9
$DIMBLK
  1

  9
$DIMASO
 70
     1
  9
$DIMSHO
 70
     1
  9
$DIMPOST
  1

  9
$DIMAPOST
  1

  9
$DIMALT
 70
     0
  9
$DIMALTD
 70
     3
  9
$DIMALTF
 40
0.0393700787401575
  9
$DIMLFAC
 40
5.0
  9
$DIMTOFL
 70
     1
  9
$DIMTVP
 40
0.0
  9
$DIMTIX
 70
     0
  9
$DIMSOXD
 70
     0
  9
$DIMSAH
 70
     0
  9
$DIMBLK1
  1

  9
$DIMBLK2
  1

  9
$DIMSTYLE
  2
ISO-25
  9
$DIMCLRD
 70
     0
  9
$DIMCLRE
 70
     0
  9
$DIMCLRT
 70
     0
  9
$DIMTFAC
 40
1.0
  9
$DIMGAP
 40
1.524
  9
$DIMJUST
 70
     0
  9
$DIMSD1
 70
     0
  9
$DIMSD2
 70
     0
  9
$DIMTOLJ
 70
     0
  9
$DIMTZIN
 70
     0
  9
$DIMALTZ
 70
     0
  9
$DIMALTTZ
 70
     0
  9
$DIMUPT
 70
     0
  9
$DIMDEC
 70
     0
  9
$DIMTDEC
 70
     2
  9
$DIMALTU
 70
     2
  9
$DIMALTTD
 70
     3
  9
$DIMTXSTY
  7
Standard
  9
$DIMAUNIT
 70
     0
  9
$DIMADEC
 70
     2
  9
$DIMALTRND
 40
0.0
  9
$DIMAZIN
 70
     0
  9
$DIMDSEP
 70
    44
  9
$DIMATFIT
 70
     3
  9
$DIMFRAC
 70
     0
  9
$DIMLDRBLK
  1

  9
$DIMLUNIT
 70
     2
  9
$DIMLWD
 70
    -2
  9
$DIMLWE
 70
    -2
  9
$DIMTMOVE
 70
     0
  9
$DIMFXL
 40
1.0
  9
$DIMFXLON
 70
     0
  9
$DIMJOGANG
 40
0.7853981633974483
  9
$DIMTFILL
 70
     0
  9
$DIMTFILLCLR
 70
     0
  9
$DIMARCSYM
 70
     0
  9
$DIMLTYPE
  6

  9
$DIMLTEX1
  6

  9
$DIMLTEX2
  6

  9
$DIMTXTDIRECTION
 70
     0
  9
$LUNITS
 70
     2
  9
$LUPREC
 70
     2
  9
$SKETCHINC
 40
1.0
  9
$FILLETRAD
 40
10.0
  9
$AUNITS
 70
     0
  9
$AUPREC
 70
     2
  9
$MENU
  1
.
  9
$ELEVATION
 40
0.0
  9
$PELEVATION
 40
0.0
  9
$THICKNESS
 40
0.0
  9
$LIMCHECK
 70
     0
  9
$CHAMFERA
 40
10.0
  9
$CHAMFERB
 40
10.0
  9
$CHAMFERC
 40
20.0
  9
$CHAMFERD
 40
0.0
  9
$SKPOLY
 70
     0
  9
$TDCREATE
 40
2456156.441226852
  9
$TDUCREATE
 40
2456156.024571575
  9
$TDUPDATE
 40
2458033.438206019
  9
$TDUUPDATE
 40
2458032.979872686
  9
$TDINDWG
 40
0.0076472106
  9
$TDUSRTIMER
 40
0.0076472106
  9
$USRTIMER
 70
     1
  9
$ANGBASE
 50
0.0
  9
$ANGDIR
 70
     0
  9
$PDMODE
 70
     0
  9
$PDSIZE
 40
-1.0
  9
$PLINEWID
 40
0.0
  9
$SPLFRAME
 70
     0
  9
$SPLINETYPE
 70
     6
  9
$SPLINESEGS
 70
     8
  9
$HANDSEED
  5
3BF
  9
$SURFTAB1
 70
     6
  9
$SURFTAB2
 70
     6
  9
$SURFTYPE
 70
     6
  9
$SURFU
 70
     6
  9
$SURFV
 70
     6
  9
$UCSBASE
  2

  9
$UCSNAME
  2

  9
$UCSORG
 10
0.0
 20
0.0
 30
0.0
  9
$UCSXDIR
 10
1.0
 20
0.0
 30
0.0
  9
$UCSYDIR
 10
0.0
 20
1.0
 30
0.0
  9
$UCSORTHOREF
  2

  9
$UCSORTHOVIEW
 70
     0
  9
$UCSORGTOP
 10
0.0
 20
0.0
 30
0.0
  9
$UCSORGBOTTOM
 10
0.0
 20
0.0
 30
0.0
  9
$UCSORGLEFT
 10
0.0
 20
0.0
 30
0.0
  9
$UCSORGRIGHT
 10
0.0
 20
0.0
 30
0.0
  9
$UCSORGFRONT
 10
0.0
 20
0.0
 30
0.0
  9
$UCSORGBACK
 10
0.0
 20
0.0
 30
0.0
  9
$PUCSBASE
  2

  9
$PUCSNAME
  2

  9
$PUCSORG
 10
0.0
 20
0.0
 30
0.0
  9
$PUCSXDIR
 10
1.0
 20
0.0
 30
0.0
  9
$PUCSYDIR
 10
0.0
 20
1.0
 30
0.0
  9
$PUCSORTHOREF
  2

  9
$PUCSORTHOVIEW
 70
     0
  9
$PUCSORGTOP
 10
0.0
 20
0.0
 30
0.0
  9
$PUCSORGBOTTOM
 10
0.0
 20
0.0
 30
0.0
  9
$PUCSORGLEFT
 10
0.0
 20
0.0
 30
0.0
  9
$PUCSORGRIGHT
 10
0.0
 20
0.0
 30
0.0
  9
$PUCSORGFRONT
 10
0.0
 20
0.0
 30
0.0
  9
$PUCSORGBACK
 10
0.0
 20
0.0
 30
0.0
  9
$USERI1
 70
     0
  9
$USERI2
 70
     0
  9
$USERI3
 70
     0
  9
$USERI4
 70
     0
  9
$USERI5
 70
     0
  9
$USERR1
 40
0.0
  9
$USERR2
 40
0.0
  9
$USERR3
 40
0.0
  9
$USERR4
 40
0.0
  9
$USERR5
 40
0.0
  9
$WORLDVIEW
 70
     1
  9
$SHADEDGE
 70
     3
  9
$SHADEDIF
 70
    70
  9
$TILEMODE
 70
     1
  9
$MAXACTVP
 70
    64
  9
$PINSBASE
 10
0.0
 20
0.0
 30
0.0
  9
$PLIMCHECK
 70
     0
  9
$PEXTMIN
 10
1.000000000000000E+20
 20
1.000000000000000E+20
 30
1.000000000000000E+20
  9
$PEXTMAX
 10
-1.000000000000000E+20
 20
-1.000000000000000E+20
 30
-1.000000000000000E+20
  9
$PLIMMIN
 10
0.0
 20
0.0
  9
$PLIMMAX
 10
420.0
 20
297.0
  9
$UNITMODE
 70
     0
  9
$VISRETAIN
 70
     1
  9
$PLINEGEN
 70
     0
  9
$PSLTSCALE
 70
     1
  9
$TREEDEPTH
 70
  3020
  9
$CMLSTYLE
  2
Standard
  9
$CMLJUST
 70
     0
  9
$CMLSCALE
 40
20.0
  9
$PROXYGRAPHICS
 70
     1
  9
$MEASUREMENT
 70
     1
  9
$CELWEIGHT
370
    -1
  9
$ENDCAPS
280
     0
  9
$JOINSTYLE
280
     0
  9
$LWDISPLAY
290
     1
  9
$INSUNITS
 70
     4
  9
$HYPERLINKBASE
  1

  9
$STYLESHEET
  1

  9
$XEDIT
290
     1
  9
$CEPSNTYPE
380
     0
  9
$PSTYLEMODE
290
     1
  9
$FINGERPRINTGUID
  2
{6F4C84F9-C393-4A8D-8CAD-2CF5B6B16E85}
  9
$VERSIONGUID
  2
{0A20F380-E535-0744-B1F4-019A5A2D3A02}
  9
$EXTNAMES
290
     1
  9
$PSVPSCALE
 40
0.0
  9
$OLESTARTUP
290
     0
  9
$SORTENTS
280
   127
  9
$INDEXCTL
280
     1
  9
$HIDETEXT
280
     0
  9
$XCLIPFRAME
280
     0
  9
$HALOGAP
280
     0
  9
$OBSCOLOR
 70
   257
  9
$OBSLTYPE
280
     0
  9
$INTERSECTIONDISPLAY
280
     0
  9
$INTERSECTIONCOLOR
 70
   257
  9
$DIMASSOC
280
     1
  9
$PROJECTNAME
  1

  9
$CAMERADISPLAY
290
     0
  9
$LENSLENGTH
 40
50.0
  9
$CAMERAHEIGHT
 40
0.0
  9
$STEPSPERSEC
 40
2.0
  9
$STEPSIZE
 40
6.0
  9
$3DDWFPREC
 40
2.0
  9
$PSOLWIDTH
 40
0.25
  9
$PSOLHEIGHT
 40
4.0
  9
$LOFTANG1
 40
1.570796326794896
  9
$LOFTANG2
 40
1.570796326794896
  9
$LOFTMAG1
 40
0.0
  9
$LOFTMAG2
 40
0.0
  9
$LOFTPARAM
 70
     7
  9
$LOFTNORMALS
280
     1
  9
$LATITUDE
 40
37.795
  9
$LONGITUDE
 40
-122.394
  9
$NORTHDIRECTION
 40
0.0
  9
$TIMEZONE
 70
 -8000
  9
$LIGHTGLYPHDISPLAY
280
     1
  9
$TILEMODELIGHTSYNCH
280
     1
  9
$CMATERIAL
347
33C
  9
$SOLIDHIST
280
     0
  9
$SHOWHIST
280
     1
  9
$DWFFRAME
280
     2
  9
$DGNFRAME
280
     0
  9
$REALWORLDSCALE
290
     1
  9
$INTERFERECOLOR
 62
     1
  9
$INTERFEREOBJVS
345
35E
  9
$INTERFEREVPVS
346
35B
  9
$CSHADOW
280
     0
  9
$SHADOWPLANELOCATION
 40
0.0
  0
ENDSEC
  0
SECTION
  2
CLASSES
  0
CLASS
  1
ACDBDICTIONARYWDFLT
  2
AcDbDictionaryWithDefault
  3
ObjectDBX Classes
 90
        0
 91
        1
280
     0
281
     0
  0
CLASS
  1
VISUALSTYLE
  2
AcDbVisualStyle
  3
ObjectDBX Classes
 90
     4095
 91
       24
280
     0
281
     0
  0
CLASS
  1
MATERIAL
  2
AcDbMaterial
  3
ObjectDBX Classes
 90
     1153
 91
        3
280
     0
281
     0
  0
CLASS
  1
ACDBPLACEHOLDER
  2
AcDbPlaceHolder
  3
ObjectDBX Classes
 90
        0
 91
        1
280
     0
281
     0
  0
CLASS
  1
LAYOUT
  2
AcDbLayout
  3
ObjectDBX Classes
 90
        0
 91
        3
280
     0
281
     0
  0
CLASS
  1
SCALE
  2
AcDbScale
  3
ObjectDBX Classes
 90
     1153
 91
       99
280
     0
281
     0
  0
CLASS
  1
ACME_DOCUMENT
  2
AcMeDbDoc
  3
AcMeServices
 90
        0
 91
        0
280
     0
281
     0
  0
CLASS
  1
AMGSETTINGSOBJ
  2
AmgSettingsObj
  3
"AcadM|Product Description: AutoCAD Mechanical 2000|Company: Autodesk"
 90
        0
 91
        2
280
     0
281
     0
  0
CLASS
  1
ACMESCOPE
  2
AcMeScope
  3
AcMeServices
 90
        0
 91
        1
280
     0
281
     0
  0
CLASS
  1
ACMECOMMANDHISTORY
  2
AcMeCommandHistory
  3
AcMeServices
 90
        0
 91
        1
280
     0
281
     0
  0
CLASS
  1
ACIMSYSVARMAN
  2
AcImSysVarManager
  3
AcMeServices
 90
        0
 91
        5
280
     0
281
     0
  0
CLASS
  1
ACIMINTSYSVAR
  2
AcImIntSysVar
  3
AcMeServices
 90
        0
 91
       26
280
     0
281
     0
  0
CLASS
  1
ACMEDRAWINGMAN
  2
AcMeDrawingMan
  3
AcMeServices
 90
        0
 91
        1
280
     0
281
     0
  0
CLASS
  1
ACMEVIEW
  2
AcMeView
  3
AcMeServices
 90
        0
 91
        1
280
     0
281
     0
  0
CLASS
  1
ACDBENTITYCACHE
  2
AcMeEntityCache
  3
AcMeServices
 90
        0
 91
        0
280
     0
281
     0
  0
CLASS
  1
GSMANAGER
  2
AcMeGSManager
  3
AcMeServices
 90
        0
 91
        0
280
     0
281
     0
  0
CLASS
  1
AMDTINTERNALREACTOR
  2
AmdtInternalReactor
  3
AcMeServices
 90
        0
 91
        0
280
     0
281
     0
  0
CLASS
  1
ACMESTATEMGR
  2
AcMeStateMgr
  3
AcMeServices
 90
        0
 91
        1
280
     0
281
     0
  0
CLASS
  1
ACGREFMASTER
  2
AcGrefMaster
  3
AcAttribServices
 90
        0
 91
        1
280
     0
281
     0
  0
CLASS
  1
AM_DRAWING_MGR
  2
AcDmDwgMgr
  3
AcMechDwgViewMgmt
 90
        0
 91
        1
280
     0
281
     0
  0
CLASS
  1
AM_DWG_DOCUMENT
  2
AcDmDwgDocument
  3
AcMechDwgViewMgmt
 90
        0
 91
        1
280
     0
281
     0
  0
CLASS
  1
AM_DWG_SHEET
  2
AcDmSheet
  3
AcMechDwgViewMgmt
 90
        0
 91
        2
280
     0
281
     0
  0
CLASS
  1
AM_VIEWDIMPARMAP
  2
AcDmViewDimParMap
  3
AcMechDwgViewMgmt
 90
        0
 91
        2
280
     0
281
     0
  0
CLASS
  1
ACIMREALSYSVAR
  2
AcImRealSysVar
  3
AcMeServices
 90
        0
 91
        1
280
     0
281
     0
  0
CLASS
  1
AM_DWGMGR_NAME
  2
AcDmDwgMgrName
  3
AcMechDwgViewMgmt
 90
        0
 91
        1
280
     0
281
     0
  0
CLASS
  1
ACME_DATABASE
  2
AcMeDbDatabase
  3
AcMeServices
 90
        0
 91
        0
280
     0
281
     0
  0
CLASS
  1
ACRFINSADJUSTERMGR
  2
AcRfInsAdjusterMgr
  3
AcMeServices
 90
        0
 91
        0
280
     0
281
     0
  0
CLASS
  1
ACGREFACADMASTER
  2
AcGrefacadMaster
  3
AcGrefServices
 90
        0
 91
        1
280
     0
281
     0
  0
CLASS
  1
AMDTMENUSTATEMGR
  2
AmdtMenuStateMgr
  3
McadcomServices
 90
        0
 91
        0
280
     0
281
     0
  0
CLASS
  1
AMDTMCOMMENUSTATE
  2
AmdtMcomMenuState
  3
McadcomServices
 90
        0
 91
        0
280
     0
281
     0
  0
CLASS
  1
AMIMASTER
  2
AmiMaster
  3
AmiServices
 90
        0
 91
        1
280
     0
281
     0
  0
CLASS
  1
MAPIAMMOUDLE
  2
MApiAmModule
  3
MApiAmServices
 90
        0
 91
        1
280
     0
281
     0
  0
CLASS
  1
AMDTADMENUSTATE
  2
AmdtAdMenuState
  3
DesignerServices
 90
        0
 91
        0
280
     0
281
     0
  0
CLASS
  1
ADAPPL
  2
AcAdAppl
  3
DesignerServices
 90
        0
 91
        1
280
     0
281
     0
  0
CLASS
  1
DEPMGR
  2
AcAdDepMgr
  3
DesignerServices
 90
        0
 91
        1
280
     0
281
     0
  0
CLASS
  1
PARAMMGR
  2
AcAdParamMgr
  3
DesignerServices
 90
        0
 91
        1
280
     0
281
     0
  0
CLASS
  1
PARAMSCOPE
  2
AcAdParamScope
  3
DesignerServices
 90
        0
 91
        1
280
     0
281
     0
  0
CLASS
  1
NAMEDAPPL
  2
AcAdNamedAppl
  3
DesignerServices
 90
        0
 91
        1
280
     0
281
     0
  0
CLASS
  1
AMDTDMMENUSTATE
  2
AmdtDmMenuState
  3
AcMechDwgViewMgmt
 90
        0
 91
        0
280
     0
281
     0
  0
CLASS
  1
AMDTAMMENUSTATE
  2
AmdtAmMenuState
  3
DesignerAssemblies
 90
        0
 91
        0
280
     0
281
     0
  0
CLASS
  1
ACIMSTRSYSVAR
  2
AcImStrSysVar
  3
AcMeServices
 90
        0
 91
        5
280
     0
281
     0
  0
CLASS
  1
ACAMPROJECT
  2
AcAmProject
  3
DesignerAssemblies
 90
        0
 91
        1
280
     0
281
     0
  0
CLASS
  1
ACAMGRCOMPDEF
  2
AcAmGrCompDef
  3
DesignerAssemblies
 90
        0
 91
        1
280
     0
281
     0
  0
CLASS
  1
ACCMCONTEXT
  2
AcCmContext
  3
DesignerAssemblies
 90
        0
 91
        1
280
     0
281
     0
  0
CLASS
  1
ACAMCOMPDEF
  2
AcAmCompDef
  3
DesignerAssemblies
 90
        0
 91
        1
280
     0
281
     0
  0
CLASS
  1
ACAMCOMPDEFMGR
  2
AcAmCompDefMgr
  3
DesignerAssemblies
 90
        0
 91
        1
280
     0
281
     0
  0
CLASS
  1
AMCONTEXTMGR
  2
AcAmContextMgr
  3
DesignerAssemblies
 90
        0
 91
        1
280
     0
281
     0
  0
CLASS
  1
ACAMCONTEXTMODELER
  2
AcAmContextModeler
  3
DesignerAssemblies
 90
        0
 91
        1
280
     0
281
     0
  0
CLASS
  1
ACMDATADICTIONARY
  2
AcmDataDictionary
  3
"AcmSymBB|Product Description: AutoCAD Mechanical 2004 DX|Company: Autodesk"
 90
        0
 91
        1
280
     0
281
     0
  0
CLASS
  1
CATALOGSTATE
  2
AcAmCatalogState
  3
DesignerAssemblies
 90
        0
 91
        1
280
     0
281
     0
  0
CLASS
  1
ACAMGRCOMPDEFSET
  2
AcAmGrCompDefSet
  3
DesignerAssemblies
 90
        0
 91
        0
280
     0
281
     0
  0
CLASS
  1
AMDTBROWSERDBTAB
  2
AmdtBrowserDbTab
  3
McadcomServices
 90
        0
 91
        0
280
     0
281
     0
  0
CLASS
  1
CBROWSERAPPOBJECT
  2
CBrowserAppObject
  3
McadcomServices
 90
        0
 91
        0
280
     0
281
     0
  0
CLASS
  1
DM_PLACEHOLDER
  2
AcDmSelsetPlaceholder
  3
AcMechDwgViewMgmt
 90
        0
 91
        0
280
     0
281
     0
  0
CLASS
  1
ACMSTANDARDISO
  2
AcmStandardISO
  3
"Amdt_StdImp|Product Description: AutoCAD Mechanical 2004 DX|Company: Autodesk"
 90
        0
 91
        1
280
     0
281
     0
  0
CLASS
  1
AMGOBJPROPCFG
  2
AmgObjPropCfg
  3
"AmgLay|Product Description: AutoCAD Mechanical 2000|Company: Autodesk"
 90
        1
 91
        1
280
     0
281
     0
  0
CLASS
  1
AMDTEDGESTANDARDISO
  2
AmdtEdgeStdISO
  3
"Amdt_StdImp|Product Description: AutoCAD Mechanical 2004 DX|Company: Autodesk"
 90
        0
 91
        1
280
     0
281
     0
  0
CLASS
  1
ACMSURFSTANDARDISO
  2
AcmSurfTextStdISO
  3
"Amdt_StdImp|Product Description: AutoCAD Mechanical 2004 DX|Company: Autodesk"
 90
        0
 91
        1
280
     0
281
     0
  0
CLASS
  1
ACMFCFSTANDARDISO
  2
AcmFCFStdISO
  3
"Amdt_StdImp|Product Description: AutoCAD Mechanical 2004 DX|Company: Autodesk"
 90
        0
 91
        1
280
     0
281
     0
  0
CLASS
  1
ACMWELDSTANDARDISO
  2
AcmWeldingStdISO
  3
"Amdt_StdImp|Product Description: AutoCAD Mechanical 2004 DX|Company: Autodesk"
 90
        0
 91
        1
280
     0
281
     0
  0
CLASS
  1
ACMIDSTANDARDISO
  2
AcmIdStdISO
  3
"Amdt_StdImp|Product Description: AutoCAD Mechanical 2004 DX|Company: Autodesk"
 90
        0
 91
        1
280
     0
281
     0
  0
CLASS
  1
ACMDATUMSTANDARDISO
  2
AcmDatumStdISO
  3
"Amdt_StdImp|Product Description: AutoCAD Mechanical 2004 DX|Company: Autodesk"
 90
        0
 91
        1
280
     0
281
     0
  0
CLASS
  1
ACMBOMSTANDARDISO
  2
AcmBOMStdISO
  3
"Amdt_StdImp|Product Description: AutoCAD Mechanical 2004 DX|Company: Autodesk"
 90
        0
 91
        1
280
     0
281
     0
  0
CLASS
  1
ACMDETAILSTANDARDISO
  2
AmdtDetailSymStdISO
  3
"Amdt_StdImp|Product Description: AutoCAD Mechanical 2004 DX|Company: Autodesk"
 90
        0
 91
        1
280
     0
281
     0
  0
CLASS
  1
ACMSECTIONSTANDARDISO
  2
AmdtSectionSymStdISO
  3
"Amdt_StdImp|Product Description: AutoCAD Mechanical 2004 DX|Company: Autodesk"
 90
        0
 91
        1
280
     0
281
     0
  0
CLASS
  1
ACMCENTERLINESTANDARDISO
  2
AmdtCenterLineStdISO
  3
"Amdt_StdImp|Product Description: AutoCAD Mechanical 2004 DX|Company: Autodesk"
 90
        0
 91
        1
280
     0
281
     0
  0
CLASS
  1
ACMTHREADLINESTANDARDISO
  2
AmdtThreadLineStdISO
  3
"Amdt_StdImp|Product Description: AutoCAD Mechanical 2004 DX|Company: Autodesk"
 90
        0
 91
        1
280
     0
281
     0
  0
CLASS
  1
ACMNOTESTANDARDISO
  2
AmdtNoteStdISO
  3
"Amdt_StdImp|Product Description: AutoCAD Mechanical 2004 DX|Company: Autodesk"
 90
        0
 91
        1
280
     0
281
     0
  0
CLASS
  1
AMDTNOTETEMPLATEDB
  2
AmdtNoteTemplateDB
  3
AMDT_STDIMP_MODULE_NAME
 90
        0
 91
        4
280
     0
281
     0
  0
CLASS
  1
ACAMGLAYSTD
  2
AcAmgLayStd
  3
"AcAmgLayStd|Product Description: AutoCAD Mechanical 2000|Company: Autodesk"
 90
        0
 91
        1
280
     0
281
     0
  0
CLASS
  1
ACAMGDIMSTD
  2
AcAmgDimStd
  3
"AcAmgDimStd|Product Description: AutoCAD Mechanical 2000|Company: Autodesk"
 90
        0
 91
        1
280
     0
281
     0
  0
CLASS
  1
ACAMGHOLECHARTSTDISO
  2
AcAmgHoleChartStdISO
  3
ACMSYMBB_MODULE_NAME
 90
        0
 91
        1
280
     0
281
     0
  0
CLASS
  1
ACAMGTITLESTD
  2
AcAmgTitleStd
  3
"TITLEAPP"
 90
        0
 91
        1
280
     0
281
     0
  0
CLASS
  1
ACAMGFILTERDAT
  2
AcAmgFilterDat
  3
"AcadM|Product Description: AutoCAD Mechanical 2000|Company: Autodesk"
 90
        0
 91
        6
280
     0
281
     0
  0
CLASS
  1
LAYER_INDEX
  2
AcDbLayerIndex
  3
ObjectDBX Classes
 90
        0
 91
        1
280
     0
281
     0
  0
CLASS
  1
IDBUFFER
  2
AcDbIdBuffer
  3
ObjectDBX Classes
 90
        0
 91
       16
280
     0
281
     0
  0
CLASS
  1
TABLESTYLE
  2
AcDbTableStyle
  3
ObjectDBX Classes
 90
     4095
 91
        1
280
     0
281
     0
  0
CLASS
  1
MLEADERSTYLE
  2
AcDbMLeaderStyle
  3
ACDB_MLEADERSTYLE_CLASS
 90
     4095
 91
        1
280
     0
281
     0
  0
CLASS
  1
ACDBSECTIONVIEWSTYLE
  2
AcDbSectionViewStyle
  3
ObjectDBX Classes
 90
     1025
 91
        1
280
     0
281
     0
  0
CLASS
  1
ACDBDETAILVIEWSTYLE
  2
AcDbDetailViewStyle
  3
ObjectDBX Classes
 90
     1025
 91
        1
280
     0
281
     0
  0
CLASS
  1
DICTIONARYVAR
  2
AcDbDictionaryVar
  3
ObjectDBX Classes
 90
        0
 91
       18
280
     0
281
     0
  0
CLASS
  1
CELLSTYLEMAP
  2
AcDbCellStyleMap
  3
ObjectDBX Classes
 90
     1152
 91
        1
280
     0
281
     0
  0
ENDSEC
  0
SECTION
  2
TABLES
  0
TABLE
  2
VPORT
  5
8
330
0
100
AcDbSymbolTable
 70
     1
1001
ACAD
1000
DbSaveVer
1071
        5
  0
VPORT
  5
33A
330
8
100
AcDbSymbolTableRecord
100
AcDbViewportTableRecord
  2
*Active
 70
     0
 10
0.0
 20
0.0
 11
1.0
 21
1.0
 12
480.5119754504987
 22
-66.64518165699224
 13
0.0
 23
0.0
 14
10.0
 24
10.0
 15
10.0
 25
10.0
 16
0.0
 26
0.0
 36
1.0
 17
0.0
 27
0.0
 37
0.0
 40
525.0814470999825
 41
2.292712066905615
 42
50.0
 43
0.0
 44
0.0
 50
0.0
 51
0.0
 71
     0
 72
  2000
 73
     1
 74
     3
 75
     0
 76
     0
 77
     0
 78
     0
281
     0
 65
     1
110
0.0
120
0.0
130
0.0
111
1.0
121
0.0
131
0.0
112
0.0
122
1.0
132
0.0
 79
     0
146
0.0
348
35A
 60
     3
 61
     5
292
     1
282
     1
141
0.0
142
0.0
 63
   250
421
  3355443
1001
ACAD_NAV_VCDISPLAY
1070
     3
  0
ENDTAB
  0
TABLE
  2
LTYPE
  5
5
330
0
100
AcDbSymbolTable
 70
    17
  0
LTYPE
  5
14
330
5
100
AcDbSymbolTableRecord
100
AcDbLinetypeTableRecord
  2
ByBlock
 70
     0
  3

 72
    65
 73
     0
 40
0.0
  0
LTYPE
  5
15
330
5
100
AcDbSymbolTableRecord
100
AcDbLinetypeTableRecord
  2
ByLayer
 70
     0
  3

 72
    65
 73
     0
 40
0.0
  0
LTYPE
  5
16
330
5
100
AcDbSymbolTableRecord
100
AcDbLinetypeTableRecord
  2
Continuous
 70
     0
  3
Solid line
 72
    65
 73
     0
 40
0.0
  0
LTYPE
  5
3F
330
5
100
AcDbSymbolTableRecord
100
AcDbLinetypeTableRecord
  2
HIDDEN
 70
     0
  3
Hidden __ __ __ __ __ __ __ __ __ __ __ __ __ __
 72
    65
 73
     2
 40
1.905
 49
1.27
 74
     0
 49
-0.635
 74
     0
  0
LTYPE
  5
40
330
5
100
AcDbSymbolTableRecord
100
AcDbLinetypeTableRecord
  2
PHANTOM
 70
     0
  3
Phantom ______  __  __  ______  __  __  ______
 72
    65
 73
     6
 40
12.7
 49
6.349999999999999
 74
     0
 49
-1.27
 74
     0
 49
1.27
 74
     0
 49
-1.27
 74
     0
 49
1.27
 74
     0
 49
-1.27
 74
     0
  0
LTYPE
  5
41
330
5
100
AcDbSymbolTableRecord
100
AcDbLinetypeTableRecord
  2
CENTER
 70
     0
  3
Center ____ _ ____ _ ____ _ ____ _ ____ _ ____
 72
    65
 73
     4
 40
10.16
 49
6.349999999999999
 74
     0
 49
-1.27
 74
     0
 49
1.27
 74
     0
 49
-1.27
 74
     0
  0
LTYPE
  5
42
330
5
100
AcDbSymbolTableRecord
100
AcDbLinetypeTableRecord
  2
CENTERX2
 70
     0
  3
Center (2x) ________  __  ________  __  _____
 72
    65
 73
     4
 40
20.32
 49
12.7
 74
     0
 49
-2.54
 74
     0
 49
2.54
 74
     0
 49
-2.54
 74
     0
  0
LTYPE
  5
43
330
5
100
AcDbSymbolTableRecord
100
AcDbLinetypeTableRecord
  2
DOT2
 70
     0
  3
Dot (.5x) ........................................
 72
    65
 73
     2
 40
0.635
 49
0.0
 74
     0
 49
-0.635
 74
     0
  0
LTYPE
  5
223
330
5
100
AcDbSymbolTableRecord
100
AcDbLinetypeTableRecord
  2
PHANTOM2
 70
     0
  3
Phantom (.5x) ___ _ _ ___ _ _ ___ _ _ ___ _ _
 72
    65
 73
     6
 40
31.75
 49
15.875
 74
     0
 49
-3.174999999999999
 74
     0
 49
3.174999999999999
 74
     0
 49
-3.174999999999999
 74
     0
 49
3.174999999999999
 74
     0
 49
-3.174999999999999
 74
     0
  0
LTYPE
  5
26A
330
5
100
AcDbSymbolTableRecord
100
AcDbLinetypeTableRecord
  2
AM_ISO02W050
 70
     0
  3
__ __ __ __ __ __ __ __ __ __ __ __ __ __ __
 72
    65
 73
     2
 40
7.5
 49
6.0
 74
     0
 49
-1.5
 74
     0
  0
LTYPE
  5
26B
330
5
100
AcDbSymbolTableRecord
100
AcDbLinetypeTableRecord
  2
AM_ISO08W050
 70
     0
  3
____ . ____ . ____ . ____ . ____ . ____ . ____
 72
    65
 73
     4
 40
18.0
 49
12.0
 74
     0
 49
-1.5
 74
     0
 49
3.0
 74
     0
 49
-1.5
 74
     0
  0
LTYPE
  5
26C
330
5
100
AcDbSymbolTableRecord
100
AcDbLinetypeTableRecord
  2
AM_ISO09W050
 70
     0
  3
_____ . . _____ . . _____ . . ____ .. ____
 72
    65
 73
     6
 40
22.5
 49
12.0
 74
     0
 49
-1.5
 74
     0
 49
3.0
 74
     0
 49
-1.5
 74
     0
 49
3.0
 74
     0
 49
-1.5
 74
     0
  0
LTYPE
  5
26D
330
5
100
AcDbSymbolTableRecord
100
AcDbLinetypeTableRecord
  2
Amconstr
 70
     0
  3
_______________________
 72
    65
 73
     2
 40
9999.0
 49
9999.0
 74
     0
 49
0.0
 74
     0
  0
LTYPE
  5
26E
330
5
100
AcDbSymbolTableRecord
100
AcDbLinetypeTableRecord
  2
AM_ISO08W050x2
 70
     0
  3
__ . __ . __ . __ . __ . __
 72
    65
 73
     4
 40
9.0
 49
6.0
 74
     0
 49
-0.75
 74
     0
 49
1.5
 74
     0
 49
-0.75
 74
     0
  0
LTYPE
  5
26F
330
5
100
AcDbSymbolTableRecord
100
AcDbLinetypeTableRecord
  2
AM_ISO02W050x2
 70
     0
  3
 _ _ _ _ _ _ _ _ _ _ _ _
 72
    65
 73
     2
 40
3.75
 49
3.0
 74
     0
 49
-0.75
 74
     0
  0
LTYPE
  5
272
330
5
100
AcDbSymbolTableRecord
100
AcDbLinetypeTableRecord
  2
Amzigzag
 70
     0
  3
/\/-/\/-/\/-/\/-/\/-/\/
 72
    65
 73
     2
 40
11.0001
 49
0.0001
 74
     4
 75
   135
340
271
 46
0.04
 50
0.0
 44
0.0
 45
0.0
 49
-11.0
 74
     0
  0
LTYPE
  5
281
330
5
100
AcDbSymbolTableRecord
100
AcDbLinetypeTableRecord
  2
ACISOWELD
 70
     0
  3
_ _ _ _ _
 72
    65
 73
     2
 40
2.0
 49
2.0
 74
     0
 49
-1.0
 74
     0
  0
LTYPE
  5
282
330
5
100
AcDbSymbolTableRecord
100
AcDbLinetypeTableRecord
  2
ACISOTGB
 70
     0
  3
__ . . __ . .
 72
    65
 73
     6
 40
9.0
 49
4.0
 74
     0
 49
-1.0
 74
     0
 49
1.0
 74
     0
 49
-1.0
 74
     0
 49
1.0
 74
     0
 49
-1.0
 74
     0
  0
LTYPE
  5
283
330
5
100
AcDbSymbolTableRecord
100
AcDbLinetypeTableRecord
  2
ACISOTGL
 70
     0
  3
_ _ _ _ _
 72
    65
 73
     2
 40
3.0
 49
2.0
 74
     0
 49
-1.0
 74
     0
  0
ENDTAB
  0
TABLE
  2
LAYER
  5
2
330
0
100
AcDbSymbolTable
 70
    16
  0
LAYER
  5
10
102
{ACAD_XDICTIONARY
360
380
102
}
330
2
100
AcDbSymbolTableRecord
100
AcDbLayerTableRecord
  2
0
 70
     0
 62
     7
  6
Continuous
370
    -3
390
F
347
34C
348
0
  0
LAYER
  5
44
102
{ACAD_XDICTIONARY
360
382
102
}
330
2
100
AcDbSymbolTableRecord
100
AcDbLayerTableRecord
  2
FORMAT
 70
     0
 62
     7
  6
Continuous
370
    -3
390
F
347
34C
348
0
  0
LAYER
  5
45
102
{ACAD_XDICTIONARY
360
384
102
}
330
2
100
AcDbSymbolTableRecord
100
AcDbLayerTableRecord
  2
SLD-0
 70
     0
 62
   179
  6
Continuous
370
    -3
390
F
347
34C
348
0
  0
LAYER
  5
46
102
{ACAD_XDICTIONARY
360
386
102
}
330
2
100
AcDbSymbolTableRecord
100
AcDbLayerTableRecord
  2
AM_5
 70
     0
 62
     3
  6
Continuous
370
    15
390
F
347
34C
348
0
  0
LAYER
  5
47
102
{ACAD_XDICTIONARY
360
388
102
}
330
2
100
AcDbSymbolTableRecord
100
AcDbLayerTableRecord
  2
AM_PAREF
 70
     0
 62
     4
  6
Continuous
370
    15
390
F
347
34C
348
0
  0
LAYER
  5
48
102
{ACAD_XDICTIONARY
360
38A
102
}
330
2
100
AcDbSymbolTableRecord
100
AcDbLayerTableRecord
  2
双点划线
 70
     0
 62
     5
  6
PHANTOM
370
    -3
390
F
347
34C
348
0
1001
AcadStringInfo
1000
MIFCodePage
1070
     5
  0
LAYER
  5
49
102
{ACAD_XDICTIONARY
360
38C
102
}
330
2
100
AcDbSymbolTableRecord
100
AcDbLayerTableRecord
  2
虚线
 70
     0
 62
     6
  6
HIDDEN
370
    -3
390
F
347
34C
348
0
1001
AcadStringInfo
1000
MIFCodePage
1070
     5
  0
LAYER
  5
4A
102
{ACAD_XDICTIONARY
360
38E
102
}
330
2
100
AcDbSymbolTableRecord
100
AcDbLayerTableRecord
  2
AM_0
 70
     0
 62
   179
  6
Continuous
370
    40
390
F
347
34C
348
0
  0
LAYER
  5
4B
102
{ACAD_XDICTIONARY
360
390
102
}
330
2
100
AcDbSymbolTableRecord
100
AcDbLayerTableRecord
  2
AM_0N
 70
     0
 62
   179
  6
Continuous
370
    40
390
F
347
34C
348
0
  0
LAYER
  5
4C
102
{ACAD_XDICTIONARY
360
392
102
}
330
2
100
AcDbSymbolTableRecord
100
AcDbLayerTableRecord
  2
AM_3N
 70
     0
 62
     6
  6
Continuous
370
    15
390
F
347
34C
348
0
  0
LAYER
  5
4D
102
{ACAD_XDICTIONARY
360
394
102
}
330
2
100
AcDbSymbolTableRecord
100
AcDbLayerTableRecord
  2
AM_4N
 70
     0
 62
     3
  6
Continuous
370
    15
390
F
347
34C
348
0
  0
LAYER
  5
4E
102
{ACAD_XDICTIONARY
360
396
102
}
330
2
100
AcDbSymbolTableRecord
100
AcDbLayerTableRecord
  2
AM_12N
 70
     0
 62
   179
  6
Continuous
370
    40
390
F
347
34C
348
0
  0
LAYER
  5
4F
102
{ACAD_XDICTIONARY
360
398
102
}
330
2
100
AcDbSymbolTableRecord
100
AcDbLayerTableRecord
  2
AM_7
 70
     0
 62
     4
  6
Continuous
370
    15
390
F
347
34C
348
0
  0
LAYER
  5
50
102
{ACAD_XDICTIONARY
360
39A
102
}
330
2
100
AcDbSymbolTableRecord
100
AcDbLayerTableRecord
  2
CONFIDENTIAL
 70
     0
 62
    -4
  6
Continuous
370
    -3
390
F
347
34C
348
0
  0
LAYER
  5
51
102
{ACAD_XDICTIONARY
360
39C
102
}
330
2
100
AcDbSymbolTableRecord
100
AcDbLayerTableRecord
  2
AM_12
 70
     0
 62
   179
  6
Continuous
370
    40
390
F
347
34C
348
0
  0
LAYER
  5
2B1
330
2
100
AcDbSymbolTableRecord
100
AcDbLayerTableRecord
  2
Defpoints
 70
     0
 62
     7
  6
Continuous
290
     0
370
    -3
390
F
347
34C
348
0
  0
ENDTAB
  0
TABLE
  2
STYLE
  5
3
330
0
100
AcDbSymbolTable
 70
     8
  0
STYLE
  5
11
330
3
100
AcDbSymbolTableRecord
100
AcDbTextStyleTableRecord
  2
Standard
 70
     0
 40
0.0
 41
1.0
 50
0.0
 71
     0
 42
2.5
  3
txt
  4

  0
STYLE
  5
88
330
3
100
AcDbSymbolTableRecord
100
AcDbTextStyleTableRecord
  2
SLDTEXTSTYLE0
 70
     0
 40
0.0
 41
0.75
 50
0.0
 71
     0
 42
0.2
  3
TXT
  4
bigfont
  0
STYLE
  5
8A
330
3
100
AcDbSymbolTableRecord
100
AcDbTextStyleTableRecord
  2
SLDTEXTSTYLE1
 70
     0
 40
0.0
 41
0.75
 50
0.0
 71
     0
 42
0.2
  3
TXT
  4

  0
STYLE
  5
9B
330
3
100
AcDbSymbolTableRecord
100
AcDbTextStyleTableRecord
  2
SLDTEXTSTYLE2
 70
     0
 40
0.0
 41
0.7
 50
0.0
 71
     0
 42
0.2
  3
TXT
  4
bigfont
  0
STYLE
  5
12E
330
3
100
AcDbSymbolTableRecord
100
AcDbTextStyleTableRecord
  2
SLDTEXTSTYLE3
 70
     0
 40
0.0
 41
0.65
 50
0.0
 71
     0
 42
0.2
  3
TXT
  4
bigfont
  0
STYLE
  5
271
330
3
100
AcDbSymbolTableRecord
100
AcDbTextStyleTableRecord
  2

 70
     1
 40
0.0
 41
1.0
 50
0.0
 71
     0
 42
2.5
  3
ltypeshp.shx
  4

  0
STYLE
  5
273
330
3
100
AcDbSymbolTableRecord
100
AcDbTextStyleTableRecord
  2
ACISOTS
 70
     0
 40
1.0
 41
1.0
 50
0.0
 71
     0
 42
2.5
  3
isocp.shx
  4
gbcbig.shx
  0
STYLE
  5
280
330
3
100
AcDbSymbolTableRecord
100
AcDbTextStyleTableRecord
  2
ACISOGDT
 70
     0
 40
0.0
 41
1.0
 50
0.0
 71
     0
 42
2.5
  3
amgdt.shx
  4

  0
ENDTAB
  0
TABLE
  2
VIEW
  5
6
330
0
100
AcDbSymbolTable
 70
     0
  0
ENDTAB
  0
TABLE
  2
UCS
  5
7
330
0
100
AcDbSymbolTable
 70
     0
  0
ENDTAB
  0
TABLE
  2
APPID
  5
9
330
0
100
AcDbSymbolTable
 70
    10
  0
APPID
  5
12
330
9
100
AcDbSymbolTableRecord
100
AcDbRegAppTableRecord
  2
ACAD
 70
     0
  0
APPID
  5
207
330
9
100
AcDbSymbolTableRecord
100
AcDbRegAppTableRecord
  2
MCAD_NO_VIS
 70
     0
  0
APPID
  5
208
330
9
100
AcDbSymbolTableRecord
100
AcDbRegAppTableRecord
  2
ACAD_TEMP_GRAPHIC
 70
     0
  0
APPID
  5
238
330
9
100
AcDbSymbolTableRecord
100
AcDbRegAppTableRecord
  2
AD_DRAW
 70
     0
  0
APPID
  5
23B
330
9
100
AcDbSymbolTableRecord
100
AcDbRegAppTableRecord
  2
ACATTRIBSERVICES
 70
     0
  0
APPID
  5
259
330
9
100
AcDbSymbolTableRecord
100
AcDbRegAppTableRecord
  2
DESIGNERASSEMBLIES
 70
     0
  0
APPID
  5
25F
330
9
100
AcDbSymbolTableRecord
100
AcDbRegAppTableRecord
  2
ACADM_DIM_EDIT
 70
     0
  0
APPID
  5
260
330
9
100
AcDbSymbolTableRecord
100
AcDbRegAppTableRecord
  2
AMDT_DM_ADJ
 70
     0
  0
APPID
  5
376
330
9
100
AcDbSymbolTableRecord
100
AcDbRegAppTableRecord
  2
AcadStringInfo
 70
     0
  0
APPID
  5
39E
330
9
100
AcDbSymbolTableRecord
100
AcDbRegAppTableRecord
  2
ACAD_NAV_VCDISPLAY
 70
     0
  0
ENDTAB
  0
TABLE
  2
DIMSTYLE
  5
A
330
0
100
AcDbSymbolTable
 70
     8
100
AcDbDimStyleTable
 71
     1
340
27
  0
DIMSTYLE
105
27
102
{ACAD_REACTORS
330
2B0
330
2E2
330
30C
102
}
330
A
100
AcDbSymbolTableRecord
100
AcDbDimStyleTableRecord
  2
ISO-25
 70
     0
 41
2.5
 42
0.625
 43
3.75
 44
1.25
 73
     0
 74
     0
 77
     1
 78
     8
140
2.5
141
2.5
143
0.03937007874016
147
0.625
171
     3
172
     1
271
     2
272
     2
274
     3
278
    44
283
     0
284
     8
340
11
  0
DIMSTYLE
105
28C
330
A
100
AcDbSymbolTableRecord
100
AcDbDimStyleTableRecord
  2
AM_ISO
 70
     0
  4
"
 41
2.5
 42
1.0
 43
10.0
 44
1.0
 47
0.1
 48
0.1
 73
     0
 74
     0
 77
     1
 78
     8
 79
     2
140
3.5
141
0.0
143
0.0393701
146
0.71
147
1.5
172
     1
176
   256
177
   256
178
     2
271
     2
272
     3
274
     4
283
     0
284
     8
340
11
371
    -1
372
    -1
  0
DIMSTYLE
105
28D
330
A
100
AcDbSymbolTableRecord
100
AcDbDimStyleTableRecord
  2
AM_ISO$3
 70
     0
  4
"
 41
2.5
 42
1.0
 43
10.0
 44
1.0
 47
0.1
 48
0.1
 73
     0
 77
     1
 78
     8
 79
     2
140
3.5
141
0.0
143
0.0393701
146
0.71
147
1.5
176
   256
177
   256
178
     2
271
     2
272
     3
274
     4
283
     0
284
     8
288
     1
289
     0
340
11
371
    -1
372
    -1
  0
DIMSTYLE
105
28E
330
A
100
AcDbSymbolTableRecord
100
AcDbDimStyleTableRecord
  2
AM_ISO$4
 70
     0
  4
"
 41
2.5
 42
1.0
 43
10.0
 44
1.0
 47
0.1
 48
0.1
 73
     0
 77
     1
 78
     8
 79
     2
140
3.5
141
0.0
143
0.0393701
146
0.71
147
1.5
176
   256
177
   256
178
     2
271
     2
272
     3
274
     4
283
     0
284
     8
288
     1
289
     0
340
11
371
    -1
372
    -1
  0
DIMSTYLE
105
28F
330
A
100
AcDbSymbolTableRecord
100
AcDbDimStyleTableRecord
  2
AM_ISO$6
 70
     0
  4
"
 41
2.5
 42
1.0
 43
10.0
 44
1.0
 47
0.1
 48
0.1
 73
     0
 74
     0
 78
     8
 79
     2
140
3.5
141
0.0
143
0.0393701
146
0.71
147
1.5
172
     1
176
   256
177
   256
178
     2
271
     2
272
     3
274
     4
283
     0
284
     8
340
11
371
    -1
372
    -1
  0
DIMSTYLE
105
290
330
A
100
AcDbSymbolTableRecord
100
AcDbDimStyleTableRecord
  2
AM_ISO$7
 70
     0
  4
"
 41
2.5
 42
1.0
 43
10.0
 44
1.0
 47
0.1
 48
0.1
 73
     0
 74
     0
 77
     1
 78
     8
 79
     2
140
5.0
141
0.0
143
0.0393701
146
0.71
147
1.5
172
     1
176
   256
177
   256
178
     2
271
     2
272
     3
274
     4
283
     0
284
     8
340
11
371
    -1
372
    -1
  0
DIMSTYLE
105
291
330
A
100
AcDbSymbolTableRecord
100
AcDbDimStyleTableRecord
  2
AM_ISO$SF
 70
     0
  4
"
 41
2.5
 42
1.0
 43
10.0
 44
1.0
 47
0.1
 48
0.1
 73
     0
 74
     0
 75
     1
 76
     1
 77
     1
 78
     8
 79
     2
140
3.5
141
0.0
143
0.0393701
146
0.71
147
1.5
172
     1
176
   256
177
   256
178
     2
271
     2
272
     3
274
     4
283
     0
284
     8
340
11
371
    -1
372
    -1
  0
DIMSTYLE
105
296
330
A
100
AcDbSymbolTableRecord
100
AcDbDimStyleTableRecord
  2
AM_ISO$SH
 70
     0
  4
"
 41
2.5
 42
1.0
 43
10.0
 44
1.0
 47
0.1
 48
0.1
 73
     0
 74
     0
 75
     1
 76
     1
 77
     1
 78
     8
 79
     2
140
3.5
141
0.0
143
0.0393701
144
2.0
146
0.71
147
1.5
172
     1
173
     1
176
   256
177
   256
178
     2
271
     2
272
     3
274
     4
283
     0
284
     8
340
11
343
292
371
    -1
372
    -1
  0
ENDTAB
  0
TABLE
  2
BLOCK_RECORD
  5
1
330
0
100
AcDbSymbolTable
 70
    28
  0
BLOCK_RECORD
  5
1F
102
{ACAD_XDICTIONARY
360
327
102
}
330
1
100
AcDbSymbolTableRecord
100
AcDbBlockTableRecord
  2
*Model_Space
340
22
 70
     0
280
     1
281
     0
  0
BLOCK_RECORD
  5
1B
330
1
100
AcDbSymbolTableRecord
100
AcDbBlockTableRecord
  2
*Paper_Space
340
1E
 70
     0
280
     1
281
     0
  0
BLOCK_RECORD
  5
23
330
1
100
AcDbSymbolTableRecord
100
AcDbBlockTableRecord
  2
*Paper_Space0
340
26
 70
     0
280
     1
281
     0
  0
BLOCK_RECORD
  5
8C
330
1
100
AcDbSymbolTableRecord
100
AcDbBlockTableRecord
  2
SW_NOTE_0
340
0
 70
     0
280
     1
281
     0
  0
BLOCK_RECORD
  5
A3
330
1
100
AcDbSymbolTableRecord
100
AcDbBlockTableRecord
  2
SW_NOTE_1
340
0
 70
     0
280
     1
281
     0
  0
BLOCK_RECORD
  5
AB
330
1
100
AcDbSymbolTableRecord
100
AcDbBlockTableRecord
  2
SW_NOTE_2
340
0
 70
     0
280
     1
281
     0
  0
BLOCK_RECORD
  5
B7
330
1
100
AcDbSymbolTableRecord
100
AcDbBlockTableRecord
  2
SW_NOTE_3
340
0
 70
     0
280
     1
281
     0
  0
BLOCK_RECORD
  5
BE
330
1
100
AcDbSymbolTableRecord
100
AcDbBlockTableRecord
  2
SW_NOTE_4
340
0
 70
     0
280
     1
281
     0
  0
BLOCK_RECORD
  5
C4
330
1
100
AcDbSymbolTableRecord
100
AcDbBlockTableRecord
  2
SW_NOTE_5
340
0
 70
     0
280
     1
281
     0
  0
BLOCK_RECORD
  5
CE
330
1
100
AcDbSymbolTableRecord
100
AcDbBlockTableRecord
  2
SW_NOTE_6
340
0
 70
     0
280
     1
281
     0
  0
BLOCK_RECORD
  5
D7
330
1
100
AcDbSymbolTableRecord
100
AcDbBlockTableRecord
  2
SW_NOTE_7
340
0
 70
     0
280
     1
281
     0
  0
BLOCK_RECORD
  5
DE
330
1
100
AcDbSymbolTableRecord
100
AcDbBlockTableRecord
  2
SW_NOTE_8
340
0
 70
     0
280
     1
281
     0
  0
BLOCK_RECORD
  5
E4
330
1
100
AcDbSymbolTableRecord
100
AcDbBlockTableRecord
  2
SW_NOTE_9
340
0
 70
     0
280
     1
281
     0
  0
BLOCK_RECORD
  5
EA
330
1
100
AcDbSymbolTableRecord
100
AcDbBlockTableRecord
  2
SW_NOTE_10
340
0
 70
     0
280
     1
281
     0
  0
BLOCK_RECORD
  5
F1
330
1
100
AcDbSymbolTableRecord
100
AcDbBlockTableRecord
  2
SW_NOTE_11
340
0
 70
     0
280
     1
281
     0
  0
BLOCK_RECORD
  5
F7
330
1
100
AcDbSymbolTableRecord
100
AcDbBlockTableRecord
  2
SW_NOTE_12
340
0
 70
     0
280
     1
281
     0
  0
BLOCK_RECORD
  5
FD
330
1
100
AcDbSymbolTableRecord
100
AcDbBlockTableRecord
  2
SW_NOTE_13
340
0
 70
     0
280
     1
281
     0
  0
BLOCK_RECORD
  5
103
330
1
100
AcDbSymbolTableRecord
100
AcDbBlockTableRecord
  2
SW_NOTE_14
340
0
 70
     0
280
     1
281
     0
  0
BLOCK_RECORD
  5
109
330
1
100
AcDbSymbolTableRecord
100
AcDbBlockTableRecord
  2
SW_NOTE_15
340
0
 70
     0
280
     1
281
     0
  0
BLOCK_RECORD
  5
10F
330
1
100
AcDbSymbolTableRecord
100
AcDbBlockTableRecord
  2
SW_NOTE_16
340
0
 70
     0
280
     1
281
     0
  0
BLOCK_RECORD
  5
116
330
1
100
AcDbSymbolTableRecord
100
AcDbBlockTableRecord
  2
SW_NOTE_17
340
0
 70
     0
280
     1
281
     0
  0
BLOCK_RECORD
  5
11C
330
1
100
AcDbSymbolTableRecord
100
AcDbBlockTableRecord
  2
SW_NOTE_18
340
0
 70
     0
280
     1
281
     0
  0
BLOCK_RECORD
  5
122
330
1
100
AcDbSymbolTableRecord
100
AcDbBlockTableRecord
  2
SW_NOTE_19
340
0
 70
     0
280
     1
281
     0
  0
BLOCK_RECORD
  5
128
330
1
100
AcDbSymbolTableRecord
100
AcDbBlockTableRecord
  2
SW_NOTE_20
340
0
 70
     0
280
     1
281
     0
  0
BLOCK_RECORD
  5
131
330
1
100
AcDbSymbolTableRecord
100
AcDbBlockTableRecord
  2
SW_SFSYMBOL_0
340
0
 70
     0
280
     1
281
     0
  0
BLOCK_RECORD
  5
250
330
1
100
AcDbSymbolTableRecord
100
AcDbBlockTableRecord
  2
*U23
340
0
 70
     0
280
     1
281
     0
  0
BLOCK_RECORD
  5
292
330
1
100
AcDbSymbolTableRecord
100
AcDbBlockTableRecord
  2
GENAXEH
340
0
 70
     0
280
     1
281
     0
  0
BLOCK_RECORD
  5
2B2
330
1
100
AcDbSymbolTableRecord
100
AcDbBlockTableRecord
  2
*D25
340
0
 70
     0
280
     1
281
     0
  0
BLOCK_RECORD
  5
2E3
330
1
100
AcDbSymbolTableRecord
100
AcDbBlockTableRecord
  2
*D26
340
0
 70
     0
280
     1
281
     0
  0
BLOCK_RECORD
  5
30D
330
1
100
AcDbSymbolTableRecord
100
AcDbBlockTableRecord
  2
*D27
340
0
 70
     0
280
     1
281
     0
  0
ENDTAB
  0
ENDSEC
  0
SECTION
  2
BLOCKS
  0
BLOCK
  5
20
330
1F
100
AcDbEntity
  8
0
100
AcDbBlockBegin
  2
*Model_Space
 70
     0
 10
0.0
 20
0.0
 30
0.0
  3
*Model_Space
  1

  0
ENDBLK
  5
21
330
1F
100
AcDbEntity
  8
0
100
AcDbBlockEnd
  0
BLOCK
  5
1C
330
1B
100
AcDbEntity
 67
     1
  8
0
100
AcDbBlockBegin
  2
*Paper_Space
 70
     0
 10
0.0
 20
0.0
 30
0.0
  3
*Paper_Space
  1

  0
ENDBLK
  5
1D
330
1B
100
AcDbEntity
 67
     1
  8
0
100
AcDbBlockEnd
  0
BLOCK
  5
24
330
23
100
AcDbEntity
 67
     1
  8
0
100
AcDbBlockBegin
  2
*Paper_Space0
 70
     0
 10
0.0
 20
0.0
 30
0.0
  3
*Paper_Space0
  1

  0
ENDBLK
  5
25
330
23
100
AcDbEntity
 67
     1
  8
0
100
AcDbBlockEnd
  0
BLOCK
  5
8D
330
8C
100
AcDbEntity
  8
0
100
AcDbBlockBegin
  2
SW_NOTE_0
 70
     0
 10
0.0
 20
0.0
 30
0.0
  3
SW_NOTE_0
  1

  0
MTEXT
  5
8F
330
8C
100
AcDbEntity
  8
SLD-0
 62
     0
100
AcDbMText
 10
0.0
 20
3.867203219315898
 30
0.0
 40
3.0
 41
0.0
 46
0.0
 71
     1
 72
     1
  1
技术要求：
  7
SLDTEXTSTYLE0
 73
     1
 44
1.0
  0
MTEXT
  5
90
330
8C
100
AcDbEntity
  8
SLD-0
 62
     0
100
AcDbMText
 10
0.0
 20
0.0547031764750565
 30
0.0
 40
3.0
 41
0.0
 46
0.0
 71
     1
 72
     1
  1
1.去除所有毛刺；
  7
SLDTEXTSTYLE0
 73
     1
 44
1.0
  0
MTEXT
  5
91
330
8C
100
AcDbEntity
  8
SLD-0
 62
     0
100
AcDbMText
 10
0.0
 20
-3.757796866365782
 30
0.0
 40
3.0
 41
0.0
 46
0.0
 71
     1
 72
     1
  1
2.产品表面处理依照BOM要求；
  7
SLDTEXTSTYLE0
 73
     1
 44
1.0
  0
ENDBLK
  5
8E
330
8C
100
AcDbEntity
  8
0
100
AcDbBlockEnd
  0
BLOCK
  5
A4
330
A3
100
AcDbEntity
  8
0
100
AcDbBlockBegin
  2
SW_NOTE_1
 70
     0
 10
0.0
 20
0.0
 30
0.0
  3
SW_NOTE_1
  1

  0
MTEXT
  5
A6
330
A3
100
AcDbEntity
  8
SLD-0
 62
     0
100
AcDbMText
 10
2.062499999999994
 20
3.867203219315898
 30
0.0
 40
3.0
 41
0.0
 46
0.0
 71
     2
 72
     1
  1
产
  7
SLDTEXTSTYLE2
 73
     1
 44
1.0
  0
MTEXT
  5
A7
330
A3
100
AcDbEntity
  8
SLD-0
 62
     0
100
AcDbMText
 10
2.062499999999994
 20
-0.1327969706739103
 30
0.0
 40
3.0
 41
0.0
 46
0.0
 71
     2
 72
     1
  1
品
  7
SLDTEXTSTYLE2
 73
     1
 44
1.0
  0
MTEXT
  5
A8
330
A3
100
AcDbEntity
  8
SLD-0
 62
     0
100
AcDbMText
 10
2.062499999999994
 20
-4.132797160663715
 30
0.0
 40
3.0
 41
0.0
 46
0.0
 71
     2
 72
     1
  1
特
  7
SLDTEXTSTYLE2
 73
     1
 44
1.0
  0
MTEXT
  5
A9
330
A3
100
AcDbEntity
  8
SLD-0
 62
     0
100
AcDbMText
 10
2.062499999999994
 20
-8.13279735065352
 30
0.0
 40
3.0
 41
0.0
 46
0.0
 71
     2
 72
     1
  1
征
  7
SLDTEXTSTYLE2
 73
     1
 44
1.0
  0
ENDBLK
  5
A5
330
A3
100
AcDbEntity
  8
0
100
AcDbBlockEnd
  0
BLOCK
  5
AC
330
AB
100
AcDbEntity
  8
0
100
AcDbBlockBegin
  2
SW_NOTE_2
 70
     0
 10
0.0
 20
0.0
 30
0.0
  3
SW_NOTE_2
  1

  0
MTEXT
  5
AE
330
AB
100
AcDbEntity
  8
SLD-0
 62
     0
100
AcDbMText
 10
2.062499999999994
 20
3.867203219315898
 30
0.0
 40
3.0
 41
0.0
 46
0.0
 71
     2
 72
     1
  1
材
  7
SLDTEXTSTYLE2
 73
     1
 44
1.0
  0
MTEXT
  5
AF
330
AB
100
AcDbEntity
  8
SLD-0
 62
     0
100
AcDbMText
 10
2.062499999999994
 20
-0.1327969706739068
 30
0.0
 40
3.0
 41
0.0
 46
0.0
 71
     2
 72
     1
  1
料
  7
SLDTEXTSTYLE2
 73
     1
 44
1.0
  0
MTEXT
  5
B0
330
AB
100
AcDbEntity
  8
SLD-0
 62
     0
100
AcDbMText
 10
2.062499999999994
 20
-4.132797160663711
 30
0.0
 40
3.0
 41
0.0
 46
0.0
 71
     2
 72
     1
  1
特
  7
SLDTEXTSTYLE2
 73
     1
 44
1.0
  0
MTEXT
  5
B1
330
AB
100
AcDbEntity
  8
SLD-0
 62
     0
100
AcDbMText
 10
2.062499999999994
 20
-8.132797350653516
 30
0.0
 40
3.0
 41
0.0
 46
0.0
 71
     2
 72
     1
  1
征
  7
SLDTEXTSTYLE2
 73
     1
 44
1.0
  0
ENDBLK
  5
AD
330
AB
100
AcDbEntity
  8
0
100
AcDbBlockEnd
  0
BLOCK
  5
B8
330
B7
100
AcDbEntity
  8
0
100
AcDbBlockBegin
  2
SW_NOTE_3
 70
     0
 10
0.0
 20
0.0
 30
0.0
  3
SW_NOTE_3
  1

  0
MTEXT
  5
BA
330
B7
100
AcDbEntity
  8
SLD-0
 62
     0
100
AcDbMText
 10
0.0
 20
3.867203219315898
 30
0.0
 40
3.0
 41
0.0
 46
0.0
 71
     1
 72
     1
  1
原
  7
SLDTEXTSTYLE2
 73
     1
 44
1.0
  0
MTEXT
  5
BB
330
B7
100
AcDbEntity
  8
SLD-0
 62
     0
100
AcDbMText
 10
0.0
 20
-0.1327969706739103
 30
0.0
 40
3.0
 41
0.0
 46
0.0
 71
     1
 72
     1
  1
代
  7
SLDTEXTSTYLE2
 73
     1
 44
1.0
  0
MTEXT
  5
BC
330
B7
100
AcDbEntity
  8
SLD-0
 62
     0
100
AcDbMText
 10
0.0
 20
-4.132797160663715
 30
0.0
 40
3.0
 41
0.0
 46
0.0
 71
     1
 72
     1
  1
号
  7
SLDTEXTSTYLE2
 73
     1
 44
1.0
  0
ENDBLK
  5
B9
330
B7
100
AcDbEntity
  8
0
100
AcDbBlockEnd
  0
BLOCK
  5
BF
330
BE
100
AcDbEntity
  8
0
100
AcDbBlockBegin
  2
SW_NOTE_4
 70
     0
 10
0.0
 20
0.0
 30
0.0
  3
SW_NOTE_4
  1

  0
MTEXT
  5
C1
330
BE
100
AcDbEntity
  8
SLD-0
 62
     0
100
AcDbMText
 10
0.0
 20
3.867203219315898
 30
0.0
 40
3.0
 41
0.0
 46
0.0
 71
     1
 72
     1
  1
名
  7
SLDTEXTSTYLE2
 73
     1
 44
1.0
  0
MTEXT
  5
C2
330
BE
100
AcDbEntity
  8
SLD-0
 62
     0
100
AcDbMText
 10
0.0
 20
-0.1327969706739068
 30
0.0
 40
3.0
 41
0.0
 46
0.0
 71
     1
 72
     1
  1
称
  7
SLDTEXTSTYLE2
 73
     1
 44
1.0
  0
ENDBLK
  5
C0
330
BE
100
AcDbEntity
  8
0
100
AcDbBlockEnd
  0
BLOCK
  5
C5
330
C4
100
AcDbEntity
  8
0
100
AcDbBlockBegin
  2
SW_NOTE_5
 70
     0
 10
0.0
 20
0.0
 30
0.0
  3
SW_NOTE_5
  1

  0
MTEXT
  5
C7
330
C4
100
AcDbEntity
  8
SLD-0
 62
     0
100
AcDbMText
 10
0.0
 20
3.867203219315898
 30
0.0
 40
3.0
 41
0.0
 46
0.0
 71
     1
 72
     1
  1
代
  7
SLDTEXTSTYLE2
 73
     1
 44
1.0
  0
MTEXT
  5
C8
330
C4
100
AcDbEntity
  8
SLD-0
 62
     0
100
AcDbMText
 10
0.0
 20
-0.1327969706739068
 30
0.0
 40
3.0
 41
0.0
 46
0.0
 71
     1
 72
     1
  1
号
  7
SLDTEXTSTYLE2
 73
     1
 44
1.0
  0
ENDBLK
  5
C6
330
C4
100
AcDbEntity
  8
0
100
AcDbBlockEnd
  0
BLOCK
  5
CF
330
CE
100
AcDbEntity
  8
0
100
AcDbBlockBegin
  2
SW_NOTE_6
 70
     0
 10
0.0
 20
0.0
 30
0.0
  3
SW_NOTE_6
  1

  0
MTEXT
  5
D1
330
CE
100
AcDbEntity
  8
SLD-0
 62
     0
100
AcDbMText
 10
0.0
 20
3.609389671361498
 30
0.0
 40
2.799999999999999
 41
0.0
 46
0.0
 71
     1
 72
     1
  1
未注
  7
SLDTEXTSTYLE2
 73
     1
 44
1.0
  0
MTEXT
  5
D2
330
CE
100
AcDbEntity
  8
SLD-0
 62
     0
100
AcDbMText
 10
0.0
 20
-0.1906103927134944
 30
0.0
 40
2.799999999999999
 41
0.0
 46
0.0
 71
     1
 72
     1
  1
公差
  7
SLDTEXTSTYLE2
 73
     1
 44
1.0
  0
ENDBLK
  5
D0
330
CE
100
AcDbEntity
  8
0
100
AcDbBlockEnd
  0
BLOCK
  5
D8
330
D7
100
AcDbEntity
  8
0
100
AcDbBlockBegin
  2
SW_NOTE_7
 70
     0
 10
0.0
 20
0.0
 30
0.0
  3
SW_NOTE_7
  1

  0
MTEXT
  5
DA
330
D7
100
AcDbEntity
  8
SLD-0
 62
     0
100
AcDbMText
 10
0.9374999999999939
 20
3.222669349429913
 30
0.0
 40
2.5
 41
0.0
 46
0.0
 71
     2
 72
     1
  1
%%p
  7
SLDTEXTSTYLE1
 73
     1
 44
1.0
  0
MTEXT
  5
DB
330
D7
100
AcDbEntity
  8
SLD-0
 62
     0
100
AcDbMText
 10
4.556250050663942
 20
3.222669349429913
 30
0.0
 40
2.5
 41
0.0
 46
0.0
 71
     2
 72
     1
  1
0.1
  7
SLDTEXTSTYLE1
 73
     1
 44
1.0
  0
ENDBLK
  5
D9
330
D7
100
AcDbEntity
  8
0
100
AcDbBlockEnd
  0
BLOCK
  5
DF
330
DE
100
AcDbEntity
  8
0
100
AcDbBlockBegin
  2
SW_NOTE_8
 70
     0
 10
0.0
 20
0.0
 30
0.0
  3
SW_NOTE_8
  1

  0
MTEXT
  5
E1
330
DE
100
AcDbEntity
  8
SLD-0
 62
     0
100
AcDbMText
 10
0.9374999999999939
 20
3.222669349429913
 30
0.0
 40
2.5
 41
0.0
 46
0.0
 71
     2
 72
     1
  1
%%p
  7
SLDTEXTSTYLE1
 73
     1
 44
1.0
  0
MTEXT
  5
E2
330
DE
100
AcDbEntity
  8
SLD-0
 62
     0
100
AcDbMText
 10
5.415625050663952
 20
3.222669349429913
 30
0.0
 40
2.5
 41
0.0
 46
0.0
 71
     2
 72
     1
  1
0.15
  7
SLDTEXTSTYLE1
 73
     1
 44
1.0
  0
ENDBLK
  5
E0
330
DE
100
AcDbEntity
  8
0
100
AcDbBlockEnd
  0
BLOCK
  5
E5
330
E4
100
AcDbEntity
  8
0
100
AcDbBlockBegin
  2
SW_NOTE_9
 70
     0
 10
0.0
 20
0.0
 30
0.0
  3
SW_NOTE_9
  1

  0
MTEXT
  5
E7
330
E4
100
AcDbEntity
  8
SLD-0
 62
     0
100
AcDbMText
 10
0.9375000000000078
 20
3.222669349429913
 30
0.0
 40
2.5
 41
0.0
 46
0.0
 71
     2
 72
     1
  1
%%p
  7
SLDTEXTSTYLE1
 73
     1
 44
1.0
  0
MTEXT
  5
E8
330
E4
100
AcDbEntity
  8
SLD-0
 62
     0
100
AcDbMText
 10
4.556250050663956
 20
3.222669349429913
 30
0.0
 40
2.5
 41
0.0
 46
0.0
 71
     2
 72
     1
  1
0.4
  7
SLDTEXTSTYLE1
 73
     1
 44
1.0
  0
ENDBLK
  5
E6
330
E4
100
AcDbEntity
  8
0
100
AcDbBlockEnd
  0
BLOCK
  5
EB
330
EA
100
AcDbEntity
  8
0
100
AcDbBlockBegin
  2
SW_NOTE_10
 70
     0
 10
0.0
 20
0.0
 30
0.0
  3
SW_NOTE_10
  1

  0
MTEXT
  5
ED
330
EA
100
AcDbEntity
  8
SLD-0
 62
     0
100
AcDbMText
 10
0.9375000000000078
 20
3.222669349429913
 30
0.0
 40
2.5
 41
0.0
 46
0.0
 71
     2
 72
     1
  1
%%p
  7
SLDTEXTSTYLE1
 73
     1
 44
1.0
  0
MTEXT
  5
EE
330
EA
100
AcDbEntity
  8
SLD-0
 62
     0
100
AcDbMText
 10
4.556250050663956
 20
3.222669349429913
 30
0.0
 40
2.5
 41
0.0
 46
0.0
 71
     2
 72
     1
  1
0.3
  7
SLDTEXTSTYLE1
 73
     1
 44
1.0
  0
ENDBLK
  5
EC
330
EA
100
AcDbEntity
  8
0
100
AcDbBlockEnd
  0
BLOCK
  5
F2
330
F1
100
AcDbEntity
  8
0
100
AcDbBlockBegin
  2
SW_NOTE_11
 70
     0
 10
0.0
 20
0.0
 30
0.0
  3
SW_NOTE_11
  1

  0
MTEXT
  5
F4
330
F1
100
AcDbEntity
  8
SLD-0
 62
     0
100
AcDbMText
 10
0.9375000000000078
 20
3.222669349429913
 30
0.0
 40
2.5
 41
0.0
 46
0.0
 71
     2
 72
     1
  1
%%p
  7
SLDTEXTSTYLE1
 73
     1
 44
1.0
  0
MTEXT
  5
F5
330
F1
100
AcDbEntity
  8
SLD-0
 62
     0
100
AcDbMText
 10
4.556250050663956
 20
3.222669349429913
 30
0.0
 40
2.5
 41
0.0
 46
0.0
 71
     2
 72
     1
  1
0.4
  7
SLDTEXTSTYLE1
 73
     1
 44
1.0
  0
ENDBLK
  5
F3
330
F1
100
AcDbEntity
  8
0
100
AcDbBlockEnd
  0
BLOCK
  5
F8
330
F7
100
AcDbEntity
  8
0
100
AcDbBlockBegin
  2
SW_NOTE_12
 70
     0
 10
0.0
 20
0.0
 30
0.0
  3
SW_NOTE_12
  1

  0
MTEXT
  5
FA
330
F7
100
AcDbEntity
  8
SLD-0
 62
     0
100
AcDbMText
 10
4.335937499999998
 20
3.222669349429913
 30
0.0
 40
2.5
 41
0.0
 46
0.0
 71
     2
 72
     1
  1
>0-10
  7
SLDTEXTSTYLE1
 73
     1
 44
1.0
  0
MTEXT
  5
FB
330
F7
100
AcDbEntity
  8
SLD-0
 62
     0
100
AcDbMText
 10
9.701388701796542
 20
3.222669349429913
 30
0.0
 40
2.5
 41
0.0
 46
0.0
 71
     2
 72
     1
  1
%%d
  7
SLDTEXTSTYLE1
 73
     1
 44
1.0
  0
ENDBLK
  5
F9
330
F7
100
AcDbEntity
  8
0
100
AcDbBlockEnd
  0
BLOCK
  5
FE
330
FD
100
AcDbEntity
  8
0
100
AcDbBlockBegin
  2
SW_NOTE_13
 70
     0
 10
0.0
 20
0.0
 30
0.0
  3
SW_NOTE_13
  1

  0
MTEXT
  5
100
330
FD
100
AcDbEntity
  8
SLD-0
 62
     0
100
AcDbMText
 10
5.195312499999992
 20
3.222669349429913
 30
0.0
 40
2.5
 41
0.0
 46
0.0
 71
     2
 72
     1
  1
>10-50
  7
SLDTEXTSTYLE1
 73
     1
 44
1.0
  0
MTEXT
  5
101
330
FD
100
AcDbEntity
  8
SLD-0
 62
     0
100
AcDbMText
 10
11.48611102253199
 20
3.222669349429913
 30
0.0
 40
2.5
 41
0.0
 46
0.0
 71
     2
 72
     1
  1
%%d
  7
SLDTEXTSTYLE1
 73
     1
 44
1.0
  0
ENDBLK
  5
FF
330
FD
100
AcDbEntity
  8
0
100
AcDbBlockEnd
  0
BLOCK
  5
104
330
103
100
AcDbEntity
  8
0
100
AcDbBlockBegin
  2
SW_NOTE_14
 70
     0
 10
0.0
 20
0.0
 30
0.0
  3
SW_NOTE_14
  1

  0
MTEXT
  5
106
330
103
100
AcDbEntity
  8
SLD-0
 62
     0
100
AcDbMText
 10
6.054687499999989
 20
3.222669349429913
 30
0.0
 40
2.5
 41
0.0
 46
0.0
 71
     2
 72
     1
  1
>50-120
  7
SLDTEXTSTYLE1
 73
     1
 44
1.0
  0
MTEXT
  5
107
330
103
100
AcDbEntity
  8
SLD-0
 62
     0
100
AcDbMText
 10
13.27083334326745
 20
3.222669349429913
 30
0.0
 40
2.5
 41
0.0
 46
0.0
 71
     2
 72
     1
  1
%%d
  7
SLDTEXTSTYLE1
 73
     1
 44
1.0
  0
ENDBLK
  5
105
330
103
100
AcDbEntity
  8
0
100
AcDbBlockEnd
  0
BLOCK
  5
10A
330
109
100
AcDbEntity
  8
0
100
AcDbBlockBegin
  2
SW_NOTE_15
 70
     0
 10
0.0
 20
0.0
 30
0.0
  3
SW_NOTE_15
  1

  0
MTEXT
  5
10C
330
109
100
AcDbEntity
  8
SLD-0
 62
     0
100
AcDbMText
 10
1.601562499999986
 20
3.222669349429913
 30
0.0
 40
2.5
 41
0.0
 46
0.0
 71
     2
 72
     1
  1
角
  7
SLDTEXTSTYLE0
 73
     1
 44
1.0
  0
MTEXT
  5
10D
330
109
100
AcDbEntity
  8
SLD-0
 62
     0
100
AcDbMText
 10
1.601562499999986
 20
-0.2773307586035056
 30
0.0
 40
2.5
 41
0.0
 46
0.0
 71
     2
 72
     1
  1
度
  7
SLDTEXTSTYLE0
 73
     1
 44
1.0
  0
ENDBLK
  5
10B
330
109
100
AcDbEntity
  8
0
100
AcDbBlockEnd
  0
BLOCK
  5
110
330
10F
100
AcDbEntity
  8
0
100
AcDbBlockBegin
  2
SW_NOTE_16
 70
     0
 10
0.0
 20
0.0
 30
0.0
  3
SW_NOTE_16
  1

  0
MTEXT
  5
112
330
10F
100
AcDbEntity
  8
SLD-0
 62
     0
100
AcDbMText
 10
0.9375000000000078
 20
3.222669349429913
 30
0.0
 40
2.5
 41
0.0
 46
0.0
 71
     2
 72
     1
  1
%%p
  7
SLDTEXTSTYLE1
 73
     1
 44
1.0
  0
MTEXT
  5
113
330
10F
100
AcDbEntity
  8
SLD-0
 62
     0
100
AcDbMText
 10
3.228125050663943
 20
3.222669349429913
 30
0.0
 40
2.5
 41
0.0
 46
0.0
 71
     2
 72
     1
  1
1
  7
SLDTEXTSTYLE1
 73
     1
 44
1.0
  0
MTEXT
  5
114
330
10F
100
AcDbEntity
  8
SLD-0
 62
     0
100
AcDbMText
 10
4.934722371399413
 20
3.222669349429913
 30
0.0
 40
2.5
 41
0.0
 46
0.0
 71
     2
 72
     1
  1
%%d
  7
SLDTEXTSTYLE1
 73
     1
 44
1.0
  0
ENDBLK
  5
111
330
10F
100
AcDbEntity
  8
0
100
AcDbBlockEnd
  0
BLOCK
  5
117
330
116
100
AcDbEntity
  8
0
100
AcDbBlockBegin
  2
SW_NOTE_17
 70
     0
 10
0.0
 20
0.0
 30
0.0
  3
SW_NOTE_17
  1

  0
MTEXT
  5
119
330
116
100
AcDbEntity
  8
SLD-0
 62
     0
100
AcDbMText
 10
0.9375000000000078
 20
3.222669349429913
 30
0.0
 40
2.5
 41
0.0
 46
0.0
 71
     2
 72
     1
  1
%%p
  7
SLDTEXTSTYLE1
 73
     1
 44
1.0
  0
MTEXT
  5
11A
330
116
100
AcDbEntity
  8
SLD-0
 62
     0
100
AcDbMText
 10
4.439062550663952
 20
3.222669349429913
 30
0.0
 40
2.5
 41
0.0
 46
0.0
 71
     2
 72
     1
  1
20'
  7
SLDTEXTSTYLE1
 73
     1
 44
1.0
  0
ENDBLK
  5
118
330
116
100
AcDbEntity
  8
0
100
AcDbBlockEnd
  0
BLOCK
  5
11D
330
11C
100
AcDbEntity
  8
0
100
AcDbBlockBegin
  2
SW_NOTE_18
 70
     0
 10
0.0
 20
0.0
 30
0.0
  3
SW_NOTE_18
  1

  0
MTEXT
  5
11F
330
11C
100
AcDbEntity
  8
SLD-0
 62
     0
100
AcDbMText
 10
0.9375000000000078
 20
3.222669349429913
 30
0.0
 40
2.5
 41
0.0
 46
0.0
 71
     2
 72
     1
  1
%%p
  7
SLDTEXTSTYLE1
 73
     1
 44
1.0
  0
MTEXT
  5
120
330
11C
100
AcDbEntity
  8
SLD-0
 62
     0
100
AcDbMText
 10
4.439062550663952
 20
3.222669349429913
 30
0.0
 40
2.5
 41
0.0
 46
0.0
 71
     2
 72
     1
  1
30'
  7
SLDTEXTSTYLE1
 73
     1
 44
1.0
  0
ENDBLK
  5
11E
330
11C
100
AcDbEntity
  8
0
100
AcDbBlockEnd
  0
BLOCK
  5
123
330
122
100
AcDbEntity
  8
0
100
AcDbBlockBegin
  2
SW_NOTE_19
 70
     0
 10
0.0
 20
0.0
 30
0.0
  3
SW_NOTE_19
  1

  0
MTEXT
  5
125
330
122
100
AcDbEntity
  8
SLD-0
 62
     0
100
AcDbMText
 10
3.750000000000003
 20
3.222669349429913
 30
0.0
 40
2.5
 41
0.0
 46
0.0
 71
     2
 72
     1
  1
>120
  7
SLDTEXTSTYLE1
 73
     1
 44
1.0
  0
MTEXT
  5
126
330
122
100
AcDbEntity
  8
SLD-0
 62
     0
100
AcDbMText
 10
8.513888623565446
 20
3.222669349429913
 30
0.0
 40
2.5
 41
0.0
 46
0.0
 71
     2
 72
     1
  1
%%d
  7
SLDTEXTSTYLE1
 73
     1
 44
1.0
  0
ENDBLK
  5
124
330
122
100
AcDbEntity
  8
0
100
AcDbBlockEnd
  0
BLOCK
  5
129
330
128
100
AcDbEntity
  8
0
100
AcDbBlockBegin
  2
SW_NOTE_20
 70
     0
 10
0.0
 20
0.0
 30
0.0
  3
SW_NOTE_20
  1

  0
MTEXT
  5
12B
330
128
100
AcDbEntity
  8
SLD-0
 62
     0
100
AcDbMText
 10
0.9375000000000078
 20
3.222669349429913
 30
0.0
 40
2.5
 41
0.0
 46
0.0
 71
     2
 72
     1
  1
%%p
  7
SLDTEXTSTYLE1
 73
     1
 44
1.0
  0
MTEXT
  5
12C
330
128
100
AcDbEntity
  8
SLD-0
 62
     0
100
AcDbMText
 10
4.439062550663952
 20
3.222669349429913
 30
0.0
 40
2.5
 41
0.0
 46
0.0
 71
     2
 72
     1
  1
10'
  7
SLDTEXTSTYLE1
 73
     1
 44
1.0
  0
ENDBLK
  5
12A
330
128
100
AcDbEntity
  8
0
100
AcDbBlockEnd
  0
BLOCK
  5
132
330
131
100
AcDbEntity
  8
0
100
AcDbBlockBegin
  2
SW_SFSYMBOL_0
 70
     0
 10
0.0
 20
0.0
 30
0.0
  3
SW_SFSYMBOL_0
  1

  0
LINE
  5
134
330
131
100
AcDbEntity
  8
SLD-0
 62
     0
100
AcDbLine
 10
2.448550451080999
 20
-3.571249825377015
 30
0.0
 11
0.3418004510810091
 21
0.0000001746229827
 31
0.0
  0
LINE
  5
135
330
131
100
AcDbEntity
  8
SLD-0
 62
     0
100
AcDbLine
 10
4.55530045108099
 20
0.0000001746229827
 30
0.0
 11
0.3418004510810091
 21
0.0000001746229827
 31
0.0
  0
LINE
  5
136
330
131
100
AcDbEntity
  8
SLD-0
 62
     0
100
AcDbLine
 10
2.448550451080999
 20
-3.571249825377015
 30
0.0
 11
6.662050451080981
 21
3.57125017462298
 31
0.0
  0
MTEXT
  5
137
330
131
100
AcDbEntity
  8
SLD-0
 62
     0
100
AcDbMText
 10
0.0
 20
3.222669349429913
 30
0.0
 40
2.5
 41
0.0
 46
0.0
 71
     1
 72
     1
  1
3.2
  7
SLDTEXTSTYLE1
 73
     1
 44
1.0
  0
ENDBLK
  5
133
330
131
100
AcDbEntity
  8
0
100
AcDbBlockEnd
  0
BLOCK
  5
251
330
250
100
AcDbEntity
  8
0
100
AcDbBlockBegin
  2
*U23
 70
     1
 10
0.0
 20
0.0
 30
0.0
  3
*U23
  1

  0
ENDBLK
  5
252
330
250
100
AcDbEntity
  8
0
100
AcDbBlockEnd
  0
BLOCK
  5
294
330
292
100
AcDbEntity
  8
0
100
AcDbBlockBegin
  2
GENAXEH
 70
     0
 10
0.0
 20
0.0
 30
0.0
  3
GENAXEH
  1

  0
LINE
  5
293
330
292
100
AcDbEntity
  8
0
100
AcDbLine
 10
-1.0
 20
0.0
 30
0.0
 11
1.0
 21
0.0
 31
0.0
  0
ENDBLK
  5
295
330
292
100
AcDbEntity
  8
0
100
AcDbBlockEnd
  0
BLOCK
  5
2BC
330
2B2
100
AcDbEntity
  8
0
100
AcDbBlockBegin
  2
*D25
 70
     1
 10
0.0
 20
0.0
 30
0.0
  3
*D25
  1

  0
LINE
  5
2C7
330
2B2
100
AcDbEntity
  8
AM_5
 62
     0
440
 16777216
370
    -2
100
AcDbLine
 10
375.951233624279
 20
161.4944403165276
 30
0.0
 11
375.951233624279
 21
152.930295975814
 31
0.0
  0
LINE
  5
2C8
330
2B2
100
AcDbEntity
  8
AM_5
 62
     0
440
 16777216
370
    -2
100
AcDbLine
 10
330.9512336242788
 20
161.4944403165276
 30
0.0
 11
330.9512336242788
 21
152.930295975814
 31
0.0
  0
LINE
  5
2C9
330
2B2
100
AcDbEntity
  8
AM_5
 62
     0
440
 16777216
370
    -2
100
AcDbLine
 10
373.951233624279
 20
154.4302959758139
 30
0.0
 11
332.9512336242788
 21
154.4302959758139
 31
0.0
  0
SOLID
  5
2CA
330
2B2
100
AcDbEntity
  8
AM_5
 62
     0
440
 16777216
100
AcDbTrace
 10
373.951233624279
 20
154.7636293091473
 30
0.0
 11
373.951233624279
 21
154.0969626424806
 31
0.0
 12
375.951233624279
 22
154.4302959758139
 32
0.0
 13
375.951233624279
 23
154.4302959758139
 33
0.0
  0
SOLID
  5
2CB
330
2B2
100
AcDbEntity
  8
AM_5
 62
     0
440
 16777216
100
AcDbTrace
 10
332.9512336242788
 20
154.7636293091473
 30
0.0
 11
332.9512336242788
 21
154.0969626424806
 31
0.0
 12
330.9512336242788
 22
154.4302959758139
 32
0.0
 13
330.9512336242788
 23
154.4302959758139
 33
0.0
  0
MTEXT
  5
2CC
330
2B2
100
AcDbEntity
  8
AM_5
 62
     0
440
 16777216
100
AcDbMText
 10
353.4512336242789
 20
157.204295975814
 30
0.0
 40
2.5
 41
0.0
 46
0.0
 71
     5
 72
     1
  1
45
 73
     1
 44
1.0
  0
POINT
  5
2CD
330
2B2
100
AcDbEntity
  8
Defpoints
 62
     0
440
 16777216
100
AcDbPoint
 10
375.951233624279
 20
162.4944403165276
 30
0.0
  0
POINT
  5
2CE
330
2B2
100
AcDbEntity
  8
Defpoints
 62
     0
440
 16777216
100
AcDbPoint
 10
330.9512336242788
 20
162.4944403165276
 30
0.0
  0
POINT
  5
2CF
330
2B2
100
AcDbEntity
  8
Defpoints
 62
     0
440
 16777216
100
AcDbPoint
 10
330.9512336242788
 20
154.4302959758139
 30
0.0
  0
ENDBLK
  5
2BD
330
2B2
100
AcDbEntity
  8
0
100
AcDbBlockEnd
  0
BLOCK
  5
2EE
330
2E3
100
AcDbEntity
  8
0
100
AcDbBlockBegin
  2
*D26
 70
     1
 10
0.0
 20
0.0
 30
0.0
  3
*D26
  1

  0
LINE
  5
2F0
330
2E3
100
AcDbEntity
  8
AM_5
 62
     0
440
 16777216
370
    -2
100
AcDbLine
 10
376.951233624279
 20
162.4944403165276
 30
0.0
 11
389.451233624279
 21
162.4944403165276
 31
0.0
  0
LINE
  5
2F1
330
2E3
100
AcDbEntity
  8
AM_5
 62
     0
440
 16777216
370
    -2
100
AcDbLine
 10
373.9512336242787
 20
193.9944403165276
 30
0.0
 11
389.451233624279
 21
193.9944403165276
 31
0.0
  0
LINE
  5
2F2
330
2E3
100
AcDbEntity
  8
AM_5
 62
     0
440
 16777216
370
    -2
100
AcDbLine
 10
387.951233624279
 20
164.4944403165276
 30
0.0
 11
387.951233624279
 21
175.4704403165276
 31
0.0
  0
LINE
  5
2F3
330
2E3
100
AcDbEntity
  8
AM_5
 62
     0
440
 16777216
370
    -2
100
AcDbLine
 10
387.951233624279
 20
191.9944403165276
 30
0.0
 11
387.951233624279
 21
181.0184403165276
 31
0.0
  0
SOLID
  5
2F4
330
2E3
100
AcDbEntity
  8
AM_5
 62
     0
440
 16777216
100
AcDbTrace
 10
387.6179002909457
 20
164.4944403165276
 30
0.0
 11
388.2845669576123
 21
164.4944403165276
 31
0.0
 12
387.951233624279
 22
162.4944403165276
 32
0.0
 13
387.951233624279
 23
162.4944403165276
 33
0.0
  0
SOLID
  5
2F5
330
2E3
100
AcDbEntity
  8
AM_5
 62
     0
440
 16777216
100
AcDbTrace
 10
387.6179002909457
 20
191.9944403165276
 30
0.0
 11
388.2845669576123
 21
191.9944403165276
 31
0.0
 12
387.951233624279
 22
193.9944403165276
 32
0.0
 13
387.951233624279
 23
193.9944403165276
 33
0.0
  0
MTEXT
  5
2F6
330
2E3
100
AcDbEntity
  8
AM_5
 62
     0
440
 16777216
100
AcDbMText
 10
387.9512336242789
 20
178.2444403165276
 30
0.0
 40
2.5
 41
0.0
 46
0.0
 71
     5
 72
     1
  1
32
 73
     1
 44
1.0
  0
POINT
  5
2F7
330
2E3
100
AcDbEntity
  8
Defpoints
 62
     0
440
 16777216
100
AcDbPoint
 10
375.951233624279
 20
162.4944403165276
 30
0.0
  0
POINT
  5
2F8
330
2E3
100
AcDbEntity
  8
Defpoints
 62
     0
440
 16777216
100
AcDbPoint
 10
372.9512336242787
 20
193.9944403165276
 30
0.0
  0
POINT
  5
2F9
330
2E3
100
AcDbEntity
  8
Defpoints
 62
     0
440
 16777216
100
AcDbPoint
 10
387.951233624279
 20
193.9944403165276
 30
0.0
  0
ENDBLK
  5
2EF
330
2E3
100
AcDbEntity
  8
0
100
AcDbBlockEnd
  0
BLOCK
  5
318
330
30D
100
AcDbEntity
  8
0
100
AcDbBlockBegin
  2
*D27
 70
     1
 10
0.0
 20
0.0
 30
0.0
  3
*D27
  1

  0
LINE
  5
31A
330
30D
100
AcDbEntity
  8
AM_5
 62
     0
440
 16777216
370
    -2
100
AcDbLine
 10
376.9512369287052
 20
97.19689836792205
 30
0.0
 11
407.2002282006187
 21
97.19689836792205
 31
0.0
  0
LINE
  5
31B
330
30D
100
AcDbEntity
  8
AM_5
 62
     0
440
 16777216
370
    -2
100
AcDbLine
 10
371.9512342464962
 20
-327.3031060204699
 30
0.0
 11
407.2002282006186
 21
-327.3031060204699
 31
0.0
  0
LINE
  5
31C
330
30D
100
AcDbEntity
  8
AM_5
 62
     0
440
 16777216
370
    -2
100
AcDbLine
 10
405.7002282006187
 20
95.19689836792206
 30
0.0
 11
405.7002282006187
 21
-112.2791038262739
 31
0.0
  0
LINE
  5
31D
330
30D
100
AcDbEntity
  8
AM_5
 62
     0
440
 16777216
370
    -2
100
AcDbLine
 10
405.7002282006187
 20
-325.3031060204699
 30
0.0
 11
405.7002282006187
 21
-117.8271038262739
 31
0.0
  0
SOLID
  5
31E
330
30D
100
AcDbEntity
  8
AM_5
 62
     0
440
 16777216
100
AcDbTrace
 10
405.3668948672854
 20
95.19689836792206
 30
0.0
 11
406.033561533952
 21
95.19689836792206
 31
0.0
 12
405.7002282006187
 22
97.19689836792205
 32
0.0
 13
405.7002282006187
 23
97.19689836792205
 33
0.0
  0
SOLID
  5
31F
330
30D
100
AcDbEntity
  8
AM_5
 62
     0
440
 16777216
100
AcDbTrace
 10
405.3668948672854
 20
-325.3031060204699
 30
0.0
 11
406.033561533952
 21
-325.3031060204699
 31
0.0
 12
405.7002282006187
 22
-327.3031060204699
 32
0.0
 13
405.7002282006187
 23
-327.3031060204699
 33
0.0
  0
MTEXT
  5
320
330
30D
100
AcDbEntity
  8
AM_5
 62
     0
440
 16777216
100
AcDbMText
 10
405.7002282006187
 20
-115.0531038262739
 30
0.0
 40
2.5
 41
0.0
 46
0.0
 71
     5
 72
     1
  1
425
 73
     1
 44
1.0
  0
POINT
  5
321
330
30D
100
AcDbEntity
  8
Defpoints
 62
     0
440
 16777216
100
AcDbPoint
 10
375.9512369287052
 20
97.19689836792205
 30
0.0
  0
POINT
  5
322
330
30D
100
AcDbEntity
  8
Defpoints
 62
     0
440
 16777216
100
AcDbPoint
 10
370.9512342464961
 20
-327.3031060204699
 30
0.0
  0
POINT
  5
323
330
30D
100
AcDbEntity
  8
Defpoints
 62
     0
440
 16777216
100
AcDbPoint
 10
405.7002282006187
 20
-327.3031060204699
 30
0.0
  0
ENDBLK
  5
319
330
30D
100
AcDbEntity
  8
0
100
AcDbBlockEnd
  0
ENDSEC
  0
SECTION
  2
ENTITIES
  0
LINE
  5
139
330
1F
100
AcDbEntity
  8
0
  6
Continuous
 62
     7
370
    15
100
AcDbLine
 10
346.9512336242788
 20
162.4944403165276
 30
0.0
 11
346.9512336242788
 21
184.9944403165276
 31
0.0
  0
LINE
  5
13A
330
1F
100
AcDbEntity
  8
0
  6
Continuous
 62
     7
370
    15
100
AcDbLine
 10
330.9512336242788
 20
184.9944403165276
 30
0.0
 11
330.9512336242788
 21
162.4944403165276
 31
0.0
  0
LINE
  5
13B
330
1F
100
AcDbEntity
  8
0
  6
Continuous
 62
     7
370
    15
100
AcDbLine
 10
375.951233624279
 20
162.4944403165276
 30
0.0
 11
375.951233624279
 21
184.9944403165276
 31
0.0
  0
LINE
  5
13C
330
1F
100
AcDbEntity
  8
0
  6
Continuous
 62
     7
370
    15
100
AcDbLine
 10
359.9512336242789
 20
184.9944403165276
 30
0.0
 11
359.9512336242789
 21
162.4944403165276
 31
0.0
  0
LINE
  5
13D
330
1F
100
AcDbEntity
  8
0
  6
Continuous
 62
     7
370
    15
100
AcDbLine
 10
351.1565456877521
 20
168.9944403165276
 30
0.0
 11
351.5243675362742
 21
168.6521435170091
 31
0.0
  0
LINE
  5
13E
330
1F
100
AcDbEntity
  8
0
  6
Continuous
 62
     7
370
    15
100
AcDbLine
 10
355.3780997122832
 20
168.6521435170091
 30
0.0
 11
355.7459215608052
 21
168.9944403165276
 31
0.0
  0
LINE
  5
13F
330
1F
100
AcDbEntity
  8
0
  6
Continuous
 62
     7
370
    15
100
AcDbLine
 10
375.4512336242787
 20
184.9944403165276
 30
0.0
 11
375.4512336242787
 21
185.9944403165276
 31
0.0
  0
LINE
  5
140
330
1F
100
AcDbEntity
  8
0
  6
Continuous
 62
     7
370
    15
100
AcDbLine
 10
360.4512336242787
 20
185.9944403165276
 30
0.0
 11
360.4512336242787
 21
184.9944403165276
 31
0.0
  0
LINE
  5
141
330
1F
100
AcDbEntity
  8
0
  6
Continuous
 62
     7
370
    15
100
AcDbLine
 10
346.4512336242787
 20
184.9944403165276
 30
0.0
 11
346.4512336242787
 21
185.9944403165276
 31
0.0
  0
LINE
  5
142
330
1F
100
AcDbEntity
  8
0
  6
Continuous
 62
     7
370
    15
100
AcDbLine
 10
331.4512336242787
 20
185.9944403165276
 30
0.0
 11
331.4512336242787
 21
184.9944403165276
 31
0.0
  0
LINE
  5
143
330
1F
100
AcDbEntity
  8
0
  6
Continuous
 62
     7
370
    15
100
AcDbLine
 10
364.9512336242785
 20
168.7444403165275
 30
0.0
 11
370.9512336242785
 21
168.7444403165275
 31
0.0
  0
LINE
  5
144
330
1F
100
AcDbEntity
  8
0
  6
Continuous
 62
     7
370
    15
100
AcDbLine
 10
370.9512336242785
 20
168.7444403165275
 30
0.0
 11
370.9512336242785
 21
162.7444403165275
 31
0.0
  0
LINE
  5
145
330
1F
100
AcDbEntity
  8
0
  6
Continuous
 62
     7
370
    15
100
AcDbLine
 10
370.9512336242785
 20
162.7444403165275
 30
0.0
 11
364.9512336242786
 21
162.7444403165275
 31
0.0
  0
LINE
  5
146
330
1F
100
AcDbEntity
  8
0
  6
Continuous
 62
     7
370
    15
100
AcDbLine
 10
364.9512336242786
 20
162.7444403165275
 30
0.0
 11
364.9512336242785
 21
168.7444403165275
 31
0.0
  0
LINE
  5
147
330
1F
100
AcDbEntity
  8
0
  6
Continuous
 62
     7
370
    15
100
AcDbLine
 10
370.9512336242785
 20
178.7444403165275
 30
0.0
 11
364.9512336242785
 21
178.7444403165275
 31
0.0
  0
LINE
  5
148
330
1F
100
AcDbEntity
  8
0
  6
Continuous
 62
     7
370
    15
100
AcDbLine
 10
364.9512336242785
 20
178.7444403165275
 30
0.0
 11
364.9512336242785
 21
168.7444403165275
 31
0.0
  0
LINE
  5
149
330
1F
100
AcDbEntity
  8
0
  6
Continuous
 62
     7
370
    15
100
AcDbLine
 10
370.9512336242785
 20
168.7444403165275
 30
0.0
 11
370.9512336242785
 21
178.7444403165275
 31
0.0
  0
LINE
  5
14A
330
1F
100
AcDbEntity
  8
0
  6
Continuous
 62
     7
370
    15
100
AcDbLine
 10
364.9512336242786
 20
184.7444403165275
 30
0.0
 11
370.9512336242785
 21
184.7444403165275
 31
0.0
  0
LINE
  5
14B
330
1F
100
AcDbEntity
  8
0
  6
Continuous
 62
     7
370
    15
100
AcDbLine
 10
364.9512336242785
 20
178.7444403165275
 30
0.0
 11
364.9512336242786
 21
184.7444403165275
 31
0.0
  0
LINE
  5
14C
330
1F
100
AcDbEntity
  8
0
  6
Continuous
 62
     7
370
    15
100
AcDbLine
 10
370.9512336242785
 20
184.7444403165275
 30
0.0
 11
370.9512336242785
 21
178.7444403165275
 31
0.0
  0
LINE
  5
14D
330
1F
100
AcDbEntity
  8
0
  6
Continuous
 62
     7
370
    15
100
AcDbLine
 10
341.9512336242783
 20
178.7444403165275
 30
0.0
 11
335.9512336242783
 21
178.7444403165275
 31
0.0
  0
LINE
  5
14E
330
1F
100
AcDbEntity
  8
0
  6
Continuous
 62
     7
370
    15
100
AcDbLine
 10
335.9512336242783
 20
178.7444403165275
 30
0.0
 11
335.9512336242783
 21
184.7444403165275
 31
0.0
  0
LINE
  5
14F
330
1F
100
AcDbEntity
  8
0
  6
Continuous
 62
     7
370
    15
100
AcDbLine
 10
335.9512336242783
 20
184.7444403165275
 30
0.0
 11
341.9512336242783
 21
184.7444403165275
 31
0.0
  0
LINE
  5
150
330
1F
100
AcDbEntity
  8
0
  6
Continuous
 62
     7
370
    15
100
AcDbLine
 10
341.9512336242783
 20
184.7444403165275
 30
0.0
 11
341.9512336242783
 21
178.7444403165275
 31
0.0
  0
LINE
  5
151
330
1F
100
AcDbEntity
  8
0
  6
Continuous
 62
     7
370
    15
100
AcDbLine
 10
335.9512336242783
 20
168.7444403165275
 30
0.0
 11
341.9512336242783
 21
168.7444403165275
 31
0.0
  0
LINE
  5
152
330
1F
100
AcDbEntity
  8
0
  6
Continuous
 62
     7
370
    15
100
AcDbLine
 10
341.9512336242783
 20
168.7444403165275
 30
0.0
 11
341.9512336242783
 21
162.7444403165275
 31
0.0
  0
LINE
  5
153
330
1F
100
AcDbEntity
  8
0
  6
Continuous
 62
     7
370
    15
100
AcDbLine
 10
341.9512336242783
 20
162.7444403165275
 30
0.0
 11
335.9512336242783
 21
162.7444403165275
 31
0.0
  0
LINE
  5
154
330
1F
100
AcDbEntity
  8
0
  6
Continuous
 62
     7
370
    15
100
AcDbLine
 10
335.9512336242783
 20
162.7444403165275
 30
0.0
 11
335.9512336242783
 21
168.7444403165275
 31
0.0
  0
LINE
  5
155
330
1F
100
AcDbEntity
  8
0
  6
Continuous
 62
     7
370
    15
100
AcDbLine
 10
341.9512336242783
 20
168.7444403165275
 30
0.0
 11
341.9512336242783
 21
178.7444403165275
 31
0.0
  0
LINE
  5
156
330
1F
100
AcDbEntity
  8
0
  6
Continuous
 62
     7
370
    15
100
AcDbLine
 10
335.9512336242783
 20
178.7444403165275
 30
0.0
 11
335.9512336242783
 21
168.7444403165275
 31
0.0
  0
LINE
  5
157
330
1F
100
AcDbEntity
  8
0
  6
Continuous
 62
     7
370
    15
100
AcDbLine
 10
338.9512336242788
 20
162.4944403165276
 30
0.0
 11
346.9512336242788
 21
162.4944403165276
 31
0.0
  0
LINE
  5
158
330
1F
100
AcDbEntity
  8
0
  6
Continuous
 62
     7
370
    15
100
AcDbLine
 10
330.9512336242788
 20
162.4944403165276
 30
0.0
 11
338.9512336242788
 21
162.4944403165276
 31
0.0
  0
LINE
  5
159
330
1F
100
AcDbEntity
  8
0
  6
Continuous
 62
     7
370
    15
100
AcDbLine
 10
338.9512336242788
 20
184.9944403165276
 30
0.0
 11
346.9512336242788
 21
184.9944403165276
 31
0.0
  0
LINE
  5
15A
330
1F
100
AcDbEntity
  8
0
  6
Continuous
 62
     7
370
    15
100
AcDbLine
 10
330.9512336242788
 20
184.9944403165276
 30
0.0
 11
338.9512336242788
 21
184.9944403165276
 31
0.0
  0
LINE
  5
15B
330
1F
100
AcDbEntity
  8
0
  6
Continuous
 62
     7
370
    15
100
AcDbLine
 10
367.9512336242789
 20
162.4944403165276
 30
0.0
 11
375.951233624279
 21
162.4944403165276
 31
0.0
  0
LINE
  5
15C
330
1F
100
AcDbEntity
  8
0
  6
Continuous
 62
     7
370
    15
100
AcDbLine
 10
359.9512336242789
 20
162.4944403165276
 30
0.0
 11
367.9512336242789
 21
162.4944403165276
 31
0.0
  0
LINE
  5
15D
330
1F
100
AcDbEntity
  8
0
  6
Continuous
 62
     7
370
    15
100
AcDbLine
 10
367.9512336242789
 20
184.9944403165276
 30
0.0
 11
375.951233624279
 21
184.9944403165276
 31
0.0
  0
LINE
  5
15E
330
1F
100
AcDbEntity
  8
0
  6
Continuous
 62
     7
370
    15
100
AcDbLine
 10
359.9512336242789
 20
184.9944403165276
 30
0.0
 11
367.9512336242789
 21
184.9944403165276
 31
0.0
  0
LWPOLYLINE
  5
15F
330
1F
100
AcDbEntity
  8
0
  6
Continuous
 62
     7
370
    15
100
AcDbPolyline
 90
       16
 70
   128
 43
0.0
 10
351.6124281564261
 20
168.9944403165276
 10
351.5252984360582
 20
168.930408336778
 10
351.4513924801192
 20
168.784320146486
 10
351.5395017601668
 20
168.6387604982554
 10
351.7824881863375
 20
168.5055217691092
 10
352.160666443479
 20
168.3953981684816
 10
352.6433987783104
 20
168.3173112555653
 10
353.1915770879832
 20
168.2775871676439
 10
353.7607912259899
 20
168.2794441140726
 10
354.3049268481158
 20
168.3227316560954
 10
354.7799013223556
 20
168.4039428944986
 10
355.1472350415882
 20
168.5164985777285
 10
355.3771688124992
 20
168.6512801137243
 10
355.4510747684382
 20
168.7973683040163
 10
355.3629654883906
 20
168.9429279522469
 10
355.2900390921313
 20
168.9944403165276
  0
LINE
  5
160
330
1F
100
AcDbEntity
  8
0
  6
Continuous
 62
     7
370
    15
100
AcDbLine
 10
354.7257192867276
 20
168.9661966839213
 30
0.0
 11
354.5511174974785
 21
168.9944403165276
 31
0.0
  0
LINE
  5
161
330
1F
100
AcDbEntity
  8
0
  6
Continuous
 62
     7
370
    15
100
AcDbLine
 10
352.2679819375606
 20
168.9944403165276
 30
0.0
 11
352.2272500307416
 21
168.9888361420614
 31
0.0
  0
LINE
  5
162
330
1F
100
AcDbEntity
  8
0
  6
Continuous
 62
     7
370
    15
100
AcDbLine
 10
352.2272500307416
 20
168.9888361420614
 30
0.0
 11
352.1767479618298
 21
168.6154917665809
 31
0.0
  0
LINE
  5
163
330
1F
100
AcDbEntity
  8
0
  6
Continuous
 62
     7
370
    15
100
AcDbLine
 10
352.1767479618298
 20
168.6154917665809
 30
0.0
 11
353.4007315553669
 21
168.4174998497707
 31
0.0
  0
LINE
  5
164
330
1F
100
AcDbEntity
  8
0
  6
Continuous
 62
     7
370
    15
100
AcDbLine
 10
353.4007315553669
 20
168.4174998497707
 30
0.0
 11
354.6752172178158
 21
168.5928523084409
 31
0.0
  0
LINE
  5
165
330
1F
100
AcDbEntity
  8
0
  6
Continuous
 62
     7
370
    15
100
AcDbLine
 10
354.6752172178158
 20
168.5928523084409
 30
0.0
 11
354.7257192867276
 21
168.9661966839213
 31
0.0
  0
LINE
  5
166
330
1F
100
AcDbEntity
  8
0
  6
Continuous
 62
     7
370
    15
100
AcDbLine
 10
354.6752172178158
 20
168.9743659122342
 30
0.0
 11
354.6752172178158
 21
168.5928523084409
 31
0.0
  0
LINE
  5
167
330
1F
100
AcDbEntity
  8
0
  6
Continuous
 62
     7
370
    15
100
AcDbLine
 10
353.4007315553669
 20
168.9944403165276
 30
0.0
 11
353.4007315553669
 21
168.4174998497707
 31
0.0
  0
LINE
  5
168
330
1F
100
AcDbEntity
  8
0
  6
Continuous
 62
     7
370
    15
100
AcDbLine
 10
330.9512336242787
 20
190.9944403165276
 30
0.0
 11
330.9512336242787
 21
185.9944403165276
 31
0.0
  0
ARC
  5
169
330
1F
100
AcDbEntity
  8
0
  6
Continuous
 62
     7
370
    15
100
AcDbCircle
 10
333.9512336242787
 20
190.9944403165276
 30
0.0
 40
3.0
100
AcDbArc
 50
90.0
 51
180.0
  0
LINE
  5
16A
330
1F
100
AcDbEntity
  8
0
  6
Continuous
 62
     7
370
    15
100
AcDbLine
 10
372.9512336242787
 20
193.9944403165276
 30
0.0
 11
333.9512336242787
 21
193.9944403165276
 31
0.0
  0
ARC
  5
16B
330
1F
100
AcDbEntity
  8
0
  6
Continuous
 62
     7
370
    15
100
AcDbCircle
 10
372.9512336242787
 20
190.9944403165276
 30
0.0
 40
3.0
100
AcDbArc
 50
0.0
 51
90.0
  0
LINE
  5
16C
330
1F
100
AcDbEntity
  8
0
  6
Continuous
 62
     7
370
    15
100
AcDbLine
 10
375.9512336242787
 20
185.9944403165276
 30
0.0
 11
375.9512336242787
 21
190.9944403165276
 31
0.0
  0
LINE
  5
16D
330
1F
100
AcDbEntity
  8
0
  6
Continuous
 62
     7
370
    15
100
AcDbLine
 10
375.9512336242787
 20
185.9944403165276
 30
0.0
 11
330.9512336242787
 21
185.9944403165276
 31
0.0
  0
LINE
  5
16E
330
1F
100
AcDbEntity
  8
0
  6
Continuous
 62
     7
370
    15
100
AcDbLine
 10
330.9512336242787
 20
185.4944403165276
 30
0.0
 11
330.9512336242787
 21
185.9944403165276
 31
0.0
  0
LINE
  5
16F
330
1F
100
AcDbEntity
  8
0
  6
Continuous
 62
     7
370
    15
100
AcDbLine
 10
375.9512336242788
 20
185.9944403165276
 30
0.0
 11
375.9512336242788
 21
185.4944403165276
 31
0.0
  0
LINE
  5
170
330
1F
100
AcDbEntity
  8
0
  6
Continuous
 62
     7
370
    15
100
AcDbLine
 10
346.9512336242788
 20
168.9944403165276
 30
0.0
 11
359.9512336242789
 21
168.9944403165276
 31
0.0
  0
LINE
  5
171
330
1F
100
AcDbEntity
  8
0
  6
Continuous
 62
     7
370
    15
100
AcDbLine
 10
330.9512336242787
 20
185.4944403165276
 30
0.0
 11
330.9512336242787
 21
171.9944403165276
 31
0.0
  0
LINE
  5
172
330
1F
100
AcDbEntity
  8
0
  6
Continuous
 62
     7
370
    15
100
AcDbLine
 10
375.9512336242788
 20
171.9944403165276
 30
0.0
 11
375.9512336242788
 21
185.4944403165276
 31
0.0
  0
LINE
  5
173
330
1F
100
AcDbEntity
  8
0
  6
Continuous
 62
     8
370
    15
100
AcDbLine
 10
375.9512336242788
 20
185.4944403165276
 30
0.0
 11
375.4512336242787
 21
185.4944403165276
 31
0.0
  0
LINE
  5
174
330
1F
100
AcDbEntity
  8
0
  6
Continuous
 62
     8
370
    15
100
AcDbLine
 10
360.4512336242787
 20
185.4944403165276
 30
0.0
 11
346.4512336242786
 21
185.4944403165276
 31
0.0
  0
LINE
  5
175
330
1F
100
AcDbEntity
  8
0
  6
Continuous
 62
     8
370
    15
100
AcDbLine
 10
331.4512336242787
 20
185.4944403165276
 30
0.0
 11
330.9512336242787
 21
185.4944403165276
 31
0.0
  0
LINE
  5
176
330
1F
100
AcDbEntity
  8
0
  6
Continuous
 62
     7
370
    15
100
AcDbLine
 10
364.9512369883098
 20
-321.3030938611224
 30
0.0
 11
370.9512342464961
 21
-321.3030938611224
 31
0.0
  0
LINE
  5
177
330
1F
100
AcDbEntity
  8
0
  6
Continuous
 62
     7
370
    15
100
AcDbLine
 10
364.9512369883098
 20
67.19689996979688
 30
0.0
 11
364.9512369883098
 21
-321.3030938611224
 31
0.0
  0
LINE
  5
178
330
1F
100
AcDbEntity
  8
0
  6
Continuous
 62
     7
370
    15
100
AcDbLine
 10
370.9512342464961
 20
67.19689996979688
 30
0.0
 11
370.9512342464961
 21
-321.3030938611224
 31
0.0
  0
LINE
  5
179
330
1F
100
AcDbEntity
  8
0
  6
Continuous
 62
     7
370
    15
100
AcDbLine
 10
370.9512342464961
 20
-327.3031060204699
 30
0.0
 11
364.9512369883098
 21
-327.3031060204699
 31
0.0
  0
LINE
  5
17A
330
1F
100
AcDbEntity
  8
0
  6
Continuous
 62
     7
370
    15
100
AcDbLine
 10
364.9512369883098
 20
-327.3031060204699
 30
0.0
 11
364.9512369883098
 21
-321.3030938611224
 31
0.0
  0
LINE
  5
17B
330
1F
100
AcDbEntity
  8
0
  6
Continuous
 62
     7
370
    15
100
AcDbLine
 10
370.9512342464961
 20
-321.3030938611224
 30
0.0
 11
370.9512342464961
 21
-327.3031060204699
 31
0.0
  0
LINE
  5
17C
330
1F
100
AcDbEntity
  8
0
  6
Continuous
 62
     7
370
    15
100
AcDbLine
 10
335.9512340974845
 20
-321.3030938611224
 30
0.0
 11
341.9512350809612
 21
-321.3030938611224
 31
0.0
  0
LINE
  5
17D
330
1F
100
AcDbEntity
  8
0
  6
Continuous
 62
     7
370
    15
100
AcDbLine
 10
341.9512350809612
 20
67.19689996979688
 30
0.0
 11
341.9512350809612
 21
-321.3030938611224
 31
0.0
  0
LINE
  5
17E
330
1F
100
AcDbEntity
  8
0
  6
Continuous
 62
     7
370
    15
100
AcDbLine
 10
335.9512340974845
 20
67.19689996979688
 30
0.0
 11
335.9512340974845
 21
-321.3030938611224
 31
0.0
  0
LINE
  5
17F
330
1F
100
AcDbEntity
  8
0
  6
Continuous
 62
     7
370
    15
100
AcDbLine
 10
341.9512350809612
 20
-327.3031060204699
 30
0.0
 11
335.9512340974845
 21
-327.3031060204699
 31
0.0
  0
LINE
  5
180
330
1F
100
AcDbEntity
  8
0
  6
Continuous
 62
     7
370
    15
100
AcDbLine
 10
341.9512350809612
 20
-321.3030938611224
 30
0.0
 11
341.9512350809612
 21
-327.3031060204699
 31
0.0
  0
LINE
  5
181
330
1F
100
AcDbEntity
  8
0
  6
Continuous
 62
     7
370
    15
100
AcDbLine
 10
335.9512340974845
 20
-327.3031060204699
 30
0.0
 11
335.9512340974845
 21
-321.3030938611224
 31
0.0
  0
ARC
  5
182
330
1F
100
AcDbEntity
  8
0
  6
Continuous
 62
     7
370
    15
100
AcDbCircle
 10
338.9512336242788
 20
74.69689815758795
 30
0.0
 40
8.000000000000005
100
AcDbArc
 50
270.0000000000008
 51
290.364134806314
  0
ARC
  5
183
330
1F
100
AcDbEntity
  8
0
  6
Continuous
 62
     7
370
    15
100
AcDbCircle
 10
338.9512336242788
 20
74.69689815758795
 30
0.0
 40
8.000000000000024
100
AcDbArc
 50
249.6358651936872
 51
270.0000000000008
  0
ARC
  5
184
330
1F
100
AcDbEntity
  8
0
  6
Continuous
 62
     7
370
    15
100
AcDbCircle
 10
367.9512336242789
 20
74.69689815758818
 30
0.0
 40
8.000000000000014
100
AcDbArc
 50
270.0000000000008
 51
290.3641348063093
  0
ARC
  5
185
330
1F
100
AcDbEntity
  8
0
  6
Continuous
 62
     7
370
    15
100
AcDbCircle
 10
367.9512336242789
 20
74.69689815758818
 30
0.0
 40
8.000000000000019
100
AcDbArc
 50
249.6358651936919
 51
270.0000000000008
  0
LINE
  5
186
330
1F
100
AcDbEntity
  8
0
  6
Continuous
 62
     7
370
    15
100
AcDbLine
 10
372.9512308490314
 20
67.19689996979688
 30
0.0
 11
372.9512308490314
 21
97.19689836792205
 31
0.0
  0
LINE
  5
187
330
1F
100
AcDbEntity
  8
0
  6
Continuous
 62
     7
370
    15
100
AcDbLine
 10
375.9512369287052
 20
97.19689836792205
 30
0.0
 11
375.9512369287052
 21
67.19689996979688
 31
0.0
  0
LINE
  5
188
330
1F
100
AcDbEntity
  8
0
  6
Continuous
 62
     7
370
    15
100
AcDbLine
 10
375.9512369287052
 20
67.19689996979688
 30
0.0
 11
372.9512308490314
 21
67.19689996979688
 31
0.0
  0
LINE
  5
189
330
1F
100
AcDbEntity
  8
0
  6
Continuous
 62
     7
370
    15
100
AcDbLine
 10
372.9512308490314
 20
97.19689836792205
 30
0.0
 11
375.9512369287052
 21
97.19689836792205
 31
0.0
  0
LINE
  5
18A
330
1F
100
AcDbEntity
  8
0
  6
Continuous
 62
     7
370
    15
100
AcDbLine
 10
333.951233769659
 20
97.19689836792205
 30
0.0
 11
333.951233769659
 21
67.19689996979688
 31
0.0
  0
LINE
  5
18B
330
1F
100
AcDbEntity
  8
0
  6
Continuous
 62
     7
370
    15
100
AcDbLine
 10
372.9512308490314
 20
67.19689996979688
 30
0.0
 11
333.951233769659
 21
67.19689996979688
 31
0.0
  0
LINE
  5
18C
330
1F
100
AcDbEntity
  8
0
  6
Continuous
 62
     7
370
    15
100
AcDbLine
 10
372.9512308490314
 20
97.19689836792205
 30
0.0
 11
333.951233769659
 21
97.19689836792205
 31
0.0
  0
LINE
  5
18D
330
1F
100
AcDbEntity
  8
0
  6
Continuous
 62
     7
370
    15
100
AcDbLine
 10
330.9512351405658
 20
67.19689996979688
 30
0.0
 11
330.9512351405658
 21
97.19689836792205
 31
0.0
  0
LINE
  5
18E
330
1F
100
AcDbEntity
  8
0
  6
Continuous
 62
     7
370
    15
100
AcDbLine
 10
333.951233769659
 20
67.19689996979688
 30
0.0
 11
330.9512351405658
 21
67.19689996979688
 31
0.0
  0
LINE
  5
18F
330
1F
100
AcDbEntity
  8
0
  6
Continuous
 62
     7
370
    15
100
AcDbLine
 10
330.9512351405658
 20
97.19689836792205
 30
0.0
 11
333.951233769659
 21
97.19689836792205
 31
0.0
  0
LINE
  5
190
330
1F
100
AcDbEntity
  8
0
  6
Continuous
 62
     7
370
    15
100
AcDbLine
 10
476.6765962927018
 20
-179.2460165674702
 30
0.0
 11
478.797915666884
 21
-180.4706281755945
 31
0.0
  0
LINE
  5
191
330
1F
100
AcDbEntity
  8
0
  6
Continuous
 62
     7
370
    15
100
AcDbLine
 10
466.4235469434358
 20
-173.3270571667322
 30
0.0
 11
468.544867634707
 21
-174.5516695351959
 31
0.0
  0
LINE
  5
192
330
1F
100
AcDbEntity
  8
0
  6
Continuous
 62
     7
370
    15
100
AcDbLine
 10
612.9912258106315
 20
-92.28864179353314
 30
0.0
 11
612.9912258106315
 21
-88.84483055221386
 31
0.0
  0
LINE
  5
193
330
1F
100
AcDbEntity
  8
0
  6
Continuous
 62
     7
370
    15
100
AcDbLine
 10
604.9912264691129
 20
-84.22652943279437
 30
0.0
 11
604.9912264691129
 21
-85.06902630780846
 31
0.0
  0
LINE
  5
194
330
1F
100
AcDbEntity
  8
0
  6
Continuous
 62
     7
370
    15
100
AcDbLine
 10
623.2442751598975
 20
-98.98746311359833
 30
0.0
 11
623.2442751598975
 21
-90.34959022942732
 31
0.0
  0
LINE
  5
195
330
1F
100
AcDbEntity
  8
0
  6
Continuous
 62
     7
370
    15
100
AcDbLine
 10
615.2442758183789
 20
-90.14548883353235
 30
0.0
 11
615.2442758183789
 21
-90.98798570854642
 31
0.0
  0
LINE
  5
196
330
1F
100
AcDbEntity
  8
0
  6
Continuous
 62
     7
370
    15
100
AcDbLine
 10
625.1207384663886
 20
-95.48950798058564
 30
0.0
 11
629.7169323096593
 21
-92.83618175250223
 31
0.0
  0
LINE
  5
197
330
1F
100
AcDbEntity
  8
0
  6
Continuous
 62
     7
370
    15
100
AcDbLine
 10
614.4284725282513
 20
-74.52091871407644
 30
0.0
 11
603.8218713768014
 21
-80.64397922580083
 31
0.0
  0
ARC
  5
198
330
1F
100
AcDbEntity
  8
0
  6
Continuous
 62
     7
370
    15
100
AcDbCircle
 10
482.7626809982439
 20
-175.21275134735
 30
0.0
 40
4.590497755591308
100
AcDbArc
 50
122.4765138339994
 51
177.5234179826362
  0
LINE
  5
199
330
1F
100
AcDbEntity
  8
0
  6
Continuous
 62
     7
370
    15
100
AcDbLine
 10
617.6532856292293
 20
-92.04651749781174
 30
0.0
 11
480.2977955648412
 21
-171.34015409947
 31
0.0
  0
LINE
  5
19A
330
1F
100
AcDbEntity
  8
0
  6
Continuous
 62
     7
370
    15
100
AcDbLine
 10
617.6532856292293
 20
-101.0284663798853
 30
0.0
 11
617.6532856292293
 21
-92.04651749781174
 31
0.0
  0
LINE
  5
19B
330
1F
100
AcDbEntity
  8
0
  6
Continuous
 62
     7
370
    15
100
AcDbLine
 10
617.6532856292293
 20
-101.0284663798853
 30
0.0
 11
480.2977955648412
 21
-180.3221029815436
 31
0.0
  0
ARC
  5
19C
330
1F
100
AcDbEntity
  8
0
  6
Continuous
 62
     7
370
    15
100
AcDbCircle
 10
479.4761862918123
 20
-179.295635085895
 30
0.0
 40
1.314792051361901
100
AcDbArc
 50
171.314839285322
 51
308.6746092002452
  0
LINE
  5
19D
330
1F
100
AcDbEntity
  8
0
  6
Continuous
 62
     7
370
    15
100
AcDbLine
 10
478.176470922303
 20
-179.097095174075
 30
0.0
 11
478.176470922303
 21
-175.0143911108439
 31
0.0
  0
LINE
  5
19E
330
1F
100
AcDbEntity
  8
0
  6
Continuous
 62
     7
370
    15
100
AcDbLine
 10
478.176470922303
 20
-175.0143911108439
 30
0.0
 11
476.0551515481208
 21
-173.7897795027195
 31
0.0
  0
ARC
  5
19F
330
1F
100
AcDbEntity
  8
0
  6
Continuous
 62
     7
370
    15
100
AcDbCircle
 10
480.6413327251236
 20
-173.9881230543931
 30
0.0
 40
4.590468162702557
100
AcDbArc
 50
122.4763213635919
 51
177.5236104530427
  0
LINE
  5
1A0
330
1F
100
AcDbEntity
  8
0
  6
Continuous
 62
     7
370
    15
100
AcDbLine
 10
478.1764761906591
 20
-170.1155424913457
 30
0.0
 11
480.2977955648412
 21
-171.34015409947
 31
0.0
  0
LINE
  5
1A1
330
1F
100
AcDbEntity
  8
0
  6
Continuous
 62
     7
370
    15
100
AcDbLine
 10
476.0551515481208
 20
-177.8724835659506
 30
0.0
 11
478.176470922303
 21
-179.097095174075
 31
0.0
  0
LINE
  5
1A2
330
1F
100
AcDbEntity
  8
0
  6
Continuous
 62
     7
370
    15
100
AcDbLine
 10
476.0551515481208
 20
-173.7897795027195
 30
0.0
 11
476.0551515481208
 21
-177.8724835659506
 31
0.0
  0
LINE
  5
1A3
330
1F
100
AcDbEntity
  8
0
  6
Continuous
 62
     7
370
    15
100
AcDbLine
 10
615.6083732230414
 20
-90.86601469342815
 30
0.0
 11
615.5319662550472
 21
-90.82190588968741
 31
0.0
  0
ARC
  5
1A4
330
1F
100
AcDbEntity
  8
0
  6
Continuous
 62
     7
370
    15
100
AcDbCircle
 10
618.3602964045171
 20
-88.37218182303498
 30
0.0
 40
3.713796384051933
100
AcDbArc
 50
222.1833285674962
 51
257.8220479652045
  0
LINE
  5
1A5
330
1F
100
AcDbEntity
  8
0
  6
Continuous
 62
     7
370
    15
100
AcDbLine
 10
617.6532856292293
 20
-92.04651749781174
 30
0.0
 11
617.5768760270571
 21
-92.00240717339237
 31
0.0
  0
LINE
  5
1A6
330
1F
100
AcDbEntity
  8
0
  6
Continuous
 62
     7
370
    15
100
AcDbLine
 10
615.5319662550472
 20
-90.82190588968741
 30
0.0
 11
478.1764761906591
 21
-170.1155424913457
 31
0.0
  0
ARC
  5
1A7
330
1F
100
AcDbEntity
  8
0
  6
Continuous
 62
     7
370
    15
100
AcDbCircle
 10
477.5551276199128
 20
-178.0211811155377
 30
0.0
 40
1.507328490144711
100
AcDbArc
 50
174.3385787277503
 51
234.3494584335851
  0
LINE
  5
1A8
330
1F
100
AcDbEntity
  8
0
  6
Continuous
 62
     7
370
    15
100
AcDbLine
 10
467.9234228901259
 20
-169.0954324704452
 30
0.0
 11
465.8021021988548
 21
-167.8708201019816
 31
0.0
  0
ARC
  5
1A9
330
1F
100
AcDbEntity
  8
0
  6
Continuous
 62
     7
370
    15
100
AcDbCircle
 10
470.3882833758576
 20
-168.0691636536551
 30
0.0
 40
4.59046816270244
100
AcDbArc
 50
122.4763213635909
 51
177.5236104530433
  0
LINE
  5
1AA
330
1F
100
AcDbEntity
  8
0
  6
Continuous
 62
     7
370
    15
100
AcDbLine
 10
467.9234268413931
 20
-164.1965830906077
 30
0.0
 11
470.0447475326642
 21
-165.4211954590713
 31
0.0
  0
ARC
  5
1AB
330
1F
100
AcDbEntity
  8
0
  6
Continuous
 62
     7
370
    15
100
AcDbCircle
 10
472.5096329660675
 20
-169.2937927069517
 30
0.0
 40
4.590497755591949
100
AcDbArc
 50
122.4765138340029
 51
177.523417982632
  0
LINE
  5
1AC
330
1F
100
AcDbEntity
  8
0
  6
Continuous
 62
     7
370
    15
100
AcDbLine
 10
607.4002375970524
 20
-86.12755885741307
 30
0.0
 11
470.0447475326642
 21
-165.4211954590713
 31
0.0
  0
LINE
  5
1AD
330
1F
100
AcDbEntity
  8
0
  6
Continuous
 62
     7
370
    15
100
AcDbLine
 10
607.4002375970524
 20
-95.10950773948669
 30
0.0
 11
607.4002375970524
 21
-86.12755885741307
 31
0.0
  0
LINE
  5
1AE
330
1F
100
AcDbEntity
  8
0
  6
Continuous
 62
     7
370
    15
100
AcDbLine
 10
607.4002375970524
 20
-95.10950773948669
 30
0.0
 11
470.0447475326642
 21
-174.403144341145
 31
0.0
  0
ARC
  5
1AF
330
1F
100
AcDbEntity
  8
0
  6
Continuous
 62
     7
370
    15
100
AcDbCircle
 10
469.2231382596354
 20
-173.3766764454963
 30
0.0
 40
1.31479205136191
100
AcDbArc
 50
171.3148392853256
 51
308.6746092002417
  0
LINE
  5
1B0
330
1F
100
AcDbEntity
  8
0
  6
Continuous
 62
     7
370
    15
100
AcDbLine
 10
467.9234228901259
 20
-173.1781365336763
 30
0.0
 11
467.9234228901259
 21
-169.0954324704452
 31
0.0
  0
LINE
  5
1B1
330
1F
100
AcDbEntity
  8
0
  6
Continuous
 62
     7
370
    15
100
AcDbLine
 10
465.8021021988548
 20
-171.9535241652127
 30
0.0
 11
467.9234228901259
 21
-173.1781365336763
 31
0.0
  0
LINE
  5
1B2
330
1F
100
AcDbEntity
  8
0
  6
Continuous
 62
     7
370
    15
100
AcDbLine
 10
465.8021021988548
 20
-167.8708201019816
 30
0.0
 11
465.8021021988548
 21
-171.9535241652127
 31
0.0
  0
LINE
  5
1B3
330
1F
100
AcDbEntity
  8
0
  6
Continuous
 62
     7
370
    15
100
AcDbLine
 10
605.3553265079536
 20
-84.94705681336879
 30
0.0
 11
605.2789169057813
 21
-84.90294648894943
 31
0.0
  0
ARC
  5
1B4
330
1F
100
AcDbEntity
  8
0
  6
Continuous
 62
     7
370
    15
100
AcDbCircle
 10
608.1072456717711
 20
-82.45322938159207
 30
0.0
 40
3.713789754909198
100
AcDbArc
 50
222.1833080154859
 51
257.8220685172125
  0
LINE
  5
1B5
330
1F
100
AcDbEntity
  8
0
  6
Continuous
 62
     7
370
    15
100
AcDbLine
 10
607.4002375970524
 20
-86.12755885741307
 30
0.0
 11
607.3238279948801
 21
-86.08344853299371
 31
0.0
  0
LINE
  5
1B6
330
1F
100
AcDbEntity
  8
0
  6
Continuous
 62
     7
370
    15
100
AcDbLine
 10
605.2789169057813
 20
-84.90294648894943
 30
0.0
 11
467.9234268413931
 21
-164.1965830906077
 31
0.0
  0
ARC
  5
1B7
330
1F
100
AcDbEntity
  8
0
  6
Continuous
 62
     7
370
    15
100
AcDbCircle
 10
467.3020782706469
 20
-172.1022217147997
 30
0.0
 40
1.507328490144694
100
AcDbArc
 50
174.3385787277514
 51
234.3494584335844
  0
LWPOLYLINE
  5
1B8
330
1F
100
AcDbEntity
  8
0
  6
Continuous
 62
     7
370
    15
100
AcDbPolyline
 90
        3
 70
   128
 43
0.0
 10
607.3074131144742
 20
-95.16309365250513
 10
607.7115170979966
 20
-95.25628996175344
 10
607.8166576799632
 20
-95.27585653341901
  0
ARC
  5
1B9
330
1F
100
AcDbEntity
  8
0
  6
Continuous
 62
     7
370
    15
100
AcDbCircle
 10
608.8059205164683
 20
-80.59519613471076
 30
0.0
 40
5.585058448901097
100
AcDbArc
 50
241.7546236589402
 51
265.2366131836051
  0
ARC
  5
1BA
330
1F
100
AcDbEntity
  8
0
  6
Continuous
 62
     7
370
    15
100
AcDbCircle
 10
607.1400856165347
 20
-83.52005403693205
 30
0.0
 40
2.22167458624647
100
AcDbArc
 50
199.3761315048254
 51
243.9033196247231
  0
LWPOLYLINE
  5
1BB
330
1F
100
AcDbEntity
  8
0
  6
Continuous
 62
     7
370
    15
100
AcDbPolyline
 90
       15
 70
   128
 43
0.0
 10
617.5604611466511
 20
-101.0820522929038
 10
617.9645651301735
 20
-101.1752486021521
 10
618.5580678312808
 20
-101.2623796847673
 10
619.1676548234511
 20
-101.2961896926267
 10
619.7790383250392
 20
-101.2758848314963
 10
620.3778870904624
 20
-101.2019403134414
 10
620.9501649020772
 20
-101.0760904724161
 10
621.4824585253457
 20
-100.9012854249222
 10
621.9622911760191
 20
-100.6816226394725
 10
622.3784135968123
 20
-100.4222488528201
 10
622.7210766948289
 20
-100.1292452587234
 10
622.9822462270718
 20
-99.80947924178211
 10
623.1557990467055
 20
-99.4704454665219
 10
623.2376712755715
 20
-99.12009213986383
 10
623.2442751598975
 20
-98.98746311359833
  0
ARC
  5
1BC
330
1F
100
AcDbEntity
  8
0
  6
Continuous
 62
     7
370
    15
100
AcDbCircle
 10
619.059017114713
 20
-86.51399046260724
 30
0.0
 40
5.58522622697408
100
AcDbArc
 50
241.7549980667746
 51
265.2362566649841
  0
ARC
  5
1BD
330
1F
100
AcDbEntity
  8
0
  6
Continuous
 62
     7
370
    15
100
AcDbCircle
 10
620.0343113672281
 20
-88.31161884486959
 30
0.0
 40
3.722367769955709
100
AcDbArc
 50
274.8600979854265
 51
325.1345254818769
  0
ARC
  5
1BE
330
1F
100
AcDbEntity
  8
0
  6
Continuous
 62
     7
370
    15
100
AcDbCircle
 10
617.3930819275945
 20
-89.43906059299441
 30
0.0
 40
2.221608907600884
100
AcDbArc
 50
199.3754380547727
 51
243.9040130747763
  0
ARC
  5
1BF
330
1F
100
AcDbEntity
  8
0
  6
Continuous
 62
     7
370
    15
100
AcDbCircle
 10
618.9770047912548
 20
-86.9795612556047
 30
0.0
 40
4.962886060093132
100
AcDbArc
 50
241.28572702077
 51
261.7694752558234
  0
ARC
  5
1C0
330
1F
100
AcDbEntity
  8
0
  6
Continuous
 62
     7
370
    15
100
AcDbCircle
 10
620.0693346398743
 20
-88.37228902704195
 30
0.0
 40
3.478102482109377
100
AcDbArc
 50
281.5708314523456
 51
318.4237920149601
  0
ARC
  5
1C1
330
1F
100
AcDbEntity
  8
0
  6
Continuous
 62
     7
370
    15
100
AcDbCircle
 10
617.61523240632
 20
-89.33844013244726
 30
0.0
 40
2.240664775283403
100
AcDbArc
 50
207.2912439118118
 51
242.8458976957557
  0
ARC
  5
1C2
330
1F
100
AcDbEntity
  8
0
  6
Continuous
 62
     7
370
    15
100
AcDbCircle
 10
608.2547271249496
 20
-82.50409152685955
 30
0.0
 40
3.476889894776197
100
AcDbArc
 50
213.93976141942
 51
266.0656151132815
  0
LINE
  5
1C3
330
1F
100
AcDbEntity
  8
0
  6
Continuous
 62
     7
370
    15
100
AcDbLine
 10
618.3603912092307
 20
-88.67821955665244
 30
0.0
 11
628.9669923606806
 21
-82.55515904492805
 31
0.0
  0
ARC
  5
1C4
330
1F
100
AcDbEntity
  8
0
  6
Continuous
 62
     7
370
    15
100
AcDbCircle
 10
627.7248195474469
 20
-84.49707533688322
 30
0.0
 40
2.305218467498969
100
AcDbArc
 50
2.605621761358133
 51
57.3944400033402
  0
LINE
  5
1C5
330
1F
100
AcDbEntity
  8
0
  6
Continuous
 62
     7
370
    15
100
AcDbLine
 10
630.0276546819498
 20
-84.39227778825964
 30
0.0
 11
619.4210535304997
 21
-90.51533829998403
 31
0.0
  0
ARC
  5
1C6
330
1F
100
AcDbEntity
  8
0
  6
Continuous
 62
     7
370
    15
100
AcDbCircle
 10
617.1182183959977
 20
-90.62013584860711
 30
0.0
 40
2.305218467498038
100
AcDbArc
 50
2.605621761346811
 51
57.39444000335495
  0
LINE
  5
1C7
330
1F
100
AcDbEntity
  8
0
  6
Continuous
 62
     7
370
    15
100
AcDbLine
 10
603.5111503215999
 20
-81.33074667701565
 30
0.0
 11
603.5111503215999
 21
-83.37209866110224
 31
0.0
  0
ARC
  5
1C8
330
1F
100
AcDbEntity
  8
0
  6
Continuous
 62
     7
370
    15
100
AcDbCircle
 10
604.1577615836923
 20
-81.22585531050406
 30
0.0
 40
0.6550636022812081
100
AcDbArc
 50
50.7967230160408
 51
189.21409035119
  0
LINE
  5
1C9
330
1F
100
AcDbEntity
  8
0
  6
Continuous
 62
     7
370
    15
100
AcDbLine
 10
618.3603912092307
 20
-88.67821955665244
 30
0.0
 11
604.5718100086908
 21
-80.71824106248698
 31
0.0
  0
LINE
  5
1CA
330
1F
100
AcDbEntity
  8
0
  6
Continuous
 62
     7
370
    15
100
AcDbLine
 10
619.4210535304997
 20
-92.55669028407064
 30
0.0
 11
619.4210535304997
 21
-90.51533829998403
 31
0.0
  0
LINE
  5
1CB
330
1F
100
AcDbEntity
  8
0
  6
Continuous
 62
     7
370
    15
100
AcDbLine
 10
619.4210535304997
 20
-92.55669028407064
 30
0.0
 11
603.5111503215999
 21
-83.37209866110224
 31
0.0
  0
LINE
  5
1CC
330
1F
100
AcDbEntity
  8
0
  6
Continuous
 62
     7
370
    15
100
AcDbLine
 10
630.0276546819498
 20
-92.14941525174245
 30
0.0
 11
630.0276546819498
 21
-84.39227778825964
 31
0.0
  0
LINE
  5
1CD
330
1F
100
AcDbEntity
  8
0
  6
Continuous
 62
     7
370
    15
100
AcDbLine
 10
625.431460838679
 20
-94.80274147982584
 30
0.0
 11
630.0276546819498
 21
-92.14941525174245
 31
0.0
  0
LINE
  5
1CE
330
1F
100
AcDbEntity
  8
0
  6
Continuous
 62
     7
370
    15
100
AcDbLine
 10
625.431460838679
 20
-94.80274147982584
 30
0.0
 11
625.431460838679
 21
-89.29109085663
 31
0.0
  0
ARC
  5
1CF
330
1F
100
AcDbEntity
  8
0
  6
Continuous
 62
     7
370
    15
100
AcDbCircle
 10
625.3236921828592
 20
-89.27360938477818
 30
0.0
 40
0.1091773100755385
100
AcDbArc
 50
350.7861379718261
 51
129.2034799481543
  0
LINE
  5
1D0
330
1F
100
AcDbEntity
  8
0
  6
Continuous
 62
     7
370
    15
100
AcDbLine
 10
619.4210535304997
 20
-92.55669028407064
 30
0.0
 11
625.2546837851342
 21
-89.18900722121978
 31
0.0
  0
LINE
  5
1D1
330
1F
100
AcDbEntity
  8
0
  6
Continuous
 62
     7
370
    15
100
AcDbLine
 10
615.1784111601408
 20
-74.5951805507626
 30
0.0
 11
604.5718100086908
 21
-80.71824106248698
 31
0.0
  0
LINE
  5
1D2
330
1F
100
AcDbEntity
  8
0
  6
Continuous
 62
     7
370
    15
100
AcDbLine
 10
628.9669923606806
 20
-82.55515904492805
 30
0.0
 11
615.1784111601408
 21
-74.5951805507626
 31
0.0
  0
ARC
  5
1D3
330
1F
100
AcDbEntity
  8
0
  6
Continuous
 62
     7
370
    15
100
AcDbCircle
 10
624.784847410078
 20
-94.90762945750148
 30
0.0
 40
0.6550651982117031
100
AcDbArc
 50
230.7967840885571
 51
9.213767425881016
  0
LINE
  5
1D4
330
1F
100
AcDbEntity
  8
0
  6
Continuous
 62
     7
370
    15
100
AcDbLine
 10
612.9912271277206
 20
-88.84595865149222
 30
0.0
 11
615.2442751598345
 21
-90.14661559517008
 31
0.0
  0
LINE
  5
1D5
330
1F
100
AcDbEntity
  8
0
  6
Continuous
 62
     7
370
    15
100
AcDbLine
 10
623.2442764769865
 20
-94.7649180522302
 30
0.0
 11
624.37079851741
 21
-95.41524538356016
 31
0.0
  0
ARC
  5
1D6
330
1F
100
AcDbEntity
  8
0
  6
Continuous
 62
     7
370
    15
100
AcDbCircle
 10
629.3125075008389
 20
-92.23952751098014
 30
0.0
 40
0.7208021295166516
100
AcDbArc
 50
304.1302462056154
 51
7.181716633060335
  0
ARC
  5
1D7
330
1F
100
AcDbEntity
  8
0
  6
Continuous
 62
     7
370
    15
100
AcDbCircle
 10
614.7390316635461
 20
-75.2085005896242
 30
0.0
 40
0.7544639236550684
100
AcDbArc
 50
54.38237222681032
 51
114.3071992603
  0
LINE
  5
1D8
330
1F
100
AcDbEntity
  8
0
  6
Continuous
 62
     8
370
    15
100
AcDbLine
 10
625.431460838679
 20
-89.29109085663
 30
0.0
 11
625.2546548091758
 21
-89.1890229083752
 31
0.0
  0
DIMENSION
  5
2B0
330
1F
100
AcDbEntity
  8
AM_5
100
AcDbDimension
280
     0
  2
*D25
 10
330.9512336242788
 20
154.4302959758139
 30
0.0
 11
353.4512336242789
 21
157.204295975814
 31
0.0
 70
    32
 71
     5
 42
45.00000000000016
 73
     0
 74
     0
 75
     0
  3
ISO-25
100
AcDbAlignedDimension
 13
375.951233624279
 23
162.4944403165276
 33
0.0
 14
330.9512336242788
 24
162.4944403165276
 34
0.0
 50
0.0000000000001132
100
AcDbRotatedDimension
1001
ACAD
1000
DSTYLE
1002
{
1070
    41
1040
2.0
1070
    42
1040
1.0
1070
    44
1040
1.5
1070
    73
1070
     1
1070
    74
1070
     1
1070
    78
1070
     0
1070
   143
1040
0.0393700787401575
1070
   147
1040
1.524
1070
   179
1070
     2
1070
   271
1070
     0
1070
   284
1070
     0
1002
}
  0
DIMENSION
  5
2E2
330
1F
100
AcDbEntity
  8
AM_5
100
AcDbDimension
280
     0
  2
*D26
 10
387.951233624279
 20
193.9944403165276
 30
0.0
 11
387.9512336242789
 21
178.2444403165276
 31
0.0
 70
    32
 71
     5
 42
31.50000000000003
 73
     0
 74
     0
 75
     0
  3
ISO-25
100
AcDbAlignedDimension
 13
375.951233624279
 23
162.4944403165276
 33
0.0
 14
372.9512336242787
 24
193.9944403165276
 34
0.0
 50
90.00000000000003
100
AcDbRotatedDimension
1001
ACAD
1000
DSTYLE
1002
{
1070
    41
1040
2.0
1070
    42
1040
1.0
1070
    44
1040
1.5
1070
    73
1070
     1
1070
    74
1070
     1
1070
    78
1070
     0
1070
   143
1040
0.0393700787401575
1070
   147
1040
1.524
1070
   179
1070
     2
1070
   271
1070
     0
1070
   284
1070
     0
1002
}
  0
DIMENSION
  5
30C
330
1F
100
AcDbEntity
  8
AM_5
100
AcDbDimension
280
     0
  2
*D27
 10
405.7002282006187
 20
-327.3031060204699
 30
0.0
 11
405.7002282006187
 21
-115.0531038262739
 31
0.0
 70
    32
 71
     5
 42
424.5000043883919
 73
     0
 74
     0
 75
     0
  3
ISO-25
100
AcDbAlignedDimension
 13
375.9512369287052
 23
97.19689836792205
 33
0.0
 14
370.9512342464961
 24
-327.3031060204699
 34
0.0
 50
90.00000000000003
100
AcDbRotatedDimension
1001
ACAD
1000
DSTYLE
1002
{
1070
    41
1040
2.0
1070
    42
1040
1.0
1070
    44
1040
1.5
1070
    73
1070
     1
1070
    74
1070
     1
1070
    78
1070
     0
1070
   143
1040
0.0393700787401575
1070
   147
1040
1.524
1070
   179
1070
     2
1070
   271
1070
     0
1070
   284
1070
     0
1002
}
  0
ENDSEC
  0
SECTION
  2
OBJECTS
  0
DICTIONARY
  5
C
330
0
100
AcDbDictionary
281
     1
  3
ACAD_CIP_PREVIOUS_PRODUCT_INFO
350
37E
  3
ACAD_COLOR
350
1FD
  3
ACAD_DETAILVIEWSTYLE
350
373
  3
ACAD_GROUP
350
D
  3
ACAD_LAYOUT
350
1A
  3
ACAD_MATERIAL
350
1FC
  3
ACAD_MLEADERSTYLE
350
36F
  3
ACAD_MLINESTYLE
350
17
  3
ACAD_PLOTSETTINGS
350
19
  3
ACAD_PLOTSTYLENAME
350
E
  3
ACAD_SCALELIST
350
1D9
  3
ACAD_SECTIONVIEWSTYLE
350
371
  3
ACAD_TABLESTYLE
350
36D
  3
ACAD_VISUALSTYLE
350
354
  3
AcAmCatalogState
350
25C
  3
ACDB_RECOMPOSE_DATA
350
3BE
  3
AcDbVariableDictionary
350
3AE
  3
ACDMSYSVARMGR
350
21B
  3
ACGREF_MASTER
350
213
  3
ACGREFACAD_MASTER
350
23C
  3
AcmDictionary
350
25A
  3
ACME_BOM_MANAGER_NAME
350
20D
  3
ACME_COMMAND_HISTORY
350
20A
  3
ACME_SCOPE_NAME
350
209
  3
ACMESTATEMGR
350
212
  3
AcmeSysVarManager
350
20B
  3
AcmSystemVariableManager
350
265
  3
AD_APPL
350
247
  3
ADSYSVARMGR
350
246
  3
AmdtNamedDwgMgr
350
237
  3
AMG
350
202
  3
AMGSNAPSETTINGS
350
29A
  3
AMI_MASTER
350
23F
  3
AUTOCAD_ASSEMBLIES_PROJECT
350
24F
  3
Designer_Assemblies_SysVars
350
24A
  3
GREFAM_MODULE
350
240
  0
DICTIONARY
  5
380
330
10
100
AcDbDictionary
280
     1
281
     1
  3
ADSK_XREC_LAYER_RECONCILED
360
381
  0
DICTIONARY
  5
382
330
44
100
AcDbDictionary
280
     1
281
     1
  3
ADSK_XREC_LAYER_RECONCILED
360
383
  0
DICTIONARY
  5
384
330
45
100
AcDbDictionary
280
     1
281
     1
  3
ADSK_XREC_LAYER_RECONCILED
360
385
  0
DICTIONARY
  5
386
330
46
100
AcDbDictionary
280
     1
281
     1
  3
ADSK_XREC_LAYER_RECONCILED
360
387
  0
DICTIONARY
  5
388
330
47
100
AcDbDictionary
280
     1
281
     1
  3
ADSK_XREC_LAYER_RECONCILED
360
389
  0
DICTIONARY
  5
38A
330
48
100
AcDbDictionary
280
     1
281
     1
  3
ADSK_XREC_LAYER_RECONCILED
360
38B
  0
DICTIONARY
  5
38C
330
49
100
AcDbDictionary
280
     1
281
     1
  3
ADSK_XREC_LAYER_RECONCILED
360
38D
  0
DICTIONARY
  5
38E
330
4A
100
AcDbDictionary
280
     1
281
     1
  3
ADSK_XREC_LAYER_RECONCILED
360
38F
  0
DICTIONARY
  5
390
330
4B
100
AcDbDictionary
280
     1
281
     1
  3
ADSK_XREC_LAYER_RECONCILED
360
391
  0
DICTIONARY
  5
392
330
4C
100
AcDbDictionary
280
     1
281
     1
  3
ADSK_XREC_LAYER_RECONCILED
360
393
  0
DICTIONARY
  5
394
330
4D
100
AcDbDictionary
280
     1
281
     1
  3
ADSK_XREC_LAYER_RECONCILED
360
395
  0
DICTIONARY
  5
396
330
4E
100
AcDbDictionary
280
     1
281
     1
  3
ADSK_XREC_LAYER_RECONCILED
360
397
  0
DICTIONARY
  5
398
330
4F
100
AcDbDictionary
280
     1
281
     1
  3
ADSK_XREC_LAYER_RECONCILED
360
399
  0
DICTIONARY
  5
39A
330
50
100
AcDbDictionary
280
     1
281
     1
  3
ADSK_XREC_LAYER_RECONCILED
360
39B
  0
DICTIONARY
  5
39C
330
51
100
AcDbDictionary
280
     1
281
     1
  3
ADSK_XREC_LAYER_RECONCILED
360
39D
  0
DICTIONARY
  5
327
330
1F
100
AcDbDictionary
280
     1
281
     1
  3
ACAD_INDEX
360
328
  0
XRECORD
  5
37E
102
{ACAD_REACTORS
330
C
102
}
330
C
100
AcDbXrecord
280
     1
300
ACD
300
2017
300
ACD_F_S
  0
DICTIONARY
  5
1FD
102
{ACAD_REACTORS
330
C
102
}
330
C
100
AcDbDictionary
281
     1
  0
DICTIONARY
  5
373
102
{ACAD_REACTORS
330
C
102
}
330
C
100
AcDbDictionary
281
     1
  3
Metric50
350
374
  0
DICTIONARY
  5
D
102
{ACAD_REACTORS
330
C
102
}
330
C
100
AcDbDictionary
281
     1
  0
DICTIONARY
  5
1A
102
{ACAD_REACTORS
330
C
102
}
330
C
100
AcDbDictionary
281
     1
  3
Layout1
350
1E
  3
Layout2
350
26
  3
Model
350
22
  0
DICTIONARY
  5
1FC
102
{ACAD_REACTORS
330
C
102
}
330
C
100
AcDbDictionary
281
     1
  3
ByBlock
350
344
  3
ByLayer
350
33C
  3
Global
350
34C
  0
DICTIONARY
  5
36F
102
{ACAD_REACTORS
330
C
102
}
330
C
100
AcDbDictionary
281
     1
  3
Standard
350
370
  0
DICTIONARY
  5
17
102
{ACAD_REACTORS
330
C
102
}
330
C
100
AcDbDictionary
281
     1
  3
Standard
350
18
  0
DICTIONARY
  5
19
102
{ACAD_REACTORS
330
C
102
}
330
C
100
AcDbDictionary
281
     1
  0
ACDBDICTIONARYWDFLT
  5
E
102
{ACAD_REACTORS
330
C
102
}
330
C
100
AcDbDictionary
281
     1
  3
Normal
350
F
100
AcDbDictionaryWithDefault
340
F
  0
DICTIONARY
  5
1D9
102
{ACAD_REACTORS
330
C
102
}
330
C
100
AcDbDictionary
281
     1
  3
A0
350
1DA
  3
A1
350
1DB
  3
A2
350
1DC
  3
A3
350
1DD
  3
A4
350
1DE
  3
A5
350
1DF
  3
A6
350
1E0
  3
A7
350
1E1
  3
A8
350
1E2
  3
A9
350
1E3
  3
B0
350
1E4
  3
B1
350
1E5
  3
B2
350
1E6
  3
B3
350
1E7
  3
B4
350
1E8
  3
B5
350
1E9
  3
B6
350
1EA
  3
B7
350
1EB
  3
B8
350
1EC
  3
B9
350
1ED
  3
C0
350
1EE
  3
C1
350
1EF
  3
C2
350
1F0
  3
C3
350
1F1
  3
C4
350
1F2
  3
C5
350
1F3
  3
C6
350
1F4
  3
C7
350
1F5
  3
C8
350
1F6
  3
C9
350
1F7
  3
D0
350
1F8
  3
D1
350
1F9
  3
D2
350
1FA
  0
DICTIONARY
  5
371
102
{ACAD_REACTORS
330
C
102
}
330
C
100
AcDbDictionary
281
     1
  3
Metric50
350
372
  0
DICTIONARY
  5
36D
102
{ACAD_REACTORS
330
C
102
}
330
C
100
AcDbDictionary
281
     1
  3
Standard
350
36E
  0
DICTIONARY
  5
354
102
{ACAD_REACTORS
330
C
102
}
330
C
100
AcDbDictionary
281
     1
  3
2dWireframe
350
35A
  3
Basic
350
359
  3
Brighten
350
360
  3
ColorChange
350
364
  3
Conceptual
350
35D
  3
Dim
350
35F
  3
EdgeColorOff
350
36C
  3
Facepattern
350
363
  3
Flat
350
355
  3
FlatWithEdges
350
356
  3
Gouraud
350
357
  3
GouraudWithEdges
350
358
  3
Hidden
350
35C
  3
JitterOff
350
36A
  3
Linepattern
350
362
  3
OverhangOff
350
36B
  3
Realistic
350
35E
  3
Shaded
350
369
  3
Shaded with edges
350
368
  3
Shades of Gray
350
365
  3
Sketchy
350
366
  3
Thicken
350
361
  3
Wireframe
350
35B
  3
X-Ray
350
367
  0
ACAD_PROXY_OBJECT
  5
25C
102
{ACAD_REACTORS
330
C
102
}
330
C
100
AcDbProxyObject
 90
      499
 91
      549
 95
  4980761
 70
     0
161
               384
310
3FFFFFFFE00A028440291AE2E189C9917189B1C171A17189819AE64F45E63595FAE222BA39427212614AE199918400AA00
 94
        0
  0
XRECORD
  5
3BE
102
{ACAD_REACTORS
330
C
102
}
330
C
100
AcDbXrecord
280
     1
 90
        1
330
36E
330
372
330
374
  0
DICTIONARY
  5
3AE
102
{ACAD_REACTORS
330
C
102
}
330
C
100
AcDbDictionary
281
     1
  3
CANNOSCALE
350
3B4
  3
CMLEADERSTYLE
350
3B0
  3
CTABLESTYLE
350
3AF
  3
CVIEWDETAILSTYLE
350
3B1
  3
CVIEWSECTIONSTYLE
350
3B2
  3
LAYEREVAL
350
3B6
  3
LAYERNOTIFY
350
3B7
  3
LIGHTINGUNITS
350
3B5
  3
MSLTSCALE
350
3B3
  0
ACAD_PROXY_OBJECT
  5
21B
102
{ACAD_REACTORS
330
C
102
}
330
C
100
AcDbProxyObject
 90
      499
 91
      510
 95
  4980761
 70
     0
161
               240
310
4C51A482000000000000000000000000000000000000000000000000000000
330
21C
330
21D
330
21E
330
21F
330
220
330
221
330
222
330
224
330
225
330
226
330
227
330
228
330
229
330
22A
330
22B
330
22C
330
22D
330
22E
330
22F
330
230
330
231
330
232
330
233
330
234
330
235
330
236
 94
        0
  0
ACAD_PROXY_OBJECT
  5
213
102
{ACAD_REACTORS
330
C
102
}
330
C
100
AcDbProxyObject
 90
      499
 91
      518
 95
  4980761
 70
     0
161
                34
310
040000428C
 94
        0
  0
ACAD_PROXY_OBJECT
  5
23C
102
{ACAD_REACTORS
330
C
102
}
330
C
100
AcDbProxyObject
 90
      499
 91
      527
 95
  4980761
 70
     0
161
               114
310
04000041C08000000000000000000C
 94
        0
  0
DICTIONARY
  5
25A
102
{ACAD_REACTORS
330
C
102
}
330
C
100
AcDbDictionary
281
     1
  3
AcmBOMDATA
350
25B
  3
AcmStdDictionary
350
267
  0
ACAD_PROXY_OBJECT
  5
20D
102
{ACAD_REACTORS
330
C
102
}
330
C
100
AcDbProxyObject
 90
      499
 91
      512
 95
  4980761
 70
     0
161
                50
310
0000004040000C
330
0
330
0
330
20E
 94
        0
  0
ACAD_PROXY_OBJECT
  5
20A
102
{ACAD_REACTORS
330
C
102
}
330
C
100
AcDbProxyObject
 90
      499
 91
      509
 95
  4980761
 70
     0
161
              1886
310
420050E414D4454524553455444424D4F4440805084E202D20554E444F014213880B4815539113C0504554E444F80504554E444F8050545524153458050A414D504F57455244494D40405184D5347202D20436F6D6D616E642043414E43454C4C45442E014290535413D5D15491125350101461354D1C80B4810DBDB5B585B
310
990810D05390D1531311510B8050A414D504F57455244494D40405184D5347202D20436F6D6D616E642043414E43454C4C45442E014150D313D4D1501014B9354D1C80B481414104E88080819195CDADD1BDC0B985C9E08119A5B1955995C9CDA5BDB8E880E0B8C0B8C8D0B8D8
 94
        0
  0
ACAD_PROXY_OBJECT
  5
209
102
{ACAD_REACTORS
330
C
102
}
330
C
100
AcDbProxyObject
 90
      499
 91
      508
 95
  4980761
 70
     0
161
               554
310
080000454080000000000000000013150200000000000000000000000000000000000000000000000000000000000000000000000000000000000000000000000000AAAAAA8C
360
20C
360
20E
360
214
360
215
360
216
360
217
360
218
360
219
360
21C
360
21D
360
21E
360
21F
360
220
360
221
360
222
360
224
360
225
360
226
360
227
360
228
360
229
360
22A
360
22B
360
22C
360
22D
360
22E
360
22F
360
230
360
231
360
232
360
233
360
234
360
235
360
236
360
242
360
243
360
244
360
245
360
24B
360
24C
360
24D
360
24E
360
253
360
254
360
255
360
256
360
257
360
258
360
266
 94
        0
  0
ACAD_PROXY_OBJECT
  5
212
102
{ACAD_REACTORS
330
C
102
}
330
C
100
AcDbProxyObject
 90
      499
 91
      517
 95
  4980761
 70
     0
161
                50
310
08000041E4128C
 94
        0
  0
ACAD_PROXY_OBJECT
  5
20B
102
{ACAD_REACTORS
330
C
102
}
330
C
100
AcDbProxyObject
 90
      499
 91
      510
 95
  4980761
 70
     0
161
                32
310
9014220000
330
20C
 94
        0
  0
ACAD_PROXY_OBJECT
  5
265
102
{ACAD_REACTORS
330
C
102
}
330
C
100
AcDbProxyObject
 90
      499
 91
      510
 95
  4980761
 70
     0
161
                32
310
9014220000
330
266
 94
        0
  0
ACAD_PROXY_OBJECT
  5
247
102
{ACAD_REACTORS
330
C
102
}
330
C
100
AcDbProxyObject
 90
      499
 91
      537
 95
  4980761
 70
     0
161
                34
310
000800008C
330
242
 94
        0
  0
ACAD_PROXY_OBJECT
  5
246
102
{ACAD_REACTORS
330
C
102
}
330
C
100
AcDbProxyObject
 90
      499
 91
      510
 95
  4980761
 70
     0
161
                 8
310
AA00
 94
        0
  0
ACAD_PROXY_OBJECT
  5
237
102
{ACAD_REACTORS
330
C
102
}
330
C
100
AcDbProxyObject
 90
      499
 91
      524
 95
  4980761
 70
     0
161
                42
310
000100005E8C
330
214
 94
        0
  0
DICTIONARY
  5
202
102
{ACAD_REACTORS
330
C
102
}
330
C
100
AcDbDictionary
281
     1
  3
AcMgSettings
350
203
  3
AMGLAYCFG
350
269
  0
DICTIONARY
  5
29A
102
{ACAD_REACTORS
330
C
102
}
330
C
100
AcDbDictionary
281
     1
  3
DIMENSION
350
29F
  3
FEA
350
29E
  3
HATCH (1)
350
29B
  3
HATCH (2)
350
29C
  3
SIMPLE WELD
350
2A0
  3
SYMBOLS
350
29D
  0
ACAD_PROXY_OBJECT
  5
23F
102
{ACAD_REACTORS
330
C
102
}
330
C
100
AcDbProxyObject
 90
      499
 91
      530
 95
  4980761
 70
     0
161
                34
310
050000428C
 94
        0
  0
ACAD_PROXY_OBJECT
  5
24F
102
{ACAD_REACTORS
330
C
102
}
330
C
100
AcDbProxyObject
 90
      499
 91
      541
 95
  4980761
 70
     0
161
                82
310
0800004BC000000000000C
330
256
330
0
330
257
330
0
330
0
330
0
 94
        0
  0
ACAD_PROXY_OBJECT
  5
24A
102
{ACAD_REACTORS
330
C
102
}
330
C
100
AcDbProxyObject
 90
      499
 91
      510
 95
  4980761
 70
     0
161
                56
310
9044220000000038
330
24B
330
24C
330
24D
330
24E
 94
        0
  0
ACAD_PROXY_OBJECT
  5
240
102
{ACAD_REACTORS
330
C
102
}
330
C
100
AcDbProxyObject
 90
      499
 91
      531
 95
  4980761
 70
     0
161
                 8
310
05B2
 94
        0
  0
XRECORD
  5
381
102
{ACAD_REACTORS
330
380
102
}
330
380
100
AcDbXrecord
280
     1
290
     1
  0
XRECORD
  5
383
102
{ACAD_REACTORS
330
382
102
}
330
382
100
AcDbXrecord
280
     1
290
     1
  0
XRECORD
  5
385
102
{ACAD_REACTORS
330
384
102
}
330
384
100
AcDbXrecord
280
     1
290
     1
  0
XRECORD
  5
387
102
{ACAD_REACTORS
330
386
102
}
330
386
100
AcDbXrecord
280
     1
290
     1
  0
XRECORD
  5
389
102
{ACAD_REACTORS
330
388
102
}
330
388
100
AcDbXrecord
280
     1
290
     1
  0
XRECORD
  5
38B
102
{ACAD_REACTORS
330
38A
102
}
330
38A
100
AcDbXrecord
280
     1
290
     1
  0
XRECORD
  5
38D
102
{ACAD_REACTORS
330
38C
102
}
330
38C
100
AcDbXrecord
280
     1
290
     1
  0
XRECORD
  5
38F
102
{ACAD_REACTORS
330
38E
102
}
330
38E
100
AcDbXrecord
280
     1
290
     1
  0
XRECORD
  5
391
102
{ACAD_REACTORS
330
390
102
}
330
390
100
AcDbXrecord
280
     1
290
     1
  0
XRECORD
  5
393
102
{ACAD_REACTORS
330
392
102
}
330
392
100
AcDbXrecord
280
     1
290
     1
  0
XRECORD
  5
395
102
{ACAD_REACTORS
330
394
102
}
330
394
100
AcDbXrecord
280
     1
290
     1
  0
XRECORD
  5
397
102
{ACAD_REACTORS
330
396
102
}
330
396
100
AcDbXrecord
280
     1
290
     1
  0
XRECORD
  5
399
102
{ACAD_REACTORS
330
398
102
}
330
398
100
AcDbXrecord
280
     1
290
     1
  0
XRECORD
  5
39B
102
{ACAD_REACTORS
330
39A
102
}
330
39A
100
AcDbXrecord
280
     1
290
     1
  0
XRECORD
  5
39D
102
{ACAD_REACTORS
330
39C
102
}
330
39C
100
AcDbXrecord
280
     1
290
     1
  0
DICTIONARY
  5
328
102
{ACAD_REACTORS
330
327
102
}
330
327
100
AcDbDictionary
281
     1
  3
*A1
350
329
  0
ACDBDETAILVIEWSTYLE
  5
374
102
{ACAD_XDICTIONARY
360
3BC
102
}
102
{ACAD_REACTORS
330
373
102
}
330
373
100
AcDbModelDocViewStyle
 70
     0
  3
Metric50
290
     0
100
AcDbDetailViewStyle
 70
     0
 71
     0
 90
        3
 71
     1
340
11
 62
   256
 40
5.0
340
0
 62
   256
 40
5.0
300

 40
0.0
280
     1
 71
     2
340
16
 90
       25
 62
   256
 71
     3
340
11
 62
   256
 40
5.0
 90
        0
 40
15.0
 90
        1
300
%<\AcVar ViewDetailId>% (%<\AcVar ViewScale \f "%sn">%)
 71
     4
340
16
 90
       25
 62
   256
340
16
 90
       25
 62
   256
280
     0
  0
LAYOUT
  5
1E
102
{ACAD_REACTORS
330
1A
102
}
330
1A
100
AcDbPlotSettings
  1

  2
none_device
  4

  6

 40
0.0
 41
0.0
 42
0.0
 43
0.0
 44
0.0
 45
0.0
 46
0.0
 47
0.0
 48
0.0
 49
0.0
140
0.0
141
0.0
142
1.0
143
1.0
 70
   688
 72
     0
 73
     0
 74
     5
  7

 75
    16
147
1.0
 76
     0
 77
     2
 78
   300
148
0.0
149
0.0
100
AcDbLayout
  1
Layout1
 70
     1
 71
     1
 10
0.0
 20
0.0
 11
420.0
 21
297.0
 12
0.0
 22
0.0
 32
0.0
 14
1.000000000000000E+20
 24
1.000000000000000E+20
 34
1.000000000000000E+20
 15
-1.000000000000000E+20
 25
-1.000000000000000E+20
 35
-1.000000000000000E+20
146
0.0
 13
0.0
 23
0.0
 33
0.0
 16
1.0
 26
0.0
 36
0.0
 17
0.0
 27
1.0
 37
0.0
 76
     0
330
1B
  0
LAYOUT
  5
26
102
{ACAD_REACTORS
330
1A
102
}
330
1A
100
AcDbPlotSettings
  1

  2
none_device
  4

  6

 40
0.0
 41
0.0
 42
0.0
 43
0.0
 44
0.0
 45
0.0
 46
0.0
 47
0.0
 48
0.0
 49
0.0
140
0.0
141
0.0
142
1.0
143
1.0
 70
   688
 72
     0
 73
     0
 74
     5
  7

 75
    16
147
1.0
 76
     0
 77
     2
 78
   300
148
0.0
149
0.0
100
AcDbLayout
  1
Layout2
 70
     1
 71
     2
 10
0.0
 20
0.0
 11
0.0
 21
0.0
 12
0.0
 22
0.0
 32
0.0
 14
0.0
 24
0.0
 34
0.0
 15
0.0
 25
0.0
 35
0.0
146
0.0
 13
0.0
 23
0.0
 33
0.0
 16
1.0
 26
0.0
 36
0.0
 17
0.0
 27
1.0
 37
0.0
 76
     0
330
23
  0
LAYOUT
  5
22
102
{ACAD_REACTORS
330
1A
102
}
330
1A
100
AcDbPlotSettings
  1

  2
none_device
  4

  6

 40
0.0
 41
0.0
 42
0.0
 43
0.0
 44
0.0
 45
0.0
 46
0.0
 47
0.0
 48
0.0
 49
0.0
140
0.0
141
0.0
142
1.0
143
1.0
 70
  1712
 72
     0
 73
     0
 74
     0
  7

 75
     0
147
1.0
 76
     0
 77
     2
 78
   300
148
0.0
149
0.0
100
AcDbLayout
  1
Model
 70
     1
 71
     0
 10
0.0
 20
0.0
 11
297.0
 21
210.0
 12
0.0
 22
0.0
 32
0.0
 14
0.0
 24
0.0
 34
0.0
 15
297.0
 25
210.0
 35
0.0
146
0.0
 13
0.0
 23
0.0
 33
0.0
 16
1.0
 26
0.0
 36
0.0
 17
0.0
 27
1.0
 37
0.0
 76
     0
330
1F
331
33A
  0
MATERIAL
  5
344
102
{ACAD_XDICTIONARY
360
345
102
}
102
{ACAD_REACTORS
330
1FC
102
}
330
1FC
100
AcDbMaterial
  1
ByBlock
 72
     0
 43
0.0008202099737533
 43
0.0
 43
0.0
 43
0.0
 43
0.0
 43
0.0008202099737533
 43
0.0
 43
0.0
 43
0.0
 43
0.0
 43
1.0
 43
0.0
 43
0.0
 43
0.0
 43
0.0
 43
1.0
 77
     0
 47
0.0008202099737533
 47
0.0
 47
0.0
 47
0.0
 47
0.0
 47
0.0008202099737533
 47
0.0
 47
0.0
 47
0.0
 47
0.0
 47
1.0
 47
0.0
 47
0.0
 47
0.0
 47
0.0
 47
1.0
171
     0
 49
0.0008202099737533
 49
0.0
 49
0.0
 49
0.0
 49
0.0
 49
0.0008202099737533
 49
0.0
 49
0.0
 49
0.0
 49
0.0
 49
1.0
 49
0.0
 49
0.0
 49
0.0
 49
0.0
 49
1.0
175
     0
142
0.0008202099737533
142
0.0
142
0.0
142
0.0
142
0.0
142
0.0008202099737533
142
0.0
142
0.0
142
0.0
142
0.0
142
1.0
142
0.0
142
0.0
142
0.0
142
0.0
142
1.0
179
     0
144
0.0008202099737533
144
0.0
144
0.0
144
0.0
144
0.0
144
0.0008202099737533
144
0.0
144
0.0
144
0.0
144
0.0
144
1.0
144
0.0
144
0.0
144
0.0
144
0.0
144
1.0
147
0.0008202099737533
147
0.0
147
0.0
147
0.0
147
0.0
147
0.0008202099737533
147
0.0
147
0.0
147
0.0
147
0.0
147
1.0
147
0.0
147
0.0
147
0.0
147
0.0
147
1.0
  0
MATERIAL
  5
33C
102
{ACAD_XDICTIONARY
360
33D
102
}
102
{ACAD_REACTORS
330
1FC
102
}
330
1FC
100
AcDbMaterial
  1
ByLayer
 72
     0
 43
0.0008202099737533
 43
0.0
 43
0.0
 43
0.0
 43
0.0
 43
0.0008202099737533
 43
0.0
 43
0.0
 43
0.0
 43
0.0
 43
1.0
 43
0.0
 43
0.0
 43
0.0
 43
0.0
 43
1.0
 77
     0
 47
0.0008202099737533
 47
0.0
 47
0.0
 47
0.0
 47
0.0
 47
0.0008202099737533
 47
0.0
 47
0.0
 47
0.0
 47
0.0
 47
1.0
 47
0.0
 47
0.0
 47
0.0
 47
0.0
 47
1.0
171
     0
 49
0.0008202099737533
 49
0.0
 49
0.0
 49
0.0
 49
0.0
 49
0.0008202099737533
 49
0.0
 49
0.0
 49
0.0
 49
0.0
 49
1.0
 49
0.0
 49
0.0
 49
0.0
 49
0.0
 49
1.0
175
     0
142
0.0008202099737533
142
0.0
142
0.0
142
0.0
142
0.0
142
0.0008202099737533
142
0.0
142
0.0
142
0.0
142
0.0
142
1.0
142
0.0
142
0.0
142
0.0
142
0.0
142
1.0
179
     0
144
0.0008202099737533
144
0.0
144
0.0
144
0.0
144
0.0
144
0.0008202099737533
144
0.0
144
0.0
144
0.0
144
0.0
144
1.0
144
0.0
144
0.0
144
0.0
144
0.0
144
1.0
147
0.0008202099737533
147
0.0
147
0.0
147
0.0
147
0.0
147
0.0008202099737533
147
0.0
147
0.0
147
0.0
147
0.0
147
1.0
147
0.0
147
0.0
147
0.0
147
0.0
147
1.0
  0
MATERIAL
  5
34C
102
{ACAD_XDICTIONARY
360
34D
102
}
102
{ACAD_REACTORS
330
1FC
102
}
330
1FC
100
AcDbMaterial
  1
Global
 72
     0
 43
0.0008202099737533
 43
0.0
 43
0.0
 43
0.0
 43
0.0
 43
0.0008202099737533
 43
0.0
 43
0.0
 43
0.0
 43
0.0
 43
1.0
 43
0.0
 43
0.0
 43
0.0
 43
0.0
 43
1.0
 77
     0
 47
0.0008202099737533
 47
0.0
 47
0.0
 47
0.0
 47
0.0
 47
0.0008202099737533
 47
0.0
 47
0.0
 47
0.0
 47
0.0
 47
1.0
 47
0.0
 47
0.0
 47
0.0
 47
0.0
 47
1.0
171
     0
 49
0.0008202099737533
 49
0.0
 49
0.0
 49
0.0
 49
0.0
 49
0.0008202099737533
 49
0.0
 49
0.0
 49
0.0
 49
0.0
 49
1.0
 49
0.0
 49
0.0
 49
0.0
 49
0.0
 49
1.0
175
     0
142
0.0008202099737533
142
0.0
142
0.0
142
0.0
142
0.0
142
0.0008202099737533
142
0.0
142
0.0
142
0.0
142
0.0
142
1.0
142
0.0
142
0.0
142
0.0
142
0.0
142
1.0
179
     0
144
0.0008202099737533
144
0.0
144
0.0
144
0.0
144
0.0
144
0.0008202099737533
144
0.0
144
0.0
144
0.0
144
0.0
144
1.0
144
0.0
144
0.0
144
0.0
144
0.0
144
1.0
147
0.0008202099737533
147
0.0
147
0.0
147
0.0
147
0.0
147
0.0008202099737533
147
0.0
147
0.0
147
0.0
147
0.0
147
1.0
147
0.0
147
0.0
147
0.0
147
0.0
147
1.0
  0
MLEADERSTYLE
  5
370
102
{ACAD_REACTORS
330
36F
102
}
330
36F
100
AcDbMLeaderStyle
179
     2
170
     2
171
     1
172
     0
 90
        2
 40
0.0
 41
0.0
173
     1
 91
-1056964608
340
14
 92
       -2
290
     1
 42
2.0
291
     1
 43
0.36
  3
Standard
 44
4.0
300

342
11
174
     1
178
     6
175
     1
176
     0
 93
-1056964608
 45
4.0
292
     0
297
     0
 46
4.0
 94
-1056964608
 47
1.0
 49
1.0
140
1.0
293
     1
141
0.0
294
     1
177
     0
142
1.0
295
     1
296
     0
143
0.125
271
     0
272
     9
273
     9
298
     1
  0
MLINESTYLE
  5
18
102
{ACAD_REACTORS
330
17
102
}
330
17
100
AcDbMlineStyle
  2
STANDARD
 70
     0
  3

 62
   256
 51
90.0
 52
90.0
 71
     2
 49
0.5
 62
   256
  6
BYLAYER
 49
-0.5
 62
   256
  6
BYLAYER
  0
ACDBPLACEHOLDER
  5
F
102
{ACAD_REACTORS
330
E
102
}
330
E
  0
SCALE
  5
1DA
102
{ACAD_REACTORS
330
1D9
102
}
330
1D9
100
AcDbScale
 70
     0
300
1:1
140
1.0
141
1.0
290
     1
  0
SCALE
  5
1DB
102
{ACAD_REACTORS
330
1D9
102
}
330
1D9
100
AcDbScale
 70
     0
300
1:2
140
1.0
141
2.0
290
     0
  0
SCALE
  5
1DC
102
{ACAD_REACTORS
330
1D9
102
}
330
1D9
100
AcDbScale
 70
     0
300
1:4
140
1.0
141
4.0
290
     0
  0
SCALE
  5
1DD
102
{ACAD_REACTORS
330
1D9
102
}
330
1D9
100
AcDbScale
 70
     0
300
1:5
140
1.0
141
5.0
290
     0
  0
SCALE
  5
1DE
102
{ACAD_REACTORS
330
1D9
102
}
330
1D9
100
AcDbScale
 70
     0
300
1:8
140
1.0
141
8.0
290
     0
  0
SCALE
  5
1DF
102
{ACAD_REACTORS
330
1D9
102
}
330
1D9
100
AcDbScale
 70
     0
300
1:10
140
1.0
141
10.0
290
     0
  0
SCALE
  5
1E0
102
{ACAD_REACTORS
330
1D9
102
}
330
1D9
100
AcDbScale
 70
     0
300
1:16
140
1.0
141
16.0
290
     0
  0
SCALE
  5
1E1
102
{ACAD_REACTORS
330
1D9
102
}
330
1D9
100
AcDbScale
 70
     0
300
1:20
140
1.0
141
20.0
290
     0
  0
SCALE
  5
1E2
102
{ACAD_REACTORS
330
1D9
102
}
330
1D9
100
AcDbScale
 70
     0
300
1:30
140
1.0
141
30.0
290
     0
  0
SCALE
  5
1E3
102
{ACAD_REACTORS
330
1D9
102
}
330
1D9
100
AcDbScale
 70
     0
300
1:40
140
1.0
141
40.0
290
     0
  0
SCALE
  5
1E4
102
{ACAD_REACTORS
330
1D9
102
}
330
1D9
100
AcDbScale
 70
     0
300
1:50
140
1.0
141
50.0
290
     0
  0
SCALE
  5
1E5
102
{ACAD_REACTORS
330
1D9
102
}
330
1D9
100
AcDbScale
 70
     0
300
1:100
140
1.0
141
100.0
290
     0
  0
SCALE
  5
1E6
102
{ACAD_REACTORS
330
1D9
102
}
330
1D9
100
AcDbScale
 70
     0
300
2:1
140
2.0
141
1.0
290
     0
  0
SCALE
  5
1E7
102
{ACAD_REACTORS
330
1D9
102
}
330
1D9
100
AcDbScale
 70
     0
300
4:1
140
4.0
141
1.0
290
     0
  0
SCALE
  5
1E8
102
{ACAD_REACTORS
330
1D9
102
}
330
1D9
100
AcDbScale
 70
     0
300
8:1
140
8.0
141
1.0
290
     0
  0
SCALE
  5
1E9
102
{ACAD_REACTORS
330
1D9
102
}
330
1D9
100
AcDbScale
 70
     0
300
10:1
140
10.0
141
1.0
290
     0
  0
SCALE
  5
1EA
102
{ACAD_REACTORS
330
1D9
102
}
330
1D9
100
AcDbScale
 70
     0
300
100:1
140
100.0
141
1.0
290
     0
  0
SCALE
  5
1EB
102
{ACAD_REACTORS
330
1D9
102
}
330
1D9
100
AcDbScale
 70
     0
300
1/128" = 1'-0"
140
0.0078125
141
12.0
290
     0
  0
SCALE
  5
1EC
102
{ACAD_REACTORS
330
1D9
102
}
330
1D9
100
AcDbScale
 70
     0
300
1/64" = 1'-0"
140
0.015625
141
12.0
290
     0
  0
SCALE
  5
1ED
102
{ACAD_REACTORS
330
1D9
102
}
330
1D9
100
AcDbScale
 70
     0
300
1/32" = 1'-0"
140
0.03125
141
12.0
290
     0
  0
SCALE
  5
1EE
102
{ACAD_REACTORS
330
1D9
102
}
330
1D9
100
AcDbScale
 70
     0
300
1/16" = 1'-0"
140
0.0625
141
12.0
290
     0
  0
SCALE
  5
1EF
102
{ACAD_REACTORS
330
1D9
102
}
330
1D9
100
AcDbScale
 70
     0
300
3/32" = 1'-0"
140
0.09375
141
12.0
290
     0
  0
SCALE
  5
1F0
102
{ACAD_REACTORS
330
1D9
102
}
330
1D9
100
AcDbScale
 70
     0
300
1/8" = 1'-0"
140
0.125
141
12.0
290
     0
  0
SCALE
  5
1F1
102
{ACAD_REACTORS
330
1D9
102
}
330
1D9
100
AcDbScale
 70
     0
300
3/16" = 1'-0"
140
0.1875
141
12.0
290
     0
  0
SCALE
  5
1F2
102
{ACAD_REACTORS
330
1D9
102
}
330
1D9
100
AcDbScale
 70
     0
300
1/4" = 1'-0"
140
0.25
141
12.0
290
     0
  0
SCALE
  5
1F3
102
{ACAD_REACTORS
330
1D9
102
}
330
1D9
100
AcDbScale
 70
     0
300
3/8" = 1'-0"
140
0.375
141
12.0
290
     0
  0
SCALE
  5
1F4
102
{ACAD_REACTORS
330
1D9
102
}
330
1D9
100
AcDbScale
 70
     0
300
1/2" = 1'-0"
140
0.5
141
12.0
290
     0
  0
SCALE
  5
1F5
102
{ACAD_REACTORS
330
1D9
102
}
330
1D9
100
AcDbScale
 70
     0
300
3/4" = 1'-0"
140
0.75
141
12.0
290
     0
  0
SCALE
  5
1F6
102
{ACAD_REACTORS
330
1D9
102
}
330
1D9
100
AcDbScale
 70
     0
300
1" = 1'-0"
140
1.0
141
12.0
290
     0
  0
SCALE
  5
1F7
102
{ACAD_REACTORS
330
1D9
102
}
330
1D9
100
AcDbScale
 70
     0
300
1-1/2" = 1'-0"
140
1.5
141
12.0
290
     0
  0
SCALE
  5
1F8
102
{ACAD_REACTORS
330
1D9
102
}
330
1D9
100
AcDbScale
 70
     0
300
3" = 1'-0"
140
3.0
141
12.0
290
     0
  0
SCALE
  5
1F9
102
{ACAD_REACTORS
330
1D9
102
}
330
1D9
100
AcDbScale
 70
     0
300
6" = 1'-0"
140
6.0
141
12.0
290
     0
  0
SCALE
  5
1FA
102
{ACAD_REACTORS
330
1D9
102
}
330
1D9
100
AcDbScale
 70
     0
300
1'-0" = 1'-0"
140
12.0
141
12.0
290
     0
  0
ACDBSECTIONVIEWSTYLE
  5
372
102
{ACAD_XDICTIONARY
360
3BA
102
}
102
{ACAD_REACTORS
330
371
102
}
330
371
100
AcDbModelDocViewStyle
 70
     0
  3
Metric50
290
     0
100
AcDbSectionViewStyle
 70
     0
 71
     0
 90
      102
 71
     1
340
11
 62
   256
 40
5.0
340
0
340
0
 62
   256
 40
5.0
300
I, O, Q, S, X, Z
 40
10.0
 90
        0
 40
2.5
 90
        0
 71
     2
340
16
 90
       25
 62
   256
340
16
 90
       50
 62
   256
 40
5.0
 40
2.5
 40
5.0
 71
     3
340
11
 62
   256
 40
5.0
 90
        0
 40
15.0
 90
        1
300
%<\AcVar ViewSectionStartId>%-%<\AcVar ViewSectionEndId>% (%<\AcVar ViewScale \f "%sn">%)
 71
     4
 62
   256
 62
   257
300
ANSI31
 40
1.0
 90
        0
290
     0
290
     0
 90
        6
 40
0.0
 40
1.570796326794896
 40
0.2617993877991494
 40
1.308996938995747
 40
-0.2617993877991494
 40
1.832595714594046
  0
TABLESTYLE
  5
36E
102
{ACAD_XDICTIONARY
360
3B8
102
}
102
{ACAD_REACTORS
330
36D
102
}
330
36D
100
AcDbTableStyle
280
     0
  3
Standard
 70
     0
 71
     0
 40
1.5
 41
1.5
280
     0
281
     0
  7
Standard
140
4.5
170
     2
 62
     0
 63
     7
283
     0
 90
      512
 91
        0
  1

274
    -2
284
     1
 64
     0
275
    -2
285
     1
 65
     0
276
    -2
286
     1
 66
     0
277
    -2
287
     1
 67
     0
278
    -2
288
     1
 68
     0
279
    -2
289
     1
 69
     0
  7
Standard
140
6.0
170
     5
 62
     0
 63
     7
283
     0
 90
      512
 91
        0
  1

274
    -2
284
     1
 64
     0
275
    -2
285
     1
 65
     0
276
    -2
286
     1
 66
     0
277
    -2
287
     1
 67
     0
278
    -2
288
     1
 68
     0
279
    -2
289
     1
 69
     0
  7
Standard
140
4.5
170
     5
 62
     0
 63
     7
283
     0
 90
      512
 91
        0
  1

274
    -2
284
     1
 64
     0
275
    -2
285
     1
 65
     0
276
    -2
286
     1
 66
     0
277
    -2
287
     1
 67
     0
278
    -2
288
     1
 68
     0
279
    -2
289
     1
 69
     0
  0
VISUALSTYLE
  5
35A
102
{ACAD_REACTORS
330
354
102
}
330
354
100
AcDbVisualStyle
  2
2dWireframe
 70
     4
177
     3
291
     0
 70
    58
 90
        0
176
     1
 90
        2
176
     1
 90
        0
176
     1
 90
        0
176
     1
 40
0.6
176
     1
 40
30.0
176
     1
 62
     7
420
 16777215
176
     1
 90
        1
176
     1
 90
        4
176
     1
 62
     7
176
     1
 62
   257
176
     1
 90
        1
176
     1
 90
        1
176
     1
 40
1.0
176
     1
 90
        0
176
     1
 62
   257
176
     1
 40
1.0
176
     1
 90
        1
176
     1
 90
        6
176
     1
 90
        2
176
     1
 62
     7
176
     1
 90
        5
176
     1
 90
        0
176
     1
 90
        0
176
     1
290
     0
176
     1
 90
        1
176
     1
 40
0.0
176
     1
 90
        0
176
     1
290
     1
176
     1
290
     1
176
     1
290
     0
176
     1
290
     0
176
     1
290
     0
176
     1
290
     0
176
     1
290
     0
176
     1
290
     0
176
     1
290
     0
176
     1
 90
       50
176
     1
 40
0.0
176
     1
 40
1.0
176
     1
 90
        0
176
     1
 62
    18
420
        0
176
     1
 90
       50
176
     1
 90
        3
176
     1
 62
     5
420
      255
176
     1
290
     0
176
     1
 90
       50
176
     1
 90
       50
176
     1
 90
       50
176
     1
290
     0
176
     1
 90
       50
176
     1
 62
   256
176
     0
 40
1.0
176
     0
 90
        2
176
     1
  1
strokes_ogs.tif
176
     1
290
     0
176
     1
 40
1.0
176
     1
 40
1.0
176
     1
  0
VISUALSTYLE
  5
359
102
{ACAD_REACTORS
330
354
102
}
330
354
100
AcDbVisualStyle
  2
Basic
 70
     7
177
     3
291
     1
 70
    58
 90
        1
176
     1
 90
        0
176
     1
 90
        1
176
     1
 90
        0
176
     1
 40
0.6
176
     1
 40
30.0
176
     1
 62
     7
420
 16777215
176
     1
 90
        0
176
     1
 90
        4
176
     1
 62
     7
176
     1
 62
   257
176
     1
 90
        1
176
     1
 90
        1
176
     1
 40
1.0
176
     1
 90
        8
176
     1
 62
     7
176
     1
 40
1.0
176
     1
 90
        1
176
     1
 90
        6
176
     1
 90
        2
176
     1
 62
     7
176
     1
 90
        5
176
     1
 90
        0
176
     1
 90
        0
176
     1
290
     0
176
     1
 90
        1
176
     1
 40
0.0
176
     1
 90
        0
176
     1
290
     0
176
     1
290
     1
176
     1
290
     1
176
     1
290
     0
176
     1
290
     0
176
     1
290
     0
176
     1
290
     0
176
     1
290
     0
176
     1
290
     0
176
     1
 90
       50
176
     1
 40
0.0
176
     1
 40
1.0
176
     1
 90
        0
176
     1
 62
    18
420
        0
176
     1
 90
       50
176
     1
 90
        3
176
     1
 62
     5
420
      255
176
     1
290
     0
176
     1
 90
       50
176
     1
 90
       50
176
     1
 90
       50
176
     1
290
     0
176
     1
 90
       50
176
     1
 62
   256
176
     0
 40
1.0
176
     0
 90
        2
176
     1
  1
strokes_ogs.tif
176
     1
290
     0
176
     1
 40
1.0
176
     1
 40
1.0
176
     1
  0
VISUALSTYLE
  5
360
102
{ACAD_REACTORS
330
354
102
}
330
354
100
AcDbVisualStyle
  2
Brighten
 70
    12
177
     3
291
     1
 70
    58
 90
        2
176
     1
 90
        2
176
     1
 90
        0
176
     1
 90
        0
176
     1
 40
0.6
176
     1
 40
30.0
176
     1
 62
     7
420
 16777215
176
     1
 90
        1
176
     1
 90
        4
176
     1
 62
     7
176
     1
 62
   257
176
     1
 90
        1
176
     1
 90
        1
176
     1
 40
1.0
176
     1
 90
        8
176
     1
 62
     7
176
     1
 40
1.0
176
     1
 90
        1
176
     1
 90
        6
176
     1
 90
        2
176
     1
 62
     7
176
     1
 90
        5
176
     1
 90
        0
176
     1
 90
        0
176
     1
290
     0
176
     1
 90
        1
176
     1
 40
50.0
176
     1
 90
        0
176
     1
290
     0
176
     1
290
     1
176
     1
290
     1
176
     1
290
     0
176
     1
290
     0
176
     1
290
     0
176
     1
290
     0
176
     1
290
     0
176
     1
290
     0
176
     1
 90
       50
176
     1
 40
0.0
176
     1
 40
1.0
176
     1
 90
        0
176
     1
 62
    18
420
        0
176
     1
 90
       50
176
     1
 90
        3
176
     1
 62
     5
420
      255
176
     1
290
     0
176
     1
 90
       50
176
     1
 90
       50
176
     1
 90
       50
176
     1
290
     0
176
     1
 90
       50
176
     1
 62
   256
176
     0
 40
1.0
176
     0
 90
        2
176
     1
  1
strokes_ogs.tif
176
     1
290
     0
176
     1
 40
1.0
176
     1
 40
1.0
176
     1
  0
VISUALSTYLE
  5
364
102
{ACAD_REACTORS
330
354
102
}
330
354
100
AcDbVisualStyle
  2
ColorChange
 70
    16
177
     3
291
     1
 70
    58
 90
        2
176
     1
 90
        2
176
     1
 90
        3
176
     1
 90
        0
176
     1
 40
0.6
176
     1
 40
30.0
176
     1
 62
     8
420
  8421504
176
     1
 90
        1
176
     1
 90
        4
176
     1
 62
     7
176
     1
 62
   257
176
     1
 90
        1
176
     1
 90
        1
176
     1
 40
1.0
176
     1
 90
        8
176
     1
 62
     8
420
  8421504
176
     1
 40
1.0
176
     1
 90
        1
176
     1
 90
        6
176
     1
 90
        2
176
     1
 62
     7
176
     1
 90
        5
176
     1
 90
        0
176
     1
 90
        0
176
     1
290
     0
176
     1
 90
        1
176
     1
 40
0.0
176
     1
 90
        0
176
     1
290
     0
176
     1
290
     1
176
     1
290
     1
176
     1
290
     0
176
     1
290
     0
176
     1
290
     0
176
     1
290
     0
176
     1
290
     0
176
     1
290
     0
176
     1
 90
       50
176
     1
 40
0.0
176
     1
 40
1.0
176
     1
 90
        0
176
     1
 62
    18
420
        0
176
     1
 90
       50
176
     1
 90
        3
176
     1
 62
     5
420
      255
176
     1
290
     0
176
     1
 90
       50
176
     1
 90
       50
176
     1
 90
       50
176
     1
290
     0
176
     1
 90
       50
176
     1
 62
   256
176
     0
 40
1.0
176
     0
 90
        2
176
     1
  1
strokes_ogs.tif
176
     1
290
     0
176
     1
 40
1.0
176
     1
 40
1.0
176
     1
  0
VISUALSTYLE
  5
35D
102
{ACAD_REACTORS
330
354
102
}
330
354
100
AcDbVisualStyle
  2
Conceptual
 70
     9
177
     3
291
     0
 70
    58
 90
        3
176
     1
 90
        2
176
     1
 90
        0
176
     1
 90
        0
176
     1
 40
0.6
176
     1
 40
30.0
176
     1
 62
     7
420
 16777215
176
     1
 90
        2
176
     1
 90
        2
176
     1
 62
     7
176
     1
 62
   257
176
     1
 90
        1
176
     1
 90
        1
176
     1
 40
179.0
176
     1
 90
        8
176
     1
 62
     7
176
     1
 40
1.0
176
     1
 90
        1
176
     1
 90
        6
176
     1
 90
        2
176
     1
 62
     7
176
     1
 90
        3
176
     1
 90
        0
176
     1
 90
        0
176
     1
290
     0
176
     1
 90
        1
176
     1
 40
0.0
176
     1
 90
        0
176
     1
290
     0
176
     1
290
     1
176
     1
290
     1
176
     1
290
     0
176
     1
290
     0
176
     1
290
     0
176
     1
290
     0
176
     1
290
     0
176
     1
290
     0
176
     1
 90
       50
176
     1
 40
0.0
176
     1
 40
1.0
176
     1
 90
        0
176
     1
 62
    18
420
        0
176
     1
 90
       50
176
     1
 90
        3
176
     1
 62
     5
420
      255
176
     1
290
     0
176
     1
 90
       50
176
     1
 90
       50
176
     1
 90
       50
176
     1
290
     0
176
     1
 90
       50
176
     1
 62
   256
176
     0
 40
1.0
176
     0
 90
        2
176
     1
  1
strokes_ogs.tif
176
     1
290
     0
176
     1
 40
1.0
176
     1
 40
1.0
176
     1
  0
VISUALSTYLE
  5
35F
102
{ACAD_REACTORS
330
354
102
}
330
354
100
AcDbVisualStyle
  2
Dim
 70
    11
177
     3
291
     1
 70
    58
 90
        2
176
     1
 90
        2
176
     1
 90
        0
176
     1
 90
        0
176
     1
 40
0.6
176
     1
 40
30.0
176
     1
 62
     7
420
 16777215
176
     1
 90
        1
176
     1
 90
        4
176
     1
 62
     7
176
     1
 62
   257
176
     1
 90
        1
176
     1
 90
        1
176
     1
 40
1.0
176
     1
 90
        8
176
     1
 62
     7
176
     1
 40
1.0
176
     1
 90
        1
176
     1
 90
        6
176
     1
 90
        2
176
     1
 62
     7
176
     1
 90
        5
176
     1
 90
        0
176
     1
 90
        0
176
     1
290
     0
176
     1
 90
        1
176
     1
 40
-50.0
176
     1
 90
        0
176
     1
290
     0
176
     1
290
     1
176
     1
290
     1
176
     1
290
     0
176
     1
290
     0
176
     1
290
     0
176
     1
290
     0
176
     1
290
     0
176
     1
290
     0
176
     1
 90
       50
176
     1
 40
0.0
176
     1
 40
1.0
176
     1
 90
        0
176
     1
 62
    18
420
        0
176
     1
 90
       50
176
     1
 90
        3
176
     1
 62
     5
420
      255
176
     1
290
     0
176
     1
 90
       50
176
     1
 90
       50
176
     1
 90
       50
176
     1
290
     0
176
     1
 90
       50
176
     1
 62
   256
176
     0
 40
1.0
176
     0
 90
        2
176
     1
  1
strokes_ogs.tif
176
     1
290
     0
176
     1
 40
1.0
176
     1
 40
1.0
176
     1
  0
VISUALSTYLE
  5
36C
102
{ACAD_REACTORS
330
354
102
}
330
354
100
AcDbVisualStyle
  2
EdgeColorOff
 70
    22
177
     3
291
     1
 70
    58
 90
        2
176
     0
 90
        2
176
     0
 90
        0
176
     0
 90
        0
176
     0
 40
0.6
176
     0
 40
30.0
176
     0
 62
     7
420
 16777215
176
     0
 90
        1
176
     0
 90
        4
176
     0
 62
     7
176
     0
 62
   257
176
     0
 90
        1
176
     0
 90
        1
176
     0
 40
1.0
176
     0
 90
        8
176
     2
 62
     7
176
     0
 40
1.0
176
     0
 90
        1
176
     0
 90
        6
176
     0
 90
        2
176
     0
 62
     7
176
     0
 90
        5
176
     0
 90
        0
176
     0
 90
        0
176
     0
290
     0
176
     0
 90
        1
176
     0
 40
0.0
176
     0
 90
        0
176
     0
290
     0
176
     0
290
     1
176
     0
290
     1
176
     0
290
     0
176
     0
290
     0
176
     0
290
     0
176
     0
290
     0
176
     0
290
     0
176
     0
290
     0
176
     0
 90
       50
176
     0
 40
0.0
176
     0
 40
1.0
176
     0
 90
        0
176
     0
 62
    18
420
        0
176
     0
 90
       50
176
     0
 90
        3
176
     0
 62
     5
420
      255
176
     0
290
     0
176
     0
 90
       50
176
     0
 90
       50
176
     0
 90
       50
176
     0
290
     0
176
     0
 90
       50
176
     0
 62
   256
176
     0
 40
1.0
176
     0
 90
        2
176
     0
  1
strokes_ogs.tif
176
     0
290
     0
176
     0
 40
1.0
176
     0
 40
1.0
176
     0
  0
VISUALSTYLE
  5
363
102
{ACAD_REACTORS
330
354
102
}
330
354
100
AcDbVisualStyle
  2
Facepattern
 70
    15
177
     3
291
     1
 70
    58
 90
        2
176
     1
 90
        2
176
     1
 90
        0
176
     1
 90
        0
176
     1
 40
0.6
176
     1
 40
30.0
176
     1
 62
     7
420
 16777215
176
     1
 90
        1
176
     1
 90
        4
176
     1
 62
     7
176
     1
 62
   257
176
     1
 90
        1
176
     1
 90
        1
176
     1
 40
1.0
176
     1
 90
        8
176
     1
 62
     7
176
     1
 40
1.0
176
     1
 90
        1
176
     1
 90
        6
176
     1
 90
        2
176
     1
 62
     7
176
     1
 90
        5
176
     1
 90
        0
176
     1
 90
        0
176
     1
290
     0
176
     1
 90
        1
176
     1
 40
0.0
176
     1
 90
        0
176
     1
290
     0
176
     1
290
     1
176
     1
290
     1
176
     1
290
     0
176
     1
290
     0
176
     1
290
     0
176
     1
290
     0
176
     1
290
     0
176
     1
290
     0
176
     1
 90
       50
176
     1
 40
0.0
176
     1
 40
1.0
176
     1
 90
        0
176
     1
 62
    18
420
        0
176
     1
 90
       50
176
     1
 90
        3
176
     1
 62
     5
420
      255
176
     1
290
     0
176
     1
 90
       50
176
     1
 90
       50
176
     1
 90
       50
176
     1
290
     0
176
     1
 90
       50
176
     1
 62
   256
176
     0
 40
1.0
176
     0
 90
        2
176
     1
  1
strokes_ogs.tif
176
     1
290
     0
176
     1
 40
1.0
176
     1
 40
1.0
176
     1
  0
VISUALSTYLE
  5
355
102
{ACAD_REACTORS
330
354
102
}
330
354
100
AcDbVisualStyle
  2
Flat
 70
     0
177
     3
291
     1
 70
    58
 90
        2
176
     1
 90
        1
176
     1
 90
        1
176
     1
 90
        2
176
     1
 40
0.6
176
     1
 40
30.0
176
     1
 62
     7
420
 16777215
176
     1
 90
        0
176
     1
 90
        0
176
     1
 62
     7
176
     1
 62
   257
176
     1
 90
        1
176
     1
 90
        1
176
     1
 40
1.0
176
     1
 90
        8
176
     1
 62
     7
176
     1
 40
1.0
176
     1
 90
        1
176
     1
 90
        6
176
     1
 90
        2
176
     1
 62
     7
176
     1
 90
        5
176
     1
 90
        0
176
     1
 90
        0
176
     1
290
     0
176
     1
 90
       13
176
     1
 40
0.0
176
     1
 90
        0
176
     1
290
     0
176
     1
290
     1
176
     1
290
     1
176
     1
290
     0
176
     1
290
     0
176
     1
290
     0
176
     1
290
     0
176
     1
290
     0
176
     1
290
     0
176
     1
 90
       50
176
     1
 40
0.0
176
     1
 40
1.0
176
     1
 90
        0
176
     1
 62
    18
420
        0
176
     1
 90
       50
176
     1
 90
        3
176
     1
 62
     5
420
      255
176
     1
290
     0
176
     1
 90
       50
176
     1
 90
       50
176
     1
 90
       50
176
     1
290
     0
176
     1
 90
       50
176
     1
 62
   256
176
     0
 40
1.0
176
     0
 90
        2
176
     1
  1
strokes_ogs.tif
176
     1
290
     0
176
     1
 40
1.0
176
     1
 40
1.0
176
     1
  0
VISUALSTYLE
  5
356
102
{ACAD_REACTORS
330
354
102
}
330
354
100
AcDbVisualStyle
  2
FlatWithEdges
 70
     1
177
     3
291
     1
 70
    58
 90
        2
176
     1
 90
        1
176
     1
 90
        1
176
     1
 90
        2
176
     1
 40
0.6
176
     1
 40
30.0
176
     1
 62
     7
420
 16777215
176
     1
 90
        1
176
     1
 90
        0
176
     1
 62
     7
176
     1
 62
   257
176
     1
 90
        1
176
     1
 90
        1
176
     1
 40
1.0
176
     1
 90
        0
176
     1
 62
   257
176
     1
 40
1.0
176
     1
 90
        1
176
     1
 90
        6
176
     1
 90
        2
176
     1
 62
     7
176
     1
 90
        5
176
     1
 90
        0
176
     1
 90
        0
176
     1
290
     0
176
     1
 90
       13
176
     1
 40
0.0
176
     1
 90
        0
176
     1
290
     0
176
     1
290
     1
176
     1
290
     1
176
     1
290
     0
176
     1
290
     0
176
     1
290
     0
176
     1
290
     0
176
     1
290
     0
176
     1
290
     0
176
     1
 90
       50
176
     1
 40
0.0
176
     1
 40
1.0
176
     1
 90
        0
176
     1
 62
    18
420
        0
176
     1
 90
       50
176
     1
 90
        3
176
     1
 62
     5
420
      255
176
     1
290
     0
176
     1
 90
       50
176
     1
 90
       50
176
     1
 90
       50
176
     1
290
     0
176
     1
 90
       50
176
     1
 62
   256
176
     0
 40
1.0
176
     0
 90
        2
176
     1
  1
strokes_ogs.tif
176
     1
290
     0
176
     1
 40
1.0
176
     1
 40
1.0
176
     1
  0
VISUALSTYLE
  5
357
102
{ACAD_REACTORS
330
354
102
}
330
354
100
AcDbVisualStyle
  2
Gouraud
 70
     2
177
     3
291
     1
 70
    58
 90
        2
176
     1
 90
        2
176
     1
 90
        1
176
     1
 90
        2
176
     1
 40
0.6
176
     1
 40
30.0
176
     1
 62
     7
420
 16777215
176
     1
 90
        0
176
     1
 90
        0
176
     1
 62
     7
176
     1
 62
   257
176
     1
 90
        1
176
     1
 90
        1
176
     1
 40
1.0
176
     1
 90
        0
176
     1
 62
     7
176
     1
 40
1.0
176
     1
 90
        1
176
     1
 90
        6
176
     1
 90
        2
176
     1
 62
     7
176
     1
 90
        5
176
     1
 90
        0
176
     1
 90
        0
176
     1
290
     0
176
     1
 90
       13
176
     1
 40
0.0
176
     1
 90
        0
176
     1
290
     0
176
     1
290
     1
176
     1
290
     1
176
     1
290
     0
176
     1
290
     0
176
     1
290
     0
176
     1
290
     0
176
     1
290
     0
176
     1
290
     0
176
     1
 90
       50
176
     1
 40
0.0
176
     1
 40
1.0
176
     1
 90
        0
176
     1
 62
    18
420
        0
176
     1
 90
       50
176
     1
 90
        3
176
     1
 62
     5
420
      255
176
     1
290
     0
176
     1
 90
       50
176
     1
 90
       50
176
     1
 90
       50
176
     1
290
     0
176
     1
 90
       50
176
     1
 62
   256
176
     0
 40
1.0
176
     0
 90
        2
176
     1
  1
strokes_ogs.tif
176
     1
290
     0
176
     1
 40
1.0
176
     1
 40
1.0
176
     1
  0
VISUALSTYLE
  5
358
102
{ACAD_REACTORS
330
354
102
}
330
354
100
AcDbVisualStyle
  2
GouraudWithEdges
 70
     3
177
     3
291
     1
 70
    58
 90
        2
176
     1
 90
        2
176
     1
 90
        1
176
     1
 90
        2
176
     1
 40
0.6
176
     1
 40
30.0
176
     1
 62
     7
420
 16777215
176
     1
 90
        1
176
     1
 90
        0
176
     1
 62
     7
176
     1
 62
   257
176
     1
 90
        1
176
     1
 90
        1
176
     1
 40
1.0
176
     1
 90
        0
176
     1
 62
   257
176
     1
 40
1.0
176
     1
 90
        1
176
     1
 90
        6
176
     1
 90
        2
176
     1
 62
     7
176
     1
 90
        5
176
     1
 90
        0
176
     1
 90
        0
176
     1
290
     0
176
     1
 90
       13
176
     1
 40
0.0
176
     1
 90
        0
176
     1
290
     0
176
     1
290
     1
176
     1
290
     1
176
     1
290
     0
176
     1
290
     0
176
     1
290
     0
176
     1
290
     0
176
     1
290
     0
176
     1
290
     0
176
     1
 90
       50
176
     1
 40
0.0
176
     1
 40
1.0
176
     1
 90
        0
176
     1
 62
    18
420
        0
176
     1
 90
       50
176
     1
 90
        3
176
     1
 62
     5
420
      255
176
     1
290
     0
176
     1
 90
       50
176
     1
 90
       50
176
     1
 90
       50
176
     1
290
     0
176
     1
 90
       50
176
     1
 62
   256
176
     0
 40
1.0
176
     0
 90
        2
176
     1
  1
strokes_ogs.tif
176
     1
290
     0
176
     1
 40
1.0
176
     1
 40
1.0
176
     1
  0
VISUALSTYLE
  5
35C
102
{ACAD_REACTORS
330
354
102
}
330
354
100
AcDbVisualStyle
  2
Hidden
 70
     6
177
     3
291
     0
 70
    58
 90
        1
176
     1
 90
        2
176
     1
 90
        2
176
     1
 90
        0
176
     1
 40
0.6
176
     1
 40
30.0
176
     1
 62
     7
420
 16777215
176
     1
 90
        2
176
     1
 90
        2
176
     1
 62
     7
176
     1
 62
   257
176
     1
 90
        2
176
     1
 90
        1
176
     1
 40
40.0
176
     1
 90
        0
176
     1
 62
   257
176
     1
 40
1.0
176
     1
 90
        1
176
     1
 90
        6
176
     1
 90
        2
176
     1
 62
     7
176
     1
 90
        3
176
     1
 90
        0
176
     1
 90
        0
176
     1
290
     0
176
     1
 90
        1
176
     1
 40
0.0
176
     1
 90
        0
176
     1
290
     0
176
     1
290
     1
176
     1
290
     1
176
     1
290
     0
176
     1
290
     0
176
     1
290
     0
176
     1
290
     0
176
     1
290
     0
176
     1
290
     0
176
     1
 90
       50
176
     1
 40
0.0
176
     1
 40
1.0
176
     1
 90
        0
176
     1
 62
    18
420
        0
176
     1
 90
       50
176
     1
 90
        3
176
     1
 62
     5
420
      255
176
     1
290
     0
176
     1
 90
       50
176
     1
 90
       50
176
     1
 90
       50
176
     1
290
     0
176
     1
 90
       50
176
     1
 62
   256
176
     0
 40
1.0
176
     0
 90
        2
176
     1
  1
strokes_ogs.tif
176
     1
290
     0
176
     1
 40
1.0
176
     1
 40
1.0
176
     1
  0
VISUALSTYLE
  5
36A
102
{ACAD_REACTORS
330
354
102
}
330
354
100
AcDbVisualStyle
  2
JitterOff
 70
    20
177
     3
291
     1
 70
    58
 90
        2
176
     0
 90
        2
176
     0
 90
        0
176
     0
 90
        0
176
     0
 40
0.6
176
     0
 40
30.0
176
     0
 62
     7
420
 16777215
176
     0
 90
        1
176
     0
 90
        4
176
     0
 62
     7
176
     0
 62
   257
176
     0
 90
        1
176
     0
 90
        1
176
     0
 40
1.0
176
     0
 90
       10
176
     2
 62
     7
176
     0
 40
1.0
176
     0
 90
        1
176
     0
 90
        6
176
     0
 90
        2
176
     0
 62
     7
176
     0
 90
        5
176
     0
 90
        0
176
     0
 90
        0
176
     0
290
     0
176
     0
 90
        1
176
     0
 40
0.0
176
     0
 90
        0
176
     0
290
     0
176
     0
290
     1
176
     0
290
     1
176
     0
290
     0
176
     0
290
     0
176
     0
290
     0
176
     0
290
     0
176
     0
290
     0
176
     0
290
     0
176
     0
 90
       50
176
     0
 40
0.0
176
     0
 40
1.0
176
     0
 90
        0
176
     0
 62
    18
420
        0
176
     0
 90
       50
176
     0
 90
        3
176
     0
 62
     5
420
      255
176
     0
290
     0
176
     0
 90
       50
176
     0
 90
       50
176
     0
 90
       50
176
     0
290
     0
176
     0
 90
       50
176
     0
 62
   256
176
     0
 40
1.0
176
     0
 90
        2
176
     0
  1
strokes_ogs.tif
176
     0
290
     0
176
     0
 40
1.0
176
     0
 40
1.0
176
     0
  0
VISUALSTYLE
  5
362
102
{ACAD_REACTORS
330
354
102
}
330
354
100
AcDbVisualStyle
  2
Linepattern
 70
    14
177
     3
291
     1
 70
    58
 90
        2
176
     1
 90
        2
176
     1
 90
        0
176
     1
 90
        0
176
     1
 40
0.6
176
     1
 40
30.0
176
     1
 62
     7
420
 16777215
176
     1
 90
        1
176
     1
 90
        4
176
     1
 62
     7
176
     1
 62
   257
176
     1
 90
        7
176
     1
 90
        7
176
     1
 40
1.0
176
     1
 90
        8
176
     1
 62
     7
176
     1
 40
1.0
176
     1
 90
        1
176
     1
 90
        6
176
     1
 90
        2
176
     1
 62
     7
176
     1
 90
        5
176
     1
 90
        0
176
     1
 90
        0
176
     1
290
     0
176
     1
 90
        1
176
     1
 40
0.0
176
     1
 90
        0
176
     1
290
     0
176
     1
290
     1
176
     1
290
     1
176
     1
290
     0
176
     1
290
     0
176
     1
290
     0
176
     1
290
     0
176
     1
290
     0
176
     1
290
     0
176
     1
 90
       50
176
     1
 40
0.0
176
     1
 40
1.0
176
     1
 90
        0
176
     1
 62
    18
420
        0
176
     1
 90
       50
176
     1
 90
        3
176
     1
 62
     5
420
      255
176
     1
290
     0
176
     1
 90
       50
176
     1
 90
       50
176
     1
 90
       50
176
     1
290
     0
176
     1
 90
       50
176
     1
 62
   256
176
     0
 40
1.0
176
     0
 90
        2
176
     1
  1
strokes_ogs.tif
176
     1
290
     0
176
     1
 40
1.0
176
     1
 40
1.0
176
     1
  0
VISUALSTYLE
  5
36B
102
{ACAD_REACTORS
330
354
102
}
330
354
100
AcDbVisualStyle
  2
OverhangOff
 70
    21
177
     3
291
     1
 70
    58
 90
        2
176
     0
 90
        2
176
     0
 90
        0
176
     0
 90
        0
176
     0
 40
0.6
176
     0
 40
30.0
176
     0
 62
     7
420
 16777215
176
     0
 90
        1
176
     0
 90
        4
176
     0
 62
     7
176
     0
 62
   257
176
     0
 90
        1
176
     0
 90
        1
176
     0
 40
1.0
176
     0
 90
        9
176
     2
 62
     7
176
     0
 40
1.0
176
     0
 90
        1
176
     0
 90
        6
176
     0
 90
        2
176
     0
 62
     7
176
     0
 90
        5
176
     0
 90
        0
176
     0
 90
        0
176
     0
290
     0
176
     0
 90
        1
176
     0
 40
0.0
176
     0
 90
        0
176
     0
290
     0
176
     0
290
     1
176
     0
290
     1
176
     0
290
     0
176
     0
290
     0
176
     0
290
     0
176
     0
290
     0
176
     0
290
     0
176
     0
290
     0
176
     0
 90
       50
176
     0
 40
0.0
176
     0
 40
1.0
176
     0
 90
        0
176
     0
 62
    18
420
        0
176
     0
 90
       50
176
     0
 90
        3
176
     0
 62
     5
420
      255
176
     0
290
     0
176
     0
 90
       50
176
     0
 90
       50
176
     0
 90
       50
176
     0
290
     0
176
     0
 90
       50
176
     0
 62
   256
176
     0
 40
1.0
176
     0
 90
        2
176
     0
  1
strokes_ogs.tif
176
     0
290
     0
176
     0
 40
1.0
176
     0
 40
1.0
176
     0
  0
VISUALSTYLE
  5
35E
102
{ACAD_REACTORS
330
354
102
}
330
354
100
AcDbVisualStyle
  2
Realistic
 70
     8
177
     3
291
     0
 70
    58
 90
        2
176
     1
 90
        3
176
     1
 90
        0
176
     1
 90
        2
176
     1
 40
0.6
176
     1
 40
30.0
176
     1
 62
     7
420
 16777215
176
     1
 90
        0
176
     1
 90
        0
176
     1
 62
     7
176
     1
 62
   257
176
     1
 90
        1
176
     1
 90
        1
176
     1
 40
1.0
176
     1
 90
        8
176
     1
 62
   257
176
     1
 40
1.0
176
     1
 90
        1
176
     1
 90
        6
176
     1
 90
        2
176
     1
 62
     7
176
     1
 90
        3
176
     1
 90
        0
176
     1
 90
        0
176
     1
290
     0
176
     1
 90
       13
176
     1
 40
0.0
176
     1
 90
        0
176
     1
290
     0
176
     1
290
     1
176
     1
290
     1
176
     1
290
     0
176
     1
290
     0
176
     1
290
     0
176
     1
290
     0
176
     1
290
     0
176
     1
290
     0
176
     1
 90
       50
176
     1
 40
0.0
176
     1
 40
1.0
176
     1
 90
        0
176
     1
 62
    18
420
        0
176
     1
 90
       50
176
     1
 90
        3
176
     1
 62
     5
420
      255
176
     1
290
     0
176
     1
 90
       50
176
     1
 90
       50
176
     1
 90
       50
176
     1
290
     0
176
     1
 90
       50
176
     1
 62
   256
176
     0
 40
1.0
176
     0
 90
        2
176
     1
  1
strokes_ogs.tif
176
     1
290
     0
176
     1
 40
1.0
176
     1
 40
1.0
176
     1
  0
VISUALSTYLE
  5
369
102
{ACAD_REACTORS
330
354
102
}
330
354
100
AcDbVisualStyle
  2
Shaded
 70
    27
177
     3
291
     0
 70
    58
 90
        2
176
     1
 90
        2
176
     1
 90
        1
176
     1
 90
        2
176
     1
 40
0.6
176
     1
 40
30.0
176
     1
 62
     7
420
 16777215
176
     1
 90
        0
176
     1
 90
        4
176
     1
 62
     7
176
     1
 62
   257
176
     1
 90
        1
176
     1
 90
        1
176
     1
 40
1.0
176
     1
 90
        8
176
     1
 62
   257
176
     1
 40
1.0
176
     1
 90
        1
176
     1
 90
        6
176
     1
 90
        2
176
     1
 62
     8
420
  7895160
176
     1
 90
        3
176
     1
 90
        0
176
     1
 90
        0
176
     1
290
     0
176
     1
 90
        5
176
     1
 40
0.0
176
     1
 90
        0
176
     1
290
     0
176
     1
290
     1
176
     1
290
     1
176
     1
290
     0
176
     1
290
     0
176
     1
290
     0
176
     1
290
     0
176
     1
290
     0
176
     1
290
     0
176
     1
 90
       50
176
     1
 40
0.0
176
     1
 40
1.0
176
     1
 90
        0
176
     1
 62
    18
420
        0
176
     1
 90
       50
176
     1
 90
        3
176
     1
 62
     5
420
      255
176
     1
290
     0
176
     1
 90
       50
176
     1
 90
       50
176
     1
 90
       50
176
     1
290
     0
176
     1
 90
       50
176
     1
 62
   256
176
     0
 40
1.0
176
     0
 90
        2
176
     1
  1
strokes_ogs.tif
176
     1
290
     0
176
     1
 40
1.0
176
     1
 40
1.0
176
     1
  0
VISUALSTYLE
  5
368
102
{ACAD_REACTORS
330
354
102
}
330
354
100
AcDbVisualStyle
  2
Shaded with edges
 70
    26
177
     3
291
     0
 70
    58
 90
        2
176
     1
 90
        2
176
     1
 90
        1
176
     1
 90
        2
176
     1
 40
0.6
176
     1
 40
30.0
176
     1
 62
     7
420
 16777215
176
     1
 90
        1
176
     1
 90
        2
176
     1
 62
     7
176
     1
 62
   257
176
     1
 90
        2
176
     1
 90
        1
176
     1
 40
1.0
176
     1
 90
        8
176
     1
 62
   257
176
     1
 40
1.0
176
     1
 90
        1
176
     1
 90
        6
176
     1
 90
        2
176
     1
 62
     7
176
     1
 90
        3
176
     1
 90
        0
176
     1
 90
        0
176
     1
290
     0
176
     1
 90
        5
176
     1
 40
0.0
176
     1
 90
        0
176
     1
290
     0
176
     1
290
     1
176
     1
290
     1
176
     1
290
     0
176
     1
290
     0
176
     1
290
     0
176
     1
290
     0
176
     1
290
     0
176
     1
290
     0
176
     1
 90
       50
176
     1
 40
0.0
176
     1
 40
1.0
176
     1
 90
        0
176
     1
 62
    18
420
        0
176
     1
 90
       50
176
     1
 90
        3
176
     1
 62
     5
420
      255
176
     1
290
     0
176
     1
 90
       50
176
     1
 90
       50
176
     1
 90
       50
176
     1
290
     0
176
     1
 90
       50
176
     1
 62
   256
176
     0
 40
1.0
176
     0
 90
        2
176
     1
  1
strokes_ogs.tif
176
     1
290
     0
176
     1
 40
1.0
176
     1
 40
1.0
176
     1
  0
VISUALSTYLE
  5
365
102
{ACAD_REACTORS
330
354
102
}
330
354
100
AcDbVisualStyle
  2
Shades of Gray
 70
    23
177
     3
291
     0
 70
    58
 90
        2
176
     1
 90
        2
176
     1
 90
        3
176
     1
 90
        0
176
     1
 40
0.6
176
     1
 40
30.0
176
     1
 62
     7
420
 16777215
176
     1
 90
        2
176
     1
 90
        2
176
     1
 62
     7
176
     1
 62
     7
176
     1
 90
        1
176
     1
 90
        1
176
     1
 40
40.0
176
     1
 90
        8
176
     1
 62
     7
176
     1
 40
1.0
176
     1
 90
        1
176
     1
 90
        6
176
     1
 90
        2
176
     1
 62
     7
176
     1
 90
        3
176
     1
 90
        0
176
     1
 90
        0
176
     1
290
     0
176
     1
 90
        1
176
     1
 40
0.0
176
     1
 90
        0
176
     1
290
     0
176
     1
290
     1
176
     1
290
     1
176
     1
290
     0
176
     1
290
     0
176
     1
290
     0
176
     1
290
     0
176
     1
290
     0
176
     1
290
     0
176
     1
 90
       50
176
     1
 40
0.0
176
     1
 40
1.0
176
     1
 90
        0
176
     1
 62
    18
420
        0
176
     1
 90
       50
176
     1
 90
        3
176
     1
 62
     5
420
      255
176
     1
290
     0
176
     1
 90
       50
176
     1
 90
       50
176
     1
 90
       50
176
     1
290
     0
176
     1
 90
       50
176
     1
 62
   256
176
     0
 40
1.0
176
     0
 90
        2
176
     1
  1
strokes_ogs.tif
176
     1
290
     0
176
     1
 40
1.0
176
     1
 40
1.0
176
     1
  0
VISUALSTYLE
  5
366
102
{ACAD_REACTORS
330
354
102
}
330
354
100
AcDbVisualStyle
  2
Sketchy
 70
    24
177
     3
291
     0
 70
    58
 90
        1
176
     1
 90
        2
176
     1
 90
        2
176
     1
 90
        0
176
     1
 40
0.6
176
     1
 40
30.0
176
     1
 62
     7
420
 16777215
176
     1
 90
        2
176
     1
 90
        2
176
     1
 62
     7
176
     1
 62
     7
176
     1
 90
        1
176
     1
 90
        1
176
     1
 40
40.0
176
     1
 90
       11
176
     1
 62
     7
176
     1
 40
1.0
176
     1
 90
        1
176
     1
 90
        6
176
     1
 90
        2
176
     1
 62
     7
176
     1
 90
        6
176
     1
 90
        0
176
     1
 90
        0
176
     1
290
     0
176
     1
 90
        1
176
     1
 40
0.0
176
     1
 90
        0
176
     1
290
     0
176
     1
290
     1
176
     1
290
     1
176
     1
290
     0
176
     1
290
     0
176
     1
290
     0
176
     1
290
     0
176
     1
290
     0
176
     1
290
     0
176
     1
 90
       50
176
     1
 40
0.0
176
     1
 40
1.0
176
     1
 90
        0
176
     1
 62
    18
420
        0
176
     1
 90
       50
176
     1
 90
        3
176
     1
 62
     5
420
      255
176
     1
290
     0
176
     1
 90
       50
176
     1
 90
       50
176
     1
 90
       50
176
     1
290
     0
176
     1
 90
       50
176
     1
 62
   256
176
     0
 40
1.0
176
     0
 90
        2
176
     1
  1
strokes_ogs.tif
176
     1
290
     0
176
     1
 40
1.0
176
     1
 40
1.0
176
     1
  0
VISUALSTYLE
  5
361
102
{ACAD_REACTORS
330
354
102
}
330
354
100
AcDbVisualStyle
  2
Thicken
 70
    13
177
     3
291
     1
 70
    58
 90
        2
176
     1
 90
        2
176
     1
 90
        0
176
     1
 90
        0
176
     1
 40
0.6
176
     1
 40
30.0
176
     1
 62
     7
420
 16777215
176
     1
 90
        1
176
     1
 90
        4
176
     1
 62
     7
176
     1
 62
   257
176
     1
 90
        1
176
     1
 90
        1
176
     1
 40
1.0
176
     1
 90
       12
176
     1
 62
     7
176
     1
 40
1.0
176
     1
 90
        1
176
     1
 90
        6
176
     1
 90
        2
176
     1
 62
     7
176
     1
 90
        5
176
     1
 90
        0
176
     1
 90
        0
176
     1
290
     0
176
     1
 90
        1
176
     1
 40
0.0
176
     1
 90
        0
176
     1
290
     0
176
     1
290
     1
176
     1
290
     1
176
     1
290
     0
176
     1
290
     0
176
     1
290
     0
176
     1
290
     0
176
     1
290
     0
176
     1
290
     0
176
     1
 90
       50
176
     1
 40
0.0
176
     1
 40
1.0
176
     1
 90
        0
176
     1
 62
    18
420
        0
176
     1
 90
       50
176
     1
 90
        3
176
     1
 62
     5
420
      255
176
     1
290
     0
176
     1
 90
       50
176
     1
 90
       50
176
     1
 90
       50
176
     1
290
     0
176
     1
 90
       50
176
     1
 62
   256
176
     0
 40
1.0
176
     0
 90
        2
176
     1
  1
strokes_ogs.tif
176
     1
290
     0
176
     1
 40
1.0
176
     1
 40
1.0
176
     1
  0
VISUALSTYLE
  5
35B
102
{ACAD_REACTORS
330
354
102
}
330
354
100
AcDbVisualStyle
  2
Wireframe
 70
     5
177
     3
291
     0
 70
    58
 90
        0
176
     1
 90
        2
176
     1
 90
        0
176
     1
 90
        0
176
     1
 40
0.6
176
     1
 40
30.0
176
     1
 62
     7
420
 16777215
176
     1
 90
        1
176
     1
 90
        4
176
     1
 62
     7
176
     1
 62
   257
176
     1
 90
        1
176
     1
 90
        1
176
     1
 40
1.0
176
     1
 90
        0
176
     1
 62
   257
176
     1
 40
1.0
176
     1
 90
        1
176
     1
 90
        6
176
     1
 90
        2
176
     1
 62
     7
176
     1
 90
        3
176
     1
 90
        0
176
     1
 90
        0
176
     1
290
     0
176
     1
 90
        1
176
     1
 40
0.0
176
     1
 90
        0
176
     1
290
     0
176
     1
290
     1
176
     1
290
     1
176
     1
290
     0
176
     1
290
     0
176
     1
290
     0
176
     1
290
     0
176
     1
290
     0
176
     1
290
     0
176
     1
 90
       50
176
     1
 40
0.0
176
     1
 40
1.0
176
     1
 90
        0
176
     1
 62
    18
420
        0
176
     1
 90
       50
176
     1
 90
        3
176
     1
 62
     5
420
      255
176
     1
290
     0
176
     1
 90
       50
176
     1
 90
       50
176
     1
 90
       50
176
     1
290
     0
176
     1
 90
       50
176
     1
 62
   256
176
     0
 40
1.0
176
     0
 90
        2
176
     1
  1
strokes_ogs.tif
176
     1
290
     0
176
     1
 40
1.0
176
     1
 40
1.0
176
     1
  0
VISUALSTYLE
  5
367
102
{ACAD_REACTORS
330
354
102
}
330
354
100
AcDbVisualStyle
  2
X-Ray
 70
    25
177
     3
291
     0
 70
    58
 90
        2
176
     1
 90
        2
176
     1
 90
        1
176
     1
 90
        1
176
     1
 40
0.5
176
     1
 40
30.0
176
     1
 62
     7
420
 16777215
176
     1
 90
        1
176
     1
 90
        0
176
     1
 62
     7
176
     1
 62
   257
176
     1
 90
        1
176
     1
 90
        1
176
     1
 40
1.0
176
     1
 90
        8
176
     1
 62
     7
176
     1
 40
1.0
176
     1
 90
        1
176
     1
 90
        6
176
     1
 90
        2
176
     1
 62
     7
176
     1
 90
        3
176
     1
 90
        0
176
     1
 90
        0
176
     1
290
     0
176
     1
 90
       13
176
     1
 40
0.0
176
     1
 90
        0
176
     1
290
     0
176
     1
290
     1
176
     1
290
     1
176
     1
290
     0
176
     1
290
     0
176
     1
290
     0
176
     1
290
     0
176
     1
290
     0
176
     1
290
     0
176
     1
 90
       50
176
     1
 40
0.0
176
     1
 40
1.0
176
     1
 90
        0
176
     1
 62
    18
420
        0
176
     1
 90
       50
176
     1
 90
        3
176
     1
 62
     5
420
      255
176
     1
290
     0
176
     1
 90
       50
176
     1
 90
       50
176
     1
 90
       50
176
     1
290
     0
176
     1
 90
       50
176
     1
 62
   256
176
     0
 40
1.0
176
     0
 90
        2
176
     1
  1
strokes_ogs.tif
176
     1
290
     0
176
     1
 40
1.0
176
     1
 40
1.0
176
     1
  0
DICTIONARYVAR
  5
3B4
102
{ACAD_REACTORS
330
3AE
102
}
330
3AE
100
DictionaryVariables
280
     0
  1
1:1
  0
DICTIONARYVAR
  5
3B0
102
{ACAD_REACTORS
330
3AE
102
}
330
3AE
100
DictionaryVariables
280
     0
  1
STANDARD
  0
DICTIONARYVAR
  5
3AF
102
{ACAD_REACTORS
330
3AE
102
}
330
3AE
100
DictionaryVariables
280
     0
  1
STANDARD
  0
DICTIONARYVAR
  5
3B1
102
{ACAD_REACTORS
330
3AE
102
}
330
3AE
100
DictionaryVariables
280
     0
  1
Metric50
  0
DICTIONARYVAR
  5
3B2
102
{ACAD_REACTORS
330
3AE
102
}
330
3AE
100
DictionaryVariables
280
     0
  1
Metric50
  0
DICTIONARYVAR
  5
3B6
102
{ACAD_REACTORS
330
3AE
102
}
330
3AE
100
DictionaryVariables
280
     0
  1
1
  0
DICTIONARYVAR
  5
3B7
102
{ACAD_REACTORS
330
3AE
102
}
330
3AE
100
DictionaryVariables
280
     0
  1
15
  0
DICTIONARYVAR
  5
3B5
102
{ACAD_REACTORS
330
3AE
102
}
330
3AE
100
DictionaryVariables
280
     0
  1
0
  0
DICTIONARYVAR
  5
3B3
102
{ACAD_REACTORS
330
3AE
102
}
330
3AE
100
DictionaryVariables
280
     0
  1
0
  0
ACAD_PROXY_OBJECT
  5
25B
102
{ACAD_REACTORS
330
25A
102
}
330
25A
100
AcDbProxyObject
 90
      499
 91
      548
 95
  4980761
 70
     0
161
                84
310
90100057356C1D714051BC
330
1F
330
292
330
131
330
128
330
122
330
11C
330
116
330
10F
330
109
330
103
330
FD
330
F7
330
F1
330
EA
330
E4
330
DE
330
D7
330
CE
330
C4
330
BE
330
B7
330
AB
330
A3
330
8C
330
2B2
330
2E3
330
30D
 94
        0
  0
DICTIONARY
  5
267
102
{ACAD_REACTORS
330
25A
102
}
330
25A
100
AcDbDictionary
281
     1
  3
ISO
350
268
  0
ACAD_PROXY_OBJECT
  5
20C
330
0
100
AcDbProxyObject
 90
      499
 91
      511
 95
  4980761
 70
     0
161
               156
310
000101439050D35154D6535093D314D25691508C
330
209
 94
        0
  0
ACAD_PROXY_OBJECT
  5
20E
330
0
100
AcDbProxyObject
 90
      499
 91
      513
 95
  4980761
 70
     0
161
               112
310
00010141F0FDF3EE2C7B4C402B00B8
330
209
330
0
330
0
 94
        0
  0
ACAD_PROXY_OBJECT
  5
214
330
0
100
AcDbProxyObject
 90
      499
 91
      519
 95
  4980761
 70
     0
161
               374
310
00010141323571B680508382E302E32342E300141323571B680508382E302E32342E3040501000041505391D311658
330
209
330
215
330
21B
 94
        0
  0
ACAD_PROXY_OBJECT
  5
215
330
0
100
AcDbProxyObject
 90
      499
 91
      520
 95
  4980761
 70
     0
161
                56
310
0001902422000000
330
209
330
216
330
218
 94
        0
  0
ACAD_PROXY_OBJECT
  5
216
330
0
100
AcDbProxyObject
 90
      499
 91
      521
 95
  4980761
 70
     0
161
                48
310
0001AA00000044
330
209
330
1E
330
217
330
0
 94
        0
  0
ACAD_PROXY_OBJECT
  5
217
330
0
100
AcDbProxyObject
 90
      499
 91
      522
 95
  4980761
 70
     0
161
                28
310
0001AAAC
330
209
 94
        0
  0
ACAD_PROXY_OBJECT
  5
218
330
0
100
AcDbProxyObject
 90
      499
 91
      521
 95
  4980761
 70
     0
161
                48
310
0001AA00000041
330
209
330
26
330
219
330
0
 94
        0
  0
ACAD_PROXY_OBJECT
  5
219
330
0
100
AcDbProxyObject
 90
      499
 91
      522
 95
  4980761
 70
     0
161
                28
310
0001AAAC
330
209
 94
        0
  0
ACAD_PROXY_OBJECT
  5
21C
330
0
100
AcDbProxyObject
 90
      499
 91
      511
 95
  4980761
 70
     0
161
               108
310
000101421053521310D05310D01C
330
209
 94
        0
  0
ACAD_PROXY_OBJECT
  5
21D
330
0
100
AcDbProxyObject
 90
      499
 91
      511
 95
  4980761
 70
     0
161
               124
310
00010142905354915554D1511253501C
330
209
 94
        0
  0
ACAD_PROXY_OBJECT
  5
21E
330
0
100
AcDbProxyObject
 90
      499
 91
      511
 95
  4980761
 70
     0
161
               132
310
00010143105354D150D51253D39112536C
330
209
 94
        0
  0
ACAD_PROXY_OBJECT
  5
21F
330
0
100
AcDbProxyObject
 90
      499
 91
      511
 95
  4980761
 70
     0
161
               124
310
00010142905355941093D4911154901C
330
209
 94
        0
  0
ACAD_PROXY_OBJECT
  5
220
330
0
100
AcDbProxyObject
 90
      499
 91
      511
 95
  4980761
 70
     0
161
               116
310
0001014290535115D1D0D3D313D4AC
330
209
 94
        0
  0
ACAD_PROXY_OBJECT
  5
221
330
0
100
AcDbProxyObject
 90
      499
 91
      511
 95
  4980761
 70
     0
161
               148
310
00010143505355925155D49151949154D2101C
330
209
 94
        0
  0
ACAD_PROXY_OBJECT
  5
222
330
0
100
AcDbProxyObject
 90
      499
 91
      511
 95
  4980761
 70
     0
161
               172
310
00010144105350539393D51154149154D1549591501C
330
209
 94
        0
  0
ACAD_PROXY_OBJECT
  5
224
330
0
100
AcDbProxyObject
 90
      499
 91
      511
 95
  4980761
 70
     0
161
               172
310
00010144105350555513D11253505494905391D1501C
330
209
 94
        0
  0
ACAD_PROXY_OBJECT
  5
225
330
0
100
AcDbProxyObject
 90
      499
 91
      511
 95
  4980761
 70
     0
161
               124
310
00010142D0535156151491519112536C
330
209
 94
        0
  0
ACAD_PROXY_OBJECT
  5
226
330
0
100
AcDbProxyObject
 90
      499
 91
      511
 95
  4980761
 70
     0
161
               132
310
00010142D05355105410539393D511501C
330
209
 94
        0
  0
ACAD_PROXY_OBJECT
  5
227
330
0
100
AcDbProxyObject
 90
      499
 91
      511
 95
  4980761
 70
     0
161
               108
310
00010142105350555513D0D3101C
330
209
 94
        0
  0
ACAD_PROXY_OBJECT
  5
228
330
0
100
AcDbProxyObject
 90
      499
 91
      511
 95
  4980761
 70
     0
161
               108
310
00010142105350D311915055105C
330
209
 94
        0
  0
ACAD_PROXY_OBJECT
  5
229
330
0
100
AcDbProxyObject
 90
      499
 91
      511
 95
  4980761
 70
     0
161
               108
310
00010142105350D315925155D3FC
330
209
 94
        0
  0
ACAD_PROXY_OBJECT
  5
22A
330
0
100
AcDbProxyObject
 90
      499
 91
      511
 95
  4980761
 70
     0
161
               148
310
0001014350535212511156915493D11253501C
330
209
 94
        0
  0
ACAD_PROXY_OBJECT
  5
22B
330
0
100
AcDbProxyObject
 90
      499
 91
      511
 95
  4980761
 70
     0
161
               124
310
00010142905352105510D21254D3D01C
330
209
 94
        0
  0
ACAD_PROXY_OBJECT
  5
22C
330
0
100
AcDbProxyObject
 90
      499
 91
      511
 95
  4980761
 70
     0
161
               148
310
00010143905354D25391D3115210551310566C
330
209
 94
        0
  0
ACAD_PROXY_OBJECT
  5
22D
330
0
100
AcDbProxyObject
 90
      499
 91
      511
 95
  4980761
 70
     0
161
               124
310
00010142D0535115D1D193111254D42C
330
209
 94
        0
  0
ACAD_PROXY_OBJECT
  5
22E
330
0
100
AcDbProxyObject
 90
      499
 91
      511
 95
  4980761
 70
     0
161
               100
310
00010142105350555513D213AC
330
209
 94
        0
  0
ACAD_PROXY_OBJECT
  5
22F
330
0
100
AcDbProxyObject
 90
      499
 91
      511
 95
  4980761
 70
     0
161
               116
310
000101425053521390D3D55395101C
330
209
 94
        0
  0
ACAD_PROXY_OBJECT
  5
230
330
0
100
AcDbProxyObject
 90
      499
 91
      511
 95
  4980761
 70
     0
161
               108
310
0001014210535213941493D2901C
330
209
 94
        0
  0
ACAD_PROXY_OBJECT
  5
231
330
0
100
AcDbProxyObject
 90
      499
 91
      511
 95
  4980761
 70
     0
161
               108
310
000101421053521395165411507C
330
209
 94
        0
  0
ACAD_PROXY_OBJECT
  5
232
330
0
100
AcDbProxyObject
 90
      499
 91
      511
 95
  4980761
 70
     0
161
               108
310
000101421053521395925155D0FC
330
209
 94
        0
  0
ACAD_PROXY_OBJECT
  5
233
330
0
100
AcDbProxyObject
 90
      499
 91
      511
 95
  4980761
 70
     0
161
               140
310
00010143505354D150D51253D390D3D4166C
330
209
 94
        0
  0
ACAD_PROXY_OBJECT
  5
234
330
0
100
AcDbProxyObject
 90
      499
 91
      511
 95
  4980761
 70
     0
161
               108
310
00010142105350D3141493D2903C
330
209
 94
        0
  0
ACAD_PROXY_OBJECT
  5
235
330
0
100
AcDbProxyObject
 90
      499
 91
      523
 95
  4980761
 70
     0
161
               212
310
00010143905350555513D2105510D21493D500000000000002E40C
330
209
 94
        0
  0
ACAD_PROXY_OBJECT
  5
236
330
0
100
AcDbProxyObject
 90
      499
 91
      511
 95
  4980761
 70
     0
161
               156
310
00010143905350555513D2105510D2111155101C
330
209
 94
        0
  0
ACAD_PROXY_OBJECT
  5
242
330
0
100
AcDbProxyObject
 90
      499
 91
      533
 95
  4980761
 70
     0
161
               714
310
0001000000009AA6A9AA4051E546875204175672031362030333A34323A3339203230313220285554432901420E0B8C0B8C8D0B8C00518546875204175672031362031313A35333A3233203230313201420E0B8C0B8C8D0B8C0C
330
209
330
243
330
244
330
246
330
0
 94
        0
  0
ACAD_PROXY_OBJECT
  5
243
330
0
100
AcDbProxyObject
 90
      499
 91
      534
 95
  4980761
 70
     0
161
                70
310
0001AAA80820000000
330
209
330
243
330
243
 94
        0
  0
ACAD_PROXY_OBJECT
  5
244
330
0
100
AcDbProxyObject
 90
      499
 91
      535
 95
  4980761
 70
     0
161
                48
310
0001000000001B
330
209
330
0
330
245
330
0
330
0
 94
        0
  0
ACAD_PROXY_OBJECT
  5
245
330
0
100
AcDbProxyObject
 90
      499
 91
      536
 95
  4980761
 70
     0
161
                40
310
000100AAAA00
330
209
330
0
 94
        0
  0
ACAD_PROXY_OBJECT
  5
24B
330
0
100
AcDbProxyObject
 90
      499
 91
      540
 95
  4980761
 70
     0
161
               180
310
00010143105050D3D35411119390535140504434F4D50C
330
209
 94
        0
  0
ACAD_PROXY_OBJECT
  5
24C
330
0
100
AcDbProxyObject
 90
      499
 91
      540
 95
  4980761
 70
     0
161
               212
310
0001014390505193D311115491119390535140506CEC4BCFEBCD0C
330
209
 94
        0
  0
ACAD_PROXY_OBJECT
  5
24D
330
0
100
AcDbProxyObject
 90
      499
 91
      540
 95
  4980761
 70
     0
161
               180
310
00010143105050539393D111939053514050428415629C
330
209
 94
        0
  0
ACAD_PROXY_OBJECT
  5
24E
330
0
100
AcDbProxyObject
 90
      499
 91
      540
 95
  4980761
 70
     0
161
               508
310
00010143905050D3D35415925155D31254D50052BB8A9CAD3CDBC0AD6F7CAD3CDBC0AD3D2CAD3CDBC0AD7F3CAD3CDBC0AD1F6CAD3CDBC0AB8A8D6FACAD3CDBCC
330
209
 94
        0
  0
ACAD_PROXY_OBJECT
  5
253
330
0
100
AcDbProxyObject
 90
      499
 91
      542
 95
  4980761
 70
     0
161
                32
310
0001000000
330
209
340
250
330
255
330
250
 94
        0
  0
ACAD_PROXY_OBJECT
  5
254
330
0
100
AcDbProxyObject
 90
      499
 91
      543
 95
  4980761
 70
     0
161
                18
310
00018C
330
209
 94
        0
  0
ACAD_PROXY_OBJECT
  5
255
330
0
100
AcDbProxyObject
 90
      499
 91
      544
 95
  4980761
 70
     0
161
               178
310
000101430CCC8C0C0E104B4C0C0B4C0C1050055401550C
330
209
330
253
330
254
 94
        0
  0
ACAD_PROXY_OBJECT
  5
256
330
0
100
AcDbProxyObject
 90
      499
 91
      545
 95
  4980761
 70
     0
161
                50
310
000100AAAAAA8C
330
209
330
255
 94
        0
  0
ACAD_PROXY_OBJECT
  5
257
330
0
100
AcDbProxyObject
 90
      499
 91
      546
 95
  4980761
 70
     0
161
               108
310
0001901422000000000000AAAAAC
330
209
330
258
330
258
330
258
330
258
330
258
330
0
 94
        0
  0
ACAD_PROXY_OBJECT
  5
258
330
0
100
AcDbProxyObject
 90
      499
 91
      547
 95
  4980761
 70
     0
161
                51
310
00010000AAAA8C
330
209
330
257
330
255
 94
        0
  0
ACAD_PROXY_OBJECT
  5
266
330
0
100
AcDbProxyObject
 90
      499
 91
      540
 95
  4980761
 70
     0
161
               140
310
00010142105350D55494D5110050349534FC
330
209
 94
        0
  0
DICTIONARY
  5
203
102
{ACAD_REACTORS
330
202
102
}
330
202
100
AcDbDictionary
281
     1
  3
DWGSETTINGS
350
204
  3
TRANSSETTINGS
350
205
  0
ACAD_PROXY_OBJECT
  5
269
102
{ACAD_REACTORS
330
202
102
}
330
202
100
AcDbProxyObject
 90
      499
 91
      555
 95
  4980761
 70
     0
161
             17944
310
41502491013041105357CC201C00030C0132441013141105357CC603800030C0132441013241105357CCA01400030C0132441013341105357CCE01800030C01199013441105357CD200C00030C01199013541105357CD600C00030C01199013641105357CDA00800030C01239013741105357CDE01000030C0119901384110
310
5357CE200400030C01199013941105357CE63F400030C0241102324141505357CC4C201C00030C0132902344141505357CC4C600C00030C0119902495041505357CC4CA01C00030C013240902304E41505357CC13A01C00030C0132902314E41505357CC53A03800030C0132902324E41505357CC93A01400030C013290233
310
4E41505357CCD3A01800030C0119902344E41505357CD13A00C00030C0119902354E41505357CD53A00C00030C0119902364E41505357CD93A00800030C0123902374E41505357CDD3A01000030C0119902384E41505357CE13A00400030C0119902394E41505357CE53A3F400030C024110332414E41905357CC4C13A01C0
310
0030C013290334414E41905357CC4C53A00C00030C011990349504E41905357CC4C93A01C00030C0132409044B4C494E41505357D0D3200400030C011942504494E464F42105357D410549151A01000030C011942D055241484D3541905357D093D4A01C00030C0132425045649455742105357D5925155D4E00400030C011
310
942D06424548494E4441905357D25395A3F400030C0243505545241494C41505357D514A00C00030C01194250348494441905357D21251201C00030C01194250356495341905357D59254E01C00030C01324250650415244494D42505357D41054911253600C00030C01194250652454644494D42505357D49151911253601
310
000030C0119425534110921395901398000000C0003FFFFFFFE415092139594D06424548494E448000000C0003FFFFFFFE411093D48C9055241484D358010000C300466411093D48CD055241484D358020000C30048E411093D48D5055241484D358000000C0003FFFFFFFE4110D0530C901348000000C0003FFFFFFFE4110
310
D0530CD01348020000C30048E4110D0530D501348070000C3004CA4110D0530DD013481E0000C30051A4110D15393901378000000C0003FFFFFFFE4110D15395D01378000000C0003FFFFFFFE4110D312539044B4C494E8000000C0003FFFFFFFE4110D3D38C501308000000C0003FFFFFFFD034110D3D38C901318000000C
310
0003FFFFFFFD034110D3D38CD01328000000C0003FFFFFFFD034110D3D38D101328000000C0003FFFFFFFD034111115510501348000000C0003FFFFFFFE4111125051D01358000000C0003FFFFFFFE4111125312501358000000C0003FFFFFFFE411112535410650415244494D8000000C0003FFFFFFFE4111125354906524
310
54644494D8000000C0003FFFFFFFE4111915353901388000000C0003FFFFFFFE415191535413901388030000C3003FFFFFFFE4151915354D410234418000000C0003FFFFFFFE4151915354D510234418030000C300466415191535593901328000000C0003FFFFFFFE415191535595101328030000C3004664112105510D01
310
388000000C0003FFFFFFFD014112125113901338000000C0003FFFFFFFD034112125115D01338000000C0003FFFFFFFD034112131253901348000000C0003FFFFFFFD01411213D0D3901378000000C0003FFFFFFFE411213D0D5D01378000000C0003FFFFFFFE4112539193D04494E464F8000000C0003FFFFFFFE41131150
310
51101358000000C0003FFFFFFFE419397D0921395902394E8000000C0003FFFFFFFE419397D0D3D38C502304E8000000C0003FFFFFFFD03419397D0D3D38C902314E8000000C0003FFFFFFFD03419397D0D3D38CD02324E8000000C0003FFFFFFFD03419397D0D3D38D102324E8000000C0003FFFFFFFD03419397D0D15393
310
902374E8000000C0003FFFFFFFE419397D0D15395D02374E8000000C0003FFFFFFFE419397D1125312502354E8000000C0003FFFFFFFE419397D2105510D02384E8000000C0003FFFFFFFD01419397D2125113902334E8000000C0003FFFFFFFD03419397D2125115D02334E8000000C0003FFFFFFFD03419397D311505110
310
2354E8000000C0003FFFFFFFE419397D391D25410349504E8000000C0003FFFFFFFE419397D412105390334414E8000000C0003FFFFFFFE419397D510D3D3902304E8000000C0003FFFFFFFD03419397D5121312502344E8000000C0003FFFFFFFD01419397D5131153902304E8000000C0003FFFFFFFD03419397D5941312
310
50332414E8000000C0003FFFFFFFE411391D25410249508000000C0003FFFFFFFE411410530C9055241484D358010000C300466411410530CD055241484D358020000C30048E411410530D5055241484D358000000C0003FFFFFFFE411412105390234418000000C0003FFFFFFFE411413D4D3901358000000C0003FFFFFFF
310
E411490D1D3901378000000C0003FFFFFFFE411490D1D5D01378000000C0003FFFFFFFE4114D09492D01348000000C0003FFFFFFFD014114D150D5101348000000C0003FFFFFFFD014114D6508CD01358020000C30048E411354D653501358020000C30048E411510D3D3901308000000C0003FFFFFFFD0341151213125013
310
48000000C0003FFFFFFFD01411512550C9055241484D358010000C300466411512550CD055241484D358020000C30048E411512550D5055241484D358000000C0003FFFFFFFE4115131153901308000000C0003FFFFFFFD03415514905253105545241494C8000000C0003FFFFFFFE4115149312501348000000C0003FFFFF
310
FFD01411516150C501368030000C300466411516150C901368030000C300466411516150CD01368000000C0003FFFFFFFE411516150D501368070000C3004CA411516150DD013681E0000C30051A4115925155D04564945578000000C0003FFFFFFFE41159151121034849448000000C0003FFFFFFFD024115915115903564
310
9538000000C0003FFFFFFFD02411594131250232418000000C0003FFFFFFFE4116925690501348000000C0003FFFFFFFD01AAA3F400030C01013F90A4393241D3241919415324111940D194092340519479467F6CC
340
16
340
16
340
16
340
26A
340
16
340
16
340
16
340
26B
340
16
340
16
340
26B
340
26C
340
16
340
16
340
16
340
16
340
26A
340
16
340
16
340
16
340
26B
340
16
340
16
340
26B
340
26C
340
16
340
26D
340
16
340
16
340
16
340
16
340
16
340
26A
340
16
340
16
340
16
340
15
340
15
340
15
340
15
340
15
340
15
340
15
340
15
340
15
340
26E
340
15
340
15
340
15
340
15
340
15
340
15
340
15
340
15
340
15
340
15
340
15
340
15
340
15
340
16
340
15
340
15
340
15
340
15
340
26F
340
15
340
15
340
26E
340
15
340
15
340
15
340
15
340
15
340
15
340
15
340
15
340
26E
340
15
340
15
340
15
340
26F
340
15
340
15
340
15
340
15
340
15
340
15
340
15
340
15
340
15
340
15
340
15
340
15
340
15
340
15
340
26E
340
15
340
15
340
15
340
15
340
15
340
15
340
15
340
15
340
15
340
15
340
15
340
15
340
15
340
15
340
15
340
15
340
15
340
15
340
15
340
15
340
15
340
15
340
272
 94
        0
  0
ACAD_PROXY_OBJECT
  5
29F
102
{ACAD_REACTORS
330
29A
102
}
330
29A
100
AcDbProxyObject
 90
      499
 91
      573
 95
  4980761
 70
     0
161
               253
310
43D1444494D454E53494F4E2C414D44545F2A5F44494D404A9012A404A9012AC
 94
        0
  0
ACAD_PROXY_OBJECT
  5
29E
102
{ACAD_REACTORS
330
29A
102
}
330
29A
100
AcDbProxyObject
 90
      499
 91
      573
 95
  4980761
 70
     0
161
               181
310
43D012A42D05357D191504B505357CA9012A404A9012AC
 94
        0
  0
ACAD_PROXY_OBJECT
  5
29B
102
{ACAD_REACTORS
330
29A
102
}
330
29A
100
AcDbProxyObject
 90
      499
 91
      573
 95
  4980761
 70
     0
161
               133
310
43D054841544348404A9012A404A9012AC
 94
        0
  0
ACAD_PROXY_OBJECT
  5
29C
102
{ACAD_REACTORS
330
29A
102
}
330
29A
100
AcDbProxyObject
 90
      499
 91
      573
 95
  4980761
 70
     0
161
               549
310
43D044C494E4549CE0B0E138B0A8B4E0B0A8B4E138B105357CE0B105357CE138B0A8B505357CE0B0A8B505357CE139012A404A910494E534552542C535444504152543244C
 94
        0
  0
ACAD_PROXY_OBJECT
  5
2A0
102
{ACAD_REACTORS
330
29A
102
}
330
29A
100
AcDbProxyObject
 90
      499
 91
      573
 95
  4980761
 70
     0
161
               181
310
43D0341524341105357CD5012A404C906494E534552544
 94
        0
  0
ACAD_PROXY_OBJECT
  5
29D
102
{ACAD_REACTORS
330
29A
102
}
330
29A
100
AcDbProxyObject
 90
      499
 91
      573
 95
  4980761
 70
     0
161
              1053
310
43D7841434D46434652414D452C41434D444154554D5441524745542C41434D444154554D49442C41434D57454C4453594D2C41434D5355524653594D2C41434D4645415449442C41434D504152545245462C41434D42414C4C4F4F4E2C414D44544544474553594D2C414D47534352455743414C435441424C45404A9012A
310
404A9012AC
 94
        0
  0
LAYER_INDEX
  5
329
102
{ACAD_REACTORS
330
328
102
}
330
328
100
AcDbIndex
 40
2458033.438206019
100
AcDbLayerIndex
  8
0
360
32A
 90
      160
  8
FORMAT
360
32B
 90
        0
  8
SLD-0
360
32C
 90
        0
  8
AM_5
360
32D
 90
        3
  8
AM_PAREF
360
32E
 90
        0
  8
双点划线
360
32F
 90
        0
  8
虚线
360
330
 90
        0
  8
AM_0
360
331
 90
        0
  8
AM_0N
360
332
 90
        0
  8
AM_3N
360
333
 90
        0
  8
AM_4N
360
334
 90
        0
  8
AM_12N
360
335
 90
        0
  8
AM_7
360
336
 90
        0
  8
CONFIDENTIAL
360
337
 90
        0
  8
AM_12
360
338
 90
        0
  8
Defpoints
360
339
 90
        0
1001
AcadStringInfo
1000
MIFCodePage
1070
     5
  0
DICTIONARY
  5
3BC
330
374
100
AcDbDictionary
280
     1
281
     1
  3
ACAD_XREC_ROUNDTRIP
360
3BD
  0
DICTIONARY
  5
345
330
344
100
AcDbDictionary
280
     1
281
     1
  3
BUMPTILE
360
347
  3
DIFFUSETILE
360
346
  3
OPACITYTILE
360
34A
  3
REFLECTIONTILE
360
349
  3
REFRACTIONTILE
360
34B
  3
SPECULARTILE
360
348
  0
DICTIONARY
  5
33D
330
33C
100
AcDbDictionary
280
     1
281
     1
  3
BUMPTILE
360
33F
  3
DIFFUSETILE
360
33E
  3
OPACITYTILE
360
342
  3
REFLECTIONTILE
360
341
  3
REFRACTIONTILE
360
343
  3
SPECULARTILE
360
340
  0
DICTIONARY
  5
34D
330
34C
100
AcDbDictionary
280
     1
281
     1
  3
BUMPTILE
360
34F
  3
DIFFUSETILE
360
34E
  3
OPACITYTILE
360
352
  3
REFLECTIONTILE
360
351
  3
REFRACTIONTILE
360
353
  3
SPECULARTILE
360
350
  0
DICTIONARY
  5
3BA
330
372
100
AcDbDictionary
280
     1
281
     1
  3
ACAD_XREC_ROUNDTRIP
360
3BB
  0
DICTIONARY
  5
3B8
330
36E
100
AcDbDictionary
280
     1
281
     1
  3
ACAD_ROUNDTRIP_2008_TABLESTYLE_CELLSTYLEMAP
360
3B9
  0
ACAD_PROXY_OBJECT
  5
268
102
{ACAD_REACTORS
330
267
102
}
330
267
100
AcDbProxyObject
 90
      499
 91
      554
 95
  4980761
 70
     0
161
              2497
310
5C40000000000000C408030000C30040D254D3D01640600800030C0200800030C000000000000000C40C88A2085A0B6B23A22B233B2A9BA3220480A1C82C6DAA6EAE4CCA8CAF0E8A6E8C88120284A0B1B6A321A329BA3220480A1A82C6DAAECAD8C8D2DCCEA6E8C8812028420B1B6A4B229BA3220480A1682C6DA88C2E8EAD
310
AA6E8C88120284A0B1B6A127A6A9BA3220480A2082DAC8E888CAE8C2D2D8A6F2DAA6E8C88120288A0B6B23A29B2B1BA34B7B729BCB6A9BA3220480A2282DAC8E886CADCE8CAE498D2DCCAA6E8C88120288A0B6B23A2A343932B0B22634B732A9BA3220480A1682DAC8E89CDEE8CAA6E8C88120285A0B1A0B6B3A630BCA9BA3
310
220480A1682C682DACE88D2DAA6E8C88120288A0B1A0B6B3A437B632A1B430B93A29BA3220480A1A82C682DACEA8D2E8D8CAA6E8C88120320480CC
340
273
360
274
360
275
360
276
360
277
360
278
360
279
360
27A
360
27B
360
27C
360
27D
360
27E
360
27F
360
28A
360
28B
360
297
360
298
340
0
340
0
 94
        0
  0
ACAD_PROXY_OBJECT
  5
204
102
{ACAD_REACTORS
330
203
102
}
330
203
100
AcDbProxyObject
 90
      499
 91
      507
 95
  4980761
 70
     0
161
              2396
310
4050B44574753455454494E4753A1286829C8E82A4A482B282A106660F8686AF86C608321A2A720A723A0A849A1ABE1C983E18999AA0C868A9C889282940000000000000488083A1A2A72224A0A9A0A8418983E19183E199820E868A9C8892A6A894000000000000010808321A2A72622A7250000000000000122020C868A9
310
C9E8C8C940000000000000488084A1A624A720A92920ACA0A8418983E19183E19982108698929C8AA8B2A082A0AB098929C8A84A22BA3AAA9A1A0A622A50A0E9882A6A89E849482A02608426A0A5A2AB24A2ABA7E8120CA0A68682988A0C00800010652455649534941501304154D0D0531150540CC4E8C50954494D455354
310
414D504A003EDD3014F30734141D5915494D253D3905414C4D4B8C0C1107B44574753455454494E4753454E447DC
 94
        0
  0
ACAD_PROXY_OBJECT
  5
205
102
{ACAD_REACTORS
330
203
102
}
330
203
100
AcDbProxyObject
 90
      499
 91
      507
 95
  4980761
 70
     0
161
               852
310
4050D5452414E5353455454494E4753A2488A482AE929C8EA8A4829CA69882A8929E9C0C00800050D4F524947494E414C4C595F4F4E0600400008529A7AAA921A2A620A723A0A81A1A429A12AAA0A48AA68AA4AC8A0C0080001107B44574753455454494E4753454E447DC
 94
        0
  0
IDBUFFER
  5
32A
330
0
100
AcDbIdBuffer
330
139
330
13A
330
13B
330
13C
330
13D
330
13E
330
13F
330
140
330
141
330
142
330
143
330
144
330
145
330
146
330
147
330
148
330
149
330
14A
330
14B
330
14C
330
14D
330
14E
330
14F
330
150
330
151
330
152
330
153
330
154
330
155
330
156
330
157
330
158
330
159
330
15A
330
15B
330
15C
330
15D
330
15E
330
15F
330
160
330
161
330
162
330
163
330
164
330
165
330
166
330
167
330
168
330
169
330
16A
330
16B
330
16C
330
16D
330
16E
330
16F
330
170
330
171
330
172
330
173
330
174
330
175
330
176
330
177
330
178
330
179
330
17A
330
17B
330
17C
330
17D
330
17E
330
17F
330
180
330
181
330
182
330
183
330
184
330
185
330
186
330
187
330
188
330
189
330
18A
330
18B
330
18C
330
18D
330
18E
330
18F
330
190
330
191
330
192
330
193
330
194
330
195
330
196
330
197
330
198
330
199
330
19A
330
19B
330
19C
330
19D
330
19E
330
19F
330
1A0
330
1A1
330
1A2
330
1A3
330
1A4
330
1A5
330
1A6
330
1A7
330
1A8
330
1A9
330
1AA
330
1AB
330
1AC
330
1AD
330
1AE
330
1AF
330
1B0
330
1B1
330
1B2
330
1B3
330
1B4
330
1B5
330
1B6
330
1B7
330
1B8
330
1B9
330
1BA
330
1BB
330
1BC
330
1BD
330
1BE
330
1BF
330
1C0
330
1C1
330
1C2
330
1C3
330
1C4
330
1C5
330
1C6
330
1C7
330
1C8
330
1C9
330
1CA
330
1CB
330
1CC
330
1CD
330
1CE
330
1CF
330
1D0
330
1D1
330
1D2
330
1D3
330
1D4
330
1D5
330
1D6
330
1D7
330
1D8
  0
IDBUFFER
  5
32B
330
0
100
AcDbIdBuffer
  0
IDBUFFER
  5
32C
330
0
100
AcDbIdBuffer
  0
IDBUFFER
  5
32D
330
0
100
AcDbIdBuffer
330
2B0
330
2E2
330
30C
  0
IDBUFFER
  5
32E
330
0
100
AcDbIdBuffer
  0
IDBUFFER
  5
32F
330
0
100
AcDbIdBuffer
  0
IDBUFFER
  5
330
330
0
100
AcDbIdBuffer
  0
IDBUFFER
  5
331
330
0
100
AcDbIdBuffer
  0
IDBUFFER
  5
332
330
0
100
AcDbIdBuffer
  0
IDBUFFER
  5
333
330
0
100
AcDbIdBuffer
  0
IDBUFFER
  5
334
330
0
100
AcDbIdBuffer
  0
IDBUFFER
  5
335
330
0
100
AcDbIdBuffer
  0
IDBUFFER
  5
336
330
0
100
AcDbIdBuffer
  0
IDBUFFER
  5
337
330
0
100
AcDbIdBuffer
  0
IDBUFFER
  5
338
330
0
100
AcDbIdBuffer
  0
IDBUFFER
  5
339
330
0
100
AcDbIdBuffer
  0
XRECORD
  5
3BD
102
{ACAD_REACTORS
330
3BC
102
}
330
3BC
100
AcDbXrecord
280
     1
102
DISPLAYNAME
  1
Metric50
102
FLAGS
 90
        0
  0
XRECORD
  5
347
102
{ACAD_REACTORS
330
345
102
}
330
345
100
AcDbXrecord
280
     1
270
     1
271
     1
  0
XRECORD
  5
346
102
{ACAD_REACTORS
330
345
102
}
330
345
100
AcDbXrecord
280
     1
270
     1
271
     1
  0
XRECORD
  5
34A
102
{ACAD_REACTORS
330
345
102
}
330
345
100
AcDbXrecord
280
     1
270
     1
271
     1
  0
XRECORD
  5
349
102
{ACAD_REACTORS
330
345
102
}
330
345
100
AcDbXrecord
280
     1
270
     1
271
     1
  0
XRECORD
  5
34B
102
{ACAD_REACTORS
330
345
102
}
330
345
100
AcDbXrecord
280
     1
270
     1
271
     1
  0
XRECORD
  5
348
102
{ACAD_REACTORS
330
345
102
}
330
345
100
AcDbXrecord
280
     1
270
     1
271
     1
  0
XRECORD
  5
33F
102
{ACAD_REACTORS
330
33D
102
}
330
33D
100
AcDbXrecord
280
     1
270
     1
271
     1
  0
XRECORD
  5
33E
102
{ACAD_REACTORS
330
33D
102
}
330
33D
100
AcDbXrecord
280
     1
270
     1
271
     1
  0
XRECORD
  5
342
102
{ACAD_REACTORS
330
33D
102
}
330
33D
100
AcDbXrecord
280
     1
270
     1
271
     1
  0
XRECORD
  5
341
102
{ACAD_REACTORS
330
33D
102
}
330
33D
100
AcDbXrecord
280
     1
270
     1
271
     1
  0
XRECORD
  5
343
102
{ACAD_REACTORS
330
33D
102
}
330
33D
100
AcDbXrecord
280
     1
270
     1
271
     1
  0
XRECORD
  5
340
102
{ACAD_REACTORS
330
33D
102
}
330
33D
100
AcDbXrecord
280
     1
270
     1
271
     1
  0
XRECORD
  5
34F
102
{ACAD_REACTORS
330
34D
102
}
330
34D
100
AcDbXrecord
280
     1
270
     1
271
     1
  0
XRECORD
  5
34E
102
{ACAD_REACTORS
330
34D
102
}
330
34D
100
AcDbXrecord
280
     1
270
     1
271
     1
  0
XRECORD
  5
352
102
{ACAD_REACTORS
330
34D
102
}
330
34D
100
AcDbXrecord
280
     1
270
     1
271
     1
  0
XRECORD
  5
351
102
{ACAD_REACTORS
330
34D
102
}
330
34D
100
AcDbXrecord
280
     1
270
     1
271
     1
  0
XRECORD
  5
353
102
{ACAD_REACTORS
330
34D
102
}
330
34D
100
AcDbXrecord
280
     1
270
     1
271
     1
  0
XRECORD
  5
350
102
{ACAD_REACTORS
330
34D
102
}
330
34D
100
AcDbXrecord
280
     1
270
     1
271
     1
  0
XRECORD
  5
3BB
102
{ACAD_REACTORS
330
3BA
102
}
330
3BA
100
AcDbXrecord
280
     1
102
DISPLAYNAME
  1
Metric50
102
FLAGS
 90
        0
  0
CELLSTYLEMAP
  5
3B9
102
{ACAD_REACTORS
330
3B8
102
}
330
3B8
100
AcDbCellStyleMap
 90
        3
300
CELLSTYLE
  1
TABLEFORMAT_BEGIN
 90
        5
170
     1
 91
        0
 92
    32768
 62
   257
 93
        1
300
CONTENTFORMAT
  1
CONTENTFORMAT_BEGIN
 90
        0
 91
        0
 92
      512
 93
        0
300

 40
0.0
140
1.0
 94
        5
 62
     0
340
11
144
6.0
309
CONTENTFORMAT_END
171
     1
301
MARGIN
  1
CELLMARGIN_BEGIN
 40
1.5
 40
1.5
 40
1.5
 40
1.5
 40
4.5
 40
4.5
309
CELLMARGIN_END
 94
        6
 95
        1
302
GRIDFORMAT
  1
GRIDFORMAT_BEGIN
 90
        0
 91
        1
 62
     0
 92
       -2
340
0
 93
        0
 40
1.125
309
GRIDFORMAT_END
 95
        2
302
GRIDFORMAT
  1
GRIDFORMAT_BEGIN
 90
        0
 91
        1
 62
     0
 92
       -2
340
0
 93
        0
 40
1.125
309
GRIDFORMAT_END
 95
        4
302
GRIDFORMAT
  1
GRIDFORMAT_BEGIN
 90
        0
 91
        1
 62
     0
 92
       -2
340
0
 93
        0
 40
1.125
309
GRIDFORMAT_END
 95
        8
302
GRIDFORMAT
  1
GRIDFORMAT_BEGIN
 90
        0
 91
        1
 62
     0
 92
       -2
340
0
 93
        0
 40
1.125
309
GRIDFORMAT_END
 95
       16
302
GRIDFORMAT
  1
GRIDFORMAT_BEGIN
 90
        0
 91
        1
 62
     0
 92
       -2
340
0
 93
        0
 40
1.125
309
GRIDFORMAT_END
 95
       32
302
GRIDFORMAT
  1
GRIDFORMAT_BEGIN
 90
        0
 91
        1
 62
     0
 92
       -2
340
0
 93
        0
 40
1.125
309
GRIDFORMAT_END
309
TABLEFORMAT_END
  1
CELLSTYLE_BEGIN
 90
        1
 91
        1
300
_TITLE
309
CELLSTYLE_END
300
CELLSTYLE
  1
TABLEFORMAT_BEGIN
 90
        5
170
     1
 91
        0
 92
        0
 62
   257
 93
        1
300
CONTENTFORMAT
  1
CONTENTFORMAT_BEGIN
 90
        0
 91
        0
 92
      512
 93
        0
300

 40
0.0
140
1.0
 94
        5
 62
     0
340
11
144
4.5
309
CONTENTFORMAT_END
171
     1
301
MARGIN
  1
CELLMARGIN_BEGIN
 40
1.5
 40
1.5
 40
1.5
 40
1.5
 40
4.5
 40
4.5
309
CELLMARGIN_END
 94
        6
 95
        1
302
GRIDFORMAT
  1
GRIDFORMAT_BEGIN
 90
        0
 91
        1
 62
     0
 92
       -2
340
0
 93
        0
 40
1.125
309
GRIDFORMAT_END
 95
        2
302
GRIDFORMAT
  1
GRIDFORMAT_BEGIN
 90
        0
 91
        1
 62
     0
 92
       -2
340
0
 93
        0
 40
1.125
309
GRIDFORMAT_END
 95
        4
302
GRIDFORMAT
  1
GRIDFORMAT_BEGIN
 90
        0
 91
        1
 62
     0
 92
       -2
340
0
 93
        0
 40
1.125
309
GRIDFORMAT_END
 95
        8
302
GRIDFORMAT
  1
GRIDFORMAT_BEGIN
 90
        0
 91
        1
 62
     0
 92
       -2
340
0
 93
        0
 40
1.125
309
GRIDFORMAT_END
 95
       16
302
GRIDFORMAT
  1
GRIDFORMAT_BEGIN
 90
        0
 91
        1
 62
     0
 92
       -2
340
0
 93
        0
 40
1.125
309
GRIDFORMAT_END
 95
       32
302
GRIDFORMAT
  1
GRIDFORMAT_BEGIN
 90
        0
 91
        1
 62
     0
 92
       -2
340
0
 93
        0
 40
1.125
309
GRIDFORMAT_END
309
TABLEFORMAT_END
  1
CELLSTYLE_BEGIN
 90
        2
 91
        1
300
_HEADER
309
CELLSTYLE_END
300
CELLSTYLE
  1
TABLEFORMAT_BEGIN
 90
        5
170
     1
 91
        0
 92
        0
 62
   257
 93
        1
300
CONTENTFORMAT
  1
CONTENTFORMAT_BEGIN
 90
        0
 91
        0
 92
      512
 93
        0
300

 40
0.0
140
1.0
 94
        2
 62
     0
340
11
144
4.5
309
CONTENTFORMAT_END
171
     1
301
MARGIN
  1
CELLMARGIN_BEGIN
 40
1.5
 40
1.5
 40
1.5
 40
1.5
 40
4.5
 40
4.5
309
CELLMARGIN_END
 94
        6
 95
        1
302
GRIDFORMAT
  1
GRIDFORMAT_BEGIN
 90
        0
 91
        1
 62
     0
 92
       -2
340
0
 93
        0
 40
1.125
309
GRIDFORMAT_END
 95
        2
302
GRIDFORMAT
  1
GRIDFORMAT_BEGIN
 90
        0
 91
        1
 62
     0
 92
       -2
340
0
 93
        0
 40
1.125
309
GRIDFORMAT_END
 95
        4
302
GRIDFORMAT
  1
GRIDFORMAT_BEGIN
 90
        0
 91
        1
 62
     0
 92
       -2
340
0
 93
        0
 40
1.125
309
GRIDFORMAT_END
 95
        8
302
GRIDFORMAT
  1
GRIDFORMAT_BEGIN
 90
        0
 91
        1
 62
     0
 92
       -2
340
0
 93
        0
 40
1.125
309
GRIDFORMAT_END
 95
       16
302
GRIDFORMAT
  1
GRIDFORMAT_BEGIN
 90
        0
 91
        1
 62
     0
 92
       -2
340
0
 93
        0
 40
1.125
309
GRIDFORMAT_END
 95
       32
302
GRIDFORMAT
  1
GRIDFORMAT_BEGIN
 90
        0
 91
        1
 62
     0
 92
       -2
340
0
 93
        0
 40
1.125
309
GRIDFORMAT_END
309
TABLEFORMAT_END
  1
CELLSTYLE_BEGIN
 90
        3
 91
        2
300
_DATA
309
CELLSTYLE_END
  0
ACAD_PROXY_OBJECT
  5
274
330
268
100
AcDbProxyObject
 90
      499
 91
      556
 95
  4980761
 70
     0
161
                12
310
5C5C
 94
        0
  0
ACAD_PROXY_OBJECT
  5
275
330
268
100
AcDbProxyObject
 90
      499
 91
      557
 95
  4980761
 70
     0
161
                96
310
5C6A0E80A0280A0280A0280FF0
 94
        0
  0
ACAD_PROXY_OBJECT
  5
276
330
268
100
AcDbProxyObject
 90
      499
 91
      558
 95
  4980761
 70
     0
161
               272
310
5C50E4050140501405014050140501405014050140D01405012C000000000000004000
340
280
 94
        0
  0
ACAD_PROXY_OBJECT
  5
277
330
268
100
AcDbProxyObject
 90
      499
 91
      559
 95
  4980761
 70
     0
161
               496
310
5C68666666666667A67E199999999999E99FD22405014050140501405014050140501405014050140501405014050140501405014050140501405014050100
340
281
 94
        0
  0
ACAD_PROXY_OBJECT
  5
278
330
268
100
AcDbProxyObject
 90
      499
 91
      560
 95
  4980761
 70
     0
161
                10
310
5C4C
 94
        0
  0
ACAD_PROXY_OBJECT
  5
279
330
268
100
AcDbProxyObject
 90
      499
 91
      561
 95
  4980761
 70
     0
161
               257
310
5C6290EA22A7D90F49F8000000000000108140000000000000420401000061804C
340
282
340
283
 94
        0
  0
ACAD_PROXY_OBJECT
  5
27A
330
268
100
AcDbProxyObject
 90
      499
 91
      562
 95
  4980761
 70
     0
161
             12823
310
5C50E411255115350141343CAEB150140501406901000000000000091013347454E545241434F2C4348532C302CD0F2BAC52C47454E54524154582C25732C2847454E4D53472067656E647767203232322940690120281A8AA2CA0282657EE0DFA028120280A0320200000000000012202668E8A9CA8A482869E588690A658
310
605995FB837E588E8A9CA8A482A8B0584AE658508E8A9C9AA68E40CECADCC8EECE406464665280D202405044E414D4540504C3FBB3C64051C40640A80000000000004E404CD1D15395149050D3CB10D214CB0C0B30FEECF18B11D15395149055160B095CCB0A11D1539354D1C819D95B991DD9C80C8C8D8A50192C3D494628
310
4953424C414E4B28504152543A4E414D45292C424C4F434B3A4E414D452C504152543A4E414D452940480A0A888AA686A480A09976B87EE80A3A80C81D0000000000100A28099A3A2A72A2920A1A79621A42996181665DAE1FB9623A2A72A2920AA2C1612B9961423A2A726A9A39033B2B7323BB39019189B94A0348090142
310
14D5105391105491101412C7AB5EF10147501904A000000000000125013347454E545241434F2C4348532C302CB1EAD7BC2C47454E54524154582C25732C2847454E4D53472067656E64776720323138294069012028426A0AA22A924A0A620282596260E7A028EA0320B40000000000001CA02668E8A9CA8A482869E58869
310
0A65860596589839E588E8A9CA8A482A8B0584AE658508E8A9C9AA68E40CECADCC8EECE406464625280D202405044E4F544540504B1B8D7A24051D40641A80000000000003E404CD1D15395149050D3CB10D214CB0C0B2C6E35E88B11D15395149055160B095CCB0A11D1539354D1C819D95B991DD9C80C8C8D4A501240480
310
A0CAC8A9C889EA480A0D7353A74D939880A3A80C83D00000000000007C809AA3A2A72A2920A1A79621A4299618165CD4E9D364E61623A2A72A2920AA2C1612B9961423A2A726A9A39033B2B7323BB39019191A14A0248090141911154D0D48C90142B078EF3FB0FA32BD880C90147501908A000000000020145013847454E5
310
45241434F2C4348532C302CC1E3BCFEC3E8CAF620322C47454E54524154582C25732C2847454E4D53472067656E6477672033362940490120284A9AA20A72220A922192028358F56BDE10192028EA03213400000000000024A026A8E8A9CA8A482869E588690A658605963D5AF784064588E8A9CA8A482A8B0584AE658508E
310
8A9C9AA68E40CECADCC8EECE4064646052809202405094D4154455249414C3240506B2C4C1CF20324051D40642A8713D0AD7A37045404D11D15395149050D3CB10D214CB0C0B2CB13073C80C8B11D15395149055160B095CCB0A11D1539354D1C819D95B991DD9C80D0C0A501240480A089A82A6A680A09AD95837E80A3A80
310
A0485A068100000000000007C809923A2A72A2920A1A79621A4299618166B6560DF9623A2A72A2920AA2C1612B9961423A2A726A9A39033B2B7323BB3901A1914A024809014154149250D1501412D696F36D01475014090C409020000000000000F9013247454E545241434F2C4348532C302CB5A5BCDB2C47454E54524154
310
582C25732C2847454E4D53472067656E6477672034332940490120281A224A6A028259EFDA73A028EA028121A81A040000000000001F202648E8A9CA8A482869E588690A658605967BF69CE588E8A9CA8A482A8B0584AE658508E8A9C9AA68E40CECADCC8EECE406868528092024050E445020000000000000510201C00030
310
C00010180000000000003E400000000000000F901073D3C4954454D3E4050180000000000003E400000000000000F901073D3C4954454D3E40501800000000000034400000000000000D101073D3C4954454D3E40501800000000000034400000000000000D101073D3C4954454D3E405029010000000000000F9000000000
310
000003E4041CF4F125511534F901418F4F1455164F9014060000000000000F9000000000000003E4041CF4F125511534F901901000000000000000F9000000000000003E40A2200000000000008204018000618048220681A048120280C882148448820348520348452028521485214814000000000000F0BF000000000000
310
3C2FD018020000C3008070000C3003373333333333B0FCCDCCCCCCCCCCEC3F000000000000031012034164050341105901A00000000000006204010000618040100006180400800061802026280A02
340
0
340
0
 94
        0
  0
ACAD_PROXY_OBJECT
  5
27B
330
268
100
AcDbProxyObject
 90
      499
 91
      563
 95
  4980761
 70
     0
161
               898
310
5C44000000000000144048CF4F11115510525317D3105091530F880A0F11115510525317D05094D4D0D053114F8A51141C9A9999999999B93F26A666666666724FC000000000000E03F400000000000000400000000000000510000000000000024408070000C30000000000000005100C
340
16
340
273
 94
        0
  0
ACAD_PROXY_OBJECT
  5
27C
330
268
100
AcDbProxyObject
 90
      499
 91
      564
 95
  4980761
 70
     0
161
               813
310
5C40B00000000000002880959E9E29A2A1AA24A7A72FA620A122A62FA324A929AA1F169E29A2A1AA24A7A72FA620A122A62FA620A9AA1F00000000000004880FF8070000C30022300E000186000000000000001220000000000000028800000000000000A204
340
41
340
273
 94
        0
  0
ACAD_PROXY_OBJECT
  5
27D
330
268
100
AcDbProxyObject
 90
      499
 91
      565
 95
  4980761
 70
     0
161
               151
310
5C680000000000000840A3D0A5723F0BD1F200
 94
        0
  0
ACAD_PROXY_OBJECT
  5
27E
330
268
100
AcDbProxyObject
 90
      499
 91
      566
 95
  4980761
 70
     0
161
                14
310
5C60
340
0
 94
        0
  0
ACAD_PROXY_OBJECT
  5
27F
330
268
100
AcDbProxyObject
 90
      499
 91
      567
 95
  4980761
 70
     0
161
              8013
310
5C5084050BA4050AA4050240506C4A3B0E520314043A013D2525633C486F6C653A63746469613E2078203C486F6C653A637464657074683E20555C503C696628657175616C28486F6C653A7461707065642C223022292C22252563222C486F6C653A6E6F6D696E616C202220782022293E3C696628657175616C28486F6C65
310
3A7461707065642C223022292C486F6C653A6469612C486F6C653A706974636864657363293E3C696628657175616C28486F6C653A7461707065642C223122292C22207820222C2222293E3C696628657175616C28486F6C653A7461707065642C223122292C486F6C653A74617064657074682C2222293E203C6966286571
310
75616C28486F6C653A7465726D696E6174696F6E2C223022292C22202F20222C2222293E3C696628657175616C28486F6C653A7465726D696E6174696F6E2C223022292C486F6C653A64657074682C2222293E4069014050340506C4A3B0E520314043B013D2525633C486F6C653A63746469613E2078203C486F6C653A637
310
4616E676C653E2525645C503C696628657175616C28486F6C653A7461707065642C223022292C22252563222C486F6C653A6E6F6D696E616C202220782022293E3C696628657175616C28486F6C653A7461707065642C223022292C486F6C653A6469612C486F6C653A706974636864657363293E3C696628657175616C284
310
86F6C653A7461707065642C223122292C22207820222C2222293E3C696628657175616C28486F6C653A7461707065642C223122292C486F6C653A74617064657074682C2222293E203C696628657175616C28486F6C653A7465726D696E6174696F6E2C223022292C22202F20222C2222293E3C696628657175616C28486F6
310
C653A7465726D696E6174696F6E2C223022292C486F6C653A64657074682C2222293E4069014050140506C4A3B0E5203140416013D3C696628657175616C28486F6C653A7461707065642C223022292C22252563222C486F6C653A6E6F6D696E616C202220782022293E3C696628657175616C28486F6C653A746170706564
310
2C223022292C486F6C653A6469612C486F6C653A706974636864657363293E3C696628657175616C28486F6C653A7461707065642C223122292C22207820222C2222293E3C696628657175616C28486F6C653A7461707065642C223122292C486F6C653A74617064657074682C2222293E203C696628657175616C28486F6C
310
653A7465726D696E6174696F6E2C223022292C22202F20222C2222293E3C696628657175616C28486F6C653A7465726D696E6174696F6E2C223022292C486F6C653A64657074682C2222293E4069014051E40506C4A3B0E520314050C3D3C535444503A444553433E40690140515AAAB8C
360
288
330
288
360
289
330
289
360
287
330
287
360
286
330
286
 94
        0
  0
ACAD_PROXY_OBJECT
  5
28A
330
268
100
AcDbProxyObject
 90
      499
 91
      569
 95
  4980761
 70
     0
161
                26
310
5C502A8C
340
269
 94
        0
  0
ACAD_PROXY_OBJECT
  5
28B
330
268
100
AcDbProxyObject
 90
      499
 91
      570
 95
  4980761
 70
     0
161
               250
310
5C5020000000000000A1000000000000002440408F0F9023C3E409A0DCFFFF8C
340
28C
340
0
340
0
340
28D
340
28E
340
28F
340
290
340
291
340
296
340
0
 94
        0
  0
ACAD_PROXY_OBJECT
  5
297
330
268
100
AcDbProxyObject
 90
      499
 91
      571
 95
  4980761
 70
     0
161
             13517
310
5C51C009030300030000000000000310200800030C01030300030000000000000310200800030C000508D7F8B1EAC1D0B1ED014DD1D15395149050D3CB10D214CB0C0B35FE2C7AB0742C7B4B11D15395149055160B095CCB0A11D1539354D1C819D95B991A5B5E880CCC0A78000C0000000000000000000000000000000100
310
00000000000310200800030C010000000000000310200800030C0201412FF5EC7B4053347454E545241434F2C4348532C302CBFD7B1ED2C47454E54524154582C25732C2847454E4D53472067656E64696D7A20333129E00030000000000000000000000000000000040000000000000C408020000C30040000000000000C4
310
08020000C30090D44111409034110541D0C4350F4050E44D03449074510F00014131BC2D78C053247454E545241434F2C4348532C302CC6F0B5E32C47454E54524154582C25732C2847454E4D53472067656E64696D7A203129000101040022140002815FEB80A608E8A9CA8A482869E588690A65860597FAE588E8A9CA8A4
310
82A8B0584AE658508E8A9C9AA68E40CECADCC8D2DAF4406452029E9E9E27B934B3B4B71F1E24A31427A91424A9A12620A7259427B934B3B4B7149624A9A12620A7259424BA32B6949496111116111711149F1E24BA32B69F00808200111A000140560052F47454E545241434F2C4348532C302C582C47454E54524154582C2
310
5732C2847454E4D53472067656E64696D7A20332900010100002054000280AC80A5E8E8A9CA8A482869E588690A6586058B2588E8A9CA8A482A8B0584AE658508E8A9C9AA68E40CECADCC8D2DAF4406852000202000040E800050152014BD1D15395149050D3CB10D214CB0C0B148B11D15395149055160B095CCB0A11D153
310
9354D1C819D95B991A5B5E880D8A400040400008250000A30F6B8CCA6F2DAC4DED8F8C460F8D260F8C664F8E06076D4FA02A323A2A72A2920A1A79621A4299618163DAE3329BCB6B137B63E31183E34983E31993E38181DB53E9623A2A72A2920AA2C1612B9961423A2A726A9A39033B2B73234B6BD101B948000808180105
310
A000140A9B54053047454E545241434F2C4348532C302CA6D52C47454E54524154582C25732C2847454E4D53472067656E64696D7A203829000101010020F400028265DAE1FB80A668E8A9CA8A482869E588690A6586059976B87EE588E8A9CA8A482A8B0584AE658508E8A9C9AA68E40CECADCC8D2DAF4406460520002000
310
8004328000504B1EAD7BC014CD1D15395149050D3CB10D214CB0C0B2C7AB5EF0B11D15395149055160B095CCB0A11D1539354D1C819D95B991A5B5E880C8C4A4000400100086D0000A098DE16BC6029923A2A72A2920A1A79621A42996181663785AF19623A2A72A2920AA2C1612B9961423A2A726A9A39033B2B73234B6BD
310
10189480A02620202080043E8000504D0F2BAC5014CD1D15395149050D3CB10D214CB0C0B343CAEB14B11D15395149055160B095CCB0A11D1539354D1C819D95B991A5B5E880C4D0A4000404140280D0000A0997EFA5FA0299A3A2A72A2920A1A79621A42996181665FBE97E9623A2A72A2920AA2C1612B9961423A2A726A9
310
A39033B2B73234B6BD10189A94800080828050EA000141AFF5F2FDF4BF4053547454E545241434F2C4348532C302CBFD7CBF7D2FD2C47454E54524154582C25732C2847454E4D53472067656E64696D7A20313729000101050022740002815FEB80A628E8A9CA8A482869E588690A65860597FAE588E8A9CA8A482A8B0584A
310
E658508E8A9C9AA68E40CECADCC8D2DAF440626C52000202080044A8000504CAFDC1BF014CD1D15395149050D3CB10D214CB0C0B32BF706FCB11D15395149055160B095CCB0A11D1539354D1C819D95B991A5B5E880C4E4A400040418008A521E000000000000001CA040C0000000000003440808000000000000688101000
310
0000000000D102040000000000001A204080000000000003440818000000000000728103000000000000125020600000000004028A040000000000000034408000000000000004881000000000000000D102000000000000001A204000000000000003440818000000000000508143C0000000000000039408180000000000
310
006881030000000000000D102060000000000001A2040C00000000000034408180000000000006881030000000000000E5020600000000000024A040C000000000080514080000000000000068810000000000000009102000000000000001A2040000000000000034408180000000000006881030000000000000A1028422
310
000000087800000202000000838000002040000008180000020800000082800000202890000004
340
0
340
0
340
0
340
0
340
273
340
273
 94
        0
  0
ACAD_PROXY_OBJECT
  5
298
330
268
100
AcDbProxyObject
 90
      499
 91
      572
 95
  4980761
 70
     0
161
              7474
310
5C59740D254D3D0649534F5F4133429254D3D7D5125513115051349534F5F42525F5265766973696F6E6C69737446114413378372028343230783230383020BAC1C3D729421254D3D7D04CDE0DD14413478392028323937783138393220BAC1C3D729421254D3D7D04D1E0E514413478362028323937783132363120BAC1C3
310
D729421254D3D7D04D1E0D9144134783420283239377838343120BAC1C3D72920421254D3D7D04D1E0D1134134783320283239377836333020BAC1C3D729421254D3D7D04D1E0CD14413278342028353934783136383220BAC1C3D729421254D3D7D04C9E0D114413278352028353934783231303220BAC1C3D729421254D3
310
D7D04C9E0D51541307833202831313839783235323320BAC1C3D729421254D3D7D04C1E0CD1341302028383430783131383820BAC1C3D72920419254D3D7D04C114413178342028383430783233373820BAC1C3D729421254D3D7D04C5E0D114413478382028323937783136383220BAC1C3D729421254D3D7D04D1E0E1144
310
13278332028353934783132363120BAC1C3D729421254D3D7D04C9E0CD11413320283239377834323020BAC1C3D729419254D3D7D04CD14413478352028323937783130353120BAC1C3D729421254D3D7D04D1E0D511413220283432307835393420BAC1C3D729419254D3D7D04C914413178332028383430783137383320B
310
AC1C3D729421254D3D7D04C5E0CD1541307832202831313839783136383220BAC1C3D729421254D3D7D04C1E0C911413420283239377832313020BAC1C3D729419254D3D7D04D114413378362028343230783137383320BAC1C3D729421254D3D7D04CDE0D9134133783320283432307838393120BAC1C3D729421254D3D7D
310
04CDE0CD14413478372028323937783134373120BAC1C3D729421254D3D7D04D1E0DD1241312028353934783231303220BAC1C3D729419254D3D7D04C514413378352028343230783134383620BAC1C3D729421254D3D7D04CDE0D514413378342028343230783131383920BAC1C3D729421254D3D7D04CDE0D102431254D3
310
C82C7AB338B02E081050A49534F5F5449544C4541431254D3C82C7AB338B02E081090A49534F5F5449544C45424110AB8FCB8C4C0B85F42525F44D254D3D7D09497D4995D9A5CDA5BDB9B1A5CDD10AB8FCB8C4C0B85F54525F44D254D3D7D51497D4995D9A5CDA5BDB9B1A5CDD10AB8FCB8C4C0B85F424C5F44D254D3D7D09
310
317D4995D9A5CDA5BDB9B1A5CDD10AB8FCB8C4C0B85F544C5F44D254D3D7D51317D4995D9A5CDA5BDB9B1A5CDD0C
 94
        0
  0
ACAD_PROXY_OBJECT
  5
288
330
0
100
AcDbProxyObject
 90
      499
 91
      568
 95
  4980761
 70
     0
161
              2616
310
5C60141B128EC39480C4043A013D2525633C486F6C653A63746469613E2078203C486F6C653A637464657074683E20555C503C696628657175616C28486F6C653A7461707065642C223022292C22252563222C486F6C653A6E6F6D696E616C202220782022293E3C696628657175616C28486F6C653A7461707065642C2230
310
22292C486F6C653A6469612C486F6C653A706974636864657363293E3C696628657175616C28486F6C653A7461707065642C223122292C22207820222C2222293E3C696628657175616C28486F6C653A7461707065642C223122292C486F6C653A74617064657074682C2222293E203C696628657175616C28486F6C653A74
310
65726D696E6174696F6E2C223022292C22202F20222C2222293E3C696628657175616C28486F6C653A7465726D696E6174696F6E2C223022292C486F6C653A64657074682C2222293E00
 94
        0
  0
ACAD_PROXY_OBJECT
  5
289
330
0
100
AcDbProxyObject
 90
      499
 91
      568
 95
  4980761
 70
     0
161
              2624
310
5C60141B128EC39480C4043B013D2525633C486F6C653A63746469613E2078203C486F6C653A6374616E676C653E2525645C503C696628657175616C28486F6C653A7461707065642C223022292C22252563222C486F6C653A6E6F6D696E616C202220782022293E3C696628657175616C28486F6C653A7461707065642C22
310
3022292C486F6C653A6469612C486F6C653A706974636864657363293E3C696628657175616C28486F6C653A7461707065642C223122292C22207820222C2222293E3C696628657175616C28486F6C653A7461707065642C223122292C486F6C653A74617064657074682C2222293E203C696628657175616C28486F6C653A
310
7465726D696E6174696F6E2C223022292C22202F20222C2222293E3C696628657175616C28486F6C653A7465726D696E6174696F6E2C223022292C486F6C653A64657074682C2222293E10
 94
        0
  0
ACAD_PROXY_OBJECT
  5
287
330
0
100
AcDbProxyObject
 90
      499
 91
      568
 95
  4980761
 70
     0
161
              2328
310
5C60141B128EC39480C40416013D3C696628657175616C28486F6C653A7461707065642C223022292C22252563222C486F6C653A6E6F6D696E616C202220782022293E3C696628657175616C28486F6C653A7461707065642C223022292C486F6C653A6469612C486F6C653A706974636864657363293E3C69662865717561
310
6C28486F6C653A7461707065642C223122292C22207820222C2222293E3C696628657175616C28486F6C653A7461707065642C223122292C486F6C653A74617064657074682C2222293E203C696628657175616C28486F6C653A7465726D696E6174696F6E2C223022292C22202F20222C2222293E3C696628657175616C28
310
486F6C653A7465726D696E6174696F6E2C223022292C486F6C653A64657074682C2222293E11
 94
        0
  0
ACAD_PROXY_OBJECT
  5
286
330
0
100
AcDbProxyObject
 90
      499
 91
      568
 95
  4980761
 70
     0
161
               192
310
5C60141B128EC39480C4050C3D3C535444503A444553433E00
 94
        0
  0
ENDSEC
  0
EOF
