  0
SECTION
  2
HEADER
  9
$ACADVER
  1
AC1027
  9
$ACADMAINTVER
 70
   125
  9
$DWGCODEPAGE
  3
ANSI_1252
  9
$LASTSAVEDBY
  1
fleminab
  9
$REQUIREDVERSIONS
160
                 0
  9
$INSBASE
 10
0.0
 20
0.0
 30
0.0
  9
$EXTMIN
 10
-1489.916871243649
 20
-2612.468505069764
 30
-0.000000000000013
  9
$EXTMAX
 10
-1038.544731395617
 20
-2398.421014199726
 30
0.0000000000000023
  9
$LIMMIN
 10
0.0
 20
0.0
  9
$LIMMAX
 10
0.0
 20
0.0
  9
$ORTHOMODE
 70
     0
  9
$REGENMODE
 70
     1
  9
$FILLMODE
 70
     1
  9
$QTEXTMODE
 70
     0
  9
$MIRRTEXT
 70
     1
  9
$LTSCALE
 40
0.25
  9
$ATTMODE
 70
     1
  9
$TEXTSIZE
 40
2.5
  9
$TRACEWID
 40
1.0
  9
$TEXTSTYLE
  7
Standard
  9
$CLAYER
  8
0
  9
$CELTYPE
  6
ByLayer
  9
$CECOLOR
 62
   256
  9
$CELTSCALE
 40
0.5
  9
$DISPSILH
 70
     0
  9
$DIMSCALE
 40
1.0
  9
$DIMASZ
 40
5.0
  9
$DIMEXO
 40
0.625
  9
$DIMDLI
 40
3.75
  9
$DIMRND
 40
0.0
  9
$DIMDLE
 40
0.0
  9
$DIMEXE
 40
1.25
  9
$DIMTP
 40
0.0
  9
$DIMTM
 40
0.0
  9
$DIMTXT
 40
6.0
  9
$DIMCEN
 40
2.5
  9
$DIMTSZ
 40
0.0
  9
$DIMTOL
 70
     0
  9
$DIMLIM
 70
     0
  9
$DIMTIH
 70
     0
  9
$DIMTOH
 70
     0
  9
$DIMSE1
 70
     0
  9
$DIMSE2
 70
     0
  9
$DIMTAD
 70
     1
  9
$DIMZIN
 70
     8
  9
$DIMBLK
  1

  9
$DIMASO
 70
     1
  9
$DIMSHO
 70
     1
  9
$DIMPOST
  1

  9
$DIMAPOST
  1

  9
$DIMALT
 70
     0
  9
$DIMALTD
 70
     3
  9
$DIMALTF
 40
0.03937007874016
  9
$DIMLFAC
 40
1.0
  9
$DIMTOFL
 70
     1
  9
$DIMTVP
 40
0.0
  9
$DIMTIX
 70
     0
  9
$DIMSOXD
 70
     0
  9
$DIMSAH
 70
     0
  9
$DIMBLK1
  1

  9
$DIMBLK2
  1

  9
$DIMSTYLE
  2
ISO-25
  9
$DIMCLRD
 70
     0
  9
$DIMCLRE
 70
     0
  9
$DIMCLRT
 70
     0
  9
$DIMTFAC
 40
1.0
  9
$DIMGAP
 40
0.625
  9
$DIMJUST
 70
     0
  9
$DIMSD1
 70
     0
  9
$DIMSD2
 70
     0
  9
$DIMTOLJ
 70
     0
  9
$DIMTZIN
 70
     8
  9
$DIMALTZ
 70
     0
  9
$DIMALTTZ
 70
     0
  9
$DIMUPT
 70
     0
  9
$DIMDEC
 70
     2
  9
$DIMTDEC
 70
     2
  9
$DIMALTU
 70
     2
  9
$DIMALTTD
 70
     3
  9
$DIMTXSTY
  7
Standard
  9
$DIMAUNIT
 70
     0
  9
$DIMADEC
 70
     0
  9
$DIMALTRND
 40
0.0
  9
$DIMAZIN
 70
     0
  9
$DIMDSEP
 70
    46
  9
$DIMATFIT
 70
     3
  9
$DIMFRAC
 70
     0
  9
$DIMLDRBLK
  1

  9
$DIMLUNIT
 70
     2
  9
$DIMLWD
 70
    -2
  9
$DIMLWE
 70
    -2
  9
$DIMTMOVE
 70
     0
  9
$DIMFXL
 40
1.25
  9
$DIMFXLON
 70
     0
  9
$DIMJOGANG
 40
1.570796326794896
  9
$DIMTFILL
 70
     0
  9
$DIMTFILLCLR
 70
     0
  9
$DIMARCSYM
 70
     0
  9
$DIMLTYPE
  6

  9
$DIMLTEX1
  6

  9
$DIMLTEX2
  6

  9
$DIMTXTDIRECTION
 70
     0
  9
$LUNITS
 70
     2
  9
$LUPREC
 70
     4
  9
$SKETCHINC
 40
1.0
  9
$FILLETRAD
 40
1.5
  9
$AUNITS
 70
     0
  9
$AUPREC
 70
     0
  9
$MENU
  1
.
  9
$ELEVATION
 40
0.0
  9
$PELEVATION
 40
0.0
  9
$THICKNESS
 40
0.0
  9
$LIMCHECK
 70
     0
  9
$CHAMFERA
 40
0.5
  9
$CHAMFERB
 40
0.5
  9
$CHAMFERC
 40
20.0
  9
$CHAMFERD
 40
0.0
  9
$SKPOLY
 70
     0
  9
$TDCREATE
 40
2454454.816539352
  9
$TDUCREATE
 40
2454454.358216864
  9
$TDUPDATE
 40
2458219.413437500
  9
$TDUUPDATE
 40
2458218.996770833
  9
$TDINDWG
 40
8.7937623380
  9
$TDUSRTIMER
 40
8.7937623380
  9
$USRTIMER
 70
     1
  9
$ANGBASE
 50
0.0
  9
$ANGDIR
 70
     0
  9
$PDMODE
 70
     0
  9
$PDSIZE
 40
-1.0
  9
$PLINEWID
 40
0.0
  9
$SPLFRAME
 70
     0
  9
$SPLINETYPE
 70
     6
  9
$SPLINESEGS
 70
     8
  9
$HANDSEED
  5
101F4C6
  9
$SURFTAB1
 70
     6
  9
$SURFTAB2
 70
     6
  9
$SURFTYPE
 70
     6
  9
$SURFU
 70
     6
  9
$SURFV
 70
     6
  9
$UCSBASE
  2

  9
$UCSNAME
  2

  9
$UCSORG
 10
0.0
 20
0.0
 30
0.0
  9
$UCSXDIR
 10
1.0
 20
0.0
 30
0.0
  9
$UCSYDIR
 10
0.0
 20
1.0
 30
0.0
  9
$UCSORTHOREF
  2

  9
$UCSORTHOVIEW
 70
     0
  9
$UCSORGTOP
 10
0.0
 20
0.0
 30
0.0
  9
$UCSORGBOTTOM
 10
0.0
 20
0.0
 30
0.0
  9
$UCSORGLEFT
 10
0.0
 20
0.0
 30
0.0
  9
$UCSORGRIGHT
 10
0.0
 20
0.0
 30
0.0
  9
$UCSORGFRONT
 10
0.0
 20
0.0
 30
0.0
  9
$UCSORGBACK
 10
0.0
 20
0.0
 30
0.0
  9
$PUCSBASE
  2

  9
$PUCSNAME
  2

  9
$PUCSORG
 10
0.0
 20
0.0
 30
0.0
  9
$PUCSXDIR
 10
1.0
 20
0.0
 30
0.0
  9
$PUCSYDIR
 10
0.0
 20
1.0
 30
0.0
  9
$PUCSORTHOREF
  2

  9
$PUCSORTHOVIEW
 70
     0
  9
$PUCSORGTOP
 10
0.0
 20
0.0
 30
0.0
  9
$PUCSORGBOTTOM
 10
0.0
 20
0.0
 30
0.0
  9
$PUCSORGLEFT
 10
0.0
 20
0.0
 30
0.0
  9
$PUCSORGRIGHT
 10
0.0
 20
0.0
 30
0.0
  9
$PUCSORGFRONT
 10
0.0
 20
0.0
 30
0.0
  9
$PUCSORGBACK
 10
0.0
 20
0.0
 30
0.0
  9
$USERI1
 70
     0
  9
$USERI2
 70
     0
  9
$USERI3
 70
     0
  9
$USERI4
 70
     0
  9
$USERI5
 70
     0
  9
$USERR1
 40
0.0
  9
$USERR2
 40
0.0
  9
$USERR3
 40
0.0
  9
$USERR4
 40
0.0
  9
$USERR5
 40
2.5
  9
$WORLDVIEW
 70
     1
  9
$SHADEDGE
 70
     3
  9
$SHADEDIF
 70
    70
  9
$TILEMODE
 70
     1
  9
$MAXACTVP
 70
    64
  9
$PINSBASE
 10
0.0
 20
0.0
 30
0.0
  9
$PLIMCHECK
 70
     0
  9
$PEXTMIN
 10
1.000000000000000E+20
 20
1.000000000000000E+20
 30
1.000000000000000E+20
  9
$PEXTMAX
 10
-1.000000000000000E+20
 20
-1.000000000000000E+20
 30
-1.000000000000000E+20
  9
$PLIMMIN
 10
0.0
 20
0.0
  9
$PLIMMAX
 10
420.0
 20
297.0
  9
$UNITMODE
 70
     0
  9
$VISRETAIN
 70
     1
  9
$PLINEGEN
 70
     0
  9
$PSLTSCALE
 70
     1
  9
$TREEDEPTH
 70
  3020
  9
$CMLSTYLE
  2
Standard
  9
$CMLJUST
 70
     0
  9
$CMLSCALE
 40
20.0
  9
$PROXYGRAPHICS
 70
     1
  9
$MEASUREMENT
 70
     1
  9
$CELWEIGHT
370
    -2
  9
$ENDCAPS
280
     0
  9
$JOINSTYLE
280
     0
  9
$LWDISPLAY
290
     0
  9
$INSUNITS
 70
     4
  9
$HYPERLINKBASE
  1

  9
$STYLESHEET
  1
monochrome.ctb
  9
$XEDIT
290
     1
  9
$CEPSNTYPE
380
     0
  9
$PSTYLEMODE
290
     1
  9
$FINGERPRINTGUID
  2
{A12051D7-B147-4678-A729-AB49B70941BD}
  9
$VERSIONGUID
  2
{F06BA508-1164-B446-99E2-525B1714C5D1}
  9
$EXTNAMES
290
     1
  9
$PSVPSCALE
 40
0.0
  9
$OLESTARTUP
290
     0
  9
$SORTENTS
280
   127
  9
$INDEXCTL
280
     0
  9
$HIDETEXT
280
     0
  9
$XCLIPFRAME
280
     0
  9
$HALOGAP
280
     0
  9
$OBSCOLOR
 70
   257
  9
$OBSLTYPE
280
     0
  9
$INTERSECTIONDISPLAY
280
     0
  9
$INTERSECTIONCOLOR
 70
   257
  9
$DIMASSOC
280
     1
  9
$PROJECTNAME
  1

  9
$CAMERADISPLAY
290
     0
  9
$LENSLENGTH
 40
50.0
  9
$CAMERAHEIGHT
 40
0.0
  9
$STEPSPERSEC
 40
2.0
  9
$STEPSIZE
 40
6.0
  9
$3DDWFPREC
 40
2.0
  9
$PSOLWIDTH
 40
0.25
  9
$PSOLHEIGHT
 40
4.0
  9
$LOFTANG1
 40
1.570796326794896
  9
$LOFTANG2
 40
1.570796326794896
  9
$LOFTMAG1
 40
0.0
  9
$LOFTMAG2
 40
0.0
  9
$LOFTPARAM
 70
     7
  9
$LOFTNORMALS
280
     1
  9
$LATITUDE
 40
37.795
  9
$LONGITUDE
 40
-122.394
  9
$NORTHDIRECTION
 40
0.0
  9
$TIMEZONE
 70
 -8000
  9
$LIGHTGLYPHDISPLAY
280
     1
  9
$TILEMODELIGHTSYNCH
280
     1
  9
$CMATERIAL
347
1D246
  9
$SOLIDHIST
280
     1
  9
$SHOWHIST
280
     1
  9
$DWFFRAME
280
     2
  9
$DGNFRAME
280
     0
  9
$REALWORLDSCALE
290
     1
  9
$INTERFERECOLOR
 62
     1
  9
$INTERFEREOBJVS
345
1D260
  9
$INTERFEREVPVS
346
1D25D
  9
$CSHADOW
280
     0
  9
$SHADOWPLANELOCATION
 40
0.0
  0
ENDSEC
  0
SECTION
  2
CLASSES
  0
CLASS
  1
ACDBDICTIONARYWDFLT
  2
AcDbDictionaryWithDefault
  3
ObjectDBX Classes
 90
        0
 91
        1
280
     0
281
     0
  0
CLASS
  1
TABLESTYLE
  2
AcDbTableStyle
  3
ObjectDBX Classes
 90
     4095
 91
        1
280
     0
281
     0
  0
CLASS
  1
SORTENTSTABLE
  2
AcDbSortentsTable
  3
ObjectDBX Classes
 90
        0
 91
        2
280
     0
281
     0
  0
CLASS
  1
DICTIONARYVAR
  2
AcDbDictionaryVar
  3
ObjectDBX Classes
 90
        0
 91
       14
280
     0
281
     0
  0
CLASS
  1
DIMASSOC
  2
AcDbDimAssoc
  3
"AcDbDimAssoc|Product Desc:     AcDim ARX App For Dimension|Company:          Autodesk, Inc.|WEB Address:      www.autodesk.com"
 90
        0
 91
        0
280
     0
281
     0
  0
CLASS
  1
ARC_DIMENSION
  2
AcDbArcDimension
  3
ObjectDBX Classes
 90
     1025
 91
        0
280
     0
281
     1
  0
CLASS
  1
VLO-VL
  2
vlo_VL
  3
VL|AutoLISP based application
 90
      129
 91
        1
280
     0
281
     0
  0
CLASS
  1
MATERIAL
  2
AcDbMaterial
  3
ObjectDBX Classes
 90
     1153
 91
        3
280
     0
281
     0
  0
CLASS
  1
VISUALSTYLE
  2
AcDbVisualStyle
  3
ObjectDBX Classes
 90
     4095
 91
       26
280
     0
281
     0
  0
CLASS
  1
SCALE
  2
AcDbScale
  3
ObjectDBX Classes
 90
     1153
 91
       17
280
     0
281
     0
  0
CLASS
  1
MLEADERSTYLE
  2
AcDbMLeaderStyle
  3
ACDB_MLEADERSTYLE_CLASS
 90
     4095
 91
        1
280
     0
281
     0
  0
CLASS
  1
CELLSTYLEMAP
  2
AcDbCellStyleMap
  3
ObjectDBX Classes
 90
     1152
 91
        2
280
     0
281
     0
  0
CLASS
  1
ACDBSECTIONVIEWSTYLE
  2
AcDbSectionViewStyle
  3
ObjectDBX Classes
 90
     1025
 91
        1
280
     0
281
     0
  0
CLASS
  1
ACDBDETAILVIEWSTYLE
  2
AcDbDetailViewStyle
  3
ObjectDBX Classes
 90
     1025
 91
        1
280
     0
281
     0
  0
ENDSEC
  0
SECTION
  2
TABLES
  0
TABLE
  2
VPORT
  5
8
102
{ACAD_XDICTIONARY
360
1E383
102
}
330
0
100
AcDbSymbolTable
 70
     1
1001
ACAD
1000
DbSaveVer
1071
        5
  0
VPORT
  5
1D244
330
8
100
AcDbSymbolTableRecord
100
AcDbViewportTableRecord
  2
*Active
 70
     0
 10
0.0
 20
0.0
 11
1.0
 21
1.0
 12
-1264.230801319633
 22
-2505.444759634745
 13
0.0
 23
0.0
 14
10.0
 24
10.0
 15
10.0
 25
10.0
 16
0.0
 26
0.0
 36
1.0
 17
0.0
 27
0.0
 37
0.0
 40
215.5800504705394
 41
2.292712066905615
 42
50.0
 43
0.0
 44
0.0
 50
0.0
 51
0.0
 71
     0
 72
  2000
 73
     1
 74
     3
 75
     0
 76
     0
 77
     0
 78
     0
281
     0
 65
     1
110
0.0
120
0.0
130
0.0
111
1.0
121
0.0
131
0.0
112
0.0
122
1.0
132
0.0
 79
     0
146
0.0
348
1D25C
 60
     3
 61
     5
292
     1
282
     1
141
0.0
142
0.0
 63
   250
421
  3355443
1001
ACAD_NAV_VCDISPLAY
1070
     3
  0
ENDTAB
  0
TABLE
  2
LTYPE
  5
5
330
0
100
AcDbSymbolTable
 70
     5
  0
LTYPE
  5
14
330
5
100
AcDbSymbolTableRecord
100
AcDbLinetypeTableRecord
  2
ByBlock
 70
     0
  3

 72
    65
 73
     0
 40
0.0
  0
LTYPE
  5
15
330
5
100
AcDbSymbolTableRecord
100
AcDbLinetypeTableRecord
  2
ByLayer
 70
     0
  3

 72
    65
 73
     0
 40
0.0
  0
LTYPE
  5
16
330
5
100
AcDbSymbolTableRecord
100
AcDbLinetypeTableRecord
  2
Continuous
 70
     0
  3
Solid line
 72
    65
 73
     0
 40
0.0
  0
LTYPE
  5
40E
330
5
100
AcDbSymbolTableRecord
100
AcDbLinetypeTableRecord
  2
CENTER2
 70
     0
  3
Center (.5x) ___ _ ___ _ ___ _ ___ _ ___ _ ___
 72
    65
 73
     4
 40
28.575
 49
19.05
 74
     0
 49
-3.174999999999999
 74
     0
 49
3.174999999999999
 74
     0
 49
-3.174999999999999
 74
     0
  0
LTYPE
  5
1ADDC
330
5
100
AcDbSymbolTableRecord
100
AcDbLinetypeTableRecord
  2
CENTER
 70
     0
  3
Center ____ _ ____ _ ____ _ ____ _ ____ _ ____
 72
    65
 73
     4
 40
50.8
 49
31.75
 74
     0
 49
-6.349999999999999
 74
     0
 49
6.349999999999999
 74
     0
 49
-6.349999999999999
 74
     0
  0
LTYPE
  5
1C3BF
330
5
100
AcDbSymbolTableRecord
100
AcDbLinetypeTableRecord
  2
HIDDEN
 70
     0
  3
- - - - - - - - - - - - - - - - - - - -
 72
    65
 73
     2
 40
0.2
 49
0.1
 74
     0
 49
-0.1
 74
     0
  0
LTYPE
  5
1E3C7
330
5
100
AcDbSymbolTableRecord
100
AcDbLinetypeTableRecord
  2
DASHED2
 70
     0
  3
Dashed (.5x) _ _ _ _ _ _ _ _ _ _ _ _ _ _ _ _ _
 72
    65
 73
     2
 40
9.524999999999998
 49
6.349999999999999
 74
     0
 49
-3.174999999999999
 74
     0
  0
ENDTAB
  0
TABLE
  2
LAYER
  5
2
102
{ACAD_XDICTIONARY
360
411
102
}
330
0
100
AcDbSymbolTable
 70
     7
  0
LAYER
  5
10
102
{ACAD_XDICTIONARY
360
1D4B7
102
}
330
2
100
AcDbSymbolTableRecord
100
AcDbLayerTableRecord
  2
0
 70
     0
 62
     7
  6
Continuous
370
    50
390
F
347
1B62A
348
0
  0
LAYER
  5
20A
330
2
100
AcDbSymbolTableRecord
100
AcDbLayerTableRecord
  2
Defpoints
 70
     0
 62
     7
  6
Continuous
290
     0
370
    -3
390
F
347
1B62A
348
0
  0
LAYER
  5
40A
102
{ACAD_XDICTIONARY
360
1D4B9
102
}
330
2
100
AcDbSymbolTableRecord
100
AcDbLayerTableRecord
  2
中心线
 70
     0
 62
     1
  6
CENTER2
370
    -3
390
F
347
1B62A
348
0
1001
AcAecLayerStandard
1000

1000

1001
AcadStringInfo
1000
MIFCodePage
1070
     5
  0
LAYER
  5
CAF2
102
{ACAD_XDICTIONARY
360
1D4C5
102
}
330
2
100
AcDbSymbolTableRecord
100
AcDbLayerTableRecord
  2
图层7
 70
     0
 62
     7
  6
Continuous
370
    15
390
F
347
1B62A
348
0
1001
AcadStringInfo
1000
MIFCodePage
1070
     5
  0
LAYER
  5
1ADDE
102
{ACAD_XDICTIONARY
360
1D4C7
102
}
330
2
100
AcDbSymbolTableRecord
100
AcDbLayerTableRecord
  2
图层1
 70
     0
 62
     1
  6
CENTER
370
     9
390
F
347
1B62A
348
0
1001
AcadStringInfo
1000
MIFCodePage
1070
     5
  0
LAYER
  5
1C3C0
102
{ACAD_XDICTIONARY
360
1D4CD
102
}
330
2
100
AcDbSymbolTableRecord
100
AcDbLayerTableRecord
  2
DEFAULT_2
 70
     0
 62
     8
  6
HIDDEN
370
    -3
390
F
347
1B62A
348
0
  0
LAYER
  5
1C3C1
102
{ACAD_XDICTIONARY
360
1D4CF
102
}
330
2
100
AcDbSymbolTableRecord
100
AcDbLayerTableRecord
  2
02___PRT_ALL_AXES
 70
     0
 62
     7
  6
Continuous
370
    -3
390
F
347
1B62A
348
0
  0
ENDTAB
  0
TABLE
  2
STYLE
  5
3
330
0
100
AcDbSymbolTable
 70
     3
  0
STYLE
  5
11
330
3
100
AcDbSymbolTableRecord
100
AcDbTextStyleTableRecord
  2
Standard
 70
     0
 40
0.0
 41
1.0
 50
0.0
 71
     0
 42
2.5
  3
times.ttf
  4

1001
ACAD
1000
Times New Roman
1071
       18
  0
STYLE
  5
281F
330
3
100
AcDbSymbolTableRecord
100
AcDbTextStyleTableRecord
  2
样式 1
 70
     0
 40
2.5
 41
1.0
 50
0.0
 71
     0
 42
2.5
  3

  4

1001
ACAD
1000
SimSun
1071
    34306
1001
AcadStringInfo
1000
MIFCodePage
1070
     5
  0
STYLE
  5
1E2ED
330
3
100
AcDbSymbolTableRecord
100
AcDbTextStyleTableRecord
  2

 70
     1
 40
0.0
 41
1.0
 50
0.0
 71
     0
 42
2.5
  3
ltypeshp.shx
  4

  0
ENDTAB
  0
TABLE
  2
VIEW
  5
6
330
0
100
AcDbSymbolTable
 70
     0
  0
ENDTAB
  0
TABLE
  2
UCS
  5
7
330
0
100
AcDbSymbolTable
 70
     0
  0
ENDTAB
  0
TABLE
  2
APPID
  5
9
330
0
100
AcDbSymbolTable
 70
    23
  0
APPID
  5
12
330
9
100
AcDbSymbolTableRecord
100
AcDbRegAppTableRecord
  2
ACAD
 70
     0
  0
APPID
  5
26F
330
9
100
AcDbSymbolTableRecord
100
AcDbRegAppTableRecord
  2
ACAD_DSTYLE_DIMTEXT_FILL
 70
     0
  0
APPID
  5
270
330
9
100
AcDbSymbolTableRecord
100
AcDbRegAppTableRecord
  2
ACAD_DSTYLE_DIMEXT_LENGTH
 70
     0
  0
APPID
  5
271
330
9
100
AcDbSymbolTableRecord
100
AcDbRegAppTableRecord
  2
ACAD_DSTYLE_DIMEXT_ENABLED
 70
     0
  0
APPID
  5
272
330
9
100
AcDbSymbolTableRecord
100
AcDbRegAppTableRecord
  2
ACAD_DSTYLE_DIM_LINETYPE
 70
     0
  0
APPID
  5
273
330
9
100
AcDbSymbolTableRecord
100
AcDbRegAppTableRecord
  2
ACAD_DSTYLE_DIM_EXT1_LINETYPE
 70
     0
  0
APPID
  5
274
330
9
100
AcDbSymbolTableRecord
100
AcDbRegAppTableRecord
  2
ACAD_DSTYLE_DIM_EXT2_LINETYPE
 70
     0
  0
APPID
  5
330
330
9
100
AcDbSymbolTableRecord
100
AcDbRegAppTableRecord
  2
ACAD_DSTYLE_DIMJOGGED_JOGANGLE_SYMBOL
 70
     0
  0
APPID
  5
3C4
330
9
100
AcDbSymbolTableRecord
100
AcDbRegAppTableRecord
  2
ACAD_DSTYLE_DIMARC_LENGTH_SYMBOL
 70
     0
  0
APPID
  5
3FB
330
9
100
AcDbSymbolTableRecord
100
AcDbRegAppTableRecord
  2
ACAD_EXEMPT_FROM_CAD_STANDARDS
 70
     0
  0
APPID
  5
40B
330
9
100
AcDbSymbolTableRecord
100
AcDbRegAppTableRecord
  2
AcAecLayerStandard
 70
     0
  0
APPID
  5
5D3
330
9
100
AcDbSymbolTableRecord
100
AcDbRegAppTableRecord
  2
ACAD_PSEXT
 70
     0
  0
APPID
  5
AB62
330
9
100
AcDbSymbolTableRecord
100
AcDbRegAppTableRecord
  2
DCO15
 70
     0
  0
APPID
  5
1B627
330
9
100
AcDbSymbolTableRecord
100
AcDbRegAppTableRecord
  2
ACAD_DSTYLE_DIMJAG
 70
     0
  0
APPID
  5
1B628
330
9
100
AcDbSymbolTableRecord
100
AcDbRegAppTableRecord
  2
ACAD_DSTYLE_DIMTALN
 70
     0
  0
APPID
  5
1B629
330
9
100
AcDbSymbolTableRecord
100
AcDbRegAppTableRecord
  2
ACAD_DSTYLE_DIMBREAK
 70
     0
  0
APPID
  5
1D5E0
330
9
100
AcDbSymbolTableRecord
100
AcDbRegAppTableRecord
  2
ACAD_MLEADERVER
 70
     0
  0
APPID
  5
1D8EC
330
9
100
AcDbSymbolTableRecord
100
AcDbRegAppTableRecord
  2
ACAD_DSTYLE_DIMRADIAL_EXTENSION
 70
     0
  0
APPID
  5
1D9D3
330
9
100
AcDbSymbolTableRecord
100
AcDbRegAppTableRecord
  2
ACAD_NAV_VCDISPLAY
 70
     0
  0
APPID
  5
1E024
330
9
100
AcDbSymbolTableRecord
100
AcDbRegAppTableRecord
  2
GradientColor1ACI
 70
     0
  0
APPID
  5
1E025
330
9
100
AcDbSymbolTableRecord
100
AcDbRegAppTableRecord
  2
GradientColor2ACI
 70
     0
  0
APPID
  5
1E3EE
330
9
100
AcDbSymbolTableRecord
100
AcDbRegAppTableRecord
  2
AcadAnnoPO
 70
     0
  0
APPID
  5
101F4AB
330
9
100
AcDbSymbolTableRecord
100
AcDbRegAppTableRecord
  2
AcadStringInfo
 70
     0
  0
ENDTAB
  0
TABLE
  2
DIMSTYLE
  5
A
330
0
100
AcDbSymbolTable
 70
     1
100
AcDbDimStyleTable
 71
     1
340
27
  0
DIMSTYLE
105
27
102
{ACAD_REACTORS
330
1F2DE
330
1F2DF
330
1F2E0
102
}
330
A
100
AcDbSymbolTableRecord
100
AcDbDimStyleTableRecord
  2
ISO-25
 70
     0
 41
5.0
 42
0.625
 43
3.75
 44
1.25
 49
1.25
 50
90.0
 73
     0
 74
     0
 77
     1
 78
     8
140
6.0
141
2.5
143
0.03937007874016
147
0.625
171
     3
172
     1
271
     2
272
     2
274
     3
283
     0
284
     8
340
11
1001
ACAD_DSTYLE_DIMJAG
1070
   388
1040
1.5
1001
ACAD_DSTYLE_DIMTALN
1070
   392
1070
     0
1001
ACAD_DSTYLE_DIMJOGGED_JOGANGLE_SYMBOL
1070
   384
1040
1.570796326794896
  0
ENDTAB
  0
TABLE
  2
BLOCK_RECORD
  5
1
330
0
100
AcDbSymbolTable
 70
     7
  0
BLOCK_RECORD
  5
1F
102
{ACAD_XDICTIONARY
360
206
102
}
330
1
100
AcDbSymbolTableRecord
100
AcDbBlockTableRecord
  2
*Model_Space
340
22
 70
     0
280
     1
281
     0
  0
BLOCK_RECORD
  5
1B
330
1
100
AcDbSymbolTableRecord
100
AcDbBlockTableRecord
  2
*Paper_Space
340
1E
 70
     0
280
     1
281
     0
  0
BLOCK_RECORD
  5
23
330
1
100
AcDbSymbolTableRecord
100
AcDbBlockTableRecord
  2
*Paper_Space0
340
26
 70
     0
280
     1
281
     0
  0
BLOCK_RECORD
  5
111D
330
1
100
AcDbSymbolTableRecord
100
AcDbBlockTableRecord
  2
_Open30
340
0
 70
     0
280
     1
281
     0
  0
BLOCK_RECORD
  5
12E9
330
1
100
AcDbSymbolTableRecord
100
AcDbBlockTableRecord
  2
_DotSmall
340
0
 70
     0
280
     1
281
     0
  0
BLOCK_RECORD
  5
1E35A
102
{ACAD_XDICTIONARY
360
1E35F
102
}
330
1
100
AcDbSymbolTableRecord
100
AcDbBlockTableRecord
  2
上—全剖方向
340
0
 70
     4
280
     1
281
     0
1001
AcadStringInfo
1000
MIFCodePage
1070
     5
  0
BLOCK_RECORD
  5
1F32C
330
1
100
AcDbSymbolTableRecord
100
AcDbBlockTableRecord
  2
*D4
340
0
 70
     0
280
     1
281
     0
  0
BLOCK_RECORD
  5
1F338
330
1
100
AcDbSymbolTableRecord
100
AcDbBlockTableRecord
  2
*D5
340
0
 70
     0
280
     1
281
     0
  0
BLOCK_RECORD
  5
1F344
330
1
100
AcDbSymbolTableRecord
100
AcDbBlockTableRecord
  2
*D6
340
0
 70
     0
280
     1
281
     0
  0
ENDTAB
  0
ENDSEC
  0
SECTION
  2
BLOCKS
  0
BLOCK
  5
20
330
1F
100
AcDbEntity
  8
0
100
AcDbBlockBegin
  2
*Model_Space
 70
     0
 10
0.0
 20
0.0
 30
0.0
  3
*Model_Space
  1

  0
ENDBLK
  5
21
330
1F
100
AcDbEntity
  8
0
100
AcDbBlockEnd
  0
BLOCK
  5
1C
330
1B
100
AcDbEntity
 67
     1
  8
0
100
AcDbBlockBegin
  2
*Paper_Space
 70
     0
 10
0.0
 20
0.0
 30
0.0
  3
*Paper_Space
  1

  0
ENDBLK
  5
1D
330
1B
100
AcDbEntity
 67
     1
  8
0
100
AcDbBlockEnd
  0
BLOCK
  5
24
330
23
100
AcDbEntity
 67
     1
  8
0
100
AcDbBlockBegin
  2
*Paper_Space0
 70
     0
 10
0.0
 20
0.0
 30
0.0
  3
*Paper_Space0
  1

  0
ENDBLK
  5
25
330
23
100
AcDbEntity
 67
     1
  8
0
100
AcDbBlockEnd
  0
BLOCK
  5
1121
330
111D
100
AcDbEntity
  8
0
 48
0.5
100
AcDbBlockBegin
  2
_Open30
 70
     0
 10
0.0
 20
0.0
 30
0.0
  3
_Open30
  1

  0
LINE
  5
111E
330
111D
100
AcDbEntity
  8
0
  6
ByBlock
 62
     0
370
    -2
100
AcDbLine
 10
-1.0
 20
0.26794919
 30
0.0
 11
0.0
 21
0.0
 31
0.0
  0
LINE
  5
111F
330
111D
100
AcDbEntity
  8
0
  6
ByBlock
 62
     0
370
    -2
100
AcDbLine
 10
0.0
 20
0.0
 30
0.0
 11
-1.0
 21
-0.26794919
 31
0.0
  0
LINE
  5
1120
330
111D
100
AcDbEntity
  8
0
  6
ByBlock
 62
     0
370
    -2
100
AcDbLine
 10
0.0
 20
0.0
 30
0.0
 11
-1.0
 21
0.0
 31
0.0
  0
ENDBLK
  5
1122
330
111D
100
AcDbEntity
  8
0
 48
0.5
100
AcDbBlockEnd
  0
BLOCK
  5
12EB
330
12E9
100
AcDbEntity
  8
0
 48
0.5
100
AcDbBlockBegin
  2
_DotSmall
 70
     0
 10
0.0
 20
0.0
 30
0.0
  3
_DotSmall
  1

  0
LWPOLYLINE
  5
12EA
330
12E9
100
AcDbEntity
  8
0
  6
ByBlock
 62
     0
100
AcDbPolyline
 90
        2
 70
     1
 43
0.5
 10
-0.0625
 20
0.0
 42
1.0
 10
0.0625
 20
0.0
 42
1.0
  0
ENDBLK
  5
12EC
330
12E9
100
AcDbEntity
  8
0
 48
0.5
100
AcDbBlockEnd
  0
BLOCK
  5
1E361
330
1E35A
100
AcDbEntity
  8
0
 48
0.5
370
    -2
100
AcDbBlockBegin
  2
上—全剖方向
 70
     0
 10
0.0
 20
0.0
 30
0.0
  3
上—全剖方向
  1

1001
AcadStringInfo
1000
MIFCodePage
1070
     5
  0
SOLID
  5
1E35B
330
1E35A
100
AcDbEntity
  8
0
100
AcDbTrace
 10
3.22408460416068
 20
5.951045425358984
 30
0.0
 11
6.72408460416068
 21
5.367712092025612
 31
0.0
 12
3.22408460416068
 22
4.784378758692241
 32
0.0
 13
3.22408460416068
 23
4.784378758692241
 33
0.0
1001
ACAD
1000
DSTYLE
1002
{
1070
   147
1040
0.09
1070
    42
1040
3.4925
1070
    43
1040
21.2344
1070
    44
1040
10.0584
1070
    73
1070
     1
1070
    74
1070
     1
1070
    77
1070
     0
1070
    78
1070
     0
1070
   141
1040
5.0292
1070
   271
1070
     4
1070
   272
1070
     4
1070
   284
1070
     0
1002
}
  0
LINE
  5
1E35C
330
1E35A
100
AcDbEntity
  8
0
100
AcDbLine
 10
3.22408460416068
 20
5.367712092025612
 30
0.0
 11
0.0
 21
5.367712092025612
 31
0.0
1001
ACAD
1000
DSTYLE
1002
{
1070
   147
1040
0.09
1070
    42
1040
3.4925
1070
    43
1040
21.2344
1070
    44
1040
10.0584
1070
    73
1070
     1
1070
    74
1070
     1
1070
    77
1070
     0
1070
    78
1070
     0
1070
   141
1040
5.0292
1070
   271
1070
     4
1070
   272
1070
     4
1070
   284
1070
     0
1002
}
  0
LINE
  5
1E35D
330
1E35A
100
AcDbEntity
  8
0
100
AcDbLine
 10
0.0
 20
5.367712092025612
 30
0.0
 11
0.0
 21
0.0
 31
0.0
1001
ACAD
1000
DSTYLE
1002
{
1070
   147
1040
0.09
1070
    42
1040
3.4925
1070
    43
1040
21.2344
1070
    44
1040
10.0584
1070
    73
1070
     1
1070
    74
1070
     1
1070
    77
1070
     0
1070
    78
1070
     0
1070
   141
1040
5.0292
1070
   271
1070
     4
1070
   272
1070
     4
1070
   284
1070
     0
1002
}
  0
MTEXT
  5
1E35E
330
1E35A
100
AcDbEntity
  8
0
100
AcDbMText
 10
3.695185180445832
 20
9.519486206823785
 30
0.0
 40
2.5
 41
5.094246887274721
 46
0.0
 71
     1
 72
     5
  1
{\fSimSun|b0|i0|c134|p2;A}
 73
     1
 44
1.0
  0
ENDBLK
  5
1E362
330
1E35A
100
AcDbEntity
  8
0
 48
0.5
370
    -2
100
AcDbBlockEnd
  0
BLOCK
  5
1F32D
330
1F32C
100
AcDbEntity
  8
0
 48
0.5
370
    -2
100
AcDbBlockBegin
  2
*D4
 70
     1
 10
0.0
 20
0.0
 30
0.0
  3
*D4
  1

  0
LINE
  5
1F350
330
1F32C
100
AcDbEntity
  8
0
 62
     0
440
 16777216
 48
0.5
370
    -2
100
AcDbLine
 10
-1458.682438687772
 20
-2586.147533767505
 30
0.0
 11
-1482.478892055941
 21
-2586.147533767505
 31
0.0
  0
LINE
  5
1F351
330
1F32C
100
AcDbEntity
  8
0
 62
     0
440
 16777216
 48
0.5
370
    -2
100
AcDbLine
 10
-1458.682438687772
 20
-2484.647533767505
 30
0.0
 11
-1482.478892055941
 21
-2484.647533767505
 31
0.0
  0
LINE
  5
1F352
330
1F32C
100
AcDbEntity
  8
0
 62
     0
440
 16777216
 48
0.5
370
    -2
100
AcDbLine
 10
-1481.228892055941
 20
-2581.147533767505
 30
0.0
 11
-1481.228892055941
 21
-2489.647533767505
 31
0.0
  0
SOLID
  5
1F353
330
1F32C
100
AcDbEntity
  8
0
 62
     0
440
 16777216
 48
0.5
370
    -2
100
AcDbTrace
 10
-1482.062225389274
 20
-2581.147533767505
 30
0.0
 11
-1480.395558722608
 21
-2581.147533767505
 31
0.0
 12
-1481.228892055941
 22
-2586.147533767505
 32
0.0
 13
-1481.228892055941
 23
-2586.147533767505
 33
0.0
  0
SOLID
  5
1F354
330
1F32C
100
AcDbEntity
  8
0
 62
     0
440
 16777216
 48
0.5
370
    -2
100
AcDbTrace
 10
-1482.062225389274
 20
-2489.647533767505
 30
0.0
 11
-1480.395558722608
 21
-2489.647533767505
 31
0.0
 12
-1481.228892055941
 22
-2484.647533767505
 32
0.0
 13
-1481.228892055941
 23
-2484.647533767505
 33
0.0
  0
MTEXT
  5
1F355
330
1F32C
100
AcDbEntity
  8
0
 62
     0
440
 16777216
 48
0.5
370
    -2
100
AcDbMText
 10
-1484.914454420757
 20
-2535.397533767505
 30
0.0
 40
6.0
 41
0.0
 46
0.0
 71
     5
 72
     1
  1
101.5
 11
0.0000000000000001
 21
1.0
 31
0.0
 73
     1
 44
1.0
  0
POINT
  5
1F356
330
1F32C
100
AcDbEntity
  8
Defpoints
 62
     0
440
 16777216
 48
0.5
370
    -2
100
AcDbPoint
 10
-1458.057438687772
 20
-2586.147533767505
 30
0.0
  0
POINT
  5
1F357
330
1F32C
100
AcDbEntity
  8
Defpoints
 62
     0
440
 16777216
 48
0.5
370
    -2
100
AcDbPoint
 10
-1458.057438687772
 20
-2484.647533767505
 30
0.0
  0
POINT
  5
1F358
330
1F32C
100
AcDbEntity
  8
Defpoints
 62
     0
440
 16777216
 48
0.5
370
    -2
100
AcDbPoint
 10
-1481.228892055941
 20
-2484.647533767505
 30
0.0
  0
ENDBLK
  5
1F32E
330
1F32C
100
AcDbEntity
  8
0
 48
0.5
370
    -2
100
AcDbBlockEnd
  0
BLOCK
  5
1F339
330
1F338
100
AcDbEntity
  8
0
 48
0.5
370
    -2
100
AcDbBlockBegin
  2
*D5
 70
     1
 10
0.0
 20
0.0
 30
0.0
  3
*D5
  1

  0
LINE
  5
1F359
330
1F338
100
AcDbEntity
  8
0
 62
     0
440
 16777216
 48
0.5
370
    -2
100
AcDbLine
 10
-1076.432438687771
 20
-2442.621582632605
 30
0.0
 11
-1048.447348257682
 21
-2442.621582632605
 31
0.0
  0
LINE
  5
1F35A
330
1F338
100
AcDbEntity
  8
0
 62
     0
440
 16777216
 48
0.5
370
    -2
100
AcDbLine
 10
-1076.432438687771
 20
-2422.621582632605
 30
0.0
 11
-1048.447348257682
 21
-2422.621582632605
 31
0.0
  0
LINE
  5
1F35B
330
1F338
100
AcDbEntity
  8
0
 62
     0
440
 16777216
 48
0.5
370
    -2
100
AcDbLine
 10
-1049.697348257682
 20
-2437.621582632605
 30
0.0
 11
-1049.697348257682
 21
-2427.621582632605
 31
0.0
  0
SOLID
  5
1F35C
330
1F338
100
AcDbEntity
  8
0
 62
     0
440
 16777216
 48
0.5
370
    -2
100
AcDbTrace
 10
-1050.530681591015
 20
-2437.621582632605
 30
0.0
 11
-1048.864014924349
 21
-2437.621582632605
 31
0.0
 12
-1049.697348257682
 22
-2442.621582632605
 32
0.0
 13
-1049.697348257682
 23
-2442.621582632605
 33
0.0
  0
SOLID
  5
1F35D
330
1F338
100
AcDbEntity
  8
0
 62
     0
440
 16777216
 48
0.5
370
    -2
100
AcDbTrace
 10
-1050.530681591015
 20
-2427.621582632605
 30
0.0
 11
-1048.864014924349
 21
-2427.621582632605
 31
0.0
 12
-1049.697348257682
 22
-2422.621582632605
 32
0.0
 13
-1049.697348257682
 23
-2422.621582632605
 33
0.0
  0
MTEXT
  5
1F35E
330
1F338
100
AcDbEntity
  8
0
 62
     0
440
 16777216
 48
0.5
370
    -2
100
AcDbMText
 10
-1053.374258856095
 20
-2432.621582632605
 30
0.0
 40
6.0
 41
0.0
 46
0.0
 71
     5
 72
     1
  1
20
 11
0.0000000000000001
 21
1.0
 31
0.0
 73
     1
 44
1.0
  0
POINT
  5
1F35F
330
1F338
100
AcDbEntity
  8
Defpoints
 62
     0
440
 16777216
 48
0.5
370
    -2
100
AcDbPoint
 10
-1077.057438687772
 20
-2442.621582632605
 30
0.0
  0
POINT
  5
1F360
330
1F338
100
AcDbEntity
  8
Defpoints
 62
     0
440
 16777216
 48
0.5
370
    -2
100
AcDbPoint
 10
-1077.057438687772
 20
-2422.621582632605
 30
0.0
  0
POINT
  5
1F361
330
1F338
100
AcDbEntity
  8
Defpoints
 62
     0
440
 16777216
 48
0.5
370
    -2
100
AcDbPoint
 10
-1049.697348257682
 20
-2422.621582632605
 30
0.0
  0
ENDBLK
  5
1F33A
330
1F338
100
AcDbEntity
  8
0
 48
0.5
370
    -2
100
AcDbBlockEnd
  0
BLOCK
  5
1F345
330
1F344
100
AcDbEntity
  8
0
 48
0.5
370
    -2
100
AcDbBlockBegin
  2
*D6
 70
     1
 10
0.0
 20
0.0
 30
0.0
  3
*D6
  1

  0
LINE
  5
1F362
330
1F344
100
AcDbEntity
  8
0
 62
     0
440
 16777216
 48
0.5
370
    -2
100
AcDbLine
 10
-1458.057438687772
 20
-2586.772533767505
 30
0.0
 11
-1458.057438687772
 21
-2612.295774150083
 31
0.0
  0
LINE
  5
1F363
330
1F344
100
AcDbEntity
  8
0
 62
     0
440
 16777216
 48
0.5
370
    -2
100
AcDbLine
 10
-1067.057438687772
 20
-2586.772533767505
 30
0.0
 11
-1067.057438687772
 21
-2612.295774150083
 31
0.0
  0
LINE
  5
1F364
330
1F344
100
AcDbEntity
  8
0
 62
     0
440
 16777216
 48
0.5
370
    -2
100
AcDbLine
 10
-1453.057438687771
 20
-2611.045774150083
 30
0.0
 11
-1072.057438687772
 21
-2611.045774150083
 31
0.0
  0
SOLID
  5
1F365
330
1F344
100
AcDbEntity
  8
0
 62
     0
440
 16777216
 48
0.5
370
    -2
100
AcDbTrace
 10
-1453.057438687771
 20
-2610.212440816749
 30
0.0
 11
-1453.057438687771
 21
-2611.879107483416
 31
0.0
 12
-1458.057438687772
 22
-2611.045774150083
 32
0.0
 13
-1458.057438687772
 23
-2611.045774150083
 33
0.0
  0
SOLID
  5
1F366
330
1F344
100
AcDbEntity
  8
0
 62
     0
440
 16777216
 48
0.5
370
    -2
100
AcDbTrace
 10
-1072.057438687772
 20
-2610.212440816749
 30
0.0
 11
-1072.057438687772
 21
-2611.879107483416
 31
0.0
 12
-1067.057438687772
 22
-2611.045774150083
 32
0.0
 13
-1067.057438687772
 23
-2611.045774150083
 33
0.0
  0
MTEXT
  5
1F367
330
1F344
100
AcDbEntity
  8
0
 62
     0
440
 16777216
 48
0.5
370
    -2
100
AcDbMText
 10
-1261.747975422045
 20
-2607.360211785267
 30
0.0
 40
6.0
 41
0.0
 46
0.0
 71
     5
 72
     1
  1
391
 73
     1
 44
1.0
  0
POINT
  5
1F368
330
1F344
100
AcDbEntity
  8
Defpoints
 62
     0
440
 16777216
 48
0.5
370
    -2
100
AcDbPoint
 10
-1458.057438687772
 20
-2586.147533767505
 30
0.0
  0
POINT
  5
1F369
330
1F344
100
AcDbEntity
  8
Defpoints
 62
     0
440
 16777216
 48
0.5
370
    -2
100
AcDbPoint
 10
-1067.057438687772
 20
-2586.147533767505
 30
0.0
  0
POINT
  5
1F36A
330
1F344
100
AcDbEntity
  8
Defpoints
 62
     0
440
 16777216
 48
0.5
370
    -2
100
AcDbPoint
 10
-1067.057438687772
 20
-2611.045774150083
 30
0.0
  0
ENDBLK
  5
1F346
330
1F344
100
AcDbEntity
  8
0
 48
0.5
370
    -2
100
AcDbBlockEnd
  0
ENDSEC
  0
SECTION
  2
ENTITIES
  0
HATCH
  5
1F136
330
1F
100
AcDbEntity
  8
图层7
370
    -2
100
AcDbHatch
 10
0.0
 20
0.0
 30
0.0
210
0.0
220
0.0
230
1.0
  2
ANSI31
 70
     0
 71
     0
 91
        4
 92
        1
 93
        4
 72
     4
 94
        3
 73
     0
 74
     0
 95
        8
 96
        4
 40
9.067213813559732
 40
9.067213813559732
 40
9.067213813559732
 40
9.067213813559732
 40
10.18245283309663
 40
10.18245283309663
 40
10.18245283309663
 40
10.18245283309663
 10
-1270.219368425417
 20
-2578.147533767503
 10
-1270.043336152534
 20
-2578.479836670383
 10
-1269.866808817423
 20
-2578.813129420989
 10
-1269.689725528971
 20
-2579.147533767504
 97
        0
 72
     1
 10
-1269.689725528972
 20
-2579.147533767504
 11
-1263.657438687772
 21
-2579.147533767504
 72
     1
 10
-1263.657438687772
 20
-2579.147533767504
 11
-1263.657438687772
 21
-2578.147533767505
 72
     1
 10
-1263.657438687772
 20
-2578.147533767505
 11
-1270.219368425416
 21
-2578.147533767503
 97
        0
 92
        1
 93
        4
 72
     4
 94
        3
 73
     0
 74
     0
 95
        8
 96
        4
 40
33.0867678498229
 40
33.0867678498229
 40
33.0867678498229
 40
33.0867678498229
 40
33.96018097743638
 40
33.96018097743638
 40
33.96018097743638
 40
33.96018097743638
 10
-1253.901100645431
 20
-2579.147533767504
 10
-1253.831322495597
 20
-2578.81518792498
 10
-1253.762104877266
 20
-2578.480641513384
 10
-1253.691204172057
 20
-2578.147533767506
 97
        0
 72
     1
 10
-1253.691204172056
 20
-2578.147533767503
 11
-1261.457438687772
 21
-2578.147533767505
 72
     1
 10
-1261.457438687772
 20
-2578.147533767505
 11
-1261.457438687772
 21
-2579.147533767504
 72
     1
 10
-1261.457438687772
 20
-2579.147533767504
 11
-1253.901100645431
 21
-2579.147533767504
 97
        0
 92
        1
 93
        4
 72
     4
 94
        3
 73
     0
 74
     0
 95
        9
 96
        5
 40
24.64425079721055
 40
24.64425079721055
 40
24.64425079721055
 40
24.64425079721055
 40
26.29768018859146
 40
26.73045301950925
 40
26.73045301950925
 40
26.73045301950925
 40
26.73045301950925
 10
-1258.144728901776
 20
-2586.147533767503
 10
-1257.619041330029
 20
-2585.964453511972
 10
-1257.010326854218
 20
-2585.653466748809
 10
-1256.508562286519
 20
-2585.237985546224
 10
-1256.408790333731
 20
-2585.14753376747
 97
        0
 72
     1
 10
-1256.408790333768
 20
-2585.147533767504
 11
-1262.557438687771
 21
-2585.147533767504
 72
     1
 10
-1262.557438687771
 20
-2585.147533767504
 11
-1262.557438687771
 21
-2586.147533767503
 72
     1
 10
-1262.557438687771
 20
-2586.147533767503
 11
-1258.144728901776
 21
-2586.147533767503
 97
        0
 92
        1
 93
        5
 72
     4
 94
        3
 73
     0
 74
     0
 95
        9
 96
        5
 40
17.49353196003513
 40
17.49353196003513
 40
17.49353196003513
 40
17.49353196003513
 40
17.95595969436213
 40
19.69434747699189
 40
19.69434747699189
 40
19.69434747699189
 40
19.69434747699189
 10
-1265.456856493892
 20
-2585.147533767484
 10
-1265.329590836516
 20
-2585.237685893076
 10
-1264.705320847024
 20
-2585.648007845531
 10
-1263.986160059946
 20
-2585.962093572573
 10
-1263.386716627536
 20
-2586.14753376749
 97
        0
 72
     1
 10
-1263.386716627492
 20
-2586.147533767503
 11
-1262.557438687771
 21
-2586.147533767503
 72
     1
 10
-1262.557438687771
 20
-2586.147533767503
 11
-1262.557438687772
 21
-2585.147533767504
 72
     1
 10
-1262.557438687772
 20
-2585.147533767504
 11
-1263.657438687772
 21
-2585.147533767504
 72
     1
 10
-1263.657438687772
 20
-2585.147533767504
 11
-1265.456856493864
 21
-2585.147533767504
 97
        0
 75
     0
 76
     1
 52
0.0
 41
0.4
 77
     0
 78
     1
 53
45.0
 43
-2631.364199899402
 44
-3321.398769230667
 45
-0.8980256121069151
 46
0.8980256121069153
 79
     0
 98
        4
 10
-1266.347504672809
 20
-2578.477341625662
 10
-1258.414153359546
 20
-2578.888684121741
 10
-1259.761325388523
 20
-2585.80671840407
 10
-1263.42863046724
 20
-2585.657139546873
1001
ACAD
1010
0.0
1020
0.0
1030
0.0
  0
LINE
  5
1F137
330
1F
100
AcDbEntity
  8
0
  6
ByBlock
 62
     0
370
    30
100
AcDbLine
 10
-1256.408790333768
 20
-2585.147533767504
 30
0.0
 11
-1265.456856493864
 21
-2585.147533767504
 31
0.0
  0
LINE
  5
1F138
330
1F
100
AcDbEntity
  8
0
  6
ByBlock
 62
     0
370
    30
100
AcDbLine
 10
-1253.901100645431
 20
-2579.147533767504
 30
0.0
 11
-1261.457438687772
 21
-2579.147533767504
 31
0.0
  0
LINE
  5
1F139
330
1F
100
AcDbEntity
  8
0
  6
ByBlock
 62
     0
370
    30
100
AcDbLine
 10
-1263.657438687772
 20
-2579.147533767504
 30
0.0
 11
-1269.689725528971
 21
-2579.147533767504
 31
0.0
  0
LINE
  5
1F13A
330
1F
100
AcDbEntity
  8
0
  6
ByBlock
 62
     0
370
    30
100
AcDbLine
 10
-1264.057438687772
 20
-2584.747533767504
 30
0.0
 11
-1264.057438687772
 21
-2569.547533767504
 31
0.0
  0
LINE
  5
1F13B
330
1F
100
AcDbEntity
  8
图层7
370
    -2
100
AcDbLine
 10
-1263.657438687772
 20
-2585.147533767504
 30
0.0
 11
-1263.657438687772
 21
-2569.147533767504
 31
0.0
  0
LINE
  5
1F13C
330
1F
100
AcDbEntity
  8
0
  6
ByBlock
 62
     0
370
    30
100
AcDbLine
 10
-1261.057438687772
 20
-2584.747533767503
 30
0.0
 11
-1261.057438687772
 21
-2569.547533767503
 31
0.0
  0
LINE
  5
1F13D
330
1F
100
AcDbEntity
  8
0
  6
ByBlock
 62
     0
370
    -2
100
AcDbLine
 10
-1261.457438687772
 20
-2585.147533767504
 30
0.0
 11
-1261.457438687772
 21
-2569.147533767504
 31
0.0
  0
LINE
  5
1F13E
330
1F
100
AcDbEntity
  8
0
  6
ByBlock
 62
     0
370
    30
100
AcDbLine
 10
-1263.657438687772
 20
-2569.147533767504
 30
0.0
 11
-1261.457438687772
 21
-2569.147533767504
 31
0.0
  0
LINE
  5
1F13F
330
1F
100
AcDbEntity
  8
0
  6
ByBlock
 62
     0
370
    30
100
AcDbLine
 10
-1263.657438687772
 20
-2585.147533767504
 30
0.0
 11
-1261.457438687772
 21
-2585.147533767504
 31
0.0
  0
SPLINE
  5
1F140
330
1F
100
AcDbEntity
  8
图层7
370
    -2
100
AcDbSpline
210
0.0
220
0.0
230
1.0
 70
     8
 71
     3
 72
    10
 73
     6
 74
     0
 42
0.000000001
 43
0.0000000001
 40
9.067213813559732
 40
9.067213813559732
 40
9.067213813559732
 40
9.067213813559732
 40
11.34383783745011
 40
17.95595969436213
 40
19.69434747699189
 40
19.69434747699189
 40
19.69434747699189
 40
19.69434747699189
 10
-1270.219368425417
 20
-2578.147533767503
 30
0.0
 10
-1269.860020075509
 20
-2578.825889490942
 30
0.0
 10
-1268.448942127834
 20
-2581.490535435407
 30
0.0
 10
-1266.71485723543
 20
-2584.770364474384
 30
0.0
 10
-1263.986160059946
 20
-2585.962093572573
 30
0.0
 10
-1263.386716627536
 20
-2586.14753376749
 30
0.0
  0
SPLINE
  5
1F141
330
1F
100
AcDbEntity
  8
图层7
370
    -2
100
AcDbSpline
210
0.0
220
0.0
230
1.0
 70
     8
 71
     3
 72
    10
 73
     6
 74
     0
 42
0.000000001
 43
0.0000000001
 40
24.64425079721055
 40
24.64425079721055
 40
24.64425079721055
 40
24.64425079721055
 40
26.29768018859146
 40
32.51261164222038
 40
33.96018097743638
 40
33.96018097743638
 40
33.96018097743638
 40
33.96018097743638
 10
-1258.144728901776
 20
-2586.147533767503
 30
0.0
 10
-1257.619041330029
 20
-2585.964453511972
 30
0.0
 10
-1255.323201983263
 20
-2584.791529792291
 30
0.0
 10
-1254.406256235137
 20
-2581.642907620637
 30
0.0
 10
-1253.808712924171
 20
-2578.699616788715
 30
0.0
 10
-1253.691204172057
 20
-2578.147533767506
 30
0.0
  0
LINE
  5
1F142
330
1F
100
AcDbEntity
  8
0
  6
ByBlock
 62
     0
370
    -2
100
AcDbLine
 10
-1263.657438687772
 20
-2569.147533767504
 30
0.0
 11
-1264.057438687772
 21
-2569.547533767503
 31
0.0
  0
LINE
  5
1F143
330
1F
100
AcDbEntity
  8
0
  6
ByBlock
 62
     0
370
    30
100
AcDbLine
 10
-1264.057438687772
 20
-2569.547533767503
 30
0.0
 11
-1261.057438687772
 21
-2569.547533767503
 31
0.0
  0
LINE
  5
1F144
330
1F
100
AcDbEntity
  8
0
  6
ByBlock
 62
     0
370
    30
100
AcDbLine
 10
-1261.057438687772
 20
-2569.547533767503
 30
0.0
 11
-1261.457438687772
 21
-2569.147533767504
 31
0.0
  0
LINE
  5
1F145
330
1F
100
AcDbEntity
  8
0
  6
ByBlock
 62
     0
370
    30
100
AcDbLine
 10
-1263.657438687772
 20
-2585.147533767504
 30
0.0
 11
-1264.057438687772
 21
-2584.747533767503
 31
0.0
  0
LINE
  5
1F146
330
1F
100
AcDbEntity
  8
0
  6
ByBlock
 62
     0
370
    30
100
AcDbLine
 10
-1264.057438687772
 20
-2584.747533767503
 30
0.0
 11
-1261.057438687771
 21
-2584.747533767503
 31
0.0
  0
LINE
  5
1F147
330
1F
100
AcDbEntity
  8
0
  6
ByBlock
 62
     0
370
    30
100
AcDbLine
 10
-1261.057438687771
 20
-2584.747533767503
 30
0.0
 11
-1261.457438687772
 21
-2585.147533767504
 31
0.0
  0
MTEXT
  5
1F1C4
330
1F
100
AcDbEntity
  8
图层7
100
AcDbMText
 10
-1462.9167811216
 20
-2404.538740077133
 30
0.0
 40
8.0
 41
36.40471860075945
 46
0.0
 71
     1
 72
     5
  1
{\fArial|b0|i0|c0|p34;1}
 73
     1
 44
1.0
  0
LEADER
  5
1F1C5
330
1F
100
AcDbEntity
  8
图层7
100
AcDbLeader
  3
ISO-25
 76
     3
 10
-1442.543734310466
 20
-2428.741424487043
 30
0.0
 10
-1456.82439025897
 20
-2414.460768538538
 30
0.0
 10
-1466.82439025897
 20
-2414.460768538538
 30
0.0
211
-1.0
221
0.0
231
0.0
1001
ACAD
1000
DSTYLE
1002
{
1070
   147
1040
0.625
1070
    77
1070
     0
1002
}
  0
MTEXT
  5
1F1C6
330
1F
100
AcDbEntity
  8
图层7
100
AcDbMText
 10
-1067.558526583645
 20
-2404.733309149658
 30
0.0
 40
8.0
 41
36.40471860075945
 46
0.0
 71
     1
 72
     5
  1
{\fArial|b0|i0|c0|p34;2}
 73
     1
 44
1.0
  0
LEADER
  5
1F1C7
330
1F
100
AcDbEntity
  8
图层7
100
AcDbLeader
  3
ISO-25
 76
     3
 10
-1084.539494977293
 20
-2428.935993559568
 30
0.0
 10
-1070.258839028789
 20
-2414.655337611063
 30
0.0
 10
-1060.258839028789
 20
-2414.655337611063
 30
0.0
1001
ACAD
1000
DSTYLE
1002
{
1070
   147
1040
0.625
1070
    77
1070
     0
1002
}
  0
MTEXT
  5
1F1C8
330
1F
100
AcDbEntity
  8
图层7
100
AcDbMText
 10
-1122.07695615371
 20
-2400.92885918057
 30
0.0
 40
8.0
 41
36.40471860075945
 46
0.0
 71
     1
 72
     5
  1
{\fArial|b0|i0|c0|p34;4}
 73
     1
 44
1.0
  0
MTEXT
  5
1F1C9
330
1F
100
AcDbEntity
  8
图层7
100
AcDbMText
 10
-1337.391952274107
 20
-2593.969589018902
 30
0.0
 40
8.0
 41
36.40471860075945
 46
0.0
 71
     1
 72
     5
  1
{\fArial|b0|i0|c0|p34;6}
 73
     1
 44
1.0
  0
LEADER
  5
1F1CA
330
1F
100
AcDbEntity
  8
图层7
100
AcDbLeader
  3
ISO-25
 76
     3
 10
-1323.106667516444
 20
-2583.441004261608
 30
0.0
 10
-1328.439706044006
 20
-2603.067350509754
 30
0.0
 10
-1341.694680361054
 20
-2603.067350509754
 30
0.0
1001
ACAD
1000
DSTYLE
1002
{
1070
   147
1040
0.625
1070
    77
1070
     0
1002
}
  0
MTEXT
  5
1F1CB
330
1F
100
AcDbEntity
  8
图层7
100
AcDbMText
 10
-1277.048414843354
 20
-2593.646571889375
 30
0.0
 40
8.0
 41
36.40471860075945
 46
0.0
 71
     1
 72
     5
  1
{\fArial|b0|i0|c0|p34;7}
 73
     1
 44
1.0
  0
LEADER
  5
1F1CC
330
1F
100
AcDbEntity
  8
图层7
100
AcDbLeader
  3
ISO-25
 76
     3
 10
-1262.763130085691
 20
-2583.117987132081
 30
0.0
 10
-1268.096168613254
 20
-2602.744333380226
 30
0.0
 10
-1281.351142930301
 20
-2602.744333380226
 30
0.0
1001
ACAD
1000
DSTYLE
1002
{
1070
   147
1040
0.625
1070
    77
1070
     0
1002
}
  0
HATCH
  5
1F1D5
330
1F
100
AcDbEntity
  8
0
370
    30
100
AcDbHatch
 10
0.0
 20
0.0
 30
0.0
210
0.0
220
0.0
230
1.0
  2
ANSI31
 70
     0
 71
     0
 91
        1
 92
        1
 93
        9
 72
     1
 10
-1090.557438687771
 20
-2442.221582632605
 11
-1089.307438687772
 21
-2442.221582632605
 72
     1
 10
-1090.557438687771
 20
-2442.221582632605
 11
-1090.557438687771
 21
-2435.664958305605
 72
     1
 10
-1090.557438687771
 20
-2435.664958305605
 11
-1088.057438687772
 21
-2434.221582632605
 72
     1
 10
-1085.557438687771
 20
-2435.664958305605
 11
-1088.057438687772
 21
-2434.221582632605
 72
     1
 10
-1085.557438687771
 20
-2442.221582632605
 11
-1085.557438687771
 21
-2435.664958305605
 72
     1
 10
-1086.807438687771
 20
-2442.221582632605
 11
-1085.557438687771
 21
-2442.221582632605
 72
     1
 10
-1086.807438687771
 20
-2440.721582632605
 11
-1086.807438687771
 21
-2442.221582632605
 72
     1
 10
-1086.807438687771
 20
-2440.721582632605
 11
-1089.307438687772
 21
-2440.721582632605
 72
     1
 10
-1089.307438687772
 20
-2440.721582632605
 11
-1089.307438687772
 21
-2442.221582632605
 97
        0
 75
     0
 76
     1
 52
0.0
 41
0.5
 77
     0
 78
     1
 53
45.0
 43
-201.093932362827
 44
245.1606265035088
 45
-1.122532015133643
 46
1.122532015133644
 79
     0
 98
        1
 10
-1576.897233917472
 20
-2648.967503975605
1001
GradientColor1ACI
1070
     5
1001
GradientColor2ACI
1070
     2
1001
ACAD
1010
0.0
1020
0.0
1030
0.0
  0
HATCH
  5
1F1D6
330
1F
100
AcDbEntity
  8
0
370
    30
100
AcDbHatch
 10
0.0
 20
0.0
 30
0.0
210
0.0
220
0.0
230
1.0
  2
ANSI31
 70
     0
 71
     0
 91
        2
 92
        1
 93
        6
 72
     1
 10
-1429.557438687772
 20
-2441.621582632605
 11
-1428.307438687772
 21
-2441.621582632605
 72
     1
 10
-1429.557438687772
 20
-2441.621582632605
 11
-1429.557438687772
 21
-2435.064958305605
 72
     1
 10
-1429.557438687772
 20
-2435.064958305605
 11
-1427.057438687772
 21
-2433.621582632605
 72
     1
 10
-1427.057438687772
 20
-2440.121582632605
 11
-1427.057438687772
 21
-2433.621582632605
 72
     1
 10
-1428.307438687772
 20
-2440.121582632605
 11
-1427.057438687772
 21
-2440.121582632605
 72
     1
 10
-1428.307438687772
 20
-2440.121582632605
 11
-1428.307438687772
 21
-2441.621582632605
 97
        0
 92
        1
 93
        4
 72
     1
 10
-1427.057438687772
 20
-2441.621582632605
 11
-1427.057438687772
 21
-2440.121582632605
 72
     1
 10
-1427.057438687772
 20
-2440.121582632605
 11
-1427.057438687772
 21
-2433.621582632605
 72
     1
 10
-1427.057438687772
 20
-2433.621582632605
 11
-1427.057438687772
 21
-2435.064958305605
 72
     1
 10
-1427.057438687772
 20
-2435.064958305605
 11
-1427.057438687772
 21
-2441.621582632605
 97
        0
 75
     0
 76
     1
 52
0.0
 41
0.5
 77
     0
 78
     1
 53
45.0
 43
-201.093932362827
 44
245.1606265035088
 45
-1.122532015133643
 46
1.122532015133644
 79
     0
 98
        1
 10
-1576.897233917472
 20
-2648.967503975605
1001
GradientColor1ACI
1070
     5
1001
GradientColor2ACI
1070
     2
1001
ACAD
1010
0.0
1020
0.0
1030
0.0
  0
HATCH
  5
1F1D7
330
1F
100
AcDbEntity
  8
0
370
    30
100
AcDbHatch
 10
0.0
 20
0.0
 30
0.0
210
0.0
220
0.0
230
1.0
  2
DEFAULT__3
 70
     0
 71
     0
 91
        1
 92
        1
 93
        6
 72
     1
 10
-1097.057438687772
 20
-2430.564958305605
 11
-1097.057438687772
 21
-2434.121582632605
 72
     1
 10
-1097.057438687772
 20
-2429.121582632605
 11
-1097.057438687772
 21
-2430.564958305605
 72
     1
 10
-1097.057438687772
 20
-2429.121582632605
 11
-1097.057438687772
 21
-2430.564958305605
 72
     1
 10
-1097.057438687772
 20
-2430.564958305605
 11
-1097.057438687772
 21
-2434.121582632605
 72
     1
 10
-1097.057438687772
 20
-2434.121582632605
 11
-1097.057438687772
 21
-2432.621582632605
 72
     1
 10
-1097.057438687772
 20
-2434.121582632605
 11
-1097.057438687772
 21
-2432.621582632605
 97
        0
 75
     0
 76
     0
 52
285.0
 41
0.470904653
 77
     0
 78
     1
 53
285.0
 43
-1576.897233917472
 44
-2648.967503975605
 45
0.4548589661
 46
0.1218790926
 79
     0
 98
        1
 10
-1576.897233917472
 20
-2648.967503975605
  0
HATCH
  5
1F1D8
330
1F
100
AcDbEntity
  8
0
370
    30
100
AcDbHatch
 10
0.0
 20
0.0
 30
0.0
210
0.0
220
0.0
230
1.0
  2
DEFAULT__4
 70
     0
 71
     0
 91
        1
 92
        1
 93
        6
 72
     1
 10
-1097.057438687772
 20
-2433.921582632605
 11
-1097.057438687772
 21
-2432.421582632605
 72
     1
 10
-1097.057438687772
 20
-2433.921582632605
 11
-1097.057438687772
 21
-2432.421582632605
 72
     1
 10
-1097.057438687772
 20
-2430.364958305605
 11
-1097.057438687772
 21
-2433.921582632605
 72
     1
 10
-1097.057438687772
 20
-2428.921582632605
 11
-1097.057438687772
 21
-2430.364958305605
 72
     1
 10
-1097.057438687772
 20
-2428.921582632605
 11
-1097.057438687772
 21
-2430.364958305605
 72
     1
 10
-1097.057438687772
 20
-2430.364958305605
 11
-1097.057438687772
 21
-2433.921582632605
 97
        0
 75
     0
 76
     0
 52
45.0
 41
0.4136283786
 77
     0
 78
     1
 53
45.0
 43
-1576.897233917472
 44
-2648.967503975605
 45
-0.2924794314
 46
0.2924794314
 79
     0
 98
        1
 10
-1576.897233917472
 20
-2648.967503975605
  0
HATCH
  5
1F1D9
330
1F
100
AcDbEntity
  8
0
370
    30
100
AcDbHatch
 10
0.0
 20
0.0
 30
0.0
210
0.0
220
0.0
230
1.0
  2
ANSI31
 70
     0
 71
     0
 91
        3
 92
        1
 93
        2
 72
     1
 10
-1097.057438687772
 20
-2439.621582632605
 11
-1097.057438687772
 21
-2435.203248015205
 72
     1
 10
-1097.057438687772
 20
-2439.621582632605
 11
-1097.057438687772
 21
-2435.203248015205
 97
        0
 92
        1
 93
        2
 72
     1
 10
-1097.057438687772
 20
-2429.039917250005
 11
-1097.057438687772
 21
-2424.621582632605
 72
     1
 10
-1097.057438687772
 20
-2429.039917250005
 11
-1097.057438687772
 21
-2424.621582632605
 97
        0
 92
        1
 93
       16
 72
     4
 94
        3
 73
     1
 74
     0
 95
        8
 96
        4
 40
0.0
 40
0.0
 40
0.0
 40
0.0
 40
1.0
 40
1.0
 40
1.0
 40
1.0
 10
-1093.157438687772
 20
-2430.121582632605
 42
1.0
 10
-1093.157438687772
 20
-2427.484135927405
 42
0.5115074946
 10
-1095.698945926071
 20
-2426.779248645505
 42
0.5115074946
 10
-1097.057438687772
 20
-2429.039917250005
 42
1.0
 97
        0
 72
     1
 10
-1097.057438687772
 20
-2429.039917250005
 11
-1097.057438687772
 21
-2424.621582632605
 72
     1
 10
-1077.057438687772
 20
-2424.621582632605
 11
-1097.057438687772
 21
-2424.621582632605
 72
     4
 94
        3
 73
     1
 74
     0
 95
        8
 96
        4
 40
0.0
 40
0.0
 40
0.0
 40
0.0
 40
1.0
 40
1.0
 40
1.0
 40
1.0
 10
-1077.057438687772
 20
-2439.621582632605
 42
1.0
 10
-1062.057438687771
 20
-2439.621582632605
 42
0.3333333333
 10
-1062.057438687771
 20
-2424.621582632605
 42
0.3333333333
 10
-1077.057438687772
 20
-2424.621582632605
 42
1.0
 97
        0
 72
     1
 10
-1077.057438687772
 20
-2439.621582632605
 11
-1083.757438687771
 21
-2439.621582632605
 72
     1
 10
-1083.757438687771
 20
-2439.621582632605
 11
-1083.757438687771
 21
-2434.196711502005
 72
     1
 10
-1092.357438687772
 20
-2434.196711502005
 11
-1083.757438687771
 21
-2434.196711502005
 72
     1
 10
-1092.357438687772
 20
-2439.621582632605
 11
-1092.357438687772
 21
-2434.196711502005
 72
     1
 10
-1092.357438687772
 20
-2439.621582632605
 11
-1097.057438687772
 21
-2439.621582632605
 72
     1
 10
-1097.057438687772
 20
-2439.621582632605
 11
-1097.057438687772
 21
-2435.203248015205
 72
     4
 94
        3
 73
     1
 74
     0
 95
        8
 96
        4
 40
0.0
 40
0.0
 40
0.0
 40
0.0
 40
1.0
 40
1.0
 40
1.0
 40
1.0
 10
-1097.057438687772
 20
-2435.203248015205
 42
1.0
 10
-1095.698945926071
 20
-2437.463916619705
 42
0.5115074946
 10
-1093.157438687772
 20
-2436.759029337805
 42
0.5115074946
 10
-1093.157438687772
 20
-2434.121582632605
 42
1.0
 97
        0
 72
     1
 10
-1093.157438687772
 20
-2430.121582632605
 11
-1093.157438687772
 21
-2434.121582632605
 72
     1
 10
-1078.757438687772
 20
-2430.021582632605
 11
-1074.757438687772
 21
-2430.021582632605
 72
     4
 94
        3
 73
     1
 74
     0
 95
        8
 96
        4
 40
0.0
 40
0.0
 40
0.0
 40
0.0
 40
1.0
 40
1.0
 40
1.0
 40
1.0
 10
-1078.757438687772
 20
-2430.021582632605
 42
1.0
 10
-1082.957438687772
 20
-2430.021582632605
 42
0.3333333333
 10
-1082.957438687772
 20
-2434.221582632605
 42
0.3333333333
 10
-1078.757438687772
 20
-2434.221582632605
 42
1.0
 97
        0
 72
     1
 10
-1074.757438687772
 20
-2434.221582632605
 11
-1078.757438687772
 21
-2434.221582632605
 72
     4
 94
        3
 73
     1
 74
     0
 95
       11
 96
        7
 40
0.0
 40
0.0
 40
0.0
 40
0.0
 40
1.0
 40
1.0
 40
1.0
 40
2.0
 40
2.0
 40
2.0
 40
2.0
 10
-1074.757438687772
 20
-2434.221582632605
 42
1.0
 10
-1073.527287168672
 20
-2434.221582632605
 42
0.8047378541
 10
-1072.657438687772
 20
-2433.351734151605
 42
0.8047378541
 10
-1072.657438687772
 20
-2432.121582632605
 42
1.0
 10
-1072.657438687772
 20
-2430.891431113605
 42
0.8047378541
 10
-1073.527287168672
 20
-2430.021582632605
 42
0.8047378541
 10
-1074.757438687772
 20
-2430.021582632605
 42
1.0
 97
        0
 97
        0
 75
     0
 76
     1
 52
0.0
 41
2.0
 77
     0
 78
     1
 53
45.0
 43
-201.093932362827
 44
245.1606265035088
 45
-4.490128060534575
 46
4.490128060534576
 79
     0
 98
        1
 10
-1576.897233917472
 20
-2648.967503975605
1001
GradientColor1ACI
1070
     5
1001
GradientColor2ACI
1070
     2
1001
ACAD
1010
0.0
1020
0.0
1030
0.0
  0
HATCH
  5
1F1DA
330
1F
100
AcDbEntity
  8
0
370
    30
100
AcDbHatch
 10
0.0
 20
0.0
 30
0.0
210
0.0
220
0.0
230
1.0
  2
ANSI31
 70
     0
 71
     0
 91
        3
 92
        1
 93
        4
 72
     1
 10
-1433.557438687772
 20
-2425.621582632605
 11
-1433.557438687772
 21
-2426.621582632605
 72
     1
 10
-1433.557438687772
 20
-2425.621582632605
 11
-1427.057438687772
 21
-2425.621582632605
 72
     1
 10
-1427.057438687772
 20
-2426.621582632605
 11
-1427.057438687772
 21
-2425.621582632605
 72
     1
 10
-1433.557438687772
 20
-2426.621582632605
 11
-1427.057438687772
 21
-2426.621582632605
 97
        0
 92
        1
 93
        4
 72
     1
 10
-1433.557438687772
 20
-2432.621582632605
 11
-1433.557438687772
 21
-2433.621582632605
 72
     1
 10
-1433.557438687772
 20
-2432.621582632605
 11
-1427.057438687772
 21
-2432.621582632605
 72
     1
 10
-1427.057438687772
 20
-2433.621582632605
 11
-1427.057438687772
 21
-2432.621582632605
 72
     1
 10
-1433.557438687772
 20
-2433.621582632605
 11
-1427.057438687772
 21
-2433.621582632605
 97
        0
 92
        1
 93
        4
 72
     1
 10
-1427.057438687772
 20
-2426.621582632605
 11
-1427.057438687772
 21
-2432.621582632605
 72
     1
 10
-1427.057438687772
 20
-2426.621582632605
 11
-1427.057438687772
 21
-2425.621582632605
 72
     1
 10
-1427.057438687772
 20
-2433.621582632605
 11
-1427.057438687772
 21
-2425.621582632605
 72
     1
 10
-1427.057438687772
 20
-2433.621582632605
 11
-1427.057438687772
 21
-2432.621582632605
 97
        0
 75
     0
 76
     1
 52
0.0
 41
0.75
 77
     0
 78
     1
 53
45.0
 43
-201.093932362827
 44
245.1606265035088
 45
-1.683798022700465
 46
1.683798022700466
 79
     0
 98
        1
 10
-1576.897233917472
 20
-2648.967503975605
1001
GradientColor1ACI
1070
     5
1001
GradientColor2ACI
1070
     2
1001
ACAD
1010
0.0
1020
0.0
1030
0.0
  0
HATCH
  5
1F1DB
330
1F
100
AcDbEntity
  8
0
370
    30
100
AcDbHatch
 10
0.0
 20
0.0
 30
0.0
210
0.0
220
0.0
230
1.0
  2
ANSI31
 70
     0
 71
     0
 91
        3
 92
        1
 93
        2
 72
     1
 10
-1427.057438687772
 20
-2428.921582632605
 11
-1427.057438687772
 21
-2427.721582632605
 72
     1
 10
-1427.057438687772
 20
-2427.721582632605
 11
-1427.057438687772
 21
-2428.921582632605
 97
        0
 92
        1
 93
        4
 72
     1
 10
-1427.057438687772
 20
-2427.721582632605
 11
-1097.057438687772
 21
-2427.721582632605
 72
     1
 10
-1097.057438687772
 20
-2428.921582632605
 11
-1097.057438687772
 21
-2427.721582632605
 72
     1
 10
-1427.057438687772
 20
-2428.921582632605
 11
-1097.057438687772
 21
-2428.921582632605
 72
     1
 10
-1427.057438687772
 20
-2428.921582632605
 11
-1427.057438687772
 21
-2427.721582632605
 97
        0
 92
        1
 93
        2
 72
     1
 10
-1097.057438687772
 20
-2427.721582632605
 11
-1097.057438687772
 21
-2428.921582632605
 72
     1
 10
-1097.057438687772
 20
-2428.921582632605
 11
-1097.057438687772
 21
-2427.721582632605
 97
        0
 75
     0
 76
     1
 52
0.0
 41
2.0
 77
     0
 78
     1
 53
45.0
 43
-201.093932362827
 44
245.1606265035088
 45
-4.490128060534575
 46
4.490128060534576
 79
     0
 98
        1
 10
-1576.897233917472
 20
-2648.967503975605
1001
GradientColor1ACI
1070
     5
1001
GradientColor2ACI
1070
     2
1001
ACAD
1010
0.0
1020
0.0
1030
0.0
  0
HATCH
  5
1F1DC
330
1F
100
AcDbEntity
  8
0
370
    30
100
AcDbHatch
 10
0.0
 20
0.0
 30
0.0
210
0.0
220
0.0
230
1.0
  2
ANSI31
 70
     0
 71
     0
 91
       11
 92
        1
 93
        8
 72
     1
 10
-1102.057438687771
 20
-2442.621582632605
 11
-1097.057438687772
 21
-2442.621582632605
 72
     1
 10
-1102.057438687771
 20
-2442.621582632605
 11
-1102.057438687771
 21
-2429.221582632605
 72
     1
 10
-1102.057438687771
 20
-2429.221582632605
 11
-1097.057438687772
 21
-2429.146582632605
 72
     1
 10
-1097.057438687772
 20
-2434.121582632605
 11
-1097.057438687772
 21
-2429.146582632605
 72
     1
 10
-1100.057438687771
 20
-2434.121582632605
 11
-1097.057438687772
 21
-2434.121582632605
 72
     1
 10
-1100.057438687771
 20
-2440.621582632605
 11
-1100.057438687771
 21
-2434.121582632605
 72
     1
 10
-1100.057438687771
 20
-2440.621582632605
 11
-1097.057438687772
 21
-2440.621582632605
 72
     1
 10
-1097.057438687772
 20
-2442.621582632605
 11
-1097.057438687772
 21
-2440.621582632605
 97
        0
 92
        1
 93
        4
 72
     1
 10
-1102.057438687771
 20
-2427.521582632605
 11
-1102.057438687771
 21
-2422.621582632605
 72
     1
 10
-1102.057438687771
 20
-2422.621582632605
 11
-1097.057438687772
 21
-2422.621582632605
 72
     1
 10
-1097.057438687772
 20
-2427.596582632605
 11
-1097.057438687772
 21
-2422.621582632605
 72
     1
 10
-1102.057438687771
 20
-2427.521582632605
 11
-1097.057438687772
 21
-2427.596582632605
 97
        0
 92
        1
 93
        2
 72
     1
 10
-1097.057438687772
 20
-2442.621582632605
 11
-1097.057438687772
 21
-2440.621582632605
 72
     1
 10
-1097.057438687772
 20
-2442.621582632605
 11
-1097.057438687772
 21
-2440.621582632605
 97
        0
 92
        1
 93
        2
 72
     1
 10
-1097.057438687772
 20
-2442.621582632605
 11
-1097.057438687772
 21
-2440.621582632605
 72
     1
 10
-1097.057438687772
 20
-2442.621582632605
 11
-1097.057438687772
 21
-2440.621582632605
 97
        0
 92
        1
 93
        2
 72
     1
 10
-1097.057438687772
 20
-2442.621582632605
 11
-1097.057438687772
 21
-2440.621582632605
 72
     1
 10
-1097.057438687772
 20
-2442.621582632605
 11
-1097.057438687772
 21
-2440.621582632605
 97
        0
 92
        1
 93
        3
 72
     1
 10
-1097.057438687772
 20
-2424.621582632605
 11
-1097.057438687772
 21
-2422.621582632605
 72
     1
 10
-1097.057438687772
 20
-2427.596582632605
 11
-1097.057438687772
 21
-2424.621582632605
 72
     1
 10
-1097.057438687772
 20
-2427.596582632605
 11
-1097.057438687772
 21
-2422.621582632605
 97
        0
 92
        1
 93
        2
 72
     1
 10
-1097.057438687772
 20
-2429.146582632605
 11
-1097.057438687772
 21
-2434.121582632605
 72
     1
 10
-1097.057438687772
 20
-2434.121582632605
 11
-1097.057438687772
 21
-2429.146582632605
 97
        0
 92
        1
 93
        2
 72
     1
 10
-1097.057438687772
 20
-2429.146582632605
 11
-1097.057438687772
 21
-2434.121582632605
 72
     1
 10
-1097.057438687772
 20
-2429.146582632605
 11
-1097.057438687772
 21
-2434.121582632605
 97
        0
 92
        1
 93
        2
 72
     1
 10
-1097.057438687772
 20
-2434.121582632605
 11
-1097.057438687772
 21
-2429.146582632605
 72
     1
 10
-1097.057438687772
 20
-2429.146582632605
 11
-1097.057438687772
 21
-2434.121582632605
 97
        0
 92
        1
 93
       10
 72
     4
 94
        3
 73
     1
 74
     0
 95
        8
 96
        4
 40
0.0
 40
0.0
 40
0.0
 40
0.0
 40
1.0
 40
1.0
 40
1.0
 40
1.0
 10
-1077.057438687772
 20
-2422.621582632605
 42
1.0
 10
-1057.057438687772
 20
-2422.621582632605
 42
0.3333333333
 10
-1057.057438687772
 20
-2442.621582632605
 42
0.3333333333
 10
-1077.057438687772
 20
-2442.621582632605
 42
1.0
 97
        0
 72
     1
 10
-1077.057438687772
 20
-2442.621582632605
 11
-1085.957438687772
 21
-2442.621582632605
 72
     1
 10
-1085.957438687772
 20
-2437.621582632605
 11
-1085.957438687772
 21
-2442.621582632605
 72
     1
 10
-1084.057438687771
 20
-2437.621582632605
 11
-1085.957438687772
 21
-2437.621582632605
 72
     1
 10
-1084.057438687771
 20
-2437.621582632605
 11
-1084.057438687771
 21
-2440.621582632605
 72
     1
 10
-1077.057438687772
 20
-2440.621582632605
 11
-1084.057438687771
 21
-2440.621582632605
 72
     4
 94
        3
 73
     1
 74
     0
 95
        8
 96
        4
 40
0.0
 40
0.0
 40
0.0
 40
0.0
 40
1.0
 40
1.0
 40
1.0
 40
1.0
 10
-1077.057438687772
 20
-2424.621582632605
 42
1.0
 10
-1061.057438687771
 20
-2424.621582632605
 42
0.3333333333
 10
-1061.057438687771
 20
-2440.621582632605
 42
0.3333333333
 10
-1077.057438687772
 20
-2440.621582632605
 42
1.0
 97
        0
 72
     1
 10
-1077.057438687772
 20
-2424.621582632605
 11
-1097.057438687772
 21
-2424.621582632605
 72
     1
 10
-1097.057438687772
 20
-2424.621582632605
 11
-1097.057438687772
 21
-2422.621582632605
 72
     1
 10
-1077.057438687772
 20
-2422.621582632605
 11
-1097.057438687772
 21
-2422.621582632605
 97
        0
 92
        1
 93
        6
 72
     1
 10
-1090.157438687772
 20
-2442.621582632605
 11
-1097.057438687772
 21
-2442.621582632605
 72
     1
 10
-1097.057438687772
 20
-2442.621582632605
 11
-1097.057438687772
 21
-2440.621582632605
 72
     1
 10
-1092.057438687771
 20
-2440.621582632605
 11
-1097.057438687772
 21
-2440.621582632605
 72
     1
 10
-1092.057438687771
 20
-2437.621582632605
 11
-1092.057438687771
 21
-2440.621582632605
 72
     1
 10
-1090.157438687772
 20
-2437.621582632605
 11
-1092.057438687772
 21
-2437.621582632605
 72
     1
 10
-1090.157438687772
 20
-2437.621582632605
 11
-1090.157438687772
 21
-2442.621582632605
 97
        0
 75
     0
 76
     1
 52
90.0
 41
1.0
 77
     0
 78
     1
 53
135.0
 43
-201.093932362827
 44
245.1606265035088
 45
-2.245064030267288
 46
-2.245064030267287
 79
     0
 98
        1
 10
-1576.897233917472
 20
-2648.967503975605
1001
GradientColor1ACI
1070
     5
1001
GradientColor2ACI
1070
     2
1001
ACAD
1010
0.0
1020
0.0
1030
0.0
  0
LINE
  5
1F216
330
1F
100
AcDbEntity
  8
0
370
    30
100
AcDbLine
 10
-1441.497438687772
 20
-2439.621582632605
 30
0.0
 11
-1441.497438687772
 21
-2436.621582632605
 31
0.0
  0
HATCH
  5
1F217
330
1F
100
AcDbEntity
  8
0
 48
0.5
370
    -2
100
AcDbHatch
 10
0.0
 20
0.0
 30
0.0
210
0.0
220
0.0
230
1.0
  2
ANSI31
 70
     0
 71
     0
 91
        4
 92
        7
 72
     1
 73
     1
 93
       17
 10
-1423.057438687772
 20
-2422.621582632605
 42
0.0
 10
-1448.057438687771
 20
-2422.621582632605
 42
1.0
 10
-1448.057438687771
 20
-2442.621582632605
 42
0.0
 10
-1429.557438687772
 20
-2442.621582632605
 42
0.0
 10
-1429.557438687772
 20
-2441.621582632605
 42
0.0
 10
-1429.557438687772
 20
-2433.821582632605
 42
0.0
 10
-1435.057438687772
 20
-2433.821582632605
 42
0.0
 10
-1435.057438687772
 20
-2437.621582632605
 42
0.0
 10
-1441.057438687772
 20
-2437.621582632605
 42
0.0
 10
-1441.057438687772
 20
-2440.621582632605
 42
0.0
 10
-1448.057438687771
 20
-2440.621582632605
 42
-1.0
 10
-1448.057438687771
 20
-2424.621582632605
 42
0.0
 10
-1435.057438687772
 20
-2424.621582632605
 42
0.0
 10
-1435.057438687772
 20
-2425.621582632605
 42
0.0
 10
-1427.057438687772
 20
-2425.621582632605
 42
0.0
 10
-1427.057438687772
 20
-2427.581582632605
 42
0.0
 10
-1423.057438687772
 20
-2427.521582632605
 42
0.0
 97
        0
 92
       23
 72
     0
 73
     1
 93
        4
 10
-1429.157438687772
 20
-2434.834018197925
 10
-1429.557438687772
 20
-2435.064958305605
 10
-1429.557438687772
 20
-2441.621582632605
 10
-1429.157438687772
 20
-2441.621582632605
 97
        0
 92
       23
 72
     0
 73
     1
 93
        4
 10
-1429.157438687772
 20
-2441.621582632605
 10
-1429.557438687772
 20
-2441.621582632605
 10
-1429.557438687772
 20
-2442.621582632605
 10
-1429.157438687772
 20
-2442.621582632605
 97
        0
 92
       23
 72
     0
 73
     1
 93
        4
 10
-1423.057438687772
 20
-2429.221582632605
 10
-1427.057438687772
 20
-2429.161582632605
 10
-1427.057438687772
 20
-2442.621582632605
 10
-1423.057438687772
 20
-2442.621582632605
 97
        0
 75
     1
 76
     1
 52
90.0
 41
1.5
 77
     0
 78
     1
 53
135.0
 43
-201.093932362827
 44
245.1606265035088
 45
-3.367596045400932
 46
-3.367596045400931
 79
     0
 47
0.0304274660312215
 98
        4
 10
-1425.344558862328
 20
-2424.412545442729
 10
-1429.302756480779
 20
-2436.796525294327
 10
-1429.272306092279
 20
-2441.969195167703
 10
-1424.33978890671
 20
-2436.370541840498
1001
GradientColor1ACI
1070
     5
1001
GradientColor2ACI
1070
     2
1001
ACAD
1010
0.0
1020
0.0
1030
0.0
  0
LINE
  5
1F218
330
1F
100
AcDbEntity
  8
0
370
    30
100
AcDbLine
 10
-1441.057438687772
 20
-2437.621582632605
 30
0.0
 11
-1441.057438687772
 21
-2440.621582632605
 31
0.0
  0
LINE
  5
1F219
330
1F
100
AcDbEntity
  8
0
370
    30
100
AcDbLine
 10
-1435.057438687772
 20
-2437.621582632605
 30
0.0
 11
-1435.057438687772
 21
-2424.621582632605
 31
0.0
  0
LINE
  5
1F21A
330
1F
100
AcDbEntity
  8
0
370
    30
100
AcDbLine
 10
-1433.557438687772
 20
-2425.621582632605
 30
0.0
 11
-1433.557438687772
 21
-2433.621582632605
 31
0.0
  0
LINE
  5
1F21B
330
1F
100
AcDbEntity
  8
0
370
    30
100
AcDbLine
 10
-1429.557438687772
 20
-2442.621582632605
 30
0.0
 11
-1429.557438687772
 21
-2441.621582632605
 31
0.0
  0
LINE
  5
1F21C
330
1F
100
AcDbEntity
  8
0
370
    30
100
AcDbLine
 10
-1429.557438687772
 20
-2441.621582632605
 30
0.0
 11
-1429.557438687772
 21
-2433.821582632605
 31
0.0
  0
LINE
  5
1F21D
330
1F
100
AcDbEntity
  8
0
370
    30
100
AcDbLine
 10
-1429.157438687772
 20
-2434.834018197925
 30
0.0
 11
-1429.157438687772
 21
-2442.621582632605
 31
0.0
  0
LINE
  5
1F21E
330
1F
100
AcDbEntity
  8
0
370
    30
100
AcDbLine
 10
-1428.307438687772
 20
-2440.121582632605
 30
0.0
 11
-1428.307438687772
 21
-2441.621582632605
 31
0.0
  0
LINE
  5
1F21F
330
1F
100
AcDbEntity
  8
0
370
    30
100
AcDbLine
 10
-1427.057438687772
 20
-2442.621582632605
 30
0.0
 11
-1427.057438687772
 21
-2425.621582632605
 31
0.0
  0
LINE
  5
1F220
330
1F
100
AcDbEntity
  8
0
370
    30
100
AcDbLine
 10
-1423.057438687772
 20
-2442.621582632605
 30
0.0
 11
-1423.057438687772
 21
-2428.921582632605
 31
0.0
  0
LINE
  5
1F221
330
1F
100
AcDbEntity
  8
0
370
    30
100
AcDbLine
 10
-1423.057438687772
 20
-2427.721582632605
 30
0.0
 11
-1423.057438687772
 21
-2422.621582632605
 31
0.0
  0
LINE
  5
1F222
330
1F
100
AcDbEntity
  8
0
370
    30
100
AcDbLine
 10
-1429.557438687772
 20
-2435.064958305605
 30
0.0
 11
-1427.057438687772
 21
-2433.621582632605
 31
0.0
  0
LINE
  5
1F223
330
1F
100
AcDbEntity
  8
0
370
    30
100
AcDbLine
 10
-1102.057438687771
 20
-2429.221582632605
 30
0.0
 11
-1097.057438687772
 21
-2429.146582632605
 31
0.0
  0
LINE
  5
1F224
330
1F
100
AcDbEntity
  8
0
370
    30
100
AcDbLine
 10
-1448.057438687771
 20
-2442.621582632605
 30
0.0
 11
-1423.057438687772
 21
-2442.621582632605
 31
0.0
  0
LINE
  5
1F225
330
1F
100
AcDbEntity
  8
0
370
    30
100
AcDbLine
 10
-1102.057438687771
 20
-2442.621582632605
 30
0.0
 11
-1077.057438687772
 21
-2442.621582632605
 31
0.0
  0
LINE
  5
1F226
330
1F
100
AcDbEntity
  8
0
370
    30
100
AcDbLine
 10
-1090.557438687771
 20
-2442.221582632605
 30
0.0
 11
-1085.557438687771
 21
-2442.221582632605
 31
0.0
  0
LINE
  5
1F227
330
1F
100
AcDbEntity
  8
0
370
    30
100
AcDbLine
 10
-1086.807438687771
 20
-2440.721582632605
 30
0.0
 11
-1089.307438687772
 21
-2440.721582632605
 31
0.0
  0
LINE
  5
1F228
330
1F
100
AcDbEntity
  8
0
370
    30
100
AcDbLine
 10
-1077.057438687772
 20
-2440.621582632605
 30
0.0
 11
-1084.057438687771
 21
-2440.621582632605
 31
0.0
  0
LINE
  5
1F229
330
1F
100
AcDbEntity
  8
0
370
    30
100
AcDbLine
 10
-1448.057438687771
 20
-2440.621582632605
 30
0.0
 11
-1441.057438687772
 21
-2440.621582632605
 31
0.0
  0
LINE
  5
1F22A
330
1F
100
AcDbEntity
  8
0
370
    30
100
AcDbLine
 10
-1100.057438687771
 20
-2440.621582632605
 30
0.0
 11
-1092.057438687771
 21
-2440.621582632605
 31
0.0
  0
LINE
  5
1F22B
330
1F
100
AcDbEntity
  8
0
370
    30
100
AcDbLine
 10
-1428.307438687772
 20
-2440.121582632605
 30
0.0
 11
-1427.057438687772
 21
-2440.121582632605
 31
0.0
  0
LINE
  5
1F22C
330
1F
100
AcDbEntity
  8
0
370
    30
100
AcDbLine
 10
-1077.057438687772
 20
-2439.621582632605
 30
0.0
 11
-1083.757438687771
 21
-2439.621582632605
 31
0.0
  0
LINE
  5
1F22D
330
1F
100
AcDbEntity
  8
0
370
    30
100
AcDbLine
 10
-1092.357438687772
 20
-2439.621582632605
 30
0.0
 11
-1099.557438687772
 21
-2439.621582632605
 31
0.0
  0
LINE
  5
1F22E
330
1F
100
AcDbEntity
  8
0
370
    30
100
AcDbLine
 10
-1448.057438687771
 20
-2439.621582632605
 30
0.0
 11
-1441.497438687772
 21
-2439.621582632605
 31
0.0
  0
LINE
  5
1F22F
330
1F
100
AcDbEntity
  8
0
370
    30
100
AcDbLine
 10
-1084.057438687771
 20
-2437.621582632605
 30
0.0
 11
-1085.957438687771
 21
-2437.621582632605
 31
0.0
  0
LINE
  5
1F230
330
1F
100
AcDbEntity
  8
0
370
    30
100
AcDbLine
 10
-1090.157438687772
 20
-2437.621582632605
 30
0.0
 11
-1092.057438687771
 21
-2437.621582632605
 31
0.0
  0
LINE
  5
1F231
330
1F
100
AcDbEntity
  8
0
370
    30
100
AcDbLine
 10
-1441.057438687772
 20
-2437.621582632605
 30
0.0
 11
-1435.057037629072
 21
-2437.621582632605
 31
0.0
  0
LINE
  5
1F232
330
1F
100
AcDbEntity
  8
0
370
    30
100
AcDbLine
 10
-1435.057438687772
 20
-2436.621582632605
 30
0.0
 11
-1441.497438687772
 21
-2436.621582632605
 31
0.0
  0
LINE
  5
1F233
330
1F
100
AcDbEntity
  8
0
370
    30
100
AcDbLine
 10
-1074.757438687772
 20
-2434.221582632605
 30
0.0
 11
-1078.757438687772
 21
-2434.221582632605
 31
0.0
  0
LINE
  5
1F234
330
1F
100
AcDbEntity
  8
0
370
    30
100
AcDbLine
 10
-1446.357438687772
 20
-2434.221582632605
 30
0.0
 11
-1450.357438687771
 21
-2434.221582632605
 31
0.0
  0
LINE
  5
1F235
330
1F
100
AcDbEntity
  8
0
370
    30
100
AcDbLine
 10
-1092.357438687772
 20
-2434.196711502005
 30
0.0
 11
-1083.757438687771
 21
-2434.196711502005
 31
0.0
  0
LINE
  5
1F236
330
1F
100
AcDbEntity
  8
0
370
    30
100
AcDbLine
 10
-1100.057438687771
 20
-2434.121582632605
 30
0.0
 11
-1097.057438687772
 21
-2434.121582632605
 31
0.0
  0
LINE
  5
1F237
330
1F
100
AcDbEntity
  8
0
370
    30
100
AcDbLine
 10
-1435.057438687772
 20
-2433.821582632605
 30
0.0
 11
-1427.403848849271
 21
-2433.821582632605
 31
0.0
  0
LINE
  5
1F238
330
1F
100
AcDbEntity
  8
0
370
    30
100
AcDbLine
 10
-1433.557438687772
 20
-2433.621582632605
 30
0.0
 11
-1427.057438687772
 21
-2433.621582632605
 31
0.0
  0
LINE
  5
1F239
330
1F
100
AcDbEntity
  8
0
370
    30
100
AcDbLine
 10
-1433.557438687772
 20
-2432.621582632605
 30
0.0
 11
-1427.057438687772
 21
-2432.621582632605
 31
0.0
  0
LINE
  5
1F23A
330
1F
100
AcDbEntity
  8
0
370
    30
100
AcDbLine
 10
-1423.057438687772
 20
-2429.221582632605
 30
0.0
 11
-1427.057438687772
 21
-2429.161582632605
 31
0.0
  0
LINE
  5
1F23B
330
1F
100
AcDbEntity
  8
0
370
    30
100
AcDbLine
 10
-1423.057438687772
 20
-2427.521582632605
 30
0.0
 11
-1427.057438687772
 21
-2427.581582632605
 31
0.0
  0
LINE
  5
1F23C
330
1F
100
AcDbEntity
  8
0
370
    30
100
AcDbLine
 10
-1450.357438687771
 20
-2430.021582632605
 30
0.0
 11
-1446.357438687772
 21
-2430.021582632605
 31
0.0
  0
LINE
  5
1F23D
330
1F
100
AcDbEntity
  8
0
370
    30
100
AcDbLine
 10
-1078.757438687772
 20
-2430.021582632605
 30
0.0
 11
-1074.757438687772
 21
-2430.021582632605
 31
0.0
  0
LINE
  5
1F23E
330
1F
100
AcDbEntity
  8
0
370
    30
100
AcDbLine
 10
-1427.057438687772
 20
-2428.921582632605
 30
0.0
 11
-1097.057438687772
 21
-2428.921582632605
 31
0.0
  0
LINE
  5
1F23F
330
1F
100
AcDbEntity
  8
0
370
    30
100
AcDbLine
 10
-1427.057438687772
 20
-2427.721582632605
 30
0.0
 11
-1097.057438687772
 21
-2427.721582632605
 31
0.0
  0
LINE
  5
1F240
330
1F
100
AcDbEntity
  8
0
370
    30
100
AcDbLine
 10
-1433.557438687772
 20
-2426.621582632605
 30
0.0
 11
-1427.057438687772
 21
-2426.621582632605
 31
0.0
  0
LINE
  5
1F241
330
1F
100
AcDbEntity
  8
0
370
    30
100
AcDbLine
 10
-1435.057438687772
 20
-2425.621582632605
 30
0.0
 11
-1427.057438687772
 21
-2425.621582632605
 31
0.0
  0
LINE
  5
1F242
330
1F
100
AcDbEntity
  8
0
370
    30
100
AcDbLine
 10
-1077.057438687772
 20
-2424.621582632605
 30
0.0
 11
-1097.057438687772
 21
-2424.621582632605
 31
0.0
  0
LINE
  5
1F243
330
1F
100
AcDbEntity
  8
0
370
    30
100
AcDbLine
 10
-1435.057438687772
 20
-2424.621582632605
 30
0.0
 11
-1448.057438687771
 21
-2424.621582632605
 31
0.0
  0
LINE
  5
1F244
330
1F
100
AcDbEntity
  8
0
370
    30
100
AcDbLine
 10
-1448.057438687771
 20
-2422.621582632605
 30
0.0
 11
-1423.057438687772
 21
-2422.621582632605
 31
0.0
  0
LINE
  5
1F245
330
1F
100
AcDbEntity
  8
0
370
    30
100
AcDbLine
 10
-1102.057438687771
 20
-2422.621582632605
 30
0.0
 11
-1077.057438687772
 21
-2422.621582632605
 31
0.0
  0
LINE
  5
1F246
330
1F
100
AcDbEntity
  8
0
370
    30
100
AcDbLine
 10
-1102.057438687771
 20
-2427.521582632605
 30
0.0
 11
-1097.057438687772
 21
-2427.596582632605
 31
0.0
  0
LINE
  5
1F247
330
1F
100
AcDbEntity
  8
0
370
    30
100
AcDbLine
 10
-1090.557438687771
 20
-2435.664958305605
 30
0.0
 11
-1088.057438687772
 21
-2434.221582632605
 31
0.0
  0
LINE
  5
1F248
330
1F
100
AcDbEntity
  8
0
370
    30
100
AcDbLine
 10
-1085.557438687771
 20
-2435.664958305605
 30
0.0
 11
-1088.057438687772
 21
-2434.221582632605
 31
0.0
  0
LINE
  5
1F249
330
1F
100
AcDbEntity
  8
0
370
    30
100
AcDbLine
 10
-1102.057438687771
 20
-2442.621582632605
 30
0.0
 11
-1102.057438687771
 21
-2428.921582632605
 31
0.0
  0
LINE
  5
1F24A
330
1F
100
AcDbEntity
  8
0
370
    30
100
AcDbLine
 10
-1102.057438687771
 20
-2427.721582632605
 30
0.0
 11
-1102.057438687771
 21
-2422.621582632605
 31
0.0
  0
LINE
  5
1F24B
330
1F
100
AcDbEntity
  8
0
370
    30
100
AcDbLine
 10
-1100.057438687771
 20
-2440.621582632605
 30
0.0
 11
-1100.057438687771
 21
-2434.121582632605
 31
0.0
  0
LINE
  5
1F24C
330
1F
100
AcDbEntity
  8
0
370
    30
100
AcDbLine
 10
-1099.557438687772
 20
-2434.121582632605
 30
0.0
 11
-1099.557438687772
 21
-2439.621582632605
 31
0.0
  0
LINE
  5
1F24D
330
1F
100
AcDbEntity
  8
0
370
    30
100
AcDbLine
 10
-1097.057438687772
 20
-2442.621582632605
 30
0.0
 11
-1097.057438687772
 21
-2440.621582632605
 31
0.0
  0
LINE
  5
1F24E
330
1F
100
AcDbEntity
  8
0
370
    30
100
AcDbLine
 10
-1097.057438687772
 20
-2439.621582632605
 30
0.0
 11
-1097.057438687772
 21
-2435.203248015205
 31
0.0
  0
LINE
  5
1F24F
330
1F
100
AcDbEntity
  8
0
370
    30
100
AcDbLine
 10
-1097.057438687772
 20
-2434.121582632605
 30
0.0
 11
-1097.057438687772
 21
-2424.621582632605
 31
0.0
  0
LINE
  5
1F250
330
1F
100
AcDbEntity
  8
0
370
    30
100
AcDbLine
 10
-1093.157438687772
 20
-2430.121582632605
 30
0.0
 11
-1093.157438687772
 21
-2434.121582632605
 31
0.0
  0
LINE
  5
1F251
330
1F
100
AcDbEntity
  8
0
370
    30
100
AcDbLine
 10
-1092.357438687772
 20
-2439.621582632605
 30
0.0
 11
-1092.357438687772
 21
-2434.196711502005
 31
0.0
  0
LINE
  5
1F252
330
1F
100
AcDbEntity
  8
0
370
    30
100
AcDbLine
 10
-1092.057438687771
 20
-2437.621582632605
 30
0.0
 11
-1092.057438687771
 21
-2440.621582632605
 31
0.0
  0
LINE
  5
1F253
330
1F
100
AcDbEntity
  8
0
370
    30
100
AcDbLine
 10
-1090.557438687771
 20
-2442.221582632605
 30
0.0
 11
-1090.557438687771
 21
-2442.621582632605
 31
0.0
  0
LINE
  5
1F254
330
1F
100
AcDbEntity
  8
0
370
    30
100
AcDbLine
 10
-1090.557438687771
 20
-2442.221582632605
 30
0.0
 11
-1090.557438687771
 21
-2435.664958305605
 31
0.0
  0
LINE
  5
1F255
330
1F
100
AcDbEntity
  8
0
370
    30
100
AcDbLine
 10
-1090.157438687772
 20
-2435.434018197905
 30
0.0
 11
-1090.157438687772
 21
-2437.621582632605
 31
0.0
  0
LINE
  5
1F256
330
1F
100
AcDbEntity
  8
0
370
    30
100
AcDbLine
 10
-1090.157438687772
 20
-2437.621582632605
 30
0.0
 11
-1090.157438687772
 21
-2442.621582632605
 31
0.0
  0
LINE
  5
1F257
330
1F
100
AcDbEntity
  8
0
370
    30
100
AcDbLine
 10
-1089.307438687772
 20
-2440.721582632605
 30
0.0
 11
-1089.307438687772
 21
-2442.221582632605
 31
0.0
  0
LINE
  5
1F258
330
1F
100
AcDbEntity
  8
0
370
    30
100
AcDbLine
 10
-1088.057438687772
 20
-2442.221582632605
 30
0.0
 11
-1088.057438687772
 21
-2440.721582632605
 31
0.0
  0
LINE
  5
1F259
330
1F
100
AcDbEntity
  8
0
370
    30
100
AcDbLine
 10
-1086.807438687771
 20
-2440.721582632605
 30
0.0
 11
-1086.807438687771
 21
-2442.221582632605
 31
0.0
  0
LINE
  5
1F25A
330
1F
100
AcDbEntity
  8
0
370
    30
100
AcDbLine
 10
-1085.957438687772
 20
-2435.434018197905
 30
0.0
 11
-1085.957438687772
 21
-2437.621582632605
 31
0.0
  0
LINE
  5
1F25B
330
1F
100
AcDbEntity
  8
0
370
    30
100
AcDbLine
 10
-1085.957438687772
 20
-2437.621582632605
 30
0.0
 11
-1085.957438687772
 21
-2442.621582632605
 31
0.0
  0
LINE
  5
1F25C
330
1F
100
AcDbEntity
  8
0
370
    30
100
AcDbLine
 10
-1085.557438687771
 20
-2442.221582632605
 30
0.0
 11
-1085.557438687771
 21
-2442.621582632605
 31
0.0
  0
LINE
  5
1F25D
330
1F
100
AcDbEntity
  8
0
370
    30
100
AcDbLine
 10
-1085.557438687771
 20
-2442.221582632605
 30
0.0
 11
-1085.557438687771
 21
-2435.664958305605
 31
0.0
  0
LINE
  5
1F25E
330
1F
100
AcDbEntity
  8
0
370
    30
100
AcDbLine
 10
-1084.057438687771
 20
-2437.621582632605
 30
0.0
 11
-1084.057438687771
 21
-2440.621582632605
 31
0.0
  0
LINE
  5
1F25F
330
1F
100
AcDbEntity
  8
0
370
    30
100
AcDbLine
 10
-1083.757438687771
 20
-2439.621582632605
 30
0.0
 11
-1083.757438687771
 21
-2434.196711502005
 31
0.0
  0
ARC
  5
1F264
330
1F
100
AcDbEntity
  8
0
370
    30
100
AcDbCircle
 10
-1077.057438687772
 20
-2432.621582632605
 30
0.0
 40
10.0
100
AcDbArc
 50
270.0
 51
90.0
  0
ARC
  5
1F265
330
1F
100
AcDbEntity
  8
0
370
    30
100
AcDbCircle
 10
-1448.057438687771
 20
-2432.621582632605
 30
0.0
 40
10.0
100
AcDbArc
 50
90.0
 51
270.0
  0
ARC
  5
1F266
330
1F
100
AcDbEntity
  8
0
370
    30
100
AcDbCircle
 10
-1077.057438687772
 20
-2432.621582632605
 30
0.0
 40
8.0
100
AcDbArc
 50
270.0
 51
90.0
  0
ARC
  5
1F267
330
1F
100
AcDbEntity
  8
0
370
    30
100
AcDbCircle
 10
-1448.057438687771
 20
-2432.621582632605
 30
0.0
 40
8.0
100
AcDbArc
 50
90.0
 51
270.0
  0
ARC
  5
1F268
330
1F
100
AcDbEntity
  8
0
370
    30
100
AcDbCircle
 10
-1077.057438687772
 20
-2432.121582632605
 30
0.0
 40
7.5
100
AcDbArc
 50
270.0
 51
90.0
  0
ARC
  5
1F269
330
1F
100
AcDbEntity
  8
0
370
    30
100
AcDbCircle
 10
-1448.057438687771
 20
-2432.121582632605
 30
0.0
 40
7.5
100
AcDbArc
 50
90.0
 51
270.0
  0
ARC
  5
1F26A
330
1F
100
AcDbEntity
  8
0
370
    30
100
AcDbCircle
 10
-1078.757438687772
 20
-2432.121582632605
 30
0.0
 40
2.1
100
AcDbArc
 50
90.0
 51
270.0
  0
ARC
  5
1F26B
330
1F
100
AcDbEntity
  8
0
370
    30
100
AcDbCircle
 10
-1074.757438687772
 20
-2432.121582632605
 30
0.0
 40
2.1
100
AcDbArc
 50
270.0
 51
90.0
  0
ARC
  5
1F26C
330
1F
100
AcDbEntity
  8
0
370
    30
100
AcDbCircle
 10
-1095.257438687772
 20
-2430.121582632605
 30
0.0
 40
2.1
100
AcDbArc
 50
0.0
 51
148.9972808660994
  0
ARC
  5
1F26D
330
1F
100
AcDbEntity
  8
0
370
    30
100
AcDbCircle
 10
-1095.257438687772
 20
-2434.121582632605
 30
0.0
 40
2.1
100
AcDbArc
 50
180.0
 51
0.0
  0
ARC
  5
1F26E
330
1F
100
AcDbEntity
  8
0
370
    30
100
AcDbCircle
 10
-1450.357438687771
 20
-2432.121582632605
 30
0.0
 40
2.1
100
AcDbArc
 50
90.0
 51
270.0
  0
ARC
  5
1F26F
330
1F
100
AcDbEntity
  8
0
370
    30
100
AcDbCircle
 10
-1446.357438687772
 20
-2432.121582632605
 30
0.0
 40
2.1
100
AcDbArc
 50
270.0
 51
90.0
  0
LINE
  5
1F28F
330
1F
100
AcDbEntity
  8
0
370
    30
100
AcDbLine
 10
-1428.307438687772
 20
-2441.621582632605
 30
0.0
 11
-1429.557438687772
 21
-2441.621582632605
 31
0.0
  0
LINE
  5
1F290
330
1F
100
AcDbEntity
  8
0
  6
Continuous
370
    30
100
AcDbLine
 10
-1067.057438687772
 20
-2484.647533767505
 30
0.0
 11
-1067.057438687772
 21
-2586.147533767505
 31
0.0
  0
LINE
  5
1F291
330
1F
100
AcDbEntity
  8
0
  6
DASHED2
370
    -2
100
AcDbLine
 10
-1069.057438687772
 20
-2484.647533767505
 30
0.0
 11
-1069.057438687772
 21
-2584.147533767505
 31
0.0
  0
LINE
  5
1F292
330
1F
100
AcDbEntity
  8
0
  6
DASHED2
370
    -2
100
AcDbLine
 10
-1069.557438687771
 20
-2484.847533767505
 30
0.0
 11
-1069.557438687771
 21
-2494.847533767505
 31
0.0
  0
LINE
  5
1F293
330
1F
100
AcDbEntity
  8
0
  6
DASHED2
370
    -2
100
AcDbLine
 10
-1083.617438687771
 20
-2494.847533767505
 30
0.0
 11
-1083.617438687771
 21
-2484.847533767505
 31
0.0
  0
LINE
  5
1F294
330
1F
100
AcDbEntity
  8
0
  6
DASHED2
370
    -2
100
AcDbLine
 10
-1084.057438687771
 20
-2584.147533767505
 30
0.0
 11
-1084.057438687771
 21
-2494.847533767505
 31
0.0
  0
LINE
  5
1F295
330
1F
100
AcDbEntity
  8
0
  6
DASHED2
370
    -2
100
AcDbLine
 10
-1090.057438687772
 20
-2584.147533767505
 30
0.0
 11
-1090.057438687772
 21
-2510.847533767505
 31
0.0
  0
LINE
  5
1F296
330
1F
100
AcDbEntity
  8
0
  6
DASHED2
370
    -2
100
AcDbLine
 10
-1091.557438687772
 20
-2578.147533767505
 30
0.0
 11
-1091.557438687772
 21
-2586.147533767505
 31
0.0
  0
LINE
  5
1F297
330
1F
100
AcDbEntity
  8
0
  6
DASHED2
370
    -2
100
AcDbLine
 10
-1092.057438687771
 20
-2576.847533767505
 30
0.0
 11
-1092.057438687771
 21
-2511.847533767505
 31
0.0
  0
LINE
  5
1F298
330
1F
100
AcDbEntity
  8
0
  6
DASHED2
370
    -2
100
AcDbLine
 10
-1092.057438687771
 20
-2510.847533767505
 30
0.0
 11
-1092.057438687771
 21
-2494.847533767505
 31
0.0
  0
LINE
  5
1F299
330
1F
100
AcDbEntity
  8
0
  6
DASHED2
370
    -2
100
AcDbLine
 10
-1092.497438687771
 20
-2494.847533767505
 30
0.0
 11
-1092.497438687771
 21
-2484.847533767505
 31
0.0
  0
LINE
  5
1F29A
330
1F
100
AcDbEntity
  8
0
  6
DASHED2
370
    -2
100
AcDbLine
 10
-1099.557438687772
 20
-2484.847533767505
 30
0.0
 11
-1099.557438687772
 21
-2494.847533767505
 31
0.0
  0
LINE
  5
1F29B
330
1F
100
AcDbEntity
  8
0
  6
DASHED2
370
    -2
100
AcDbLine
 10
-1100.057438687771
 20
-2484.647533767505
 30
0.0
 11
-1100.057438687771
 21
-2510.847533767505
 31
0.0
  0
LINE
  5
1F29C
330
1F
100
AcDbEntity
  8
0
  6
Continuous
370
    30
100
AcDbLine
 10
-1102.057438687771
 20
-2586.147533767505
 30
0.0
 11
-1102.057438687771
 21
-2484.647533767505
 31
0.0
  0
LINE
  5
1F29D
330
1F
100
AcDbEntity
  8
0
  6
Continuous
370
    30
100
AcDbLine
 10
-1102.557438687772
 20
-2510.847533767505
 30
0.0
 11
-1102.557438687772
 21
-2486.847533767505
 31
0.0
  0
LINE
  5
1F29E
330
1F
100
AcDbEntity
  8
0
  6
Continuous
370
    30
100
AcDbLine
 10
-1067.057438687772
 20
-2586.147533767505
 30
0.0
 11
-1458.057438687772
 21
-2586.147533767505
 31
0.0
  0
LINE
  5
1F29F
330
1F
100
AcDbEntity
  8
0
  6
DASHED2
370
    -2
100
AcDbLine
 10
-1069.057438687772
 20
-2584.147533767505
 30
0.0
 11
-1091.557438687772
 21
-2584.147533767505
 31
0.0
  0
LINE
  5
1F2A0
330
1F
100
AcDbEntity
  8
0
  6
DASHED2
370
    -2
100
AcDbLine
 10
-1102.057438687771
 20
-2578.147533767505
 30
0.0
 11
-1090.057438687772
 21
-2578.147533767505
 31
0.0
  0
LINE
  5
1F2A1
330
1F
100
AcDbEntity
  8
0
  6
Continuous
370
    30
100
AcDbLine
 10
-1102.057438687771
 20
-2578.147533767505
 30
0.0
 11
-1261.457438687772
 21
-2578.147533767505
 31
0.0
  0
LINE
  5
1F2A2
330
1F
100
AcDbEntity
  8
0
  6
Continuous
370
    30
100
AcDbLine
 10
-1263.657438687772
 20
-2578.147533767505
 30
0.0
 11
-1423.057438687772
 21
-2578.147533767505
 31
0.0
  0
LINE
  5
1F2A3
330
1F
100
AcDbEntity
  8
0
  6
Continuous
370
    30
100
AcDbLine
 10
-1423.057438687772
 20
-2577.847533767505
 30
0.0
 11
-1264.057438687772
 21
-2577.847533767505
 31
0.0
  0
LINE
  5
1F2A4
330
1F
100
AcDbEntity
  8
0
  6
Continuous
370
    30
100
AcDbLine
 10
-1261.057438687771
 20
-2577.847533767505
 30
0.0
 11
-1102.057438687771
 21
-2577.847533767505
 31
0.0
  0
LINE
  5
1F2A5
330
1F
100
AcDbEntity
  8
0
  6
DASHED2
370
    -2
100
AcDbLine
 10
-1102.057438687771
 20
-2577.847533767505
 30
0.0
 11
-1093.057438687772
 21
-2577.847533767505
 31
0.0
  0
LINE
  5
1F2A6
330
1F
100
AcDbEntity
  8
0
  6
Continuous
370
    30
100
AcDbLine
 10
-1126.557438687772
 20
-2557.847533767505
 30
0.0
 11
-1398.557438687771
 21
-2557.847533767505
 31
0.0
  0
LINE
  5
1F2A7
330
1F
100
AcDbEntity
  8
0
  6
Continuous
370
    30
100
AcDbLine
 10
-1398.557438687771
 20
-2553.847533767505
 30
0.0
 11
-1126.557438687772
 21
-2553.847533767505
 31
0.0
  0
LINE
  5
1F2A8
330
1F
100
AcDbEntity
  8
0
  6
Continuous
370
    30
100
AcDbLine
 10
-1126.557438687772
 20
-2541.847533767505
 30
0.0
 11
-1398.557438687771
 21
-2541.847533767505
 31
0.0
  0
LINE
  5
1F2A9
330
1F
100
AcDbEntity
  8
0
  6
Continuous
370
    30
100
AcDbLine
 10
-1398.557438687771
 20
-2537.847533767505
 30
0.0
 11
-1126.557438687772
 21
-2537.847533767505
 31
0.0
  0
LINE
  5
1F2AA
330
1F
100
AcDbEntity
  8
0
  6
Continuous
370
    30
100
AcDbLine
 10
-1126.557438687772
 20
-2525.847533767505
 30
0.0
 11
-1398.557438687771
 21
-2525.847533767505
 31
0.0
  0
LINE
  5
1F2AB
330
1F
100
AcDbEntity
  8
0
  6
Continuous
370
    30
100
AcDbLine
 10
-1398.557438687771
 20
-2521.847533767505
 30
0.0
 11
-1126.557438687772
 21
-2521.847533767505
 31
0.0
  0
LINE
  5
1F2AC
330
1F
100
AcDbEntity
  8
0
  6
DASHED2
370
    -2
100
AcDbLine
 10
-1102.057438687771
 20
-2510.847533767505
 30
0.0
 11
-1090.057438687772
 21
-2510.847533767505
 31
0.0
  0
LINE
  5
1F2AD
330
1F
100
AcDbEntity
  8
0
  6
Continuous
370
    30
100
AcDbLine
 10
-1102.057438687771
 20
-2510.847533767505
 30
0.0
 11
-1102.557438687772
 21
-2510.847533767505
 31
0.0
  0
LINE
  5
1F2AE
330
1F
100
AcDbEntity
  8
0
  6
Continuous
370
    30
100
AcDbLine
 10
-1422.557438687771
 20
-2510.847533767505
 30
0.0
 11
-1423.057438687772
 21
-2510.847533767505
 31
0.0
  0
LINE
  5
1F2AF
330
1F
100
AcDbEntity
  8
0
  6
Continuous
370
    30
100
AcDbLine
 10
-1126.557438687772
 20
-2509.847533767505
 30
0.0
 11
-1398.557438687771
 21
-2509.847533767505
 31
0.0
  0
LINE
  5
1F2B0
330
1F
100
AcDbEntity
  8
0
  6
Continuous
370
    30
100
AcDbLine
 10
-1398.557438687771
 20
-2505.847533767505
 30
0.0
 11
-1126.557438687772
 21
-2505.847533767505
 31
0.0
  0
LINE
  5
1F2B1
330
1F
100
AcDbEntity
  8
0
  6
DASHED2
370
    -2
100
AcDbLine
 10
-1099.557438687772
 20
-2494.847533767505
 30
0.0
 11
-1069.557438687771
 21
-2494.847533767505
 31
0.0
  0
LINE
  5
1F2B2
330
1F
100
AcDbEntity
  8
0
  6
Continuous
370
    30
100
AcDbLine
 10
-1103.557438687772
 20
-2485.847533767505
 30
0.0
 11
-1421.557438687772
 21
-2485.847533767505
 31
0.0
  0
LINE
  5
1F2B3
330
1F
100
AcDbEntity
  8
0
  6
DASHED2
370
    -2
100
AcDbLine
 10
-1099.557438687772
 20
-2484.847533767505
 30
0.0
 11
-1069.557438687771
 21
-2484.847533767505
 31
0.0
  0
LINE
  5
1F2B4
330
1F
100
AcDbEntity
  8
0
  6
Continuous
370
    30
100
AcDbLine
 10
-1102.057438687771
 20
-2484.647533767505
 30
0.0
 11
-1067.057438687772
 21
-2484.647533767505
 31
0.0
  0
LINE
  5
1F2B5
330
1F
100
AcDbEntity
  8
0
  6
Continuous
370
    30
100
AcDbLine
 10
-1423.057438687772
 20
-2484.647533767505
 30
0.0
 11
-1458.057438687772
 21
-2484.647533767505
 31
0.0
  0
LINE
  5
1F2B6
330
1F
100
AcDbEntity
  8
0
  6
Continuous
370
    30
100
AcDbLine
 10
-1422.557438687771
 20
-2486.847533767505
 30
0.0
 11
-1422.557438687771
 21
-2510.847533767505
 31
0.0
  0
LINE
  5
1F2B7
330
1F
100
AcDbEntity
  8
0
  6
Continuous
370
    30
100
AcDbLine
 10
-1423.057438687772
 20
-2586.147533767505
 30
0.0
 11
-1423.057438687772
 21
-2484.647533767505
 31
0.0
  0
LINE
  5
1F2B8
330
1F
100
AcDbEntity
  8
0
  6
Continuous
370
    30
100
AcDbLine
 10
-1448.057438687771
 20
-2586.147533767505
 30
0.0
 11
-1448.057438687771
 21
-2484.647533767505
 31
0.0
  0
LINE
  5
1F2B9
330
1F
100
AcDbEntity
  8
0
  6
Continuous
370
    30
100
AcDbLine
 10
-1458.057438687772
 20
-2586.147533767505
 30
0.0
 11
-1458.057438687772
 21
-2484.647533767505
 31
0.0
  0
ARC
  5
1F2BA
330
1F
100
AcDbEntity
  8
0
  6
DASHED2
370
    -2
100
AcDbCircle
 10
-1093.057438687772
 20
-2576.847533767505
 30
0.0
 40
1.0
100
AcDbArc
 50
270.0
 51
0.0
  0
ARC
  5
1F2BB
330
1F
100
AcDbEntity
  8
0
  6
Continuous
370
    30
100
AcDbCircle
 10
-1126.557438687772
 20
-2539.847533767505
 30
0.0
 40
2.0
100
AcDbArc
 50
270.0
 51
90.0
  0
ARC
  5
1F2BC
330
1F
100
AcDbEntity
  8
0
  6
Continuous
370
    30
100
AcDbCircle
 10
-1126.557438687772
 20
-2555.847533767505
 30
0.0
 40
2.0
100
AcDbArc
 50
270.0
 51
90.0
  0
ARC
  5
1F2BD
330
1F
100
AcDbEntity
  8
0
  6
DASHED2
370
    -2
100
AcDbCircle
 10
-1093.057438687772
 20
-2511.847533767505
 30
0.0
 40
1.0
100
AcDbArc
 50
0.0
 51
90.0
  0
ARC
  5
1F2BE
330
1F
100
AcDbEntity
  8
0
  6
Continuous
370
    30
100
AcDbCircle
 10
-1103.557438687772
 20
-2486.847533767505
 30
0.0
 40
1.0
100
AcDbArc
 50
0.0
 51
90.0
  0
ARC
  5
1F2BF
330
1F
100
AcDbEntity
  8
0
  6
Continuous
370
    30
100
AcDbCircle
 10
-1126.557438687772
 20
-2507.847533767505
 30
0.0
 40
2.0
100
AcDbArc
 50
270.0
 51
90.0
  0
ARC
  5
1F2C0
330
1F
100
AcDbEntity
  8
0
  6
Continuous
370
    30
100
AcDbCircle
 10
-1126.557438687772
 20
-2523.847533767505
 30
0.0
 40
2.0
100
AcDbArc
 50
270.0
 51
90.0
  0
ARC
  5
1F2C1
330
1F
100
AcDbEntity
  8
0
  6
Continuous
370
    30
100
AcDbCircle
 10
-1398.557438687771
 20
-2539.847533767505
 30
0.0
 40
2.0
100
AcDbArc
 50
90.0
 51
270.0
  0
ARC
  5
1F2C2
330
1F
100
AcDbEntity
  8
0
  6
Continuous
370
    30
100
AcDbCircle
 10
-1398.557438687771
 20
-2555.847533767505
 30
0.0
 40
2.0
100
AcDbArc
 50
90.0
 51
270.0
  0
ARC
  5
1F2C3
330
1F
100
AcDbEntity
  8
0
  6
Continuous
370
    30
100
AcDbCircle
 10
-1398.557438687771
 20
-2507.847533767505
 30
0.0
 40
2.0
100
AcDbArc
 50
90.0
 51
270.0
  0
ARC
  5
1F2C4
330
1F
100
AcDbEntity
  8
0
  6
Continuous
370
    30
100
AcDbCircle
 10
-1398.557438687771
 20
-2523.847533767505
 30
0.0
 40
2.0
100
AcDbArc
 50
90.0
 51
270.0
  0
ARC
  5
1F2C5
330
1F
100
AcDbEntity
  8
0
  6
Continuous
370
    30
100
AcDbCircle
 10
-1421.557438687772
 20
-2486.847533767505
 30
0.0
 40
1.0
100
AcDbArc
 50
90.0
 51
180.0
  0
CIRCLE
  5
1F2C6
330
1F
100
AcDbEntity
  8
0
  6
DASHED2
370
    -2
100
AcDbCircle
 10
-1088.057438687772
 20
-2489.647533767505
 30
0.0
 40
2.1
  0
CIRCLE
  5
1F2C7
330
1F
100
AcDbEntity
  8
0
  6
DASHED2
370
    -2
100
AcDbCircle
 10
-1088.057438687772
 20
-2489.647533767505
 30
0.0
 40
2.500000000000006
  0
CIRCLE
  5
1F2C8
330
1F
100
AcDbEntity
  8
0
  6
DASHED2
370
    -2
100
AcDbCircle
 10
-1097.057438687772
 20
-2524.647533767505
 30
0.0
 40
2.1
  0
CIRCLE
  5
1F2C9
330
1F
100
AcDbEntity
  8
0
  6
DASHED2
370
    -2
100
AcDbCircle
 10
-1097.057438687772
 20
-2524.647533767505
 30
0.0
 40
2.500000000000006
  0
CIRCLE
  5
1F2CA
330
1F
100
AcDbEntity
  8
0
  6
DASHED2
370
    -2
100
AcDbCircle
 10
-1097.057438687772
 20
-2564.647533767505
 30
0.0
 40
2.1
  0
CIRCLE
  5
1F2CB
330
1F
100
AcDbEntity
  8
0
  6
DASHED2
370
    -2
100
AcDbCircle
 10
-1097.057438687772
 20
-2564.647533767505
 30
0.0
 40
2.500000000000006
  0
CIRCLE
  5
1F2CC
330
1F
100
AcDbEntity
  8
0
  6
DASHED2
370
    -2
100
AcDbCircle
 10
-1098.057438687772
 20
-2582.147533767505
 30
0.0
 40
2.1
  0
CIRCLE
  5
1F2CD
330
1F
100
AcDbEntity
  8
0
  6
DASHED2
370
    -2
100
AcDbCircle
 10
-1098.057438687772
 20
-2582.147533767505
 30
0.0
 40
2.500000000000006
  0
LINE
  5
1F2CE
330
1F
100
AcDbEntity
  8
0
370
    -2
100
AcDbLine
 10
-1427.057438687772
 20
-2567.727527188768
 30
0.0
 11
-1097.057438687772
 21
-2567.727527188768
 31
0.0
  0
LINE
  5
1F2CF
330
1F
100
AcDbEntity
  8
0
370
    -2
100
AcDbLine
 10
-1097.057438687772
 20
-2489.647533767505
 30
0.0
 11
-1063.870996520416
 21
-2489.647533767505
 31
0.0
  0
LINE
  5
1F2D0
330
1F
100
AcDbEntity
  8
0
370
    -2
100
AcDbLine
 10
-1097.057438687772
 20
-2567.727527188768
 30
0.0
 11
-1097.057438687772
 21
-2489.647533767505
 31
0.0
  0
LINE
  5
1F2D1
330
1F
100
AcDbEntity
  8
0
370
    -2
100
AcDbLine
 10
-1427.057438687772
 20
-2582.147533767505
 30
0.0
 11
-1427.057438687772
 21
-2567.727527188768
 31
0.0
  0
LINE
  5
1F2D2
330
1F
100
AcDbEntity
  8
0
370
    -2
100
AcDbLine
 10
-1427.057438687772
 20
-2582.147533767505
 30
0.0
 11
-1460.16769837084
 21
-2582.147533767505
 31
0.0
  0
CIRCLE
  5
1F2D3
330
1F
100
AcDbEntity
  8
0
  6
DASHED2
370
    -2
100
AcDbCircle
 10
-1427.057438687772
 20
-2582.147533767505
 30
0.0
 40
2.1
  0
CIRCLE
  5
1F2D4
330
1F
100
AcDbEntity
  8
0
  6
DASHED2
370
    -2
100
AcDbCircle
 10
-1427.057438687772
 20
-2582.147533767505
 30
0.0
 40
2.500000000000006
  0
SOLID
  5
1F2D5
330
1F
100
AcDbEntity
  8
0
100
AcDbTrace
 10
-1478.020834646917
 20
-2572.475279955023
 30
0.0
 11
-1476.270834646917
 21
-2561.975279955023
 31
0.0
 12
-1474.520834646917
 22
-2572.475279955023
 32
0.0
 13
-1474.520834646917
 23
-2572.475279955023
 33
0.0
1001
ACAD
1000
DSTYLE
1002
{
1070
   147
1040
0.09
1070
    42
1040
3.4925
1070
    43
1040
21.2344
1070
    44
1040
10.0584
1070
    73
1070
     1
1070
    74
1070
     1
1070
    77
1070
     0
1070
    78
1070
     0
1070
   141
1040
5.0292
1070
   271
1070
     4
1070
   272
1070
     4
1070
   284
1070
     0
1002
}
  0
LINE
  5
1F2D6
330
1F
100
AcDbEntity
  8
0
100
AcDbLine
 10
-1476.270834646917
 20
-2572.475279955023
 30
0.0
 11
-1476.270834646917
 21
-2582.147533767505
 31
0.0
1001
ACAD
1000
DSTYLE
1002
{
1070
   147
1040
0.09
1070
    42
1040
3.4925
1070
    43
1040
21.2344
1070
    44
1040
10.0584
1070
    73
1070
     1
1070
    74
1070
     1
1070
    77
1070
     0
1070
    78
1070
     0
1070
   141
1040
5.0292
1070
   271
1070
     4
1070
   272
1070
     4
1070
   284
1070
     0
1002
}
  0
LINE
  5
1F2D7
330
1F
100
AcDbEntity
  8
0
100
AcDbLine
 10
-1476.270834646917
 20
-2582.147533767505
 30
0.0
 11
-1460.16769837084
 21
-2582.147533767505
 31
0.0
1001
ACAD
1000
DSTYLE
1002
{
1070
   147
1040
0.09
1070
    42
1040
3.4925
1070
    43
1040
21.2344
1070
    44
1040
10.0584
1070
    73
1070
     1
1070
    74
1070
     1
1070
    77
1070
     0
1070
    78
1070
     0
1070
   141
1040
5.0292
1070
   271
1070
     4
1070
   272
1070
     4
1070
   284
1070
     0
1002
}
  0
MTEXT
  5
1F2D8
330
1F
100
AcDbEntity
  8
0
100
AcDbMText
 10
-1471.362313205911
 20
-2560.690416449446
 30
0.0
 40
7.5
 41
15.28274066182416
 46
0.0
 71
     1
 72
     5
  1
{\fSimSun|b0|i0|c134|p2;A}
 73
     1
 44
1.0
  0
SOLID
  5
1F2D9
330
1F
100
AcDbEntity
  8
0
100
AcDbTrace
 10
-1046.017860244339
 20
-2479.975279955023
 30
0.0
 11
-1047.767860244339
 21
-2469.475279955023
 31
0.0
 12
-1049.517860244339
 22
-2479.975279955023
 32
0.0
 13
-1049.517860244339
 23
-2479.975279955023
 33
0.0
1001
ACAD
1000
DSTYLE
1002
{
1070
   147
1040
0.09
1070
    42
1040
3.4925
1070
    43
1040
21.2344
1070
    44
1040
10.0584
1070
    73
1070
     1
1070
    74
1070
     1
1070
    77
1070
     0
1070
    78
1070
     0
1070
   141
1040
5.0292
1070
   271
1070
     4
1070
   272
1070
     4
1070
   284
1070
     0
1002
}
  0
LINE
  5
1F2DA
330
1F
100
AcDbEntity
  8
0
100
AcDbLine
 10
-1047.767860244339
 20
-2479.975279955023
 30
0.0
 11
-1047.767860244339
 21
-2489.647533767505
 31
0.0
1001
ACAD
1000
DSTYLE
1002
{
1070
   147
1040
0.09
1070
    42
1040
3.4925
1070
    43
1040
21.2344
1070
    44
1040
10.0584
1070
    73
1070
     1
1070
    74
1070
     1
1070
    77
1070
     0
1070
    78
1070
     0
1070
   141
1040
5.0292
1070
   271
1070
     4
1070
   272
1070
     4
1070
   284
1070
     0
1002
}
  0
LINE
  5
1F2DB
330
1F
100
AcDbEntity
  8
0
100
AcDbLine
 10
-1047.767860244339
 20
-2489.647533767505
 30
0.0
 11
-1063.870996520416
 21
-2489.647533767505
 31
0.0
1001
ACAD
1000
DSTYLE
1002
{
1070
   147
1040
0.09
1070
    42
1040
3.4925
1070
    43
1040
21.2344
1070
    44
1040
10.0584
1070
    73
1070
     1
1070
    74
1070
     1
1070
    77
1070
     0
1070
    78
1070
     0
1070
   141
1040
5.0292
1070
   271
1070
     4
1070
   272
1070
     4
1070
   284
1070
     0
1002
}
  0
MTEXT
  5
1F2DC
330
1F
100
AcDbEntity
  8
0
100
AcDbMText
 10
-1056.998353721282
 20
-2469.719434743348
 30
0.0
 40
7.5
 41
15.28274066182416
 46
0.0
 71
     1
 72
     5
  1
{\fSimSun|b0|i0|c134|p2;A}
 73
     1
 44
1.0
  0
MTEXT
  5
1F2DD
330
1F
100
AcDbEntity
  8
0
100
AcDbMText
 10
-1263.408508418814
 20
-2448.677605780321
 30
0.0
 40
7.5
 41
15.28274066182416
 46
0.0
 71
     1
 72
     5
  1
{\fSimSun|b0|i0|c134|p2;A-A}
 73
     1
 44
1.0
  0
DIMENSION
  5
1F2DE
330
1F
100
AcDbEntity
  8
0
 48
0.5
370
    -2
100
AcDbDimension
280
     0
  2
*D4
 10
-1481.228892055941
 20
-2484.647533767505
 30
0.0
 11
-1484.914454420757
 21
-2535.397533767505
 31
0.0
 70
    32
 71
     5
 42
101.5
 73
     0
 74
     0
 75
     0
  3
ISO-25
100
AcDbAlignedDimension
 13
-1458.057438687772
 23
-2586.147533767505
 33
0.0
 14
-1458.057438687772
 24
-2484.647533767505
 34
0.0
 50
90.0
100
AcDbRotatedDimension
  0
DIMENSION
  5
1F2DF
330
1F
100
AcDbEntity
  8
0
 48
0.5
370
    -2
100
AcDbDimension
280
     0
  2
*D5
 10
-1049.697348257682
 20
-2422.621582632605
 30
0.0
 11
-1053.374258856095
 21
-2432.621582632605
 31
0.0
 70
    32
 71
     5
 42
20.0
 73
     0
 74
     0
 75
     0
  3
ISO-25
100
AcDbAlignedDimension
 13
-1077.057438687772
 23
-2442.621582632605
 33
0.0
 14
-1077.057438687772
 24
-2422.621582632605
 34
0.0
 50
90.0
100
AcDbRotatedDimension
  0
DIMENSION
  5
1F2E0
330
1F
100
AcDbEntity
  8
0
 48
0.5
370
    -2
100
AcDbDimension
280
     0
  2
*D6
 10
-1067.057438687772
 20
-2611.045774150083
 30
0.0
 11
-1261.747975422045
 21
-2611.045774150083
 31
0.0
 70
   160
 71
     5
 42
391.0
 73
     0
 74
     0
 75
     0
  3
ISO-25
100
AcDbAlignedDimension
 13
-1458.057438687772
 23
-2586.147533767505
 33
0.0
 14
-1067.057438687772
 24
-2586.147533767505
 34
0.0
100
AcDbRotatedDimension
  0
MTEXT
  5
1F2E1
330
1F
100
AcDbEntity
  8
图层7
100
AcDbMText
 10
-1408.561109684379
 20
-2400.591782253843
 30
0.0
 40
8.0
 41
36.40471860075945
 46
0.0
 71
     1
 72
     5
  1
{\fArial|b0|i0|c0|p34;3}
 73
     1
 44
1.0
  0
LEADER
  5
1F2E2
330
1F
100
AcDbEntity
  8
图层7
100
AcDbLeader
  3
ISO-25
 76
     3
 10
-1425.542078078027
 20
-2424.794466663752
 30
0.0
 10
-1411.261422129523
 20
-2410.513810715248
 30
0.0
 10
-1401.261422129523
 20
-2410.513810715248
 30
0.0
1001
ACAD
1000
DSTYLE
1002
{
1070
   147
1040
0.625
1070
    77
1070
     0
1002
}
  0
LEADER
  5
1F2E3
330
1F
100
AcDbEntity
  8
图层7
100
AcDbLeader
  3
ISO-25
 76
     3
 10
-1099.503391318418
 20
-2425.13154359048
 30
0.0
 10
-1113.784047266922
 20
-2410.850887641975
 30
0.0
 10
-1123.784047266922
 20
-2410.850887641975
 30
0.0
211
-1.0
221
0.0
231
0.0
1001
ACAD
1000
DSTYLE
1002
{
1070
   147
1040
0.625
1070
    77
1070
     0
1002
}
  0
MTEXT
  5
1F2E4
330
1F
100
AcDbEntity
  8
图层7
100
AcDbMText
 10
-1238.817684896842
 20
-2404.630613659187
 30
0.0
 40
8.0
 41
36.40471860075945
 46
0.0
 71
     1
 72
     5
  1
{\fArial|b0|i0|c0|p34;5}
 73
     1
 44
1.0
  0
LEADER
  5
1F2E5
330
1F
100
AcDbEntity
  8
图层7
100
AcDbLeader
  3
ISO-25
 76
     3
 10
-1255.79865329049
 20
-2428.833298069097
 30
0.0
 10
-1241.517997341986
 20
-2414.552642120592
 30
0.0
 10
-1231.517997341986
 20
-2414.552642120592
 30
0.0
1001
ACAD
1000
DSTYLE
1002
{
1070
   147
1040
0.625
1070
    77
1070
     0
1002
}
  0
MTEXT
  5
1F2E6
330
1F
100
AcDbEntity
  8
图层7
100
AcDbMText
 10
-1062.417592786581
 20
-2531.975824727564
 30
0.0
 40
8.0
 41
36.40471860075945
 46
0.0
 71
     1
 72
     5
  1
{\fArial|b0|i0|c0|p34;8}
 73
     1
 44
1.0
  0
LEADER
  5
1F2E7
330
1F
100
AcDbEntity
  8
图层7
100
AcDbLeader
  3
ISO-25
 76
     3
 10
-1097.057438687772
 20
-2564.647533767505
 30
0.0
 10
-1065.117905231724
 20
-2541.897853188968
 30
0.0
 10
-1055.117905231724
 20
-2541.897853188968
 30
0.0
1001
ACAD
1000
DSTYLE
1002
{
1070
   147
1040
0.625
1070
    77
1070
     0
1002
}
  0
MTEXT
  5
1F2E8
330
1F
100
AcDbEntity
  8
图层7
100
AcDbMText
 10
-1045.940366597648
 20
-2531.975824727564
 30
0.0
 40
8.0
 41
36.40471860075945
 46
0.0
 71
     1
 72
     5
  1
{\fArial|b0|i0|c0|p34;9}
 73
     1
 44
1.0
  0
LEADER
  5
1F2E9
330
1F
100
AcDbEntity
  8
图层7
100
AcDbLeader
  3
ISO-25
 76
     3
 10
-1098.057438687772
 20
-2582.147533767505
 30
0.0
 10
-1048.640679042791
 20
-2541.897853188968
 30
0.0
 10
-1038.640679042791
 20
-2541.897853188968
 30
0.0
1001
ACAD
1000
DSTYLE
1002
{
1070
   147
1040
0.625
1070
    77
1070
     0
1002
}
  0
LEADER
  5
1F2EA
330
1F
100
AcDbEntity
  8
图层7
100
AcDbLeader
  3
ISO-25
 76
     3
 10
-1097.057438687772
 20
-2524.647533767505
 30
0.0
 10
-1065.117905231724
 20
-2541.897853188968
 30
0.0
 10
-1055.117905231724
 20
-2541.897853188968
 30
0.0
1001
ACAD
1000
DSTYLE
1002
{
1070
   147
1040
0.625
1070
    77
1070
     0
1002
}
  0
LEADER
  5
1F2EB
330
1F
100
AcDbEntity
  8
图层7
100
AcDbLeader
  3
ISO-25
 76
     3
 10
-1088.057438687772
 20
-2489.647533767505
 30
0.0
 10
-1048.640679042791
 20
-2541.897853188968
 30
0.0
 10
-1038.640679042791
 20
-2541.897853188968
 30
0.0
1001
ACAD
1000
DSTYLE
1002
{
1070
   147
1040
0.625
1070
    77
1070
     0
1002
}
  0
ENDSEC
  0
SECTION
  2
OBJECTS
  0
DICTIONARY
  5
C
330
0
100
AcDbDictionary
281
     1
  3
ACAD_CIP_PREVIOUS_PRODUCT_INFO
350
1D9CF
  3
ACAD_COLOR
350
1D4
  3
ACAD_DETAILVIEWSTYLE
350
101F4AD
  3
ACAD_GROUP
350
D
  3
ACAD_LAYOUT
350
1A
  3
ACAD_MATERIAL
350
1D3
  3
ACAD_MLEADERSTYLE
350
1D27C
  3
ACAD_MLINESTYLE
350
17
  3
ACAD_PLOTSETTINGS
350
19
  3
ACAD_PLOTSTYLENAME
350
E
  3
ACAD_SCALELIST
350
1D26A
  3
ACAD_SECTIONVIEWSTYLE
350
101F4AA
  3
ACAD_TABLESTYLE
350
1D5
  3
ACAD_VISUALSTYLE
350
1D256
  3
AcadDim
350
158D3
  3
ACDB_RECOMPOSE_DATA
350
101F4C5
  3
AcDbVariableDictionary
350
265
  3
lxx_dict
350
1AD25
  0
DICTIONARY
  5
1E383
330
8
100
AcDbDictionary
280
     1
281
     1
  0
DICTIONARY
  5
411
330
2
100
AcDbDictionary
280
     1
281
     1
  3
ACAD_LAYERFILTERS
360
4264
  3
ACAD_LAYERSTATES
360
1ADE0
  3
ACLYDICTIONARY
360
4263
  0
DICTIONARY
  5
1D4B7
330
10
100
AcDbDictionary
280
     1
281
     1
  3
ADSK_XREC_LAYER_RECONCILED
360
1D4B8
  0
DICTIONARY
  5
1D4B9
330
40A
100
AcDbDictionary
280
     1
281
     1
  3
ADSK_XREC_LAYER_RECONCILED
360
1D4BA
  0
DICTIONARY
  5
1D4C5
330
CAF2
100
AcDbDictionary
280
     1
281
     1
  3
ADSK_XREC_LAYER_RECONCILED
360
1D4C6
  0
DICTIONARY
  5
1D4C7
330
1ADDE
100
AcDbDictionary
280
     1
281
     1
  3
ADSK_XREC_LAYER_RECONCILED
360
1D4C8
  0
DICTIONARY
  5
1D4CD
330
1C3C0
100
AcDbDictionary
280
     1
281
     1
  3
ADSK_XREC_LAYER_RECONCILED
360
1D4CE
  0
DICTIONARY
  5
1D4CF
330
1C3C1
100
AcDbDictionary
280
     1
281
     1
  3
ADSK_XREC_LAYER_RECONCILED
360
1D4D0
  0
DICTIONARY
  5
206
330
1F
100
AcDbDictionary
280
     1
281
     1
  3
ACAD_SORTENTS
360
207
  0
DICTIONARY
  5
1E35F
330
1E35A
100
AcDbDictionary
280
     1
281
     1
  3
ACAD_SORTENTS
360
1E360
  0
XRECORD
  5
1D9CF
102
{ACAD_REACTORS
330
C
102
}
330
C
100
AcDbXrecord
280
     1
300
ACD
300
2017
300
ACD_F_S
  0
DICTIONARY
  5
1D4
102
{ACAD_REACTORS
330
C
102
}
330
C
100
AcDbDictionary
281
     1
  0
DICTIONARY
  5
101F4AD
102
{ACAD_REACTORS
330
C
102
}
330
C
100
AcDbDictionary
281
     1
  3
Metric50
350
101F4AE
  0
DICTIONARY
  5
D
102
{ACAD_REACTORS
330
C
102
}
330
C
100
AcDbDictionary
281
     1
  0
DICTIONARY
  5
1A
102
{ACAD_REACTORS
330
C
102
}
330
C
100
AcDbDictionary
281
     1
  3
Layout1
350
1E
  3
Layout2
350
26
  3
Model
350
22
  0
DICTIONARY
  5
1D3
102
{ACAD_REACTORS
330
C
102
}
330
C
100
AcDbDictionary
281
     1
  3
ByBlock
350
1D24E
  3
ByLayer
350
1D246
  3
Global
350
1B62A
  0
DICTIONARY
  5
1D27C
102
{ACAD_REACTORS
330
C
102
}
330
C
100
AcDbDictionary
281
     1
  3
Standard
350
1D27D
  0
DICTIONARY
  5
17
102
{ACAD_REACTORS
330
C
102
}
330
C
100
AcDbDictionary
281
     1
  3
Standard
350
18
  0
DICTIONARY
  5
19
102
{ACAD_REACTORS
330
C
102
}
330
C
100
AcDbDictionary
281
     1
  0
ACDBDICTIONARYWDFLT
  5
E
102
{ACAD_REACTORS
330
C
102
}
330
C
100
AcDbDictionary
281
     1
  3
Normal
350
F
100
AcDbDictionaryWithDefault
340
F
  0
DICTIONARY
  5
1D26A
102
{ACAD_REACTORS
330
C
102
}
330
C
100
AcDbDictionary
281
     1
  3
A0
350
1D26B
  3
A1
350
1D26C
  3
A2
350
1D26D
  3
A3
350
1D26E
  3
A4
350
1D26F
  3
A5
350
1D270
  3
A6
350
1D271
  3
A7
350
1D272
  3
A8
350
1D273
  3
A9
350
1D274
  3
B0
350
1D275
  3
B1
350
1D276
  3
B2
350
1D277
  3
B3
350
1D278
  3
B4
350
1D279
  3
B5
350
1D27A
  3
B6
350
1D27B
  0
DICTIONARY
  5
101F4AA
102
{ACAD_REACTORS
330
C
102
}
330
C
100
AcDbDictionary
281
     1
  3
Metric50
350
101F4AC
  0
DICTIONARY
  5
1D5
102
{ACAD_REACTORS
330
C
102
}
330
C
100
AcDbDictionary
281
     1
  3
Standard
350
1D6
  0
DICTIONARY
  5
1D256
102
{ACAD_REACTORS
330
C
102
}
330
C
100
AcDbDictionary
281
     1
  3
2dWireframe
350
1D25C
  3
3D Hidden
350
1D25E
  3
3dWireframe
350
1D25D
  3
Basic
350
1D25B
  3
Brighten
350
1D262
  3
ColorChange
350
1D266
  3
Conceptual
350
1D25F
  3
Dim
350
1D261
  3
EdgeColorOff
350
1D269
  3
Facepattern
350
1D265
  3
Flat
350
1D257
  3
FlatWithEdges
350
1D258
  3
Gouraud
350
1D259
  3
GouraudWithEdges
350
1D25A
  3
Hidden
350
1D9C5
  3
JitterOff
350
1D267
  3
Linepattern
350
1D264
  3
OverhangOff
350
1D268
  3
Realistic
350
1D260
  3
Shaded
350
1D9CA
  3
Shaded with edges
350
1D9C9
  3
Shades of Gray
350
1D9C6
  3
Sketchy
350
1D9C7
  3
Thicken
350
1D263
  3
Wireframe
350
1D9C4
  3
X-Ray
350
1D9C8
  0
XRECORD
  5
158D3
102
{ACAD_REACTORS
330
C
102
}
330
C
100
AcDbXrecord
280
     1
 90
   990106
  3

 60
     0
 61
     0
 62
     1
 63
     3
 64
     0
 65
     0
 66
     0
 67
     3
 68
     1
 69
     0
 70
     0
 71
     0
 72
     0
 40
51.92405077377407
170
     0
  0
XRECORD
  5
101F4C5
102
{ACAD_REACTORS
330
C
102
}
330
C
100
AcDbXrecord
280
     1
 90
        1
330
1D6
330
101F4AC
330
101F4AE
  0
DICTIONARY
  5
265
102
{ACAD_REACTORS
330
C
102
}
330
C
100
AcDbDictionary
281
     1
  3
CANNOSCALE
350
1D5E3
  3
CMLEADERSTYLE
350
1D5E1
  3
CTABLESTYLE
350
266
  3
CVIEWDETAILSTYLE
350
101F4BE
  3
CVIEWSECTIONSTYLE
350
101F4BF
  3
DIMASSOC
350
1A744
  3
LAYEREVAL
350
1D5E5
  3
LAYERNOTIFY
350
1D5E6
  3
LIGHTINGUNITS
350
1D5E4
  3
MSLTSCALE
350
1D5E2
  3
PROJECTNAME
350
1A745
  3
SOLIDHIST
350
1E3BD
  0
DICTIONARY
  5
1AD25
102
{ACAD_REACTORS
330
C
102
}
330
C
100
AcDbDictionary
281
     1
  3
lxx_dimth
350
1AD26
  0
DICTIONARY
  5
4264
102
{ACAD_REACTORS
330
411
102
}
330
411
100
AcDbDictionary
281
     1
  0
DICTIONARY
  5
1ADE0
102
{ACAD_REACTORS
330
411
102
}
330
411
100
AcDbDictionary
281
     1
  0
DICTIONARY
  5
4263
102
{ACAD_REACTORS
330
411
102
}
330
411
100
AcDbDictionary
281
     1
1001
ACAD
1000
<All
  0
XRECORD
  5
1D4B8
102
{ACAD_REACTORS
330
1D4B7
102
}
330
1D4B7
100
AcDbXrecord
280
     1
290
     1
  0
XRECORD
  5
1D4BA
102
{ACAD_REACTORS
330
1D4B9
102
}
330
1D4B9
100
AcDbXrecord
280
     1
290
     1
  0
XRECORD
  5
1D4C6
102
{ACAD_REACTORS
330
1D4C5
102
}
330
1D4C5
100
AcDbXrecord
280
     1
290
     1
  0
XRECORD
  5
1D4C8
102
{ACAD_REACTORS
330
1D4C7
102
}
330
1D4C7
100
AcDbXrecord
280
     1
290
     1
  0
XRECORD
  5
1D4CE
102
{ACAD_REACTORS
330
1D4CD
102
}
330
1D4CD
100
AcDbXrecord
280
     1
290
     1
  0
XRECORD
  5
1D4D0
102
{ACAD_REACTORS
330
1D4CF
102
}
330
1D4CF
100
AcDbXrecord
280
     1
290
     1
  0
SORTENTSTABLE
  5
207
102
{ACAD_REACTORS
330
206
102
}
330
206
100
AcDbSortentsTable
330
1F
  0
SORTENTSTABLE
  5
1E360
102
{ACAD_REACTORS
330
1E35F
102
}
330
1E35F
100
AcDbSortentsTable
330
1E35A
  0
ACDBDETAILVIEWSTYLE
  5
101F4AE
102
{ACAD_XDICTIONARY
360
101F4C3
102
}
102
{ACAD_REACTORS
330
101F4AD
102
}
330
101F4AD
100
AcDbModelDocViewStyle
 70
     0
  3
Metric50
290
     0
100
AcDbDetailViewStyle
 70
     0
 71
     0
 90
        3
 71
     1
340
11
 62
   256
 40
5.0
340
0
 62
   256
 40
5.0
300

 40
0.0
280
     1
 71
     2
340
16
 90
       25
 62
   256
 71
     3
340
11
 62
   256
 40
5.0
 90
        0
 40
15.0
 90
        1
300
%<\AcVar ViewDetailId>% (%<\AcVar ViewScale \f "%sn">%)
 71
     4
340
16
 90
       25
 62
   256
340
16
 90
       25
 62
   256
280
     0
  0
LAYOUT
  5
1E
102
{ACAD_REACTORS
330
1A
102
}
330
1A
100
AcDbPlotSettings
  1

  2

  4

  6

 40
0.0
 41
0.0
 42
0.0
 43
0.0
 44
0.0
 45
0.0
 46
0.0
 47
0.0
 48
0.0
 49
0.0
140
0.0
141
0.0
142
1.0
143
1.0
 70
   688
 72
     0
 73
     0
 74
     5
  7
monochrome.ctb
 75
    16
147
1.0
 76
     0
 77
     2
 78
   300
148
0.0
149
0.0
100
AcDbLayout
  1
Layout1
 70
     1
 71
     1
 10
0.0
 20
0.0
 11
420.0
 21
297.0
 12
0.0
 22
0.0
 32
0.0
 14
1.000000000000000E+20
 24
1.000000000000000E+20
 34
1.000000000000000E+20
 15
-1.000000000000000E+20
 25
-1.000000000000000E+20
 35
-1.000000000000000E+20
146
0.0
 13
0.0
 23
0.0
 33
0.0
 16
1.0
 26
0.0
 36
0.0
 17
0.0
 27
1.0
 37
0.0
 76
     0
330
1B
  0
LAYOUT
  5
26
102
{ACAD_REACTORS
330
1A
102
}
330
1A
100
AcDbPlotSettings
  1

  2

  4

  6

 40
0.0
 41
0.0
 42
0.0
 43
0.0
 44
0.0
 45
0.0
 46
0.0
 47
0.0
 48
0.0
 49
0.0
140
0.0
141
0.0
142
1.0
143
1.0
 70
   688
 72
     0
 73
     0
 74
     5
  7
monochrome.ctb
 75
    16
147
1.0
 76
     0
 77
     2
 78
   300
148
0.0
149
0.0
100
AcDbLayout
  1
Layout2
 70
     1
 71
     2
 10
0.0
 20
0.0
 11
0.0
 21
0.0
 12
0.0
 22
0.0
 32
0.0
 14
0.0
 24
0.0
 34
0.0
 15
0.0
 25
0.0
 35
0.0
146
0.0
 13
0.0
 23
0.0
 33
0.0
 16
1.0
 26
0.0
 36
0.0
 17
0.0
 27
1.0
 37
0.0
 76
     0
330
23
  0
LAYOUT
  5
22
102
{ACAD_XDICTIONARY
360
1D4D8
102
}
102
{ACAD_REACTORS
330
1A
102
}
330
1A
100
AcDbPlotSettings
  1

  2
Adobe PDF
  4
A4
  6

 40
3.174999952316284
 41
3.174999952316284
 42
3.175003051757812
 43
3.17498779296875
 44
209.9733276367187
 45
297.0318298339844
 46
0.0
 47
0.0
 48
0.0
 49
0.0
140
0.0
141
0.0
142
1.0
143
0.7475498042581874
 70
 11952
 72
     1
 73
     1
 74
     0
  7
monochrome.ctb
 75
     0
147
1.337703513938212
 76
     0
 77
     2
 78
   300
148
-62.04520941299825
149
-114.2038463351312
100
AcDbLayout
  1
Model
 70
     1
 71
     0
 10
0.0
 20
0.0
 11
0.0
 21
0.0
 12
0.0
 22
0.0
 32
0.0
 14
0.0
 24
0.0
 34
0.0
 15
297.0
 25
210.0
 35
0.0
146
0.0
 13
0.0
 23
0.0
 33
0.0
 16
1.0
 26
0.0
 36
0.0
 17
0.0
 27
1.0
 37
0.0
 76
     0
330
1F
331
1D244
1001
ACAD_PSEXT
1000
Adobe PDF
1000
Adobe PDF Converter
1000
My Documents
1000

1070
     0
  0
MATERIAL
  5
1D24E
102
{ACAD_XDICTIONARY
360
1D24F
102
}
102
{ACAD_REACTORS
330
1D3
102
}
330
1D3
100
AcDbMaterial
  1
ByBlock
 72
     0
 43
0.0008202099737533
 43
0.0
 43
0.0
 43
0.0
 43
0.0
 43
0.0008202099737533
 43
0.0
 43
0.0
 43
0.0
 43
0.0
 43
1.0
 43
0.0
 43
0.0
 43
0.0
 43
0.0
 43
1.0
 77
     0
 47
0.0008202099737533
 47
0.0
 47
0.0
 47
0.0
 47
0.0
 47
0.0008202099737533
 47
0.0
 47
0.0
 47
0.0
 47
0.0
 47
1.0
 47
0.0
 47
0.0
 47
0.0
 47
0.0
 47
1.0
171
     0
 49
0.0008202099737533
 49
0.0
 49
0.0
 49
0.0
 49
0.0
 49
0.0008202099737533
 49
0.0
 49
0.0
 49
0.0
 49
0.0
 49
1.0
 49
0.0
 49
0.0
 49
0.0
 49
0.0
 49
1.0
175
     0
142
0.0008202099737533
142
0.0
142
0.0
142
0.0
142
0.0
142
0.0008202099737533
142
0.0
142
0.0
142
0.0
142
0.0
142
1.0
142
0.0
142
0.0
142
0.0
142
0.0
142
1.0
179
     0
144
0.0008202099737533
144
0.0
144
0.0
144
0.0
144
0.0
144
0.0008202099737533
144
0.0
144
0.0
144
0.0
144
0.0
144
1.0
144
0.0
144
0.0
144
0.0
144
0.0
144
1.0
147
0.0008202099737533
147
0.0
147
0.0
147
0.0
147
0.0
147
0.0008202099737533
147
0.0
147
0.0
147
0.0
147
0.0
147
1.0
147
0.0
147
0.0
147
0.0
147
0.0
147
1.0
  0
MATERIAL
  5
1D246
102
{ACAD_XDICTIONARY
360
1D247
102
}
102
{ACAD_REACTORS
330
1D3
102
}
330
1D3
100
AcDbMaterial
  1
ByLayer
 72
     0
 43
0.0008202099737533
 43
0.0
 43
0.0
 43
0.0
 43
0.0
 43
0.0008202099737533
 43
0.0
 43
0.0
 43
0.0
 43
0.0
 43
1.0
 43
0.0
 43
0.0
 43
0.0
 43
0.0
 43
1.0
 77
     0
 47
0.0008202099737533
 47
0.0
 47
0.0
 47
0.0
 47
0.0
 47
0.0008202099737533
 47
0.0
 47
0.0
 47
0.0
 47
0.0
 47
1.0
 47
0.0
 47
0.0
 47
0.0
 47
0.0
 47
1.0
171
     0
 49
0.0008202099737533
 49
0.0
 49
0.0
 49
0.0
 49
0.0
 49
0.0008202099737533
 49
0.0
 49
0.0
 49
0.0
 49
0.0
 49
1.0
 49
0.0
 49
0.0
 49
0.0
 49
0.0
 49
1.0
175
     0
142
0.0008202099737533
142
0.0
142
0.0
142
0.0
142
0.0
142
0.0008202099737533
142
0.0
142
0.0
142
0.0
142
0.0
142
1.0
142
0.0
142
0.0
142
0.0
142
0.0
142
1.0
179
     0
144
0.0008202099737533
144
0.0
144
0.0
144
0.0
144
0.0
144
0.0008202099737533
144
0.0
144
0.0
144
0.0
144
0.0
144
1.0
144
0.0
144
0.0
144
0.0
144
0.0
144
1.0
147
0.0008202099737533
147
0.0
147
0.0
147
0.0
147
0.0
147
0.0008202099737533
147
0.0
147
0.0
147
0.0
147
0.0
147
1.0
147
0.0
147
0.0
147
0.0
147
0.0
147
1.0
  0
MATERIAL
  5
1B62A
102
{ACAD_XDICTIONARY
360
1B62B
102
}
102
{ACAD_REACTORS
330
1D3
102
}
330
1D3
100
AcDbMaterial
  1
Global
 43
0.0007999999797903
 43
0.0
 43
0.0
 43
0.0
 43
0.0
 43
0.0007999999797903
 43
0.0
 43
0.0
 43
0.0
 43
0.0
 43
1.0
 43
0.0
 43
0.0
 43
0.0
 43
0.0
 43
1.0
 49
0.0007999999797903
 49
0.0
 49
0.0
 49
0.0
 49
0.0
 49
0.0007999999797903
 49
0.0
 49
0.0
 49
0.0
 49
0.0
 49
1.0
 49
0.0
 49
0.0
 49
0.0
 49
0.0
 49
1.0
142
0.0007999999797903
142
0.0
142
0.0
142
0.0
142
0.0
142
0.0007999999797903
142
0.0
142
0.0
142
0.0
142
0.0
142
1.0
142
0.0
142
0.0
142
0.0
142
0.0
142
1.0
144
0.0007999999797903
144
0.0
144
0.0
144
0.0
144
0.0
144
0.0007999999797903
144
0.0
144
0.0
144
0.0
144
0.0
144
1.0
144
0.0
144
0.0
144
0.0
144
0.0
144
1.0
 94
       63
1001
ACAD
1070
    -1
1070
     3
1070
     0
1000

1071
        0
1070
     0
  0
MLEADERSTYLE
  5
1D27D
102
{ACAD_REACTORS
330
1D27C
102
}
330
1D27C
100
AcDbMLeaderStyle
179
     2
170
     2
171
     1
172
     0
 90
        2
 40
0.0
 41
0.0
173
     1
 91
-1056964608
340
14
 92
       -2
290
     1
 42
2.0
291
     1
 43
0.36
  3
Standard
 44
4.0
300

342
11
174
     1
178
     6
175
     1
176
     0
 93
-1056964608
 45
4.0
292
     0
297
     0
 46
4.0
 94
-1056964608
 47
1.0
 49
1.0
140
1.0
293
     1
141
0.0
294
     1
177
     0
142
1.0
295
     0
296
     0
143
0.125
271
     0
272
     9
273
     9
298
     0
  0
MLINESTYLE
  5
18
102
{ACAD_REACTORS
330
17
102
}
330
17
100
AcDbMlineStyle
  2
STANDARD
 70
     0
  3

 62
   256
 51
90.0
 52
90.0
 71
     2
 49
0.5
 62
   256
  6
BYLAYER
 49
-0.5
 62
   256
  6
BYLAYER
  0
ACDBPLACEHOLDER
  5
F
102
{ACAD_REACTORS
330
E
102
}
330
E
  0
SCALE
  5
1D26B
102
{ACAD_REACTORS
330
1D26A
102
}
330
1D26A
100
AcDbScale
 70
     0
300
1:1
140
1.0
141
1.0
290
     1
  0
SCALE
  5
1D26C
102
{ACAD_REACTORS
330
1D26A
102
}
330
1D26A
100
AcDbScale
 70
     0
300
1:2
140
1.0
141
2.0
290
     0
  0
SCALE
  5
1D26D
102
{ACAD_REACTORS
330
1D26A
102
}
330
1D26A
100
AcDbScale
 70
     0
300
1:4
140
1.0
141
4.0
290
     0
  0
SCALE
  5
1D26E
102
{ACAD_REACTORS
330
1D26A
102
}
330
1D26A
100
AcDbScale
 70
     0
300
1:5
140
1.0
141
5.0
290
     0
  0
SCALE
  5
1D26F
102
{ACAD_REACTORS
330
1D26A
102
}
330
1D26A
100
AcDbScale
 70
     0
300
1:8
140
1.0
141
8.0
290
     0
  0
SCALE
  5
1D270
102
{ACAD_REACTORS
330
1D26A
102
}
330
1D26A
100
AcDbScale
 70
     0
300
1:10
140
1.0
141
10.0
290
     0
  0
SCALE
  5
1D271
102
{ACAD_REACTORS
330
1D26A
102
}
330
1D26A
100
AcDbScale
 70
     0
300
1:16
140
1.0
141
16.0
290
     0
  0
SCALE
  5
1D272
102
{ACAD_REACTORS
330
1D26A
102
}
330
1D26A
100
AcDbScale
 70
     0
300
1:20
140
1.0
141
20.0
290
     0
  0
SCALE
  5
1D273
102
{ACAD_REACTORS
330
1D26A
102
}
330
1D26A
100
AcDbScale
 70
     0
300
1:30
140
1.0
141
30.0
290
     0
  0
SCALE
  5
1D274
102
{ACAD_REACTORS
330
1D26A
102
}
330
1D26A
100
AcDbScale
 70
     0
300
1:40
140
1.0
141
40.0
290
     0
  0
SCALE
  5
1D275
102
{ACAD_REACTORS
330
1D26A
102
}
330
1D26A
100
AcDbScale
 70
     0
300
1:50
140
1.0
141
50.0
290
     0
  0
SCALE
  5
1D276
102
{ACAD_REACTORS
330
1D26A
102
}
330
1D26A
100
AcDbScale
 70
     0
300
1:100
140
1.0
141
100.0
290
     0
  0
SCALE
  5
1D277
102
{ACAD_REACTORS
330
1D26A
102
}
330
1D26A
100
AcDbScale
 70
     0
300
2:1
140
2.0
141
1.0
290
     0
  0
SCALE
  5
1D278
102
{ACAD_REACTORS
330
1D26A
102
}
330
1D26A
100
AcDbScale
 70
     0
300
4:1
140
4.0
141
1.0
290
     0
  0
SCALE
  5
1D279
102
{ACAD_REACTORS
330
1D26A
102
}
330
1D26A
100
AcDbScale
 70
     0
300
8:1
140
8.0
141
1.0
290
     0
  0
SCALE
  5
1D27A
102
{ACAD_REACTORS
330
1D26A
102
}
330
1D26A
100
AcDbScale
 70
     0
300
10:1
140
10.0
141
1.0
290
     0
  0
SCALE
  5
1D27B
102
{ACAD_REACTORS
330
1D26A
102
}
330
1D26A
100
AcDbScale
 70
     0
300
100:1
140
100.0
141
1.0
290
     0
  0
ACDBSECTIONVIEWSTYLE
  5
101F4AC
102
{ACAD_XDICTIONARY
360
101F4C1
102
}
102
{ACAD_REACTORS
330
101F4AA
102
}
330
101F4AA
100
AcDbModelDocViewStyle
 70
     0
  3
Metric50
290
     0
100
AcDbSectionViewStyle
 70
     0
 71
     0
 90
      102
 71
     1
340
11
 62
   256
 40
5.0
340
0
340
0
 62
   256
 40
5.0
300
I, O, Q, S, X, Z
 40
10.0
 90
        0
 40
2.5
 90
        0
 71
     2
340
16
 90
       25
 62
   256
340
16
 90
       50
 62
   256
 40
5.0
 40
2.5
 40
5.0
 71
     3
340
11
 62
   256
 40
5.0
 90
        0
 40
15.0
 90
        1
300
%<\AcVar ViewSectionStartId>%-%<\AcVar ViewSectionEndId>% (%<\AcVar ViewScale \f "%sn">%)
 71
     4
 62
   256
 62
   257
300
ANSI31
 40
1.0
 90
        0
290
     0
290
     0
 90
        6
 40
0.0
 40
1.570796326794896
 40
0.2617993877991494
 40
1.308996938995747
 40
-0.2617993877991494
 40
1.832595714594046
  0
TABLESTYLE
  5
1D6
102
{ACAD_XDICTIONARY
360
1D5B7
102
}
102
{ACAD_REACTORS
330
1D5
102
}
330
1D5
100
AcDbTableStyle
280
     0
  3
Standard
 70
     0
 71
     0
 40
1.5
 41
1.5
280
     0
281
     0
  7
Standard
140
4.5
170
     2
 62
     0
 63
     7
283
     0
 90
        4
 91
        0
  1

274
    -2
284
     1
 64
     0
275
    -2
285
     1
 65
     0
276
    -2
286
     1
 66
     0
277
    -2
287
     1
 67
     0
278
    -2
288
     1
 68
     0
279
    -2
289
     1
 69
     0
  7
Standard
140
6.0
170
     5
 62
     0
 63
     7
283
     0
 90
        4
 91
        0
  1

274
    -2
284
     1
 64
     0
275
    -2
285
     1
 65
     0
276
    -2
286
     1
 66
     0
277
    -2
287
     1
 67
     0
278
    -2
288
     1
 68
     0
279
    -2
289
     1
 69
     0
  7
Standard
140
4.5
170
     5
 62
     0
 63
     7
283
     0
 90
        4
 91
        0
  1

274
    -2
284
     1
 64
     0
275
    -2
285
     1
 65
     0
276
    -2
286
     1
 66
     0
277
    -2
287
     1
 67
     0
278
    -2
288
     1
 68
     0
279
    -2
289
     1
 69
     0
  0
VISUALSTYLE
  5
1D25C
102
{ACAD_REACTORS
330
1D256
102
}
330
1D256
100
AcDbVisualStyle
  2
2dWireframe
 70
     4
177
     3
291
     0
 70
    58
 90
        0
176
     1
 90
        2
176
     1
 90
        0
176
     1
 90
        0
176
     1
 40
0.6
176
     1
 40
30.0
176
     1
 62
     7
420
 16777215
176
     1
 90
        1
176
     1
 90
        4
176
     1
 62
     7
176
     1
 62
   257
176
     1
 90
        1
176
     1
 90
        1
176
     1
 40
1.0
176
     1
 90
        0
176
     1
 62
   257
176
     1
 40
1.0
176
     1
 90
        1
176
     1
 90
        6
176
     1
 90
        2
176
     1
 62
     7
176
     1
 90
        5
176
     1
 90
        0
176
     1
 90
        0
176
     1
290
     0
176
     1
 90
        1
176
     1
 40
0.0
176
     1
 90
        0
176
     1
290
     1
176
     1
290
     1
176
     1
290
     0
176
     1
290
     0
176
     1
290
     0
176
     1
290
     0
176
     1
290
     0
176
     1
290
     0
176
     1
290
     0
176
     1
 90
       50
176
     1
 40
0.0
176
     1
 40
1.0
176
     1
 90
        0
176
     1
 62
    18
420
        0
176
     1
 90
       50
176
     1
 90
        3
176
     1
 62
     5
420
      255
176
     1
290
     0
176
     1
 90
       50
176
     1
 90
       50
176
     1
 90
       50
176
     1
290
     0
176
     1
 90
       50
176
     1
 62
   256
176
     0
 40
1.0
176
     0
 90
        2
176
     1
  1
strokes_ogs.tif
176
     1
290
     0
176
     1
 40
1.0
176
     1
 40
1.0
176
     1
  0
VISUALSTYLE
  5
1D25E
102
{ACAD_REACTORS
330
1D256
102
}
330
1D256
100
AcDbVisualStyle
  2
3D Hidden
 70
     6
177
     3
291
     0
 70
    58
 90
        1
176
     1
 90
        2
176
     1
 90
        2
176
     1
 90
        0
176
     1
 40
0.6
176
     1
 40
30.0
176
     1
 62
     7
420
 16777215
176
     1
 90
        2
176
     1
 90
        2
176
     1
 62
     7
176
     1
 62
   257
176
     1
 90
        2
176
     1
 90
        1
176
     1
 40
179.0
176
     1
 90
        0
176
     1
 62
   257
176
     1
 40
1.0
176
     1
 90
        1
176
     1
 90
        6
176
     1
 90
        2
176
     1
 62
     7
176
     1
 90
        3
176
     1
 90
        0
176
     1
 90
        0
176
     1
290
     0
176
     1
 90
        1
176
     1
 40
0.0
176
     1
 90
        0
176
     1
290
     0
176
     1
290
     1
176
     1
290
     1
176
     1
290
     0
176
     1
290
     0
176
     1
290
     0
176
     1
290
     0
176
     1
290
     0
176
     1
290
     0
176
     1
 90
       50
176
     1
 40
0.0
176
     1
 40
1.0
176
     1
 90
        0
176
     1
 62
    18
420
        0
176
     1
 90
       50
176
     1
 90
        3
176
     1
 62
     5
420
      255
176
     1
290
     0
176
     1
 90
       50
176
     1
 90
       50
176
     1
 90
       50
176
     1
290
     0
176
     1
 90
       50
176
     1
 62
   256
176
     0
 40
1.0
176
     0
 90
        2
176
     1
  1
strokes_ogs.tif
176
     1
290
     0
176
     1
 40
1.0
176
     1
 40
1.0
176
     1
  0
VISUALSTYLE
  5
1D25D
102
{ACAD_REACTORS
330
1D256
102
}
330
1D256
100
AcDbVisualStyle
  2
3dWireframe
 70
     5
177
     3
291
     0
 70
    58
 90
        0
176
     1
 90
        2
176
     1
 90
        0
176
     1
 90
        0
176
     1
 40
0.6
176
     1
 40
30.0
176
     1
 62
     7
420
 16777215
176
     1
 90
        1
176
     1
 90
        4
176
     1
 62
     7
176
     1
 62
   257
176
     1
 90
        1
176
     1
 90
        1
176
     1
 40
1.0
176
     1
 90
        0
176
     1
 62
   257
176
     1
 40
1.0
176
     1
 90
        1
176
     1
 90
        6
176
     1
 90
        2
176
     1
 62
     7
176
     1
 90
        5
176
     1
 90
        0
176
     1
 90
        0
176
     1
290
     0
176
     1
 90
        1
176
     1
 40
0.0
176
     1
 90
        0
176
     1
290
     0
176
     1
290
     1
176
     1
290
     1
176
     1
290
     0
176
     1
290
     0
176
     1
290
     0
176
     1
290
     0
176
     1
290
     0
176
     1
290
     0
176
     1
 90
       50
176
     1
 40
0.0
176
     1
 40
1.0
176
     1
 90
        0
176
     1
 62
    18
420
        0
176
     1
 90
       50
176
     1
 90
        3
176
     1
 62
     5
420
      255
176
     1
290
     0
176
     1
 90
       50
176
     1
 90
       50
176
     1
 90
       50
176
     1
290
     0
176
     1
 90
       50
176
     1
 62
   256
176
     0
 40
1.0
176
     0
 90
        2
176
     1
  1
strokes_ogs.tif
176
     1
290
     0
176
     1
 40
1.0
176
     1
 40
1.0
176
     1
  0
VISUALSTYLE
  5
1D25B
102
{ACAD_REACTORS
330
1D256
102
}
330
1D256
100
AcDbVisualStyle
  2
Basic
 70
     7
177
     3
291
     1
 70
    58
 90
        1
176
     1
 90
        0
176
     1
 90
        1
176
     1
 90
        0
176
     1
 40
0.6
176
     1
 40
30.0
176
     1
 62
     7
420
 16777215
176
     1
 90
        0
176
     1
 90
        4
176
     1
 62
     7
176
     1
 62
   257
176
     1
 90
        1
176
     1
 90
        1
176
     1
 40
1.0
176
     1
 90
        8
176
     1
 62
     7
176
     1
 40
1.0
176
     1
 90
        1
176
     1
 90
        6
176
     1
 90
        2
176
     1
 62
     7
176
     1
 90
        5
176
     1
 90
        0
176
     1
 90
        0
176
     1
290
     0
176
     1
 90
        1
176
     1
 40
0.0
176
     1
 90
        0
176
     1
290
     0
176
     1
290
     1
176
     1
290
     1
176
     1
290
     0
176
     1
290
     0
176
     1
290
     0
176
     1
290
     0
176
     1
290
     0
176
     1
290
     0
176
     1
 90
       50
176
     1
 40
0.0
176
     1
 40
1.0
176
     1
 90
        0
176
     1
 62
    18
420
        0
176
     1
 90
       50
176
     1
 90
        3
176
     1
 62
     5
420
      255
176
     1
290
     0
176
     1
 90
       50
176
     1
 90
       50
176
     1
 90
       50
176
     1
290
     0
176
     1
 90
       50
176
     1
 62
   256
176
     0
 40
1.0
176
     0
 90
        2
176
     1
  1
strokes_ogs.tif
176
     1
290
     0
176
     1
 40
1.0
176
     1
 40
1.0
176
     1
  0
VISUALSTYLE
  5
1D262
102
{ACAD_REACTORS
330
1D256
102
}
330
1D256
100
AcDbVisualStyle
  2
Brighten
 70
    12
177
     3
291
     1
 70
    58
 90
        2
176
     1
 90
        2
176
     1
 90
        0
176
     1
 90
        0
176
     1
 40
0.6
176
     1
 40
30.0
176
     1
 62
     7
420
 16777215
176
     1
 90
        1
176
     1
 90
        4
176
     1
 62
     7
176
     1
 62
   257
176
     1
 90
        1
176
     1
 90
        1
176
     1
 40
1.0
176
     1
 90
        8
176
     1
 62
     7
176
     1
 40
1.0
176
     1
 90
        1
176
     1
 90
        6
176
     1
 90
        2
176
     1
 62
     7
176
     1
 90
        5
176
     1
 90
        0
176
     1
 90
        0
176
     1
290
     0
176
     1
 90
        1
176
     1
 40
50.0
176
     1
 90
        0
176
     1
290
     0
176
     1
290
     1
176
     1
290
     1
176
     1
290
     0
176
     1
290
     0
176
     1
290
     0
176
     1
290
     0
176
     1
290
     0
176
     1
290
     0
176
     1
 90
       50
176
     1
 40
0.0
176
     1
 40
1.0
176
     1
 90
        0
176
     1
 62
    18
420
        0
176
     1
 90
       50
176
     1
 90
        3
176
     1
 62
     5
420
      255
176
     1
290
     0
176
     1
 90
       50
176
     1
 90
       50
176
     1
 90
       50
176
     1
290
     0
176
     1
 90
       50
176
     1
 62
   256
176
     0
 40
1.0
176
     0
 90
        2
176
     1
  1
strokes_ogs.tif
176
     1
290
     0
176
     1
 40
1.0
176
     1
 40
1.0
176
     1
  0
VISUALSTYLE
  5
1D266
102
{ACAD_REACTORS
330
1D256
102
}
330
1D256
100
AcDbVisualStyle
  2
ColorChange
 70
    16
177
     3
291
     1
 70
    58
 90
        2
176
     1
 90
        2
176
     1
 90
        3
176
     1
 90
        0
176
     1
 40
0.6
176
     1
 40
30.0
176
     1
 62
     8
420
  8421504
176
     1
 90
        1
176
     1
 90
        4
176
     1
 62
     7
176
     1
 62
   257
176
     1
 90
        1
176
     1
 90
        1
176
     1
 40
1.0
176
     1
 90
        8
176
     1
 62
     8
420
  8421504
176
     1
 40
1.0
176
     1
 90
        1
176
     1
 90
        6
176
     1
 90
        2
176
     1
 62
     7
176
     1
 90
        5
176
     1
 90
        0
176
     1
 90
        0
176
     1
290
     0
176
     1
 90
        1
176
     1
 40
0.0
176
     1
 90
        0
176
     1
290
     0
176
     1
290
     1
176
     1
290
     1
176
     1
290
     0
176
     1
290
     0
176
     1
290
     0
176
     1
290
     0
176
     1
290
     0
176
     1
290
     0
176
     1
 90
       50
176
     1
 40
0.0
176
     1
 40
1.0
176
     1
 90
        0
176
     1
 62
    18
420
        0
176
     1
 90
       50
176
     1
 90
        3
176
     1
 62
     5
420
      255
176
     1
290
     0
176
     1
 90
       50
176
     1
 90
       50
176
     1
 90
       50
176
     1
290
     0
176
     1
 90
       50
176
     1
 62
   256
176
     0
 40
1.0
176
     0
 90
        2
176
     1
  1
strokes_ogs.tif
176
     1
290
     0
176
     1
 40
1.0
176
     1
 40
1.0
176
     1
  0
VISUALSTYLE
  5
1D25F
102
{ACAD_REACTORS
330
1D256
102
}
330
1D256
100
AcDbVisualStyle
  2
Conceptual
 70
     9
177
     3
291
     0
 70
    58
 90
        3
176
     1
 90
        2
176
     1
 90
        0
176
     1
 90
        0
176
     1
 40
0.6
176
     1
 40
30.0
176
     1
 62
     7
420
 16777215
176
     1
 90
        2
176
     1
 90
        2
176
     1
 62
     7
176
     1
 62
   257
176
     1
 90
        1
176
     1
 90
        1
176
     1
 40
179.0
176
     1
 90
        8
176
     1
 62
     7
176
     1
 40
1.0
176
     1
 90
        1
176
     1
 90
        6
176
     1
 90
        2
176
     1
 62
     7
176
     1
 90
        3
176
     1
 90
        0
176
     1
 90
        0
176
     1
290
     0
176
     1
 90
        1
176
     1
 40
0.0
176
     1
 90
        0
176
     1
290
     0
176
     1
290
     1
176
     1
290
     1
176
     1
290
     0
176
     1
290
     0
176
     1
290
     0
176
     1
290
     0
176
     1
290
     0
176
     1
290
     0
176
     1
 90
       50
176
     1
 40
0.0
176
     1
 40
1.0
176
     1
 90
        0
176
     1
 62
    18
420
        0
176
     1
 90
       50
176
     1
 90
        3
176
     1
 62
     5
420
      255
176
     1
290
     0
176
     1
 90
       50
176
     1
 90
       50
176
     1
 90
       50
176
     1
290
     0
176
     1
 90
       50
176
     1
 62
   256
176
     0
 40
1.0
176
     0
 90
        2
176
     1
  1
strokes_ogs.tif
176
     1
290
     0
176
     1
 40
1.0
176
     1
 40
1.0
176
     1
  0
VISUALSTYLE
  5
1D261
102
{ACAD_REACTORS
330
1D256
102
}
330
1D256
100
AcDbVisualStyle
  2
Dim
 70
    11
177
     3
291
     1
 70
    58
 90
        2
176
     1
 90
        2
176
     1
 90
        0
176
     1
 90
        0
176
     1
 40
0.6
176
     1
 40
30.0
176
     1
 62
     7
420
 16777215
176
     1
 90
        1
176
     1
 90
        4
176
     1
 62
     7
176
     1
 62
   257
176
     1
 90
        1
176
     1
 90
        1
176
     1
 40
1.0
176
     1
 90
        8
176
     1
 62
     7
176
     1
 40
1.0
176
     1
 90
        1
176
     1
 90
        6
176
     1
 90
        2
176
     1
 62
     7
176
     1
 90
        5
176
     1
 90
        0
176
     1
 90
        0
176
     1
290
     0
176
     1
 90
        1
176
     1
 40
-50.0
176
     1
 90
        0
176
     1
290
     0
176
     1
290
     1
176
     1
290
     1
176
     1
290
     0
176
     1
290
     0
176
     1
290
     0
176
     1
290
     0
176
     1
290
     0
176
     1
290
     0
176
     1
 90
       50
176
     1
 40
0.0
176
     1
 40
1.0
176
     1
 90
        0
176
     1
 62
    18
420
        0
176
     1
 90
       50
176
     1
 90
        3
176
     1
 62
     5
420
      255
176
     1
290
     0
176
     1
 90
       50
176
     1
 90
       50
176
     1
 90
       50
176
     1
290
     0
176
     1
 90
       50
176
     1
 62
   256
176
     0
 40
1.0
176
     0
 90
        2
176
     1
  1
strokes_ogs.tif
176
     1
290
     0
176
     1
 40
1.0
176
     1
 40
1.0
176
     1
  0
VISUALSTYLE
  5
1D269
102
{ACAD_REACTORS
330
1D256
102
}
330
1D256
100
AcDbVisualStyle
  2
EdgeColorOff
 70
    22
177
     3
291
     1
 70
    58
 90
        2
176
     0
 90
        2
176
     0
 90
        0
176
     0
 90
        0
176
     0
 40
0.6
176
     0
 40
30.0
176
     0
 62
     7
420
 16777215
176
     0
 90
        1
176
     0
 90
        4
176
     0
 62
     7
176
     0
 62
   257
176
     0
 90
        1
176
     0
 90
        1
176
     0
 40
1.0
176
     0
 90
        8
176
     2
 62
     7
176
     0
 40
1.0
176
     0
 90
        1
176
     0
 90
        6
176
     0
 90
        2
176
     0
 62
     7
176
     0
 90
        5
176
     0
 90
        0
176
     0
 90
        0
176
     0
290
     0
176
     0
 90
        1
176
     0
 40
0.0
176
     0
 90
        0
176
     0
290
     0
176
     1
290
     1
176
     1
290
     1
176
     1
290
     0
176
     1
290
     0
176
     1
290
     0
176
     1
290
     0
176
     1
290
     0
176
     1
290
     0
176
     1
 90
       50
176
     1
 40
0.0
176
     1
 40
1.0
176
     1
 90
        0
176
     1
 62
    18
420
        0
176
     1
 90
       50
176
     1
 90
        3
176
     1
 62
     5
420
      255
176
     1
290
     0
176
     1
 90
       50
176
     1
 90
       50
176
     1
 90
       50
176
     1
290
     0
176
     1
 90
       50
176
     1
 62
   256
176
     0
 40
1.0
176
     0
 90
        2
176
     1
  1
strokes_ogs.tif
176
     1
290
     0
176
     1
 40
1.0
176
     1
 40
1.0
176
     1
  0
VISUALSTYLE
  5
1D265
102
{ACAD_REACTORS
330
1D256
102
}
330
1D256
100
AcDbVisualStyle
  2
Facepattern
 70
    15
177
     3
291
     1
 70
    58
 90
        2
176
     1
 90
        2
176
     1
 90
        0
176
     1
 90
        0
176
     1
 40
0.6
176
     1
 40
30.0
176
     1
 62
     7
420
 16777215
176
     1
 90
        1
176
     1
 90
        4
176
     1
 62
     7
176
     1
 62
   257
176
     1
 90
        1
176
     1
 90
        1
176
     1
 40
1.0
176
     1
 90
        8
176
     1
 62
     7
176
     1
 40
1.0
176
     1
 90
        1
176
     1
 90
        6
176
     1
 90
        2
176
     1
 62
     7
176
     1
 90
        5
176
     1
 90
        0
176
     1
 90
        0
176
     1
290
     0
176
     1
 90
        1
176
     1
 40
0.0
176
     1
 90
        0
176
     1
290
     0
176
     1
290
     1
176
     1
290
     1
176
     1
290
     0
176
     1
290
     0
176
     1
290
     0
176
     1
290
     0
176
     1
290
     0
176
     1
290
     0
176
     1
 90
       50
176
     1
 40
0.0
176
     1
 40
1.0
176
     1
 90
        0
176
     1
 62
    18
420
        0
176
     1
 90
       50
176
     1
 90
        3
176
     1
 62
     5
420
      255
176
     1
290
     0
176
     1
 90
       50
176
     1
 90
       50
176
     1
 90
       50
176
     1
290
     0
176
     1
 90
       50
176
     1
 62
   256
176
     0
 40
1.0
176
     0
 90
        2
176
     1
  1
strokes_ogs.tif
176
     1
290
     0
176
     1
 40
1.0
176
     1
 40
1.0
176
     1
  0
VISUALSTYLE
  5
1D257
102
{ACAD_REACTORS
330
1D256
102
}
330
1D256
100
AcDbVisualStyle
  2
Flat
 70
     0
177
     3
291
     1
 70
    58
 90
        2
176
     1
 90
        1
176
     1
 90
        1
176
     1
 90
        2
176
     1
 40
0.6
176
     1
 40
30.0
176
     1
 62
     7
420
 16777215
176
     1
 90
        0
176
     1
 90
        4
176
     1
 62
     7
176
     1
 62
   257
176
     1
 90
        1
176
     1
 90
        1
176
     1
 40
1.0
176
     1
 90
        8
176
     1
 62
     7
176
     1
 40
1.0
176
     1
 90
        1
176
     1
 90
        6
176
     1
 90
        2
176
     1
 62
     7
176
     1
 90
        5
176
     1
 90
        0
176
     1
 90
        0
176
     1
290
     0
176
     1
 90
       13
176
     1
 40
0.0
176
     1
 90
        0
176
     1
290
     0
176
     1
290
     1
176
     1
290
     1
176
     1
290
     0
176
     1
290
     0
176
     1
290
     0
176
     1
290
     0
176
     1
290
     0
176
     1
290
     0
176
     1
 90
       50
176
     1
 40
0.0
176
     1
 40
1.0
176
     1
 90
        0
176
     1
 62
    18
420
        0
176
     1
 90
       50
176
     1
 90
        3
176
     1
 62
     5
420
      255
176
     1
290
     0
176
     1
 90
       50
176
     1
 90
       50
176
     1
 90
       50
176
     1
290
     0
176
     1
 90
       50
176
     1
 62
   256
176
     0
 40
1.0
176
     0
 90
        2
176
     1
  1
strokes_ogs.tif
176
     1
290
     0
176
     1
 40
1.0
176
     1
 40
1.0
176
     1
  0
VISUALSTYLE
  5
1D258
102
{ACAD_REACTORS
330
1D256
102
}
330
1D256
100
AcDbVisualStyle
  2
FlatWithEdges
 70
     1
177
     3
291
     1
 70
    58
 90
        2
176
     1
 90
        1
176
     1
 90
        1
176
     1
 90
        2
176
     1
 40
0.6
176
     1
 40
30.0
176
     1
 62
     7
420
 16777215
176
     1
 90
        1
176
     1
 90
        4
176
     1
 62
     7
176
     1
 62
   257
176
     1
 90
        1
176
     1
 90
        1
176
     1
 40
1.0
176
     1
 90
        0
176
     1
 62
   257
176
     1
 40
1.0
176
     1
 90
        1
176
     1
 90
        6
176
     1
 90
        2
176
     1
 62
     7
176
     1
 90
        5
176
     1
 90
        0
176
     1
 90
        0
176
     1
290
     0
176
     1
 90
       13
176
     1
 40
0.0
176
     1
 90
        0
176
     1
290
     0
176
     1
290
     1
176
     1
290
     1
176
     1
290
     0
176
     1
290
     0
176
     1
290
     0
176
     1
290
     0
176
     1
290
     0
176
     1
290
     0
176
     1
 90
       50
176
     1
 40
0.0
176
     1
 40
1.0
176
     1
 90
        0
176
     1
 62
    18
420
        0
176
     1
 90
       50
176
     1
 90
        3
176
     1
 62
     5
420
      255
176
     1
290
     0
176
     1
 90
       50
176
     1
 90
       50
176
     1
 90
       50
176
     1
290
     0
176
     1
 90
       50
176
     1
 62
   256
176
     0
 40
1.0
176
     0
 90
        2
176
     1
  1
strokes_ogs.tif
176
     1
290
     0
176
     1
 40
1.0
176
     1
 40
1.0
176
     1
  0
VISUALSTYLE
  5
1D259
102
{ACAD_REACTORS
330
1D256
102
}
330
1D256
100
AcDbVisualStyle
  2
Gouraud
 70
     2
177
     3
291
     1
 70
    58
 90
        2
176
     1
 90
        2
176
     1
 90
        1
176
     1
 90
        2
176
     1
 40
0.6
176
     1
 40
30.0
176
     1
 62
     7
420
 16777215
176
     1
 90
        0
176
     1
 90
        4
176
     1
 62
     7
176
     1
 62
   257
176
     1
 90
        1
176
     1
 90
        1
176
     1
 40
1.0
176
     1
 90
        0
176
     1
 62
     7
176
     1
 40
1.0
176
     1
 90
        1
176
     1
 90
        6
176
     1
 90
        2
176
     1
 62
     7
176
     1
 90
        5
176
     1
 90
        0
176
     1
 90
        0
176
     1
290
     0
176
     1
 90
       13
176
     1
 40
0.0
176
     1
 90
        0
176
     1
290
     0
176
     1
290
     1
176
     1
290
     1
176
     1
290
     0
176
     1
290
     0
176
     1
290
     0
176
     1
290
     0
176
     1
290
     0
176
     1
290
     0
176
     1
 90
       50
176
     1
 40
0.0
176
     1
 40
1.0
176
     1
 90
        0
176
     1
 62
    18
420
        0
176
     1
 90
       50
176
     1
 90
        3
176
     1
 62
     5
420
      255
176
     1
290
     0
176
     1
 90
       50
176
     1
 90
       50
176
     1
 90
       50
176
     1
290
     0
176
     1
 90
       50
176
     1
 62
   256
176
     0
 40
1.0
176
     0
 90
        2
176
     1
  1
strokes_ogs.tif
176
     1
290
     0
176
     1
 40
1.0
176
     1
 40
1.0
176
     1
  0
VISUALSTYLE
  5
1D25A
102
{ACAD_REACTORS
330
1D256
102
}
330
1D256
100
AcDbVisualStyle
  2
GouraudWithEdges
 70
     3
177
     3
291
     1
 70
    58
 90
        2
176
     1
 90
        2
176
     1
 90
        1
176
     1
 90
        2
176
     1
 40
0.6
176
     1
 40
30.0
176
     1
 62
     7
420
 16777215
176
     1
 90
        1
176
     1
 90
        4
176
     1
 62
     7
176
     1
 62
   257
176
     1
 90
        1
176
     1
 90
        1
176
     1
 40
1.0
176
     1
 90
        0
176
     1
 62
   257
176
     1
 40
1.0
176
     1
 90
        1
176
     1
 90
        6
176
     1
 90
        2
176
     1
 62
     7
176
     1
 90
        5
176
     1
 90
        0
176
     1
 90
        0
176
     1
290
     0
176
     1
 90
       13
176
     1
 40
0.0
176
     1
 90
        0
176
     1
290
     0
176
     1
290
     1
176
     1
290
     1
176
     1
290
     0
176
     1
290
     0
176
     1
290
     0
176
     1
290
     0
176
     1
290
     0
176
     1
290
     0
176
     1
 90
       50
176
     1
 40
0.0
176
     1
 40
1.0
176
     1
 90
        0
176
     1
 62
    18
420
        0
176
     1
 90
       50
176
     1
 90
        3
176
     1
 62
     5
420
      255
176
     1
290
     0
176
     1
 90
       50
176
     1
 90
       50
176
     1
 90
       50
176
     1
290
     0
176
     1
 90
       50
176
     1
 62
   256
176
     0
 40
1.0
176
     0
 90
        2
176
     1
  1
strokes_ogs.tif
176
     1
290
     0
176
     1
 40
1.0
176
     1
 40
1.0
176
     1
  0
VISUALSTYLE
  5
1D9C5
102
{ACAD_REACTORS
330
1D256
102
}
330
1D256
100
AcDbVisualStyle
  2
Hidden
 70
     6
177
     3
291
     0
 70
    58
 90
        1
176
     1
 90
        2
176
     1
 90
        2
176
     1
 90
        0
176
     1
 40
0.6
176
     1
 40
30.0
176
     1
 62
     7
420
 16777215
176
     1
 90
        2
176
     1
 90
        2
176
     1
 62
     7
176
     1
 62
   257
176
     1
 90
        2
176
     1
 90
        1
176
     1
 40
40.0
176
     1
 90
        0
176
     1
 62
   257
176
     1
 40
1.0
176
     1
 90
        1
176
     1
 90
        6
176
     1
 90
        2
176
     1
 62
     7
176
     1
 90
        3
176
     1
 90
        0
176
     1
 90
        0
176
     1
290
     0
176
     1
 90
        1
176
     1
 40
0.0
176
     1
 90
        0
176
     1
290
     0
176
     1
290
     1
176
     1
290
     1
176
     1
290
     0
176
     1
290
     0
176
     1
290
     0
176
     1
290
     0
176
     1
290
     0
176
     1
290
     0
176
     1
 90
       50
176
     1
 40
0.0
176
     1
 40
1.0
176
     1
 90
        0
176
     1
 62
    18
420
        0
176
     1
 90
       50
176
     1
 90
        3
176
     1
 62
     5
420
      255
176
     1
290
     0
176
     1
 90
       50
176
     1
 90
       50
176
     1
 90
       50
176
     1
290
     0
176
     1
 90
       50
176
     1
 62
   256
176
     0
 40
1.0
176
     0
 90
        2
176
     1
  1
strokes_ogs.tif
176
     1
290
     0
176
     1
 40
1.0
176
     1
 40
1.0
176
     1
  0
VISUALSTYLE
  5
1D267
102
{ACAD_REACTORS
330
1D256
102
}
330
1D256
100
AcDbVisualStyle
  2
JitterOff
 70
    20
177
     3
291
     1
 70
    58
 90
        2
176
     0
 90
        2
176
     0
 90
        0
176
     0
 90
        0
176
     0
 40
0.6
176
     0
 40
30.0
176
     0
 62
     7
420
 16777215
176
     0
 90
        1
176
     0
 90
        4
176
     0
 62
     7
176
     0
 62
   257
176
     0
 90
        1
176
     0
 90
        1
176
     0
 40
1.0
176
     0
 90
       10
176
     2
 62
     7
176
     0
 40
1.0
176
     0
 90
        1
176
     0
 90
        6
176
     0
 90
        2
176
     0
 62
     7
176
     0
 90
        5
176
     0
 90
        0
176
     0
 90
        0
176
     0
290
     0
176
     0
 90
        1
176
     0
 40
0.0
176
     0
 90
        0
176
     0
290
     0
176
     1
290
     1
176
     1
290
     1
176
     1
290
     0
176
     1
290
     0
176
     1
290
     0
176
     1
290
     0
176
     1
290
     0
176
     1
290
     0
176
     1
 90
       50
176
     1
 40
0.0
176
     1
 40
1.0
176
     1
 90
        0
176
     1
 62
    18
420
        0
176
     1
 90
       50
176
     1
 90
        3
176
     1
 62
     5
420
      255
176
     1
290
     0
176
     1
 90
       50
176
     1
 90
       50
176
     1
 90
       50
176
     1
290
     0
176
     1
 90
       50
176
     1
 62
   256
176
     0
 40
1.0
176
     0
 90
        2
176
     1
  1
strokes_ogs.tif
176
     1
290
     0
176
     1
 40
1.0
176
     1
 40
1.0
176
     1
  0
VISUALSTYLE
  5
1D264
102
{ACAD_REACTORS
330
1D256
102
}
330
1D256
100
AcDbVisualStyle
  2
Linepattern
 70
    14
177
     3
291
     1
 70
    58
 90
        2
176
     1
 90
        2
176
     1
 90
        0
176
     1
 90
        0
176
     1
 40
0.6
176
     1
 40
30.0
176
     1
 62
     7
420
 16777215
176
     1
 90
        1
176
     1
 90
        4
176
     1
 62
     7
176
     1
 62
   257
176
     1
 90
        7
176
     1
 90
        7
176
     1
 40
1.0
176
     1
 90
        8
176
     1
 62
     7
176
     1
 40
1.0
176
     1
 90
        1
176
     1
 90
        6
176
     1
 90
        2
176
     1
 62
     7
176
     1
 90
        5
176
     1
 90
        0
176
     1
 90
        0
176
     1
290
     0
176
     1
 90
        1
176
     1
 40
0.0
176
     1
 90
        0
176
     1
290
     0
176
     1
290
     1
176
     1
290
     1
176
     1
290
     0
176
     1
290
     0
176
     1
290
     0
176
     1
290
     0
176
     1
290
     0
176
     1
290
     0
176
     1
 90
       50
176
     1
 40
0.0
176
     1
 40
1.0
176
     1
 90
        0
176
     1
 62
    18
420
        0
176
     1
 90
       50
176
     1
 90
        3
176
     1
 62
     5
420
      255
176
     1
290
     0
176
     1
 90
       50
176
     1
 90
       50
176
     1
 90
       50
176
     1
290
     0
176
     1
 90
       50
176
     1
 62
   256
176
     0
 40
1.0
176
     0
 90
        2
176
     1
  1
strokes_ogs.tif
176
     1
290
     0
176
     1
 40
1.0
176
     1
 40
1.0
176
     1
  0
VISUALSTYLE
  5
1D268
102
{ACAD_REACTORS
330
1D256
102
}
330
1D256
100
AcDbVisualStyle
  2
OverhangOff
 70
    21
177
     3
291
     1
 70
    58
 90
        2
176
     0
 90
        2
176
     0
 90
        0
176
     0
 90
        0
176
     0
 40
0.6
176
     0
 40
30.0
176
     0
 62
     7
420
 16777215
176
     0
 90
        1
176
     0
 90
        4
176
     0
 62
     7
176
     0
 62
   257
176
     0
 90
        1
176
     0
 90
        1
176
     0
 40
1.0
176
     0
 90
        9
176
     2
 62
     7
176
     0
 40
1.0
176
     0
 90
        1
176
     0
 90
        6
176
     0
 90
        2
176
     0
 62
     7
176
     0
 90
        5
176
     0
 90
        0
176
     0
 90
        0
176
     0
290
     0
176
     0
 90
        1
176
     0
 40
0.0
176
     0
 90
        0
176
     0
290
     0
176
     1
290
     1
176
     1
290
     1
176
     1
290
     0
176
     1
290
     0
176
     1
290
     0
176
     1
290
     0
176
     1
290
     0
176
     1
290
     0
176
     1
 90
       50
176
     1
 40
0.0
176
     1
 40
1.0
176
     1
 90
        0
176
     1
 62
    18
420
        0
176
     1
 90
       50
176
     1
 90
        3
176
     1
 62
     5
420
      255
176
     1
290
     0
176
     1
 90
       50
176
     1
 90
       50
176
     1
 90
       50
176
     1
290
     0
176
     1
 90
       50
176
     1
 62
   256
176
     0
 40
1.0
176
     0
 90
        2
176
     1
  1
strokes_ogs.tif
176
     1
290
     0
176
     1
 40
1.0
176
     1
 40
1.0
176
     1
  0
VISUALSTYLE
  5
1D260
102
{ACAD_REACTORS
330
1D256
102
}
330
1D256
100
AcDbVisualStyle
  2
Realistic
 70
     8
177
     3
291
     0
 70
    58
 90
        2
176
     1
 90
        2
176
     1
 90
        0
176
     1
 90
        0
176
     1
 40
0.6
176
     1
 40
30.0
176
     1
 62
     7
420
 16777215
176
     1
 90
        1
176
     1
 90
        0
176
     1
 62
     7
176
     1
 62
   257
176
     1
 90
        1
176
     1
 90
        1
176
     1
 40
1.0
176
     1
 90
        8
176
     1
 62
     8
420
  7895160
176
     1
 40
1.0
176
     1
 90
        1
176
     1
 90
        6
176
     1
 90
        2
176
     1
 62
     7
176
     1
 90
        5
176
     1
 90
        0
176
     1
 90
        0
176
     1
290
     0
176
     1
 90
       13
176
     1
 40
0.0
176
     1
 90
        0
176
     1
290
     0
176
     1
290
     1
176
     1
290
     1
176
     1
290
     0
176
     1
290
     0
176
     1
290
     0
176
     1
290
     0
176
     1
290
     0
176
     1
290
     0
176
     1
 90
       50
176
     1
 40
0.0
176
     1
 40
1.0
176
     1
 90
        0
176
     1
 62
    18
420
        0
176
     1
 90
       50
176
     1
 90
        3
176
     1
 62
     5
420
      255
176
     1
290
     0
176
     1
 90
       50
176
     1
 90
       50
176
     1
 90
       50
176
     1
290
     0
176
     1
 90
       50
176
     1
 62
   256
176
     0
 40
1.0
176
     0
 90
        2
176
     1
  1
strokes_ogs.tif
176
     1
290
     0
176
     1
 40
1.0
176
     1
 40
1.0
176
     1
  0
VISUALSTYLE
  5
1D9CA
102
{ACAD_REACTORS
330
1D256
102
}
330
1D256
100
AcDbVisualStyle
  2
Shaded
 70
    27
177
     3
291
     0
 70
    58
 90
        2
176
     1
 90
        2
176
     1
 90
        1
176
     1
 90
        2
176
     1
 40
0.6
176
     1
 40
30.0
176
     1
 62
     7
420
 16777215
176
     1
 90
        0
176
     1
 90
        4
176
     1
 62
     7
176
     1
 62
   257
176
     1
 90
        1
176
     1
 90
        1
176
     1
 40
1.0
176
     1
 90
        8
176
     1
 62
   257
176
     1
 40
1.0
176
     1
 90
        1
176
     1
 90
        6
176
     1
 90
        2
176
     1
 62
     8
420
  7895160
176
     1
 90
        3
176
     1
 90
        0
176
     1
 90
        0
176
     1
290
     0
176
     1
 90
        5
176
     1
 40
0.0
176
     1
 90
        0
176
     1
290
     0
176
     1
290
     1
176
     1
290
     1
176
     1
290
     0
176
     1
290
     0
176
     1
290
     0
176
     1
290
     0
176
     1
290
     0
176
     1
290
     0
176
     1
 90
       50
176
     1
 40
0.0
176
     1
 40
1.0
176
     1
 90
        0
176
     1
 62
    18
420
        0
176
     1
 90
       50
176
     1
 90
        3
176
     1
 62
     5
420
      255
176
     1
290
     0
176
     1
 90
       50
176
     1
 90
       50
176
     1
 90
       50
176
     1
290
     0
176
     1
 90
       50
176
     1
 62
   256
176
     0
 40
1.0
176
     0
 90
        2
176
     1
  1
strokes_ogs.tif
176
     1
290
     0
176
     1
 40
1.0
176
     1
 40
1.0
176
     1
  0
VISUALSTYLE
  5
1D9C9
102
{ACAD_REACTORS
330
1D256
102
}
330
1D256
100
AcDbVisualStyle
  2
Shaded with edges
 70
    26
177
     3
291
     0
 70
    58
 90
        2
176
     1
 90
        2
176
     1
 90
        1
176
     1
 90
        2
176
     1
 40
0.6
176
     1
 40
30.0
176
     1
 62
     7
420
 16777215
176
     1
 90
        1
176
     1
 90
        2
176
     1
 62
     7
176
     1
 62
   257
176
     1
 90
        2
176
     1
 90
        1
176
     1
 40
1.0
176
     1
 90
        8
176
     1
 62
   257
176
     1
 40
1.0
176
     1
 90
        1
176
     1
 90
        6
176
     1
 90
        2
176
     1
 62
     7
176
     1
 90
        3
176
     1
 90
        0
176
     1
 90
        0
176
     1
290
     0
176
     1
 90
        5
176
     1
 40
0.0
176
     1
 90
        0
176
     1
290
     0
176
     1
290
     1
176
     1
290
     1
176
     1
290
     0
176
     1
290
     0
176
     1
290
     0
176
     1
290
     0
176
     1
290
     0
176
     1
290
     0
176
     1
 90
       50
176
     1
 40
0.0
176
     1
 40
1.0
176
     1
 90
        0
176
     1
 62
    18
420
        0
176
     1
 90
       50
176
     1
 90
        3
176
     1
 62
     5
420
      255
176
     1
290
     0
176
     1
 90
       50
176
     1
 90
       50
176
     1
 90
       50
176
     1
290
     0
176
     1
 90
       50
176
     1
 62
   256
176
     0
 40
1.0
176
     0
 90
        2
176
     1
  1
strokes_ogs.tif
176
     1
290
     0
176
     1
 40
1.0
176
     1
 40
1.0
176
     1
  0
VISUALSTYLE
  5
1D9C6
102
{ACAD_REACTORS
330
1D256
102
}
330
1D256
100
AcDbVisualStyle
  2
Shades of Gray
 70
    23
177
     3
291
     0
 70
    58
 90
        2
176
     1
 90
        2
176
     1
 90
        3
176
     1
 90
        0
176
     1
 40
0.6
176
     1
 40
30.0
176
     1
 62
     7
420
 16777215
176
     1
 90
        2
176
     1
 90
        2
176
     1
 62
     7
176
     1
 62
     7
176
     1
 90
        1
176
     1
 90
        1
176
     1
 40
40.0
176
     1
 90
        8
176
     1
 62
     7
176
     1
 40
1.0
176
     1
 90
        1
176
     1
 90
        6
176
     1
 90
        2
176
     1
 62
     7
176
     1
 90
        3
176
     1
 90
        0
176
     1
 90
        0
176
     1
290
     0
176
     1
 90
        1
176
     1
 40
0.0
176
     1
 90
        0
176
     1
290
     0
176
     1
290
     1
176
     1
290
     1
176
     1
290
     0
176
     1
290
     0
176
     1
290
     0
176
     1
290
     0
176
     1
290
     0
176
     1
290
     0
176
     1
 90
       50
176
     1
 40
0.0
176
     1
 40
1.0
176
     1
 90
        0
176
     1
 62
    18
420
        0
176
     1
 90
       50
176
     1
 90
        3
176
     1
 62
     5
420
      255
176
     1
290
     0
176
     1
 90
       50
176
     1
 90
       50
176
     1
 90
       50
176
     1
290
     0
176
     1
 90
       50
176
     1
 62
   256
176
     0
 40
1.0
176
     0
 90
        2
176
     1
  1
strokes_ogs.tif
176
     1
290
     0
176
     1
 40
1.0
176
     1
 40
1.0
176
     1
  0
VISUALSTYLE
  5
1D9C7
102
{ACAD_REACTORS
330
1D256
102
}
330
1D256
100
AcDbVisualStyle
  2
Sketchy
 70
    24
177
     3
291
     0
 70
    58
 90
        1
176
     1
 90
        2
176
     1
 90
        2
176
     1
 90
        0
176
     1
 40
0.6
176
     1
 40
30.0
176
     1
 62
     7
420
 16777215
176
     1
 90
        2
176
     1
 90
        2
176
     1
 62
     7
176
     1
 62
     7
176
     1
 90
        1
176
     1
 90
        1
176
     1
 40
40.0
176
     1
 90
       11
176
     1
 62
     7
176
     1
 40
1.0
176
     1
 90
        1
176
     1
 90
        6
176
     1
 90
        2
176
     1
 62
     7
176
     1
 90
        6
176
     1
 90
        0
176
     1
 90
        0
176
     1
290
     0
176
     1
 90
        1
176
     1
 40
0.0
176
     1
 90
        0
176
     1
290
     0
176
     1
290
     1
176
     1
290
     1
176
     1
290
     0
176
     1
290
     0
176
     1
290
     0
176
     1
290
     0
176
     1
290
     0
176
     1
290
     0
176
     1
 90
       50
176
     1
 40
0.0
176
     1
 40
1.0
176
     1
 90
        0
176
     1
 62
    18
420
        0
176
     1
 90
       50
176
     1
 90
        3
176
     1
 62
     5
420
      255
176
     1
290
     0
176
     1
 90
       50
176
     1
 90
       50
176
     1
 90
       50
176
     1
290
     0
176
     1
 90
       50
176
     1
 62
   256
176
     0
 40
1.0
176
     0
 90
        2
176
     1
  1
strokes_ogs.tif
176
     1
290
     0
176
     1
 40
1.0
176
     1
 40
1.0
176
     1
  0
VISUALSTYLE
  5
1D263
102
{ACAD_REACTORS
330
1D256
102
}
330
1D256
100
AcDbVisualStyle
  2
Thicken
 70
    13
177
     3
291
     1
 70
    58
 90
        2
176
     1
 90
        2
176
     1
 90
        0
176
     1
 90
        0
176
     1
 40
0.6
176
     1
 40
30.0
176
     1
 62
     7
420
 16777215
176
     1
 90
        1
176
     1
 90
        4
176
     1
 62
     7
176
     1
 62
   257
176
     1
 90
        1
176
     1
 90
        1
176
     1
 40
1.0
176
     1
 90
       12
176
     1
 62
     7
176
     1
 40
1.0
176
     1
 90
        1
176
     1
 90
        6
176
     1
 90
        2
176
     1
 62
     7
176
     1
 90
        5
176
     1
 90
        0
176
     1
 90
        0
176
     1
290
     0
176
     1
 90
        1
176
     1
 40
0.0
176
     1
 90
        0
176
     1
290
     0
176
     1
290
     1
176
     1
290
     1
176
     1
290
     0
176
     1
290
     0
176
     1
290
     0
176
     1
290
     0
176
     1
290
     0
176
     1
290
     0
176
     1
 90
       50
176
     1
 40
0.0
176
     1
 40
1.0
176
     1
 90
        0
176
     1
 62
    18
420
        0
176
     1
 90
       50
176
     1
 90
        3
176
     1
 62
     5
420
      255
176
     1
290
     0
176
     1
 90
       50
176
     1
 90
       50
176
     1
 90
       50
176
     1
290
     0
176
     1
 90
       50
176
     1
 62
   256
176
     0
 40
1.0
176
     0
 90
        2
176
     1
  1
strokes_ogs.tif
176
     1
290
     0
176
     1
 40
1.0
176
     1
 40
1.0
176
     1
  0
VISUALSTYLE
  5
1D9C4
102
{ACAD_REACTORS
330
1D256
102
}
330
1D256
100
AcDbVisualStyle
  2
Wireframe
 70
     5
177
     3
291
     0
 70
    58
 90
        0
176
     1
 90
        2
176
     1
 90
        0
176
     1
 90
        0
176
     1
 40
0.6
176
     1
 40
30.0
176
     1
 62
     7
420
 16777215
176
     1
 90
        1
176
     1
 90
        4
176
     1
 62
     7
176
     1
 62
   257
176
     1
 90
        1
176
     1
 90
        1
176
     1
 40
1.0
176
     1
 90
        0
176
     1
 62
   257
176
     1
 40
1.0
176
     1
 90
        1
176
     1
 90
        6
176
     1
 90
        2
176
     1
 62
     7
176
     1
 90
        3
176
     1
 90
        0
176
     1
 90
        0
176
     1
290
     0
176
     1
 90
        1
176
     1
 40
0.0
176
     1
 90
        0
176
     1
290
     0
176
     1
290
     1
176
     1
290
     1
176
     1
290
     0
176
     1
290
     0
176
     1
290
     0
176
     1
290
     0
176
     1
290
     0
176
     1
290
     0
176
     1
 90
       50
176
     1
 40
0.0
176
     1
 40
1.0
176
     1
 90
        0
176
     1
 62
    18
420
        0
176
     1
 90
       50
176
     1
 90
        3
176
     1
 62
     5
420
      255
176
     1
290
     0
176
     1
 90
       50
176
     1
 90
       50
176
     1
 90
       50
176
     1
290
     0
176
     1
 90
       50
176
     1
 62
   256
176
     0
 40
1.0
176
     0
 90
        2
176
     1
  1
strokes_ogs.tif
176
     1
290
     0
176
     1
 40
1.0
176
     1
 40
1.0
176
     1
  0
VISUALSTYLE
  5
1D9C8
102
{ACAD_REACTORS
330
1D256
102
}
330
1D256
100
AcDbVisualStyle
  2
X-Ray
 70
    25
177
     3
291
     0
 70
    58
 90
        2
176
     1
 90
        2
176
     1
 90
        1
176
     1
 90
        1
176
     1
 40
0.5
176
     1
 40
30.0
176
     1
 62
     7
420
 16777215
176
     1
 90
        1
176
     1
 90
        0
176
     1
 62
     7
176
     1
 62
   257
176
     1
 90
        1
176
     1
 90
        1
176
     1
 40
1.0
176
     1
 90
        8
176
     1
 62
     7
176
     1
 40
1.0
176
     1
 90
        1
176
     1
 90
        6
176
     1
 90
        2
176
     1
 62
     7
176
     1
 90
        3
176
     1
 90
        0
176
     1
 90
        0
176
     1
290
     0
176
     1
 90
       13
176
     1
 40
0.0
176
     1
 90
        0
176
     1
290
     0
176
     1
290
     1
176
     1
290
     1
176
     1
290
     0
176
     1
290
     0
176
     1
290
     0
176
     1
290
     0
176
     1
290
     0
176
     1
290
     0
176
     1
 90
       50
176
     1
 40
0.0
176
     1
 40
1.0
176
     1
 90
        0
176
     1
 62
    18
420
        0
176
     1
 90
       50
176
     1
 90
        3
176
     1
 62
     5
420
      255
176
     1
290
     0
176
     1
 90
       50
176
     1
 90
       50
176
     1
 90
       50
176
     1
290
     0
176
     1
 90
       50
176
     1
 62
   256
176
     0
 40
1.0
176
     0
 90
        2
176
     1
  1
strokes_ogs.tif
176
     1
290
     0
176
     1
 40
1.0
176
     1
 40
1.0
176
     1
  0
DICTIONARYVAR
  5
1D5E3
102
{ACAD_REACTORS
330
265
102
}
330
265
100
DictionaryVariables
280
     0
  1
1:1
  0
DICTIONARYVAR
  5
1D5E1
102
{ACAD_REACTORS
330
265
102
}
330
265
100
DictionaryVariables
280
     0
  1
STANDARD
  0
DICTIONARYVAR
  5
266
102
{ACAD_REACTORS
330
265
102
}
330
265
100
DictionaryVariables
280
     0
  1
STANDARD
  0
DICTIONARYVAR
  5
101F4BE
102
{ACAD_REACTORS
330
265
102
}
330
265
100
DictionaryVariables
280
     0
  1
Metric50
  0
DICTIONARYVAR
  5
101F4BF
102
{ACAD_REACTORS
330
265
102
}
330
265
100
DictionaryVariables
280
     0
  1
Metric50
  0
DICTIONARYVAR
  5
1A744
102
{ACAD_REACTORS
330
265
102
}
330
265
100
DictionaryVariables
280
     0
  1
1
  0
DICTIONARYVAR
  5
1D5E5
102
{ACAD_REACTORS
330
265
102
}
330
265
100
DictionaryVariables
280
     0
  1
1
  0
DICTIONARYVAR
  5
1D5E6
102
{ACAD_REACTORS
330
265
102
}
330
265
100
DictionaryVariables
280
     0
  1
15
  0
DICTIONARYVAR
  5
1D5E4
102
{ACAD_REACTORS
330
265
102
}
330
265
100
DictionaryVariables
280
     0
  1
0
  0
DICTIONARYVAR
  5
1D5E2
102
{ACAD_REACTORS
330
265
102
}
330
265
100
DictionaryVariables
280
     0
  1
0
  0
DICTIONARYVAR
  5
1A745
102
{ACAD_REACTORS
330
265
102
}
330
265
100
DictionaryVariables
280
     0
  1

  0
DICTIONARYVAR
  5
1E3BD
102
{ACAD_REACTORS
330
265
102
}
330
265
100
DictionaryVariables
280
     0
  1
1
  0
VLO-VL
  5
1AD26
102
{ACAD_REACTORS
330
1AD25
102
}
330
1AD25
100
vlo_VL
 90
   -64512
 91
       12
 92
        1
 40
2.5
300
(&VLO-R . 0)
  0
DICTIONARY
  5
101F4C3
330
101F4AE
100
AcDbDictionary
280
     1
281
     1
  3
ACAD_XREC_ROUNDTRIP
360
101F4C4
  0
DICTIONARY
  5
1D4D8
330
22
100
AcDbDictionary
280
     1
281
     1
  0
DICTIONARY
  5
1D24F
330
1D24E
100
AcDbDictionary
280
     1
281
     1
  3
BUMPTILE
360
1D251
  3
DIFFUSETILE
360
1D250
  3
OPACITYTILE
360
1D254
  3
REFLECTIONTILE
360
1D253
  3
REFRACTIONTILE
360
1D255
  3
SPECULARTILE
360
1D252
  0
DICTIONARY
  5
1D247
330
1D246
100
AcDbDictionary
280
     1
281
     1
  3
BUMPTILE
360
1D249
  3
DIFFUSETILE
360
1D248
  3
OPACITYTILE
360
1D24C
  3
REFLECTIONTILE
360
1D24B
  3
REFRACTIONTILE
360
1D24D
  3
SPECULARTILE
360
1D24A
  0
DICTIONARY
  5
1B62B
330
1B62A
100
AcDbDictionary
280
     1
281
     1
  3
BUMPTILE
360
1B62D
  3
DIFFUSETILE
360
1B62E
  3
OPACITYTILE
360
1B62F
  3
REFLECTIONTILE
360
1B630
  0
DICTIONARY
  5
101F4C1
330
101F4AC
100
AcDbDictionary
280
     1
281
     1
  3
ACAD_XREC_ROUNDTRIP
360
101F4C2
  0
DICTIONARY
  5
1D5B7
330
1D6
100
AcDbDictionary
280
     1
281
     1
  3
ACAD_ROUNDTRIP_2008_TABLESTYLE_CELLSTYLEMAP
360
101F4C0
  0
XRECORD
  5
101F4C4
102
{ACAD_REACTORS
330
101F4C3
102
}
330
101F4C3
100
AcDbXrecord
280
     1
102
DISPLAYNAME
  1
Metric50
102
FLAGS
 90
        0
  0
XRECORD
  5
1D251
102
{ACAD_REACTORS
330
1D24F
102
}
330
1D24F
100
AcDbXrecord
280
     1
270
     1
271
     1
  0
XRECORD
  5
1D250
102
{ACAD_REACTORS
330
1D24F
102
}
330
1D24F
100
AcDbXrecord
280
     1
270
     1
271
     1
  0
XRECORD
  5
1D254
102
{ACAD_REACTORS
330
1D24F
102
}
330
1D24F
100
AcDbXrecord
280
     1
270
     1
271
     1
  0
XRECORD
  5
1D253
102
{ACAD_REACTORS
330
1D24F
102
}
330
1D24F
100
AcDbXrecord
280
     1
270
     1
271
     1
  0
XRECORD
  5
1D255
102
{ACAD_REACTORS
330
1D24F
102
}
330
1D24F
100
AcDbXrecord
280
     1
270
     1
271
     1
  0
XRECORD
  5
1D252
102
{ACAD_REACTORS
330
1D24F
102
}
330
1D24F
100
AcDbXrecord
280
     1
270
     1
271
     1
  0
XRECORD
  5
1D249
102
{ACAD_REACTORS
330
1D247
102
}
330
1D247
100
AcDbXrecord
280
     1
270
     1
271
     1
  0
XRECORD
  5
1D248
102
{ACAD_REACTORS
330
1D247
102
}
330
1D247
100
AcDbXrecord
280
     1
270
     1
271
     1
  0
XRECORD
  5
1D24C
102
{ACAD_REACTORS
330
1D247
102
}
330
1D247
100
AcDbXrecord
280
     1
270
     1
271
     1
  0
XRECORD
  5
1D24B
102
{ACAD_REACTORS
330
1D247
102
}
330
1D247
100
AcDbXrecord
280
     1
270
     1
271
     1
  0
XRECORD
  5
1D24D
102
{ACAD_REACTORS
330
1D247
102
}
330
1D247
100
AcDbXrecord
280
     1
270
     1
271
     1
  0
XRECORD
  5
1D24A
102
{ACAD_REACTORS
330
1D247
102
}
330
1D247
100
AcDbXrecord
280
     1
270
     1
271
     1
  0
XRECORD
  5
1B62D
102
{ACAD_REACTORS
330
1B62B
102
}
330
1B62B
100
AcDbXrecord
280
     1
270
     1
271
     1
  0
XRECORD
  5
1B62E
102
{ACAD_REACTORS
330
1B62B
102
}
330
1B62B
100
AcDbXrecord
280
     1
270
     1
271
     1
  0
XRECORD
  5
1B62F
102
{ACAD_REACTORS
330
1B62B
102
}
330
1B62B
100
AcDbXrecord
280
     1
270
     1
271
     1
  0
XRECORD
  5
1B630
102
{ACAD_REACTORS
330
1B62B
102
}
330
1B62B
100
AcDbXrecord
280
     1
270
     1
271
     1
  0
XRECORD
  5
101F4C2
102
{ACAD_REACTORS
330
101F4C1
102
}
330
101F4C1
100
AcDbXrecord
280
     1
102
DISPLAYNAME
  1
Metric50
102
FLAGS
 90
        0
  0
CELLSTYLEMAP
  5
101F4C0
102
{ACAD_REACTORS
330
1D5B7
102
}
330
1D5B7
100
AcDbCellStyleMap
 90
        3
300
CELLSTYLE
  1
TABLEFORMAT_BEGIN
 90
        5
170
     1
 91
        0
 92
    32768
 62
   257
 93
        1
300
CONTENTFORMAT
  1
CONTENTFORMAT_BEGIN
 90
        0
 91
        0
 92
        4
 93
        0
300

 40
0.0
140
1.0
 94
        5
 62
     0
340
11
144
6.0
309
CONTENTFORMAT_END
171
     1
301
MARGIN
  1
CELLMARGIN_BEGIN
 40
1.5
 40
1.5
 40
1.5
 40
1.5
 40
0.18
 40
0.18
309
CELLMARGIN_END
 94
        6
 95
        1
302
GRIDFORMAT
  1
GRIDFORMAT_BEGIN
 90
        0
 91
        1
 62
     0
 92
       -2
340
0
 93
        0
 40
0.045
309
GRIDFORMAT_END
 95
        2
302
GRIDFORMAT
  1
GRIDFORMAT_BEGIN
 90
        0
 91
        1
 62
     0
 92
       -2
340
0
 93
        0
 40
0.045
309
GRIDFORMAT_END
 95
        4
302
GRIDFORMAT
  1
GRIDFORMAT_BEGIN
 90
        0
 91
        1
 62
     0
 92
       -2
340
0
 93
        0
 40
0.045
309
GRIDFORMAT_END
 95
        8
302
GRIDFORMAT
  1
GRIDFORMAT_BEGIN
 90
        0
 91
        1
 62
     0
 92
       -2
340
0
 93
        0
 40
0.045
309
GRIDFORMAT_END
 95
       16
302
GRIDFORMAT
  1
GRIDFORMAT_BEGIN
 90
        0
 91
        1
 62
     0
 92
       -2
340
0
 93
        0
 40
0.045
309
GRIDFORMAT_END
 95
       32
302
GRIDFORMAT
  1
GRIDFORMAT_BEGIN
 90
        0
 91
        1
 62
     0
 92
       -2
340
0
 93
        0
 40
0.045
309
GRIDFORMAT_END
309
TABLEFORMAT_END
  1
CELLSTYLE_BEGIN
 90
        1
 91
        1
300
_TITLE
309
CELLSTYLE_END
300
CELLSTYLE
  1
TABLEFORMAT_BEGIN
 90
        5
170
     1
 91
        0
 92
        0
 62
   257
 93
        1
300
CONTENTFORMAT
  1
CONTENTFORMAT_BEGIN
 90
        0
 91
        0
 92
        4
 93
        0
300

 40
0.0
140
1.0
 94
        5
 62
     0
340
11
144
4.5
309
CONTENTFORMAT_END
171
     1
301
MARGIN
  1
CELLMARGIN_BEGIN
 40
1.5
 40
1.5
 40
1.5
 40
1.5
 40
0.18
 40
0.18
309
CELLMARGIN_END
 94
        6
 95
        1
302
GRIDFORMAT
  1
GRIDFORMAT_BEGIN
 90
        0
 91
        1
 62
     0
 92
       -2
340
0
 93
        0
 40
0.045
309
GRIDFORMAT_END
 95
        2
302
GRIDFORMAT
  1
GRIDFORMAT_BEGIN
 90
        0
 91
        1
 62
     0
 92
       -2
340
0
 93
        0
 40
0.045
309
GRIDFORMAT_END
 95
        4
302
GRIDFORMAT
  1
GRIDFORMAT_BEGIN
 90
        0
 91
        1
 62
     0
 92
       -2
340
0
 93
        0
 40
0.045
309
GRIDFORMAT_END
 95
        8
302
GRIDFORMAT
  1
GRIDFORMAT_BEGIN
 90
        0
 91
        1
 62
     0
 92
       -2
340
0
 93
        0
 40
0.045
309
GRIDFORMAT_END
 95
       16
302
GRIDFORMAT
  1
GRIDFORMAT_BEGIN
 90
        0
 91
        1
 62
     0
 92
       -2
340
0
 93
        0
 40
0.045
309
GRIDFORMAT_END
 95
       32
302
GRIDFORMAT
  1
GRIDFORMAT_BEGIN
 90
        0
 91
        1
 62
     0
 92
       -2
340
0
 93
        0
 40
0.045
309
GRIDFORMAT_END
309
TABLEFORMAT_END
  1
CELLSTYLE_BEGIN
 90
        2
 91
        1
300
_HEADER
309
CELLSTYLE_END
300
CELLSTYLE
  1
TABLEFORMAT_BEGIN
 90
        5
170
     1
 91
        0
 92
        0
 62
   257
 93
        1
300
CONTENTFORMAT
  1
CONTENTFORMAT_BEGIN
 90
        0
 91
        0
 92
        4
 93
        0
300

 40
0.0
140
1.0
 94
        2
 62
     0
340
11
144
4.5
309
CONTENTFORMAT_END
171
     1
301
MARGIN
  1
CELLMARGIN_BEGIN
 40
1.5
 40
1.5
 40
1.5
 40
1.5
 40
0.18
 40
0.18
309
CELLMARGIN_END
 94
        6
 95
        1
302
GRIDFORMAT
  1
GRIDFORMAT_BEGIN
 90
        0
 91
        1
 62
     0
 92
       -2
340
0
 93
        0
 40
0.045
309
GRIDFORMAT_END
 95
        2
302
GRIDFORMAT
  1
GRIDFORMAT_BEGIN
 90
        0
 91
        1
 62
     0
 92
       -2
340
0
 93
        0
 40
0.045
309
GRIDFORMAT_END
 95
        4
302
GRIDFORMAT
  1
GRIDFORMAT_BEGIN
 90
        0
 91
        1
 62
     0
 92
       -2
340
0
 93
        0
 40
0.045
309
GRIDFORMAT_END
 95
        8
302
GRIDFORMAT
  1
GRIDFORMAT_BEGIN
 90
        0
 91
        1
 62
     0
 92
       -2
340
0
 93
        0
 40
0.045
309
GRIDFORMAT_END
 95
       16
302
GRIDFORMAT
  1
GRIDFORMAT_BEGIN
 90
        0
 91
        1
 62
     0
 92
       -2
340
0
 93
        0
 40
0.045
309
GRIDFORMAT_END
 95
       32
302
GRIDFORMAT
  1
GRIDFORMAT_BEGIN
 90
        0
 91
        1
 62
     0
 92
       -2
340
0
 93
        0
 40
0.045
309
GRIDFORMAT_END
309
TABLEFORMAT_END
  1
CELLSTYLE_BEGIN
 90
        3
 91
        2
300
_DATA
309
CELLSTYLE_END
  0
ENDSEC
  0
SECTION
  2
ACDSDATA
 70
     2
 71
     8
  0
ACDSSCHEMA
 90
        0
  1
AcDb_Thumbnail_Schema
  2
AcDbDs::ID
280
    10
 91
        8
  2
Thumbnail_Data
280
    15
 91
        0
101
ACDSRECORD
 95
        0
 90
        1
  2
AcDbDs::TreatedAsObjectData
280
     1
291
     1
101
ACDSRECORD
 95
        0
 90
        2
  2
AcDbDs::Legacy
280
     1
291
     1
101
ACDSRECORD
  1
AcDbDs::ID
 90
        3
  2
AcDs:Indexable
280
     1
291
     1
101
ACDSRECORD
  1
AcDbDs::ID
 90
        4
  2
AcDbDs::HandleAttribute
280
     7
282
     1
  0
ACDSSCHEMA
 90
        1
  1
AcDbDs::TreatedAsObjectDataSchema
  2
AcDbDs::TreatedAsObjectData
280
     1
 91
        0
  0
ACDSSCHEMA
 90
        2
  1
AcDbDs::LegacySchema
  2
AcDbDs::Legacy
280
     1
 91
        0
  0
ACDSSCHEMA
 90
        3
  1
AcDbDs::IndexedPropertySchema
  2
AcDs:Indexable
280
     1
 91
        0
  0
ACDSSCHEMA
 90
        4
  1
AcDbDs::HandleAttributeSchema
  2
AcDbDs::HandleAttribute
280
     7
 91
        1
284
     1
  0
ACDSRECORD
 90
        0
  2
AcDbDs::ID
280
    10
320
22
  2
Thumbnail_Data
280
    15
 94
     1662
310
89504E470D0A1A0A0000000D49484452000001000000007508030000009634CF9200000300504C5445212830000000C8C8C80000000000000000000000000000000000000000000000000000330000660000990000CC0000FF0033000033330033660033990033CC0033FF0066000066330066660066990066CC0066FF0099
310
000099330099660099990099CC0099FF00CC0000CC3300CC6600CC9900CCCC00CCFF00FF0000FF3300FF6600FF9900FFCC00FFFF3300003300333300663300993300CC3300FF3333003333333333663333993333CC3333FF3366003366333366663366993366CC3366FF3399003399333399663399993399CC3399FF33CC00
310
33CC3333CC6633CC9933CCCC33CCFF33FF0033FF3333FF6633FF9933FFCC33FFFF6600006600336600666600996600CC6600FF6633006633336633666633996633CC6633FF6666006666336666666666996666CC6666FF6699006699336699666699996699CC6699FF66CC0066CC3366CC6666CC9966CCCC66CCFF66FF0066
310
FF3366FF6666FF9966FFCC66FFFF9900009900339900669900999900CC9900FF9933009933339933669933999933CC9933FF9966009966339966669966999966CC9966FF9999009999339999669999999999CC9999FF99CC0099CC3399CC6699CC9999CCCC99CCFF99FF0099FF3399FF6699FF9999FFCC99FFFFCC0000CC00
310
33CC0066CC0099CC00CCCC00FFCC3300CC3333CC3366CC3399CC33CCCC33FFCC6600CC6633CC6666CC6699CC66CCCC66FFCC9900CC9933CC9966CC9999CC99CCCC99FFCCCC00CCCC33CCCC66CCCC99CCCCCCCCCCFFCCFF00CCFF33CCFF66CCFF99CCFFCCCCFFFFFF0000FF0033FF0066FF0099FF00CCFF00FFFF3300FF3333
310
FF3366FF3399FF33CCFF33FFFF6600FF6633FF6666FF6699FF66CCFF66FFFF9900FF9933FF9966FF9999FF99CCFF99FFFFCC00FFCC33FFCC66FFCC99FFCCCCFFCCFFFFFF00FFFF33FFFF66FFFF99FFFFCCFFFFFF0000000D0D0D1A1A1A2828283535354343435050505D5D5D6B6B6B787878868686939393A1A1A1AEAEAEBB
310
BBBBC9C9C9D6D6D6E4E4E4F1F1F1FFFFFF000000000000000000000000000000000000000000000000000000000000B21171F6000003394944415478DAED9DDBB283300845F9FFFFE5FDCCF4589B9BD12405760A7D68673A56E312760023251A78F1262F927AC9ED799361F21696A00100FBFA0780001000024000080001C0
310
12805438FA64BF01C0004035AE19008F4EAED8A6F51B04002C0480410194E3E249EBE667DBDDFCC8C8029281CC9DFF73B7E1F661AD4570AD1CC1A3C6725D003102B0568F619A04D0F8B50D80D7589854AB1EA7D78000782110ADC8E507E3CF874B008C0780A46BB205004202401A4569E85920B2C100B028EA012000840604
310
80001000A624843800F806C001C01080E60A9D663A5C5D106D00E787E6FA99F765C704A09F0E7B06601E075801F83F4E00700D80B10108AE817D5B007B06F03A4DB7224801E0C8800280730D405821E21B4032267517782743EC15C0DB02B89C0D500048BA001D1971B246001080DCF1D338001880B80550BA56C4A7061C4A
310
E836107A2543D544E8210E3804103C10121641F61C0A6365836772AE5B14C529889801002989710140F509614C00C3D77362184822C8B9086A01205000ECCE0568ECEE3037146D74C4801A80D42DC368B5F8E82E5634A07FDCFD00901B00B5BB2F77FCD80E00DF7DF3CB00B8F5E0A727008DE46D7959150E80E9B358018034
310
0D7A8F03805E012000048000205A8C53580FBDD88A20006C0F00DD05048EB0DE2934BD6D226F015F8FE61601A49BE8CC029F050AD5E03F2B77F2DB59E77B593EE62BB6A317E56CE4210FE0FBF1FC148066A9584D04B99D92723B52A82DA0C43AE604D7CFD1E888E0D75DA0DC4DD629257F422ADB42F99119C994F6E98618E9
310
703A178AB80095EFB50459E6029616705780D21141010BD82B123CDE9E8820FF1E00EC6EF86AF500833800A8BBFC800B3C0640E93283ECBBEE607EC605463DC4741AA42410A366B4322E82C316D06934E8C3022C008846825716302875002E301707CCF450509F05445D608759C0240E409C06296DA0C999B1AFB80055E5AD
310
AEAFB77B49FC7236D8ADA55A89E0F72C80CEC610E95A48CA7B76F3E56E3C5484D072812111BC56B52B0B48AE349F130488054CCC02F7007ABEFE01D00B02AC443023537FD794AB9A646E01FD5B26BC2100CA5DB401E0C9DD80BE1C610742971A75AB01095D32CE05F6F8BFC9F8C749E716305665FD033939A488D167607A00
310
00000049454E44AE426082
  0
ENDSEC
  0
EOF
