  0
SECTION
  2
HEADER
  9
$ACADVER
  1
AC1027
  9
$ACADMAINTVER
 70
   125
  9
$DWGCODEPAGE
  3
ANSI_1252
  9
$AUTHOR
  1
muni
  9
$LASTSAVEDBY
  1
fleminab
  9
$CUSTOMPROPERTYTAG
  1
Manager
  9
$CUSTOMPROPERTY
  1

  9
$CUSTOMPROPERTYTAG
  1
Company
  9
$CUSTOMPROPERTY
  1

  9
$CUSTOMPROPERTYTAG
  1
Category
  9
$CUSTOMPROPERTY
  1

  9
$CUSTOMPROPERTYTAG
  1
Part Number
  9
$CUSTOMPROPERTY
  1
YSHMCPDXF
  9
$CUSTOMPROPERTYTAG
  1
Description
  9
$CUSTOMPROPERTY
  1

  9
$CUSTOMPROPERTYTAG
  1
Project
  9
$CUSTOMPROPERTY
  1

  9
$CUSTOMPROPERTYTAG
  1
Designer
  9
$CUSTOMPROPERTY
  1
muni
  9
$CUSTOMPROPERTYTAG
  1
Engineer
  9
$CUSTOMPROPERTY
  1

  9
$CUSTOMPROPERTYTAG
  1
Authority
  9
$CUSTOMPROPERTY
  1

  9
$CUSTOMPROPERTYTAG
  1
Cost Center
  9
$CUSTOMPROPERTY
  1

  9
$CUSTOMPROPERTYTAG
  1
Vendor
  9
$CUSTOMPROPERTY
  1

  9
$CUSTOMPROPERTYTAG
  1
User Status
  9
$CUSTOMPROPERTY
  1

  9
$CUSTOMPROPERTYTAG
  1
Design Status
  9
$CUSTOMPROPERTY
  1
WorkInProgress
  9
$CUSTOMPROPERTYTAG
  1
Checked by
  9
$CUSTOMPROPERTY
  1

  9
$CUSTOMPROPERTYTAG
  1
Engr Approved by
  9
$CUSTOMPROPERTY
  1

  9
$CUSTOMPROPERTYTAG
  1
Mfg Approved by
  9
$CUSTOMPROPERTY
  1

  9
$CUSTOMPROPERTYTAG
  1
Client
  9
$CUSTOMPROPERTY
  1

  9
$REQUIREDVERSIONS
160
                 0
  9
$INSBASE
 10
0.0
 20
0.0
 30
0.0
  9
$EXTMIN
 10
190.6372391537732
 20
89.90112412942243
 30
-0.0015258207003583
  9
$EXTMAX
 10
457.6091320836091
 20
373.0691537552853
 30
0.0000000349246037
  9
$LIMMIN
 10
0.0
 20
0.0
  9
$LIMMAX
 10
594.0
 20
420.0
  9
$ORTHOMODE
 70
     0
  9
$REGENMODE
 70
     1
  9
$FILLMODE
 70
     1
  9
$QTEXTMODE
 70
     0
  9
$MIRRTEXT
 70
     0
  9
$LTSCALE
 40
2.0
  9
$ATTMODE
 70
     1
  9
$TEXTSIZE
 40
0.2
  9
$TRACEWID
 40
0.05
  9
$TEXTSTYLE
  7
Standard
  9
$CLAYER
  8
0
  9
$CELTYPE
  6
ByLayer
  9
$CECOLOR
 62
   256
  9
$CELTSCALE
 40
1.0
  9
$DISPSILH
 70
     0
  9
$DIMSCALE
 40
1.0
  9
$DIMASZ
 40
1.799999999999999
  9
$DIMEXO
 40
0.0625
  9
$DIMDLI
 40
0.38
  9
$DIMRND
 40
0.0
  9
$DIMDLE
 40
0.0
  9
$DIMEXE
 40
0.18
  9
$DIMTP
 40
0.0
  9
$DIMTM
 40
0.0
  9
$DIMTXT
 40
0.25
  9
$DIMCEN
 40
0.09
  9
$DIMTSZ
 40
0.0
  9
$DIMTOL
 70
     0
  9
$DIMLIM
 70
     0
  9
$DIMTIH
 70
     1
  9
$DIMTOH
 70
     1
  9
$DIMSE1
 70
     0
  9
$DIMSE2
 70
     0
  9
$DIMTAD
 70
     0
  9
$DIMZIN
 70
     0
  9
$DIMBLK
  1

  9
$DIMASO
 70
     1
  9
$DIMSHO
 70
     1
  9
$DIMPOST
  1

  9
$DIMAPOST
  1

  9
$DIMALT
 70
     0
  9
$DIMALTD
 70
     2
  9
$DIMALTF
 40
25.4
  9
$DIMLFAC
 40
1.0
  9
$DIMTOFL
 70
     0
  9
$DIMTVP
 40
0.0
  9
$DIMTIX
 70
     0
  9
$DIMSOXD
 70
     0
  9
$DIMSAH
 70
     0
  9
$DIMBLK1
  1

  9
$DIMBLK2
  1

  9
$DIMSTYLE
  2
Standard
  9
$DIMCLRD
 70
     0
  9
$DIMCLRE
 70
     0
  9
$DIMCLRT
 70
     0
  9
$DIMTFAC
 40
1.0
  9
$DIMGAP
 40
0.09
  9
$DIMJUST
 70
     0
  9
$DIMSD1
 70
     0
  9
$DIMSD2
 70
     0
  9
$DIMTOLJ
 70
     1
  9
$DIMTZIN
 70
     0
  9
$DIMALTZ
 70
     0
  9
$DIMALTTZ
 70
     0
  9
$DIMUPT
 70
     0
  9
$DIMDEC
 70
     4
  9
$DIMTDEC
 70
     4
  9
$DIMALTU
 70
     2
  9
$DIMALTTD
 70
     2
  9
$DIMTXSTY
  7
Standard
  9
$DIMAUNIT
 70
     0
  9
$DIMADEC
 70
     0
  9
$DIMALTRND
 40
0.0
  9
$DIMAZIN
 70
     0
  9
$DIMDSEP
 70
    46
  9
$DIMATFIT
 70
     3
  9
$DIMFRAC
 70
     0
  9
$DIMLDRBLK
  1

  9
$DIMLUNIT
 70
     2
  9
$DIMLWD
 70
    -2
  9
$DIMLWE
 70
    -2
  9
$DIMTMOVE
 70
     0
  9
$DIMFXL
 40
1.0
  9
$DIMFXLON
 70
     0
  9
$DIMJOGANG
 40
0.7853981633974483
  9
$DIMTFILL
 70
     0
  9
$DIMTFILLCLR
 70
     0
  9
$DIMARCSYM
 70
     0
  9
$DIMLTYPE
  6

  9
$DIMLTEX1
  6

  9
$DIMLTEX2
  6

  9
$DIMTXTDIRECTION
 70
     0
  9
$LUNITS
 70
     2
  9
$LUPREC
 70
     4
  9
$SKETCHINC
 40
0.1
  9
$FILLETRAD
 40
0.0
  9
$AUNITS
 70
     0
  9
$AUPREC
 70
     0
  9
$MENU
  1
.
  9
$ELEVATION
 40
0.0
  9
$PELEVATION
 40
0.0
  9
$THICKNESS
 40
0.0
  9
$LIMCHECK
 70
     0
  9
$CHAMFERA
 40
0.0
  9
$CHAMFERB
 40
0.0
  9
$CHAMFERC
 40
0.0
  9
$CHAMFERD
 40
0.0
  9
$SKPOLY
 70
     0
  9
$TDCREATE
 40
2455649.571655093
  9
$TDUCREATE
 40
2455649.113324815
  9
$TDUPDATE
 40
2458068.698958333
  9
$TDUUPDATE
 40
2458068.240625000
  9
$TDINDWG
 40
0.0001475810
  9
$TDUSRTIMER
 40
0.0001475810
  9
$USRTIMER
 70
     1
  9
$ANGBASE
 50
0.0
  9
$ANGDIR
 70
     0
  9
$PDMODE
 70
     0
  9
$PDSIZE
 40
0.0
  9
$PLINEWID
 40
0.0
  9
$SPLFRAME
 70
     0
  9
$SPLINETYPE
 70
     6
  9
$SPLINESEGS
 70
     8
  9
$HANDSEED
  5
798
  9
$SURFTAB1
 70
     6
  9
$SURFTAB2
 70
     6
  9
$SURFTYPE
 70
     6
  9
$SURFU
 70
     6
  9
$SURFV
 70
     6
  9
$UCSBASE
  2

  9
$UCSNAME
  2

  9
$UCSORG
 10
0.0
 20
0.0
 30
0.0
  9
$UCSXDIR
 10
1.0
 20
0.0
 30
0.0
  9
$UCSYDIR
 10
0.0
 20
1.0
 30
0.0
  9
$UCSORTHOREF
  2

  9
$UCSORTHOVIEW
 70
     0
  9
$UCSORGTOP
 10
0.0
 20
0.0
 30
0.0
  9
$UCSORGBOTTOM
 10
0.0
 20
0.0
 30
0.0
  9
$UCSORGLEFT
 10
0.0
 20
0.0
 30
0.0
  9
$UCSORGRIGHT
 10
0.0
 20
0.0
 30
0.0
  9
$UCSORGFRONT
 10
0.0
 20
0.0
 30
0.0
  9
$UCSORGBACK
 10
0.0
 20
0.0
 30
0.0
  9
$PUCSBASE
  2

  9
$PUCSNAME
  2

  9
$PUCSORG
 10
0.0
 20
0.0
 30
0.0
  9
$PUCSXDIR
 10
1.0
 20
0.0
 30
0.0
  9
$PUCSYDIR
 10
0.0
 20
1.0
 30
0.0
  9
$PUCSORTHOREF
  2

  9
$PUCSORTHOVIEW
 70
     0
  9
$PUCSORGTOP
 10
0.0
 20
0.0
 30
0.0
  9
$PUCSORGBOTTOM
 10
0.0
 20
0.0
 30
0.0
  9
$PUCSORGLEFT
 10
0.0
 20
0.0
 30
0.0
  9
$PUCSORGRIGHT
 10
0.0
 20
0.0
 30
0.0
  9
$PUCSORGFRONT
 10
0.0
 20
0.0
 30
0.0
  9
$PUCSORGBACK
 10
0.0
 20
0.0
 30
0.0
  9
$USERI1
 70
     0
  9
$USERI2
 70
     0
  9
$USERI3
 70
     0
  9
$USERI4
 70
     0
  9
$USERI5
 70
     0
  9
$USERR1
 40
0.0
  9
$USERR2
 40
0.0
  9
$USERR3
 40
0.0
  9
$USERR4
 40
0.0
  9
$USERR5
 40
0.0
  9
$WORLDVIEW
 70
     1
  9
$SHADEDGE
 70
     3
  9
$SHADEDIF
 70
    70
  9
$TILEMODE
 70
     1
  9
$MAXACTVP
 70
    64
  9
$PINSBASE
 10
0.0
 20
0.0
 30
0.0
  9
$PLIMCHECK
 70
     0
  9
$PEXTMIN
 10
0.0
 20
0.0
 30
0.0
  9
$PEXTMAX
 10
594.0
 20
420.0
 30
0.0
  9
$PLIMMIN
 10
0.0
 20
0.0
  9
$PLIMMAX
 10
594.0
 20
420.0
  9
$UNITMODE
 70
     0
  9
$VISRETAIN
 70
     1
  9
$PLINEGEN
 70
     0
  9
$PSLTSCALE
 70
     1
  9
$TREEDEPTH
 70
  3020
  9
$CMLSTYLE
  2
Standard
  9
$CMLJUST
 70
     0
  9
$CMLSCALE
 40
1.0
  9
$PROXYGRAPHICS
 70
     1
  9
$MEASUREMENT
 70
     1
  9
$CELWEIGHT
370
    -1
  9
$ENDCAPS
280
     0
  9
$JOINSTYLE
280
     0
  9
$LWDISPLAY
290
     0
  9
$INSUNITS
 70
     4
  9
$HYPERLINKBASE
  1

  9
$STYLESHEET
  1

  9
$XEDIT
290
     1
  9
$CEPSNTYPE
380
     0
  9
$PSTYLEMODE
290
     1
  9
$FINGERPRINTGUID
  2
{1E2B5F4B-0F4D-4C91-8345-4369D0FAA8B0}
  9
$VERSIONGUID
  2
{F43CBE42-8B41-ED47-98DD-14B26381D2F1}
  9
$EXTNAMES
290
     1
  9
$PSVPSCALE
 40
0.0
  9
$OLESTARTUP
290
     0
  9
$SORTENTS
280
   127
  9
$INDEXCTL
280
     0
  9
$HIDETEXT
280
     1
  9
$XCLIPFRAME
280
     2
  9
$HALOGAP
280
     0
  9
$OBSCOLOR
 70
   257
  9
$OBSLTYPE
280
     0
  9
$INTERSECTIONDISPLAY
280
     0
  9
$INTERSECTIONCOLOR
 70
   257
  9
$DIMASSOC
280
     1
  9
$PROJECTNAME
  1

  9
$CAMERADISPLAY
290
     0
  9
$LENSLENGTH
 40
50.0
  9
$CAMERAHEIGHT
 40
0.0
  9
$STEPSPERSEC
 40
2.0
  9
$STEPSIZE
 40
6.0
  9
$3DDWFPREC
 40
2.0
  9
$PSOLWIDTH
 40
0.25
  9
$PSOLHEIGHT
 40
4.0
  9
$LOFTANG1
 40
1.570796326794896
  9
$LOFTANG2
 40
1.570796326794896
  9
$LOFTMAG1
 40
0.0
  9
$LOFTMAG2
 40
0.0
  9
$LOFTPARAM
 70
     7
  9
$LOFTNORMALS
280
     1
  9
$LATITUDE
 40
37.795
  9
$LONGITUDE
 40
-122.394
  9
$NORTHDIRECTION
 40
0.0
  9
$TIMEZONE
 70
 -8000
  9
$LIGHTGLYPHDISPLAY
280
     1
  9
$TILEMODELIGHTSYNCH
280
     1
  9
$CMATERIAL
347
11
  9
$SOLIDHIST
280
     0
  9
$SHOWHIST
280
     1
  9
$DWFFRAME
280
     2
  9
$DGNFRAME
280
     0
  9
$REALWORLDSCALE
290
     1
  9
$INTERFERECOLOR
 62
     1
  9
$INTERFEREOBJVS
345
33
  9
$INTERFEREVPVS
346
30
  9
$CSHADOW
280
     0
  9
$SHADOWPLANELOCATION
 40
0.0
  0
ENDSEC
  0
SECTION
  2
CLASSES
  0
CLASS
  1
ACDBDICTIONARYWDFLT
  2
AcDbDictionaryWithDefault
  3
ObjectDBX Classes
 90
        0
 91
        1
280
     0
281
     0
  0
CLASS
  1
MATERIAL
  2
AcDbMaterial
  3
ObjectDBX Classes
 90
     1153
 91
        3
280
     0
281
     0
  0
CLASS
  1
VISUALSTYLE
  2
AcDbVisualStyle
  3
ObjectDBX Classes
 90
     4095
 91
       24
280
     0
281
     0
  0
CLASS
  1
SCALE
  2
AcDbScale
  3
ObjectDBX Classes
 90
     1153
 91
       17
280
     0
281
     0
  0
CLASS
  1
TABLESTYLE
  2
AcDbTableStyle
  3
ObjectDBX Classes
 90
     4095
 91
        1
280
     0
281
     0
  0
CLASS
  1
MLEADERSTYLE
  2
AcDbMLeaderStyle
  3
ACDB_MLEADERSTYLE_CLASS
 90
     4095
 91
        1
280
     0
281
     0
  0
CLASS
  1
DICTIONARYVAR
  2
AcDbDictionaryVar
  3
ObjectDBX Classes
 90
        0
 91
       16
280
     0
281
     0
  0
CLASS
  1
CELLSTYLEMAP
  2
AcDbCellStyleMap
  3
ObjectDBX Classes
 90
     1152
 91
        2
280
     0
281
     0
  0
CLASS
  1
ACDBSECTIONVIEWSTYLE
  2
AcDbSectionViewStyle
  3
ObjectDBX Classes
 90
     1025
 91
        1
280
     0
281
     0
  0
CLASS
  1
ACDBDETAILVIEWSTYLE
  2
AcDbDetailViewStyle
  3
ObjectDBX Classes
 90
     1025
 91
        1
280
     0
281
     0
  0
ENDSEC
  0
SECTION
  2
TABLES
  0
TABLE
  2
VPORT
  5
8
330
0
100
AcDbSymbolTable
 70
     1
1001
ACAD
1000
DbSaveVer
1071
        5
  0
VPORT
  5
57
330
8
100
AcDbSymbolTableRecord
100
AcDbViewportTableRecord
  2
*Active
 70
     0
 10
0.0
 20
0.0
 11
1.0
 21
1.0
 12
324.1231856186912
 22
231.4851389423538
 13
0.0
 23
0.0
 14
1.0
 24
1.0
 15
0.0
 25
0.0
 16
0.0
 26
0.0
 36
1.0
 17
0.0
 27
0.0
 37
0.0
 40
285.1954856852365
 41
2.292712066905615
 42
50.0
 43
0.0
 44
0.0
 50
0.0
 51
0.0
 71
     0
 72
   100
 73
     1
 74
     1
 75
     0
 76
     0
 77
     0
 78
     0
281
     0
 65
     1
110
0.0
120
0.0
130
0.0
111
1.0
121
0.0
131
0.0
112
0.0
122
1.0
132
0.0
 79
     0
146
0.0
348
2F
 60
     3
 61
     5
292
     1
282
     1
141
0.0
142
0.0
 63
   250
421
  3355443
1001
ACAD_NAV_VCDISPLAY
1070
     3
  0
ENDTAB
  0
TABLE
  2
LTYPE
  5
5
330
0
100
AcDbSymbolTable
 70
    59
  0
LTYPE
  5
5B
330
5
100
AcDbSymbolTableRecord
100
AcDbLinetypeTableRecord
  2
ByBlock
 70
     0
  3

 72
    65
 73
     0
 40
0.0
  0
LTYPE
  5
5C
330
5
100
AcDbSymbolTableRecord
100
AcDbLinetypeTableRecord
  2
ByLayer
 70
     0
  3

 72
    65
 73
     0
 40
0.0
  0
LTYPE
  5
5D
330
5
100
AcDbSymbolTableRecord
100
AcDbLinetypeTableRecord
  2
Continuous
 70
     0
  3
Solid line
 72
    65
 73
     0
 40
0.0
  0
LTYPE
  5
74
330
5
100
AcDbSymbolTableRecord
100
AcDbLinetypeTableRecord
  2
Section_View_Lines
 70
     0
  3
Section View Lines
 72
    65
 73
     4
 40
0.8406
 49
0.6614
 74
     0
 49
-0.0827
 74
     0
 49
0.0138
 74
     0
 49
-0.0827
 74
     0
  0
LTYPE
  5
75
330
5
100
AcDbSymbolTableRecord
100
AcDbLinetypeTableRecord
  2
CHAIN
 70
     0
  3
Chain ____ _ ____ _ ____ _ ____ _ ____ _ ____
 72
    65
 73
     4
 40
0.3543
 49
0.2362
 74
     0
 49
-0.0295
 74
     0
 49
0.0591
 74
     0
 49
-0.0295
 74
     0
  0
LTYPE
  5
76
330
5
100
AcDbSymbolTableRecord
100
AcDbLinetypeTableRecord
  2
DASH_DOT
 70
     0
  3
Dash dot _._._._._._._._._._._._._._._.
 72
    65
 73
     4
 40
0.182
 49
0.1181
 74
     0
 49
-0.0295
 74
     0
 49
0.0049
 74
     0
 49
-0.0295
 74
     0
  0
LTYPE
  5
77
330
5
100
AcDbSymbolTableRecord
100
AcDbLinetypeTableRecord
  2
DASH_DOUBLE_DOT
 70
     0
  3
Dash Double Dot __ __ . __ __ . __ __ . __ _
 72
    65
 73
     6
 40
0.2164
 49
0.1181
 74
     0
 49
-0.0295
 74
     0
 49
0.0049
 74
     0
 49
-0.0295
 74
     0
 49
0.0049
 74
     0
 49
-0.0295
 74
     0
  0
LTYPE
  5
78
330
5
100
AcDbSymbolTableRecord
100
AcDbLinetypeTableRecord
  2
DASH_TRIPLE_DOT
 70
     0
  3
Dash Triple-Dot _ . . . _ . . . _ . . . _
 72
    65
 73
     8
 40
0.2508
 49
0.1181
 74
     0
 49
-0.0295
 74
     0
 49
0.0049
 74
     0
 49
-0.0295
 74
     0
 49
0.0049
 74
     0
 49
-0.0295
 74
     0
 49
0.0049
 74
     0
 49
-0.0295
 74
     0
  0
LTYPE
  5
79
330
5
100
AcDbSymbolTableRecord
100
AcDbLinetypeTableRecord
  2
DASHED
 70
     0
  3
Dashed __ __ __ __ __ __ __ __ __ __ __ __ __ _
 72
    65
 73
     2
 40
0.2068
 49
0.1655
 74
     0
 49
-0.0413
 74
     0
  0
LTYPE
  5
7A
330
5
100
AcDbSymbolTableRecord
100
AcDbLinetypeTableRecord
  2
DASHED_SPACE
 70
     0
  3
Dashed Space __ __ __ __ __ __ __ __ __ __ __ _
 72
    65
 73
     2
 40
0.2067
 49
0.1654
 74
     0
 49
-0.0413
 74
     0
  0
LTYPE
  5
7B
330
5
100
AcDbSymbolTableRecord
100
AcDbLinetypeTableRecord
  2
DOTTED
 70
     0
  3
Dotted . . . . . . . . . . . . . . . . . . . . 
 72
    65
 73
     2
 40
0.0481
 49
0.0068
 74
     0
 49
-0.0413
 74
     0
  0
LTYPE
  5
7C
330
5
100
AcDbSymbolTableRecord
100
AcDbLinetypeTableRecord
  2
DOUBLE_DASH_CHAIN
 70
     0
  3
Double Dash Chain ___ _ _ ___ _ _ ___ _ _ ___ _
 72
    65
 73
     6
 40
1.240299999999998
 49
0.6614
 74
     0
 49
-0.0827
 74
     0
 49
0.1654
 74
     0
 49
-0.0827
 74
     0
 49
0.1654
 74
     0
 49
-0.0827
 74
     0
  0
LTYPE
  5
7D
330
5
100
AcDbSymbolTableRecord
100
AcDbLinetypeTableRecord
  2
DOUBLE_DASH_DOT
 70
     0
  3
Double Dash Dot __ __ . __ __ . __ __ . __ _
 72
    65
 73
     6
 40
0.3296
 49
0.1181
 74
     0
 49
-0.0295
 74
     0
 49
0.1181
 74
     0
 49
-0.0295
 74
     0
 49
0.0049
 74
     0
 49
-0.0295
 74
     0
  0
LTYPE
  5
7E
330
5
100
AcDbSymbolTableRecord
100
AcDbLinetypeTableRecord
  2
DOUBLE_DASH_DOUBLE_DOT
 70
     0
  3
Double Dash Double Dot _ _ . . _ _ . . _ _
 72
    65
 73
     8
 40
0.364
 49
0.1181
 74
     0
 49
-0.0295
 74
     0
 49
0.1181
 74
     0
 49
-0.0295
 74
     0
 49
0.0049
 74
     0
 49
-0.0295
 74
     0
 49
0.0049
 74
     0
 49
-0.0295
 74
     0
  0
LTYPE
  5
7F
330
5
100
AcDbSymbolTableRecord
100
AcDbLinetypeTableRecord
  2
DOUBLE_DASH_TRIPLE_DOT
 70
     0
  3
Double Dash Triple Dot __ __ . . . __ __ . . .
 72
    65
 73
    10
 40
0.3984
 49
0.1181
 74
     0
 49
-0.0295
 74
     0
 49
0.1181
 74
     0
 49
-0.0295
 74
     0
 49
0.0049
 74
     0
 49
-0.0295
 74
     0
 49
0.0049
 74
     0
 49
-0.0295
 74
     0
 49
0.0049
 74
     0
 49
-0.0295
 74
     0
  0
LTYPE
  5
80
330
5
100
AcDbSymbolTableRecord
100
AcDbLinetypeTableRecord
  2
LONG_DASH_DOTTED
 70
     0
  3
Long Dash Dotted ____ . ____ . ____ . ____ . _
 72
    65
 73
     4
 40
0.3001
 49
0.2362
 74
     0
 49
-0.0295
 74
     0
 49
0.0049
 74
     0
 49
-0.0295
 74
     0
  0
LTYPE
  5
81
330
5
100
AcDbSymbolTableRecord
100
AcDbLinetypeTableRecord
  2
LONG_DASH_DOUBLE_DOT
 70
     0
  3
Long Dash Double Dot ____ . . ____ . . ____ . .
 72
    65
 73
     6
 40
0.3345
 49
0.2362
 74
     0
 49
-0.0295
 74
     0
 49
0.0049
 74
     0
 49
-0.0295
 74
     0
 49
0.0049
 74
     0
 49
-0.0295
 74
     0
  0
LTYPE
  5
82
330
5
100
AcDbSymbolTableRecord
100
AcDbLinetypeTableRecord
  2
LONG_DASH_TRIPLE_DOT
 70
     0
  3
Long Dash Triple Dot ____ ... ____ ... ____
 72
    65
 73
     8
 40
0.3689
 49
0.2362
 74
     0
 49
-0.0295
 74
     0
 49
0.0049
 74
     0
 49
-0.0295
 74
     0
 49
0.0049
 74
     0
 49
-0.0295
 74
     0
 49
0.0049
 74
     0
 49
-0.0295
 74
     0
  0
LTYPE
  5
83
330
5
100
AcDbSymbolTableRecord
100
AcDbLinetypeTableRecord
  2
BORDER
 70
     0
  3
Border __ __ . __ __ . __ __ . __ __ . __ __ .
 72
    65
 73
     6
 40
44.45
 49
12.7
 74
     0
 49
-6.349999999999998
 74
     0
 49
12.7
 74
     0
 49
-6.349999999999998
 74
     0
 49
0.0
 74
     0
 49
-6.349999999999998
 74
     0
  0
LTYPE
  5
84
330
5
100
AcDbSymbolTableRecord
100
AcDbLinetypeTableRecord
  2
BORDER2
 70
     0
  3
Border (.5x) __.__.__.__.__.__.__.__.__.__.__.
 72
    65
 73
     6
 40
22.225
 49
6.349999999999998
 74
     0
 49
-3.174999999999998
 74
     0
 49
6.349999999999998
 74
     0
 49
-3.174999999999998
 74
     0
 49
0.0
 74
     0
 49
-3.174999999999998
 74
     0
  0
LTYPE
  5
85
330
5
100
AcDbSymbolTableRecord
100
AcDbLinetypeTableRecord
  2
BORDERX2
 70
     0
  3
Border (2x) ____  ____  .  ____  ____  .  ___
 72
    65
 73
     6
 40
88.9
 49
25.4
 74
     0
 49
-12.7
 74
     0
 49
25.4
 74
     0
 49
-12.7
 74
     0
 49
0.0
 74
     0
 49
-12.7
 74
     0
  0
LTYPE
  5
86
330
5
100
AcDbSymbolTableRecord
100
AcDbLinetypeTableRecord
  2
CENTER
 70
     0
  3
Center ____ _ ____ _ ____ _ ____ _ ____ _ ____
 72
    65
 73
     4
 40
50.8
 49
31.75
 74
     0
 49
-6.349999999999998
 74
     0
 49
6.349999999999998
 74
     0
 49
-6.349999999999998
 74
     0
  0
LTYPE
  5
87
330
5
100
AcDbSymbolTableRecord
100
AcDbLinetypeTableRecord
  2
CENTER2
 70
     0
  3
Center (.5x) ___ _ ___ _ ___ _ ___ _ ___ _ ___
 72
    65
 73
     4
 40
28.575
 49
19.05
 74
     0
 49
-3.174999999999998
 74
     0
 49
3.174999999999998
 74
     0
 49
-3.174999999999998
 74
     0
  0
LTYPE
  5
88
330
5
100
AcDbSymbolTableRecord
100
AcDbLinetypeTableRecord
  2
CENTERX2
 70
     0
  3
Center (2x) ________  __  ________  __  _____
 72
    65
 73
     4
 40
101.6
 49
63.5
 74
     0
 49
-12.7
 74
     0
 49
12.7
 74
     0
 49
-12.7
 74
     0
  0
LTYPE
  5
89
330
5
100
AcDbSymbolTableRecord
100
AcDbLinetypeTableRecord
  2
DASHDOT2
 70
     0
  3
Dash dot (.5x) _._._._._._._._._._._._._._._.
 72
    65
 73
     4
 40
12.7
 49
6.349999999999998
 74
     0
 49
-3.174999999999998
 74
     0
 49
0.0
 74
     0
 49
-3.174999999999998
 74
     0
  0
LTYPE
  5
8A
330
5
100
AcDbSymbolTableRecord
100
AcDbLinetypeTableRecord
  2
DASHDOTX2
 70
     0
  3
Dash dot (2x) ____  .  ____  .  ____  .  ___
 72
    65
 73
     4
 40
50.8
 49
25.4
 74
     0
 49
-12.7
 74
     0
 49
0.0
 74
     0
 49
-12.7
 74
     0
  0
LTYPE
  5
8B
330
5
100
AcDbSymbolTableRecord
100
AcDbLinetypeTableRecord
  2
DASHED2
 70
     0
  3
Dashed (.5x) _ _ _ _ _ _ _ _ _ _ _ _ _ _ _ _ _
 72
    65
 73
     2
 40
9.524999999999996
 49
6.349999999999998
 74
     0
 49
-3.174999999999998
 74
     0
  0
LTYPE
  5
8C
330
5
100
AcDbSymbolTableRecord
100
AcDbLinetypeTableRecord
  2
DASHEDX2
 70
     0
  3
Dashed (2x) ____  ____  ____  ____  ____  ___
 72
    65
 73
     2
 40
38.1
 49
25.4
 74
     0
 49
-12.7
 74
     0
  0
LTYPE
  5
8D
330
5
100
AcDbSymbolTableRecord
100
AcDbLinetypeTableRecord
  2
DIVIDE
 70
     0
  3
Divide ____ . . ____ . . ____ . . ____ . . ____
 72
    65
 73
     6
 40
31.75
 49
12.7
 74
     0
 49
-6.349999999999998
 74
     0
 49
0.0
 74
     0
 49
-6.349999999999998
 74
     0
 49
0.0
 74
     0
 49
-6.349999999999998
 74
     0
  0
LTYPE
  5
8E
330
5
100
AcDbSymbolTableRecord
100
AcDbLinetypeTableRecord
  2
DIVIDE2
 70
     0
  3
Divide (.5x) __..__..__..__..__..__..__..__.._
 72
    65
 73
     6
 40
15.875
 49
6.349999999999998
 74
     0
 49
-3.174999999999998
 74
     0
 49
0.0
 74
     0
 49
-3.174999999999998
 74
     0
 49
0.0
 74
     0
 49
-3.174999999999998
 74
     0
  0
LTYPE
  5
8F
330
5
100
AcDbSymbolTableRecord
100
AcDbLinetypeTableRecord
  2
DIVIDEX2
 70
     0
  3
Divide (2x) ________  .  .  ________  .  .  _
 72
    65
 73
     6
 40
63.49999999999999
 49
25.4
 74
     0
 49
-12.7
 74
     0
 49
0.0
 74
     0
 49
-12.7
 74
     0
 49
0.0
 74
     0
 49
-12.7
 74
     0
  0
LTYPE
  5
90
330
5
100
AcDbSymbolTableRecord
100
AcDbLinetypeTableRecord
  2
DOT
 70
     0
  3
Dot . . . . . . . . . . . . . . . . . . . . . .
 72
    65
 73
     2
 40
6.349999999999998
 49
0.0
 74
     0
 49
-6.349999999999998
 74
     0
  0
LTYPE
  5
91
330
5
100
AcDbSymbolTableRecord
100
AcDbLinetypeTableRecord
  2
DOT2
 70
     0
  3
Dot (.5x) .....................................
 72
    65
 73
     2
 40
3.174999999999998
 49
0.0
 74
     0
 49
-3.174999999999998
 74
     0
  0
LTYPE
  5
92
330
5
100
AcDbSymbolTableRecord
100
AcDbLinetypeTableRecord
  2
DOTX2
 70
     0
  3
Dot (2x) .  .  .  .  .  .  .  .  .  .  .  .  . 
 72
    65
 73
     2
 40
12.7
 49
0.0
 74
     0
 49
-12.7
 74
     0
  0
LTYPE
  5
93
330
5
100
AcDbSymbolTableRecord
100
AcDbLinetypeTableRecord
  2
HIDDEN
 70
     0
  3
Hidden __ __ __ __ __ __ __ __ __ __ __ __ __ _
 72
    65
 73
     2
 40
9.524999999999996
 49
6.349999999999998
 74
     0
 49
-3.174999999999998
 74
     0
  0
LTYPE
  5
94
330
5
100
AcDbSymbolTableRecord
100
AcDbLinetypeTableRecord
  2
HIDDEN2
 70
     0
  3
Hidden (.5x) _ _ _ _ _ _ _ _ _ _ _ _ _ _ _ _ _
 72
    65
 73
     2
 40
4.762499999999998
 49
3.174999999999998
 74
     0
 49
-1.587499999999999
 74
     0
  0
LTYPE
  5
95
330
5
100
AcDbSymbolTableRecord
100
AcDbLinetypeTableRecord
  2
HIDDENX2
 70
     0
  3
Hidden (2x) ____ ____ ____ ____ ____ ____ ____
 72
    65
 73
     2
 40
19.05
 49
12.7
 74
     0
 49
-6.349999999999998
 74
     0
  0
LTYPE
  5
96
330
5
100
AcDbSymbolTableRecord
100
AcDbLinetypeTableRecord
  2
PHANTOM
 70
     0
  3
Phantom ______  __  __  ______  __  __  ______
 72
    65
 73
     6
 40
63.5
 49
31.75
 74
     0
 49
-6.349999999999998
 74
     0
 49
6.349999999999998
 74
     0
 49
-6.349999999999998
 74
     0
 49
6.349999999999998
 74
     0
 49
-6.349999999999998
 74
     0
  0
LTYPE
  5
97
330
5
100
AcDbSymbolTableRecord
100
AcDbLinetypeTableRecord
  2
PHANTOM2
 70
     0
  3
Phantom (.5x) ___ _ _ ___ _ _ ___ _ _ ___ _ _
 72
    65
 73
     6
 40
31.75
 49
15.875
 74
     0
 49
-3.174999999999998
 74
     0
 49
3.174999999999998
 74
     0
 49
-3.174999999999998
 74
     0
 49
3.174999999999998
 74
     0
 49
-3.174999999999998
 74
     0
  0
LTYPE
  5
98
330
5
100
AcDbSymbolTableRecord
100
AcDbLinetypeTableRecord
  2
PHANTOMX2
 70
     0
  3
Phantom (2x) ____________    ____    ____   _
 72
    65
 73
     6
 40
127.0
 49
63.5
 74
     0
 49
-12.7
 74
     0
 49
12.7
 74
     0
 49
-12.7
 74
     0
 49
12.7
 74
     0
 49
-12.7
 74
     0
  0
LTYPE
  5
99
330
5
100
AcDbSymbolTableRecord
100
AcDbLinetypeTableRecord
  2
ACAD_ISO02W100
 70
     0
  3
ISO dash __ __ __ __ __ __ __ __ __ __ __ __ __
 72
    65
 73
     2
 40
15.0
 49
12.0
 74
     0
 49
-3.0
 74
     0
  0
LTYPE
  5
9A
330
5
100
AcDbSymbolTableRecord
100
AcDbLinetypeTableRecord
  2
ACAD_ISO03W100
 70
     0
  3
ISO dash space __    __    __    __    __    __
 72
    65
 73
     2
 40
30.0
 49
12.0
 74
     0
 49
-18.0
 74
     0
  0
LTYPE
  5
9B
330
5
100
AcDbSymbolTableRecord
100
AcDbLinetypeTableRecord
  2
ACAD_ISO04W100
 70
     0
  3
ISO long-dash dot ____ . ____ . ____ . ____ . _
 72
    65
 73
     4
 40
30.0
 49
24.0
 74
     0
 49
-3.0
 74
     0
 49
0.0
 74
     0
 49
-3.0
 74
     0
  0
LTYPE
  5
9C
330
5
100
AcDbSymbolTableRecord
100
AcDbLinetypeTableRecord
  2
ACAD_ISO05W100
 70
     0
  3
ISO long-dash double-dot ____ .. ____ .. ____ .
 72
    65
 73
     6
 40
33.0
 49
24.0
 74
     0
 49
-3.0
 74
     0
 49
0.0
 74
     0
 49
-3.0
 74
     0
 49
0.0
 74
     0
 49
-3.0
 74
     0
  0
LTYPE
  5
9D
330
5
100
AcDbSymbolTableRecord
100
AcDbLinetypeTableRecord
  2
ACAD_ISO06W100
 70
     0
  3
ISO long-dash triple-dot ____ ... ____ ... ____
 72
    65
 73
     8
 40
36.0
 49
24.0
 74
     0
 49
-3.0
 74
     0
 49
0.0
 74
     0
 49
-3.0
 74
     0
 49
0.0
 74
     0
 49
-3.0
 74
     0
 49
0.0
 74
     0
 49
-3.0
 74
     0
  0
LTYPE
  5
9E
330
5
100
AcDbSymbolTableRecord
100
AcDbLinetypeTableRecord
  2
ACAD_ISO07W100
 70
     0
  3
ISO dot . . . . . . . . . . . . . . . . . . . .
 72
    65
 73
     2
 40
3.0
 49
0.0
 74
     0
 49
-3.0
 74
     0
  0
LTYPE
  5
9F
330
5
100
AcDbSymbolTableRecord
100
AcDbLinetypeTableRecord
  2
ACAD_ISO08W100
 70
     0
  3
ISO long-dash short-dash ____ __ ____ __ ____ _
 72
    65
 73
     4
 40
36.0
 49
24.0
 74
     0
 49
-3.0
 74
     0
 49
6.0
 74
     0
 49
-3.0
 74
     0
  0
LTYPE
  5
A0
330
5
100
AcDbSymbolTableRecord
100
AcDbLinetypeTableRecord
  2
ACAD_ISO09W100
 70
     0
  3
ISO long-dash double-short-dash ____ __ __ ____
 72
    65
 73
     6
 40
45.0
 49
24.0
 74
     0
 49
-3.0
 74
     0
 49
6.0
 74
     0
 49
-3.0
 74
     0
 49
6.0
 74
     0
 49
-3.0
 74
     0
  0
LTYPE
  5
A1
330
5
100
AcDbSymbolTableRecord
100
AcDbLinetypeTableRecord
  2
ACAD_ISO10W100
 70
     0
  3
ISO dash dot __ . __ . __ . __ . __ . __ . __ .
 72
    65
 73
     4
 40
18.0
 49
12.0
 74
     0
 49
-3.0
 74
     0
 49
0.0
 74
     0
 49
-3.0
 74
     0
  0
LTYPE
  5
A2
330
5
100
AcDbSymbolTableRecord
100
AcDbLinetypeTableRecord
  2
ACAD_ISO11W100
 70
     0
  3
ISO double-dash dot __ __ . __ __ . __ __ . __ 
 72
    65
 73
     6
 40
33.0
 49
12.0
 74
     0
 49
-3.0
 74
     0
 49
12.0
 74
     0
 49
-3.0
 74
     0
 49
0.0
 74
     0
 49
-3.0
 74
     0
  0
LTYPE
  5
A3
330
5
100
AcDbSymbolTableRecord
100
AcDbLinetypeTableRecord
  2
ACAD_ISO12W100
 70
     0
  3
ISO dash double-dot __ . . __ . . __ . . __ . .
 72
    65
 73
     6
 40
21.0
 49
12.0
 74
     0
 49
-3.0
 74
     0
 49
0.0
 74
     0
 49
-3.0
 74
     0
 49
0.0
 74
     0
 49
-3.0
 74
     0
  0
LTYPE
  5
A4
330
5
100
AcDbSymbolTableRecord
100
AcDbLinetypeTableRecord
  2
ACAD_ISO13W100
 70
     0
  3
ISO double-dash double-dot __ __ . . __ __ . . 
 72
    65
 73
     8
 40
36.0
 49
12.0
 74
     0
 49
-3.0
 74
     0
 49
12.0
 74
     0
 49
-3.0
 74
     0
 49
0.0
 74
     0
 49
-3.0
 74
     0
 49
0.0
 74
     0
 49
-3.0
 74
     0
  0
LTYPE
  5
A5
330
5
100
AcDbSymbolTableRecord
100
AcDbLinetypeTableRecord
  2
ACAD_ISO14W100
 70
     0
  3
ISO dash triple-dot __ . . . __ . . . __ . . . 
 72
    65
 73
     8
 40
24.0
 49
12.0
 74
     0
 49
-3.0
 74
     0
 49
0.0
 74
     0
 49
-3.0
 74
     0
 49
0.0
 74
     0
 49
-3.0
 74
     0
 49
0.0
 74
     0
 49
-3.0
 74
     0
  0
LTYPE
  5
A6
330
5
100
AcDbSymbolTableRecord
100
AcDbLinetypeTableRecord
  2
ACAD_ISO15W100
 70
     0
  3
ISO double-dash triple-dot __ __ . . . __ __ . 
 72
    65
 73
    10
 40
39.0
 49
12.0
 74
     0
 49
-3.0
 74
     0
 49
12.0
 74
     0
 49
-3.0
 74
     0
 49
0.0
 74
     0
 49
-3.0
 74
     0
 49
0.0
 74
     0
 49
-3.0
 74
     0
 49
0.0
 74
     0
 49
-3.0
 74
     0
  0
LTYPE
  5
A9
330
5
100
AcDbSymbolTableRecord
100
AcDbLinetypeTableRecord
  2
FENCELINE1
 70
     0
  3
Fenceline circle ----0-----0----0-----0----0---
 72
    65
 73
     4
 40
36.83
 49
6.349999999999998
 74
     0
 49
-2.54
 74
     4
 75
   133
340
A8
 46
2.54
 50
0.0
 44
-2.54
 45
0.0
 49
-2.54
 74
     0
 49
25.4
 74
     0
  0
LTYPE
  5
AA
330
5
100
AcDbSymbolTableRecord
100
AcDbLinetypeTableRecord
  2
FENCELINE2
 70
     0
  3
Fenceline square ----[]-----[]----[]-----[]----
 72
    65
 73
     4
 40
36.83
 49
6.349999999999998
 74
     0
 49
-2.54
 74
     4
 75
   132
340
A8
 46
2.54
 50
0.0
 44
-2.54
 45
0.0
 49
-2.54
 74
     0
 49
25.4
 74
     0
  0
LTYPE
  5
AB
330
5
100
AcDbSymbolTableRecord
100
AcDbLinetypeTableRecord
  2
TRACKS
 70
     0
  3
Tracks -|-|-|-|-|-|-|-|-|-|-|-|-|-|-|-|-|-|-|-|
 72
    65
 73
     2
 40
7.62
 49
3.81
 74
     4
 75
   130
340
A8
 46
6.349999999999998
 50
0.0
 44
0.0
 45
0.0
 49
3.81
 74
     0
  0
LTYPE
  5
AC
330
5
100
AcDbSymbolTableRecord
100
AcDbLinetypeTableRecord
  2
BATTING
 70
     0
  3
Batting SSSSSSSSSSSSSSSSSSSSSSSSSSSSSSSSSSSSSSS
 72
    65
 73
     4
 40
10.16254
 49
0.00254
 74
     0
 49
-2.54
 74
     4
 75
   134
340
A8
 46
2.54
 50
0.0
 44
-2.54
 45
0.0
 49
-5.08
 74
     4
 75
   134
340
A8
 46
2.54
 50
180.0
 44
2.54
 45
0.0
 49
-2.54
 74
     0
  0
LTYPE
  5
AD
330
5
100
AcDbSymbolTableRecord
100
AcDbLinetypeTableRecord
  2
HOT_WATER_SUPPLY
 70
     0
  3
Hot water supply ---- HW ---- HW ---- HW ----
 72
    65
 73
     3
 40
22.86
 49
12.7
 74
     0
 49
-5.08
 74
     2
 75
     0
340
55
 46
2.54
 50
0.0
 44
-2.54
 45
-1.27
  9
HW
 49
-5.08
 74
     0
  0
LTYPE
  5
AE
330
5
100
AcDbSymbolTableRecord
100
AcDbLinetypeTableRecord
  2
GAS_LINE
 70
     0
  3
Gas line ----GAS----GAS----GAS----GAS----GAS---
 72
    65
 73
     3
 40
24.13
 49
12.7
 74
     0
 49
-5.08
 74
     2
 75
     0
340
55
 46
2.54
 50
0.0
 44
-2.54
 45
-1.27
  9
GAS
 49
-6.349999999999998
 74
     0
  0
LTYPE
  5
AF
330
5
100
AcDbSymbolTableRecord
100
AcDbLinetypeTableRecord
  2
ZIGZAG
 70
     0
  3
Zig zag /\/\/\/\/\/\/\/\/\/\/\/\/\/\/\/\/\/\/\/
 72
    65
 73
     4
 40
20.32254
 49
0.00254
 74
     0
 49
-5.08
 74
     4
 75
   131
340
A8
 46
5.08
 50
0.0
 44
-5.08
 45
0.0
 49
-10.16
 74
     4
 75
   131
340
A8
 46
5.08
 50
180.0
 44
5.08
 45
0.0
 49
-5.08
 74
     0
  0
ENDTAB
  0
TABLE
  2
LAYER
  5
2
330
0
100
AcDbSymbolTable
 70
     8
  0
LAYER
  5
54
330
2
100
AcDbSymbolTableRecord
100
AcDbLayerTableRecord
  2
0
 70
     0
 62
     7
  6
Continuous
370
    -3
390
F
347
21
348
0
  0
LAYER
  5
D5
330
2
100
AcDbSymbolTableRecord
100
AcDbLayerTableRecord
  2
Dimensions(Ram)
 70
     0
 62
     7
  6
Continuous
370
    25
390
F
347
21
348
0
  0
LAYER
  5
D6
330
2
100
AcDbSymbolTableRecord
100
AcDbLayerTableRecord
  2
Hatch
 70
     0
 62
   179
  6
Continuous
370
     9
390
F
347
21
348
0
  0
LAYER
  5
E6
330
2
100
AcDbSymbolTableRecord
100
AcDbLayerTableRecord
  2
Sketch Geometry(Ram)
 70
     0
 62
     7
  6
Continuous
370
    50
390
F
347
21
348
0
  0
LAYER
  5
E8
330
2
100
AcDbSymbolTableRecord
100
AcDbLayerTableRecord
  2
Sketch Lines(Ram)
 70
     0
 62
     7
  6
Continuous
370
    18
390
F
347
21
348
0
  0
LAYER
  5
F2
330
2
100
AcDbSymbolTableRecord
100
AcDbLayerTableRecord
  2
Symbols(Ram)
 70
     0
 62
     7
  6
Continuous
370
    25
390
F
347
21
348
0
  0
LAYER
  5
FA
330
2
100
AcDbSymbolTableRecord
100
AcDbLayerTableRecord
  2
Visible Edges(Ram)
 70
     0
 62
     7
  6
Continuous
370
    50
390
F
347
21
348
0
  0
LAYER
  5
3D7
330
2
100
AcDbSymbolTableRecord
100
AcDbLayerTableRecord
  2
Defpoints
 70
     0
 62
     7
  6
Continuous
290
     0
370
    -3
390
F
347
21
348
0
  0
ENDTAB
  0
TABLE
  2
STYLE
  5
3
330
0
100
AcDbSymbolTable
 70
    16
  0
STYLE
  5
55
330
3
100
AcDbSymbolTableRecord
100
AcDbTextStyleTableRecord
  2
Standard
 70
     0
 40
0.0
 41
1.0
 50
0.0
 71
     0
 42
0.2
  3
ARIAL.TTF
  4

1001
ACAD
1000
Arial
1071
      256
  0
STYLE
  5
5A
330
3
100
AcDbSymbolTableRecord
100
AcDbTextStyleTableRecord
  2
Annotative
 70
     0
 40
0.0
 41
1.0
 50
0.0
 71
     0
 42
0.2
  3
txt
  4

1001
AcadAnnotative
1000
AnnotativeData
1002
{
1070
     1
1070
     1
1002
}
  0
STYLE
  5
A8
330
3
100
AcDbSymbolTableRecord
100
AcDbTextStyleTableRecord
  2

 70
     1
 40
0.0
 41
1.0
 50
0.0
 71
     0
 42
0.2
  3
ltypeshp.shx
  4

  0
STYLE
  5
103
330
3
100
AcDbSymbolTableRecord
100
AcDbTextStyleTableRecord
  2
Current-ISO
 70
     0
 40
0.0
 41
1.0
 50
0.0
 71
     0
 42
0.2
  3
ARIAL.TTF
  4

1001
ACAD
1000
Arial
1071
      256
  0
STYLE
  5
104
330
3
100
AcDbSymbolTableRecord
100
AcDbTextStyleTableRecord
  2
DEFAULT-BSI~0
 70
     0
 40
0.0
 41
1.0
 50
0.0
 71
     0
 42
0.2
  3
ARIAL.TTF
  4

1001
ACAD
1000
Arial
1071
      256
  0
STYLE
  5
105
330
3
100
AcDbSymbolTableRecord
100
AcDbTextStyleTableRecord
  2
DEFAULT-ISO
 70
     0
 40
0.0
 41
1.0
 50
0.0
 71
     0
 42
0.2
  3
ARIAL.TTF
  4

1001
ACAD
1000
Arial
1071
      256
  0
STYLE
  5
106
330
3
100
AcDbSymbolTableRecord
100
AcDbTextStyleTableRecord
  2
DEFAULT-ISOBigText
 70
     0
 40
0.0
 41
1.0
 50
0.0
 71
     0
 42
0.2
  3
ARIAL.TTF
  4

1001
ACAD
1000
Arial
1071
      256
  0
STYLE
  5
107
330
3
100
AcDbSymbolTableRecord
100
AcDbTextStyleTableRecord
  2
DEFAULT-ISOByLayer
 70
     0
 40
0.0
 41
1.0
 50
0.0
 71
     0
 42
0.2
  3
ARIAL.TTF
  4

1001
ACAD
1000
Arial
1071
      256
  0
STYLE
  5
108
330
3
100
AcDbSymbolTableRecord
100
AcDbTextStyleTableRecord
  2
Label Text (ISO)
 70
     0
 40
0.0
 41
1.0
 50
0.0
 71
     0
 42
0.2
  3
TAHOMA.TTF
  4

1001
ACAD
1000
Tahoma
1071
      256
  0
STYLE
  5
109
330
3
100
AcDbSymbolTableRecord
100
AcDbTextStyleTableRecord
  2
Std 1.8 Arial
 70
     0
 40
0.0
 41
1.0
 50
0.0
 71
     0
 42
0.2
  3
ARIAL.TTF
  4

1001
ACAD
1000
Arial
1071
      256
  0
STYLE
  5
10A
330
3
100
AcDbSymbolTableRecord
100
AcDbTextStyleTableRecord
  2
Std 2.0 Arial
 70
     0
 40
0.0
 41
1.0
 50
0.0
 71
     0
 42
0.2
  3
ARIAL.TTF
  4

1001
ACAD
1000
Arial
1071
      256
  0
STYLE
  5
10B
330
3
100
AcDbSymbolTableRecord
100
AcDbTextStyleTableRecord
  2
STD 2.5 ARIAL
 70
     0
 40
0.0
 41
1.0
 50
0.0
 71
     0
 42
0.2
  3
ARIAL.TTF
  4

1001
ACAD
1000
Arial
1071
      256
  0
STYLE
  5
10C
330
3
100
AcDbSymbolTableRecord
100
AcDbTextStyleTableRecord
  2
STD 2.5 ARIALBigText
 70
     0
 40
0.0
 41
1.0
 50
0.0
 71
     0
 42
0.2
  3
ARIAL.TTF
  4

1001
ACAD
1000
Arial
1071
      256
  0
STYLE
  5
10D
330
3
100
AcDbSymbolTableRecord
100
AcDbTextStyleTableRecord
  2
STD 2.5 ARIALByLayer
 70
     0
 40
0.0
 41
1.0
 50
0.0
 71
     0
 42
0.2
  3
ARIAL.TTF
  4

1001
ACAD
1000
Arial
1071
      256
  0
STYLE
  5
2E7
330
3
100
AcDbSymbolTableRecord
100
AcDbTextStyleTableRecord
  2
Text Style14
 70
     0
 40
0.0
 41
1.0
 50
0.0
 71
     0
 42
0.2
  3
ARIAL.TTF
  4

1001
ACAD
1000
Arial
1071
      256
  0
STYLE
  5
2EF
330
3
100
AcDbSymbolTableRecord
100
AcDbTextStyleTableRecord
  2
Text Style59
 70
     0
 40
0.0
 41
1.0
 50
0.0
 71
     0
 42
0.2
  3
ARIALBD.TTF
  4

1001
ACAD
1000
Arial
1071
 33554688
  0
ENDTAB
  0
TABLE
  2
VIEW
  5
6
330
0
100
AcDbSymbolTable
 70
     0
  0
ENDTAB
  0
TABLE
  2
UCS
  5
7
330
0
100
AcDbSymbolTable
 70
     0
  0
ENDTAB
  0
TABLE
  2
APPID
  5
9
330
0
100
AcDbSymbolTable
 70
     6
  0
APPID
  5
56
330
9
100
AcDbSymbolTableRecord
100
AcDbRegAppTableRecord
  2
ACAD
 70
     0
  0
APPID
  5
5E
330
9
100
AcDbSymbolTableRecord
100
AcDbRegAppTableRecord
  2
AcadAnnotative
 70
     0
  0
APPID
  5
2EA
330
9
100
AcDbSymbolTableRecord
100
AcDbRegAppTableRecord
  2
AcadAnnoPO
 70
     0
  0
APPID
  5
470
330
9
100
AcDbSymbolTableRecord
100
AcDbRegAppTableRecord
  2
ACAD_DSTYLE_DIMRADIAL_EXTENSION
 70
     0
  0
APPID
  5
746
330
9
100
AcDbSymbolTableRecord
100
AcDbRegAppTableRecord
  2
ACAD_MLEADERVER
 70
     0
  0
APPID
  5
760
330
9
100
AcDbSymbolTableRecord
100
AcDbRegAppTableRecord
  2
ACAD_NAV_VCDISPLAY
 70
     0
  0
ENDTAB
  0
TABLE
  2
DIMSTYLE
  5
A
330
0
100
AcDbSymbolTable
 70
    25
100
AcDbDimStyleTable
 71
     2
340
11A
340
58
  0
DIMSTYLE
105
58
330
A
100
AcDbSymbolTableRecord
100
AcDbDimStyleTableRecord
  2
Standard
 70
     0
340
55
  0
DIMSTYLE
105
59
330
A
100
AcDbSymbolTableRecord
100
AcDbDimStyleTableRecord
  2
Annotative
 70
     0
340
55
1001
AcadAnnotative
1000
AnnotativeData
1002
{
1070
     1
1070
     1
1002
}
  0
DIMSTYLE
105
10E
330
A
100
AcDbSymbolTableRecord
100
AcDbDimStyleTableRecord
  2
DEFAULT-ISO
 70
     0
 40
2.0
 41
2.5
 42
1.0
 43
5.999999999999999
 44
3.174999999999998
 45
0.00000001
 46
10.0
 73
     0
 77
     1
140
2.5
143
0.03937
147
0.762
171
     3
172
     1
176
   250
177
   250
178
     7
179
     2
271
     2
272
     2
274
     3
340
104
371
    25
372
    25
  0
DIMSTYLE
105
10F
330
A
100
AcDbSymbolTableRecord
100
AcDbDimStyleTableRecord
  2
DEFAULT-ISO$7
 70
     0
 40
2.0
 41
2.5
 42
1.0
 43
5.999999999999999
 44
3.174999999999998
 45
0.00000001
 46
10.0
 73
     0
 77
     1
140
2.5
143
0.03937
147
0.762
171
     3
172
     1
176
     7
177
   250
178
     7
179
     2
271
     2
272
     2
274
     3
340
104
371
    25
372
    25
  0
DIMSTYLE
105
110
330
A
100
AcDbSymbolTableRecord
100
AcDbDimStyleTableRecord
  2
DEFAULT-ISOBigText
 70
     0
 40
2.0
 41
5.0
 42
0.0
 43
5.999999999999999
 44
3.174999999999998
 45
0.00000001
 46
10.0
 73
     0
 74
     0
 77
     1
140
5.25
143
0.03937
146
0.6666666666666666
147
0.762
171
     3
172
     1
176
   250
177
   250
178
     7
179
     2
271
     2
272
     2
274
     3
278
    44
340
106
371
    25
372
    25
  0
DIMSTYLE
105
111
330
A
100
AcDbSymbolTableRecord
100
AcDbDimStyleTableRecord
  2
DEFAULT-ISOBigText$7
 70
     0
 40
2.0
 41
5.0
 42
0.0
 43
5.999999999999999
 44
3.174999999999998
 45
0.00000001
 46
10.0
 73
     0
 74
     0
 77
     1
140
5.25
143
0.03937
146
0.6666666666666666
147
0.762
171
     3
172
     1
176
     7
177
   250
178
     7
179
     2
271
     2
272
     2
274
     3
278
    44
340
106
371
    25
372
    25
  0
DIMSTYLE
105
112
330
A
100
AcDbSymbolTableRecord
100
AcDbDimStyleTableRecord
  2
POINTS
 70
     0
 40
2.0
 41
2.5
 42
1.3
 43
5.999999999999999
 44
2.0
 45
0.00000001
 46
10.0
 73
     0
 74
     0
 77
     1
140
2.5
143
0.03937
147
1.0
171
     3
172
     1
176
     7
177
     7
178
     7
271
     2
272
     1
274
     3
340
10B
371
    25
372
    25
  0
DIMSTYLE
105
113
330
A
100
AcDbSymbolTableRecord
100
AcDbDimStyleTableRecord
  2
POINTS$7
 70
     0
 40
2.0
 41
2.5
 42
1.3
 43
5.999999999999999
 44
2.0
 45
0.00000001
 46
10.0
 73
     0
 74
     0
 77
     1
140
2.5
143
0.03937
147
1.0
171
     3
172
     1
176
     7
177
     7
178
     7
271
     2
272
     1
274
     3
340
10B
371
    15
372
    25
  0
DIMSTYLE
105
114
330
A
100
AcDbSymbolTableRecord
100
AcDbDimStyleTableRecord
  2
Ram Basic
 70
     0
 40
2.0
 41
2.5
 42
1.3
 43
5.999999999999999
 44
2.0
 45
0.00000001
 46
10.0
 73
     0
 74
     0
 77
     1
140
2.5
143
0.03937
147
1.0
171
     3
172
     1
176
     7
177
     7
178
     7
271
     1
272
     1
274
     3
340
10B
371
    25
372
    25
  0
DIMSTYLE
105
115
330
A
100
AcDbSymbolTableRecord
100
AcDbDimStyleTableRecord
  2
Ram Basic$7
 70
     0
 40
2.0
 41
2.5
 42
1.3
 43
5.999999999999999
 44
2.0
 45
0.00000001
 46
10.0
 73
     0
 74
     0
 77
     1
140
2.5
143
0.03937
147
1.0
171
     3
172
     1
176
     7
177
     7
178
     7
271
     1
272
     1
274
     3
340
10B
371
    15
372
    25
  0
DIMSTYLE
105
116
330
A
100
AcDbSymbolTableRecord
100
AcDbDimStyleTableRecord
  2
Ram Basic REF
 70
     0
 40
2.0
 41
2.5
 42
1.3
 43
5.999999999999999
 44
2.0
 45
0.00000001
 46
10.0
 73
     0
 74
     0
 77
     1
140
2.5
143
0.03937
147
1.0
171
     3
172
     1
176
     7
177
     7
178
     7
271
     2
272
     2
274
     3
340
10B
371
    25
372
    25
  0
DIMSTYLE
105
117
330
A
100
AcDbSymbolTableRecord
100
AcDbDimStyleTableRecord
  2
Ram Basic REF$7
 70
     0
 40
2.0
 41
2.5
 42
1.3
 43
5.999999999999999
 44
2.0
 45
0.00000001
 46
10.0
 73
     0
 74
     0
 77
     1
140
2.5
143
0.03937
147
1.0
171
     3
172
     1
176
     7
177
     7
178
     7
271
     2
272
     2
274
     3
340
10B
371
    15
372
    25
  0
DIMSTYLE
105
118
330
A
100
AcDbSymbolTableRecord
100
AcDbDimStyleTableRecord
  2
Small Font
 70
     0
 40
2.0
 41
2.5
 42
1.3
 43
5.999999999999999
 44
2.0
 45
0.00000001
 46
10.0
 73
     0
 74
     0
 77
     1
140
1.800000071525573
143
0.03937
146
0.8333333002196431
147
1.0
171
     3
172
     1
176
     7
177
     7
178
     7
271
     1
272
     1
274
     3
340
109
371
    25
372
    25
  0
DIMSTYLE
105
119
330
A
100
AcDbSymbolTableRecord
100
AcDbDimStyleTableRecord
  2
Small Font$7
 70
     0
 40
2.0
 41
2.5
 42
1.3
 43
5.999999999999999
 44
2.0
 45
0.00000001
 46
10.0
 73
     0
 74
     0
 77
     1
140
1.800000071525573
143
0.03937
146
0.8333333002196431
147
1.0
171
     3
172
     1
176
     7
177
     7
178
     7
271
     1
272
     1
274
     3
340
109
371
    15
372
    25
  0
DIMSTYLE
105
11A
102
{ACAD_REACTORS
330
3D6
330
515
330
5F7
102
}
330
A
100
AcDbSymbolTableRecord
100
AcDbDimStyleTableRecord
  2
Whole Number
 70
     0
 40
2.0
 41
2.5
 42
1.3
 43
5.999999999999999
 44
2.0
 45
0.00000001
 46
10.0
 73
     0
 74
     0
 77
     1
140
2.5
143
0.03937
147
1.0
171
     3
172
     1
176
     7
177
     7
178
     7
271
     0
272
     0
274
     3
340
10B
371
    25
372
    25
  0
DIMSTYLE
105
11B
330
A
100
AcDbSymbolTableRecord
100
AcDbDimStyleTableRecord
  2
Whole Number$7
 70
     0
 40
2.0
 41
2.5
 42
1.3
 43
5.999999999999999
 44
2.0
 45
0.00000001
 46
10.0
 73
     0
 74
     0
 77
     1
140
2.5
143
0.03937
147
1.0
171
     3
172
     1
176
     7
177
     7
178
     7
271
     0
272
     0
274
     3
340
10B
371
    15
372
    25
  0
DIMSTYLE
105
126
330
A
100
AcDbSymbolTableRecord
100
AcDbDimStyleTableRecord
  2
Leader-Datum(ISO)
 70
     0
 40
2.0
 41
2.5
340
55
342
127
  0
DIMSTYLE
105
12E
330
A
100
AcDbSymbolTableRecord
100
AcDbDimStyleTableRecord
  2
Leader-Datum(Ram)
 70
     0
 40
2.0
 41
2.5
340
55
342
127
  0
DIMSTYLE
105
12F
330
A
100
AcDbSymbolTableRecord
100
AcDbDimStyleTableRecord
  2
Leader-Dot(ISO)
 70
     0
 40
2.0
 41
2.5
340
55
342
127
  0
DIMSTYLE
105
130
330
A
100
AcDbSymbolTableRecord
100
AcDbDimStyleTableRecord
  2
Leader-Dot(Ram)
 70
     0
 40
2.0
 41
2.5
340
55
342
127
  0
DIMSTYLE
105
131
330
A
100
AcDbSymbolTableRecord
100
AcDbDimStyleTableRecord
  2
Leader-Large(Ram)
 70
     0
 40
2.0
 41
5.0
340
55
342
127
  0
DIMSTYLE
105
132
330
A
100
AcDbSymbolTableRecord
100
AcDbDimStyleTableRecord
  2
Leader-OriginIndicator(ISO)
 70
     0
 40
2.0
 41
2.5
340
55
342
127
  0
DIMSTYLE
105
133
330
A
100
AcDbSymbolTableRecord
100
AcDbDimStyleTableRecord
  2
Leader-OriginIndicator(Ram)
 70
     0
 40
2.0
 41
2.5
340
55
342
127
  0
DIMSTYLE
105
134
330
A
100
AcDbSymbolTableRecord
100
AcDbDimStyleTableRecord
  2
Leader(ISO)
 70
     0
 40
2.0
 41
2.5
340
55
342
127
  0
DIMSTYLE
105
135
330
A
100
AcDbSymbolTableRecord
100
AcDbDimStyleTableRecord
  2
Leader(Ram)
 70
     0
 40
2.0
 41
2.5
340
55
342
127
  0
ENDTAB
  0
TABLE
  2
BLOCK_RECORD
  5
1
330
0
100
AcDbSymbolTable
 70
    54
  0
BLOCK_RECORD
  5
6C
330
1
100
AcDbSymbolTableRecord
100
AcDbBlockTableRecord
  2
*Model_Space
340
6F
 70
     0
280
     1
281
     0
  0
BLOCK_RECORD
  5
68
330
1
100
AcDbSymbolTableRecord
100
AcDbBlockTableRecord
  2
*Paper_Space
340
6B
 70
     0
280
     1
281
     0
  0
BLOCK_RECORD
  5
70
330
1
100
AcDbSymbolTableRecord
100
AcDbBlockTableRecord
  2
*Paper_Space0
340
73
 70
     0
280
     1
281
     0
  0
BLOCK_RECORD
  5
11C
330
1
100
AcDbSymbolTableRecord
100
AcDbBlockTableRecord
  2
DatumFilled45
340
0
 70
     0
280
     1
281
     0
  0
BLOCK_RECORD
  5
127
330
1
100
AcDbSymbolTableRecord
100
AcDbBlockTableRecord
  2
_Closed
340
0
 70
     0
280
     1
281
     0
  0
BLOCK_RECORD
  5
136
330
1
100
AcDbSymbolTableRecord
100
AcDbBlockTableRecord
  2
1_4 TURN STD
340
0
 70
     0
280
     1
281
     0
  0
BLOCK_RECORD
  5
13B
330
1
100
AcDbSymbolTableRecord
100
AcDbBlockTableRecord
  2
1_4 TURN STD NO HOLE DETAIL
340
0
 70
     0
280
     1
281
     0
  0
BLOCK_RECORD
  5
13F
330
1
100
AcDbSymbolTableRecord
100
AcDbBlockTableRecord
  2
1_4 TURN STD SECURE FIT
340
0
 70
     0
280
     1
281
     0
  0
BLOCK_RECORD
  5
143
330
1
100
AcDbSymbolTableRecord
100
AcDbBlockTableRecord
  2
1_4 TURN STD SECURE FIT NO HOLE DETAIL
340
0
 70
     0
280
     1
281
     0
  0
BLOCK_RECORD
  5
147
330
1
100
AcDbSymbolTableRecord
100
AcDbBlockTableRecord
  2
16 UP
340
0
 70
     0
280
     1
281
     0
  0
BLOCK_RECORD
  5
1CC
330
1
100
AcDbSymbolTableRecord
100
AcDbBlockTableRecord
  2
2 UP
340
0
 70
     0
280
     1
281
     0
  0
BLOCK_RECORD
  5
1E1
330
1
100
AcDbSymbolTableRecord
100
AcDbBlockTableRecord
  2
4 UP
340
0
 70
     0
280
     1
281
     0
  0
BLOCK_RECORD
  5
206
330
1
100
AcDbSymbolTableRecord
100
AcDbBlockTableRecord
  2
6 UP
340
0
 70
     0
280
     1
281
     0
  0
BLOCK_RECORD
  5
23B
330
1
100
AcDbSymbolTableRecord
100
AcDbBlockTableRecord
  2
8 UP
340
0
 70
     0
280
     1
281
     0
  0
BLOCK_RECORD
  5
280
330
1
100
AcDbSymbolTableRecord
100
AcDbBlockTableRecord
  2
APPROVED STAMP
340
0
 70
     0
280
     1
281
     0
  0
BLOCK_RECORD
  5
289
330
1
100
AcDbSymbolTableRecord
100
AcDbBlockTableRecord
  2
AVAIL WELS 3 STAR
340
0
 70
     0
280
     1
281
     0
  0
BLOCK_RECORD
  5
28D
330
1
100
AcDbSymbolTableRecord
100
AcDbBlockTableRecord
  2
AVAIL WELS 4 STAR
340
0
 70
     0
280
     1
281
     0
  0
BLOCK_RECORD
  5
291
330
1
100
AcDbSymbolTableRecord
100
AcDbBlockTableRecord
  2
AVAIL WELS 5 & 6 STAR
340
0
 70
     0
280
     1
281
     0
  0
BLOCK_RECORD
  5
295
330
1
100
AcDbSymbolTableRecord
100
AcDbBlockTableRecord
  2
AVAIL WELS RATING
340
0
 70
     0
280
     1
281
     0
  0
BLOCK_RECORD
  5
299
330
1
100
AcDbSymbolTableRecord
100
AcDbBlockTableRecord
  2
AVAIL WELS WITH 4 STAR
340
0
 70
     0
280
     1
281
     0
  0
BLOCK_RECORD
  5
29D
330
1
100
AcDbSymbolTableRecord
100
AcDbBlockTableRecord
  2
AVAILABLE WELS 4_5_6
340
0
 70
     0
280
     1
281
     0
  0
BLOCK_RECORD
  5
2A1
330
1
100
AcDbSymbolTableRecord
100
AcDbBlockTableRecord
  2
CENTRE STICKER
340
0
 70
     0
280
     1
281
     0
  0
BLOCK_RECORD
  5
2A6
330
1
100
AcDbSymbolTableRecord
100
AcDbBlockTableRecord
  2
GREASE
340
0
 70
     0
280
     1
281
     0
  0
BLOCK_RECORD
  5
2AB
330
1
100
AcDbSymbolTableRecord
100
AcDbBlockTableRecord
  2
J_VALVE
340
0
 70
     0
280
     1
281
     0
  0
BLOCK_RECORD
  5
2AF
330
1
100
AcDbSymbolTableRecord
100
AcDbBlockTableRecord
  2
J_VALVE 3_4 TURN SECURE FIT NO HOLE DETAIL
340
0
 70
     0
280
     1
281
     0
  0
BLOCK_RECORD
  5
2B3
330
1
100
AcDbSymbolTableRecord
100
AcDbBlockTableRecord
  2
J_VALVE 3_4 TURN SECURE FIT SPOUT ONLY
340
0
 70
     0
280
     1
281
     0
  0
BLOCK_RECORD
  5
2B7
330
1
100
AcDbSymbolTableRecord
100
AcDbBlockTableRecord
  2
J_VALVE 3_4 TURN SECURE FIT TAP ONLY
340
0
 70
     0
280
     1
281
     0
  0
BLOCK_RECORD
  5
2BB
330
1
100
AcDbSymbolTableRecord
100
AcDbBlockTableRecord
  2
J_VALVE 3_4 TURN SPOUT ONLY
340
0
 70
     0
280
     1
281
     0
  0
BLOCK_RECORD
  5
2BF
330
1
100
AcDbSymbolTableRecord
100
AcDbBlockTableRecord
  2
J_VALVE 3_4 TURN TAP ONLY
340
0
 70
     0
280
     1
281
     0
  0
BLOCK_RECORD
  5
2C3
330
1
100
AcDbSymbolTableRecord
100
AcDbBlockTableRecord
  2
J_VALVE NO HOLE DETAIL
340
0
 70
     0
280
     1
281
     0
  0
BLOCK_RECORD
  5
2C7
330
1
100
AcDbSymbolTableRecord
100
AcDbBlockTableRecord
  2
J_VALVE SPOUT ONLY
340
0
 70
     0
280
     1
281
     0
  0
BLOCK_RECORD
  5
2CB
330
1
100
AcDbSymbolTableRecord
100
AcDbBlockTableRecord
  2
J_VALVE STD 3_4 TURN
340
0
 70
     0
280
     1
281
     0
  0
BLOCK_RECORD
  5
2CF
330
1
100
AcDbSymbolTableRecord
100
AcDbBlockTableRecord
  2
J_VALVE STD 3_4 TURN NO HOLE DETAIL
340
0
 70
     0
280
     1
281
     0
  0
BLOCK_RECORD
  5
2D3
330
1
100
AcDbSymbolTableRecord
100
AcDbBlockTableRecord
  2
J_VALVE STD 3_4 TURN SECURE FIT
340
0
 70
     0
280
     1
281
     0
  0
BLOCK_RECORD
  5
2D7
330
1
100
AcDbSymbolTableRecord
100
AcDbBlockTableRecord
  2
J_VALVE STD 3_4 TURN SECURE FIT NO HOLE DETAIL
340
0
 70
     0
280
     1
281
     0
  0
BLOCK_RECORD
  5
2DB
330
1
100
AcDbSymbolTableRecord
100
AcDbBlockTableRecord
  2
J_VALVE TAP ONLY
340
0
 70
     0
280
     1
281
     0
  0
BLOCK_RECORD
  5
2DF
330
1
100
AcDbSymbolTableRecord
100
AcDbBlockTableRecord
  2
Koh characteristic
340
0
 70
     0
280
     1
281
     0
  0
BLOCK_RECORD
  5
2EB
330
1
100
AcDbSymbolTableRecord
100
AcDbBlockTableRecord
  2
NOTE 001
340
0
 70
     0
280
     1
281
     0
  0
BLOCK_RECORD
  5
2F7
330
1
100
AcDbSymbolTableRecord
100
AcDbBlockTableRecord
  2
PRESSURE AND TEMP
340
0
 70
     0
280
     1
281
     0
  0
BLOCK_RECORD
  5
2FB
330
1
100
AcDbSymbolTableRecord
100
AcDbBlockTableRecord
  2
PRESSURE AND TEMP ONLY
340
0
 70
     0
280
     1
281
     0
  0
BLOCK_RECORD
  5
2FF
330
1
100
AcDbSymbolTableRecord
100
AcDbBlockTableRecord
  2
PRESSURE AND TEMP ONLY NO HOSE
340
0
 70
     0
280
     1
281
     0
  0
BLOCK_RECORD
  5
303
330
1
100
AcDbSymbolTableRecord
100
AcDbBlockTableRecord
  2
PRESSURE AND TEMP_LASER-ETCHED
340
0
 70
     0
280
     1
281
     0
  0
BLOCK_RECORD
  5
307
330
1
100
AcDbSymbolTableRecord
100
AcDbBlockTableRecord
  2
PRESSURE AND TEMP_LASER-ETCHED NO HOSE
340
0
 70
     0
280
     1
281
     0
  0
BLOCK_RECORD
  5
30B
330
1
100
AcDbSymbolTableRecord
100
AcDbBlockTableRecord
  2
QUOTATION ONLY
340
0
 70
     0
280
     1
281
     0
  0
BLOCK_RECORD
  5
30F
330
1
100
AcDbSymbolTableRecord
100
AcDbBlockTableRecord
  2
Quote Only
340
0
 70
     0
280
     1
281
     0
  0
BLOCK_RECORD
  5
313
330
1
100
AcDbSymbolTableRecord
100
AcDbBlockTableRecord
  2
SCREW-IN _ TURNS
340
0
 70
     0
280
     1
281
     0
  0
BLOCK_RECORD
  5
319
330
1
100
AcDbSymbolTableRecord
100
AcDbBlockTableRecord
  2
THREAD RETAINER
340
0
 70
     0
280
     1
281
     0
  0
BLOCK_RECORD
  5
335
330
1
100
AcDbSymbolTableRecord
100
AcDbBlockTableRecord
  2
THREAD RETAINER H
340
0
 70
     0
280
     1
281
     0
  0
BLOCK_RECORD
  5
351
330
1
100
AcDbSymbolTableRecord
100
AcDbBlockTableRecord
  2
TIGHTEN TO
340
0
 70
     0
280
     1
281
     0
  0
BLOCK_RECORD
  5
357
330
1
100
AcDbSymbolTableRecord
100
AcDbBlockTableRecord
  2
WATERMARK ETCH
340
0
 70
     0
280
     1
281
     0
  0
BLOCK_RECORD
  5
35C
330
1
100
AcDbSymbolTableRecord
100
AcDbBlockTableRecord
  2
WATERMARK STICKER
340
0
 70
     0
280
     1
281
     0
  0
BLOCK_RECORD
  5
361
330
1
100
AcDbSymbolTableRecord
100
AcDbBlockTableRecord
  2
WATERMARK STICKER RH SIDE
340
0
 70
     0
280
     1
281
     0
  0
BLOCK_RECORD
  5
366
330
1
100
AcDbSymbolTableRecord
100
AcDbBlockTableRecord
  2
WELS
340
0
 70
     0
280
     1
281
     0
  0
BLOCK_RECORD
  5
3D8
330
1
100
AcDbSymbolTableRecord
100
AcDbBlockTableRecord
  2
*D51
340
0
 70
     0
280
     1
281
     0
  0
BLOCK_RECORD
  5
516
330
1
100
AcDbSymbolTableRecord
100
AcDbBlockTableRecord
  2
*D52
340
0
 70
     0
280
     1
281
     0
  0
BLOCK_RECORD
  5
5F8
330
1
100
AcDbSymbolTableRecord
100
AcDbBlockTableRecord
  2
*D53
340
0
 70
     0
280
     1
281
     0
  0
ENDTAB
  0
ENDSEC
  0
SECTION
  2
BLOCKS
  0
BLOCK
  5
6D
330
6C
100
AcDbEntity
  8
0
100
AcDbBlockBegin
  2
*Model_Space
 70
     0
 10
0.0
 20
0.0
 30
0.0
  3
*Model_Space
  1

  0
ENDBLK
  5
6E
330
6C
100
AcDbEntity
  8
0
100
AcDbBlockEnd
  0
BLOCK
  5
69
330
68
100
AcDbEntity
 67
     1
  8
0
100
AcDbBlockBegin
  2
*Paper_Space
 70
     0
 10
0.0
 20
0.0
 30
0.0
  3
*Paper_Space
  1

  0
ENDBLK
  5
6A
330
68
100
AcDbEntity
 67
     1
  8
0
100
AcDbBlockEnd
  0
BLOCK
  5
71
330
70
100
AcDbEntity
 67
     1
  8
0
100
AcDbBlockBegin
  2
*Paper_Space0
 70
     0
 10
0.0
 20
0.0
 30
0.0
  3
*Paper_Space0
  1

  0
ENDBLK
  5
72
330
70
100
AcDbEntity
 67
     1
  8
0
100
AcDbBlockEnd
  0
BLOCK
  5
11D
330
11C
100
AcDbEntity
  8
0
100
AcDbBlockBegin
  2
DatumFilled45
 70
     0
 10
0.0
 20
0.0
 30
0.0
  3
DatumFilled45
  1

  0
POLYLINE
  5
11F
330
11C
100
AcDbEntity
  8
0
 62
     0
100
AcDb2dPolyline
 66
     1
 10
0.0
 20
0.0
 30
0.0
 70
   128
  0
VERTEX
  5
120
330
11F
100
AcDbEntity
  8
0
 62
     0
100
AcDbVertex
100
AcDb2dVertex
 10
0.0
 20
1.0
 30
0.0
  0
VERTEX
  5
121
330
11F
100
AcDbEntity
  8
0
 62
     0
100
AcDbVertex
100
AcDb2dVertex
 10
0.0
 20
-1.0
 30
0.0
  0
VERTEX
  5
123
330
11F
100
AcDbEntity
  8
0
 62
     0
100
AcDbVertex
100
AcDb2dVertex
 10
-1.0
 20
0.0
 30
0.0
  0
VERTEX
  5
124
330
11F
100
AcDbEntity
  8
0
 62
     0
100
AcDbVertex
100
AcDb2dVertex
 10
0.0
 20
1.0
 30
0.0
  0
SEQEND
  5
122
330
11F
100
AcDbEntity
  8
0
 62
     0
  0
SOLID
  5
125
330
11C
100
AcDbEntity
  8
0
 62
     0
100
AcDbTrace
 10
0.0
 20
1.0
 30
0.0
 11
0.0
 21
-1.0
 31
0.0
 12
-1.0
 22
0.0
 32
0.0
 13
0.0
 23
1.0
 33
0.0
  0
ENDBLK
  5
11E
330
11C
100
AcDbEntity
  8
0
100
AcDbBlockEnd
  0
BLOCK
  5
12C
330
127
100
AcDbEntity
  8
0
100
AcDbBlockBegin
  2
_Closed
 70
     0
 10
0.0
 20
0.0
 30
0.0
  3
_Closed
  1

  0
LINE
  5
128
330
127
100
AcDbEntity
  8
0
  6
ByBlock
 62
     0
370
    -2
100
AcDbLine
 10
-1.0
 20
0.1666666666666666
 30
0.0
 11
0.0
 21
0.0
 31
0.0
  0
LINE
  5
129
330
127
100
AcDbEntity
  8
0
  6
ByBlock
 62
     0
370
    -2
100
AcDbLine
 10
0.0
 20
0.0
 30
0.0
 11
-1.0
 21
-0.1666666666666666
 31
0.0
  0
LINE
  5
12A
330
127
100
AcDbEntity
  8
0
  6
ByBlock
 62
     0
370
    -2
100
AcDbLine
 10
-1.0
 20
0.1666666666666666
 30
0.0
 11
-1.0
 21
-0.1666666666666666
 31
0.0
  0
LINE
  5
12B
330
127
100
AcDbEntity
  8
0
  6
ByBlock
 62
     0
370
    -2
100
AcDbLine
 10
0.0
 20
0.0
 30
0.0
 11
-1.0
 21
0.0
 31
0.0
  0
ENDBLK
  5
12D
330
127
100
AcDbEntity
  8
0
100
AcDbBlockEnd
  0
BLOCK
  5
137
330
136
100
AcDbEntity
  8
0
100
AcDbBlockBegin
  2
1_4 TURN STD
 70
     0
 10
0.0
 20
0.0
 30
0.0
  3
1_4 TURN STD
  1

  0
MTEXT
  5
139
330
136
100
AcDbEntity
  8
Symbols(Ram)
 62
     7
100
AcDbMText
 10
-26.10136985778809
 20
23.09343125671148
 30
0.0
 40
2.5
 41
0.0
 46
0.0
 71
     1
 72
     1
  3
Headworks Available:\PCeramic Disc 1/4 Turn (Standard)\P \PMax Pressure: 1000kpa\PMin Pressure: 150kpa\PMax Temp: 80\fAIGDT|b0|i0;\H2.5000;~\fArial|b0|i0;\H2.5000;c\P \PMounting Holes:\P- Taps - Min \fAIGDT|b0|i0;\H2.5000;n\fArial|b0|i0;\H2.5000;32mm
  1
\P- Spout - Min \fAIGDT|b0|i0;\H2.5000;n\fArial|b0|i0;\H2.5000;21mm
  7
STD 2.5 ARIAL
 73
     2
 44
1.146487116813659
1001
ACAD
1000
MTEXTBEGIN
1070
    73
1070
     2
1070
    44
1040
1.146487116813659
1070
    74
1070
     0
1000
MTEXTEND
  0
ENDBLK
  5
138
330
136
100
AcDbEntity
  8
0
100
AcDbBlockEnd
  0
BLOCK
  5
13C
330
13B
100
AcDbEntity
  8
0
100
AcDbBlockBegin
  2
1_4 TURN STD NO HOLE DETAIL
 70
     0
 10
0.0
 20
0.0
 30
0.0
  3
1_4 TURN STD NO HOLE DETAIL
  1

  0
MTEXT
  5
13E
330
13B
100
AcDbEntity
  8
Symbols(Ram)
 62
     7
100
AcDbMText
 10
-26.10136985778809
 20
12.35388394445181
 30
0.0
 40
2.5
 41
0.0
 46
0.0
 71
     1
 72
     1
  1
Headworks Available:\PCeramic Disc 1/4 Turn (Standard)\P \PMax Pressure: 1000kpa\PMin Pressure: 150kpa\PMax Temp: 80\fAIGDT|b0|i0;\H2.5000;~\fArial|b0|i0;\H2.5000;c
  7
STD 2.5 ARIAL
 73
     2
 44
1.03268015384674
1001
ACAD
1000
MTEXTBEGIN
1070
    73
1070
     2
1070
    44
1040
1.03268015384674
1070
    74
1070
     0
1000
MTEXTEND
  0
ENDBLK
  5
13D
330
13B
100
AcDbEntity
  8
0
100
AcDbBlockEnd
  0
BLOCK
  5
140
330
13F
100
AcDbEntity
  8
0
100
AcDbBlockBegin
  2
1_4 TURN STD SECURE FIT
 70
     0
 10
0.0
 20
0.0
 30
0.0
  3
1_4 TURN STD SECURE FIT
  1

  0
MTEXT
  5
142
330
13F
100
AcDbEntity
  8
Symbols(Ram)
 62
     7
100
AcDbMText
 10
-35.61356604099275
 20
27.02768739312887
 30
0.0
 40
2.5
 41
0.0
 46
0.0
 71
     1
 72
     1
  3
Headworks Available:\PCeramic Disc 1/4 Turn (Standard)\P \PHandles are \fArial|b0|i1;\H2.5000;Secure Fit\fArial|b0|i0;\H2.5000; - Fit with key supplied.\P \PMax Pressure: 1000kpa\PMin Pressure: 150kpa\PMax Temp: 80\fAIGDT|b0|i0;\H2.5000;~\fArial|b0|i
  1
0;\H2.5000;c\P \PMounting Holes:\P- Taps - Min \fAIGDT|b0|i0;\H2.5000;n\fArial|b0|i0;\H2.5000;32mm\P- Spout - Min \fAIGDT|b0|i0;\H2.5000;n\fArial|b0|i0;\H2.5000;21mm
  7
STD 2.5 ARIAL
 73
     2
 44
1.1097115278244
1001
ACAD
1000
MTEXTBEGIN
1070
    73
1070
     2
1070
    44
1040
1.1097115278244
1070
    74
1070
     0
1000
MTEXTEND
  0
ENDBLK
  5
141
330
13F
100
AcDbEntity
  8
0
100
AcDbBlockEnd
  0
BLOCK
  5
144
330
143
100
AcDbEntity
  8
0
100
AcDbBlockBegin
  2
1_4 TURN STD SECURE FIT NO HOLE DETAIL
 70
     0
 10
0.0
 20
0.0
 30
0.0
  3
1_4 TURN STD SECURE FIT NO HOLE DETAIL
  1

  0
MTEXT
  5
146
330
143
100
AcDbEntity
  8
Symbols(Ram)
 62
     7
100
AcDbMText
 10
-35.61356604099275
 20
16.28814008086919
 30
0.0
 40
2.5
 41
0.0
 46
0.0
 71
     1
 72
     1
  3
Headworks Available:\PCeramic Disc 1/4 Turn (Standard)\P \PHandles are \fArial|b0|i1;\H2.5000;Secure Fit\fArial|b0|i0;\H2.5000; - Fit with key supplied.\P \PMax Pressure: 1000kpa\PMin Pressure: 150kpa\PMax Temp: 80\fAIGDT|b0|i0;\H2.5000;~\fArial|b0|i
  1
0;\H2.5000;c
  7
STD 2.5 ARIAL
 73
     2
 44
1.007406234741209
1001
ACAD
1000
MTEXTBEGIN
1070
    73
1070
     2
1070
    44
1040
1.007406234741209
1070
    74
1070
     0
1000
MTEXTEND
  0
ENDBLK
  5
145
330
143
100
AcDbEntity
  8
0
100
AcDbBlockEnd
  0
BLOCK
  5
148
330
147
100
AcDbEntity
  8
0
100
AcDbBlockBegin
  2
16 UP
 70
     0
 10
0.0
 20
0.0
 30
0.0
  3
16 UP
  1

  0
LINE
  5
14A
330
147
100
AcDbEntity
  8
Sketch Geometry(Ram)
370
    18
100
AcDbLine
 10
-4.499999999999957
 20
5.0
 30
0.0
 11
-5.999999999999943
 21
5.0
 31
0.0
  0
LINE
  5
14B
330
147
100
AcDbEntity
  8
Sketch Geometry(Ram)
370
    18
100
AcDbLine
 10
-6.49999999999995
 20
5.500000000000007
 30
0.0
 11
-6.49999999999995
 21
7.999999999999988
 31
0.0
  0
LINE
  5
14C
330
147
100
AcDbEntity
  8
Sketch Geometry(Ram)
370
    18
100
AcDbLine
 10
-5.999999999999943
 20
8.499999999999996
 30
0.0
 11
-4.499999999999957
 21
8.499999999999976
 31
0.0
  0
LINE
  5
14D
330
147
100
AcDbEntity
  8
Sketch Geometry(Ram)
370
    18
100
AcDbLine
 10
-3.999999999999949
 20
7.999999999999988
 30
0.0
 11
-3.999999999999949
 21
5.500000000000007
 31
0.0
  0
ARC
  5
14E
330
147
100
AcDbEntity
  8
Sketch Geometry(Ram)
370
    18
100
AcDbCircle
 10
-5.999999999999943
 20
7.999999999999988
 30
0.0
 40
0.5
100
AcDbArc
 50
90.0
 51
180.0
  0
ARC
  5
14F
330
147
100
AcDbEntity
  8
Sketch Geometry(Ram)
370
    18
100
AcDbCircle
 10
-4.499999999999957
 20
7.999999999999988
 30
0.0
 40
0.5
100
AcDbArc
 50
0.0
 51
90.0
  0
ARC
  5
150
330
147
100
AcDbEntity
  8
Sketch Geometry(Ram)
370
    18
100
AcDbCircle
 10
-4.499999999999957
 20
5.500000000000007
 30
0.0
 40
0.5
100
AcDbArc
 50
270.0
 51
0.0
  0
ARC
  5
151
330
147
100
AcDbEntity
  8
Sketch Geometry(Ram)
370
    18
100
AcDbCircle
 10
-5.999999999999943
 20
5.500000000000007
 30
0.0
 40
0.5
100
AcDbArc
 50
180.0
 51
270.0
  0
LINE
  5
152
330
147
100
AcDbEntity
  8
Sketch Geometry(Ram)
370
    18
100
AcDbLine
 10
-2.499999999999964
 20
8.499999999999996
 30
0.0
 11
-0.9999999999999785
 21
8.499999999999976
 31
0.0
  0
ARC
  5
153
330
147
100
AcDbEntity
  8
Sketch Geometry(Ram)
370
    18
100
AcDbCircle
 10
-2.499999999999964
 20
7.999999999999988
 30
0.0
 40
0.5
100
AcDbArc
 50
90.0
 51
180.0
  0
LINE
  5
154
330
147
100
AcDbEntity
  8
Sketch Geometry(Ram)
370
    18
100
AcDbLine
 10
-2.999999999999971
 20
5.500000000000007
 30
0.0
 11
-2.999999999999971
 21
7.999999999999988
 31
0.0
  0
LINE
  5
155
330
147
100
AcDbEntity
  8
Sketch Geometry(Ram)
370
    18
100
AcDbLine
 10
-0.4999999999999716
 20
7.999999999999988
 30
0.0
 11
-0.4999999999999716
 21
5.500000000000007
 31
0.0
  0
ARC
  5
156
330
147
100
AcDbEntity
  8
Sketch Geometry(Ram)
370
    18
100
AcDbCircle
 10
-0.9999999999999785
 20
7.999999999999988
 30
0.0
 40
0.5
100
AcDbArc
 50
0.0
 51
90.0
  0
ARC
  5
157
330
147
100
AcDbEntity
  8
Sketch Geometry(Ram)
370
    18
100
AcDbCircle
 10
-0.9999999999999785
 20
5.500000000000007
 30
0.0
 40
0.5
100
AcDbArc
 50
270.0
 51
0.0
  0
LINE
  5
158
330
147
100
AcDbEntity
  8
Sketch Geometry(Ram)
370
    18
100
AcDbLine
 10
-0.9999999999999785
 20
5.0
 30
0.0
 11
-2.499999999999964
 21
5.0
 31
0.0
  0
ARC
  5
159
330
147
100
AcDbEntity
  8
Sketch Geometry(Ram)
370
    18
100
AcDbCircle
 10
-2.499999999999964
 20
5.500000000000007
 30
0.0
 40
0.5
100
AcDbArc
 50
180.0
 51
270.0
  0
LINE
  5
15A
330
147
100
AcDbEntity
  8
Sketch Geometry(Ram)
370
    18
100
AcDbLine
 10
-5.999999999999943
 20
4.000000000000002
 30
0.0
 11
-4.499999999999957
 21
3.999999999999984
 31
0.0
  0
ARC
  5
15B
330
147
100
AcDbEntity
  8
Sketch Geometry(Ram)
370
    18
100
AcDbCircle
 10
-5.999999999999943
 20
3.499999999999996
 30
0.0
 40
0.5
100
AcDbArc
 50
90.0
 51
180.0
  0
LINE
  5
15C
330
147
100
AcDbEntity
  8
Sketch Geometry(Ram)
370
    18
100
AcDbLine
 10
-6.49999999999995
 20
1.000000000000013
 30
0.0
 11
-6.49999999999995
 21
3.499999999999996
 31
0.0
  0
LINE
  5
15D
330
147
100
AcDbEntity
  8
Sketch Geometry(Ram)
370
    18
100
AcDbLine
 10
-3.999999999999949
 20
3.499999999999996
 30
0.0
 11
-3.999999999999949
 21
1.000000000000013
 31
0.0
  0
ARC
  5
15E
330
147
100
AcDbEntity
  8
Sketch Geometry(Ram)
370
    18
100
AcDbCircle
 10
-4.499999999999957
 20
3.499999999999996
 30
0.0
 40
0.5
100
AcDbArc
 50
0.0
 51
90.0
  0
ARC
  5
15F
330
147
100
AcDbEntity
  8
Sketch Geometry(Ram)
370
    18
100
AcDbCircle
 10
-4.499999999999957
 20
1.000000000000013
 30
0.0
 40
0.5
100
AcDbArc
 50
270.0
 51
0.0
  0
LINE
  5
160
330
147
100
AcDbEntity
  8
Sketch Geometry(Ram)
370
    18
100
AcDbLine
 10
-4.499999999999957
 20
0.5000000000000071
 30
0.0
 11
-5.999999999999943
 21
0.5000000000000071
 31
0.0
  0
ARC
  5
161
330
147
100
AcDbEntity
  8
Sketch Geometry(Ram)
370
    18
100
AcDbCircle
 10
-5.999999999999943
 20
1.000000000000013
 30
0.0
 40
0.5
100
AcDbArc
 50
180.0
 51
270.0
  0
LINE
  5
162
330
147
100
AcDbEntity
  8
Sketch Geometry(Ram)
370
    18
100
AcDbLine
 10
-2.499999999999964
 20
4.000000000000002
 30
0.0
 11
-0.9999999999999785
 21
3.999999999999984
 31
0.0
  0
ARC
  5
163
330
147
100
AcDbEntity
  8
Sketch Geometry(Ram)
370
    18
100
AcDbCircle
 10
-2.499999999999964
 20
3.499999999999996
 30
0.0
 40
0.5
100
AcDbArc
 50
90.0
 51
180.0
  0
LINE
  5
164
330
147
100
AcDbEntity
  8
Sketch Geometry(Ram)
370
    18
100
AcDbLine
 10
-2.999999999999971
 20
1.000000000000013
 30
0.0
 11
-2.999999999999971
 21
3.499999999999996
 31
0.0
  0
LINE
  5
165
330
147
100
AcDbEntity
  8
Sketch Geometry(Ram)
370
    18
100
AcDbLine
 10
-0.4999999999999716
 20
3.499999999999996
 30
0.0
 11
-0.4999999999999716
 21
1.000000000000013
 31
0.0
  0
ARC
  5
166
330
147
100
AcDbEntity
  8
Sketch Geometry(Ram)
370
    18
100
AcDbCircle
 10
-0.9999999999999785
 20
3.499999999999996
 30
0.0
 40
0.5
100
AcDbArc
 50
0.0
 51
90.0
  0
ARC
  5
167
330
147
100
AcDbEntity
  8
Sketch Geometry(Ram)
370
    18
100
AcDbCircle
 10
-0.9999999999999785
 20
1.000000000000013
 30
0.0
 40
0.5
100
AcDbArc
 50
270.0
 51
0.0
  0
LINE
  5
168
330
147
100
AcDbEntity
  8
Sketch Geometry(Ram)
370
    18
100
AcDbLine
 10
-0.9999999999999785
 20
0.5000000000000071
 30
0.0
 11
-2.499999999999964
 21
0.5000000000000071
 31
0.0
  0
ARC
  5
169
330
147
100
AcDbEntity
  8
Sketch Geometry(Ram)
370
    18
100
AcDbCircle
 10
-2.499999999999964
 20
1.000000000000013
 30
0.0
 40
0.5
100
AcDbArc
 50
180.0
 51
270.0
  0
LINE
  5
16A
330
147
100
AcDbEntity
  8
Sketch Geometry(Ram)
370
    18
100
AcDbLine
 10
1.000000000000013
 20
8.499999999999996
 30
0.0
 11
2.5
 21
8.499999999999976
 31
0.0
  0
ARC
  5
16B
330
147
100
AcDbEntity
  8
Sketch Geometry(Ram)
370
    18
100
AcDbCircle
 10
1.000000000000013
 20
7.999999999999988
 30
0.0
 40
0.5
100
AcDbArc
 50
90.0
 51
180.0
  0
LINE
  5
16C
330
147
100
AcDbEntity
  8
Sketch Geometry(Ram)
370
    18
100
AcDbLine
 10
0.5000000000000071
 20
5.500000000000007
 30
0.0
 11
0.5000000000000071
 21
7.999999999999988
 31
0.0
  0
LINE
  5
16D
330
147
100
AcDbEntity
  8
Sketch Geometry(Ram)
370
    18
100
AcDbLine
 10
3.000000000000006
 20
7.999999999999988
 30
0.0
 11
3.000000000000006
 21
5.500000000000007
 31
0.0
  0
ARC
  5
16E
330
147
100
AcDbEntity
  8
Sketch Geometry(Ram)
370
    18
100
AcDbCircle
 10
2.5
 20
7.999999999999988
 30
0.0
 40
0.5
100
AcDbArc
 50
0.0
 51
90.0
  0
ARC
  5
16F
330
147
100
AcDbEntity
  8
Sketch Geometry(Ram)
370
    18
100
AcDbCircle
 10
2.5
 20
5.500000000000007
 30
0.0
 40
0.5
100
AcDbArc
 50
270.0
 51
0.0
  0
LINE
  5
170
330
147
100
AcDbEntity
  8
Sketch Geometry(Ram)
370
    18
100
AcDbLine
 10
2.5
 20
5.0
 30
0.0
 11
1.000000000000013
 21
5.0
 31
0.0
  0
ARC
  5
171
330
147
100
AcDbEntity
  8
Sketch Geometry(Ram)
370
    18
100
AcDbCircle
 10
1.000000000000013
 20
5.500000000000007
 30
0.0
 40
0.5
100
AcDbArc
 50
180.0
 51
270.0
  0
LINE
  5
172
330
147
100
AcDbEntity
  8
Sketch Geometry(Ram)
370
    18
100
AcDbLine
 10
1.000000000000013
 20
4.000000000000002
 30
0.0
 11
2.5
 21
3.999999999999984
 31
0.0
  0
ARC
  5
173
330
147
100
AcDbEntity
  8
Sketch Geometry(Ram)
370
    18
100
AcDbCircle
 10
1.000000000000013
 20
3.499999999999996
 30
0.0
 40
0.5
100
AcDbArc
 50
90.0
 51
180.0
  0
LINE
  5
174
330
147
100
AcDbEntity
  8
Sketch Geometry(Ram)
370
    18
100
AcDbLine
 10
0.5000000000000071
 20
1.000000000000013
 30
0.0
 11
0.5000000000000071
 21
3.499999999999996
 31
0.0
  0
LINE
  5
175
330
147
100
AcDbEntity
  8
Sketch Geometry(Ram)
370
    18
100
AcDbLine
 10
3.000000000000006
 20
3.499999999999996
 30
0.0
 11
3.000000000000006
 21
1.000000000000013
 31
0.0
  0
ARC
  5
176
330
147
100
AcDbEntity
  8
Sketch Geometry(Ram)
370
    18
100
AcDbCircle
 10
2.5
 20
3.499999999999996
 30
0.0
 40
0.5
100
AcDbArc
 50
0.0
 51
90.0
  0
ARC
  5
177
330
147
100
AcDbEntity
  8
Sketch Geometry(Ram)
370
    18
100
AcDbCircle
 10
2.5
 20
1.000000000000013
 30
0.0
 40
0.5
100
AcDbArc
 50
270.0
 51
0.0
  0
LINE
  5
178
330
147
100
AcDbEntity
  8
Sketch Geometry(Ram)
370
    18
100
AcDbLine
 10
2.5
 20
0.5000000000000071
 30
0.0
 11
1.000000000000013
 21
0.5000000000000071
 31
0.0
  0
ARC
  5
179
330
147
100
AcDbEntity
  8
Sketch Geometry(Ram)
370
    18
100
AcDbCircle
 10
1.000000000000013
 20
1.000000000000013
 30
0.0
 40
0.5
100
AcDbArc
 50
180.0
 51
270.0
  0
LINE
  5
17A
330
147
100
AcDbEntity
  8
Sketch Geometry(Ram)
370
    18
100
AcDbLine
 10
4.499999999999992
 20
8.499999999999996
 30
0.0
 11
5.999999999999976
 21
8.499999999999976
 31
0.0
  0
ARC
  5
17B
330
147
100
AcDbEntity
  8
Sketch Geometry(Ram)
370
    18
100
AcDbCircle
 10
4.499999999999992
 20
7.999999999999988
 30
0.0
 40
0.5
100
AcDbArc
 50
90.0
 51
180.0
  0
LINE
  5
17C
330
147
100
AcDbEntity
  8
Sketch Geometry(Ram)
370
    18
100
AcDbLine
 10
3.999999999999984
 20
5.500000000000007
 30
0.0
 11
3.999999999999984
 21
7.999999999999988
 31
0.0
  0
LINE
  5
17D
330
147
100
AcDbEntity
  8
Sketch Geometry(Ram)
370
    18
100
AcDbLine
 10
6.499999999999985
 20
7.999999999999988
 30
0.0
 11
6.499999999999985
 21
5.500000000000007
 31
0.0
  0
ARC
  5
17E
330
147
100
AcDbEntity
  8
Sketch Geometry(Ram)
370
    18
100
AcDbCircle
 10
5.999999999999976
 20
7.999999999999988
 30
0.0
 40
0.5
100
AcDbArc
 50
0.0
 51
90.0
  0
ARC
  5
17F
330
147
100
AcDbEntity
  8
Sketch Geometry(Ram)
370
    18
100
AcDbCircle
 10
5.999999999999976
 20
5.500000000000007
 30
0.0
 40
0.5
100
AcDbArc
 50
270.0
 51
0.0
  0
LINE
  5
180
330
147
100
AcDbEntity
  8
Sketch Geometry(Ram)
370
    18
100
AcDbLine
 10
5.999999999999976
 20
5.0
 30
0.0
 11
4.499999999999992
 21
5.0
 31
0.0
  0
ARC
  5
181
330
147
100
AcDbEntity
  8
Sketch Geometry(Ram)
370
    18
100
AcDbCircle
 10
4.499999999999992
 20
5.500000000000007
 30
0.0
 40
0.5
100
AcDbArc
 50
180.0
 51
270.0
  0
LINE
  5
182
330
147
100
AcDbEntity
  8
Sketch Geometry(Ram)
370
    18
100
AcDbLine
 10
4.499999999999992
 20
4.000000000000002
 30
0.0
 11
5.999999999999976
 21
3.999999999999984
 31
0.0
  0
ARC
  5
183
330
147
100
AcDbEntity
  8
Sketch Geometry(Ram)
370
    18
100
AcDbCircle
 10
4.499999999999992
 20
3.499999999999996
 30
0.0
 40
0.5
100
AcDbArc
 50
90.0
 51
180.0
  0
LINE
  5
184
330
147
100
AcDbEntity
  8
Sketch Geometry(Ram)
370
    18
100
AcDbLine
 10
3.999999999999984
 20
1.000000000000013
 30
0.0
 11
3.999999999999984
 21
3.499999999999996
 31
0.0
  0
LINE
  5
185
330
147
100
AcDbEntity
  8
Sketch Geometry(Ram)
370
    18
100
AcDbLine
 10
6.499999999999985
 20
3.499999999999996
 30
0.0
 11
6.499999999999985
 21
1.000000000000013
 31
0.0
  0
ARC
  5
186
330
147
100
AcDbEntity
  8
Sketch Geometry(Ram)
370
    18
100
AcDbCircle
 10
5.999999999999976
 20
3.499999999999996
 30
0.0
 40
0.5
100
AcDbArc
 50
0.0
 51
90.0
  0
ARC
  5
187
330
147
100
AcDbEntity
  8
Sketch Geometry(Ram)
370
    18
100
AcDbCircle
 10
5.999999999999976
 20
1.000000000000013
 30
0.0
 40
0.5
100
AcDbArc
 50
270.0
 51
0.0
  0
LINE
  5
188
330
147
100
AcDbEntity
  8
Sketch Geometry(Ram)
370
    18
100
AcDbLine
 10
5.999999999999976
 20
0.5000000000000071
 30
0.0
 11
4.499999999999992
 21
0.5000000000000071
 31
0.0
  0
ARC
  5
189
330
147
100
AcDbEntity
  8
Sketch Geometry(Ram)
370
    18
100
AcDbCircle
 10
4.499999999999992
 20
1.000000000000013
 30
0.0
 40
0.5
100
AcDbArc
 50
180.0
 51
270.0
  0
LINE
  5
18A
330
147
100
AcDbEntity
  8
Sketch Geometry(Ram)
370
    18
100
AcDbLine
 10
-5.999999999999943
 20
-0.4999999999999895
 30
0.0
 11
-4.499999999999957
 21
-0.5000000000000071
 31
0.0
  0
ARC
  5
18B
330
147
100
AcDbEntity
  8
Sketch Geometry(Ram)
370
    18
100
AcDbCircle
 10
-5.999999999999943
 20
-0.9999999999999964
 30
0.0
 40
0.5
100
AcDbArc
 50
90.0
 51
180.0
  0
LINE
  5
18C
330
147
100
AcDbEntity
  8
Sketch Geometry(Ram)
370
    18
100
AcDbLine
 10
-6.49999999999995
 20
-3.499999999999977
 30
0.0
 11
-6.49999999999995
 21
-0.9999999999999964
 31
0.0
  0
LINE
  5
18D
330
147
100
AcDbEntity
  8
Sketch Geometry(Ram)
370
    18
100
AcDbLine
 10
-3.999999999999949
 20
-0.9999999999999964
 30
0.0
 11
-3.999999999999949
 21
-3.499999999999977
 31
0.0
  0
ARC
  5
18E
330
147
100
AcDbEntity
  8
Sketch Geometry(Ram)
370
    18
100
AcDbCircle
 10
-4.499999999999957
 20
-0.9999999999999964
 30
0.0
 40
0.5
100
AcDbArc
 50
0.0
 51
90.0
  0
ARC
  5
18F
330
147
100
AcDbEntity
  8
Sketch Geometry(Ram)
370
    18
100
AcDbCircle
 10
-4.499999999999957
 20
-3.499999999999977
 30
0.0
 40
0.5
100
AcDbArc
 50
270.0
 51
0.0
  0
LINE
  5
190
330
147
100
AcDbEntity
  8
Sketch Geometry(Ram)
370
    18
100
AcDbLine
 10
-4.499999999999957
 20
-3.999999999999984
 30
0.0
 11
-5.999999999999943
 21
-3.999999999999984
 31
0.0
  0
ARC
  5
191
330
147
100
AcDbEntity
  8
Sketch Geometry(Ram)
370
    18
100
AcDbCircle
 10
-5.999999999999943
 20
-3.499999999999977
 30
0.0
 40
0.5
100
AcDbArc
 50
180.0
 51
270.0
  0
LINE
  5
192
330
147
100
AcDbEntity
  8
Sketch Geometry(Ram)
370
    18
100
AcDbLine
 10
-2.499999999999964
 20
-0.4999999999999895
 30
0.0
 11
-0.9999999999999785
 21
-0.5000000000000071
 31
0.0
  0
ARC
  5
193
330
147
100
AcDbEntity
  8
Sketch Geometry(Ram)
370
    18
100
AcDbCircle
 10
-2.499999999999964
 20
-0.9999999999999964
 30
0.0
 40
0.5
100
AcDbArc
 50
90.0
 51
180.0
  0
LINE
  5
194
330
147
100
AcDbEntity
  8
Sketch Geometry(Ram)
370
    18
100
AcDbLine
 10
-2.999999999999971
 20
-3.499999999999977
 30
0.0
 11
-2.999999999999971
 21
-0.9999999999999964
 31
0.0
  0
LINE
  5
195
330
147
100
AcDbEntity
  8
Sketch Geometry(Ram)
370
    18
100
AcDbLine
 10
-0.4999999999999716
 20
-0.9999999999999964
 30
0.0
 11
-0.4999999999999716
 21
-3.499999999999977
 31
0.0
  0
ARC
  5
196
330
147
100
AcDbEntity
  8
Sketch Geometry(Ram)
370
    18
100
AcDbCircle
 10
-0.9999999999999785
 20
-0.9999999999999964
 30
0.0
 40
0.5
100
AcDbArc
 50
0.0
 51
90.0
  0
ARC
  5
197
330
147
100
AcDbEntity
  8
Sketch Geometry(Ram)
370
    18
100
AcDbCircle
 10
-0.9999999999999785
 20
-3.499999999999977
 30
0.0
 40
0.5
100
AcDbArc
 50
270.0
 51
0.0
  0
LINE
  5
198
330
147
100
AcDbEntity
  8
Sketch Geometry(Ram)
370
    18
100
AcDbLine
 10
-0.9999999999999785
 20
-3.999999999999984
 30
0.0
 11
-2.499999999999964
 21
-3.999999999999984
 31
0.0
  0
ARC
  5
199
330
147
100
AcDbEntity
  8
Sketch Geometry(Ram)
370
    18
100
AcDbCircle
 10
-2.499999999999964
 20
-3.499999999999977
 30
0.0
 40
0.5
100
AcDbArc
 50
180.0
 51
270.0
  0
LINE
  5
19A
330
147
100
AcDbEntity
  8
Sketch Geometry(Ram)
370
    18
100
AcDbLine
 10
1.000000000000013
 20
-0.4999999999999895
 30
0.0
 11
2.5
 21
-0.5000000000000071
 31
0.0
  0
ARC
  5
19B
330
147
100
AcDbEntity
  8
Sketch Geometry(Ram)
370
    18
100
AcDbCircle
 10
1.000000000000013
 20
-0.9999999999999964
 30
0.0
 40
0.5
100
AcDbArc
 50
90.0
 51
180.0
  0
LINE
  5
19C
330
147
100
AcDbEntity
  8
Sketch Geometry(Ram)
370
    18
100
AcDbLine
 10
0.5000000000000071
 20
-3.499999999999977
 30
0.0
 11
0.5000000000000071
 21
-0.9999999999999964
 31
0.0
  0
LINE
  5
19D
330
147
100
AcDbEntity
  8
Sketch Geometry(Ram)
370
    18
100
AcDbLine
 10
3.000000000000006
 20
-0.9999999999999964
 30
0.0
 11
3.000000000000006
 21
-3.499999999999977
 31
0.0
  0
ARC
  5
19E
330
147
100
AcDbEntity
  8
Sketch Geometry(Ram)
370
    18
100
AcDbCircle
 10
2.5
 20
-0.9999999999999964
 30
0.0
 40
0.5
100
AcDbArc
 50
0.0
 51
90.0
  0
ARC
  5
19F
330
147
100
AcDbEntity
  8
Sketch Geometry(Ram)
370
    18
100
AcDbCircle
 10
2.5
 20
-3.499999999999977
 30
0.0
 40
0.5
100
AcDbArc
 50
270.0
 51
0.0
  0
LINE
  5
1A0
330
147
100
AcDbEntity
  8
Sketch Geometry(Ram)
370
    18
100
AcDbLine
 10
2.5
 20
-3.999999999999984
 30
0.0
 11
1.000000000000013
 21
-3.999999999999984
 31
0.0
  0
ARC
  5
1A1
330
147
100
AcDbEntity
  8
Sketch Geometry(Ram)
370
    18
100
AcDbCircle
 10
1.000000000000013
 20
-3.499999999999977
 30
0.0
 40
0.5
100
AcDbArc
 50
180.0
 51
270.0
  0
LINE
  5
1A2
330
147
100
AcDbEntity
  8
Sketch Geometry(Ram)
370
    18
100
AcDbLine
 10
4.499999999999992
 20
-0.4999999999999895
 30
0.0
 11
5.999999999999976
 21
-0.5000000000000071
 31
0.0
  0
ARC
  5
1A3
330
147
100
AcDbEntity
  8
Sketch Geometry(Ram)
370
    18
100
AcDbCircle
 10
4.499999999999992
 20
-0.9999999999999964
 30
0.0
 40
0.5
100
AcDbArc
 50
90.0
 51
180.0
  0
LINE
  5
1A4
330
147
100
AcDbEntity
  8
Sketch Geometry(Ram)
370
    18
100
AcDbLine
 10
3.999999999999984
 20
-3.499999999999977
 30
0.0
 11
3.999999999999984
 21
-0.9999999999999964
 31
0.0
  0
LINE
  5
1A5
330
147
100
AcDbEntity
  8
Sketch Geometry(Ram)
370
    18
100
AcDbLine
 10
6.499999999999985
 20
-0.9999999999999964
 30
0.0
 11
6.499999999999985
 21
-3.499999999999977
 31
0.0
  0
ARC
  5
1A6
330
147
100
AcDbEntity
  8
Sketch Geometry(Ram)
370
    18
100
AcDbCircle
 10
5.999999999999976
 20
-0.9999999999999964
 30
0.0
 40
0.5
100
AcDbArc
 50
0.0
 51
90.0
  0
ARC
  5
1A7
330
147
100
AcDbEntity
  8
Sketch Geometry(Ram)
370
    18
100
AcDbCircle
 10
5.999999999999976
 20
-3.499999999999977
 30
0.0
 40
0.5
100
AcDbArc
 50
270.0
 51
0.0
  0
LINE
  5
1A8
330
147
100
AcDbEntity
  8
Sketch Geometry(Ram)
370
    18
100
AcDbLine
 10
5.999999999999976
 20
-3.999999999999984
 30
0.0
 11
4.499999999999992
 21
-3.999999999999984
 31
0.0
  0
ARC
  5
1A9
330
147
100
AcDbEntity
  8
Sketch Geometry(Ram)
370
    18
100
AcDbCircle
 10
4.499999999999992
 20
-3.499999999999977
 30
0.0
 40
0.5
100
AcDbArc
 50
180.0
 51
270.0
  0
LINE
  5
1AA
330
147
100
AcDbEntity
  8
Sketch Geometry(Ram)
370
    18
100
AcDbLine
 10
-5.999999999999943
 20
-4.999999999999981
 30
0.0
 11
-4.499999999999957
 21
-5.0
 31
0.0
  0
ARC
  5
1AB
330
147
100
AcDbEntity
  8
Sketch Geometry(Ram)
370
    18
100
AcDbCircle
 10
-5.999999999999943
 20
-5.499999999999988
 30
0.0
 40
0.5
100
AcDbArc
 50
90.0
 51
180.0
  0
LINE
  5
1AC
330
147
100
AcDbEntity
  8
Sketch Geometry(Ram)
370
    18
100
AcDbLine
 10
-6.49999999999995
 20
-7.999999999999971
 30
0.0
 11
-6.49999999999995
 21
-5.499999999999988
 31
0.0
  0
LINE
  5
1AD
330
147
100
AcDbEntity
  8
Sketch Geometry(Ram)
370
    18
100
AcDbLine
 10
-3.999999999999949
 20
-5.499999999999988
 30
0.0
 11
-3.999999999999949
 21
-7.999999999999971
 31
0.0
  0
ARC
  5
1AE
330
147
100
AcDbEntity
  8
Sketch Geometry(Ram)
370
    18
100
AcDbCircle
 10
-4.499999999999957
 20
-5.499999999999988
 30
0.0
 40
0.5
100
AcDbArc
 50
0.0
 51
90.0
  0
ARC
  5
1AF
330
147
100
AcDbEntity
  8
Sketch Geometry(Ram)
370
    18
100
AcDbCircle
 10
-4.499999999999957
 20
-7.999999999999971
 30
0.0
 40
0.5
100
AcDbArc
 50
270.0
 51
0.0
  0
LINE
  5
1B0
330
147
100
AcDbEntity
  8
Sketch Geometry(Ram)
370
    18
100
AcDbLine
 10
-4.499999999999957
 20
-8.499999999999976
 30
0.0
 11
-5.999999999999943
 21
-8.499999999999976
 31
0.0
  0
ARC
  5
1B1
330
147
100
AcDbEntity
  8
Sketch Geometry(Ram)
370
    18
100
AcDbCircle
 10
-5.999999999999943
 20
-7.999999999999971
 30
0.0
 40
0.5
100
AcDbArc
 50
180.0
 51
270.0
  0
LINE
  5
1B2
330
147
100
AcDbEntity
  8
Sketch Geometry(Ram)
370
    18
100
AcDbLine
 10
-2.499999999999964
 20
-4.999999999999981
 30
0.0
 11
-0.9999999999999785
 21
-5.0
 31
0.0
  0
ARC
  5
1B3
330
147
100
AcDbEntity
  8
Sketch Geometry(Ram)
370
    18
100
AcDbCircle
 10
-2.499999999999964
 20
-5.499999999999988
 30
0.0
 40
0.5
100
AcDbArc
 50
90.0
 51
180.0
  0
LINE
  5
1B4
330
147
100
AcDbEntity
  8
Sketch Geometry(Ram)
370
    18
100
AcDbLine
 10
-2.999999999999971
 20
-7.999999999999971
 30
0.0
 11
-2.999999999999971
 21
-5.499999999999988
 31
0.0
  0
LINE
  5
1B5
330
147
100
AcDbEntity
  8
Sketch Geometry(Ram)
370
    18
100
AcDbLine
 10
-0.4999999999999716
 20
-5.499999999999988
 30
0.0
 11
-0.4999999999999716
 21
-7.999999999999971
 31
0.0
  0
ARC
  5
1B6
330
147
100
AcDbEntity
  8
Sketch Geometry(Ram)
370
    18
100
AcDbCircle
 10
-0.9999999999999785
 20
-5.499999999999988
 30
0.0
 40
0.5
100
AcDbArc
 50
0.0
 51
90.0
  0
ARC
  5
1B7
330
147
100
AcDbEntity
  8
Sketch Geometry(Ram)
370
    18
100
AcDbCircle
 10
-0.9999999999999785
 20
-7.999999999999971
 30
0.0
 40
0.5
100
AcDbArc
 50
270.0
 51
0.0
  0
LINE
  5
1B8
330
147
100
AcDbEntity
  8
Sketch Geometry(Ram)
370
    18
100
AcDbLine
 10
-0.9999999999999785
 20
-8.499999999999976
 30
0.0
 11
-2.499999999999964
 21
-8.499999999999976
 31
0.0
  0
ARC
  5
1B9
330
147
100
AcDbEntity
  8
Sketch Geometry(Ram)
370
    18
100
AcDbCircle
 10
-2.499999999999964
 20
-7.999999999999971
 30
0.0
 40
0.5
100
AcDbArc
 50
180.0
 51
270.0
  0
LINE
  5
1BA
330
147
100
AcDbEntity
  8
Sketch Geometry(Ram)
370
    18
100
AcDbLine
 10
1.000000000000013
 20
-4.999999999999981
 30
0.0
 11
2.5
 21
-5.0
 31
0.0
  0
ARC
  5
1BB
330
147
100
AcDbEntity
  8
Sketch Geometry(Ram)
370
    18
100
AcDbCircle
 10
1.000000000000013
 20
-5.499999999999988
 30
0.0
 40
0.5
100
AcDbArc
 50
90.0
 51
180.0
  0
LINE
  5
1BC
330
147
100
AcDbEntity
  8
Sketch Geometry(Ram)
370
    18
100
AcDbLine
 10
0.5000000000000071
 20
-7.999999999999971
 30
0.0
 11
0.5000000000000071
 21
-5.499999999999988
 31
0.0
  0
LINE
  5
1BD
330
147
100
AcDbEntity
  8
Sketch Geometry(Ram)
370
    18
100
AcDbLine
 10
3.000000000000006
 20
-5.499999999999988
 30
0.0
 11
3.000000000000006
 21
-7.999999999999971
 31
0.0
  0
ARC
  5
1BE
330
147
100
AcDbEntity
  8
Sketch Geometry(Ram)
370
    18
100
AcDbCircle
 10
2.5
 20
-5.499999999999988
 30
0.0
 40
0.5
100
AcDbArc
 50
0.0
 51
90.0
  0
ARC
  5
1BF
330
147
100
AcDbEntity
  8
Sketch Geometry(Ram)
370
    18
100
AcDbCircle
 10
2.5
 20
-7.999999999999971
 30
0.0
 40
0.5
100
AcDbArc
 50
270.0
 51
0.0
  0
LINE
  5
1C0
330
147
100
AcDbEntity
  8
Sketch Geometry(Ram)
370
    18
100
AcDbLine
 10
2.5
 20
-8.499999999999976
 30
0.0
 11
1.000000000000013
 21
-8.499999999999976
 31
0.0
  0
ARC
  5
1C1
330
147
100
AcDbEntity
  8
Sketch Geometry(Ram)
370
    18
100
AcDbCircle
 10
1.000000000000013
 20
-7.999999999999971
 30
0.0
 40
0.5
100
AcDbArc
 50
180.0
 51
270.0
  0
LINE
  5
1C2
330
147
100
AcDbEntity
  8
Sketch Geometry(Ram)
370
    18
100
AcDbLine
 10
4.499999999999992
 20
-4.999999999999981
 30
0.0
 11
5.999999999999976
 21
-5.0
 31
0.0
  0
ARC
  5
1C3
330
147
100
AcDbEntity
  8
Sketch Geometry(Ram)
370
    18
100
AcDbCircle
 10
4.499999999999992
 20
-5.499999999999988
 30
0.0
 40
0.5
100
AcDbArc
 50
90.0
 51
180.0
  0
LINE
  5
1C4
330
147
100
AcDbEntity
  8
Sketch Geometry(Ram)
370
    18
100
AcDbLine
 10
3.999999999999984
 20
-7.999999999999971
 30
0.0
 11
3.999999999999984
 21
-5.499999999999988
 31
0.0
  0
LINE
  5
1C5
330
147
100
AcDbEntity
  8
Sketch Geometry(Ram)
370
    18
100
AcDbLine
 10
6.499999999999985
 20
-5.499999999999988
 30
0.0
 11
6.499999999999985
 21
-7.999999999999971
 31
0.0
  0
ARC
  5
1C6
330
147
100
AcDbEntity
  8
Sketch Geometry(Ram)
370
    18
100
AcDbCircle
 10
5.999999999999976
 20
-5.499999999999988
 30
0.0
 40
0.5
100
AcDbArc
 50
0.0
 51
90.0
  0
ARC
  5
1C7
330
147
100
AcDbEntity
  8
Sketch Geometry(Ram)
370
    18
100
AcDbCircle
 10
5.999999999999976
 20
-7.999999999999971
 30
0.0
 40
0.5
100
AcDbArc
 50
270.0
 51
0.0
  0
LINE
  5
1C8
330
147
100
AcDbEntity
  8
Sketch Geometry(Ram)
370
    18
100
AcDbLine
 10
5.999999999999976
 20
-8.499999999999976
 30
0.0
 11
4.499999999999992
 21
-8.499999999999976
 31
0.0
  0
ARC
  5
1C9
330
147
100
AcDbEntity
  8
Sketch Geometry(Ram)
370
    18
100
AcDbCircle
 10
4.499999999999992
 20
-7.999999999999971
 30
0.0
 40
0.5
100
AcDbArc
 50
180.0
 51
270.0
  0
MTEXT
  5
1CA
330
147
100
AcDbEntity
  8
Symbols(Ram)
 62
     7
100
AcDbMText
 10
-5.999999999999943
 20
5.0
 30
0.0
 40
6.99999988079071
 41
0.0
 46
0.0
 71
     1
 72
     1
  1
\fArial|b1|i0;\H7.0000;16
  7
STD 2.5 ARIAL
 73
     1
 44
1.0
1001
ACAD
1000
MTEXTBEGIN
1070
    73
1070
     1
1070
    44
1040
1.0
1070
    74
1070
     0
1000
MTEXTEND
  0
MTEXT
  5
1CB
330
147
100
AcDbEntity
  8
Symbols(Ram)
 62
     7
100
AcDbMText
 10
-0.0510837138014608
 20
-10.57935449735255
 30
0.0
 40
1.49859994649887
 41
13.03165197372436
 46
0.0
 71
     2
 72
     1
  1
\fArial|b0|i0;\H1.4986;SKIN PACK 140 X 100mm
  7
STD 2.5 ARIAL
 73
     2
 44
0.9442214369773862
1001
ACAD
1000
MTEXTBEGIN
1070
    73
1070
     2
1070
    44
1040
0.9442214369773862
1070
    74
1070
     0
1000
MTEXTEND
  0
ENDBLK
  5
149
330
147
100
AcDbEntity
  8
0
100
AcDbBlockEnd
  0
BLOCK
  5
1CD
330
1CC
100
AcDbEntity
  8
0
100
AcDbBlockBegin
  2
2 UP
 70
     0
 10
0.0
 20
0.0
 30
0.0
  3
2 UP
  1

  0
LINE
  5
1CF
330
1CC
100
AcDbEntity
  8
Sketch Geometry(Ram)
370
    18
100
AcDbLine
 10
5.999999999999996
 20
-8.500000000000012
 30
0.0
 11
-5.999999999999996
 21
-8.500000000000012
 31
0.0
  0
LINE
  5
1D0
330
1CC
100
AcDbEntity
  8
Sketch Geometry(Ram)
370
    18
100
AcDbLine
 10
-6.499999999999993
 20
-7.999999999999988
 30
0.0
 11
-6.500000000000013
 21
-0.9999999999999964
 31
0.0
  0
LINE
  5
1D1
330
1CC
100
AcDbEntity
  8
Sketch Geometry(Ram)
370
    18
100
AcDbLine
 10
-6.000000000000004
 20
-0.4999999999999895
 30
0.0
 11
5.999999999999996
 21
-0.4999999999999895
 31
0.0
  0
LINE
  5
1D2
330
1CC
100
AcDbEntity
  8
Sketch Geometry(Ram)
370
    18
100
AcDbLine
 10
6.499999999999993
 20
-0.9999999999999964
 30
0.0
 11
6.499999999999993
 21
-7.999999999999988
 31
0.0
  0
ARC
  5
1D3
330
1CC
100
AcDbEntity
  8
Sketch Geometry(Ram)
370
    18
100
AcDbCircle
 10
-6.000000000000004
 20
-0.9999999999999964
 30
0.0
 40
0.5
100
AcDbArc
 50
90.0
 51
180.0
  0
ARC
  5
1D4
330
1CC
100
AcDbEntity
  8
Sketch Geometry(Ram)
370
    18
100
AcDbCircle
 10
5.999999999999996
 20
-0.9999999999999964
 30
0.0
 40
0.5
100
AcDbArc
 50
0.0
 51
90.0
  0
ARC
  5
1D5
330
1CC
100
AcDbEntity
  8
Sketch Geometry(Ram)
370
    18
100
AcDbCircle
 10
5.999999999999996
 20
-7.999999999999988
 30
0.0
 40
0.5
100
AcDbArc
 50
270.0
 51
0.0
  0
ARC
  5
1D6
330
1CC
100
AcDbEntity
  8
Sketch Geometry(Ram)
370
    18
100
AcDbCircle
 10
-6.000000000000004
 20
-7.999999999999988
 30
0.0
 40
0.5
100
AcDbArc
 50
180.0
 51
270.0
  0
LINE
  5
1D7
330
1CC
100
AcDbEntity
  8
Sketch Geometry(Ram)
370
    18
100
AcDbLine
 10
-6.499999999999993
 20
1.000000000000013
 30
0.0
 11
-6.500000000000013
 21
8.000000000000008
 31
0.0
  0
LINE
  5
1D8
330
1CC
100
AcDbEntity
  8
Sketch Geometry(Ram)
370
    18
100
AcDbLine
 10
-6.000000000000004
 20
8.500000000000012
 30
0.0
 11
5.999999999999996
 21
8.500000000000012
 31
0.0
  0
ARC
  5
1D9
330
1CC
100
AcDbEntity
  8
Sketch Geometry(Ram)
370
    18
100
AcDbCircle
 10
-6.000000000000004
 20
8.000000000000008
 30
0.0
 40
0.5
100
AcDbArc
 50
90.0
 51
180.0
  0
ARC
  5
1DA
330
1CC
100
AcDbEntity
  8
Sketch Geometry(Ram)
370
    18
100
AcDbCircle
 10
-6.000000000000004
 20
1.000000000000013
 30
0.0
 40
0.5
100
AcDbArc
 50
180.0
 51
270.0
  0
LINE
  5
1DB
330
1CC
100
AcDbEntity
  8
Sketch Geometry(Ram)
370
    18
100
AcDbLine
 10
5.999999999999996
 20
0.4999999999999895
 30
0.0
 11
-5.999999999999996
 21
0.4999999999999895
 31
0.0
  0
LINE
  5
1DC
330
1CC
100
AcDbEntity
  8
Sketch Geometry(Ram)
370
    18
100
AcDbLine
 10
6.499999999999993
 20
8.000000000000008
 30
0.0
 11
6.499999999999993
 21
1.000000000000013
 31
0.0
  0
ARC
  5
1DD
330
1CC
100
AcDbEntity
  8
Sketch Geometry(Ram)
370
    18
100
AcDbCircle
 10
5.999999999999996
 20
8.000000000000008
 30
0.0
 40
0.5
100
AcDbArc
 50
0.0
 51
90.0
  0
ARC
  5
1DE
330
1CC
100
AcDbEntity
  8
Sketch Geometry(Ram)
370
    18
100
AcDbCircle
 10
5.999999999999996
 20
1.000000000000013
 30
0.0
 40
0.5
100
AcDbArc
 50
270.0
 51
0.0
  0
MTEXT
  5
1DF
330
1CC
100
AcDbEntity
  8
Symbols(Ram)
 62
     7
100
AcDbMText
 10
-2.693369958193557
 20
3.877714748987841
 30
0.0
 40
6.99999988079071
 41
0.0
 46
0.0
 71
     1
 72
     1
  1
\fArial|b1|i0;\H7.0000;2
  7
STD 2.5 ARIAL
 73
     1
 44
1.0
1001
ACAD
1000
MTEXTBEGIN
1070
    73
1070
     1
1070
    44
1040
1.0
1070
    74
1070
     0
1000
MTEXTEND
  0
MTEXT
  5
1E0
330
1CC
100
AcDbEntity
  8
Symbols(Ram)
 62
     7
100
AcDbMText
 10
-0.1943525311948591
 20
-10.85544927742214
 30
0.0
 40
1.49859994649887
 41
12.69037379631852
 46
0.0
 71
     2
 72
     1
  1
\fArial|b0|i0;\H1.4986;SKIN PACK 435 x 290mm
  7
STD 2.5 ARIAL
 73
     2
 44
0.9442214369773862
1001
ACAD
1000
MTEXTBEGIN
1070
    73
1070
     2
1070
    44
1040
0.9442214369773862
1070
    74
1070
     0
1000
MTEXTEND
  0
ENDBLK
  5
1CE
330
1CC
100
AcDbEntity
  8
0
100
AcDbBlockEnd
  0
BLOCK
  5
1E2
330
1E1
100
AcDbEntity
  8
0
100
AcDbBlockBegin
  2
4 UP
 70
     0
 10
0.0
 20
0.0
 30
0.0
  3
4 UP
  1

  0
LINE
  5
1E4
330
1E1
100
AcDbEntity
  8
Sketch Geometry(Ram)
370
    18
100
AcDbLine
 10
-1.000000000000005
 20
0.5000000000000071
 30
0.0
 11
-6.000000000000004
 21
0.5000000000000071
 31
0.0
  0
LINE
  5
1E5
330
1E1
100
AcDbEntity
  8
Sketch Geometry(Ram)
370
    18
100
AcDbLine
 10
-6.500000000000002
 20
1.00000000000003
 30
0.0
 11
-6.500000000000021
 21
8.000000000000042
 31
0.0
  0
LINE
  5
1E6
330
1E1
100
AcDbEntity
  8
Sketch Geometry(Ram)
370
    18
100
AcDbLine
 10
-6.000000000000004
 20
8.500000000000012
 30
0.0
 11
-1.000000000000005
 21
8.500000000000012
 31
0.0
  0
LINE
  5
1E7
330
1E1
100
AcDbEntity
  8
Sketch Geometry(Ram)
370
    18
100
AcDbLine
 10
-0.5000000000000071
 20
8.000000000000023
 30
0.0
 11
-0.5000000000000071
 21
1.00000000000003
 31
0.0
  0
ARC
  5
1E8
330
1E1
100
AcDbEntity
  8
Sketch Geometry(Ram)
370
    18
100
AcDbCircle
 10
-6.000000000000004
 20
8.000000000000023
 30
0.0
 40
0.5
100
AcDbArc
 50
90.0
 51
180.0
  0
ARC
  5
1E9
330
1E1
100
AcDbEntity
  8
Sketch Geometry(Ram)
370
    18
100
AcDbCircle
 10
-1.000000000000005
 20
8.000000000000023
 30
0.0
 40
0.5
100
AcDbArc
 50
0.0
 51
90.0
  0
ARC
  5
1EA
330
1E1
100
AcDbEntity
  8
Sketch Geometry(Ram)
370
    18
100
AcDbCircle
 10
-1.000000000000005
 20
1.00000000000003
 30
0.0
 40
0.5
100
AcDbArc
 50
270.0
 51
0.0
  0
ARC
  5
1EB
330
1E1
100
AcDbEntity
  8
Sketch Geometry(Ram)
370
    18
100
AcDbCircle
 10
-6.000000000000004
 20
1.00000000000003
 30
0.0
 40
0.5
100
AcDbArc
 50
180.0
 51
270.0
  0
LINE
  5
1EC
330
1E1
100
AcDbEntity
  8
Sketch Geometry(Ram)
370
    18
100
AcDbLine
 10
0.9999999999999964
 20
8.500000000000012
 30
0.0
 11
5.999999999999996
 21
8.500000000000012
 31
0.0
  0
ARC
  5
1ED
330
1E1
100
AcDbEntity
  8
Sketch Geometry(Ram)
370
    18
100
AcDbCircle
 10
0.9999999999999964
 20
8.000000000000023
 30
0.0
 40
0.5
100
AcDbArc
 50
90.0
 51
180.0
  0
LINE
  5
1EE
330
1E1
100
AcDbEntity
  8
Sketch Geometry(Ram)
370
    18
100
AcDbLine
 10
0.4999999999999984
 20
1.00000000000003
 30
0.0
 11
0.4999999999999806
 21
8.000000000000042
 31
0.0
  0
LINE
  5
1EF
330
1E1
100
AcDbEntity
  8
Sketch Geometry(Ram)
370
    18
100
AcDbLine
 10
6.499999999999993
 20
8.000000000000023
 30
0.0
 11
6.499999999999993
 21
1.00000000000003
 31
0.0
  0
ARC
  5
1F0
330
1E1
100
AcDbEntity
  8
Sketch Geometry(Ram)
370
    18
100
AcDbCircle
 10
5.999999999999996
 20
8.000000000000023
 30
0.0
 40
0.5
100
AcDbArc
 50
0.0
 51
90.0
  0
ARC
  5
1F1
330
1E1
100
AcDbEntity
  8
Sketch Geometry(Ram)
370
    18
100
AcDbCircle
 10
5.999999999999996
 20
1.00000000000003
 30
0.0
 40
0.5
100
AcDbArc
 50
270.0
 51
0.0
  0
LINE
  5
1F2
330
1E1
100
AcDbEntity
  8
Sketch Geometry(Ram)
370
    18
100
AcDbLine
 10
5.999999999999996
 20
0.5000000000000071
 30
0.0
 11
0.9999999999999964
 21
0.5000000000000071
 31
0.0
  0
ARC
  5
1F3
330
1E1
100
AcDbEntity
  8
Sketch Geometry(Ram)
370
    18
100
AcDbCircle
 10
0.9999999999999964
 20
1.00000000000003
 30
0.0
 40
0.5
100
AcDbArc
 50
180.0
 51
270.0
  0
LINE
  5
1F4
330
1E1
100
AcDbEntity
  8
Sketch Geometry(Ram)
370
    18
100
AcDbLine
 10
-6.000000000000004
 20
-0.4999999999999895
 30
0.0
 11
-1.000000000000005
 21
-0.5000000000000071
 31
0.0
  0
ARC
  5
1F5
330
1E1
100
AcDbEntity
  8
Sketch Geometry(Ram)
370
    18
100
AcDbCircle
 10
-6.000000000000004
 20
-1.000000000000013
 30
0.0
 40
0.5
100
AcDbArc
 50
90.0
 51
180.0
  0
LINE
  5
1F6
330
1E1
100
AcDbEntity
  8
Sketch Geometry(Ram)
370
    18
100
AcDbLine
 10
-6.500000000000002
 20
-7.999999999999988
 30
0.0
 11
-6.500000000000013
 21
-1.000000000000013
 31
0.0
  0
LINE
  5
1F7
330
1E1
100
AcDbEntity
  8
Sketch Geometry(Ram)
370
    18
100
AcDbLine
 10
-0.5000000000000071
 20
-0.9999999999999964
 30
0.0
 11
-0.5000000000000071
 21
-7.999999999999988
 31
0.0
  0
ARC
  5
1F8
330
1E1
100
AcDbEntity
  8
Sketch Geometry(Ram)
370
    18
100
AcDbCircle
 10
-1.000000000000005
 20
-0.9999999999999964
 30
0.0
 40
0.5
100
AcDbArc
 50
0.0
 51
90.0
  0
ARC
  5
1F9
330
1E1
100
AcDbEntity
  8
Sketch Geometry(Ram)
370
    18
100
AcDbCircle
 10
-1.000000000000005
 20
-7.999999999999988
 30
0.0
 40
0.5
100
AcDbArc
 50
270.0
 51
0.0
  0
LINE
  5
1FA
330
1E1
100
AcDbEntity
  8
Sketch Geometry(Ram)
370
    18
100
AcDbLine
 10
-1.000000000000005
 20
-8.500000000000012
 30
0.0
 11
-6.000000000000004
 21
-8.500000000000012
 31
0.0
  0
ARC
  5
1FB
330
1E1
100
AcDbEntity
  8
Sketch Geometry(Ram)
370
    18
100
AcDbCircle
 10
-6.000000000000004
 20
-7.999999999999988
 30
0.0
 40
0.5
100
AcDbArc
 50
180.0
 51
270.0
  0
LINE
  5
1FC
330
1E1
100
AcDbEntity
  8
Sketch Geometry(Ram)
370
    18
100
AcDbLine
 10
0.9999999999999964
 20
-0.4999999999999895
 30
0.0
 11
5.999999999999996
 21
-0.5000000000000071
 31
0.0
  0
ARC
  5
1FD
330
1E1
100
AcDbEntity
  8
Sketch Geometry(Ram)
370
    18
100
AcDbCircle
 10
0.9999999999999964
 20
-0.9999999999999785
 30
0.0
 40
0.5
100
AcDbArc
 50
90.0
 51
180.0
  0
LINE
  5
1FE
330
1E1
100
AcDbEntity
  8
Sketch Geometry(Ram)
370
    18
100
AcDbLine
 10
0.4999999999999984
 20
-7.999999999999988
 30
0.0
 11
0.4999999999999806
 21
-0.9999999999999607
 31
0.0
  0
LINE
  5
1FF
330
1E1
100
AcDbEntity
  8
Sketch Geometry(Ram)
370
    18
100
AcDbLine
 10
6.499999999999993
 20
-0.9999999999999964
 30
0.0
 11
6.499999999999993
 21
-7.999999999999988
 31
0.0
  0
ARC
  5
200
330
1E1
100
AcDbEntity
  8
Sketch Geometry(Ram)
370
    18
100
AcDbCircle
 10
5.999999999999996
 20
-0.9999999999999964
 30
0.0
 40
0.5
100
AcDbArc
 50
0.0
 51
90.0
  0
ARC
  5
201
330
1E1
100
AcDbEntity
  8
Sketch Geometry(Ram)
370
    18
100
AcDbCircle
 10
5.999999999999996
 20
-7.999999999999988
 30
0.0
 40
0.5
100
AcDbArc
 50
270.0
 51
0.0
  0
LINE
  5
202
330
1E1
100
AcDbEntity
  8
Sketch Geometry(Ram)
370
    18
100
AcDbLine
 10
5.999999999999996
 20
-8.500000000000012
 30
0.0
 11
0.9999999999999964
 21
-8.500000000000012
 31
0.0
  0
ARC
  5
203
330
1E1
100
AcDbEntity
  8
Sketch Geometry(Ram)
370
    18
100
AcDbCircle
 10
0.9999999999999964
 20
-7.999999999999988
 30
0.0
 40
0.5
100
AcDbArc
 50
180.0
 51
270.0
  0
MTEXT
  5
204
330
1E1
100
AcDbEntity
  8
Symbols(Ram)
 62
     7
100
AcDbMText
 10
-3.285501171173564
 20
3.819317278035381
 30
0.0
 40
6.99999988079071
 41
0.0
 46
0.0
 71
     1
 72
     1
  1
\fArial|b1|i0;\H7.0000;4
  7
STD 2.5 ARIAL
 73
     1
 44
1.0
1001
ACAD
1000
MTEXTBEGIN
1070
    73
1070
     1
1070
    44
1040
1.0
1070
    74
1070
     0
1000
MTEXTEND
  0
MTEXT
  5
205
330
1E1
100
AcDbEntity
  8
Symbols(Ram)
 62
     7
100
AcDbMText
 10
0.0818006588334175
 20
-11.29726315604326
 30
0.0
 40
1.49859994649887
 41
12.69037379631852
 46
0.0
 71
     2
 72
     1
  1
\fArial|b0|i0;\H1.4986;SKIN PACK 290 x 210mm
  7
STD 2.5 ARIAL
 73
     2
 44
0.9442214369773862
1001
ACAD
1000
MTEXTBEGIN
1070
    73
1070
     2
1070
    44
1040
0.9442214369773862
1070
    74
1070
     0
1000
MTEXTEND
  0
ENDBLK
  5
1E3
330
1E1
100
AcDbEntity
  8
0
100
AcDbBlockEnd
  0
BLOCK
  5
207
330
206
100
AcDbEntity
  8
0
100
AcDbBlockBegin
  2
6 UP
 70
     0
 10
0.0
 20
0.0
 30
0.0
  3
6 UP
  1

  0
LINE
  5
209
330
206
100
AcDbEntity
  8
Sketch Geometry(Ram)
370
    18
100
AcDbLine
 10
-1.000000000000005
 20
3.499999999999996
 30
0.0
 11
-6.000000000000004
 21
3.499999999999996
 31
0.0
  0
LINE
  5
20A
330
206
100
AcDbEntity
  8
Sketch Geometry(Ram)
370
    18
100
AcDbLine
 10
-6.499999999999993
 20
4.000000000000021
 30
0.0
 11
-6.500000000000002
 21
8.000000000000008
 31
0.0
  0
LINE
  5
20B
330
206
100
AcDbEntity
  8
Sketch Geometry(Ram)
370
    18
100
AcDbLine
 10
-5.999999999999996
 20
8.500000000000012
 30
0.0
 11
-1.000000000000005
 21
8.50000000000003
 31
0.0
  0
LINE
  5
20C
330
206
100
AcDbEntity
  8
Sketch Geometry(Ram)
370
    18
100
AcDbLine
 10
-0.5000000000000071
 20
8.000000000000008
 30
0.0
 11
-0.5000000000000071
 21
4.000000000000021
 31
0.0
  0
ARC
  5
20D
330
206
100
AcDbEntity
  8
Sketch Geometry(Ram)
370
    18
100
AcDbCircle
 10
-5.999999999999996
 20
8.000000000000008
 30
0.0
 40
0.5
100
AcDbArc
 50
90.0
 51
180.0
  0
ARC
  5
20E
330
206
100
AcDbEntity
  8
Sketch Geometry(Ram)
370
    18
100
AcDbCircle
 10
-0.9999999999999964
 20
8.000000000000008
 30
0.0
 40
0.5
100
AcDbArc
 50
0.0
 51
90.0
  0
ARC
  5
20F
330
206
100
AcDbEntity
  8
Sketch Geometry(Ram)
370
    18
100
AcDbCircle
 10
-0.9999999999999964
 20
4.000000000000021
 30
0.0
 40
0.5
100
AcDbArc
 50
270.0
 51
0.0
  0
ARC
  5
210
330
206
100
AcDbEntity
  8
Sketch Geometry(Ram)
370
    18
100
AcDbCircle
 10
-6.000000000000004
 20
4.000000000000021
 30
0.0
 40
0.5
100
AcDbArc
 50
180.0
 51
270.0
  0
LINE
  5
211
330
206
100
AcDbEntity
  8
Sketch Geometry(Ram)
370
    18
100
AcDbLine
 10
1.000000000000005
 20
8.500000000000012
 30
0.0
 11
5.999999999999996
 21
8.50000000000003
 31
0.0
  0
ARC
  5
212
330
206
100
AcDbEntity
  8
Sketch Geometry(Ram)
370
    18
100
AcDbCircle
 10
1.000000000000005
 20
8.000000000000008
 30
0.0
 40
0.5
100
AcDbArc
 50
90.0
 51
180.0
  0
LINE
  5
213
330
206
100
AcDbEntity
  8
Sketch Geometry(Ram)
370
    18
100
AcDbLine
 10
5.999999999999996
 20
3.499999999999996
 30
0.0
 11
0.9999999999999964
 21
3.499999999999996
 31
0.0
  0
ARC
  5
214
330
206
100
AcDbEntity
  8
Sketch Geometry(Ram)
370
    18
100
AcDbCircle
 10
0.9999999999999964
 20
4.000000000000021
 30
0.0
 40
0.5
100
AcDbArc
 50
180.0
 51
270.0
  0
LINE
  5
215
330
206
100
AcDbEntity
  8
Sketch Geometry(Ram)
370
    18
100
AcDbLine
 10
0.5000000000000071
 20
4.000000000000021
 30
0.0
 11
0.4999999999999984
 21
8.000000000000008
 31
0.0
  0
LINE
  5
216
330
206
100
AcDbEntity
  8
Sketch Geometry(Ram)
370
    18
100
AcDbLine
 10
6.499999999999993
 20
8.000000000000008
 30
0.0
 11
6.499999999999993
 21
4.000000000000021
 31
0.0
  0
ARC
  5
217
330
206
100
AcDbEntity
  8
Sketch Geometry(Ram)
370
    18
100
AcDbCircle
 10
6.000000000000004
 20
8.000000000000008
 30
0.0
 40
0.5
100
AcDbArc
 50
0.0
 51
90.0
  0
ARC
  5
218
330
206
100
AcDbEntity
  8
Sketch Geometry(Ram)
370
    18
100
AcDbCircle
 10
6.000000000000004
 20
4.000000000000021
 30
0.0
 40
0.5
100
AcDbArc
 50
270.0
 51
0.0
  0
LINE
  5
219
330
206
100
AcDbEntity
  8
Sketch Geometry(Ram)
370
    18
100
AcDbLine
 10
-5.999999999999996
 20
2.500000000000016
 30
0.0
 11
-1.000000000000005
 21
2.500000000000035
 31
0.0
  0
ARC
  5
21A
330
206
100
AcDbEntity
  8
Sketch Geometry(Ram)
370
    18
100
AcDbCircle
 10
-5.999999999999996
 20
2.00000000000001
 30
0.0
 40
0.5
100
AcDbArc
 50
90.0
 51
180.0
  0
LINE
  5
21B
330
206
100
AcDbEntity
  8
Sketch Geometry(Ram)
370
    18
100
AcDbLine
 10
-1.000000000000005
 20
-2.5
 30
0.0
 11
-6.000000000000004
 21
-2.5
 31
0.0
  0
ARC
  5
21C
330
206
100
AcDbEntity
  8
Sketch Geometry(Ram)
370
    18
100
AcDbCircle
 10
-6.000000000000004
 20
-1.999999999999974
 30
0.0
 40
0.5
100
AcDbArc
 50
180.0
 51
270.0
  0
LINE
  5
21D
330
206
100
AcDbEntity
  8
Sketch Geometry(Ram)
370
    18
100
AcDbLine
 10
-6.499999999999993
 20
-1.999999999999974
 30
0.0
 11
-6.500000000000002
 21
2.00000000000001
 31
0.0
  0
LINE
  5
21E
330
206
100
AcDbEntity
  8
Sketch Geometry(Ram)
370
    18
100
AcDbLine
 10
-0.5000000000000071
 20
2.00000000000001
 30
0.0
 11
-0.5000000000000071
 21
-1.999999999999974
 31
0.0
  0
ARC
  5
21F
330
206
100
AcDbEntity
  8
Sketch Geometry(Ram)
370
    18
100
AcDbCircle
 10
-0.9999999999999964
 20
2.00000000000001
 30
0.0
 40
0.5
100
AcDbArc
 50
0.0
 51
90.0
  0
ARC
  5
220
330
206
100
AcDbEntity
  8
Sketch Geometry(Ram)
370
    18
100
AcDbCircle
 10
-0.9999999999999964
 20
-1.999999999999974
 30
0.0
 40
0.5
100
AcDbArc
 50
270.0
 51
0.0
  0
LINE
  5
221
330
206
100
AcDbEntity
  8
Sketch Geometry(Ram)
370
    18
100
AcDbLine
 10
1.000000000000005
 20
2.500000000000016
 30
0.0
 11
5.999999999999996
 21
2.500000000000035
 31
0.0
  0
ARC
  5
222
330
206
100
AcDbEntity
  8
Sketch Geometry(Ram)
370
    18
100
AcDbCircle
 10
1.000000000000005
 20
2.00000000000001
 30
0.0
 40
0.5
100
AcDbArc
 50
90.0
 51
180.0
  0
LINE
  5
223
330
206
100
AcDbEntity
  8
Sketch Geometry(Ram)
370
    18
100
AcDbLine
 10
5.999999999999996
 20
-2.5
 30
0.0
 11
0.9999999999999964
 21
-2.5
 31
0.0
  0
ARC
  5
224
330
206
100
AcDbEntity
  8
Sketch Geometry(Ram)
370
    18
100
AcDbCircle
 10
0.9999999999999964
 20
-1.999999999999974
 30
0.0
 40
0.5
100
AcDbArc
 50
180.0
 51
270.0
  0
LINE
  5
225
330
206
100
AcDbEntity
  8
Sketch Geometry(Ram)
370
    18
100
AcDbLine
 10
0.5000000000000071
 20
-1.999999999999974
 30
0.0
 11
0.4999999999999984
 21
2.00000000000001
 31
0.0
  0
LINE
  5
226
330
206
100
AcDbEntity
  8
Sketch Geometry(Ram)
370
    18
100
AcDbLine
 10
6.499999999999993
 20
2.00000000000001
 30
0.0
 11
6.499999999999993
 21
-1.999999999999974
 31
0.0
  0
ARC
  5
227
330
206
100
AcDbEntity
  8
Sketch Geometry(Ram)
370
    18
100
AcDbCircle
 10
6.000000000000004
 20
2.00000000000001
 30
0.0
 40
0.5
100
AcDbArc
 50
0.0
 51
90.0
  0
ARC
  5
228
330
206
100
AcDbEntity
  8
Sketch Geometry(Ram)
370
    18
100
AcDbCircle
 10
6.000000000000004
 20
-1.999999999999974
 30
0.0
 40
0.5
100
AcDbArc
 50
270.0
 51
0.0
  0
LINE
  5
229
330
206
100
AcDbEntity
  8
Sketch Geometry(Ram)
370
    18
100
AcDbLine
 10
-5.999999999999996
 20
-3.499999999999996
 30
0.0
 11
-1.000000000000005
 21
-3.49999999999996
 31
0.0
  0
ARC
  5
22A
330
206
100
AcDbEntity
  8
Sketch Geometry(Ram)
370
    18
100
AcDbCircle
 10
-5.999999999999996
 20
-4.000000000000002
 30
0.0
 40
0.5
100
AcDbArc
 50
90.0
 51
180.0
  0
LINE
  5
22B
330
206
100
AcDbEntity
  8
Sketch Geometry(Ram)
370
    18
100
AcDbLine
 10
-1.000000000000005
 20
-8.499999999999996
 30
0.0
 11
-6.000000000000004
 21
-8.499999999999996
 31
0.0
  0
ARC
  5
22C
330
206
100
AcDbEntity
  8
Sketch Geometry(Ram)
370
    18
100
AcDbCircle
 10
-6.000000000000004
 20
-7.999999999999988
 30
0.0
 40
0.5
100
AcDbArc
 50
180.0
 51
270.0
  0
LINE
  5
22D
330
206
100
AcDbEntity
  8
Sketch Geometry(Ram)
370
    18
100
AcDbLine
 10
-6.499999999999993
 20
-7.999999999999988
 30
0.0
 11
-6.500000000000002
 21
-4.000000000000002
 31
0.0
  0
LINE
  5
22E
330
206
100
AcDbEntity
  8
Sketch Geometry(Ram)
370
    18
100
AcDbLine
 10
-0.5000000000000071
 20
-4.000000000000002
 30
0.0
 11
-0.5000000000000071
 21
-7.999999999999988
 31
0.0
  0
ARC
  5
22F
330
206
100
AcDbEntity
  8
Sketch Geometry(Ram)
370
    18
100
AcDbCircle
 10
-0.9999999999999964
 20
-4.000000000000002
 30
0.0
 40
0.5
100
AcDbArc
 50
0.0
 51
90.0
  0
ARC
  5
230
330
206
100
AcDbEntity
  8
Sketch Geometry(Ram)
370
    18
100
AcDbCircle
 10
-0.9999999999999964
 20
-7.999999999999988
 30
0.0
 40
0.5
100
AcDbArc
 50
270.0
 51
0.0
  0
LINE
  5
231
330
206
100
AcDbEntity
  8
Sketch Geometry(Ram)
370
    18
100
AcDbLine
 10
1.000000000000005
 20
-3.499999999999977
 30
0.0
 11
5.999999999999996
 21
-3.49999999999996
 31
0.0
  0
ARC
  5
232
330
206
100
AcDbEntity
  8
Sketch Geometry(Ram)
370
    18
100
AcDbCircle
 10
1.000000000000005
 20
-3.999999999999984
 30
0.0
 40
0.5
100
AcDbArc
 50
90.0
 51
180.0
  0
LINE
  5
233
330
206
100
AcDbEntity
  8
Sketch Geometry(Ram)
370
    18
100
AcDbLine
 10
5.999999999999996
 20
-8.499999999999996
 30
0.0
 11
0.9999999999999964
 21
-8.499999999999996
 31
0.0
  0
ARC
  5
234
330
206
100
AcDbEntity
  8
Sketch Geometry(Ram)
370
    18
100
AcDbCircle
 10
0.9999999999999964
 20
-7.999999999999971
 30
0.0
 40
0.5
100
AcDbArc
 50
180.0
 51
270.0
  0
LINE
  5
235
330
206
100
AcDbEntity
  8
Sketch Geometry(Ram)
370
    18
100
AcDbLine
 10
0.5000000000000071
 20
-7.999999999999971
 30
0.0
 11
0.4999999999999984
 21
-3.999999999999984
 31
0.0
  0
LINE
  5
236
330
206
100
AcDbEntity
  8
Sketch Geometry(Ram)
370
    18
100
AcDbLine
 10
6.499999999999993
 20
-3.999999999999984
 30
0.0
 11
6.499999999999993
 21
-7.999999999999971
 31
0.0
  0
ARC
  5
237
330
206
100
AcDbEntity
  8
Sketch Geometry(Ram)
370
    18
100
AcDbCircle
 10
6.000000000000004
 20
-3.999999999999984
 30
0.0
 40
0.5
100
AcDbArc
 50
0.0
 51
90.0
  0
ARC
  5
238
330
206
100
AcDbEntity
  8
Sketch Geometry(Ram)
370
    18
100
AcDbCircle
 10
6.000000000000004
 20
-7.999999999999971
 30
0.0
 40
0.5
100
AcDbArc
 50
270.0
 51
0.0
  0
MTEXT
  5
239
330
206
100
AcDbEntity
  8
Symbols(Ram)
 62
     7
100
AcDbMText
 10
-2.501412751660002
 20
4.308296391833169
 30
0.0
 40
6.99999988079071
 41
0.0
 46
0.0
 71
     1
 72
     1
  1
\fArial|b1|i0;\H7.0000;6
  7
STD 2.5 ARIAL
 73
     1
 44
1.0
1001
ACAD
1000
MTEXTBEGIN
1070
    73
1070
     1
1070
    44
1040
1.0
1070
    74
1070
     0
1000
MTEXTEND
  0
MTEXT
  5
23A
330
206
100
AcDbEntity
  8
Symbols(Ram)
 62
     7
100
AcDbMText
 10
-0.1522701282913097
 20
-9.87539018147526
 30
0.0
 40
1.49859994649887
 41
13.03165197372436
 46
0.0
 71
     2
 72
     1
  1
\fArial|b0|i0;\H1.4986;SKIN PACK 210 X 190mm
  7
STD 2.5 ARIAL
 73
     2
 44
0.9442214369773862
1001
ACAD
1000
MTEXTBEGIN
1070
    73
1070
     2
1070
    44
1040
0.9442214369773862
1070
    74
1070
     0
1000
MTEXTEND
  0
ENDBLK
  5
208
330
206
100
AcDbEntity
  8
0
100
AcDbBlockEnd
  0
BLOCK
  5
23C
330
23B
100
AcDbEntity
  8
0
100
AcDbBlockBegin
  2
8 UP
 70
     0
 10
0.0
 20
0.0
 30
0.0
  3
8 UP
  1

  0
LINE
  5
23E
330
23B
100
AcDbEntity
  8
Sketch Geometry(Ram)
370
    18
100
AcDbLine
 10
-4.499999999999992
 20
0.5000000000000071
 30
0.0
 11
-5.999999999999996
 21
0.4999999999999895
 31
0.0
  0
LINE
  5
23F
330
23B
100
AcDbEntity
  8
Sketch Geometry(Ram)
370
    18
100
AcDbLine
 10
-6.499999999999985
 20
1.000000000000013
 30
0.0
 11
-6.499999999999993
 21
8.000000000000023
 31
0.0
  0
LINE
  5
240
330
23B
100
AcDbEntity
  8
Sketch Geometry(Ram)
370
    18
100
AcDbLine
 10
-5.999999999999996
 20
8.500000000000012
 30
0.0
 11
-4.499999999999992
 21
8.500000000000012
 31
0.0
  0
LINE
  5
241
330
23B
100
AcDbEntity
  8
Sketch Geometry(Ram)
370
    18
100
AcDbLine
 10
-4.000000000000002
 20
8.000000000000008
 30
0.0
 11
-4.000000000000002
 21
1.000000000000013
 31
0.0
  0
ARC
  5
242
330
23B
100
AcDbEntity
  8
Sketch Geometry(Ram)
370
    18
100
AcDbCircle
 10
-5.999999999999996
 20
8.000000000000023
 30
0.0
 40
0.5
100
AcDbArc
 50
90.0
 51
180.0
  0
ARC
  5
243
330
23B
100
AcDbEntity
  8
Sketch Geometry(Ram)
370
    18
100
AcDbCircle
 10
-4.499999999999992
 20
8.000000000000008
 30
0.0
 40
0.5
100
AcDbArc
 50
0.0
 51
90.0
  0
ARC
  5
244
330
23B
100
AcDbEntity
  8
Sketch Geometry(Ram)
370
    18
100
AcDbCircle
 10
-4.499999999999992
 20
1.000000000000013
 30
0.0
 40
0.5
100
AcDbArc
 50
270.0
 51
0.0
  0
ARC
  5
245
330
23B
100
AcDbEntity
  8
Sketch Geometry(Ram)
370
    18
100
AcDbCircle
 10
-5.999999999999996
 20
1.000000000000013
 30
0.0
 40
0.5
100
AcDbArc
 50
180.0
 51
270.0
  0
LINE
  5
246
330
23B
100
AcDbEntity
  8
Sketch Geometry(Ram)
370
    18
100
AcDbLine
 10
-2.5
 20
8.500000000000012
 30
0.0
 11
-0.9999999999999964
 21
8.500000000000012
 31
0.0
  0
ARC
  5
247
330
23B
100
AcDbEntity
  8
Sketch Geometry(Ram)
370
    18
100
AcDbCircle
 10
-2.5
 20
8.000000000000023
 30
0.0
 40
0.5
100
AcDbArc
 50
90.0
 51
180.0
  0
LINE
  5
248
330
23B
100
AcDbEntity
  8
Sketch Geometry(Ram)
370
    18
100
AcDbLine
 10
-2.999999999999988
 20
1.000000000000013
 30
0.0
 11
-2.999999999999998
 21
8.000000000000023
 31
0.0
  0
LINE
  5
249
330
23B
100
AcDbEntity
  8
Sketch Geometry(Ram)
370
    18
100
AcDbLine
 10
-0.5000000000000071
 20
8.000000000000008
 30
0.0
 11
-0.5000000000000071
 21
1.000000000000013
 31
0.0
  0
ARC
  5
24A
330
23B
100
AcDbEntity
  8
Sketch Geometry(Ram)
370
    18
100
AcDbCircle
 10
-0.9999999999999964
 20
8.000000000000008
 30
0.0
 40
0.5
100
AcDbArc
 50
0.0
 51
90.0
  0
ARC
  5
24B
330
23B
100
AcDbEntity
  8
Sketch Geometry(Ram)
370
    18
100
AcDbCircle
 10
-0.9999999999999964
 20
1.000000000000013
 30
0.0
 40
0.5
100
AcDbArc
 50
270.0
 51
0.0
  0
LINE
  5
24C
330
23B
100
AcDbEntity
  8
Sketch Geometry(Ram)
370
    18
100
AcDbLine
 10
-0.9999999999999964
 20
0.5000000000000071
 30
0.0
 11
-2.5
 21
0.4999999999999895
 31
0.0
  0
ARC
  5
24D
330
23B
100
AcDbEntity
  8
Sketch Geometry(Ram)
370
    18
100
AcDbCircle
 10
-2.5
 20
1.000000000000013
 30
0.0
 40
0.5
100
AcDbArc
 50
180.0
 51
270.0
  0
LINE
  5
24E
330
23B
100
AcDbEntity
  8
Sketch Geometry(Ram)
370
    18
100
AcDbLine
 10
-5.999999999999996
 20
-0.4999999999999895
 30
0.0
 11
-4.499999999999992
 21
-0.4999999999999895
 31
0.0
  0
ARC
  5
24F
330
23B
100
AcDbEntity
  8
Sketch Geometry(Ram)
370
    18
100
AcDbCircle
 10
-5.999999999999996
 20
-0.9999999999999785
 30
0.0
 40
0.5
100
AcDbArc
 50
90.0
 51
180.0
  0
LINE
  5
250
330
23B
100
AcDbEntity
  8
Sketch Geometry(Ram)
370
    18
100
AcDbLine
 10
-6.499999999999985
 20
-7.999999999999988
 30
0.0
 11
-6.499999999999993
 21
-0.9999999999999785
 31
0.0
  0
LINE
  5
251
330
23B
100
AcDbEntity
  8
Sketch Geometry(Ram)
370
    18
100
AcDbLine
 10
-4.000000000000002
 20
-0.9999999999999964
 30
0.0
 11
-4.000000000000002
 21
-7.999999999999988
 31
0.0
  0
ARC
  5
252
330
23B
100
AcDbEntity
  8
Sketch Geometry(Ram)
370
    18
100
AcDbCircle
 10
-4.499999999999992
 20
-0.9999999999999964
 30
0.0
 40
0.5
100
AcDbArc
 50
0.0
 51
90.0
  0
ARC
  5
253
330
23B
100
AcDbEntity
  8
Sketch Geometry(Ram)
370
    18
100
AcDbCircle
 10
-4.499999999999992
 20
-7.999999999999988
 30
0.0
 40
0.5
100
AcDbArc
 50
270.0
 51
0.0
  0
LINE
  5
254
330
23B
100
AcDbEntity
  8
Sketch Geometry(Ram)
370
    18
100
AcDbLine
 10
-4.499999999999992
 20
-8.499999999999996
 30
0.0
 11
-5.999999999999996
 21
-8.500000000000012
 31
0.0
  0
ARC
  5
255
330
23B
100
AcDbEntity
  8
Sketch Geometry(Ram)
370
    18
100
AcDbCircle
 10
-5.999999999999996
 20
-7.999999999999988
 30
0.0
 40
0.5
100
AcDbArc
 50
180.0
 51
270.0
  0
LINE
  5
256
330
23B
100
AcDbEntity
  8
Sketch Geometry(Ram)
370
    18
100
AcDbLine
 10
-2.5
 20
-0.4999999999999895
 30
0.0
 11
-0.9999999999999964
 21
-0.4999999999999895
 31
0.0
  0
ARC
  5
257
330
23B
100
AcDbEntity
  8
Sketch Geometry(Ram)
370
    18
100
AcDbCircle
 10
-2.5
 20
-0.9999999999999785
 30
0.0
 40
0.5
100
AcDbArc
 50
90.0
 51
180.0
  0
LINE
  5
258
330
23B
100
AcDbEntity
  8
Sketch Geometry(Ram)
370
    18
100
AcDbLine
 10
-2.999999999999988
 20
-7.999999999999988
 30
0.0
 11
-2.999999999999998
 21
-0.9999999999999785
 31
0.0
  0
LINE
  5
259
330
23B
100
AcDbEntity
  8
Sketch Geometry(Ram)
370
    18
100
AcDbLine
 10
-0.5000000000000071
 20
-0.9999999999999964
 30
0.0
 11
-0.5000000000000071
 21
-7.999999999999988
 31
0.0
  0
ARC
  5
25A
330
23B
100
AcDbEntity
  8
Sketch Geometry(Ram)
370
    18
100
AcDbCircle
 10
-0.9999999999999964
 20
-0.9999999999999964
 30
0.0
 40
0.5
100
AcDbArc
 50
0.0
 51
90.0
  0
ARC
  5
25B
330
23B
100
AcDbEntity
  8
Sketch Geometry(Ram)
370
    18
100
AcDbCircle
 10
-0.9999999999999964
 20
-7.999999999999988
 30
0.0
 40
0.5
100
AcDbArc
 50
270.0
 51
0.0
  0
LINE
  5
25C
330
23B
100
AcDbEntity
  8
Sketch Geometry(Ram)
370
    18
100
AcDbLine
 10
-0.9999999999999964
 20
-8.499999999999996
 30
0.0
 11
-2.5
 21
-8.500000000000012
 31
0.0
  0
ARC
  5
25D
330
23B
100
AcDbEntity
  8
Sketch Geometry(Ram)
370
    18
100
AcDbCircle
 10
-2.5
 20
-7.999999999999988
 30
0.0
 40
0.5
100
AcDbArc
 50
180.0
 51
270.0
  0
LINE
  5
25E
330
23B
100
AcDbEntity
  8
Sketch Geometry(Ram)
370
    18
100
AcDbLine
 10
0.9999999999999964
 20
8.500000000000012
 30
0.0
 11
2.5
 21
8.500000000000012
 31
0.0
  0
ARC
  5
25F
330
23B
100
AcDbEntity
  8
Sketch Geometry(Ram)
370
    18
100
AcDbCircle
 10
0.9999999999999964
 20
8.000000000000023
 30
0.0
 40
0.5
100
AcDbArc
 50
90.0
 51
180.0
  0
LINE
  5
260
330
23B
100
AcDbEntity
  8
Sketch Geometry(Ram)
370
    18
100
AcDbLine
 10
0.5000000000000071
 20
1.000000000000013
 30
0.0
 11
0.4999999999999984
 21
8.000000000000023
 31
0.0
  0
LINE
  5
261
330
23B
100
AcDbEntity
  8
Sketch Geometry(Ram)
370
    18
100
AcDbLine
 10
2.999999999999988
 20
8.000000000000008
 30
0.0
 11
2.999999999999988
 21
1.000000000000013
 31
0.0
  0
ARC
  5
262
330
23B
100
AcDbEntity
  8
Sketch Geometry(Ram)
370
    18
100
AcDbCircle
 10
2.5
 20
8.000000000000008
 30
0.0
 40
0.5
100
AcDbArc
 50
0.0
 51
90.0
  0
ARC
  5
263
330
23B
100
AcDbEntity
  8
Sketch Geometry(Ram)
370
    18
100
AcDbCircle
 10
2.5
 20
1.000000000000013
 30
0.0
 40
0.5
100
AcDbArc
 50
270.0
 51
0.0
  0
LINE
  5
264
330
23B
100
AcDbEntity
  8
Sketch Geometry(Ram)
370
    18
100
AcDbLine
 10
2.5
 20
0.5000000000000071
 30
0.0
 11
0.9999999999999964
 21
0.4999999999999895
 31
0.0
  0
ARC
  5
265
330
23B
100
AcDbEntity
  8
Sketch Geometry(Ram)
370
    18
100
AcDbCircle
 10
0.9999999999999964
 20
1.000000000000013
 30
0.0
 40
0.5
100
AcDbArc
 50
180.0
 51
270.0
  0
LINE
  5
266
330
23B
100
AcDbEntity
  8
Sketch Geometry(Ram)
370
    18
100
AcDbLine
 10
0.9999999999999964
 20
-0.4999999999999895
 30
0.0
 11
2.5
 21
-0.4999999999999895
 31
0.0
  0
ARC
  5
267
330
23B
100
AcDbEntity
  8
Sketch Geometry(Ram)
370
    18
100
AcDbCircle
 10
0.9999999999999964
 20
-0.9999999999999785
 30
0.0
 40
0.5
100
AcDbArc
 50
90.0
 51
180.0
  0
LINE
  5
268
330
23B
100
AcDbEntity
  8
Sketch Geometry(Ram)
370
    18
100
AcDbLine
 10
0.5000000000000071
 20
-7.999999999999988
 30
0.0
 11
0.4999999999999984
 21
-0.9999999999999785
 31
0.0
  0
LINE
  5
269
330
23B
100
AcDbEntity
  8
Sketch Geometry(Ram)
370
    18
100
AcDbLine
 10
2.999999999999988
 20
-0.9999999999999964
 30
0.0
 11
2.999999999999988
 21
-7.999999999999988
 31
0.0
  0
ARC
  5
26A
330
23B
100
AcDbEntity
  8
Sketch Geometry(Ram)
370
    18
100
AcDbCircle
 10
2.5
 20
-0.9999999999999964
 30
0.0
 40
0.5
100
AcDbArc
 50
0.0
 51
90.0
  0
ARC
  5
26B
330
23B
100
AcDbEntity
  8
Sketch Geometry(Ram)
370
    18
100
AcDbCircle
 10
2.5
 20
-7.999999999999988
 30
0.0
 40
0.5
100
AcDbArc
 50
270.0
 51
0.0
  0
LINE
  5
26C
330
23B
100
AcDbEntity
  8
Sketch Geometry(Ram)
370
    18
100
AcDbLine
 10
2.5
 20
-8.499999999999996
 30
0.0
 11
0.9999999999999964
 21
-8.500000000000012
 31
0.0
  0
ARC
  5
26D
330
23B
100
AcDbEntity
  8
Sketch Geometry(Ram)
370
    18
100
AcDbCircle
 10
0.9999999999999964
 20
-7.999999999999988
 30
0.0
 40
0.5
100
AcDbArc
 50
180.0
 51
270.0
  0
LINE
  5
26E
330
23B
100
AcDbEntity
  8
Sketch Geometry(Ram)
370
    18
100
AcDbLine
 10
4.499999999999992
 20
8.500000000000012
 30
0.0
 11
5.999999999999996
 21
8.500000000000012
 31
0.0
  0
ARC
  5
26F
330
23B
100
AcDbEntity
  8
Sketch Geometry(Ram)
370
    18
100
AcDbCircle
 10
4.499999999999992
 20
8.000000000000023
 30
0.0
 40
0.5
100
AcDbArc
 50
90.0
 51
180.0
  0
LINE
  5
270
330
23B
100
AcDbEntity
  8
Sketch Geometry(Ram)
370
    18
100
AcDbLine
 10
4.000000000000002
 20
1.000000000000013
 30
0.0
 11
3.999999999999993
 21
8.000000000000023
 31
0.0
  0
LINE
  5
271
330
23B
100
AcDbEntity
  8
Sketch Geometry(Ram)
370
    18
100
AcDbLine
 10
6.499999999999985
 20
8.000000000000008
 30
0.0
 11
6.499999999999985
 21
1.000000000000013
 31
0.0
  0
ARC
  5
272
330
23B
100
AcDbEntity
  8
Sketch Geometry(Ram)
370
    18
100
AcDbCircle
 10
5.999999999999996
 20
8.000000000000008
 30
0.0
 40
0.5
100
AcDbArc
 50
0.0
 51
90.0
  0
ARC
  5
273
330
23B
100
AcDbEntity
  8
Sketch Geometry(Ram)
370
    18
100
AcDbCircle
 10
5.999999999999996
 20
1.000000000000013
 30
0.0
 40
0.5
100
AcDbArc
 50
270.0
 51
0.0
  0
LINE
  5
274
330
23B
100
AcDbEntity
  8
Sketch Geometry(Ram)
370
    18
100
AcDbLine
 10
5.999999999999996
 20
0.5000000000000071
 30
0.0
 11
4.499999999999992
 21
0.4999999999999895
 31
0.0
  0
ARC
  5
275
330
23B
100
AcDbEntity
  8
Sketch Geometry(Ram)
370
    18
100
AcDbCircle
 10
4.499999999999992
 20
1.000000000000013
 30
0.0
 40
0.5
100
AcDbArc
 50
180.0
 51
270.0
  0
LINE
  5
276
330
23B
100
AcDbEntity
  8
Sketch Geometry(Ram)
370
    18
100
AcDbLine
 10
4.499999999999992
 20
-0.4999999999999895
 30
0.0
 11
5.999999999999996
 21
-0.4999999999999895
 31
0.0
  0
ARC
  5
277
330
23B
100
AcDbEntity
  8
Sketch Geometry(Ram)
370
    18
100
AcDbCircle
 10
4.499999999999992
 20
-0.9999999999999785
 30
0.0
 40
0.5
100
AcDbArc
 50
90.0
 51
180.0
  0
LINE
  5
278
330
23B
100
AcDbEntity
  8
Sketch Geometry(Ram)
370
    18
100
AcDbLine
 10
4.000000000000002
 20
-7.999999999999988
 30
0.0
 11
3.999999999999993
 21
-0.9999999999999785
 31
0.0
  0
LINE
  5
279
330
23B
100
AcDbEntity
  8
Sketch Geometry(Ram)
370
    18
100
AcDbLine
 10
6.499999999999985
 20
-0.9999999999999964
 30
0.0
 11
6.499999999999985
 21
-7.999999999999988
 31
0.0
  0
ARC
  5
27A
330
23B
100
AcDbEntity
  8
Sketch Geometry(Ram)
370
    18
100
AcDbCircle
 10
5.999999999999996
 20
-0.9999999999999964
 30
0.0
 40
0.5
100
AcDbArc
 50
0.0
 51
90.0
  0
ARC
  5
27B
330
23B
100
AcDbEntity
  8
Sketch Geometry(Ram)
370
    18
100
AcDbCircle
 10
5.999999999999996
 20
-7.999999999999988
 30
0.0
 40
0.5
100
AcDbArc
 50
270.0
 51
0.0
  0
LINE
  5
27C
330
23B
100
AcDbEntity
  8
Sketch Geometry(Ram)
370
    18
100
AcDbLine
 10
5.999999999999996
 20
-8.499999999999996
 30
0.0
 11
4.499999999999992
 21
-8.500000000000012
 31
0.0
  0
ARC
  5
27D
330
23B
100
AcDbEntity
  8
Sketch Geometry(Ram)
370
    18
100
AcDbCircle
 10
4.499999999999992
 20
-7.999999999999988
 30
0.0
 40
0.5
100
AcDbArc
 50
180.0
 51
270.0
  0
MTEXT
  5
27E
330
23B
100
AcDbEntity
  8
Symbols(Ram)
 62
     7
100
AcDbMText
 10
-2.622583667679929
 20
3.966036591120508
 30
0.0
 40
6.99999988079071
 41
0.0
 46
0.0
 71
     1
 72
     1
  1
\fArial|b1|i0;\H7.0000;8
  7
STD 2.5 ARIAL
 73
     1
 44
1.0
1001
ACAD
1000
MTEXTBEGIN
1070
    73
1070
     1
1070
    44
1040
1.0
1070
    74
1070
     0
1000
MTEXTEND
  0
MTEXT
  5
27F
330
23B
100
AcDbEntity
  8
Symbols(Ram)
 62
     7
100
AcDbMText
 10
-0.383652901660243
 20
-10.53909050618999
 30
0.0
 40
1.49859994649887
 41
12.69037379631852
 46
0.0
 71
     2
 72
     1
  1
\fArial|b0|i0;\H1.4986;SKIN PACK 290 x 100mm
  7
STD 2.5 ARIAL
 73
     2
 44
0.9442214369773862
1001
ACAD
1000
MTEXTBEGIN
1070
    73
1070
     2
1070
    44
1040
0.9442214369773862
1070
    74
1070
     0
1000
MTEXTEND
  0
ENDBLK
  5
23D
330
23B
100
AcDbEntity
  8
0
100
AcDbBlockEnd
  0
BLOCK
  5
281
330
280
100
AcDbEntity
  8
0
100
AcDbBlockBegin
  2
APPROVED STAMP
 70
     0
 10
0.0
 20
0.0
 30
0.0
  3
APPROVED STAMP
  1

  0
LINE
  5
283
330
280
100
AcDbEntity
  8
Sketch Geometry(Ram)
 62
   136
100
AcDbLine
 10
-35.54560624499878
 20
15.6783200154738
 30
0.0
 11
-35.54560624499878
 21
-15.67832001547382
 31
0.0
  0
LINE
  5
284
330
280
100
AcDbEntity
  8
Sketch Geometry(Ram)
 62
   136
100
AcDbLine
 10
-35.54560624499878
 20
-15.67832001547382
 30
0.0
 11
35.54560624499877
 21
-15.6783200154738
 31
0.0
  0
LINE
  5
285
330
280
100
AcDbEntity
  8
Sketch Geometry(Ram)
 62
   136
100
AcDbLine
 10
35.54560624499877
 20
-15.6783200154738
 30
0.0
 11
35.54560624499877
 21
15.67832001547382
 31
0.0
  0
LINE
  5
286
330
280
100
AcDbEntity
  8
Sketch Geometry(Ram)
 62
   136
100
AcDbLine
 10
35.54560624499877
 20
15.67832001547382
 30
0.0
 11
-35.54560624499878
 21
15.6783200154738
 31
0.0
  0
MTEXT
  5
287
330
280
100
AcDbEntity
  8
Symbols(Ram)
 62
   116
100
AcDbMText
 10
-13.49989445979156
 20
14.13192209042362
 30
0.0
 40
3.499999940395355
 41
27.45045900344849
 46
0.0
 71
     1
 72
     1
  1
\fArial|b1|i0;\H3.5000;APPROVED
  7
STD 2.5 ARIAL
 73
     1
 44
1.0
1001
ACAD
1000
MTEXTBEGIN
1070
    73
1070
     1
1070
    44
1040
1.0
1070
    74
1070
     0
1000
MTEXTEND
  0
MTEXT
  5
288
330
280
100
AcDbEntity
  8
Symbols(Ram)
 62
     7
100
AcDbMText
 10
-34.3463054353912
 20
4.981424486020865
 30
0.0
 40
2.5
 41
60.84163436697946
 46
0.0
 71
     1
 72
     1
  1
NAME: ...........................................\PSIGNATURE: ..................................\PDATE:  ......../...../........
  7
STD 2.5 ARIAL
 73
     2
 44
1.727335691452025
1001
ACAD
1000
MTEXTBEGIN
1070
    73
1070
     2
1070
    44
1040
1.727335691452025
1070
    74
1070
     0
1000
MTEXTEND
  0
ENDBLK
  5
282
330
280
100
AcDbEntity
  8
0
100
AcDbBlockEnd
  0
BLOCK
  5
28A
330
289
100
AcDbEntity
  8
0
100
AcDbBlockBegin
  2
AVAIL WELS 3 STAR
 70
     0
 10
0.0
 20
0.0
 30
0.0
  3
AVAIL WELS 3 STAR
  1

  0
MTEXT
  5
28C
330
289
100
AcDbEntity
  8
Symbols(Ram)
 62
     7
100
AcDbMText
 10
-12.80678272247314
 20
7.172344643622636
 30
0.0
 40
2.5
 41
0.0
 46
0.0
 71
     1
 72
     1
  1
\fArial|b1|i0;\H2.5000;AVAILABLE\PWELS RATING:\P \P\fArial|b0|i0;\H2.5000;3 STAR - 9 LPM
  7
STD 2.5 ARIAL
 73
     2
 44
0.9442214965820312
1001
ACAD
1000
MTEXTBEGIN
1070
    73
1070
     2
1070
    44
1040
0.9442214965820312
1070
    74
1070
     0
1000
MTEXTEND
  0
ENDBLK
  5
28B
330
289
100
AcDbEntity
  8
0
100
AcDbBlockEnd
  0
BLOCK
  5
28E
330
28D
100
AcDbEntity
  8
0
100
AcDbBlockBegin
  2
AVAIL WELS 4 STAR
 70
     0
 10
0.0
 20
0.0
 30
0.0
  3
AVAIL WELS 4 STAR
  1

  0
MTEXT
  5
290
330
28D
100
AcDbEntity
  8
Symbols(Ram)
 62
     7
100
AcDbMText
 10
-14.16825413703918
 20
7.172344643622636
 30
0.0
 40
2.5
 41
0.0
 46
0.0
 71
     1
 72
     1
  1
\fArial|b1|i0;\H2.5000;AVAILABLE\PWELS RATING:\P \P\fArial|b0|i0;\H2.5000;4 STAR - 7.5 LPM
  7
STD 2.5 ARIAL
 73
     2
 44
0.9442214965820312
1001
ACAD
1000
MTEXTBEGIN
1070
    73
1070
     2
1070
    44
1040
0.9442214965820312
1070
    74
1070
     0
1000
MTEXTEND
  0
ENDBLK
  5
28F
330
28D
100
AcDbEntity
  8
0
100
AcDbBlockEnd
  0
BLOCK
  5
292
330
291
100
AcDbEntity
  8
0
100
AcDbBlockBegin
  2
AVAIL WELS 5 & 6 STAR
 70
     0
 10
0.0
 20
0.0
 30
0.0
  3
AVAIL WELS 5 & 6 STAR
  1

  0
MTEXT
  5
294
330
291
100
AcDbEntity
  8
Symbols(Ram)
 62
     7
100
AcDbMText
 10
-12.80678272247314
 20
9.139472711831333
 30
0.0
 40
2.5
 41
0.0
 46
0.0
 71
     1
 72
     1
  1
\fArial|b1|i0;\H2.5000;AVAILABLE\PWELS RATING:\P \fArial|b0|i0;\H2.5000;\P5 STAR - 6 LPM\P6 STAR - 4 LPM
  7
STD 2.5 ARIAL
 73
     2
 44
0.9442214965820312
1001
ACAD
1000
MTEXTBEGIN
1070
    73
1070
     2
1070
    44
1040
0.9442214965820312
1070
    74
1070
     0
1000
MTEXTEND
  0
ENDBLK
  5
293
330
291
100
AcDbEntity
  8
0
100
AcDbBlockEnd
  0
BLOCK
  5
296
330
295
100
AcDbEntity
  8
0
100
AcDbBlockBegin
  2
AVAIL WELS RATING
 70
     0
 10
0.0
 20
0.0
 30
0.0
  3
AVAIL WELS RATING
  1

  0
MTEXT
  5
298
330
295
100
AcDbEntity
  8
Symbols(Ram)
 62
     7
100
AcDbMText
 10
-12.80678272247312
 20
11.10660078004002
 30
0.0
 40
2.5
 41
25.61356544494629
 46
0.0
 71
     1
 72
     1
  1
\fArial|b1|i0;\H2.5000;AVAILABLE\PWELS RATING:\P \P\fArial|b0|i0;\H2.5000;3 STAR - 9 LPM\P5 STAR - 6 LPM\P6 STAR - 4 LPM
  7
STD 2.5 ARIAL
 73
     2
 44
0.9442214965820312
1001
ACAD
1000
MTEXTBEGIN
1070
    73
1070
     2
1070
    44
1040
0.9442214965820312
1070
    74
1070
     0
1000
MTEXTEND
  0
ENDBLK
  5
297
330
295
100
AcDbEntity
  8
0
100
AcDbBlockEnd
  0
BLOCK
  5
29A
330
299
100
AcDbEntity
  8
0
100
AcDbBlockBegin
  2
AVAIL WELS WITH 4 STAR
 70
     0
 10
0.0
 20
0.0
 30
0.0
  3
AVAIL WELS WITH 4 STAR
  1

  0
MTEXT
  5
29C
330
299
100
AcDbEntity
  8
Symbols(Ram)
 62
     7
100
AcDbMText
 10
-14.16825413703918
 20
13.07372884824872
 30
0.0
 40
2.5
 41
0.0
 46
0.0
 71
     1
 72
     1
  1
\fArial|b1|i0;\H2.5000;AVAILABLE\PWELS RATING:\P \P\fArial|b0|i0;\H2.5000;3 STAR - 9 LPM\P4 STAR - 7.5 LPM\P5 STAR - 6 LPM\P6 STAR - 4 LPM
  7
STD 2.5 ARIAL
 73
     2
 44
0.9442214965820312
1001
ACAD
1000
MTEXTBEGIN
1070
    73
1070
     2
1070
    44
1040
0.9442214965820312
1070
    74
1070
     0
1000
MTEXTEND
  0
ENDBLK
  5
29B
330
299
100
AcDbEntity
  8
0
100
AcDbBlockEnd
  0
BLOCK
  5
29E
330
29D
100
AcDbEntity
  8
0
100
AcDbBlockBegin
  2
AVAILABLE WELS 4_5_6
 70
     0
 10
0.0
 20
0.0
 30
0.0
  3
AVAILABLE WELS 4_5_6
  1

  0
MTEXT
  5
2A0
330
29D
100
AcDbEntity
  8
Symbols(Ram)
 62
     7
100
AcDbMText
 10
-14.16825413703918
 20
11.10660078004002
 30
0.0
 40
2.5
 41
0.0
 46
0.0
 71
     1
 72
     1
  1
\fArial|b1|i0;\H2.5000;AVAILABLE\PWELS RATING:\P \P\fArial|b0|i0;\H2.5000;4 STAR - 7.5 LPM\P5 STAR - 6 LPM\P6 STAR - 4 LPM
  7
STD 2.5 ARIAL
 73
     2
 44
0.9442214965820312
1001
ACAD
1000
MTEXTBEGIN
1070
    73
1070
     2
1070
    44
1040
0.9442214965820312
1070
    74
1070
     0
1000
MTEXTEND
  0
ENDBLK
  5
29F
330
29D
100
AcDbEntity
  8
0
100
AcDbBlockEnd
  0
BLOCK
  5
2A2
330
2A1
100
AcDbEntity
  8
0
100
AcDbBlockBegin
  2
CENTRE STICKER
 70
     0
 10
0.0
 20
0.0
 30
0.0
  3
CENTRE STICKER
  1

  0
LINE
  5
2A4
330
2A1
100
AcDbEntity
  8
Sketch Geometry(Ram)
100
AcDbLine
 10
0.0
 20
0.0
 30
0.0
 11
2.999999999999998
 21
0.0
 31
0.0
  0
MTEXT
  5
2A5
330
2A1
100
AcDbEntity
  8
Symbols(Ram)
 62
     7
100
AcDbMText
 10
17.0
 20
1.124056048754846
 30
0.0
 40
2.5
 41
0.0
 46
0.0
 71
     2
 72
     1
  1
APPLY CENTRE\PSTICKER\P(STK10)
  7
STD 2.5 ARIAL
 73
     2
 44
0.9442214965820312
1001
ACAD
1000
MTEXTBEGIN
1070
    73
1070
     2
1070
    44
1040
0.9442214965820312
1070
    74
1070
     0
1000
MTEXTEND
  0
ENDBLK
  5
2A3
330
2A1
100
AcDbEntity
  8
0
100
AcDbBlockEnd
  0
BLOCK
  5
2A7
330
2A6
100
AcDbEntity
  8
0
100
AcDbBlockBegin
  2
GREASE
 70
     0
 10
0.0
 20
0.0
 30
0.0
  3
GREASE
  1

  0
LINE
  5
2A9
330
2A6
100
AcDbEntity
  8
Sketch Geometry(Ram)
100
AcDbLine
 10
0.0
 20
0.0
 30
0.0
 11
-3.000000000000006
 21
0.0
 31
0.0
  0
MTEXT
  5
2AA
330
2A6
100
AcDbEntity
  8
Symbols(Ram)
 62
     7
100
AcDbMText
 10
-19.0
 20
1.165139314759784
 30
0.0
 40
2.5
 41
0.0
 46
0.0
 71
     1
 72
     1
  1
GREASE
  7
STD 2.5 ARIAL
 73
     1
 44
1.0
1001
ACAD
1000
MTEXTBEGIN
1070
    73
1070
     1
1070
    44
1040
1.0
1070
    74
1070
     0
1000
MTEXTEND
  0
ENDBLK
  5
2A8
330
2A6
100
AcDbEntity
  8
0
100
AcDbBlockEnd
  0
BLOCK
  5
2AC
330
2AB
100
AcDbEntity
  8
0
100
AcDbBlockBegin
  2
J_VALVE
 70
     0
 10
0.0
 20
0.0
 30
0.0
  3
J_VALVE
  1

  0
MTEXT
  5
2AE
330
2AB
100
AcDbEntity
  8
Symbols(Ram)
 62
     7
100
AcDbMText
 10
-19.40834522247314
 20
23.09343125671148
 30
0.0
 40
2.5
 41
0.0
 46
0.0
 71
     1
 72
     1
  3
Headworks Available:\PJumper Valve (Standard)\P \PMax Pressure: 1000kpa\PMin Pressure: 150kpa\PMax Temp: 80\fAIGDT|b0|i0;\H2.5000;~\fArial|b0|i0;\H2.5000;c\P \PMounting Holes:\P- Taps - Min \fAIGDT|b0|i0;\H2.5000;n\fArial|b0|i0;\H2.5000;32mm\P- Spout
  1
 - Min \fAIGDT|b0|i0;\H2.5000;n\fArial|b0|i0;\H2.5000;21mm
  7
STD 2.5 ARIAL
 73
     2
 44
1.146487116813659
1001
ACAD
1000
MTEXTBEGIN
1070
    73
1070
     2
1070
    44
1040
1.146487116813659
1070
    74
1070
     0
1000
MTEXTEND
  0
ENDBLK
  5
2AD
330
2AB
100
AcDbEntity
  8
0
100
AcDbBlockEnd
  0
BLOCK
  5
2B0
330
2AF
100
AcDbEntity
  8
0
100
AcDbBlockBegin
  2
J_VALVE 3_4 TURN SECURE FIT NO HOLE DETAIL
 70
     0
 10
0.0
 20
0.0
 30
0.0
  3
J_VALVE 3_4 TURN SECURE FIT NO HOLE DETAIL
  1

  0
MTEXT
  5
2B2
330
2AF
100
AcDbEntity
  8
Symbols(Ram)
 62
     7
100
AcDbMText
 10
-35.61356604099275
 20
18.25526814907789
 30
0.0
 40
2.5
 41
0.0
 46
0.0
 71
     1
 72
     1
  3
Headworks Available:\PJumper Valve (Standard)\PCeramic Disc 3/4 Turn (Optional)\P \PHandles are \fArial|b0|i1;\H2.5000;Secure Fit\fArial|b0|i0;\H2.5000; - Fit with key supplied.\P \PMax Pressure: 1000kpa\PMin Pressure: 150kpa\PMax Temp: 80\fAIGDT|b0|
  1
i0;\H2.5000;~\fArial|b0|i0;\H2.5000;c
  7
STD 2.5 ARIAL
 73
     2
 44
0.999508261680603
1001
ACAD
1000
MTEXTBEGIN
1070
    73
1070
     2
1070
    44
1040
0.999508261680603
1070
    74
1070
     0
1000
MTEXTEND
  0
ENDBLK
  5
2B1
330
2AF
100
AcDbEntity
  8
0
100
AcDbBlockEnd
  0
BLOCK
  5
2B4
330
2B3
100
AcDbEntity
  8
0
100
AcDbBlockBegin
  2
J_VALVE 3_4 TURN SECURE FIT SPOUT ONLY
 70
     0
 10
0.0
 20
0.0
 30
0.0
  3
J_VALVE 3_4 TURN SECURE FIT SPOUT ONLY
  1

  0
MTEXT
  5
2B6
330
2B3
100
AcDbEntity
  8
Symbols(Ram)
 62
     7
100
AcDbMText
 10
-35.61356604099275
 20
25.59216987341642
 30
0.0
 40
2.5
 41
0.0
 46
0.0
 71
     1
 72
     1
  3
Headworks Available:\PJumper Valve (Standard)\PCeramic Disc 3/4 Turn (Optional)\P \PHandles are \fArial|b0|i1;\H2.5000;Secure Fit\fArial|b0|i0;\H2.5000; - Fit with key supplied.\P \PMax Pressure: 1000kpa\PMin Pressure: 150kpa\PMax Temp: 80\fAIGDT|b0|
  1
i0;\H2.5000;~\fArial|b0|i0;\H2.5000;c\P \PMounting Holes:\P- Spout - Min \fAIGDT|b0|i0;\H2.5000;n\fArial|b0|i0;\H2.5000;21mm
  7
STD 2.5 ARIAL
 73
     2
 44
1.047070741653442
1001
ACAD
1000
MTEXTBEGIN
1070
    73
1070
     2
1070
    44
1040
1.047070741653442
1070
    74
1070
     0
1000
MTEXTEND
  0
ENDBLK
  5
2B5
330
2B3
100
AcDbEntity
  8
0
100
AcDbBlockEnd
  0
BLOCK
  5
2B8
330
2B7
100
AcDbEntity
  8
0
100
AcDbBlockBegin
  2
J_VALVE 3_4 TURN SECURE FIT TAP ONLY
 70
     0
 10
0.0
 20
0.0
 30
0.0
  3
J_VALVE 3_4 TURN SECURE FIT TAP ONLY
  1

  0
MTEXT
  5
2BA
330
2B7
100
AcDbEntity
  8
Symbols(Ram)
 62
     7
100
AcDbMText
 10
-35.61356604099275
 20
25.59216987341642
 30
0.0
 40
2.5
 41
0.0
 46
0.0
 71
     1
 72
     1
  3
Headworks Available:\PJumper Valve (Standard)\PCeramic Disc 3/4 Turn (Optional)\P \PHandles are \fArial|b0|i1;\H2.5000;Secure Fit\fArial|b0|i0;\H2.5000; - Fit with key supplied.\P \PMax Pressure: 1000kpa\PMin Pressure: 150kpa\PMax Temp: 80\fAIGDT|b0|
  1
i0;\H2.5000;~\fArial|b0|i0;\H2.5000;c\P \PMounting Holes:\P- Taps - Min \fAIGDT|b0|i0;\H2.5000;n\fArial|b0|i0;\H2.5000;32mm
  7
STD 2.5 ARIAL
 73
     2
 44
1.047070741653442
1001
ACAD
1000
MTEXTBEGIN
1070
    73
1070
     2
1070
    44
1040
1.047070741653442
1070
    74
1070
     0
1000
MTEXTEND
  0
ENDBLK
  5
2B9
330
2B7
100
AcDbEntity
  8
0
100
AcDbBlockEnd
  0
BLOCK
  5
2BC
330
2BB
100
AcDbEntity
  8
0
100
AcDbBlockBegin
  2
J_VALVE 3_4 TURN SPOUT ONLY
 70
     0
 10
0.0
 20
0.0
 30
0.0
  3
J_VALVE 3_4 TURN SPOUT ONLY
  1

  0
MTEXT
  5
2BE
330
2BB
100
AcDbEntity
  8
Symbols(Ram)
 62
     7
100
AcDbMText
 10
-25.51829099655151
 20
21.65791373699903
 30
0.0
 40
2.5
 41
0.0
 46
0.0
 71
     1
 72
     1
  3
Headworks Available:\PJumper Valve (Standard)\PCeramic Disc 3/4 Turn (Optional)\P \PMax Pressure: 1000kpa\PMin Pressure: 150kpa\PMax Temp: 80\fAIGDT|b0|i0;\H2.5000;~\fArial|b0|i0;\H2.5000;c\P \PMounting Holes:\P- Spout - Min \fAIGDT|b0|i0;\H2.5000;n\
  1
fArial|b0|i0;\H2.5000;21mm
  7
STD 2.5 ARIAL
 73
     2
 44
1.069926142692564
1001
ACAD
1000
MTEXTBEGIN
1070
    73
1070
     2
1070
    44
1040
1.069926142692564
1070
    74
1070
     0
1000
MTEXTEND
  0
ENDBLK
  5
2BD
330
2BB
100
AcDbEntity
  8
0
100
AcDbBlockEnd
  0
BLOCK
  5
2C0
330
2BF
100
AcDbEntity
  8
0
100
AcDbBlockBegin
  2
J_VALVE 3_4 TURN TAP ONLY
 70
     0
 10
0.0
 20
0.0
 30
0.0
  3
J_VALVE 3_4 TURN TAP ONLY
  1

  0
MTEXT
  5
2C2
330
2BF
100
AcDbEntity
  8
Symbols(Ram)
 62
     7
100
AcDbMText
 10
-25.51829099655151
 20
21.65791373699903
 30
0.0
 40
2.5
 41
0.0
 46
0.0
 71
     1
 72
     1
  3
Headworks Available:\PJumper Valve (Standard)\PCeramic Disc 3/4 Turn (Optional)\P \PMax Pressure: 1000kpa\PMin Pressure: 150kpa\PMax Temp: 80\fAIGDT|b0|i0;\H2.5000;~\fArial|b0|i0;\H2.5000;c\P \PMounting Holes:\P- Taps - Min \fAIGDT|b0|i0;\H2.5000;n\f
  1
Arial|b0|i0;\H2.5000;32mm
  7
STD 2.5 ARIAL
 73
     2
 44
1.069926142692564
1001
ACAD
1000
MTEXTBEGIN
1070
    73
1070
     2
1070
    44
1040
1.069926142692564
1070
    74
1070
     0
1000
MTEXTEND
  0
ENDBLK
  5
2C1
330
2BF
100
AcDbEntity
  8
0
100
AcDbBlockEnd
  0
BLOCK
  5
2C4
330
2C3
100
AcDbEntity
  8
0
100
AcDbBlockBegin
  2
J_VALVE NO HOLE DETAIL
 70
     0
 10
0.0
 20
0.0
 30
0.0
  3
J_VALVE NO HOLE DETAIL
  1

  0
MTEXT
  5
2C6
330
2C3
100
AcDbEntity
  8
Symbols(Ram)
 62
     7
100
AcDbMText
 10
-19.40834522247314
 20
12.35388394445181
 30
0.0
 40
2.5
 41
0.0
 46
0.0
 71
     1
 72
     1
  1
Headworks Available:\PJumper Valve (Standard)\P \PMax Pressure: 1000kpa\PMin Pressure: 150kpa\PMax Temp: 80\fAIGDT|b0|i0;\H2.5000;~\fArial|b0|i0;\H2.5000;c
  7
STD 2.5 ARIAL
 73
     2
 44
1.03268015384674
1001
ACAD
1000
MTEXTBEGIN
1070
    73
1070
     2
1070
    44
1040
1.03268015384674
1070
    74
1070
     0
1000
MTEXTEND
  0
ENDBLK
  5
2C5
330
2C3
100
AcDbEntity
  8
0
100
AcDbBlockEnd
  0
BLOCK
  5
2C8
330
2C7
100
AcDbEntity
  8
0
100
AcDbBlockBegin
  2
J_VALVE SPOUT ONLY
 70
     0
 10
0.0
 20
0.0
 30
0.0
  3
J_VALVE SPOUT ONLY
  1

  0
MTEXT
  5
2CA
330
2C7
100
AcDbEntity
  8
Symbols(Ram)
 62
     7
100
AcDbMText
 10
-19.40834522247314
 20
19.69078566879034
 30
0.0
 40
2.5
 41
0.0
 46
0.0
 71
     1
 72
     1
  1
Headworks Available:\PJumper Valve (Standard)\P \PMax Pressure: 1000kpa\PMin Pressure: 150kpa\PMax Temp: 80\fAIGDT|b0|i0;\H2.5000;~\fArial|b0|i0;\H2.5000;c\P \PMounting Holes:\P- Spout - Min \fAIGDT|b0|i0;\H2.5000;n\fArial|b0|i0;\H2.5000;21mm
  7
STD 2.5 ARIAL
 73
     2
 44
1.085639238357542
1001
ACAD
1000
MTEXTBEGIN
1070
    73
1070
     2
1070
    44
1040
1.085639238357542
1070
    74
1070
     0
1000
MTEXTEND
  0
ENDBLK
  5
2C9
330
2C7
100
AcDbEntity
  8
0
100
AcDbBlockEnd
  0
BLOCK
  5
2CC
330
2CB
100
AcDbEntity
  8
0
100
AcDbBlockBegin
  2
J_VALVE STD 3_4 TURN
 70
     0
 10
0.0
 20
0.0
 30
0.0
  3
J_VALVE STD 3_4 TURN
  1

  0
MTEXT
  5
2CE
330
2CB
100
AcDbEntity
  8
Symbols(Ram)
 62
     7
100
AcDbMText
 10
-25.51829099655151
 20
25.06055932492018
 30
0.0
 40
2.5
 41
0.0
 46
0.0
 71
     1
 72
     1
  3
Headworks Available:\PJumper Valve (Standard)\PCeramic Disc 3/4 Turn (Optional)\P \PMax Pressure: 1000kpa\PMin Pressure: 150kpa\PMax Temp: 80\fAIGDT|b0|i0;\H2.5000;~\fArial|b0|i0;\H2.5000;c\P \PMounting Holes:\P- Taps - Min \fAIGDT|b0|i0;\H2.5000;n\f
  1
Arial|b0|i0;\H2.5000;32mm\P- Spout - Min \fAIGDT|b0|i0;\H2.5000;n\fArial|b0|i0;\H2.5000;21mm
  7
STD 2.5 ARIAL
 73
     2
 44
1.126260519027708
1001
ACAD
1000
MTEXTBEGIN
1070
    73
1070
     2
1070
    44
1040
1.126260519027708
1070
    74
1070
     0
1000
MTEXTEND
  0
ENDBLK
  5
2CD
330
2CB
100
AcDbEntity
  8
0
100
AcDbBlockEnd
  0
BLOCK
  5
2D0
330
2CF
100
AcDbEntity
  8
0
100
AcDbBlockBegin
  2
J_VALVE STD 3_4 TURN NO HOLE DETAIL
 70
     0
 10
0.0
 20
0.0
 30
0.0
  3
J_VALVE STD 3_4 TURN NO HOLE DETAIL
  1

  0
MTEXT
  5
2D2
330
2CF
100
AcDbEntity
  8
Symbols(Ram)
 62
     7
100
AcDbMText
 10
-25.51829099655151
 20
14.3210120126605
 30
0.0
 40
2.5
 41
0.0
 46
0.0
 71
     1
 72
     1
  1
Headworks Available:\PJumper Valve (Standard)\PCeramic Disc 3/4 Turn (Optional)\P \PMax Pressure: 1000kpa\PMin Pressure: 150kpa\PMax Temp: 80\fAIGDT|b0|i0;\H2.5000;~\fArial|b0|i0;\H2.5000;c
  7
STD 2.5 ARIAL
 73
     2
 44
1.017937064170837
1001
ACAD
1000
MTEXTBEGIN
1070
    73
1070
     2
1070
    44
1040
1.017937064170837
1070
    74
1070
     0
1000
MTEXTEND
  0
ENDBLK
  5
2D1
330
2CF
100
AcDbEntity
  8
0
100
AcDbBlockEnd
  0
BLOCK
  5
2D4
330
2D3
100
AcDbEntity
  8
0
100
AcDbBlockBegin
  2
J_VALVE STD 3_4 TURN SECURE FIT
 70
     0
 10
0.0
 20
0.0
 30
0.0
  3
J_VALVE STD 3_4 TURN SECURE FIT
  1

  0
MTEXT
  5
2D6
330
2D3
100
AcDbEntity
  8
Symbols(Ram)
 62
     7
100
AcDbMText
 10
-35.61356604099275
 20
28.99481546133756
 30
0.0
 40
2.5
 41
0.0
 46
0.0
 71
     1
 72
     1
  3
Headworks Available:\PJumper Valve (Standard)\PCeramic Disc 3/4 Turn (Optional)\P \PHandles are \fArial|b0|i1;\H2.5000;Secure Fit\fArial|b0|i0;\H2.5000; - Fit with key supplied.\P \PMax Pressure: 1000kpa\PMin pressure: 150kpa\PMax Temp: 80\fAIGDT|b0|
  1
i0;\H2.5000;~\fArial|b0|i0;\H2.5000;c\P \PMounting Holes:\P- Taps - Min \fAIGDT|b0|i0;\H2.5000;n\fArial|b0|i0;\H2.5000;32mm\P- Spout - Min \fAIGDT|b0|i0;\H2.5000;n\fArial|b0|i0;\H2.5000;21mm
  7
STD 2.5 ARIAL
 73
     2
 44
1.095920681953429
1001
ACAD
1000
MTEXTBEGIN
1070
    73
1070
     2
1070
    44
1040
1.095920681953429
1070
    74
1070
     0
1000
MTEXTEND
  0
ENDBLK
  5
2D5
330
2D3
100
AcDbEntity
  8
0
100
AcDbBlockEnd
  0
BLOCK
  5
2D8
330
2D7
100
AcDbEntity
  8
0
100
AcDbBlockBegin
  2
J_VALVE STD 3_4 TURN SECURE FIT NO HOLE DETAIL
 70
     0
 10
0.0
 20
0.0
 30
0.0
  3
J_VALVE STD 3_4 TURN SECURE FIT NO HOLE DETAIL
  1

  0
MTEXT
  5
2DA
330
2D7
100
AcDbEntity
  8
Symbols(Ram)
 62
     7
100
AcDbMText
 10
-35.61356604099275
 20
18.25526814907789
 30
0.0
 40
2.5
 41
0.0
 46
0.0
 71
     1
 72
     1
  3
Headworks Available:\PJumper Valve (Standard)\PCeramic Disc 3/4 Turn (Optional)\P \PHandles are \fArial|b0|i1;\H2.5000;Secure Fit\fArial|b0|i0;\H2.5000; - Fit with key supplied.\P \PMax Pressure: 1000kpa\PMin pressure: 150kpa\PMax Temp: 80\fAIGDT|b0|
  1
i0;\H2.5000;~\fArial|b0|i0;\H2.5000;c
  7
STD 2.5 ARIAL
 73
     2
 44
0.999508261680603
1001
ACAD
1000
MTEXTBEGIN
1070
    73
1070
     2
1070
    44
1040
0.999508261680603
1070
    74
1070
     0
1000
MTEXTEND
  0
ENDBLK
  5
2D9
330
2D7
100
AcDbEntity
  8
0
100
AcDbBlockEnd
  0
BLOCK
  5
2DC
330
2DB
100
AcDbEntity
  8
0
100
AcDbBlockBegin
  2
J_VALVE TAP ONLY
 70
     0
 10
0.0
 20
0.0
 30
0.0
  3
J_VALVE TAP ONLY
  1

  0
MTEXT
  5
2DE
330
2DB
100
AcDbEntity
  8
Symbols(Ram)
 62
     7
100
AcDbMText
 10
-19.40834522247314
 20
19.69078566879034
 30
0.0
 40
2.5
 41
0.0
 46
0.0
 71
     1
 72
     1
  1
Headworks Available:\PJumper Valve (Standard)\P \PMax Pressure: 1000kpa\PMin Pressure: 150kpa\PMax Temp: 80\fAIGDT|b0|i0;\H2.5000;~\fArial|b0|i0;\H2.5000;c\P \PMounting Holes:\P- Taps - Min \fAIGDT|b0|i0;\H2.5000;n\fArial|b0|i0;\H2.5000;32mm
  7
STD 2.5 ARIAL
 73
     2
 44
1.085639238357542
1001
ACAD
1000
MTEXTBEGIN
1070
    73
1070
     2
1070
    44
1040
1.085639238357542
1070
    74
1070
     0
1000
MTEXTEND
  0
ENDBLK
  5
2DD
330
2DB
100
AcDbEntity
  8
0
100
AcDbBlockEnd
  0
BLOCK
  5
2E0
330
2DF
100
AcDbEntity
  8
0
100
AcDbBlockBegin
  2
Koh characteristic
 70
     2
 10
0.0
 20
0.0
 30
0.0
  3
Koh characteristic
  1

  0
LINE
  5
2E2
330
2DF
100
AcDbEntity
  8
Sketch Lines(Ram)
100
AcDbLine
 10
-2.798607274432844
 20
5.375062500920826
 30
0.0
 11
-2.798607274432844
 21
-5.375062500920826
 31
0.0
  0
LINE
  5
2E3
330
2DF
100
AcDbEntity
  8
Sketch Lines(Ram)
100
AcDbLine
 10
-2.798607274432844
 20
-5.375062500920826
 30
0.0
 11
2.798607274432836
 21
-5.375062500920826
 31
0.0
  0
LINE
  5
2E4
330
2DF
100
AcDbEntity
  8
Sketch Lines(Ram)
100
AcDbLine
 10
2.798607274432836
 20
-5.375062500920826
 30
0.0
 11
2.798607274432836
 21
5.375062500920826
 31
0.0
  0
LINE
  5
2E5
330
2DF
100
AcDbEntity
  8
Sketch Lines(Ram)
100
AcDbLine
 10
2.798607274432836
 20
5.375062500920826
 30
0.0
 11
-2.798607274432844
 21
5.375062500920826
 31
0.0
  0
LINE
  5
2E6
330
2DF
100
AcDbEntity
  8
Sketch Lines(Ram)
100
AcDbLine
 10
-2.798607274432844
 20
0.0
 30
0.0
 11
2.798607274432836
 21
0.0
 31
0.0
  0
ATTDEF
  5
2E8
102
{ACAD_XDICTIONARY
360
6F1
102
}
330
2DF
100
AcDbEntity
  8
Symbols(Ram)
 62
     7
100
AcDbText
 10
-0.8478202475273363
 20
1.573328946584412
 30
0.0
 40
2.489199936389923
  1
3
  7
Text Style14
100
AcDbAttributeDefinition
280
     0
  3
Enter Prompt for Field
  2
Enter_Prompt_for_Field_001
 70
     0
280
     0
  0
ENDBLK
  5
2E1
330
2DF
100
AcDbEntity
  8
0
100
AcDbBlockEnd
  0
BLOCK
  5
2EC
330
2EB
100
AcDbEntity
  8
0
100
AcDbBlockBegin
  2
NOTE 001
 70
     2
 10
0.0
 20
0.0
 30
0.0
  3
NOTE 001
  1

  0
MTEXT
  5
2EE
330
2EB
100
AcDbEntity
  8
Symbols(Ram)
 62
     7
100
AcDbMText
 10
-42.35590971613071
 20
16.96511149406433
 30
0.0
 40
2.5
 41
0.0
 46
0.0
 71
     1
 72
     1
  1
NOTE:\P \P1. INSTALLATION INSTRUCTIONS:\P2. APPLY WELS LABEL:\P3. CARTON:\P4. LABEL:\P5. MISC. PACKING:\P6. WARANTY CARD:\P 
  7
STD 2.5 ARIAL
 73
     2
 44
0.9442215561866758
1001
ACAD
1000
MTEXTBEGIN
1070
    73
1070
     2
1070
    44
1040
0.9442215561866758
1070
    74
1070
     0
1000
MTEXTEND
  0
ATTDEF
  5
2F0
102
{ACAD_XDICTIONARY
360
6F4
102
}
330
2EB
100
AcDbEntity
  8
Symbols(Ram)
 62
     7
100
AcDbText
 10
16.26863993311069
 20
6.719737660884844
 30
0.0
 40
2.489199936389923
  1
AAAA
  7
Text Style59
100
AcDbAttributeDefinition
280
     0
  3
INSTRUCTIONS
  2
INSTRUCTIONS_001
 70
     0
280
     0
  0
ATTDEF
  5
2F2
102
{ACAD_XDICTIONARY
360
6F7
102
}
330
2EB
100
AcDbEntity
  8
Symbols(Ram)
 62
     7
100
AcDbText
 10
-2.025255139964639
 20
2.789737660884838
 30
0.0
 40
2.489199936389923
  1
BBBBB
  7
Text Style59
100
AcDbAttributeDefinition
280
     0
  3
WELS LABEL
  2
WELS_LABEL_001
 70
     0
280
     0
  0
ATTDEF
  5
2F3
102
{ACAD_XDICTIONARY
360
6FA
102
}
330
2EB
100
AcDbEntity
  8
Symbols(Ram)
 62
     7
100
AcDbText
 10
-21.5001692928418
 20
-1.182711178412404
 30
0.0
 40
2.489199936389923
  1
CCCC
  7
Text Style59
100
AcDbAttributeDefinition
280
     0
  3
CARTON
  2
CARTON_001
 70
     0
280
     0
  0
ATTDEF
  5
2F4
102
{ACAD_XDICTIONARY
360
6FD
102
}
330
2EB
100
AcDbEntity
  8
Symbols(Ram)
 62
     7
100
AcDbText
 10
-9.91961932874967
 20
-9.000262339115181
 30
0.0
 40
2.489199936389923
  1
DDDD
  7
Text Style59
100
AcDbAttributeDefinition
280
     0
  3
MISC. PACKING
  2
MISC._PACKING_001
 70
     0
280
     0
  0
ATTDEF
  5
2F5
102
{ACAD_XDICTIONARY
360
700
102
}
330
2EB
100
AcDbEntity
  8
Symbols(Ram)
 62
     7
100
AcDbText
 10
-25.62709020036181
 20
-5.070262339115174
 30
0.0
 40
2.489199936389923
  1
EEEE
  7
Text Style59
100
AcDbAttributeDefinition
280
     0
  3
LABEL
  2
LABEL_001
 70
     0
280
     0
  0
ATTDEF
  5
2F6
102
{ACAD_XDICTIONARY
360
703
102
}
330
2EB
100
AcDbEntity
  8
Symbols(Ram)
 62
     7
100
AcDbText
 10
-7.950273165483126
 20
-12.93026233911518
 30
0.0
 40
2.489199936389923
  1
FFFF
  7
Text Style59
100
AcDbAttributeDefinition
280
     0
  3
WARRANTY CARD
  2
WARRANTY_CARD_001
 70
     0
280
     0
  0
ENDBLK
  5
2ED
330
2EB
100
AcDbEntity
  8
0
100
AcDbBlockEnd
  0
BLOCK
  5
2F8
330
2F7
100
AcDbEntity
  8
0
100
AcDbBlockBegin
  2
PRESSURE AND TEMP
 70
     0
 10
0.0
 20
0.0
 30
0.0
  3
PRESSURE AND TEMP
  1

  0
MTEXT
  5
2FA
330
2F7
100
AcDbEntity
  8
Symbols(Ram)
 62
     7
100
AcDbMText
 10
-22.5190544128418
 20
3.216175381094216
 30
0.0
 40
2.5
 41
0.0
 46
0.0
 71
     1
 72
     1
  1
MAX PRESSURE : 1000 kpa\PMAX TEMP : 80°c
  7
STD 2.5 ARIAL
 73
     2
 44
0.9442214965820312
1001
ACAD
1000
MTEXTBEGIN
1070
    73
1070
     2
1070
    44
1040
0.9442214965820312
1070
    74
1070
     0
1000
MTEXTEND
  0
ENDBLK
  5
2F9
330
2F7
100
AcDbEntity
  8
0
100
AcDbBlockEnd
  0
BLOCK
  5
2FC
330
2FB
100
AcDbEntity
  8
0
100
AcDbBlockBegin
  2
PRESSURE AND TEMP ONLY
 70
     0
 10
0.0
 20
0.0
 30
0.0
  3
PRESSURE AND TEMP ONLY
  1

  0
MTEXT
  5
2FE
330
2FB
100
AcDbEntity
  8
Symbols(Ram)
 62
     7
100
AcDbMText
 10
-34.83803272247314
 20
11.57488588243723
 30
0.0
 40
2.5
 41
0.0
 46
0.0
 71
     1
 72
     1
  1
NOTES:\P1. Maximum Hydrostatic Pressure: : 1000kpa\P2. Minimum Hydrostatic Pressure: : 150kpa\P3. Maximum Water Temperature : 80°c\P4. Supplied With Flexible Connectors.\P5. Requires a \fAIGDT|b0|i0;\H2.5000;n\fArial|b0|i0;\H2.5000;32 - 35mm Hole.
  7
STD 2.5 ARIAL
 73
     2
 44
0.9600000381469724
1001
ACAD
1000
MTEXTBEGIN
1070
    73
1070
     2
1070
    44
1040
0.9600000381469724
1070
    74
1070
     0
1000
MTEXTEND
  0
ENDBLK
  5
2FD
330
2FB
100
AcDbEntity
  8
0
100
AcDbBlockEnd
  0
BLOCK
  5
300
330
2FF
100
AcDbEntity
  8
0
100
AcDbBlockBegin
  2
PRESSURE AND TEMP ONLY NO HOSE
 70
     0
 10
0.0
 20
0.0
 30
0.0
  3
PRESSURE AND TEMP ONLY NO HOSE
  1

  0
MTEXT
  5
302
330
2FF
100
AcDbEntity
  8
Symbols(Ram)
 62
     7
100
AcDbMText
 10
-33.86813879013061
 20
7.4762699380517
 30
0.0
 40
2.5
 41
0.0
 46
0.0
 71
     1
 72
     1
  1
NOTES:\P1. Maximum Hydrostatic Pressure: 1000kpa\P2. Minimum Hydrostatic Pressure: 150kpa\P3. Maximum Water Temperature : 80°c
  7
STD 2.5 ARIAL
 73
     2
 44
0.9442214965820312
1001
ACAD
1000
MTEXTBEGIN
1070
    73
1070
     2
1070
    44
1040
0.9442214965820312
1070
    74
1070
     0
1000
MTEXTEND
  0
ENDBLK
  5
301
330
2FF
100
AcDbEntity
  8
0
100
AcDbBlockEnd
  0
BLOCK
  5
304
330
303
100
AcDbEntity
  8
0
100
AcDbBlockBegin
  2
PRESSURE AND TEMP_LASER-ETCHED
 70
     0
 10
0.0
 20
0.0
 30
0.0
  3
PRESSURE AND TEMP_LASER-ETCHED
  1

  0
MTEXT
  5
306
330
303
100
AcDbEntity
  8
Symbols(Ram)
 62
     7
100
AcDbMText
 10
-33.86813879013061
 20
13.59489351511001
 30
0.0
 40
2.5
 41
0.0
 46
0.0
 71
     1
 72
     1
  3
NOTES:\P1. Maximum Hydrostatic Pressure: 1000kpa\P2. Minimum Hydrostatic Pressure: 150kpa\P3. Maximum Water Temperature : 80°c\P4. Supplied With Flexible Connectors.\P5. Requires a \fAIGDT|b0|i0;\H2.5000;n\fArial|b0|i0;\H2.5000;32 - 35mm Hole.\P6. La
  1
ser-etched H and C Markings.
  7
STD 2.5 ARIAL
 73
     2
 44
0.9600000381469724
1001
ACAD
1000
MTEXTBEGIN
1070
    73
1070
     2
1070
    44
1040
0.9600000381469724
1070
    74
1070
     0
1000
MTEXTEND
  0
ENDBLK
  5
305
330
303
100
AcDbEntity
  8
0
100
AcDbBlockEnd
  0
BLOCK
  5
308
330
307
100
AcDbEntity
  8
0
100
AcDbBlockBegin
  2
PRESSURE AND TEMP_LASER-ETCHED NO HOSE
 70
     0
 10
0.0
 20
0.0
 30
0.0
  3
PRESSURE AND TEMP_LASER-ETCHED NO HOSE
  1

  0
MTEXT
  5
30A
330
307
100
AcDbEntity
  8
Symbols(Ram)
 62
     7
100
AcDbMText
 10
-34.35308456420898
 20
9.463405609130859
 30
0.0
 40
2.5
 41
0.0
 46
0.0
 71
     1
 72
     1
  1
NOTES:\P1. Maximum Hydrostatic Pressure : 1000kpa\P2. Minimum Hydrostatic Pressure : 150kpa\P3. Maximum Water Temperature : 80°c\P4. Laser-etched H and C Markings.
  7
STD 2.5 ARIAL
 73
     2
 44
0.9442214965820312
1001
ACAD
1000
MTEXTBEGIN
1070
    73
1070
     2
1070
    44
1040
0.9442214965820312
1070
    74
1070
     0
1000
MTEXTEND
  0
ENDBLK
  5
309
330
307
100
AcDbEntity
  8
0
100
AcDbBlockEnd
  0
BLOCK
  5
30C
330
30B
100
AcDbEntity
  8
0
100
AcDbBlockBegin
  2
QUOTATION ONLY
 70
     0
 10
0.0
 20
0.0
 30
0.0
  3
QUOTATION ONLY
  1

  0
MTEXT
  5
30E
102
{ACAD_XDICTIONARY
360
706
102
}
330
30B
100
AcDbEntity
  8
Symbols(Ram)
 62
     1
100
AcDbMText
 10
-3.530143797397613
 20
6.114388415116795
 30
0.0
 40
2.5
 41
42.70007610321044
 46
0.0
 71
     2
 72
     1
  1
{\H1.4x;QUOTATION \PONLY\H1.27999x; \H0.78126x;\P}May be subject to alteration {\H1.31916x; }prior to production.{\H1.14106x; }
  7
STD 2.5 ARIAL
 11
0.8660254037844385
 21
0.5000000000000007
 31
0.0
 73
     1
 44
0.8339310288429258
1001
ACAD
1000
MTEXTBEGIN
1070
    73
1070
     1
1070
    44
1040
0.8339310288429258
1070
    74
1070
     0
1000
MTEXTEND
  0
ENDBLK
  5
30D
330
30B
100
AcDbEntity
  8
0
100
AcDbBlockEnd
  0
BLOCK
  5
310
330
30F
100
AcDbEntity
  8
0
100
AcDbBlockBegin
  2
Quote Only
 70
     0
 10
0.0
 20
0.0
 30
0.0
  3
Quote Only
  1

  0
MTEXT
  5
312
102
{ACAD_XDICTIONARY
360
708
102
}
330
30F
100
AcDbEntity
  8
Symbols(Ram)
 62
     1
100
AcDbMText
 10
-5.960016744211316
 20
10.32305181493523
 30
0.0
 40
2.5
 41
42.51561164855953
 46
0.0
 71
     2
 72
     1
  1
{\H2.8x;QUOTE\PONLY\H1.39959x; \H0.71449x;\P}NOT FOR PRODUCTION{\H1.97342x; }
  7
STD 2.5 ARIAL
 11
0.8660254037844385
 21
0.5000000000000007
 31
0.0
 73
     1
 44
0.8201032876968382
1001
ACAD
1000
MTEXTBEGIN
1070
    73
1070
     1
1070
    44
1040
0.8201032876968382
1070
    74
1070
     0
1000
MTEXTEND
  0
ENDBLK
  5
311
330
30F
100
AcDbEntity
  8
0
100
AcDbBlockEnd
  0
BLOCK
  5
314
330
313
100
AcDbEntity
  8
0
100
AcDbBlockBegin
  2
SCREW-IN _ TURNS
 70
     2
 10
0.0
 20
0.0
 30
0.0
  3
SCREW-IN _ TURNS
  1

  0
LINE
  5
316
330
313
100
AcDbEntity
  8
Sketch Geometry(Ram)
100
AcDbLine
 10
0.0
 20
0.0
 30
0.0
 11
2.999999999999998
 21
0.0
 31
0.0
  0
MTEXT
  5
317
330
313
100
AcDbEntity
  8
Symbols(Ram)
 62
     7
100
AcDbMText
 10
13.0
 20
0.661960271490365
 30
0.0
 40
2.489199936389923
 41
0.0
 46
0.0
 71
     2
 72
     1
  1
\fArial|b0|i0;SCREW-IN\P    FULL \PTURNS
  7
STD 2.5 ARIAL
 73
     2
 44
0.9442214369773862
1001
ACAD
1000
MTEXTBEGIN
1070
    73
1070
     2
1070
    44
1040
0.9442214369773862
1070
    74
1070
     0
1000
MTEXTEND
  0
ATTDEF
  5
318
102
{ACAD_XDICTIONARY
360
70A
102
}
330
313
100
AcDbEntity
  8
Symbols(Ram)
 62
     7
100
AcDbText
 10
7.525716082480031
 20
-5.755678613203656
 30
0.0
 40
2.489199936389923
  1
5
  7
Text Style14
100
AcDbAttributeDefinition
280
     0
  3
NUMBER
  2
NUMBER_001
 70
     0
280
     0
  0
ENDBLK
  5
315
330
313
100
AcDbEntity
  8
0
100
AcDbBlockEnd
  0
BLOCK
  5
31A
330
319
100
AcDbEntity
  8
0
100
AcDbBlockBegin
  2
THREAD RETAINER
 70
     0
 10
0.0
 20
0.0
 30
0.0
  3
THREAD RETAINER
  1

  0
ARC
  5
31C
330
319
100
AcDbEntity
  8
Sketch Geometry(Ram)
370
    18
100
AcDbCircle
 10
-0.6774969242626128
 20
-0.6613829731234056
 30
0.0
 40
1.0
100
AcDbArc
 50
225.0000000000015
 51
255.0000000000018
  0
LINE
  5
31D
330
319
100
AcDbEntity
  8
Sketch Geometry(Ram)
370
    18
100
AcDbLine
 10
-1.42215834333104
 20
-1.330935116427927
 30
0.0
 11
-1.598935038627668
 21
-1.507711811724553
 31
0.0
  0
ARC
  5
31E
330
319
100
AcDbEntity
  8
Sketch Geometry(Ram)
370
    18
100
AcDbCircle
 10
-1.634290377686991
 20
-1.472356472665231
 30
0.0
 40
0.05
100
AcDbArc
 50
225.0
 51
314.9999999999999
  0
LINE
  5
31F
330
319
100
AcDbEntity
  8
Sketch Geometry(Ram)
370
    18
100
AcDbLine
 10
0.097851138708478
 20
-1.904413040859527
 30
0.0
 11
-0.9363159693650755
 21
-1.627308799412379
 31
0.0
  0
ARC
  5
320
330
319
100
AcDbEntity
  8
Sketch Geometry(Ram)
370
    18
100
AcDbCircle
 10
0.2633301278051192
 20
-1.286837045965682
 30
0.0
 40
0.639361717106625
100
AcDbArc
 50
255.000000000001
 51
315.0
  0
LINE
  5
321
330
319
100
AcDbEntity
  8
Sketch Geometry(Ram)
370
    18
100
AcDbLine
 10
-1.669645716746313
 20
-1.507711811724553
 30
0.0
 11
-2.588884532290548
 21
-0.5884729961804425
 31
0.0
  0
ARC
  5
322
330
319
100
AcDbEntity
  8
Sketch Geometry(Ram)
370
    18
100
AcDbCircle
 10
-2.553529193231208
 20
-0.5531176571211029
 30
0.0
 40
0.05
100
AcDbArc
 50
135.0000000000001
 51
224.9999999999999
  0
LINE
  5
323
330
319
100
AcDbEntity
  8
Sketch Geometry(Ram)
370
    18
100
AcDbLine
 10
-2.58888453229053
 20
-0.5177623180617808
 30
0.0
 11
-2.412107836993904
 21
-0.3409856227651531
 31
0.0
  0
LINE
  5
324
330
319
100
AcDbEntity
  8
Sketch Geometry(Ram)
370
    18
100
AcDbLine
 10
-1.38460370544907
 20
-1.368489754309897
 30
0.0
 11
-2.44966247487742
 21
-0.3034309848816541
 31
0.0
  0
LINE
  5
325
330
319
100
AcDbEntity
  8
Sketch Geometry(Ram)
370
    18
100
AcDbLine
 10
3.288844482959021
 20
7.001357097865116
 30
0.0
 11
5.920184377297452
 21
4.370017203526757
 31
0.0
  0
LINE
  5
326
330
319
100
AcDbEntity
  8
Sketch Geometry(Ram)
370
    18
100
AcDbLine
 10
5.920184377297452
 20
3.465823191932404
 30
0.0
 11
0.7154271336022866
 21
-1.738934051762849
 31
0.0
  0
LINE
  5
327
330
319
100
AcDbEntity
  8
Sketch Geometry(Ram)
370
    18
100
AcDbLine
 10
-2.820106772330531
 20
1.796599854169896
 30
0.0
 11
2.384650471364686
 21
7.001357097865116
 31
0.0
  0
ARC
  5
328
330
319
100
AcDbEntity
  8
Sketch Geometry(Ram)
370
    18
100
AcDbCircle
 10
-2.368009766533365
 20
1.344502848372729
 30
0.0
 40
0.639361717106625
100
AcDbArc
 50
135.0
 51
194.9999999999997
  0
ARC
  5
329
330
319
100
AcDbEntity
  8
Sketch Geometry(Ram)
370
    18
100
AcDbCircle
 10
2.836747477161853
 20
6.54926009206795
 30
0.0
 40
0.639361717106625
100
AcDbArc
 50
45.0
 51
135.0
  0
ARC
  5
32A
330
319
100
AcDbEntity
  8
Sketch Geometry(Ram)
370
    18
100
AcDbCircle
 10
5.468087371500284
 20
3.917920197729571
 30
0.0
 40
0.639361717106625
100
AcDbArc
 50
315.0
 51
45.00000000000111
  0
ARC
  5
32B
330
319
100
AcDbEntity
  8
Sketch Geometry(Ram)
370
    18
100
AcDbCircle
 10
-1.742555693690928
 20
0.4036757963049277
 30
0.0
 40
1.0
100
AcDbArc
 50
195.0000000000004
 51
225.0000000000035
  0
LINE
  5
32C
330
319
100
AcDbEntity
  8
Sketch Geometry(Ram)
370
    18
100
AcDbLine
 10
-2.985585761427173
 20
1.179023859276089
 30
0.0
 11
-2.708481519980007
 21
0.1448567512023935
 31
0.0
  0
LINE
  5
32D
330
319
100
AcDbEntity
  8
Sketch Geometry(Ram)
370
    18
100
AcDbLine
 10
-5.450847264539451
 20
-4.213552536714376
 30
0.0
 11
-2.553629214331412
 21
-0.6237283141395446
 31
0.0
  0
LINE
  5
32E
330
319
100
AcDbEntity
  8
Sketch Geometry(Ram)
370
    18
100
AcDbLine
 10
-1.704901034705431
 20
-1.472456493765434
 30
0.0
 11
-5.294725257281863
 21
-4.369674543972035
 31
0.0
  0
ARC
  5
32F
330
319
100
AcDbEntity
  8
Sketch Geometry(Ram)
370
    18
100
AcDbCircle
 10
-5.364451872038014
 20
-4.28327915147058
 30
0.0
 40
0.1110223610397212
100
AcDbArc
 50
141.0942481659214
 51
308.9057518340514
  0
ARC
  5
330
330
319
100
AcDbEntity
  8
Sketch Geometry(Ram)
370
    18
100
AcDbCircle
 10
-5.364451872038014
 20
-4.933672957984676
 30
0.0
 40
0.1
100
AcDbArc
 50
10.7837787376784
 51
169.2162212623296
  0
ARC
  5
331
330
319
100
AcDbEntity
  8
Sketch Geometry(Ram)
370
    18
100
AcDbCircle
 10
-2.810367191575781
 20
-4.447204618800917
 30
0.0
 40
2.5
100
AcDbArc
 50
190.7837787376725
 51
218.041075036832
  0
ARC
  5
332
330
319
100
AcDbEntity
  8
Sketch Geometry(Ram)
370
    18
100
AcDbCircle
 10
-7.918536552500227
 20
-4.447204618800917
 30
0.0
 40
2.5
100
AcDbArc
 50
321.9589249631677
 51
349.216221262327
  0
ARC
  5
333
330
319
100
AcDbEntity
  8
Sketch Geometry(Ram)
370
    18
100
AcDbCircle
 10
-5.364451872038014
 20
-6.445624592605661
 30
0.0
 40
0.7429972165688831
100
AcDbArc
 50
141.9589249631685
 51
38.04107503683136
  0
MTEXT
  5
334
330
319
100
AcDbEntity
  8
Symbols(Ram)
 62
     7
100
AcDbMText
 10
-1.083429051210895
 20
-8.380980076428057
 30
0.0
 40
1.49859994649887
 41
16.53502489896194
 46
0.0
 71
     2
 72
     1
  1
\fArial|b0|i0;\H1.4986;APPLY MEDIUM\PSTRENGTH\PTHREAD RETAINER
  7
STD 2.5 ARIAL
 73
     2
 44
0.9442214369773862
1001
ACAD
1000
MTEXTBEGIN
1070
    73
1070
     2
1070
    44
1040
0.9442214369773862
1070
    74
1070
     0
1000
MTEXTEND
  0
ENDBLK
  5
31B
330
319
100
AcDbEntity
  8
0
100
AcDbBlockEnd
  0
BLOCK
  5
336
330
335
100
AcDbEntity
  8
0
100
AcDbBlockBegin
  2
THREAD RETAINER H
 70
     0
 10
0.0
 20
0.0
 30
0.0
  3
THREAD RETAINER H
  1

  0
LINE
  5
338
330
335
100
AcDbEntity
  8
Sketch Geometry(Ram)
370
    18
100
AcDbLine
 10
3.288844482959021
 20
7.001357097865116
 30
0.0
 11
5.920184377297452
 21
4.370017203526757
 31
0.0
  0
LINE
  5
339
330
335
100
AcDbEntity
  8
Sketch Geometry(Ram)
370
    18
100
AcDbLine
 10
5.920184377297452
 20
3.465823191932404
 30
0.0
 11
0.7154271336022866
 21
-1.738934051762849
 31
0.0
  0
LINE
  5
33A
330
335
100
AcDbEntity
  8
Sketch Geometry(Ram)
370
    18
100
AcDbLine
 10
-2.820106772330531
 20
1.796599854169896
 30
0.0
 11
2.384650471364686
 21
7.001357097865116
 31
0.0
  0
ARC
  5
33B
330
335
100
AcDbEntity
  8
Sketch Geometry(Ram)
370
    18
100
AcDbCircle
 10
0.2633301278051192
 20
-1.286837045965682
 30
0.0
 40
0.639361717106625
100
AcDbArc
 50
255.000000000001
 51
315.0
  0
ARC
  5
33C
330
335
100
AcDbEntity
  8
Sketch Geometry(Ram)
370
    18
100
AcDbCircle
 10
-2.368009766533365
 20
1.344502848372729
 30
0.0
 40
0.639361717106625
100
AcDbArc
 50
135.0
 51
194.9999999999997
  0
ARC
  5
33D
330
335
100
AcDbEntity
  8
Sketch Geometry(Ram)
370
    18
100
AcDbCircle
 10
2.836747477161853
 20
6.54926009206795
 30
0.0
 40
0.639361717106625
100
AcDbArc
 50
45.0
 51
135.0
  0
ARC
  5
33E
330
335
100
AcDbEntity
  8
Sketch Geometry(Ram)
370
    18
100
AcDbCircle
 10
5.468087371500284
 20
3.917920197729571
 30
0.0
 40
0.639361717106625
100
AcDbArc
 50
315.0
 51
45.00000000000111
  0
LINE
  5
33F
330
335
100
AcDbEntity
  8
Sketch Geometry(Ram)
370
    18
100
AcDbLine
 10
0.097851138708478
 20
-1.904413040859527
 30
0.0
 11
-0.9363159693650755
 21
-1.627308799412379
 31
0.0
  0
LINE
  5
340
330
335
100
AcDbEntity
  8
Sketch Geometry(Ram)
370
    18
100
AcDbLine
 10
-2.985585761427173
 20
1.179023859276089
 30
0.0
 11
-2.708481519980007
 21
0.1448567512023935
 31
0.0
  0
LINE
  5
341
330
335
100
AcDbEntity
  8
Sketch Geometry(Ram)
370
    18
100
AcDbLine
 10
-1.38460370544907
 20
-1.368489754309897
 30
0.0
 11
-2.44966247487742
 21
-0.3034309848816541
 31
0.0
  0
LINE
  5
342
330
335
100
AcDbEntity
  8
Sketch Geometry(Ram)
370
    18
100
AcDbLine
 10
-1.42215834333104
 20
-1.330935116427927
 30
0.0
 11
-1.598935038627668
 21
-1.507711811724553
 31
0.0
  0
LINE
  5
343
330
335
100
AcDbEntity
  8
Sketch Geometry(Ram)
370
    18
100
AcDbLine
 10
-1.669645716746313
 20
-1.507711811724553
 30
0.0
 11
-2.588884532290548
 21
-0.5884729961804425
 31
0.0
  0
LINE
  5
344
330
335
100
AcDbEntity
  8
Sketch Geometry(Ram)
370
    18
100
AcDbLine
 10
-2.58888453229053
 20
-0.5177623180617808
 30
0.0
 11
-2.412107836993904
 21
-0.3409856227651531
 31
0.0
  0
ARC
  5
345
330
335
100
AcDbEntity
  8
Sketch Geometry(Ram)
370
    18
100
AcDbCircle
 10
-5.364451872038014
 20
-4.28327915147058
 30
0.0
 40
0.1110223610397212
100
AcDbArc
 50
141.0942481659214
 51
308.9057518340514
  0
LINE
  5
346
330
335
100
AcDbEntity
  8
Sketch Geometry(Ram)
370
    18
100
AcDbLine
 10
-5.450847264539451
 20
-4.213552536714376
 30
0.0
 11
-2.553629214331412
 21
-0.6237283141395446
 31
0.0
  0
LINE
  5
347
330
335
100
AcDbEntity
  8
Sketch Geometry(Ram)
370
    18
100
AcDbLine
 10
-1.704901034705431
 20
-1.472456493765434
 30
0.0
 11
-5.294725257281863
 21
-4.369674543972035
 31
0.0
  0
ARC
  5
348
330
335
100
AcDbEntity
  8
Sketch Geometry(Ram)
370
    18
100
AcDbCircle
 10
-0.6774969242626128
 20
-0.6613829731234056
 30
0.0
 40
1.0
100
AcDbArc
 50
225.0000000000015
 51
255.0000000000018
  0
ARC
  5
349
330
335
100
AcDbEntity
  8
Sketch Geometry(Ram)
370
    18
100
AcDbCircle
 10
-1.742555693690928
 20
0.4036757963049277
 30
0.0
 40
1.0
100
AcDbArc
 50
195.0000000000004
 51
225.0000000000035
  0
ARC
  5
34A
330
335
100
AcDbEntity
  8
Sketch Geometry(Ram)
370
    18
100
AcDbCircle
 10
-5.364451872038014
 20
-6.445624592605661
 30
0.0
 40
0.7429972165688831
100
AcDbArc
 50
141.9589249631685
 51
38.04107503683136
  0
ARC
  5
34B
330
335
100
AcDbEntity
  8
Sketch Geometry(Ram)
370
    18
100
AcDbCircle
 10
-7.918536552500227
 20
-4.447204618800917
 30
0.0
 40
2.5
100
AcDbArc
 50
321.9589249631677
 51
349.216221262327
  0
ARC
  5
34C
330
335
100
AcDbEntity
  8
Sketch Geometry(Ram)
370
    18
100
AcDbCircle
 10
-2.810367191575781
 20
-4.447204618800917
 30
0.0
 40
2.5
100
AcDbArc
 50
190.7837787376725
 51
218.041075036832
  0
ARC
  5
34D
330
335
100
AcDbEntity
  8
Sketch Geometry(Ram)
370
    18
100
AcDbCircle
 10
-5.364451872038014
 20
-4.933672957984676
 30
0.0
 40
0.1
100
AcDbArc
 50
10.7837787376784
 51
169.2162212623296
  0
ARC
  5
34E
330
335
100
AcDbEntity
  8
Sketch Geometry(Ram)
370
    18
100
AcDbCircle
 10
-1.634290377686991
 20
-1.472356472665231
 30
0.0
 40
0.05
100
AcDbArc
 50
225.0
 51
314.9999999999999
  0
ARC
  5
34F
330
335
100
AcDbEntity
  8
Sketch Geometry(Ram)
370
    18
100
AcDbCircle
 10
-2.553529193231208
 20
-0.5531176571211029
 30
0.0
 40
0.05
100
AcDbArc
 50
135.0000000000001
 51
224.9999999999999
  0
MTEXT
  5
350
330
335
100
AcDbEntity
  8
Symbols(Ram)
 62
     7
100
AcDbMText
 10
-0.5191429966991557
 20
-8.252703968673174
 30
0.0
 40
1.49859994649887
 41
12.69037379631854
 46
0.0
 71
     2
 72
     1
  1
\fArial|b0|i0;\H1.4986;APPLY HIGH\PSTRENGTH\PTHREAD RETAINER
  7
STD 2.5 ARIAL
 73
     2
 44
0.9442214369773862
1001
ACAD
1000
MTEXTBEGIN
1070
    73
1070
     2
1070
    44
1040
0.9442214369773862
1070
    74
1070
     0
1000
MTEXTEND
  0
ENDBLK
  5
337
330
335
100
AcDbEntity
  8
0
100
AcDbBlockEnd
  0
BLOCK
  5
352
330
351
100
AcDbEntity
  8
0
100
AcDbBlockBegin
  2
TIGHTEN TO
 70
     2
 10
0.0
 20
0.0
 30
0.0
  3
TIGHTEN TO
  1

  0
LINE
  5
354
330
351
100
AcDbEntity
  8
Sketch Geometry(Ram)
100
AcDbLine
 10
0.0
 20
0.0
 30
0.0
 11
3.000000000000006
 21
0.0
 31
0.0
  0
MTEXT
  5
355
330
351
100
AcDbEntity
  8
Symbols(Ram)
 62
     7
100
AcDbMText
 10
4.000000000000002
 20
-0.4158152686432004
 30
0.0
 40
2.489199936389923
 41
0.0
 46
0.0
 71
     4
 72
     1
  1
\fArial|b0|i0;TIGHTEN\PTO      N/m
  7
STD 2.5 ARIAL
 73
     2
 44
0.9442214369773862
1001
ACAD
1000
MTEXTBEGIN
1070
    73
1070
     2
1070
    44
1040
0.9442214369773862
1070
    74
1070
     0
1000
MTEXTEND
  0
ATTDEF
  5
356
102
{ACAD_XDICTIONARY
360
70D
102
}
330
351
100
AcDbEntity
  8
Symbols(Ram)
 62
     7
100
AcDbText
 10
9.459908783374833
 20
-3.246431671331386
 30
0.0
 40
2.489199936389923
  1
10
  7
Text Style14
100
AcDbAttributeDefinition
280
     0
  3
AMOUNT
  2
AMOUNT_001
 70
     0
280
     0
  0
ENDBLK
  5
353
330
351
100
AcDbEntity
  8
0
100
AcDbBlockEnd
  0
BLOCK
  5
358
330
357
100
AcDbEntity
  8
0
100
AcDbBlockBegin
  2
WATERMARK ETCH
 70
     0
 10
0.0
 20
0.0
 30
0.0
  3
WATERMARK ETCH
  1

  0
LINE
  5
35A
330
357
100
AcDbEntity
  8
Sketch Geometry(Ram)
100
AcDbLine
 10
0.0
 20
0.0
 30
0.0
 11
-3.000000000000006
 21
0.0
 31
0.0
  0
MTEXT
  5
35B
330
357
100
AcDbEntity
  8
Symbols(Ram)
 62
     7
100
AcDbMText
 10
-21.00000000000001
 20
1.164973430248376
 30
0.0
 40
2.489199936389923
 41
0.0
 46
0.0
 71
     2
 72
     1
  1
\fArial|b0|i0;WATERMARK - ETCH\PAFTER SUCCESSFUL\PPRESSURE TEST
  7
STD 2.5 ARIAL
 73
     2
 44
0.9442214369773862
1001
ACAD
1000
MTEXTBEGIN
1070
    73
1070
     2
1070
    44
1040
0.9442214369773862
1070
    74
1070
     0
1000
MTEXTEND
  0
ENDBLK
  5
359
330
357
100
AcDbEntity
  8
0
100
AcDbBlockEnd
  0
BLOCK
  5
35D
330
35C
100
AcDbEntity
  8
0
100
AcDbBlockBegin
  2
WATERMARK STICKER
 70
     0
 10
0.0
 20
0.0
 30
0.0
  3
WATERMARK STICKER
  1

  0
LINE
  5
35F
330
35C
100
AcDbEntity
  8
Sketch Geometry(Ram)
100
AcDbLine
 10
0.0
 20
0.0
 30
0.0
 11
-2.999999999999998
 21
0.0
 31
0.0
  0
MTEXT
  5
360
330
35C
100
AcDbEntity
  8
Symbols(Ram)
 62
     7
100
AcDbMText
 10
-21.0
 20
1.063789565959075
 30
0.0
 40
2.489199936389923
 41
0.0
 46
0.0
 71
     2
 72
     1
  1
\fArial|b0|i0;APPLY WATERMARK\PSTICKER (STK09)\PAFTER SUCCESSFUL\PPRESSURE TEST
  7
STD 2.5 ARIAL
 73
     2
 44
0.9442214369773862
1001
ACAD
1000
MTEXTBEGIN
1070
    73
1070
     2
1070
    44
1040
0.9442214369773862
1070
    74
1070
     0
1000
MTEXTEND
  0
ENDBLK
  5
35E
330
35C
100
AcDbEntity
  8
0
100
AcDbBlockEnd
  0
BLOCK
  5
362
330
361
100
AcDbEntity
  8
0
100
AcDbBlockBegin
  2
WATERMARK STICKER RH SIDE
 70
     0
 10
0.0
 20
0.0
 30
0.0
  3
WATERMARK STICKER RH SIDE
  1

  0
LINE
  5
364
330
361
100
AcDbEntity
  8
Sketch Geometry(Ram)
100
AcDbLine
 10
0.0
 20
0.0
 30
0.0
 11
2.999999999999998
 21
0.0
 31
0.0
  0
MTEXT
  5
365
330
361
100
AcDbEntity
  8
Symbols(Ram)
 62
     7
100
AcDbMText
 10
21.00000000000001
 20
0.8759048483026532
 30
0.0
 40
2.489199936389923
 41
0.0
 46
0.0
 71
     2
 72
     1
  1
\fArial|b0|i0;APPLY WATERMARK\PSTICKER (STK09)\PAFTER SUCCESSFUL\PPRESSURE TEST
  7
STD 2.5 ARIAL
 73
     2
 44
0.9442214369773862
1001
ACAD
1000
MTEXTBEGIN
1070
    73
1070
     2
1070
    44
1040
0.9442214369773862
1070
    74
1070
     0
1000
MTEXTEND
  0
ENDBLK
  5
363
330
361
100
AcDbEntity
  8
0
100
AcDbBlockEnd
  0
BLOCK
  5
367
330
366
100
AcDbEntity
  8
0
100
AcDbBlockBegin
  2
WELS
 70
     0
 10
0.0
 20
0.0
 30
0.0
  3
WELS
  1

  0
HATCH
  5
36D
330
366
100
AcDbEntity
  8
Hatch
 62
     7
100
AcDbHatch
 10
0.0
 20
0.0
 30
0.0
210
0.0
220
0.0
230
1.0
  2
SOLID
 70
     1
 71
     0
 91
        1
 92
        1
 93
        4
 72
     1
 10
-12.13704218324615
 20
-1.7414967295168
 11
-12.13704218324612
 21
-10.3955455537293
 72
     1
 10
-12.13704218324612
 20
-10.3955455537293
 11
12.13704218324613
 21
-10.3955455537293
 72
     1
 10
12.13704218324613
 20
-10.3955455537293
 11
12.13704218324615
 21
-1.7414967295168
 72
     1
 10
12.13704218324615
 20
-1.7414967295168
 11
-12.13704218324615
 21
-1.7414967295168
 97
        0
 75
     0
 76
     1
 98
        1
 10
0.0
 20
0.0
450
        0
451
        0
460
0.0
461
0.0
452
        0
462
0.0
453
        0
470

  0
LINE
  5
36E
330
366
100
AcDbEntity
  8
Sketch Lines(Ram)
100
AcDbLine
 10
-12.13704218324615
 20
-1.7414967295168
 30
0.0
 11
12.13704218324615
 21
-1.7414967295168
 31
0.0
  0
LINE
  5
36F
330
366
100
AcDbEntity
  8
Sketch Lines(Ram)
100
AcDbLine
 10
12.13704218324615
 20
-1.7414967295168
 30
0.0
 11
12.13704218324613
 21
-10.3955455537293
 31
0.0
  0
LINE
  5
370
330
366
100
AcDbEntity
  8
Sketch Lines(Ram)
100
AcDbLine
 10
12.13704218324613
 20
-10.3955455537293
 30
0.0
 11
-12.13704218324612
 21
-10.3955455537293
 31
0.0
  0
LINE
  5
371
330
366
100
AcDbEntity
  8
Sketch Lines(Ram)
100
AcDbLine
 10
-12.13704218324612
 20
-10.3955455537293
 30
0.0
 11
-12.13704218324615
 21
-1.7414967295168
 31
0.0
  0
ARC
  5
372
330
366
100
AcDbEntity
  8
Sketch Lines(Ram)
100
AcDbCircle
 10
0.0
 20
-1.7414967295168
 30
0.0
 40
12.13704218324612
100
AcDbArc
 50
0.0
 51
180.0
  0
ARC
  5
373
330
366
100
AcDbEntity
  8
Sketch Lines(Ram)
100
AcDbCircle
 10
0.0
 20
-1.7414967295168
 30
0.0
 40
6.544500934971217
100
AcDbArc
 50
0.0
 51
180.0
  0
LINE
  5
374
330
366
100
AcDbEntity
  8
Sketch Lines(Ram)
100
AcDbLine
 10
-9.166134316541008
 20
2.793877233418715
 30
0.0
 11
-9.671290790193019
 21
1.239165470762344
 31
0.0
  0
LINE
  5
375
330
366
100
AcDbEntity
  8
Sketch Lines(Ram)
100
AcDbLine
 10
-9.671290790193019
 20
1.239165470762344
 30
0.0
 11
-11.3060114782051
 21
1.239165470762344
 31
0.0
  0
LINE
  5
376
330
366
100
AcDbEntity
  8
Sketch Lines(Ram)
100
AcDbLine
 10
-11.3060114782051
 20
1.239165470762344
 30
0.0
 11
-9.983494660547016
 21
0.2783007587314401
 31
0.0
  0
LINE
  5
377
330
366
100
AcDbEntity
  8
Sketch Lines(Ram)
100
AcDbLine
 10
-9.983494660547016
 20
0.2783007587314401
 30
0.0
 11
-10.48865113419906
 21
-1.276411003924913
 31
0.0
  0
LINE
  5
378
330
366
100
AcDbEntity
  8
Sketch Lines(Ram)
100
AcDbLine
 10
-10.48865113419906
 20
-1.276411003924913
 30
0.0
 11
-9.166134316541008
 21
-0.3155462918940088
 31
0.0
  0
LINE
  5
379
330
366
100
AcDbEntity
  8
Sketch Lines(Ram)
100
AcDbLine
 10
-9.166134316541008
 20
-0.3155462918940088
 30
0.0
 11
-7.843617498882924
 21
-1.276411003924895
 31
0.0
  0
LINE
  5
37A
330
366
100
AcDbEntity
  8
Sketch Lines(Ram)
100
AcDbLine
 10
-7.843617498882924
 20
-1.276411003924895
 30
0.0
 11
-8.348773972534946
 21
0.2783007587314579
 31
0.0
  0
LINE
  5
37B
330
366
100
AcDbEntity
  8
Sketch Lines(Ram)
100
AcDbLine
 10
-8.348773972534946
 20
0.2783007587314579
 30
0.0
 11
-7.026257154876897
 21
1.239165470762362
 31
0.0
  0
LINE
  5
37C
330
366
100
AcDbEntity
  8
Sketch Lines(Ram)
100
AcDbLine
 10
-7.026257154876897
 20
1.239165470762362
 30
0.0
 11
-8.66097784288895
 21
1.239165470762344
 31
0.0
  0
LINE
  5
37D
330
366
100
AcDbEntity
  8
Sketch Lines(Ram)
100
AcDbLine
 10
-8.66097784288895
 20
1.239165470762344
 30
0.0
 11
-9.166134316541008
 21
2.793877233418715
 31
0.0
  0
LINE
  5
37E
330
366
100
AcDbEntity
  8
Sketch Lines(Ram)
100
AcDbLine
 10
-6.220351606545442
 20
4.182086192073696
 30
0.0
 11
-4.59458608950598
 21
4.352961033463405
 31
0.0
  0
LINE
  5
37F
330
366
100
AcDbEntity
  8
Sketch Lines(Ram)
100
AcDbLine
 10
-4.59458608950598
 20
4.352961033463405
 30
0.0
 11
-6.010295733416412
 21
5.170321377469432
 31
0.0
  0
LINE
  5
380
330
366
100
AcDbEntity
  8
Sketch Lines(Ram)
100
AcDbLine
 10
-6.010295733416412
 20
5.170321377469432
 30
0.0
 11
-5.670418191157065
 21
6.769319496318378
 31
0.0
  0
LINE
  5
381
330
366
100
AcDbEntity
  8
Sketch Lines(Ram)
100
AcDbLine
 10
-5.670418191157065
 20
6.769319496318378
 30
0.0
 11
-6.88525241155407
 21
5.675477851121487
 31
0.0
  0
LINE
  5
382
330
366
100
AcDbEntity
  8
Sketch Lines(Ram)
100
AcDbLine
 10
-6.88525241155407
 20
5.675477851121487
 30
0.0
 11
-8.300962055464502
 21
6.492838195127513
 31
0.0
  0
LINE
  5
383
330
366
100
AcDbEntity
  8
Sketch Lines(Ram)
100
AcDbLine
 10
-8.300962055464502
 20
6.492838195127513
 30
0.0
 11
-7.636061250455892
 21
4.99944653607967
 31
0.0
  0
LINE
  5
384
330
366
100
AcDbEntity
  8
Sketch Lines(Ram)
100
AcDbLine
 10
-7.636061250455892
 20
4.99944653607967
 30
0.0
 11
-8.850895470852897
 21
3.905604890882816
 31
0.0
  0
LINE
  5
385
330
366
100
AcDbEntity
  8
Sketch Lines(Ram)
100
AcDbLine
 10
-8.850895470852897
 20
3.905604890882816
 30
0.0
 11
-7.225129953813436
 21
4.076479732272576
 31
0.0
  0
LINE
  5
386
330
366
100
AcDbEntity
  8
Sketch Lines(Ram)
100
AcDbLine
 10
-7.225129953813436
 20
4.076479732272576
 30
0.0
 11
-6.560229148804807
 21
2.583088073224768
 31
0.0
  0
LINE
  5
387
330
366
100
AcDbEntity
  8
Sketch Lines(Ram)
100
AcDbLine
 10
-6.560229148804807
 20
2.583088073224768
 30
0.0
 11
-6.220351606545442
 21
4.182086192073696
 31
0.0
  0
LINE
  5
388
330
366
100
AcDbEntity
  8
Sketch Lines(Ram)
100
AcDbLine
 10
-2.425191050944448
 20
6.498652365276951
 30
0.0
 11
-0.9317993918966747
 21
5.833751560268342
 31
0.0
  0
LINE
  5
389
330
366
100
AcDbEntity
  8
Sketch Lines(Ram)
100
AcDbLine
 10
-0.9317993918966747
 20
5.833751560268342
 30
0.0
 11
-1.749159735902718
 21
7.249461204178738
 31
0.0
  0
LINE
  5
38A
330
366
100
AcDbEntity
  8
Sketch Lines(Ram)
100
AcDbLine
 10
-1.749159735902718
 20
7.249461204178738
 30
0.0
 11
-0.6553180907058298
 21
8.464295424575796
 31
0.0
  0
LINE
  5
38B
330
366
100
AcDbEntity
  8
Sketch Lines(Ram)
100
AcDbLine
 10
-0.6553180907058298
 20
8.464295424575796
 30
0.0
 11
-2.254316209554739
 21
8.124417882316432
 31
0.0
  0
LINE
  5
38C
330
366
100
AcDbEntity
  8
Sketch Lines(Ram)
100
AcDbLine
 10
-2.254316209554739
 20
8.124417882316432
 30
0.0
 11
-3.071676553560783
 21
9.540127526226827
 31
0.0
  0
LINE
  5
38D
330
366
100
AcDbEntity
  8
Sketch Lines(Ram)
100
AcDbLine
 10
-3.071676553560783
 20
9.540127526226827
 30
0.0
 11
-3.242551394950528
 21
7.914362009187332
 31
0.0
  0
LINE
  5
38E
330
366
100
AcDbEntity
  8
Sketch Lines(Ram)
100
AcDbLine
 10
-3.242551394950528
 20
7.914362009187332
 30
0.0
 11
-4.841549513799421
 21
7.574484466928002
 31
0.0
  0
LINE
  5
38F
330
366
100
AcDbEntity
  8
Sketch Lines(Ram)
100
AcDbLine
 10
-4.841549513799421
 20
7.574484466928002
 30
0.0
 11
-3.348157854751628
 21
6.909583661919408
 31
0.0
  0
LINE
  5
390
330
366
100
AcDbEntity
  8
Sketch Lines(Ram)
100
AcDbLine
 10
-3.348157854751628
 20
6.909583661919408
 30
0.0
 11
-3.519032696141337
 21
5.283818144879911
 31
0.0
  0
LINE
  5
391
330
366
100
AcDbEntity
  8
Sketch Lines(Ram)
100
AcDbLine
 10
-3.519032696141337
 20
5.283818144879911
 30
0.0
 11
-2.425191050944448
 21
6.498652365276951
 31
0.0
  0
LINE
  5
392
330
366
100
AcDbEntity
  8
Sketch Lines(Ram)
100
AcDbLine
 10
2.019797488248311
 20
6.607277243018144
 30
0.0
 11
2.980662200279161
 21
5.284760425360079
 31
0.0
  0
LINE
  5
393
330
366
100
AcDbEntity
  8
Sketch Lines(Ram)
100
AcDbLine
 10
2.980662200279161
 20
5.284760425360079
 30
0.0
 11
2.980662200279161
 21
6.91948111337215
 31
0.0
  0
LINE
  5
394
330
366
100
AcDbEntity
  8
Sketch Lines(Ram)
100
AcDbLine
 10
2.980662200279161
 20
6.91948111337215
 30
0.0
 11
4.53537396293555
 21
7.424637587024206
 31
0.0
  0
LINE
  5
395
330
366
100
AcDbEntity
  8
Sketch Lines(Ram)
100
AcDbLine
 10
4.53537396293555
 20
7.424637587024206
 30
0.0
 11
2.980662200279161
 21
7.92979406067621
 31
0.0
  0
LINE
  5
396
330
366
100
AcDbEntity
  8
Sketch Lines(Ram)
100
AcDbLine
 10
2.980662200279161
 20
7.92979406067621
 30
0.0
 11
2.980662200279143
 21
9.564514748688264
 31
0.0
  0
LINE
  5
397
330
366
100
AcDbEntity
  8
Sketch Lines(Ram)
100
AcDbLine
 10
2.980662200279143
 20
9.564514748688264
 30
0.0
 11
2.01979748824824
 21
8.241997931030216
 31
0.0
  0
LINE
  5
398
330
366
100
AcDbEntity
  8
Sketch Lines(Ram)
100
AcDbLine
 10
2.01979748824824
 20
8.241997931030216
 30
0.0
 11
0.4650857255919051
 21
8.747154404682271
 31
0.0
  0
LINE
  5
399
330
366
100
AcDbEntity
  8
Sketch Lines(Ram)
100
AcDbLine
 10
0.4650857255919051
 20
8.747154404682271
 30
0.0
 11
1.425950437622809
 21
7.424637587024206
 31
0.0
  0
LINE
  5
39A
330
366
100
AcDbEntity
  8
Sketch Lines(Ram)
100
AcDbLine
 10
1.425950437622809
 20
7.424637587024206
 30
0.0
 11
0.4650857255919229
 21
6.102120769366107
 31
0.0
  0
LINE
  5
39B
330
366
100
AcDbEntity
  8
Sketch Lines(Ram)
100
AcDbLine
 10
0.4650857255919229
 20
6.102120769366107
 30
0.0
 11
2.019797488248311
 21
6.607277243018144
 31
0.0
  0
LINE
  5
39C
330
366
100
AcDbEntity
  8
Sketch Lines(Ram)
100
AcDbLine
 10
5.923582921590513
 20
4.478854877028624
 30
0.0
 11
6.094457762980222
 21
2.853089359989162
 31
0.0
  0
LINE
  5
39D
330
366
100
AcDbEntity
  8
Sketch Lines(Ram)
100
AcDbLine
 10
6.094457762980222
 20
2.853089359989162
 30
0.0
 11
6.911818106986248
 21
4.268799003899611
 31
0.0
  0
LINE
  5
39E
330
366
100
AcDbEntity
  8
Sketch Lines(Ram)
100
AcDbLine
 10
6.911818106986248
 20
4.268799003899611
 30
0.0
 11
8.510816225835178
 21
3.928921461640245
 31
0.0
  0
LINE
  5
39F
330
366
100
AcDbEntity
  8
Sketch Lines(Ram)
100
AcDbLine
 10
8.510816225835178
 20
3.928921461640245
 30
0.0
 11
7.416974580638271
 21
5.143755682037233
 31
0.0
  0
LINE
  5
3A0
330
366
100
AcDbEntity
  8
Sketch Lines(Ram)
100
AcDbLine
 10
7.416974580638271
 20
5.143755682037233
 30
0.0
 11
8.234334924644278
 21
6.559465325947666
 31
0.0
  0
LINE
  5
3A1
330
366
100
AcDbEntity
  8
Sketch Lines(Ram)
100
AcDbLine
 10
8.234334924644278
 20
6.559465325947666
 30
0.0
 11
6.740943265596505
 21
5.894564520939107
 31
0.0
  0
LINE
  5
3A2
330
366
100
AcDbEntity
  8
Sketch Lines(Ram)
100
AcDbLine
 10
6.740943265596505
 20
5.894564520939107
 30
0.0
 11
5.647101620399652
 21
7.109398741336113
 31
0.0
  0
LINE
  5
3A3
330
366
100
AcDbEntity
  8
Sketch Lines(Ram)
100
AcDbLine
 10
5.647101620399652
 20
7.109398741336113
 30
0.0
 11
5.817976461789378
 21
5.483633224296599
 31
0.0
  0
LINE
  5
3A4
330
366
100
AcDbEntity
  8
Sketch Lines(Ram)
100
AcDbLine
 10
5.817976461789378
 20
5.483633224296599
 30
0.0
 11
4.324584802741603
 21
4.818732419287972
 31
0.0
  0
LINE
  5
3A5
330
366
100
AcDbEntity
  8
Sketch Lines(Ram)
100
AcDbLine
 10
4.324584802741603
 20
4.818732419287972
 30
0.0
 11
5.923582921590513
 21
4.478854877028624
 31
0.0
  0
LINE
  5
3A6
330
366
100
AcDbEntity
  8
Sketch Lines(Ram)
100
AcDbLine
 10
8.240149094793736
 20
0.6836943214276481
 30
0.0
 11
7.575248289785142
 21
-0.8096973376201431
 31
0.0
  0
LINE
  5
3A7
330
366
100
AcDbEntity
  8
Sketch Lines(Ram)
100
AcDbLine
 10
7.575248289785142
 20
-0.8096973376201431
 30
0.0
 11
8.990957933695574
 21
0.0076630063859007
 31
0.0
  0
LINE
  5
3A8
330
366
100
AcDbEntity
  8
Sketch Lines(Ram)
100
AcDbLine
 10
8.990957933695574
 20
0.0076630063859007
 30
0.0
 11
10.20579215409256
 21
-1.086178638810987
 31
0.0
  0
LINE
  5
3A9
330
366
100
AcDbEntity
  8
Sketch Lines(Ram)
100
AcDbLine
 10
10.20579215409256
 20
-1.086178638810987
 30
0.0
 11
9.865914611833179
 21
0.5128194800379227
 31
0.0
  0
LINE
  5
3AA
330
366
100
AcDbEntity
  8
Sketch Lines(Ram)
100
AcDbLine
 10
9.865914611833179
 20
0.5128194800379227
 30
0.0
 11
11.28162425574359
 21
1.330179824043984
 31
0.0
  0
LINE
  5
3AB
330
366
100
AcDbEntity
  8
Sketch Lines(Ram)
100
AcDbLine
 10
11.28162425574359
 20
1.330179824043984
 30
0.0
 11
9.655858738704168
 21
1.501054665433726
 31
0.0
  0
LINE
  5
3AC
330
366
100
AcDbEntity
  8
Sketch Lines(Ram)
100
AcDbLine
 10
9.655858738704168
 20
1.501054665433726
 30
0.0
 11
9.315981196444838
 21
3.100052784282619
 31
0.0
  0
LINE
  5
3AD
330
366
100
AcDbEntity
  8
Sketch Lines(Ram)
100
AcDbLine
 10
9.315981196444838
 20
3.100052784282619
 30
0.0
 11
8.651080391436208
 21
1.606661125234811
 31
0.0
  0
LINE
  5
3AE
330
366
100
AcDbEntity
  8
Sketch Lines(Ram)
100
AcDbLine
 10
8.651080391436208
 20
1.606661125234811
 30
0.0
 11
7.02531487439673
 21
1.7775359666245
 31
0.0
  0
LINE
  5
3AF
330
366
100
AcDbEntity
  8
Sketch Lines(Ram)
100
AcDbLine
 10
7.02531487439673
 20
1.7775359666245
 30
0.0
 11
8.240149094793736
 21
0.6836943214276481
 31
0.0
  0
MTEXT
  5
3B0
330
366
100
AcDbEntity
  8
Symbols(Ram)
 62
     7
100
AcDbMText
 10
0.2641538309346636
 20
-2.814653579225723
 30
0.0
 40
2.5
 41
0.0
 46
0.0
 71
     2
 72
     1
  1
\fArial|b1|i0;\H2.5000;WELS \PPRODUCT
  7
STD 2.5 ARIAL
 73
     2
 44
0.9442214965820312
1001
ACAD
1000
MTEXTBEGIN
1070
    73
1070
     2
1070
    44
1040
0.9442214965820312
1070
    74
1070
     0
1000
MTEXTEND
  0
ENDBLK
  5
368
330
366
100
AcDbEntity
  8
0
100
AcDbBlockEnd
  0
BLOCK
  5
3D9
330
3D8
100
AcDbEntity
  8
0
100
AcDbBlockBegin
  2
*D51
 70
     1
 10
0.0
 20
0.0
 30
0.0
  3
*D51
  1

  0
LINE
  5
479
330
3D8
100
AcDbEntity
  8
Dimensions(Ram)
  6
Continuous
 62
     7
440
 16777216
370
    25
100
AcDbLine
 10
268.3574926948536
 20
224.1045192318645
 30
0.0
 11
261.965100911944
 21
224.1045192318645
 31
0.0
  0
LINE
  5
47A
330
3D8
100
AcDbEntity
  8
Dimensions(Ram)
  6
Continuous
 62
     7
440
 16777216
370
    25
100
AcDbLine
 10
261.965100911944
 20
224.1045192318645
 30
0.0
 11
253.1731649552817
 21
208.8764394580406
 31
0.0
  0
MTEXT
  5
47B
102
{ACAD_XDICTIONARY
360
74D
102
}
330
3D8
100
AcDbEntity
  8
Dimensions(Ram)
  6
Continuous
 62
     7
440
 16777216
370
    25
100
AcDbMText
 10
270.3574926948536
 20
226.7972204596953
 30
0.0
 40
5.0
 41
0.0
 46
0.0
 71
     1
 72
     1
  1
\A1;∅80
  7
STD 2.5 ARIAL
 73
     1
 44
1.0
1001
ACAD
1000
MTEXTBEGIN
1070
    73
1070
     1
1070
    44
1040
1.0
1070
    74
1070
     0
1000
MTEXTEND
  0
SOLID
  5
47C
330
3D8
100
AcDbEntity
  8
Dimensions(Ram)
  6
Continuous
 62
     7
440
 16777216
100
AcDbTrace
 10
252.4514771187948
 20
209.2931061247074
 30
0.0
 11
253.8948527917686
 21
208.4597727913738
 31
0.0
 12
250.6731649552809
 22
204.546312439119
 32
0.0
 13
250.6731649552809
 23
204.546312439119
 33
0.0
  0
LINE
  5
47D
330
3D8
100
AcDbEntity
  8
Dimensions(Ram)
  6
Continuous
 62
     7
440
 16777216
370
    25
100
AcDbLine
 10
230.4931649552739
 20
169.9052962877451
 30
0.0
 11
230.8531649552739
 21
169.9052962877451
 31
0.0
  0
LINE
  5
47E
330
3D8
100
AcDbEntity
  8
Dimensions(Ram)
  6
Continuous
 62
     7
440
 16777216
370
    25
100
AcDbLine
 10
230.6731649552739
 20
169.7252962877451
 30
0.0
 11
230.673164955274
 21
170.0852962877451
 31
0.0
  0
POINT
  5
47F
330
3D8
100
AcDbEntity
  8
Defpoints
  6
Continuous
 62
     0
440
 16777216
100
AcDbPoint
 10
250.6731649552809
 20
204.546312439119
 30
0.0
  0
POINT
  5
480
330
3D8
100
AcDbEntity
  8
Defpoints
  6
Continuous
 62
     0
440
 16777216
100
AcDbPoint
 10
210.6731649552671
 20
135.2642801363714
 30
0.0
  0
ENDBLK
  5
3DA
330
3D8
100
AcDbEntity
  8
0
100
AcDbBlockEnd
  0
BLOCK
  5
517
330
516
100
AcDbEntity
  8
0
100
AcDbBlockBegin
  2
*D52
 70
     1
 10
0.0
 20
0.0
 30
0.0
  3
*D52
  1

  0
LINE
  5
5EE
330
516
100
AcDbEntity
  8
Dimensions(Ram)
  6
Continuous
 62
     7
440
 16777216
370
    25
100
AcDbLine
 10
368.7881965389207
 20
169.9052962877445
 30
0.0
 11
318.9483881501514
 21
169.9052962877445
 31
0.0
  0
LINE
  5
5EF
330
516
100
AcDbEntity
  8
Dimensions(Ram)
  6
Continuous
 62
     7
440
 16777216
370
    25
100
AcDbLine
 10
346.796923074418
 20
89.91409931085753
 30
0.0
 11
318.9483881501514
 21
89.91409931085753
 31
0.0
  0
LINE
  5
5F0
330
516
100
AcDbEntity
  8
Dimensions(Ram)
  6
Continuous
 62
     7
440
 16777216
370
    25
100
AcDbLine
 10
322.9483881501514
 20
164.9052962877445
 30
0.0
 11
322.9483881501514
 21
94.91409931085756
 31
0.0
  0
SOLID
  5
5F1
330
516
100
AcDbEntity
  8
Dimensions(Ram)
  6
Continuous
 62
     7
440
 16777216
100
AcDbTrace
 10
322.1150548168182
 20
164.9052962877445
 30
0.0
 11
323.7817214834848
 21
164.9052962877445
 31
0.0
 12
322.9483881501514
 22
169.9052962877445
 32
0.0
 13
322.9483881501514
 23
169.9052962877445
 33
0.0
  0
SOLID
  5
5F2
330
516
100
AcDbEntity
  8
Dimensions(Ram)
  6
Continuous
 62
     7
440
 16777216
100
AcDbTrace
 10
322.1150548168182
 20
94.91409931085756
 30
0.0
 11
323.7817214834846
 21
94.91409931085756
 31
0.0
 12
322.9483881501514
 22
89.91409931085753
 32
0.0
 13
322.9483881501514
 23
89.91409931085753
 33
0.0
  0
MTEXT
  5
5F3
330
516
100
AcDbEntity
  8
Dimensions(Ram)
  6
Continuous
 62
     7
440
 16777216
370
    25
100
AcDbMText
 10
315.8426582729344
 20
126.3336405005288
 30
0.0
 40
5.0
 41
0.0
 46
0.0
 71
     1
 72
     1
  1
\A1;80
  7
STD 2.5 ARIAL
 11
0.0000000000000001
 21
1.0
 31
0.0
 73
     1
 44
1.0
1001
ACAD
1000
MTEXTBEGIN
1070
    73
1070
     1
1070
    44
1040
1.0
1070
    74
1070
     0
1000
MTEXTEND
  0
POINT
  5
5F4
330
516
100
AcDbEntity
  8
Defpoints
  6
Continuous
 62
     0
440
 16777216
100
AcDbPoint
 10
371.3881965389207
 20
169.9052962877445
 30
0.0
  0
POINT
  5
5F5
330
516
100
AcDbEntity
  8
Defpoints
  6
Continuous
 62
     0
440
 16777216
100
AcDbPoint
 10
349.396923074418
 20
89.91409931085753
 30
0.0
  0
POINT
  5
5F6
330
516
100
AcDbEntity
  8
Defpoints
  6
Continuous
 62
     0
440
 16777216
100
AcDbPoint
 10
322.9483881501514
 20
89.91409931085753
 30
0.0
  0
ENDBLK
  5
518
330
516
100
AcDbEntity
  8
0
100
AcDbBlockEnd
  0
BLOCK
  5
5F9
330
5F8
100
AcDbEntity
  8
0
100
AcDbBlockBegin
  2
*D53
 70
     1
 10
0.0
 20
0.0
 30
0.0
  3
*D53
  1

  0
LINE
  5
6D6
330
5F8
100
AcDbEntity
  8
Dimensions(Ram)
  6
Continuous
 62
     7
440
 16777216
370
    25
100
AcDbLine
 10
388.8956365152457
 20
152.4052962877452
 30
0.0
 11
388.8956365152457
 21
187.4052962877451
 31
0.0
  0
LINE
  5
6D7
330
5F8
100
AcDbEntity
  8
Dimensions(Ram)
  6
Continuous
 62
     7
440
 16777216
370
    25
100
AcDbLine
 10
367.2558002260233
 20
210.7329566064808
 30
0.0
 11
388.8956365152457
 21
210.7329566064808
 31
0.0
  0
LINE
  5
6D8
330
5F8
100
AcDbEntity
  8
Dimensions(Ram)
  6
Continuous
 62
     7
440
 16777216
370
    25
100
AcDbLine
 10
388.8956365152457
 20
210.7329566064808
 30
0.0
 11
388.8956365152457
 21
192.4052962877451
 31
0.0
  0
MTEXT
  5
6D9
330
5F8
100
AcDbEntity
  8
Dimensions(Ram)
  6
Continuous
 62
     7
440
 16777216
370
    25
100
AcDbMText
 10
369.2558002260233
 20
218.1183590621425
 30
0.0
 40
5.0
 41
0.0
 46
0.0
 71
     1
 72
     1
  1
\A1;{Ø}45
  7
STD 2.5 ARIAL
 73
     1
 44
1.0
1001
ACAD
1000
MTEXTBEGIN
1070
    73
1070
     1
1070
    44
1040
1.0
1070
    74
1070
     0
1000
MTEXTEND
  0
SOLID
  5
6DA
330
5F8
100
AcDbEntity
  8
Dimensions(Ram)
  6
Continuous
 62
     7
440
 16777216
100
AcDbTrace
 10
388.0623031819124
 20
152.4052962877452
 30
0.0
 11
389.728969848579
 21
152.4052962877452
 31
0.0
 12
388.8956365152457
 22
147.4052962877452
 32
0.0
 13
388.8956365152457
 23
147.4052962877452
 33
0.0
  0
SOLID
  5
6DB
330
5F8
100
AcDbEntity
  8
Dimensions(Ram)
  6
Continuous
 62
     7
440
 16777216
100
AcDbTrace
 10
388.0623031819124
 20
187.4052962877451
 30
0.0
 11
389.728969848579
 21
187.4052962877451
 31
0.0
 12
388.8956365152457
 22
192.4052962877451
 32
0.0
 13
388.8956365152457
 23
192.4052962877451
 33
0.0
  0
POINT
  5
6DC
330
5F8
100
AcDbEntity
  8
Defpoints
  6
Continuous
 62
     0
440
 16777216
100
AcDbPoint
 10
390.0594127857554
 20
147.4052962877452
 30
0.0
  0
POINT
  5
6DD
330
5F8
100
AcDbEntity
  8
Defpoints
  6
Continuous
 62
     0
440
 16777216
100
AcDbPoint
 10
390.0594127857554
 20
192.4052962877451
 30
0.0
  0
POINT
  5
6DE
330
5F8
100
AcDbEntity
  8
Defpoints
  6
Continuous
 62
     0
440
 16777216
100
AcDbPoint
 10
388.8956365152457
 20
192.4052962877451
 30
0.0
  0
ENDBLK
  5
5FA
330
5F8
100
AcDbEntity
  8
0
100
AcDbBlockEnd
  0
ENDSEC
  0
SECTION
  2
ENTITIES
  0
ARC
  5
3B1
330
6C
100
AcDbEntity
  8
Visible Edges(Ram)
100
AcDbCircle
 10
230.673164955274
 20
169.9052962877452
 30
0.0
 40
40.00000000000016
100
AcDbArc
 50
297.6667214772609
 51
242.3332785227393
  0
ARC
  5
3B2
330
6C
100
AcDbEntity
  8
Visible Edges(Ram)
100
AcDbCircle
 10
230.673164955274
 20
169.9052962877452
 30
0.0
 40
22.7500000000001
100
AcDbArc
 50
342.2650614199708
 51
197.7349385800301
  0
SPLINE
  5
3B3
330
6C
100
AcDbEntity
  8
Visible Edges(Ram)
100
AcDbSpline
210
0.0
220
0.0
230
1.0
 70
     8
 71
     3
 72
     8
 73
     4
 74
     0
 42
0.000000001
 43
0.0000000001
 40
-0.8716518089251056
 40
-0.8716518089251056
 40
-0.8716518089251056
 40
-0.8716518089251056
 40
-0.8707968598450378
 40
-0.8707968598450378
 40
-0.8707968598450378
 40
-0.8707968598450378
 10
252.7379120613842
 20
166.6198439296806
 30
0.0
 10
252.7379815911428
 20
166.6204844649274
 30
0.0
 10
252.7380056916279
 20
166.6208208683613
 30
0.0
 10
252.7379811032884
 20
166.6208245284737
 30
0.0
  0
SPLINE
  5
3B4
330
6C
100
AcDbEntity
  8
Visible Edges(Ram)
100
AcDbSpline
210
0.0
220
0.0
230
1.0
 70
     8
 71
     3
 72
     8
 73
     4
 74
     0
 42
0.000000001
 43
0.0000000001
 40
-0.8652674144235131
 40
-0.8652674144235131
 40
-0.8652674144235131
 40
-0.8652674144235131
 40
-0.8644124653434484
 40
-0.8644124653434484
 40
-0.8644124653434484
 40
-0.8644124653434484
 10
208.6083488072597
 20
166.6208245284734
 30
0.0
 10
208.6083241465138
 20
166.6208213547837
 30
0.0
 10
208.608348253888
 20
166.6204849050693
 30
0.0
 10
208.6084178047012
 20
166.6198442283793
 30
0.0
  0
LINE
  5
3B5
330
6C
100
AcDbEntity
  8
Visible Edges(Ram)
100
AcDbLine
 10
208.608415018182
 20
166.619863031701
 30
0.0
 11
216.3599364911847
 21
95.2658952764291
 31
0.0
  0
SPLINE
  5
3B6
330
6C
100
AcDbEntity
  8
Visible Edges(Ram)
100
AcDbSpline
210
0.0
220
0.0
230
1.0
 70
     8
 71
     3
 72
    16
 73
    12
 74
     0
 42
0.000000001
 43
0.0000000001
 40
-0.7312587926286715
 40
-0.7312587926286715
 40
-0.7312587926286715
 40
-0.7312587926286715
 40
-0.438755275577203
 40
-0.438755275577203
 40
-0.1462517585257346
 40
-0.1462517585257346
 40
0.1462517585257338
 40
0.1462517585257338
 40
0.4387552755772023
 40
0.4387552755772023
 40
0.7312587926286707
 40
0.7312587926286707
 40
0.7312587926286707
 40
0.7312587926286707
 10
222.3246530039063
 20
89.9140612339217
 30
0.0
 10
221.7396303023317
 20
89.9140612339217
 30
0.0
 10
221.1546815197523
 20
90.00022736094837
 30
0.0
 10
220.0343466408958
 20
90.33761589492328
 30
0.0
 10
219.4990967525801
 20
90.58879735884341
 30
0.0
 10
218.5236502127428
 20
91.23491679792005
 30
0.0
 10
218.0835721758844
 20
91.62977623742495
 30
0.0
 10
217.3358843148569
 20
92.52973687217821
 30
0.0
 10
217.028365377289
 20
93.03472862834469
 30
0.0
 10
216.5719547959132
 20
94.11207288383975
 30
0.0
 10
216.4231185660282
 20
94.68429439371297
 30
0.0
 10
216.3599364911847
 20
95.2658952764291
 30
0.0
  0
LINE
  5
3B7
330
6C
100
AcDbEntity
  8
Visible Edges(Ram)
100
AcDbLine
 10
244.9863934193635
 20
95.26589527642912
 30
0.0
 11
252.7379148923661
 21
166.6198630317011
 31
0.0
  0
LINE
  5
3B8
330
6C
100
AcDbEntity
  8
Visible Edges(Ram)
100
AcDbLine
 10
222.3246530039063
 20
89.9140612339217
 30
0.0
 11
239.0216769066419
 21
89.9140612339217
 31
0.0
  0
SPLINE
  5
3B9
330
6C
100
AcDbEntity
  8
Visible Edges(Ram)
100
AcDbSpline
210
0.0
220
0.0
230
1.0
 70
     8
 71
     3
 72
    16
 73
    12
 74
     0
 42
0.000000001
 43
0.0000000001
 40
-0.7312587926286706
 40
-0.7312587926286706
 40
-0.7312587926286706
 40
-0.7312587926286706
 40
-0.4387552755772023
 40
-0.4387552755772023
 40
-0.1462517585257339
 40
-0.1462517585257339
 40
0.1462517585257344
 40
0.1462517585257344
 40
0.4387552755772028
 40
0.4387552755772028
 40
0.7312587926286711
 40
0.7312587926286711
 40
0.7312587926286711
 40
0.7312587926286711
 10
244.9863934193635
 20
95.26589527642912
 30
0.0
 10
244.9232113445201
 20
94.68429439371297
 30
0.0
 10
244.7743751146351
 20
94.11207288383975
 30
0.0
 10
244.3179645332593
 20
93.03472862834473
 30
0.0
 10
244.0104455956913
 20
92.52973687217822
 30
0.0
 10
243.2627577346639
 20
91.629776237425
 30
0.0
 10
242.8226796978054
 20
91.23491679792008
 30
0.0
 10
241.8472331579682
 20
90.58879735884344
 30
0.0
 10
241.3119832696525
 20
90.33761589492328
 30
0.0
 10
240.191648390796
 20
90.00022736094837
 30
0.0
 10
239.6066996082165
 20
89.9140612339217
 30
0.0
 10
239.0216769066419
 20
89.9140612339217
 30
0.0
  0
LINE
  5
3BA
330
6C
100
AcDbEntity
  8
Visible Edges(Ram)
100
AcDbLine
 10
222.2661526415783
 20
96.96406111471263
 30
0.0
 11
221.8019758202149
 21
96.96406111471279
 31
0.0
  0
LINE
  5
3BB
330
6C
100
AcDbEntity
  8
Visible Edges(Ram)
100
AcDbLine
 10
222.2661526415789
 20
98.61268913541721
 30
0.0
 11
222.2661526415783
 21
96.96406111471263
 31
0.0
  0
LINE
  5
3BC
330
6C
100
AcDbEntity
  8
Visible Edges(Ram)
100
AcDbLine
 10
224.0801770009301
 20
98.61268913541664
 30
0.0
 11
222.2661526415789
 21
98.61268913541721
 31
0.0
  0
LINE
  5
3BD
330
6C
100
AcDbEntity
  8
Visible Edges(Ram)
100
AcDbLine
 10
224.0801770009296
 20
96.96406111471212
 30
0.0
 11
224.0801770009301
 21
98.61268913541664
 31
0.0
  0
LINE
  5
3BE
330
6C
100
AcDbEntity
  8
Visible Edges(Ram)
100
AcDbLine
 10
224.544353822293
 20
96.96406111471199
 30
0.0
 11
224.0801770009296
 21
96.96406111471212
 31
0.0
  0
LINE
  5
3BF
330
6C
100
AcDbEntity
  8
Visible Edges(Ram)
100
AcDbLine
 10
224.5443538222941
 20
100.4640610551073
 30
0.0
 11
224.544353822293
 21
96.96406111471199
 31
0.0
  0
LINE
  5
3C0
330
6C
100
AcDbEntity
  8
Visible Edges(Ram)
100
AcDbLine
 10
224.0801770009307
 20
100.4640610551075
 30
0.0
 11
224.5443538222941
 21
100.4640610551073
 31
0.0
  0
LINE
  5
3C1
330
6C
100
AcDbEntity
  8
Visible Edges(Ram)
100
AcDbLine
 10
224.0801770009302
 20
99.02617998203346
 30
0.0
 11
224.0801770009307
 21
100.4640610551075
 31
0.0
  0
LINE
  5
3C2
330
6C
100
AcDbEntity
  8
Visible Edges(Ram)
100
AcDbLine
 10
222.266152641579
 20
99.026179982034
 30
0.0
 11
224.0801770009302
 21
99.02617998203346
 31
0.0
  0
LINE
  5
3C3
330
6C
100
AcDbEntity
  8
Visible Edges(Ram)
100
AcDbLine
 10
222.2661526415794
 20
100.464061055108
 30
0.0
 11
222.266152641579
 21
99.026179982034
 31
0.0
  0
LINE
  5
3C4
330
6C
100
AcDbEntity
  8
Visible Edges(Ram)
100
AcDbLine
 10
221.801975820216
 20
100.4640610551081
 30
0.0
 11
222.2661526415794
 21
100.464061055108
 31
0.0
  0
LINE
  5
3C5
330
6C
100
AcDbEntity
  8
Visible Edges(Ram)
100
AcDbLine
 10
221.8019758202149
 20
96.96406111471279
 30
0.0
 11
221.801975820216
 21
100.4640610551081
 31
0.0
  0
LINE
  5
3C6
330
6C
100
AcDbEntity
  8
Visible Edges(Ram)
100
AcDbLine
 10
242.8731649552741
 20
98.71406123392169
 30
0.0
 11
240.708101445813
 21
97.46406123392169
 31
0.0
  0
LINE
  5
3C7
330
6C
100
AcDbEntity
  8
Visible Edges(Ram)
100
AcDbLine
 10
240.708101445813
 20
99.96406123392169
 30
0.0
 11
242.8731649552741
 21
98.71406123392169
 31
0.0
  0
LINE
  5
3C8
330
6C
100
AcDbEntity
  8
Visible Edges(Ram)
100
AcDbLine
 10
240.708101445813
 20
97.46406123392169
 30
0.0
 11
240.708101445813
 21
99.96406123392169
 31
0.0
  0
LINE
  5
3C9
330
6C
100
AcDbEntity
  8
Visible Edges(Ram)
100
AcDbLine
 10
218.4731649552741
 20
98.71406123392169
 30
0.0
 11
220.6382284647352
 21
99.96406123392169
 31
0.0
  0
LINE
  5
3CA
330
6C
100
AcDbEntity
  8
Visible Edges(Ram)
100
AcDbLine
 10
220.6382284647352
 20
97.46406123392169
 30
0.0
 11
218.4731649552741
 21
98.71406123392169
 31
0.0
  0
LINE
  5
3CB
330
6C
100
AcDbEntity
  8
Visible Edges(Ram)
100
AcDbLine
 10
220.6382284647352
 20
99.96406123392169
 30
0.0
 11
220.6382284647352
 21
97.46406123392169
 31
0.0
  0
SPLINE
  5
3CC
330
6C
100
AcDbEntity
  8
Visible Edges(Ram)
100
AcDbSpline
210
0.0
220
0.0
230
1.0
 70
     8
 71
     2
 72
     7
 73
     4
 74
     0
 42
0.000000001
 43
0.0000000001
 40
0.0
 40
0.0
 40
0.0
 40
1.0
 40
2.0
 40
2.0
 40
2.0
 10
238.2558629905775
 20
97.30152314015708
 30
0.0
 10
238.6453446912617
 20
97.30152314015697
 30
0.0
 10
239.1842166333044
 20
97.74969386423183
 30
0.0
 10
239.2802532170349
 20
98.19252922254399
 30
0.0
  0
SPLINE
  5
3CD
330
6C
100
AcDbEntity
  8
Visible Edges(Ram)
100
AcDbSpline
210
0.0
220
0.0
230
1.0
 70
     8
 71
     2
 72
     8
 73
     5
 74
     0
 42
0.000000001
 43
0.0000000001
 40
0.0
 40
0.0
 40
0.0
 40
1.0
 40
2.0
 40
3.0
 40
3.0
 40
3.0
 10
237.1274331317462
 20
98.74207189611285
 30
0.0
 10
237.127433131746
 20
98.29656885491921
 30
0.0
 10
237.3888660541229
 20
97.62964813456939
 30
0.0
 10
237.9357410448096
 20
97.30152314015718
 30
0.0
 10
238.2558629905775
 20
97.30152314015708
 30
0.0
  0
SPLINE
  5
3CE
330
6C
100
AcDbEntity
  8
Visible Edges(Ram)
100
AcDbSpline
210
0.0
220
0.0
230
1.0
 70
     8
 71
     2
 72
     8
 73
     5
 74
     0
 42
0.000000001
 43
0.0000000001
 40
0.0
 40
0.0
 40
0.0
 40
1.0
 40
2.0
 40
3.0
 40
3.0
 40
3.0
 10
238.2932105509179
 20
100.1265993115585
 30
0.0
 10
237.8903904358267
 20
100.1265993115586
 30
0.0
 10
237.3461831280212
 20
99.73978529375592
 30
0.0
 10
237.1274331317462
 20
99.08887067069469
 30
0.0
 10
237.1274331317462
 20
98.74207189611285
 30
0.0
  0
SPLINE
  5
3CF
330
6C
100
AcDbEntity
  8
Visible Edges(Ram)
100
AcDbSpline
210
0.0
220
0.0
230
1.0
 70
     8
 71
     2
 72
     7
 73
     4
 74
     0
 42
0.000000001
 43
0.0000000001
 40
0.0
 40
0.0
 40
0.0
 40
1.0
 40
2.0
 40
2.0
 40
2.0
 10
239.2295672422887
 20
99.39565420205497
 30
0.0
 10
239.1068538297445
 20
99.777132854095
 30
0.0
 10
238.6453446912625
 20
100.1265993115584
 30
0.0
 10
238.2932105509179
 20
100.1265993115585
 30
0.0
  0
LINE
  5
3D0
330
6C
100
AcDbEntity
  8
Visible Edges(Ram)
100
AcDbLine
 10
239.6857410150079
 20
99.50502920019218
 30
0.0
 11
239.2295672422887
 21
99.39565420205497
 31
0.0
  0
SPLINE
  5
3D1
330
6C
100
AcDbEntity
  8
Visible Edges(Ram)
100
AcDbSpline
210
0.0
220
0.0
230
1.0
 70
     8
 71
     2
 72
     7
 73
     4
 74
     0
 42
0.000000001
 43
0.0000000001
 40
0.0
 40
0.0
 40
0.0
 40
1.0
 40
2.0
 40
2.0
 40
2.0
 10
238.3038812824436
 20
100.5240840608869
 30
0.0
 10
238.8294148100792
 20
100.5240840608868
 30
0.0
 10
239.5443538222939
 20
99.98787980172542
 30
0.0
 10
239.6857410150079
 20
99.50502920019218
 30
0.0
  0
SPLINE
  5
3D2
330
6C
100
AcDbEntity
  8
Visible Edges(Ram)
100
AcDbSpline
210
0.0
220
0.0
230
1.0
 70
     8
 71
     2
 72
     8
 73
     5
 74
     0
 42
0.000000001
 43
0.0000000001
 40
0.0
 40
0.0
 40
0.0
 40
1.0
 40
2.0
 40
3.0
 40
3.0
 40
3.0
 10
236.6499178959758
 20
98.73940421323156
 30
0.0
 10
236.6499178959759
 20
99.28627920391834
 30
0.0
 10
237.0687441083558
 20
100.1025901656263
 30
0.0
 10
237.8397044610802
 20
100.5240840608871
 30
0.0
 10
238.3038812824436
 20
100.5240840608869
 30
0.0
  0
SPLINE
  5
3D3
330
6C
100
AcDbEntity
  8
Visible Edges(Ram)
100
AcDbSpline
210
0.0
220
0.0
230
1.0
 70
     8
 71
     2
 72
     8
 73
     5
 74
     0
 42
0.000000001
 43
0.0000000001
 40
0.0
 40
0.0
 40
0.0
 40
1.0
 40
2.0
 40
3.0
 40
3.0
 40
3.0
 10
238.2958782337983
 20
96.90403839082865
 30
0.0
 10
237.7303294629418
 20
96.90403839082881
 30
0.0
 10
237.0207258164898
 20
97.365547529311
 30
0.0
 10
236.6499178959756
 20
98.23787983152859
 30
0.0
 10
236.6499178959758
 20
98.73940421323156
 30
0.0
  0
SPLINE
  5
3D4
330
6C
100
AcDbEntity
  8
Visible Edges(Ram)
100
AcDbSpline
210
0.0
220
0.0
230
1.0
 70
     8
 71
     2
 72
     7
 73
     4
 74
     0
 42
0.000000001
 43
0.0000000001
 40
0.0
 40
0.0
 40
0.0
 40
1.0
 40
2.0
 40
2.0
 40
2.0
 10
239.7444300383983
 20
98.07515117576231
 30
0.0
 10
239.5977074799211
 20
97.504267039143
 30
0.0
 10
238.8427532244851
 20
96.90403839082847
 30
0.0
 10
238.2958782337983
 20
96.90403839082865
 30
0.0
  0
LINE
  5
3D5
330
6C
100
AcDbEntity
  8
Visible Edges(Ram)
100
AcDbLine
 10
239.2802532170349
 20
98.19252922254399
 30
0.0
 11
239.7444300383983
 21
98.07515117576231
 31
0.0
  0
DIMENSION
  5
3D6
330
6C
100
AcDbEntity
  8
Dimensions(Ram)
  6
Continuous
 62
     7
370
    25
100
AcDbDimension
280
     0
  2
*D51
 10
210.6731649552671
 20
135.2642801363714
 30
0.0
 11
276.6501257098604
 21
224.1045192318644
 31
0.0
 70
   163
  1
<>
 71
     5
 42
80.0
 73
     0
 74
     0
 75
     0
  3
Whole Number
100
AcDbDiametricDimension
 15
250.6731649552809
 25
204.546312439119
 35
0.0
 40
0.0
1001
ACAD
1000
DSTYLE
1002
{
1070
   144
1040
0.999999999999996
1070
   172
1070
     0
1070
    77
1070
     0
1070
    73
1070
     1
1070
    74
1070
     1
1070
   271
1070
     0
1070
   272
1070
     0
1070
    48
1040
0.0
1070
    47
1040
0.0
1002
}
1001
ACAD_DSTYLE_DIMRADIAL_EXTENSION
1070
   387
1070
     1
1070
   388
1040
0.0
1070
   390
1040
0.0
  0
LINE
  5
481
330
6C
100
AcDbEntity
  8
Visible Edges(Ram)
100
AcDbLine
 10
415.8881965389169
 20
147.4052962877452
 30
0.0
 11
415.8881965389169
 21
192.4052962877451
 31
0.0
  0
ARC
  5
482
330
6C
100
AcDbEntity
  8
Visible Edges(Ram)
100
AcDbCircle
 10
378.388196538917
 20
163.6031962877453
 30
0.0
 40
16.19789999999999
100
AcDbArc
 50
244.3956138377377
 51
270.0
  0
ARC
  5
483
330
6C
100
AcDbEntity
  8
Visible Edges(Ram)
100
AcDbCircle
 10
378.388196538917
 20
176.2073962877451
 30
0.0
 40
16.19789999999998
100
AcDbArc
 50
90.00000000000023
 51
132.9755479579453
  0
LINE
  5
484
330
6C
100
AcDbEntity
  8
Visible Edges(Ram)
100
AcDbLine
 10
378.388196538917
 20
192.4052962877451
 30
0.0
 11
400.0495466152401
 21
192.4052962877451
 31
0.0
  0
LINE
  5
485
330
6C
100
AcDbEntity
  8
Visible Edges(Ram)
100
AcDbLine
 10
404.0495466152401
 20
192.4052962877451
 30
0.0
 11
415.8881965389171
 21
192.4052962877451
 31
0.0
  0
LINE
  5
486
330
6C
100
AcDbEntity
  8
Visible Edges(Ram)
100
AcDbLine
 10
378.388196538917
 20
147.4052962877452
 30
0.0
 11
400.04954661524
 21
147.4052962877452
 31
0.0
  0
LINE
  5
487
330
6C
100
AcDbEntity
  8
Visible Edges(Ram)
100
AcDbLine
 10
404.04954661524
 20
147.4052962877452
 30
0.0
 11
415.8881965389169
 21
147.4052962877452
 31
0.0
  0
LINE
  5
488
330
6C
100
AcDbEntity
  8
Visible Edges(Ram)
100
AcDbLine
 10
400.0495466152401
 20
130.4052962877451
 30
0.0
 11
400.0495466152401
 21
209.4052962877454
 31
0.0
  0
ARC
  5
489
330
6C
100
AcDbEntity
  8
Visible Edges(Ram)
100
AcDbCircle
 10
400.54954661524
 20
209.4052962877454
 30
0.0
 40
0.5000000000000023
100
AcDbArc
 50
90.0
 51
180.0
  0
ARC
  5
48A
330
6C
100
AcDbEntity
  8
Visible Edges(Ram)
100
AcDbCircle
 10
400.54954661524
 20
130.4052962877451
 30
0.0
 40
0.5000000000000023
100
AcDbArc
 50
180.0
 51
270.0
  0
LINE
  5
48B
330
6C
100
AcDbEntity
  8
Visible Edges(Ram)
100
AcDbLine
 10
404.0495466152401
 20
209.9052962877454
 30
0.0
 11
404.0495466152401
 21
129.905296287745
 31
0.0
  0
LINE
  5
48C
330
6C
100
AcDbEntity
  8
Visible Edges(Ram)
100
AcDbLine
 10
400.54954661524
 20
209.9052962877454
 30
0.0
 11
404.0495466152401
 21
209.9052962877454
 31
0.0
  0
LINE
  5
48D
330
6C
100
AcDbEntity
  8
Visible Edges(Ram)
100
AcDbLine
 10
400.54954661524
 20
129.905296287745
 30
0.0
 11
404.0495466152401
 21
129.905296287745
 31
0.0
  0
LINE
  5
48E
330
6C
100
AcDbEntity
  8
Visible Edges(Ram)
100
AcDbLine
 10
366.3881965389172
 20
192.3616619487914
 30
0.0
 11
371.3881965389238
 21
169.9052962877452
 31
0.0
  0
LINE
  5
48F
330
6C
100
AcDbEntity
  8
Visible Edges(Ram)
100
AcDbLine
 10
371.3881965389171
 20
147.4052962877452
 30
0.0
 11
371.3881965389238
 21
169.9052962877452
 31
0.0
  0
LINE
  5
490
330
6C
100
AcDbEntity
  8
Visible Edges(Ram)
100
AcDbLine
 10
349.3794700034189
 20
192.2132290410269
 30
0.0
 11
366.3881965389172
 21
192.3616619487914
 31
0.0
  0
LINE
  5
491
330
6C
100
AcDbEntity
  8
Visible Edges(Ram)
100
AcDbLine
 10
357.4231026809107
 20
147.5271678155295
 30
0.0
 11
357.5631965389173
 21
147.5259452349524
 31
0.0
  0
LINE
  5
492
330
6C
100
AcDbEntity
  8
Visible Edges(Ram)
100
AcDbLine
 10
364.2131965389173
 20
147.4679115641439
 30
0.0
 11
371.3881965389171
 21
147.4052962877452
 31
0.0
  0
LINE
  5
493
330
6C
100
AcDbEntity
  8
Visible Edges(Ram)
100
AcDbLine
 10
348.3881965389235
 20
166.7487115320919
 30
0.0
 11
348.3881965389173
 21
191.2132671179628
 31
0.0
  0
LINE
  5
494
330
6C
100
AcDbEntity
  8
Visible Edges(Ram)
100
AcDbLine
 10
348.3881965389235
 20
166.7487115320919
 30
0.0
 11
348.3881965389212
 21
95.37389463213512
 31
0.0
  0
ARC
  5
495
330
6C
100
AcDbEntity
  8
Visible Edges(Ram)
100
AcDbCircle
 10
349.3881965389197
 20
90.91406123392172
 30
0.0
 40
0.9999999999999984
100
AcDbArc
 50
180.0
 51
270.5000000000021
  0
LINE
  5
496
330
6C
100
AcDbEntity
  8
Visible Edges(Ram)
100
AcDbLine
 10
348.3881965389197
 20
90.91406123392172
 30
0.0
 11
348.3881965389211
 21
95.37389463213514
 31
0.0
  0
ARC
  5
497
330
6C
100
AcDbEntity
  8
Visible Edges(Ram)
100
AcDbCircle
 10
349.3881965389173
 20
191.2132671179628
 30
0.0
 40
1.0
100
AcDbArc
 50
90.49999999999807
 51
180.0
  0
ARC
  5
498
330
6C
100
AcDbEntity
  8
Visible Edges(Ram)
100
AcDbCircle
 10
352.3881965389197
 20
90.940241837294
 30
0.0
 40
0.9999999999999984
100
AcDbArc
 50
270.499999999998
 51
0.0
  0
LINE
  5
499
330
6C
100
AcDbEntity
  8
Visible Edges(Ram)
100
AcDbLine
 10
353.3881965389211
 20
95.40007523550741
 30
0.0
 11
353.3881965389197
 21
90.940241837294
 31
0.0
  0
LINE
  5
49A
330
6C
100
AcDbEntity
  8
Visible Edges(Ram)
100
AcDbLine
 10
353.3881965389212
 20
95.40007523550741
 30
0.0
 11
353.388196538923
 21
152.0915452475935
 31
0.0
  0
LINE
  5
49B
330
6C
100
AcDbEntity
  8
Visible Edges(Ram)
100
AcDbLine
 10
349.3969230744181
 20
89.91409931085753
 30
0.0
 11
352.3969230744181
 21
89.94027991422981
 31
0.0
  0
ARC
  5
49C
330
6C
100
AcDbEntity
  8
Visible Edges(Ram)
100
AcDbCircle
 10
357.3881965389172
 20
143.5273201232729
 30
0.0
 40
4.0
100
AcDbArc
 50
89.4999999999999
 51
180.0
  0
LINE
  5
49D
330
6C
100
AcDbEntity
  8
Visible Edges(Ram)
100
AcDbLine
 10
357.3672700874102
 20
147.4052962877452
 30
0.0
 11
364.4091229904246
 21
147.4052962877452
 31
0.0
  0
ARC
  5
49E
330
6C
100
AcDbEntity
  8
Visible Edges(Ram)
100
AcDbCircle
 10
364.4091229904246
 20
147.2552962877452
 30
0.0
 40
0.1500000000000032
100
AcDbArc
 50
307.6402108889029
 51
90.0
  0
ARC
  5
49F
330
6C
100
AcDbEntity
  8
Visible Edges(Ram)
100
AcDbCircle
 10
357.3672700874102
 20
147.2552962877452
 30
0.0
 40
0.1500000000000025
100
AcDbArc
 50
89.99999999997283
 51
232.359789111093
  0
LINE
  5
4A0
330
6C
100
AcDbEntity
  8
Visible Edges(Ram)
100
AcDbLine
 10
364.2131965389174
 20
147.4679115641439
 30
0.0
 11
364.2131965389174
 21
147.4052962877452
 31
0.0
  0
LINE
  5
4A1
330
6C
100
AcDbEntity
  8
Visible Edges(Ram)
100
AcDbLine
 10
357.5631965389173
 20
147.5259452349524
 30
0.0
 11
357.5631965389173
 21
147.4052962877452
 31
0.0
  0
ARC
  5
4A2
330
6C
100
AcDbEntity
  8
Visible Edges(Ram)
100
AcDbCircle
 10
360.8881965389173
 20
151.8206809031298
 30
0.0
 40
5.915384615384687
100
AcDbArc
 50
232.359789111107
 51
307.6402108888956
  0
LINE
  5
4A3
330
6C
100
AcDbEntity
  8
Visible Edges(Ram)
100
AcDbLine
 10
417.8881965389171
 20
150.9052962877452
 30
0.0
 11
417.8881965389209
 21
156.203097504021
 31
0.0
  0
SPLINE
  5
4A4
330
6C
100
AcDbEntity
  8
Visible Edges(Ram)
100
AcDbSpline
210
0.0
220
0.0
230
1.0
 70
     8
 71
     3
 72
    20
 73
    16
 74
     0
 42
0.000000001
 43
0.0000000001
 40
-0.8116897773001813
 40
-0.8116897773001813
 40
-0.8116897773001813
 40
-0.8116897773001813
 40
-0.7385314150788052
 40
-0.7385314150788052
 40
-0.6448356985004629
 40
-0.6448356985004629
 40
-0.5860614746515831
 40
-0.5860614746515831
 40
-0.5303118908031605
 40
-0.5303118908031605
 40
-0.4522979132600414
 40
-0.4522979132600414
 40
-0.2774872604749432
 40
-0.2774872604749432
 40
-0.1707165664587374
 40
-0.1707165664587374
 40
-0.1707165664587374
 40
-0.1707165664587374
 10
418.05010874286
 20
163.905296287745
 30
0.0
 10
418.0882569187132
 20
163.5707047683043
 30
0.0
 10
418.1287217898908
 20
163.2394406304077
 30
0.0
 10
418.2131338705553
 20
162.4925580974351
 30
0.0
 10
418.2547054011497
 20
162.0786757041402
 30
0.0
 10
418.2959543447466
 20
161.4104706903798
 30
0.0
 10
418.305352175504
 20
161.1572593687301
 30
0.0
 10
418.3091043131381
 20
160.6656851414447
 30
0.0
 10
418.3041855634987
 20
160.430964472351
 30
0.0
 10
418.2772967945555
 20
159.8711693798254
 30
0.0
 10
418.2495144101128
 20
159.5537280006199
 30
0.0
 10
418.1362938953248
 20
158.5417975951935
 30
0.0
 10
418.0232486515121
 20
157.8733480470075
 30
0.0
 10
417.9106472729501
 20
156.8516712707584
 30
0.0
 10
417.8881965389211
 20
156.5099240850185
 30
0.0
 10
417.8881965389209
 20
156.203097504021
 30
0.0
  0
SPLINE
  5
4A5
330
6C
100
AcDbEntity
  8
Visible Edges(Ram)
100
AcDbSpline
210
0.0
220
0.0
230
1.0
 70
     8
 71
     3
 72
    10
 73
     6
 74
     0
 42
0.000000001
 43
0.0000000001
 40
3.428028795128319
 40
3.428028795128319
 40
3.428028795128319
 40
3.428028795128319
 40
3.749151275281781
 40
3.749151275281781
 40
4.001954900771985
 40
4.001954900771985
 40
4.001954900771985
 40
4.001954900771985
 10
417.8881965389226
 20
169.9052962877451
 30
0.0
 10
417.8881965389226
 20
168.8348880205669
 30
0.0
 10
417.8824840785247
 20
167.6649821603203
 30
0.0
 10
417.9203622359968
 20
165.615039732174
 30
0.0
 10
417.9565501284661
 20
164.7258838583636
 30
0.0
 10
418.05010874286
 20
163.905296287745
 30
0.0
  0
SPLINE
  5
4A6
330
6C
100
AcDbEntity
  8
Visible Edges(Ram)
100
AcDbSpline
210
0.0
220
0.0
230
1.0
 70
     8
 71
     3
 72
     8
 73
     4
 74
     0
 42
0.000000001
 43
0.0000000001
 40
3.378689917395463
 40
3.378689917395463
 40
3.378689917395463
 40
3.378689917395463
 40
3.428028795128319
 40
3.428028795128319
 40
3.428028795128319
 40
3.428028795128319
 10
417.8882037551884
 20
170.4052962877448
 30
0.0
 10
417.888194013194
 20
170.2365751000867
 30
0.0
 10
417.8881965389226
 20
170.0697592135213
 30
0.0
 10
417.8881965389226
 20
169.9052962877451
 30
0.0
  0
SPLINE
  5
4A7
330
6C
100
AcDbEntity
  8
Visible Edges(Ram)
100
AcDbSpline
210
0.0
220
0.0
230
1.0
 70
     8
 71
     3
 72
     8
 73
     4
 74
     0
 42
0.000000001
 43
0.0000000001
 40
-0.094194030687656
 40
-0.094194030687656
 40
-0.094194030687656
 40
-0.094194030687656
 40
0.0
 40
0.0
 40
0.0
 40
0.0
 10
417.8881965389226
 20
171.3267982398781
 30
0.0
 10
417.8881965389226
 20
171.0263984231209
 30
0.0
 10
417.8882218781821
 20
170.7191676518099
 30
0.0
 10
417.8882037551884
 20
170.4052962877416
 30
0.0
  0
LINE
  5
4A8
330
6C
100
AcDbEntity
  8
Visible Edges(Ram)
100
AcDbLine
 10
417.8881965389226
 20
171.3267982398781
 30
0.0
 11
417.8881965389171
 21
188.9052962877451
 31
0.0
  0
LINE
  5
4A9
330
6C
100
AcDbEntity
  8
Visible Edges(Ram)
100
AcDbLine
 10
417.8881965389171
 20
150.9052962877452
 30
0.0
 11
415.8881965389171
 21
150.9052962877452
 31
0.0
  0
LINE
  5
4AA
330
6C
100
AcDbEntity
  8
Visible Edges(Ram)
100
AcDbLine
 10
417.8881965389171
 20
188.9052962877451
 30
0.0
 11
415.8881965389171
 21
188.9052962877451
 31
0.0
  0
ARC
  5
4AB
330
6C
100
AcDbEntity
  8
Visible Edges(Ram)
100
AcDbCircle
 10
420.8881965389203
 20
155.9052962877452
 30
0.0
 40
2.999999999999998
100
AcDbArc
 50
90.0
 51
180.0
  0
ARC
  5
4AC
330
6C
100
AcDbEntity
  8
Visible Edges(Ram)
100
AcDbCircle
 10
420.8881965389172
 20
187.9052962877451
 30
0.0
 40
3.0
100
AcDbArc
 50
180.0
 51
270.0
  0
LINE
  5
4AD
330
6C
100
AcDbEntity
  8
Visible Edges(Ram)
100
AcDbLine
 10
457.588196538924
 20
196.4052962877451
 30
0.0
 11
457.5881965389247
 21
193.9925450295014
 31
0.0
  0
ARC
  5
4AE
330
6C
100
AcDbEntity
  8
Visible Edges(Ram)
100
AcDbCircle
 10
457.0881965389238
 20
196.4052962877451
 30
0.0
 40
0.4999999999999984
100
AcDbArc
 50
0.0
 51
90.0
  0
LINE
  5
4AF
330
6C
100
AcDbEntity
  8
Visible Edges(Ram)
100
AcDbLine
 10
457.588196538925
 20
163.636541064295
 30
0.0
 11
457.5881965389247
 21
193.9925450295014
 31
0.0
  0
SPLINE
  5
4B0
330
6C
100
AcDbEntity
  8
Visible Edges(Ram)
100
AcDbSpline
210
0.0
220
0.0
230
1.0
 70
     8
 71
     3
 72
    12
 73
     8
 74
     0
 42
0.000000001
 43
0.0000000001
 40
-0.3395582024306052
 40
-0.3395582024306052
 40
-0.3395582024306052
 40
-0.3395582024306052
 40
-0.3049070530481743
 40
-0.3049070530481743
 40
-0.1517415920872181
 40
-0.1517415920872181
 40
-0.0889282365794188
 40
-0.0889282365794188
 40
-0.0889282365794188
 40
-0.0889282365794188
 10
457.2698110526423
 20
168.9238585869001
 30
0.0
 10
457.2981379545925
 20
169.1718181611644
 30
0.0
 10
457.3194528450851
 20
169.4164367692398
 30
0.0
 10
457.3877234778445
 20
170.7361526085975
 30
0.0
 10
457.2636703133256
 20
171.557020126151
 30
0.0
 10
457.158739557284
 20
172.264591029514
 30
0.0
 10
457.1247438636381
 20
172.471458353478
 30
0.0
 10
457.0881965388982
 20
172.6781980560932
 30
0.0
  0
SPLINE
  5
4B1
330
6C
100
AcDbEntity
  8
Visible Edges(Ram)
100
AcDbSpline
210
0.0
220
0.0
230
1.0
 70
     8
 71
     3
 72
    10
 73
     6
 74
     0
 42
0.000000001
 43
0.0000000001
 40
2.973021414336732
 40
2.973021414336732
 40
2.973021414336732
 40
2.973021414336732
 40
3.176505841625964
 40
3.176505841625964
 40
3.185621060810336
 40
3.185621060810336
 40
3.185621060810336
 40
3.185621060810336
 10
454.5881965389249
 20
178.5777032391481
 30
0.0
 10
454.1570225161811
 20
179.1737095049144
 30
0.0
 10
453.6849739168682
 20
179.7266453006532
 30
0.0
 10
453.1892166550051
 20
180.2327274920045
 30
0.0
 10
453.1678262135359
 20
180.2544259531321
 30
0.0
 10
453.146302517706
 20
180.2761204774168
 30
0.0
  0
SPLINE
  5
4B2
330
6C
100
AcDbEntity
  8
Visible Edges(Ram)
100
AcDbSpline
210
0.0
220
0.0
230
1.0
 70
     8
 71
     3
 72
    14
 73
    10
 74
     0
 42
0.000000001
 43
0.0000000001
 40
2.365244568777665
 40
2.365244568777665
 40
2.365244568777665
 40
2.365244568777665
 40
2.369912034243753
 40
2.369912034243753
 40
2.637536047040336
 40
2.637536047040336
 40
2.907020944333151
 40
2.907020944333151
 40
2.973021414336732
 40
2.973021414336732
 40
2.973021414336732
 40
2.973021414336732
 10
457.0881965389113
 20
172.6781980560955
 30
0.0
 10
457.0852457107126
 20
172.694890203841
 30
0.0
 10
457.0822650994913
 20
172.7115775105682
 30
0.0
 10
456.9066491301071
 20
173.6847723511012
 30
0.0
 10
456.630878784614
 20
174.6227060107429
 30
0.0
 10
455.9722604297206
 20
176.2865106535019
 30
0.0
 10
455.5277138999212
 20
177.1648749734125
 30
0.0
 10
454.8637395347071
 20
178.1866414895626
 30
0.0
 10
454.7280484604383
 20
178.384387739826
 30
0.0
 10
454.5881965389249
 20
178.5777032391481
 30
0.0
  0
SPLINE
  5
4B3
330
6C
100
AcDbEntity
  8
Visible Edges(Ram)
100
AcDbSpline
210
0.0
220
0.0
230
1.0
 70
     8
 71
     3
 72
    14
 73
    10
 74
     0
 42
0.000000001
 43
0.0000000001
 40
-0.3358992462510206
 40
-0.3358992462510206
 40
-0.3358992462510206
 40
-0.3358992462510206
 40
-0.331470252187404
 40
-0.331470252187404
 40
-0.2059423832615146
 40
-0.2059423832615146
 40
-0.0982744568001943
 40
-0.0982744568001943
 40
-0.0382227046043038
 40
-0.0382227046043038
 40
-0.0382227046043038
 40
-0.0382227046043038
 10
455.6262503030198
 20
162.4685977066669
 30
0.0
 10
455.6309821954934
 20
162.4767027962403
 30
0.0
 10
455.6356710417705
 20
162.4849034535422
 30
0.0
 10
455.7720294747645
 20
162.7283475840279
 30
0.0
 10
455.8628959941878
 20
163.0275749667155
 30
0.0
 10
456.0355949900528
 20
163.6763789327868
 30
0.0
 10
456.1157179064085
 20
164.0028997049475
 30
0.0
 10
456.2760496620858
 20
164.5297684787381
 30
0.0
 10
456.3392395844743
 20
164.7184692182269
 30
0.0
 10
456.4083317446765
 20
164.9052962877452
 30
0.0
  0
ARC
  5
4B4
330
6C
100
AcDbEntity
  8
Visible Edges(Ram)
100
AcDbCircle
 10
442.888196538925
 20
169.9052962877452
 30
0.0
 40
14.41506350946118
100
AcDbArc
 50
339.7046593362856
 51
356.0960440711491
  0
LINE
  5
4B5
330
6C
100
AcDbEntity
  8
Visible Edges(Ram)
100
AcDbLine
 10
457.5881965389242
 20
161.9052962877452
 30
0.0
 11
457.588196538925
 21
163.636541064295
 31
0.0
  0
LINE
  5
4B6
330
6C
100
AcDbEntity
  8
Visible Edges(Ram)
100
AcDbLine
 10
457.5881965389242
 20
161.9052962877452
 30
0.0
 11
455.2802302703179
 21
161.9052962877452
 31
0.0
  0
LINE
  5
4B7
330
6C
100
AcDbEntity
  8
Visible Edges(Ram)
100
AcDbLine
 10
457.0881965389238
 20
196.9052962877451
 30
0.0
 11
455.5881965389239
 21
196.9052962877451
 31
0.0
  0
ARC
  5
4B8
330
6C
100
AcDbEntity
  8
Visible Edges(Ram)
100
AcDbCircle
 10
451.5881965389247
 20
183.9252820224027
 30
0.0
 40
3.000000000000001
100
AcDbArc
 50
288.1396920810323
 51
0.0
  0
SPLINE
  5
4B9
330
6C
100
AcDbEntity
  8
Visible Edges(Ram)
100
AcDbSpline
210
0.0
220
0.0
230
1.0
 70
     8
 71
     3
 72
    14
 73
    10
 74
     0
 42
0.000000001
 43
0.0000000001
 40
0.0
 40
0.0
 40
0.0
 40
0.0
 40
0.0408636460583494
 40
0.0408636460583494
 40
0.0802750243659414
 40
0.0802750243659414
 40
0.1190187884323685
 40
0.1190187884323685
 40
0.1475288003859284
 40
0.1475288003859284
 40
0.1475288003859284
 40
0.1475288003859284
 10
453.146302517706
 20
180.2761204774168
 30
0.0
 10
453.0503969044998
 20
180.3727872706646
 30
0.0
 10
452.9613984135328
 20
180.4732830592706
 30
0.0
 10
452.8071862158273
 20
180.6657896398796
 30
0.0
 10
452.7432703531977
 20
180.7551773218531
 30
0.0
 10
452.6393889471886
 20
180.9079367002182
 30
0.0
 10
452.6002351059127
 20
180.9695678584545
 30
0.0
 10
452.551004091266
 20
181.0424383184208
 30
0.0
 10
452.5362319297084
 20
181.062181947033
 30
0.0
 10
452.5273006861245
 20
181.0699384140955
 30
0.0
  0
LINE
  5
4BA
330
6C
100
AcDbEntity
  8
Visible Edges(Ram)
100
AcDbLine
 10
454.5881965389244
 20
193.9750952811501
 30
0.0
 11
454.5881965389247
 21
183.9252820224027
 31
0.0
  0
ARC
  5
4BB
330
6C
100
AcDbEntity
  8
Visible Edges(Ram)
100
AcDbCircle
 10
455.5881965389239
 20
195.9052962877451
 30
0.0
 40
1.000000000000007
100
AcDbArc
 50
90.0
 51
180.0
  0
LINE
  5
4BC
330
6C
100
AcDbEntity
  8
Visible Edges(Ram)
100
AcDbLine
 10
454.5881965389244
 20
193.9750952811501
 30
0.0
 11
454.588196538924
 21
195.9052962877451
 31
0.0
  0
LINE
  5
4BD
330
6C
100
AcDbEntity
  8
Visible Edges(Ram)
100
AcDbLine
 10
429.6293035516916
 20
200.9052962877452
 30
0.0
 11
456.1470895261423
 21
200.9052962877452
 31
0.0
  0
LINE
  5
4BE
330
6C
100
AcDbEntity
  8
Visible Edges(Ram)
100
AcDbLine
 10
456.1470895261423
 20
200.9052962877452
 30
0.0
 11
456.2169097858552
 21
196.9052962877451
 31
0.0
  0
LINE
  5
4BF
330
6C
100
AcDbEntity
  8
Visible Edges(Ram)
100
AcDbLine
 10
429.6293035516917
 20
200.9052962877452
 30
0.0
 11
429.4009592960011
 21
187.8234626406264
 31
0.0
  0
CIRCLE
  5
4C0
330
6C
100
AcDbEntity
  8
Visible Edges(Ram)
100
AcDbCircle
 10
442.8881965389249
 20
169.9052962877452
 30
0.0
 40
9.3155
  0
CIRCLE
  5
4C1
330
6C
100
AcDbEntity
  8
Visible Edges(Ram)
100
AcDbCircle
 10
442.8881965389254
 20
169.9052962877452
 30
0.0
 40
10.8155
  0
CIRCLE
  5
4C2
330
6C
100
AcDbEntity
  8
Visible Edges(Ram)
100
AcDbCircle
 10
442.8881965389254
 20
169.9052962877452
 30
0.0
 40
13.33972473588538
  0
ARC
  5
4C3
330
6C
100
AcDbEntity
  8
Visible Edges(Ram)
100
AcDbCircle
 10
442.8881965389247
 20
169.9052962877452
 30
0.0
 40
14.75000000000012
100
AcDbArc
 50
49.19394292328122
 51
329.7228698958471
  0
SPLINE
  5
4C4
330
6C
100
AcDbEntity
  8
Visible Edges(Ram)
100
AcDbSpline
210
0.0
220
0.0
230
1.0
 70
     8
 71
     3
 72
    14
 73
    10
 74
     0
 42
0.000000001
 43
0.0000000001
 40
2.15860715691967
 40
2.15860715691967
 40
2.15860715691967
 40
2.15860715691967
 40
2.257066810113022
 40
2.257066810113022
 40
2.469904447659049
 40
2.469904447659049
 40
2.682742085205076
 40
2.682742085205076
 40
2.828108659948741
 40
2.828108659948741
 40
2.828108659948741
 40
2.828108659948741
 10
443.8881965389198
 20
161.9037299165703
 30
0.0
 10
443.5505357954014
 20
161.8907036208582
 30
0.0
 10
443.2163953828976
 20
161.8845317413194
 30
0.0
 10
442.1787377470996
 20
161.8845317413194
 30
0.0
 10
441.4415813414993
 20
161.9132840766179
 30
0.0
 10
439.9602416480496
 20
162.0427845098826
 30
0.0
 10
439.2159816792845
 20
162.1434768658669
 30
0.0
 10
437.9953406886555
 20
162.3889595236073
 30
0.0
 10
437.5093592239743
 20
162.5094727855836
 30
0.0
 10
437.0387486803609
 20
162.6552962877454
 30
0.0
  0
LINE
  5
4C5
330
6C
100
AcDbEntity
  8
Visible Edges(Ram)
100
AcDbLine
 10
443.8881965389188
 20
168.3485008792499
 30
0.0
 11
443.8881965389184
 21
161.9037299165703
 31
0.0
  0
SPLINE
  5
4C6
330
6C
100
AcDbEntity
  8
Visible Edges(Ram)
100
AcDbSpline
210
0.0
220
0.0
230
1.0
 70
     8
 71
     3
 72
    19
 73
    15
 74
     0
 42
0.000000001
 43
0.0000000001
 40
-1.013089845177017
 40
-1.013089845177017
 40
-1.013089845177017
 40
-1.013089845177017
 40
-0.8691823452612528
 40
-0.8691823452612528
 40
-0.6988564223047944
 40
-0.6988564223047944
 40
-0.3494282111523974
 40
-0.3494282111523974
 40
-0.1747141055761991
 40
-0.1747141055761991
 40
0.0
 40
0.0
 40
0.0
 40
0.1033561140245572
 40
0.1033561140245572
 40
0.1033561140245572
 40
0.1033561140245572
 10
433.9878572055012
 20
167.155296287745
 30
0.0
 10
434.2912182896484
 20
167.4594310987717
 30
0.0
 10
434.6652199671686
 20
167.7041577533193
 30
0.0
 10
435.5372845153612
 20
168.1345858537968
 30
0.0
 10
436.0461359750114
 20
168.2990998426125
 30
0.0
 10
437.49188731647
 20
168.6384947724743
 30
0.0
 10
438.5600095842632
 20
168.6994213821825
 30
0.0
 10
440.1570333465736
 20
168.5849109790632
 30
0.0
 10
440.6877091351211
 20
168.5117242616368
 30
0.0
 10
441.7613852611054
 20
168.3602276855399
 30
0.0
 10
442.3058161869979
 20
168.2854081419504
 30
0.0
 10
442.8881965389186
 20
168.2854081419504
 30
0.0
 10
443.2327169190005
 20
168.2854081419504
 30
0.0
 10
443.5640051503405
 20
168.3112130233402
 30
0.0
 10
443.8881965389186
 20
168.3485008792499
 30
0.0
  0
SPLINE
  5
4C7
330
6C
100
AcDbEntity
  8
Visible Edges(Ram)
100
AcDbSpline
210
0.0
220
0.0
230
1.0
 70
     8
 71
     3
 72
    22
 73
    18
 74
     0
 42
0.000000001
 43
0.0000000001
 40
2.029953565582748
 40
2.029953565582748
 40
2.029953565582748
 40
2.029953565582748
 40
2.040819718115248
 40
2.040819718115248
 40
2.22912443930868
 40
2.22912443930868
 40
2.333144895989422
 40
2.333144895989422
 40
2.437165352670164
 40
2.437165352670164
 40
2.503057770967392
 40
2.503057770967392
 40
2.568950189264619
 40
2.568950189264619
 40
2.700735025859071
 40
2.700735025859071
 40
2.857966380654687
 40
2.857966380654687
 40
2.857966380654687
 40
2.857966380654687
 10
443.8881965389186
 20
168.3485008792499
 30
0.0
 10
443.9068473383612
 20
168.3228934491456
 30
0.0
 10
443.9253174140201
 20
168.2975156490959
 30
0.0
 10
444.2601594168761
 20
167.837094194672
 30
0.0
 10
444.6377949568141
 20
167.3133495702204
 30
0.0
 10
445.1050945967129
 20
166.6210674125849
 30
0.0
 10
445.2842985325499
 20
166.3496316517496
 30
0.0
 10
445.5835712169271
 20
165.7917041612372
 30
0.0
 10
445.7034708439228
 20
165.504459122842
 30
0.0
 10
445.6794675713139
 20
164.9987165928885
 30
0.0
 10
445.6224141483327
 20
164.8174304722699
 30
0.0
 10
445.4789529716915
 20
164.4654755730136
 30
0.0
 10
445.3916699912737
 20
164.2949450387289
 30
0.0
 10
445.1124685586529
 20
163.7853371866937
 30
0.0
 10
444.9039309890407
 20
163.4506602530195
 30
0.0
 10
444.4303752931637
 20
162.7105641095346
 30
0.0
 10
444.1618424924785
 20
162.3076325709801
 30
0.0
 10
443.8881965389198
 20
161.9037299165703
 30
0.0
  0
LINE
  5
4C8
330
6C
100
AcDbEntity
  8
Visible Edges(Ram)
100
AcDbLine
 10
433.0615745354032
 20
158.9052962877452
 30
0.0
 11
420.8881965389203
 21
158.9052962877452
 31
0.0
  0
LINE
  5
4C9
330
6C
100
AcDbEntity
  8
Visible Edges(Ram)
100
AcDbLine
 10
426.4314116413867
 20
184.9052962877451
 30
0.0
 11
420.8881965389172
 21
184.9052962877451
 31
0.0
  0
ARC
  5
4CA
330
6C
100
AcDbEntity
  8
Visible Edges(Ram)
100
AcDbCircle
 10
426.4314116413867
 20
187.8752962877451
 30
0.0
 40
2.969999999999998
100
AcDbArc
 50
270.0
 51
359.0000000000005
  0
LINE
  5
4CB
330
6C
100
AcDbEntity
  8
Visible Edges(Ram)
100
AcDbLine
 10
253.1731649553239
 20
331.3579017578279
 30
0.0
 11
208.173164955324
 21
331.3579017578279
 31
0.0
  0
ARC
  5
4CC
330
6C
100
AcDbEntity
  8
Visible Edges(Ram)
100
AcDbCircle
 10
236.975264955324
 20
293.8579017578279
 30
0.0
 40
16.19789999999999
100
AcDbArc
 50
327.0779482313209
 51
0.0
  0
ARC
  5
4CD
330
6C
100
AcDbEntity
  8
Visible Edges(Ram)
100
AcDbCircle
 10
224.3710649553239
 20
293.8579017578279
 30
0.0
 40
16.19789999999999
100
AcDbArc
 50
180.0
 51
212.9220517686796
  0
LINE
  5
4CE
330
6C
100
AcDbEntity
  8
Visible Edges(Ram)
100
AcDbLine
 10
208.1731649553239
 20
293.8579017578279
 30
0.0
 11
208.1731649553239
 21
315.519251834151
 31
0.0
  0
LINE
  5
4CF
330
6C
100
AcDbEntity
  8
Visible Edges(Ram)
100
AcDbLine
 10
208.1731649553239
 20
319.519251834151
 30
0.0
 11
208.173164955324
 21
331.3579017578279
 31
0.0
  0
LINE
  5
4D0
330
6C
100
AcDbEntity
  8
Visible Edges(Ram)
100
AcDbLine
 10
253.1731649553239
 20
293.8579017578279
 30
0.0
 11
253.1731649553239
 21
315.519251834151
 31
0.0
  0
LINE
  5
4D1
330
6C
100
AcDbEntity
  8
Visible Edges(Ram)
100
AcDbLine
 10
253.1731649553239
 20
319.5192518341509
 30
0.0
 11
253.1731649553239
 21
331.3579017578279
 31
0.0
  0
LINE
  5
4D2
330
6C
100
AcDbEntity
  8
Visible Edges(Ram)
100
AcDbLine
 10
270.1731649553241
 20
315.519251834151
 30
0.0
 11
191.1731649553237
 21
315.519251834151
 31
0.0
  0
ARC
  5
4D3
330
6C
100
AcDbEntity
  8
Visible Edges(Ram)
100
AcDbCircle
 10
191.1731649553237
 20
316.019251834151
 30
0.0
 40
0.5000000000000018
100
AcDbArc
 50
180.0
 51
270.0
  0
ARC
  5
4D4
330
6C
100
AcDbEntity
  8
Visible Edges(Ram)
100
AcDbCircle
 10
270.1731649553241
 20
316.019251834151
 30
0.0
 40
0.5000000000000018
100
AcDbArc
 50
270.0
 51
0.0
  0
LINE
  5
4D5
330
6C
100
AcDbEntity
  8
Visible Edges(Ram)
100
AcDbLine
 10
190.6731649553238
 20
319.5192518341509
 30
0.0
 11
270.673164955324
 21
319.5192518341509
 31
0.0
  0
LINE
  5
4D6
330
6C
100
AcDbEntity
  8
Visible Edges(Ram)
100
AcDbLine
 10
190.6731649553238
 20
316.019251834151
 30
0.0
 11
190.6731649553238
 21
319.5192518341509
 31
0.0
  0
LINE
  5
4D7
330
6C
100
AcDbEntity
  8
Visible Edges(Ram)
100
AcDbLine
 10
270.673164955324
 20
316.019251834151
 30
0.0
 11
270.673164955324
 21
319.5192518341509
 31
0.0
  0
ELLIPSE
  5
4D8
330
6C
100
AcDbEntity
  8
Visible Edges(Ram)
100
AcDbEllipse
 10
230.6731649553239
 20
286.8672033985788
 30
0.0
 11
21.50004058705626
 21
0.000000000000047
 31
0.0
210
0.0
220
0.0
230
1.0
 40
0.2226544363550706
 41
3.143535726973471
 42
6.281242233795832
  0
ELLIPSE
  5
4D9
330
6C
100
AcDbEntity
  8
Visible Edges(Ram)
100
AcDbEllipse
 10
230.6731649553239
 20
286.8676360330324
 30
0.0
 11
22.50004247482626
 21
0.000000000000031
 31
0.0
210
0.0
220
0.0
230
1.0
 40
0.2226544363550715
 41
3.143535726973548
 42
6.281242233795907
  0
LINE
  5
4DA
330
6C
100
AcDbEntity
  8
Visible Edges(Ram)
100
AcDbLine
 10
252.1731649553239
 20
286.8579017578282
 30
0.0
 11
253.1731649553239
 21
286.8579017578282
 31
0.0
  0
LINE
  5
4DB
330
6C
100
AcDbEntity
  8
Visible Edges(Ram)
100
AcDbLine
 10
208.1731649553239
 20
286.857901757828
 30
0.0
 11
209.1731649553239
 21
286.857901757828
 31
0.0
  0
LINE
  5
4DC
330
6C
100
AcDbEntity
  8
Visible Edges(Ram)
100
AcDbLine
 10
209.1731649553239
 20
286.857901757828
 30
0.0
 11
209.7638077038752
 21
286.8579017578266
 31
0.0
  0
LINE
  5
4DD
330
6C
100
AcDbEntity
  8
Visible Edges(Ram)
100
AcDbLine
 10
251.5825222067727
 20
286.8579017578266
 30
0.0
 11
252.1731649553239
 21
286.8579017578282
 31
0.0
  0
LINE
  5
4DE
330
6C
100
AcDbEntity
  8
Visible Edges(Ram)
100
AcDbLine
 10
251.9811357855415
 20
263.8579017578281
 30
0.0
 11
209.3651941251064
 21
263.8579017578281
 31
0.0
  0
ARC
  5
4DF
330
6C
100
AcDbEntity
  8
Visible Edges(Ram)
100
AcDbCircle
 10
251.9811357855415
 20
264.8579017578281
 30
0.0
 40
1.0
100
AcDbArc
 50
270.0
 51
359.5000000000002
  0
ARC
  5
4E0
330
6C
100
AcDbEntity
  8
Visible Edges(Ram)
100
AcDbCircle
 10
209.3651941251064
 20
264.8579017578281
 30
0.0
 40
1.0
100
AcDbArc
 50
180.4999999999998
 51
270.0
  0
LINE
  5
4E1
330
6C
100
AcDbEntity
  8
Visible Edges(Ram)
100
AcDbLine
 10
208.3652322020422
 20
264.8491752223297
 30
0.0
 11
208.1731649553239
 21
286.857901757828
 31
0.0
  0
LINE
  5
4E2
330
6C
100
AcDbEntity
  8
Visible Edges(Ram)
100
AcDbLine
 10
252.9810977086057
 20
264.8491752223299
 30
0.0
 11
253.1731649553239
 21
286.8579017578282
 31
0.0
  0
SPLINE
  5
4E3
330
6C
100
AcDbEntity
  8
Visible Edges(Ram)
100
AcDbSpline
210
0.0
220
0.0
230
1.0
 70
     8
 71
     3
 72
     8
 73
     4
 74
     0
 42
0.000000001
 43
0.0000000001
 40
3.378689917395463
 40
3.378689917395463
 40
3.378689917395463
 40
3.378689917395463
 40
3.428028795128319
 40
3.428028795128319
 40
3.428028795128319
 40
3.428028795128319
 10
249.6665848685465
 20
333.3579089740937
 30
0.0
 10
249.6710264380066
 20
333.3578992320994
 30
0.0
 10
249.673164955324
 20
333.357901757828
 30
0.0
 10
249.673164955324
 20
333.3579017578279
 30
0.0
  0
SPLINE
  5
4E4
330
6C
100
AcDbEntity
  8
Visible Edges(Ram)
100
AcDbSpline
210
0.0
220
0.0
230
1.0
 70
     8
 71
     3
 72
     8
 73
     4
 74
     0
 42
0.000000001
 43
0.0000000001
 40
-0.094194030687656
 40
-0.094194030687656
 40
-0.094194030687656
 40
-0.094194030687656
 40
0.0
 40
0.0
 40
0.0
 40
0.0
 10
249.6199148665906
 20
333.3579017578284
 30
0.0
 10
249.6424527122865
 20
333.3579017578284
 30
0.0
 10
249.6583222342896
 20
333.3579270970876
 30
0.0
 10
249.6665848685466
 20
333.3579089740937
 30
0.0
  0
LINE
  5
4E5
330
6C
100
AcDbEntity
  8
Visible Edges(Ram)
100
AcDbLine
 10
249.6199148665906
 20
333.3579017578284
 30
0.0
 11
211.7264150440572
 21
333.3579017578284
 31
0.0
  0
SPLINE
  5
4E6
330
6C
100
AcDbEntity
  8
Visible Edges(Ram)
100
AcDbSpline
210
0.0
220
0.0
230
1.0
 70
     8
 71
     3
 72
     8
 73
     4
 74
     0
 42
0.000000001
 43
0.0000000001
 40
-0.8448311285377666
 40
-0.8448311285377666
 40
-0.8448311285377666
 40
-0.8448311285377666
 40
-0.8003333974955825
 40
-0.8003333974955825
 40
-0.8003333974955825
 40
-0.8003333974955825
 10
211.6797450421013
 20
333.3579089740937
 30
0.0
 10
211.6880582807876
 20
333.3579272080817
 30
0.0
 10
211.7040210477096
 20
333.3579017578284
 30
0.0
 10
211.7264150440572
 20
333.3579017578284
 30
0.0
  0
SPLINE
  5
4E7
330
6C
100
AcDbEntity
  8
Visible Edges(Ram)
100
AcDbSpline
210
0.0
220
0.0
230
1.0
 70
     8
 71
     3
 72
     8
 73
     4
 74
     0
 42
0.000000001
 43
0.0000000001
 40
3.428028795128358
 40
3.428028795128358
 40
3.428028795128358
 40
3.428028795128358
 40
3.477367672861235
 40
3.477367672861235
 40
3.477367672861235
 40
3.477367672861235
 10
211.6731649553239
 20
333.3579017578279
 30
0.0
 10
211.6731649553239
 20
333.357901757828
 30
0.0
 10
211.6753034726412
 20
333.3578992320994
 30
0.0
 10
211.6797450421013
 20
333.3579089740937
 30
0.0
  0
LINE
  5
4E8
330
6C
100
AcDbEntity
  8
Visible Edges(Ram)
100
AcDbLine
 10
249.6731649553239
 20
333.3579017578279
 30
0.0
 11
249.6731649553239
 21
331.3579017578279
 31
0.0
  0
LINE
  5
4E9
330
6C
100
AcDbEntity
  8
Visible Edges(Ram)
100
AcDbLine
 10
211.6731649553239
 20
333.3579017578279
 30
0.0
 11
211.6731649553239
 21
331.3579017578279
 31
0.0
  0
ARC
  5
4EA
330
6C
100
AcDbEntity
  8
Visible Edges(Ram)
100
AcDbCircle
 10
249.673164955324
 20
336.3579017578282
 30
0.0
 40
2.999999999999998
100
AcDbArc
 50
180.0
 51
269.8743294988436
  0
ARC
  5
4EB
330
6C
100
AcDbEntity
  8
Visible Edges(Ram)
100
AcDbCircle
 10
211.6731649553239
 20
336.3579017578282
 30
0.0
 40
3.000000000000022
100
AcDbArc
 50
270.1256705011564
 51
0.0
  0
LINE
  5
4EC
330
6C
100
AcDbEntity
  8
Visible Edges(Ram)
100
AcDbLine
 10
253.8331361689351
 20
373.0579017578358
 30
0.0
 11
256.3316132364828
 21
373.057901757835
 31
0.0
  0
SPLINE
  5
4ED
330
6C
100
AcDbEntity
  8
Visible Edges(Ram)
100
AcDbSpline
210
0.0
220
0.0
230
1.0
 70
     8
 71
     3
 72
    10
 73
     6
 74
     0
 42
0.000000001
 43
0.0000000001
 40
0.0104119190956684
 40
0.0104119190956684
 40
0.0104119190956684
 40
0.0104119190956684
 40
0.0891282927068199
 40
0.0891282927068199
 40
0.1374579371063139
 40
0.1374579371063139
 40
0.1374579371063139
 40
0.1374579371063139
 10
257.673164955324
 20
372.9373512852508
 30
0.0
 10
257.673164955324
 20
372.9452969536537
 30
0.0
 10
257.636606500513
 20
372.9878322292563
 30
0.0
 10
257.518877389197
 20
373.0416140212675
 30
0.0
 10
257.4607001898032
 20
373.0579017578261
 30
0.0
 10
257.3916682536424
 20
373.057901757826
 30
0.0
  0
LINE
  5
4EE
330
6C
100
AcDbEntity
  8
Visible Edges(Ram)
100
AcDbLine
 10
257.3916682536424
 20
373.057901757826
 30
0.0
 11
256.3316132364828
 21
373.057901757835
 31
0.0
  0
SPLINE
  5
4EF
330
6C
100
AcDbEntity
  8
Visible Edges(Ram)
100
AcDbSpline
210
0.0
220
0.0
230
1.0
 70
     8
 71
     3
 72
    10
 73
     6
 74
     0
 42
0.000000001
 43
0.0000000001
 40
-0.2930472175552157
 40
-0.2930472175552157
 40
-0.2930472175552157
 40
-0.2930472175552157
 40
-0.1517415920872181
 40
-0.1517415920872181
 40
-0.0889282365794188
 40
-0.0889282365794188
 40
-0.0889282365794188
 40
-0.0889282365794188
 10
257.6040285835304
 20
372.8115603700029
 30
0.0
 10
257.5553794522221
 20
372.8385150657337
 30
0.0
 10
257.5895240913906
 20
372.727613571287
 30
0.0
 10
257.586650901681
 20
372.6284447761876
 30
0.0
 10
257.5834509156595
 20
372.5944490825416
 30
0.0
 10
257.5762314061577
 20
372.5579017578019
 30
0.0
  0
LINE
  5
4F0
330
6C
100
AcDbEntity
  8
Visible Edges(Ram)
100
AcDbLine
 10
257.673164955324
 20
372.9373512852508
 30
0.0
 11
257.673164955324
 21
372.7729652672888
 31
0.0
  0
LINE
  5
4F1
330
6C
100
AcDbEntity
  8
Visible Edges(Ram)
100
AcDbLine
 10
253.8331361689351
 20
373.0579017578358
 30
0.0
 11
207.5130920560224
 21
373.0579017578358
 31
0.0
  0
LINE
  5
4F2
330
6C
100
AcDbEntity
  8
Visible Edges(Ram)
100
AcDbLine
 10
205.0146149884747
 20
373.057901757835
 30
0.0
 11
207.5130920560224
 21
373.0579017578358
 31
0.0
  0
LINE
  5
4F3
330
6C
100
AcDbEntity
  8
Visible Edges(Ram)
100
AcDbLine
 10
203.673164955324
 20
372.7729652672885
 30
0.0
 11
203.673164955324
 21
372.9374384645628
 31
0.0
  0
SPLINE
  5
4F4
330
6C
100
AcDbEntity
  8
Visible Edges(Ram)
100
AcDbSpline
210
0.0
220
0.0
230
1.0
 70
     8
 71
     3
 72
    10
 73
     6
 74
     0
 42
0.000000001
 43
0.0000000001
 40
-1.002372022180574
 40
-1.002372022180574
 40
-1.002372022180574
 40
-1.002372022180574
 40
-0.5751364438550836
 40
-0.5751364438550836
 40
-0.4746151095694632
 40
-0.4746151095694632
 40
-0.4746151095694632
 40
-0.4746151095694632
 10
203.7699861786971
 20
372.5579017578013
 30
0.0
 10
203.746877342535
 20
372.6748699603797
 30
0.0
 10
203.7666000185525
 20
372.7634019780991
 30
0.0
 10
203.7638585340181
 20
372.8061795043831
 30
0.0
 10
203.7581163747479
 20
372.8224429768632
 30
0.0
 10
203.7372249082956
 20
372.8105307337529
 30
0.0
  0
LINE
  5
4F5
330
6C
100
AcDbEntity
  8
Visible Edges(Ram)
100
AcDbLine
 10
205.0146149884747
 20
373.057901757835
 30
0.0
 11
203.95456705074
 21
373.057901757826
 31
0.0
  0
SPLINE
  5
4F6
330
6C
100
AcDbEntity
  8
Visible Edges(Ram)
100
AcDbSpline
210
0.0
220
0.0
230
1.0
 70
     8
 71
     3
 72
    10
 73
     6
 74
     0
 42
0.000000001
 43
0.0000000001
 40
0.8420807357812114
 40
0.8420807357812114
 40
0.8420807357812114
 40
0.8420807357812114
 40
0.890390921100646
 40
0.890390921100646
 40
0.9691031824324811
 40
0.9691031824324811
 40
0.9691031824324811
 40
0.9691031824324811
 10
203.95456705074
 20
373.057901757826
 30
0.0
 10
203.8855727352718
 20
373.0579017578261
 30
0.0
 10
203.8274250595189
 20
373.041631161106
 30
0.0
 10
203.7097204399763
 20
372.9878909938792
 30
0.0
 10
203.673164955324
 20
372.9453794536068
 30
0.0
 10
203.673164955324
 20
372.9374384645629
 30
0.0
  0
SPLINE
  5
4F7
330
6C
100
AcDbEntity
  8
Visible Edges(Ram)
100
AcDbSpline
210
0.0
220
0.0
230
1.0
 70
     8
 71
     3
 72
    10
 73
     6
 74
     0
 42
0.000000001
 43
0.0000000001
 40
2.973021414336732
 40
2.973021414336732
 40
2.973021414336732
 40
2.973021414336732
 40
3.176505841625964
 40
3.176505841625964
 40
3.185621060810336
 40
3.185621060810336
 40
3.185621060810336
 40
3.185621060810336
 10
257.3702161455449
 20
370.0579017578303
 30
0.0
 10
257.3494031481224
 20
369.6267277350868
 30
0.0
 10
257.3300942046557
 20
369.1546791357741
 30
0.0
 10
257.3124214251077
 20
368.6589218739111
 30
0.0
 10
257.3116636981483
 20
368.6375314324421
 30
0.0
 10
257.3109061086665
 20
368.6160077366121
 30
0.0
  0
SPLINE
  5
4F8
330
6C
100
AcDbEntity
  8
Visible Edges(Ram)
100
AcDbSpline
210
0.0
220
0.0
230
1.0
 70
     8
 71
     3
 72
    14
 73
    10
 74
     0
 42
0.000000001
 43
0.0000000001
 40
2.365244568777665
 40
2.365244568777665
 40
2.365244568777665
 40
2.365244568777665
 40
2.369912034243753
 40
2.369912034243753
 40
2.637536047040336
 40
2.637536047040336
 40
2.907020944333151
 40
2.907020944333151
 40
2.973021414336732
 40
2.973021414336732
 40
2.973021414336732
 40
2.973021414336732
 10
257.5762314061577
 20
372.5579017578151
 30
0.0
 10
257.5756485035139
 20
372.5549509296164
 30
0.0
 10
257.5750657699223
 20
372.5519703183952
 30
0.0
 10
257.5410810572254
 20
372.3763543490111
 30
0.0
 10
257.5083276920985
 20
372.1005840035183
 30
0.0
 10
257.4502263536895
 20
371.4419656486256
 30
0.0
 10
257.4195531957441
 20
370.9974191188262
 30
0.0
 10
257.3838723227591
 20
370.3334447536127
 30
0.0
 10
257.3769668715359
 20
370.1977536793437
 30
0.0
 10
257.3702161455449
 20
370.0579017578303
 30
0.0
  0
SPLINE
  5
4F9
330
6C
100
AcDbEntity
  8
Visible Edges(Ram)
100
AcDbSpline
210
0.0
220
0.0
230
1.0
 70
     8
 71
     3
 72
    14
 73
    10
 74
     0
 42
0.000000001
 43
0.0000000001
 40
1.287579637045254
 40
1.287579637045254
 40
1.287579637045254
 40
1.287579637045254
 40
1.353574640334346
 40
1.353574640334346
 40
1.623058743918869
 40
1.623058743918869
 40
1.890681755469364
 40
1.890681755469364
 40
1.895376674245426
 40
1.895376674245426
 40
1.895376674245426
 40
1.895376674245426
 10
203.9760095783313
 20
370.0579017578303
 30
0.0
 10
203.9692593796866
 20
370.197741139545
 30
0.0
 10
203.9623544841805
 20
370.3334202603152
 30
0.0
 10
203.9266742415953
 20
370.997380618844
 30
0.0
 10
203.8960011478542
 20
371.4419243361483
 30
0.0
 10
203.8378999612477
 20
372.1005374215278
 30
0.0
 10
203.8051467004334
 20
372.3763049444213
 30
0.0
 10
203.771158674535
 20
372.5519360263057
 30
0.0
 10
203.7705725120861
 20
372.5549339596039
 30
0.0
 10
203.7699861786973
 20
372.5579017578148
 30
0.0
  0
SPLINE
  5
4FA
330
6C
100
AcDbEntity
  8
Visible Edges(Ram)
100
AcDbSpline
210
0.0
220
0.0
230
1.0
 70
     8
 71
     3
 72
    10
 73
     6
 74
     0
 42
0.000000001
 43
0.0000000001
 40
1.074973673993516
 40
1.074973673993516
 40
1.074973673993516
 40
1.074973673993516
 40
1.084090536749822
 40
1.084090536749822
 40
1.287579637045254
 40
1.287579637045254
 40
1.287579637045254
 40
1.287579637045254
 10
204.0353215448298
 20
368.6159690430185
 30
0.0
 10
204.0345638178136
 20
368.6374966400342
 30
0.0
 10
204.0338059532454
 20
368.6588909344927
 30
0.0
 10
204.0161326257667
 20
369.1546622570257
 30
0.0
 10
203.9968231517923
 20
369.6267207811994
 30
0.0
 10
203.9760095783313
 20
370.0579017578303
 30
0.0
  0
LINE
  5
4FB
330
6C
100
AcDbEntity
  8
Visible Edges(Ram)
100
AcDbLine
 10
202.6731649553239
 20
371.6976264937128
 30
0.0
 11
202.6731649553239
 21
345.018177021943
 31
0.0
  0
LINE
  5
4FC
330
6C
100
AcDbEntity
  8
Visible Edges(Ram)
100
AcDbLine
 10
258.6731649553239
 20
371.6976264937133
 30
0.0
 11
258.6731649553239
 21
345.0181770219425
 31
0.0
  0
LINE
  5
4FD
330
6C
100
AcDbEntity
  8
Visible Edges(Ram)
100
AcDbLine
 10
254.258101445863
 20
365.4760835760131
 30
0.0
 11
254.258101445863
 21
344.8579017578279
 31
0.0
  0
LINE
  5
4FE
330
6C
100
AcDbEntity
  8
Visible Edges(Ram)
100
AcDbLine
 10
207.088228464785
 20
365.4760835760131
 30
0.0
 11
207.088228464785
 21
344.8579017578279
 31
0.0
  0
ARC
  5
4FF
330
6C
100
AcDbEntity
  8
Visible Edges(Ram)
100
AcDbCircle
 10
256.4231649553241
 20
370.6079017578281
 30
0.0
 40
2.5
100
AcDbArc
 50
25.84193276316891
 51
61.8154075127802
  0
ARC
  5
500
330
6C
100
AcDbEntity
  8
Visible Edges(Ram)
100
AcDbCircle
 10
256.4231649553241
 20
346.1079017578279
 30
0.0
 40
2.5
100
AcDbArc
 50
209.9999999999965
 51
334.1580672368297
  0
LINE
  5
501
330
6C
100
AcDbEntity
  8
Visible Edges(Ram)
100
AcDbLine
 10
254.258101445863
 20
344.8579017578279
 30
0.0
 11
249.643164955324
 21
344.8579017578279
 31
0.0
  0
LINE
  5
502
330
6C
100
AcDbEntity
  8
Visible Edges(Ram)
100
AcDbLine
 10
211.7031649553239
 20
344.8579017578279
 30
0.0
 11
207.088228464785
 21
344.8579017578279
 31
0.0
  0
ARC
  5
503
330
6C
100
AcDbEntity
  8
Visible Edges(Ram)
100
AcDbCircle
 10
204.923164955324
 20
370.6079017578279
 30
0.0
 40
2.499999999999968
100
AcDbArc
 50
118.1884549826439
 51
154.1580672368347
  0
ARC
  5
504
330
6C
100
AcDbEntity
  8
Visible Edges(Ram)
100
AcDbCircle
 10
204.923164955324
 20
346.1079017578279
 30
0.0
 40
2.499999999999968
100
AcDbArc
 50
205.8419327631638
 51
329.9999999999958
  0
CIRCLE
  5
505
330
6C
100
AcDbEntity
  8
Visible Edges(Ram)
100
AcDbCircle
 10
230.6731649553239
 20
358.3579017578367
 30
0.0
 40
9.3155
  0
CIRCLE
  5
506
330
6C
100
AcDbEntity
  8
Visible Edges(Ram)
100
AcDbCircle
 10
230.6731649553239
 20
358.3579017578372
 30
0.0
 40
10.8155
  0
CIRCLE
  5
507
330
6C
100
AcDbEntity
  8
Visible Edges(Ram)
100
AcDbCircle
 10
230.6731649553239
 20
358.3579017578372
 30
0.0
 40
13.25889298722526
  0
SPLINE
  5
508
330
6C
100
AcDbEntity
  8
Visible Edges(Ram)
100
AcDbSpline
210
0.0
220
0.0
230
1.0
 70
     8
 71
     3
 72
    22
 73
    18
 74
     0
 42
0.000000001
 43
0.0000000001
 40
2.100529600052498
 40
2.100529600052498
 40
2.100529600052498
 40
2.100529600052498
 40
2.18990797601076
 40
2.18990797601076
 40
2.393501640308124
 40
2.393501640308124
 40
2.495298472456806
 40
2.495298472456806
 40
2.597095304605489
 40
2.597095304605489
 40
2.69889213675417
 40
2.69889213675417
 40
2.800688968902853
 40
2.800688968902853
 40
3.004282633200217
 40
3.004282633200217
 40
3.09366100915848
 40
3.09366100915848
 40
3.09366100915848
 40
3.09366100915848
 10
235.051018190226
 20
359.3579017578299
 30
0.0
 10
234.8203216473107
 20
359.5123460527116
 30
0.0
 10
234.5877166332881
 20
359.6662055550354
 30
0.0
 10
233.8143156666743
 20
360.1691780737545
 30
0.0
 10
233.2115121408365
 20
360.5523434122604
 30
0.0
 10
232.2831434984374
 20
361.0670431236887
 30
0.0
 10
231.9702494206461
 20
361.2285606423212
 30
0.0
 10
231.33531540972
 20
361.4794796552609
 30
0.0
 10
231.0124877291529
 20
361.5671704437239
 30
0.0
 10
230.333842181495
 20
361.5671704437239
 30
0.0
 10
230.0110145009279
 20
361.4794796552609
 30
0.0
 10
229.3760804900017
 20
361.2285606423212
 30
0.0
 10
229.0631864122104
 20
361.0670431236887
 30
0.0
 10
228.1348177698113
 20
360.5523434122604
 30
0.0
 10
227.5320142439735
 20
360.1691780737545
 30
0.0
 10
226.7586132773598
 20
359.6662055550354
 30
0.0
 10
226.5260082633372
 20
359.5123460527116
 30
0.0
 10
226.2953117204218
 20
359.3579017578299
 30
0.0
  0
LINE
  5
509
330
6C
100
AcDbEntity
  8
Visible Edges(Ram)
100
AcDbLine
 10
226.2953117204218
 20
359.3579017578288
 30
0.0
 11
235.051018190226
 21
359.3579017578288
 31
0.0
  0
SPLINE
  5
50A
330
6C
100
AcDbEntity
  8
Visible Edges(Ram)
100
AcDbSpline
210
0.0
220
0.0
230
1.0
 70
     8
 71
     3
 72
    12
 73
     8
 74
     0
 42
0.000000001
 43
0.0000000001
 40
2.113611376736804
 40
2.113611376736804
 40
2.113611376736804
 40
2.113611376736804
 40
2.211114371947735
 40
2.211114371947735
 40
2.454531174328443
 40
2.454531174328443
 40
2.658277321644872
 40
2.658277321644872
 40
2.658277321644872
 40
2.658277321644872
 10
226.2953117204218
 20
359.3579017578299
 30
0.0
 10
226.2799630122959
 20
359.0182344129472
 30
0.0
 10
226.2728610486255
 20
358.6829117418663
 30
0.0
 10
226.2728610486255
 20
357.5465124165609
 30
0.0
 10
226.3183040704705
 20
356.6721187318
 30
0.0
 10
226.5089119605312
 20
355.1103997036171
 30
0.0
 10
226.6370151222141
 20
354.4139663090943
 30
0.0
 10
226.8001816091165
 20
353.7753260628743
 30
0.0
  0
SPLINE
  5
50B
330
6C
100
AcDbEntity
  8
Visible Edges(Ram)
100
AcDbSpline
210
0.0
220
0.0
230
1.0
 70
     8
 71
     3
 72
    13
 73
     9
 74
     0
 42
0.000000001
 43
0.0000000001
 40
-0.4471629496971386
 40
-0.4471629496971386
 40
-0.4471629496971386
 40
-0.4471629496971386
 40
-0.2434168023807093
 40
-0.2434168023807093
 40
0.0
 40
0.0
 40
0.0
 40
0.0975029952109307
 40
0.0975029952109307
 40
0.0975029952109307
 40
0.0975029952109307
 10
234.5461483015314
 20
353.7753260628743
 30
0.0
 10
234.7093147884338
 20
354.4139663090943
 30
0.0
 10
234.8374179501167
 20
355.110399703617
 30
0.0
 10
235.0280258401773
 20
356.6721187318
 30
0.0
 10
235.0734688620223
 20
357.5465124165609
 30
0.0
 10
235.0734688620223
 20
358.3579017578298
 30
0.0
 10
235.0734688620223
 20
358.6829117418663
 30
0.0
 10
235.066366898352
 20
359.0182344129472
 30
0.0
 10
235.051018190226
 20
359.3579017578299
 30
0.0
  0
CIRCLE
  5
50C
330
6C
100
AcDbEntity
  8
Visible Edges(Ram)
100
AcDbCircle
 10
230.6731649553239
 20
358.3579017578319
 30
0.0
 40
6.0
  0
LINE
  5
50D
330
6C
100
AcDbEntity
  8
Visible Edges(Ram)
100
AcDbLine
 10
214.6731649553239
 20
341.8954930640798
 30
0.0
 11
214.6731649553239
 21
336.3579017578282
 31
0.0
  0
LINE
  5
50E
330
6C
100
AcDbEntity
  8
Visible Edges(Ram)
100
AcDbLine
 10
246.673164955324
 20
341.8954930640798
 30
0.0
 11
246.673164955324
 21
336.3579017578282
 31
0.0
  0
SPLINE
  5
50F
330
6C
100
AcDbEntity
  8
Visible Edges(Ram)
100
AcDbSpline
210
0.0
220
0.0
230
1.0
 70
     8
 71
     3
 72
    14
 73
    10
 74
     0
 42
0.000000001
 43
0.0000000001
 40
0.0
 40
0.0
 40
0.0
 40
0.0
 40
0.0408636460583494
 40
0.0408636460583494
 40
0.0802750243659414
 40
0.0802750243659414
 40
0.1190187884323685
 40
0.1190187884323685
 40
0.158366925479461
 40
0.158366925479461
 40
0.158366925479461
 40
0.158366925479461
 10
257.3109061086665
 20
368.616007736612
 30
0.0
 10
257.307530429862
 20
368.5201021234058
 30
0.0
 10
257.2801276468735
 20
368.4311036324388
 30
0.0
 10
257.1770757425649
 20
368.2768914347333
 30
0.0
 10
257.1045405111117
 20
368.2129755721039
 30
0.0
 10
256.9217015763586
 20
368.1090941660949
 30
0.0
 10
256.8143965246401
 20
368.0699403248192
 30
0.0
 10
256.5756306089053
 20
368.0127756010663
 30
0.0
 10
256.4463466750126
 20
367.9955870384692
 30
0.0
 10
256.315645013912
 20
367.989338424265
 30
0.0
  0
SPLINE
  5
510
330
6C
100
AcDbEntity
  8
Visible Edges(Ram)
100
AcDbSpline
210
0.0
220
0.0
230
1.0
 70
     8
 71
     3
 72
    14
 73
    10
 74
     0
 42
0.000000001
 43
0.0000000001
 40
0.0
 40
0.0
 40
0.0
 40
0.0
 40
0.0388443897235144
 40
0.0388443897235144
 40
0.0779536924907355
 40
0.0779536924907355
 40
0.1172957537321127
 40
0.1172957537321127
 40
0.1580119757363529
 40
0.1580119757363529
 40
0.1580119757363529
 40
0.1580119757363529
 10
205.0305832848883
 20
367.9893432798428
 30
0.0
 10
204.9012651254582
 20
367.9955198872694
 30
0.0
 10
204.7733210264377
 20
368.0124117118306
 30
0.0
 10
204.5340215320946
 20
368.0691108292925
 30
0.0
 10
204.4253003472498
 20
368.1085906664516
 30
0.0
 10
204.2414218512484
 20
368.2131373355438
 30
0.0
 10
204.1689008532031
 20
368.2771087661373
 30
0.0
 10
204.0660251600774
 20
368.4313069218214
 30
0.0
 10
204.0386926028828
 20
368.5201947367935
 30
0.0
 10
204.0353215448298
 20
368.6159690430185
 30
0.0
  0
SPLINE
  5
511
330
6C
100
AcDbEntity
  8
Visible Edges(Ram)
100
AcDbSpline
210
0.0
220
0.0
230
1.0
 70
     8
 71
     3
 72
    20
 73
    16
 74
     0
 42
0.000000001
 43
0.0000000001
 40
-0.3836713634519407
 40
-0.3836713634519407
 40
-0.3836713634519407
 40
-0.3836713634519407
 40
-0.3764990831586538
 40
-0.3764990831586538
 40
-0.3580865964701171
 40
-0.3580865964701171
 40
-0.327078608351683
 40
-0.327078608351683
 40
-0.2397038843633656
 40
-0.2397038843633656
 40
-0.1627171685007847
 40
-0.1627171685007847
 40
-0.0842591950811338
 40
-0.0842591950811338
 40
-0.0107549465766235
 40
-0.0107549465766235
 40
-0.0107549465766235
 40
-0.0107549465766235
 10
207.088228464785
 20
365.4760835760132
 30
0.0
 10
207.088228464785
 20
365.4964466734076
 30
0.0
 10
207.0880258978111
 20
365.5169613128285
 30
0.0
 10
207.0865791817272
 20
365.5906460217222
 30
0.0
 10
207.0842025323136
 20
365.6446223961881
 30
0.0
 10
207.0741453832951
 20
365.7915774876999
 30
0.0
 10
207.0639625303936
 20
365.8860021229927
 30
0.0
 10
207.0087653530138
 20
366.2515810757723
 30
0.0
 10
206.9355750214245
 20
366.5282327859963
 30
0.0
 10
206.7059047130423
 20
367.0229271438381
 30
0.0
 10
206.5645756888212
 20
367.2332788364179
 30
0.0
 10
206.1987752078208
 20
367.5957362505267
 30
0.0
 10
205.9820678467696
 20
367.7371002034482
 30
0.0
 10
205.515988508477
 20
367.9264425104429
 30
0.0
 10
205.2749114889155
 20
367.9776734617275
 30
0.0
 10
205.0305832848882
 20
367.9893432798428
 30
0.0
  0
SPLINE
  5
512
330
6C
100
AcDbEntity
  8
Visible Edges(Ram)
100
AcDbSpline
210
0.0
220
0.0
230
1.0
 70
     8
 71
     3
 72
    20
 73
    16
 74
     0
 42
0.000000001
 43
0.0000000001
 40
0.0107648932081395
 40
0.0107648932081395
 40
0.0107648932081395
 40
0.0107648932081395
 40
0.0831669006479823
 40
0.0831669006479823
 40
0.1543056369628482
 40
0.1543056369628482
 40
0.2223370437789973
 40
0.2223370437789973
 40
0.3074267589913668
 40
0.3074267589913668
 40
0.3494231015734066
 40
0.3494231015734066
 40
0.3704296919186065
 40
0.3704296919186065
 40
0.3833952921669157
 40
0.3833952921669157
 40
0.3833952921669157
 40
0.3833952921669157
 10
256.315645013912
 20
367.989338424265
 30
0.0
 10
256.0749708144595
 20
367.9778322183864
 30
0.0
 10
255.8374182073488
 20
367.9279311362131
 30
0.0
 10
255.3961518893424
 20
367.751357242072
 30
0.0
 10
255.1964036788163
 20
367.6277340743393
 30
0.0
 10
254.8557018426993
 20
367.3174933164972
 30
0.0
 10
254.7189709606181
 20
367.1398260484882
 30
0.0
 10
254.4721954213027
 20
366.6942524486913
 30
0.0
 10
254.3839876968867
 20
366.4282255898355
 30
0.0
 10
254.3019029845585
 20
366.0309288979076
 30
0.0
 10
254.2832717956279
 20
365.9009629360082
 30
0.0
 10
254.2661351671552
 20
365.7113765518045
 30
0.0
 10
254.2622397616273
 20
365.6490675865945
 30
0.0
 10
254.2587626376328
 20
365.5501878242356
 30
0.0
 10
254.258101445863
 20
365.5128875570519
 30
0.0
 10
254.258101445863
 20
365.4760835760131
 30
0.0
  0
ARC
  5
513
330
6C
100
AcDbEntity
  8
Visible Edges(Ram)
100
AcDbCircle
 10
249.643164955324
 20
341.8879017578279
 30
0.0
 40
2.969999999999998
100
AcDbArc
 50
90.0
 51
180.0
  0
ARC
  5
514
330
6C
100
AcDbEntity
  8
Visible Edges(Ram)
100
AcDbCircle
 10
211.7031649553239
 20
341.8879017578279
 30
0.0
 40
2.969999999999998
100
AcDbArc
 50
0.0
 51
90.0
  0
DIMENSION
  5
515
330
6C
100
AcDbEntity
  8
Dimensions(Ram)
  6
Continuous
 62
     7
370
    25
100
AcDbDimension
280
     0
  2
*D52
 10
322.9483881501514
 20
89.91409931085753
 30
0.0
 11
322.9483881501514
 21
129.909697799301
 31
0.0
 70
   160
  1
<>
 71
     5
 42
79.99119697688697
 73
     0
 74
     0
 75
     0
  3
Whole Number
100
AcDbAlignedDimension
 13
371.3881965389207
 23
169.9052962877445
 33
0.0
 14
349.396923074418
 24
89.91409931085753
 34
0.0
 50
90.0
100
AcDbRotatedDimension
1001
ACAD
1000
DSTYLE
1002
{
1070
   172
1070
     0
1070
   289
1070
     1
1070
   271
1070
     0
1070
   272
1070
     0
1070
    48
1040
0.0
1070
    47
1040
0.0
1002
}
  0
DIMENSION
  5
5F7
330
6C
100
AcDbEntity
  8
Dimensions(Ram)
  6
Continuous
 62
     7
370
    25
100
AcDbDimension
280
     0
  2
*D53
 10
388.8956365152457
 20
192.4052962877451
 30
0.0
 11
388.1830594167979
 21
210.7329566064808
 31
0.0
 70
   160
  1
{Ø}<>
 71
     5
 42
45.00000000000002
 73
     0
 74
     0
 75
     0
  3
Whole Number
100
AcDbAlignedDimension
 13
390.0594127857554
 23
147.4052962877452
 33
0.0
 14
390.0594127857554
 24
192.4052962877451
 34
0.0
 50
270.0
100
AcDbRotatedDimension
1001
ACAD
1000
DSTYLE
1002
{
1070
   172
1070
     0
1070
   289
1070
     2
1070
   279
1070
     1
1070
    73
1070
     1
1070
    74
1070
     1
1070
   271
1070
     0
1070
    76
1070
     1
1070
    75
1070
     1
1070
   272
1070
     0
1070
    48
1040
0.0
1070
    47
1040
0.0
1002
}
  0
ENDSEC
  0
SECTION
  2
OBJECTS
  0
DICTIONARY
  5
C
330
0
100
AcDbDictionary
281
     1
  3
ACAD_CIP_PREVIOUS_PRODUCT_INFO
350
75D
  3
ACAD_COLOR
350
63
  3
ACAD_DETAILVIEWSTYLE
350
755
  3
ACAD_GROUP
350
D
  3
ACAD_LAYOUT
350
62
  3
ACAD_MATERIAL
350
10
  3
ACAD_MLEADERSTYLE
350
66
  3
ACAD_MLINESTYLE
350
5F
  3
ACAD_PLOTSETTINGS
350
61
  3
ACAD_PLOTSTYLENAME
350
E
  3
ACAD_SCALELIST
350
42
  3
ACAD_SECTIONVIEWSTYLE
350
753
  3
ACAD_TABLESTYLE
350
64
  3
ACAD_VISUALSTYLE
350
29
  3
ACDB_RECOMPOSE_DATA
350
797
  3
AcDbVariableDictionary
350
6DF
  0
DICTIONARY
  5
6F1
330
2E8
100
AcDbDictionary
280
     1
281
     1
  3
ACAD_MLATT
360
780
  3
ACAD_XREC_ROUNDTRIP
360
77F
  0
DICTIONARY
  5
6F4
330
2F0
100
AcDbDictionary
280
     1
281
     1
  3
ACAD_MLATT
360
782
  3
ACAD_XREC_ROUNDTRIP
360
781
  0
DICTIONARY
  5
6F7
330
2F2
100
AcDbDictionary
280
     1
281
     1
  3
ACAD_MLATT
360
784
  3
ACAD_XREC_ROUNDTRIP
360
783
  0
DICTIONARY
  5
6FA
330
2F3
100
AcDbDictionary
280
     1
281
     1
  3
ACAD_MLATT
360
786
  3
ACAD_XREC_ROUNDTRIP
360
785
  0
DICTIONARY
  5
6FD
330
2F4
100
AcDbDictionary
280
     1
281
     1
  3
ACAD_MLATT
360
788
  3
ACAD_XREC_ROUNDTRIP
360
787
  0
DICTIONARY
  5
700
330
2F5
100
AcDbDictionary
280
     1
281
     1
  3
ACAD_MLATT
360
78A
  3
ACAD_XREC_ROUNDTRIP
360
789
  0
DICTIONARY
  5
703
330
2F6
100
AcDbDictionary
280
     1
281
     1
  3
ACAD_MLATT
360
78C
  3
ACAD_XREC_ROUNDTRIP
360
78B
  0
DICTIONARY
  5
706
330
30E
100
AcDbDictionary
280
     1
281
     1
  3
ACAD_MTEXT_2008_RT
360
78D
  0
DICTIONARY
  5
708
330
312
100
AcDbDictionary
280
     1
281
     1
  3
ACAD_MTEXT_2008_RT
360
78E
  0
DICTIONARY
  5
70A
330
318
100
AcDbDictionary
280
     1
281
     1
  3
ACAD_MLATT
360
790
  3
ACAD_XREC_ROUNDTRIP
360
78F
  0
DICTIONARY
  5
70D
330
356
100
AcDbDictionary
280
     1
281
     1
  3
ACAD_MLATT
360
792
  3
ACAD_XREC_ROUNDTRIP
360
791
  0
DICTIONARY
  5
74D
330
47B
100
AcDbDictionary
280
     1
281
     1
  0
XRECORD
  5
75D
102
{ACAD_REACTORS
330
C
102
}
330
C
100
AcDbXrecord
280
     1
300
ACD
300
2017
300
ACD_F_S
  0
DICTIONARY
  5
63
102
{ACAD_REACTORS
330
C
102
}
330
C
100
AcDbDictionary
281
     1
  0
DICTIONARY
  5
755
102
{ACAD_REACTORS
330
C
102
}
330
C
100
AcDbDictionary
281
     1
  3
Metric50
350
756
  0
DICTIONARY
  5
D
102
{ACAD_REACTORS
330
C
102
}
330
C
100
AcDbDictionary
281
     1
  0
DICTIONARY
  5
62
102
{ACAD_REACTORS
330
C
102
}
330
C
100
AcDbDictionary
281
     1
  3
Layout1
350
6B
  3
Layout2
350
73
  3
Model
350
6F
  0
DICTIONARY
  5
10
102
{ACAD_REACTORS
330
C
102
}
330
C
100
AcDbDictionary
281
     1
  3
ByBlock
350
19
  3
ByLayer
350
11
  3
Global
350
21
  0
DICTIONARY
  5
66
102
{ACAD_REACTORS
330
C
102
}
330
C
100
AcDbDictionary
281
     1
  3
Standard
350
67
  0
DICTIONARY
  5
5F
102
{ACAD_REACTORS
330
C
102
}
330
C
100
AcDbDictionary
281
     1
  3
Standard
350
60
  0
DICTIONARY
  5
61
102
{ACAD_REACTORS
330
C
102
}
330
C
100
AcDbDictionary
281
     1
  0
ACDBDICTIONARYWDFLT
  5
E
102
{ACAD_REACTORS
330
C
102
}
330
C
100
AcDbDictionary
281
     1
  3
Normal
350
F
100
AcDbDictionaryWithDefault
340
F
  0
DICTIONARY
  5
42
102
{ACAD_REACTORS
330
C
102
}
330
C
100
AcDbDictionary
281
     1
  3
A0
350
43
  3
A1
350
44
  3
A2
350
45
  3
A3
350
46
  3
A4
350
47
  3
A5
350
48
  3
A6
350
49
  3
A7
350
4A
  3
A8
350
4B
  3
A9
350
4C
  3
B0
350
4D
  3
B1
350
4E
  3
B2
350
4F
  3
B3
350
50
  3
B4
350
51
  3
B5
350
52
  3
B6
350
53
  0
DICTIONARY
  5
753
102
{ACAD_REACTORS
330
C
102
}
330
C
100
AcDbDictionary
281
     1
  3
Metric50
350
754
  0
DICTIONARY
  5
64
102
{ACAD_REACTORS
330
C
102
}
330
C
100
AcDbDictionary
281
     1
  3
Standard
350
65
  0
DICTIONARY
  5
29
102
{ACAD_REACTORS
330
C
102
}
330
C
100
AcDbDictionary
281
     1
  3
2dWireframe
350
2F
  3
Basic
350
2E
  3
Brighten
350
35
  3
ColorChange
350
39
  3
Conceptual
350
32
  3
Dim
350
34
  3
EdgeColorOff
350
41
  3
Facepattern
350
38
  3
Flat
350
2A
  3
FlatWithEdges
350
2B
  3
Gouraud
350
2C
  3
GouraudWithEdges
350
2D
  3
Hidden
350
31
  3
JitterOff
350
3F
  3
Linepattern
350
37
  3
OverhangOff
350
40
  3
Realistic
350
33
  3
Shaded
350
3E
  3
Shaded with edges
350
3D
  3
Shades of Gray
350
3A
  3
Sketchy
350
3B
  3
Thicken
350
36
  3
Wireframe
350
30
  3
X-Ray
350
3C
  0
XRECORD
  5
797
102
{ACAD_REACTORS
330
C
102
}
330
C
100
AcDbXrecord
280
     1
 90
        1
330
65
330
2E8
330
2F0
330
2F2
330
2F3
330
2F4
330
2F5
330
2F6
330
30E
330
312
330
318
330
356
330
754
330
756
  0
DICTIONARY
  5
6DF
102
{ACAD_REACTORS
330
C
102
}
330
C
100
AcDbDictionary
281
     1
  3
CANNOSCALE
350
6E3
  3
CMLEADERSTYLE
350
6E1
  3
CTABLESTYLE
350
6E0
  3
CVIEWDETAILSTYLE
350
77C
  3
CVIEWSECTIONSTYLE
350
77D
  3
DIMASSOC
350
6EA
  3
HIDETEXT
350
6E9
  3
INDEXCTL
350
6E8
  3
LAYEREVAL
350
6E5
  3
LAYERNOTIFY
350
6E6
  3
LIGHTINGUNITS
350
6E4
  3
MSLTSCALE
350
6E2
  3
SORTENTS
350
6E7
  0
XRECORD
  5
780
102
{ACAD_REACTORS
330
6F1
102
}
330
6F1
100
AcDbXrecord
280
     1
 70
     4
 70
     0
 70
     0
 40
1.0
  2
Enter_Prompt_for_Field
  1
Embedded Object
 10
0.1132214741620885
 20
2.80094937906048
 30
0.0
 40
2.489199936389923
 41
16.74543584364862
 46
0.0
 71
     5
 72
     5
  1
3
  7
Text Style14
 73
     1
 44
1.0
  0
XRECORD
  5
77F
102
{ACAD_REACTORS
330
6F1
102
}
330
6F1
100
AcDbXrecord
280
     1
102
ACAD_MATT_HEIGHT
140
2.489199936389923
  0
XRECORD
  5
782
102
{ACAD_REACTORS
330
6F4
102
}
330
6F4
100
AcDbXrecord
280
     1
 70
     4
 70
     0
 70
     0
 40
1.0
  2
INSTRUCTIONS
  1
Embedded Object
 10
16.26863993311069
 20
9.208937597274767
 30
0.0
 40
2.489199936389923
 41
0.0
 46
0.0
 71
     1
 72
     5
  1
AAAA
  7
Text Style59
 73
     1
 44
1.0
  0
XRECORD
  5
781
102
{ACAD_REACTORS
330
6F4
102
}
330
6F4
100
AcDbXrecord
280
     1
102
ACAD_MATT_HEIGHT
140
2.489199936389923
  0
XRECORD
  5
784
102
{ACAD_REACTORS
330
6F7
102
}
330
6F7
100
AcDbXrecord
280
     1
 70
     4
 70
     0
 70
     0
 40
1.0
  2
WELS_LABEL
  1
Embedded Object
 10
-1.770562104181223
 20
5.278937597274762
 30
0.0
 40
2.489199936389923
 41
0.0
 46
0.0
 71
     1
 72
     5
  1
BBBBB
  7
Text Style59
 73
     1
 44
1.0
  0
XRECORD
  5
783
102
{ACAD_REACTORS
330
6F7
102
}
330
6F7
100
AcDbXrecord
280
     1
102
ACAD_MATT_HEIGHT
140
2.489199936389923
  0
XRECORD
  5
786
102
{ACAD_REACTORS
330
6FA
102
}
330
6FA
100
AcDbXrecord
280
     1
 70
     4
 70
     0
 70
     0
 40
1.0
  2
CARTON
  1
Embedded Object
 10
-21.33546779636852
 20
1.348937597274755
 30
0.0
 40
2.489199936389923
 41
0.0
 46
0.0
 71
     1
 72
     5
  1
CCCC
  7
Text Style59
 73
     1
 44
1.0
  0
XRECORD
  5
785
102
{ACAD_REACTORS
330
6FA
102
}
330
6FA
100
AcDbXrecord
280
     1
102
ACAD_MATT_HEIGHT
140
2.489199936389923
  0
XRECORD
  5
788
102
{ACAD_REACTORS
330
6FD
102
}
330
6FD
100
AcDbXrecord
280
     1
 70
     4
 70
     0
 70
     0
 40
1.0
  2
MISC._PACKING
  1
Embedded Object
 10
-9.668322200110033
 20
-6.511062402725257
 30
0.0
 40
2.489199936389923
 41
0.0
 46
0.0
 71
     1
 72
     5
  1
DDDD
  7
Text Style59
 73
     1
 44
1.0
  0
XRECORD
  5
787
102
{ACAD_REACTORS
330
6FD
102
}
330
6FD
100
AcDbXrecord
280
     1
102
ACAD_MATT_HEIGHT
140
2.489199936389923
  0
XRECORD
  5
78A
102
{ACAD_REACTORS
330
700
102
}
330
700
100
AcDbXrecord
280
     1
 70
     4
 70
     0
 70
     0
 40
1.0
  2
LABEL
  1
Embedded Object
 10
-25.37409511815028
 20
-2.581062402725251
 30
0.0
 40
2.489199936389923
 41
0.0
 46
0.0
 71
     1
 72
     5
  1
EEEE
  7
Text Style59
 73
     1
 44
1.0
  0
XRECORD
  5
789
102
{ACAD_REACTORS
330
700
102
}
330
700
100
AcDbXrecord
280
     1
102
ACAD_MATT_HEIGHT
140
2.489199936389923
  0
XRECORD
  5
78C
102
{ACAD_REACTORS
330
703
102
}
330
703
100
AcDbXrecord
280
     1
 70
     4
 70
     0
 70
     0
 40
1.0
  2
WARRANTY_CARD
  1
Embedded Object
 10
-7.693882176127821
 20
-10.44106240272526
 30
0.0
 40
2.489199936389923
 41
0.0
 46
0.0
 71
     1
 72
     5
  1
FFFF
  7
Text Style59
 73
     1
 44
1.0
  0
XRECORD
  5
78B
102
{ACAD_REACTORS
330
703
102
}
330
703
100
AcDbXrecord
280
     1
102
ACAD_MATT_HEIGHT
140
2.489199936389923
  0
XRECORD
  5
78D
102
{ACAD_REACTORS
330
706
102
}
330
706
100
AcDbXrecord
280
     1
 40
673191.0
  1
\pxsm0.94;\fArial|b0|i0;\H3.5000;QUOTATION \PONLY\P\fArial|b0|i0;\H2.5000;May be subject to alteration prior to production.
  0
XRECORD
  5
78E
102
{ACAD_REACTORS
330
708
102
}
330
708
100
AcDbXrecord
280
     1
 40
214000.0
  1
\pxsm0.94;\fArial|b0|i0;\H7.0000;QUOTE\PONLY\P\fArial|b0|i0;\H2.5000;NOT FOR PRODUCTION
  0
XRECORD
  5
790
102
{ACAD_REACTORS
330
70A
102
}
330
70A
100
AcDbXrecord
280
     1
 70
     4
 70
     0
 70
     0
 40
1.0
  2
NUMBER
  1
Embedded Object
 10
8.495247572028903
 20
-3.266478676813732
 30
0.0
 40
2.489199936389923
 41
0.0
 46
0.0
 71
     2
 72
     5
  1
5
  7
Text Style14
 73
     1
 44
1.0
  0
XRECORD
  5
78F
102
{ACAD_REACTORS
330
70A
102
}
330
70A
100
AcDbXrecord
280
     1
102
ACAD_MATT_HEIGHT
140
2.489199936389923
  0
XRECORD
  5
792
102
{ACAD_REACTORS
330
70D
102
}
330
70D
100
AcDbXrecord
280
     1
 70
     4
 70
     0
 70
     0
 40
1.0
  2
AMOUNT
  1
Embedded Object
 10
11.5
 20
-2.017962262069374
 30
0.0
 40
2.489199936389923
 41
0.0
 46
0.0
 71
     5
 72
     5
  1
10
  7
Text Style14
 73
     1
 44
1.0
  0
XRECORD
  5
791
102
{ACAD_REACTORS
330
70D
102
}
330
70D
100
AcDbXrecord
280
     1
102
ACAD_MATT_HEIGHT
140
2.489199936389923
  0
ACDBDETAILVIEWSTYLE
  5
756
102
{ACAD_XDICTIONARY
360
795
102
}
102
{ACAD_REACTORS
330
755
102
}
330
755
100
AcDbModelDocViewStyle
 70
     0
  3
Metric50
290
     0
100
AcDbDetailViewStyle
 70
     0
 71
     0
 90
        3
 71
     1
340
55
 62
   256
 40
5.0
340
0
 62
   256
 40
5.0
300

 40
0.0
280
     1
 71
     2
340
5D
 90
       25
 62
   256
 71
     3
340
55
 62
   256
 40
5.0
 90
        0
 40
15.0
 90
        1
300
%<\AcVar ViewDetailId>% (%<\AcVar ViewScale \f "%sn">%)
 71
     4
340
5D
 90
       25
 62
   256
340
5D
 90
       25
 62
   256
280
     0
  0
LAYOUT
  5
6B
102
{ACAD_REACTORS
330
62
102
}
330
62
100
AcDbPlotSettings
  1

  2

  4

  6

 40
0.0
 41
0.0
 42
0.0
 43
0.0
 44
0.0
 45
0.0
 46
0.0
 47
0.0
 48
0.0
 49
0.0
140
0.0
141
0.0
142
1.0
143
1.0
 70
   688
 72
     0
 73
     0
 74
     5
  7

 75
    16
147
1.0
 76
     0
 77
     2
 78
   300
148
0.0
149
0.0
100
AcDbLayout
  1
Layout1
 70
     1
 71
     1
 10
0.0
 20
0.0
 11
594.0
 21
420.0
 12
0.0
 22
0.0
 32
0.0
 14
0.0
 24
0.0
 34
0.0
 15
594.0
 25
420.0
 35
0.0
146
0.0
 13
0.0
 23
0.0
 33
0.0
 16
1.0
 26
0.0
 36
0.0
 17
0.0
 27
1.0
 37
0.0
 76
     0
330
68
  0
LAYOUT
  5
73
102
{ACAD_REACTORS
330
62
102
}
330
62
100
AcDbPlotSettings
  1

  2

  4

  6

 40
0.0
 41
0.0
 42
0.0
 43
0.0
 44
0.0
 45
0.0
 46
0.0
 47
0.0
 48
0.0
 49
0.0
140
0.0
141
0.0
142
1.0
143
1.0
 70
   688
 72
     0
 73
     0
 74
     5
  7

 75
    16
147
1.0
 76
     0
 77
     2
 78
   300
148
0.0
149
0.0
100
AcDbLayout
  1
Layout2
 70
     1
 71
     2
 10
0.0
 20
0.0
 11
12.0
 21
9.0
 12
0.0
 22
0.0
 32
0.0
 14
0.0
 24
0.0
 34
0.0
 15
0.0
 25
0.0
 35
0.0
146
0.0
 13
0.0
 23
0.0
 33
0.0
 16
1.0
 26
0.0
 36
0.0
 17
0.0
 27
1.0
 37
0.0
 76
     0
330
70
  0
LAYOUT
  5
6F
102
{ACAD_REACTORS
330
62
102
}
330
62
100
AcDbPlotSettings
  1

  2

  4

  6

 40
0.0
 41
0.0
 42
0.0
 43
0.0
 44
0.0
 45
0.0
 46
0.0
 47
0.0
 48
0.0
 49
0.0
140
0.0
141
0.0
142
1.0
143
1.0
 70
  1712
 72
     0
 73
     0
 74
     0
  7

 75
     0
147
1.0
 76
     0
 77
     2
 78
   300
148
0.0
149
0.0
100
AcDbLayout
  1
Model
 70
     1
 71
     0
 10
0.0
 20
0.0
 11
12.0
 21
9.0
 12
0.0
 22
0.0
 32
0.0
 14
0.0
 24
0.0
 34
0.0
 15
0.0
 25
0.0
 35
0.0
146
0.0
 13
0.0
 23
0.0
 33
0.0
 16
1.0
 26
0.0
 36
0.0
 17
0.0
 27
1.0
 37
0.0
 76
     0
330
6C
331
57
  0
MATERIAL
  5
19
102
{ACAD_XDICTIONARY
360
1A
102
}
102
{ACAD_REACTORS
330
10
102
}
330
10
100
AcDbMaterial
  1
ByBlock
 72
     0
 43
0.0208333333333333
 43
0.0
 43
0.0
 43
0.0
 43
0.0
 43
0.0208333333333333
 43
0.0
 43
0.0
 43
0.0
 43
0.0
 43
1.0
 43
0.0
 43
0.0
 43
0.0
 43
0.0
 43
1.0
 77
     0
 47
0.0208333333333333
 47
0.0
 47
0.0
 47
0.0
 47
0.0
 47
0.0208333333333333
 47
0.0
 47
0.0
 47
0.0
 47
0.0
 47
1.0
 47
0.0
 47
0.0
 47
0.0
 47
0.0
 47
1.0
171
     0
 49
0.0208333333333333
 49
0.0
 49
0.0
 49
0.0
 49
0.0
 49
0.0208333333333333
 49
0.0
 49
0.0
 49
0.0
 49
0.0
 49
1.0
 49
0.0
 49
0.0
 49
0.0
 49
0.0
 49
1.0
175
     0
142
0.0208333333333333
142
0.0
142
0.0
142
0.0
142
0.0
142
0.0208333333333333
142
0.0
142
0.0
142
0.0
142
0.0
142
1.0
142
0.0
142
0.0
142
0.0
142
0.0
142
1.0
179
     0
144
0.0208333333333333
144
0.0
144
0.0
144
0.0
144
0.0
144
0.0208333333333333
144
0.0
144
0.0
144
0.0
144
0.0
144
1.0
144
0.0
144
0.0
144
0.0
144
0.0
144
1.0
147
0.0208333333333333
147
0.0
147
0.0
147
0.0
147
0.0
147
0.0208333333333333
147
0.0
147
0.0
147
0.0
147
0.0
147
1.0
147
0.0
147
0.0
147
0.0
147
0.0
147
1.0
  0
MATERIAL
  5
11
102
{ACAD_XDICTIONARY
360
12
102
}
102
{ACAD_REACTORS
330
10
102
}
330
10
100
AcDbMaterial
  1
ByLayer
 72
     0
 43
0.0208333333333333
 43
0.0
 43
0.0
 43
0.0
 43
0.0
 43
0.0208333333333333
 43
0.0
 43
0.0
 43
0.0
 43
0.0
 43
1.0
 43
0.0
 43
0.0
 43
0.0
 43
0.0
 43
1.0
 77
     0
 47
0.0208333333333333
 47
0.0
 47
0.0
 47
0.0
 47
0.0
 47
0.0208333333333333
 47
0.0
 47
0.0
 47
0.0
 47
0.0
 47
1.0
 47
0.0
 47
0.0
 47
0.0
 47
0.0
 47
1.0
171
     0
 49
0.0208333333333333
 49
0.0
 49
0.0
 49
0.0
 49
0.0
 49
0.0208333333333333
 49
0.0
 49
0.0
 49
0.0
 49
0.0
 49
1.0
 49
0.0
 49
0.0
 49
0.0
 49
0.0
 49
1.0
175
     0
142
0.0208333333333333
142
0.0
142
0.0
142
0.0
142
0.0
142
0.0208333333333333
142
0.0
142
0.0
142
0.0
142
0.0
142
1.0
142
0.0
142
0.0
142
0.0
142
0.0
142
1.0
179
     0
144
0.0208333333333333
144
0.0
144
0.0
144
0.0
144
0.0
144
0.0208333333333333
144
0.0
144
0.0
144
0.0
144
0.0
144
1.0
144
0.0
144
0.0
144
0.0
144
0.0
144
1.0
147
0.0208333333333333
147
0.0
147
0.0
147
0.0
147
0.0
147
0.0208333333333333
147
0.0
147
0.0
147
0.0
147
0.0
147
1.0
147
0.0
147
0.0
147
0.0
147
0.0
147
1.0
  0
MATERIAL
  5
21
102
{ACAD_XDICTIONARY
360
22
102
}
102
{ACAD_REACTORS
330
10
102
}
330
10
100
AcDbMaterial
  1
Global
 72
     0
 43
0.0208333333333333
 43
0.0
 43
0.0
 43
0.0
 43
0.0
 43
0.0208333333333333
 43
0.0
 43
0.0
 43
0.0
 43
0.0
 43
1.0
 43
0.0
 43
0.0
 43
0.0
 43
0.0
 43
1.0
 77
     0
 47
0.0208333333333333
 47
0.0
 47
0.0
 47
0.0
 47
0.0
 47
0.0208333333333333
 47
0.0
 47
0.0
 47
0.0
 47
0.0
 47
1.0
 47
0.0
 47
0.0
 47
0.0
 47
0.0
 47
1.0
171
     0
 49
0.0208333333333333
 49
0.0
 49
0.0
 49
0.0
 49
0.0
 49
0.0208333333333333
 49
0.0
 49
0.0
 49
0.0
 49
0.0
 49
1.0
 49
0.0
 49
0.0
 49
0.0
 49
0.0
 49
1.0
175
     0
142
0.0208333333333333
142
0.0
142
0.0
142
0.0
142
0.0
142
0.0208333333333333
142
0.0
142
0.0
142
0.0
142
0.0
142
1.0
142
0.0
142
0.0
142
0.0
142
0.0
142
1.0
179
     0
144
0.0208333333333333
144
0.0
144
0.0
144
0.0
144
0.0
144
0.0208333333333333
144
0.0
144
0.0
144
0.0
144
0.0
144
1.0
144
0.0
144
0.0
144
0.0
144
0.0
144
1.0
147
0.0208333333333333
147
0.0
147
0.0
147
0.0
147
0.0
147
0.0208333333333333
147
0.0
147
0.0
147
0.0
147
0.0
147
1.0
147
0.0
147
0.0
147
0.0
147
0.0
147
1.0
  0
MLEADERSTYLE
  5
67
102
{ACAD_REACTORS
330
66
102
}
330
66
100
AcDbMLeaderStyle
179
     2
170
     2
171
     1
172
     0
 90
        2
 40
0.0
 41
0.0
173
     1
 91
-1056964608
340
5B
 92
       -2
290
     1
 42
0.09
291
     1
 43
0.36
  3
Standard
 44
0.18
300

342
55
174
     1
178
     6
175
     1
176
     0
 93
-1056964608
 45
0.18
292
     0
297
     0
 46
0.18
 94
-1056964608
 47
1.0
 49
1.0
140
1.0
293
     1
141
0.0
294
     1
177
     0
142
1.0
295
     0
296
     0
143
0.125
271
     0
272
     9
273
     9
298
     0
1001
ACAD_MLEADERVER
1070
     2
  0
MLINESTYLE
  5
60
102
{ACAD_REACTORS
330
5F
102
}
330
5F
100
AcDbMlineStyle
  2
STANDARD
 70
     0
  3

 62
   256
 51
90.0
 52
90.0
 71
     2
 49
0.5
 62
   256
  6
BYLAYER
 49
-0.5
 62
   256
  6
BYLAYER
  0
ACDBPLACEHOLDER
  5
F
102
{ACAD_REACTORS
330
E
102
}
330
E
  0
SCALE
  5
43
102
{ACAD_REACTORS
330
42
102
}
330
42
100
AcDbScale
 70
     0
300
1:1
140
1.0
141
1.0
290
     1
  0
SCALE
  5
44
102
{ACAD_REACTORS
330
42
102
}
330
42
100
AcDbScale
 70
     0
300
1/128" = 1'-0"
140
0.0078125
141
12.0
290
     0
  0
SCALE
  5
45
102
{ACAD_REACTORS
330
42
102
}
330
42
100
AcDbScale
 70
     0
300
1/64" = 1'-0"
140
0.015625
141
12.0
290
     0
  0
SCALE
  5
46
102
{ACAD_REACTORS
330
42
102
}
330
42
100
AcDbScale
 70
     0
300
1/32" = 1'-0"
140
0.03125
141
12.0
290
     0
  0
SCALE
  5
47
102
{ACAD_REACTORS
330
42
102
}
330
42
100
AcDbScale
 70
     0
300
1/16" = 1'-0"
140
0.0625
141
12.0
290
     0
  0
SCALE
  5
48
102
{ACAD_REACTORS
330
42
102
}
330
42
100
AcDbScale
 70
     0
300
3/32" = 1'-0"
140
0.09375
141
12.0
290
     0
  0
SCALE
  5
49
102
{ACAD_REACTORS
330
42
102
}
330
42
100
AcDbScale
 70
     0
300
1/8" = 1'-0"
140
0.125
141
12.0
290
     0
  0
SCALE
  5
4A
102
{ACAD_REACTORS
330
42
102
}
330
42
100
AcDbScale
 70
     0
300
3/16" = 1'-0"
140
0.1875
141
12.0
290
     0
  0
SCALE
  5
4B
102
{ACAD_REACTORS
330
42
102
}
330
42
100
AcDbScale
 70
     0
300
1/4" = 1'-0"
140
0.25
141
12.0
290
     0
  0
SCALE
  5
4C
102
{ACAD_REACTORS
330
42
102
}
330
42
100
AcDbScale
 70
     0
300
3/8" = 1'-0"
140
0.375
141
12.0
290
     0
  0
SCALE
  5
4D
102
{ACAD_REACTORS
330
42
102
}
330
42
100
AcDbScale
 70
     0
300
1/2" = 1'-0"
140
0.5
141
12.0
290
     0
  0
SCALE
  5
4E
102
{ACAD_REACTORS
330
42
102
}
330
42
100
AcDbScale
 70
     0
300
3/4" = 1'-0"
140
0.75
141
12.0
290
     0
  0
SCALE
  5
4F
102
{ACAD_REACTORS
330
42
102
}
330
42
100
AcDbScale
 70
     0
300
1" = 1'-0"
140
1.0
141
12.0
290
     0
  0
SCALE
  5
50
102
{ACAD_REACTORS
330
42
102
}
330
42
100
AcDbScale
 70
     0
300
1-1/2" = 1'-0"
140
1.5
141
12.0
290
     0
  0
SCALE
  5
51
102
{ACAD_REACTORS
330
42
102
}
330
42
100
AcDbScale
 70
     0
300
3" = 1'-0"
140
3.0
141
12.0
290
     0
  0
SCALE
  5
52
102
{ACAD_REACTORS
330
42
102
}
330
42
100
AcDbScale
 70
     0
300
6" = 1'-0"
140
6.0
141
12.0
290
     0
  0
SCALE
  5
53
102
{ACAD_REACTORS
330
42
102
}
330
42
100
AcDbScale
 70
     0
300
1'-0" = 1'-0"
140
12.0
141
12.0
290
     0
  0
ACDBSECTIONVIEWSTYLE
  5
754
102
{ACAD_XDICTIONARY
360
793
102
}
102
{ACAD_REACTORS
330
753
102
}
330
753
100
AcDbModelDocViewStyle
 70
     0
  3
Metric50
290
     0
100
AcDbSectionViewStyle
 70
     0
 71
     0
 90
      102
 71
     1
340
55
 62
   256
 40
5.0
340
0
340
0
 62
   256
 40
5.0
300
I, O, Q, S, X, Z
 40
10.0
 90
        0
 40
2.5
 90
        0
 71
     2
340
5D
 90
       25
 62
   256
340
5D
 90
       50
 62
   256
 40
5.0
 40
2.5
 40
5.0
 71
     3
340
55
 62
   256
 40
5.0
 90
        0
 40
15.0
 90
        1
300
%<\AcVar ViewSectionStartId>%-%<\AcVar ViewSectionEndId>% (%<\AcVar ViewScale \f "%sn">%)
 71
     4
 62
   256
 62
   257
300
ANSI31
 40
1.0
 90
        0
290
     0
290
     0
 90
        6
 40
0.0
 40
1.570796326794896
 40
0.2617993877991494
 40
1.308996938995747
 40
-0.2617993877991494
 40
1.832595714594046
  0
TABLESTYLE
  5
65
102
{ACAD_XDICTIONARY
360
6EC
102
}
102
{ACAD_REACTORS
330
64
102
}
330
64
100
AcDbTableStyle
280
     0
  3
Standard
 70
     0
 71
     0
 40
0.06
 41
0.06
280
     0
281
     0
  7
Standard
140
0.18
170
     2
 62
     0
 63
     7
283
     0
 90
      512
 91
        0
  1

274
    -2
284
     1
 64
     0
275
    -2
285
     1
 65
     0
276
    -2
286
     1
 66
     0
277
    -2
287
     1
 67
     0
278
    -2
288
     1
 68
     0
279
    -2
289
     1
 69
     0
  7
Standard
140
0.25
170
     5
 62
     0
 63
     7
283
     0
 90
      512
 91
        0
  1

274
    -2
284
     1
 64
     0
275
    -2
285
     1
 65
     0
276
    -2
286
     1
 66
     0
277
    -2
287
     1
 67
     0
278
    -2
288
     1
 68
     0
279
    -2
289
     1
 69
     0
  7
Standard
140
0.18
170
     5
 62
     0
 63
     7
283
     0
 90
      512
 91
        0
  1

274
    -2
284
     1
 64
     0
275
    -2
285
     1
 65
     0
276
    -2
286
     1
 66
     0
277
    -2
287
     1
 67
     0
278
    -2
288
     1
 68
     0
279
    -2
289
     1
 69
     0
  0
VISUALSTYLE
  5
2F
102
{ACAD_REACTORS
330
29
102
}
330
29
100
AcDbVisualStyle
  2

 70
     4
177
     3
291
     0
 70
    58
 90
        0
176
     1
 90
        2
176
     1
 90
        0
176
     1
 90
        0
176
     1
 40
0.6
176
     1
 40
30.0
176
     1
 62
     7
176
     1
 90
        1
176
     1
 90
        4
176
     1
 62
     7
176
     1
 62
   257
176
     1
 90
        1
176
     1
 90
        1
176
     1
 40
1.0
176
     1
 90
        0
176
     1
 62
   257
176
     1
 40
1.0
176
     1
 90
        1
176
     1
 90
        6
176
     1
 90
        2
176
     1
 62
     7
176
     1
 90
        5
176
     1
 90
        0
176
     1
 90
        0
176
     1
290
     0
176
     1
 90
        1
176
     1
 40
0.0
176
     1
 90
        0
176
     1
290
     1
176
     1
290
     1
176
     1
290
     0
176
     1
290
     0
176
     1
290
     0
176
     1
290
     0
176
     1
290
     0
176
     1
290
     0
176
     1
290
     0
176
     1
 90
       50
176
     1
 40
0.0
176
     1
 40
1.0
176
     1
 90
        0
176
     1
 62
    18
420
        0
176
     1
 90
       50
176
     1
 90
        3
176
     1
 62
     5
420
      255
176
     1
290
     0
176
     1
 90
       50
176
     1
 90
       50
176
     1
 90
       50
176
     1
290
     0
176
     1
 90
       50
176
     1
 62
   256
176
     0
 40
1.0
176
     0
 90
        2
176
     1
  1
strokes_ogs.tif
176
     1
290
     0
176
     1
 40
1.0
176
     1
 40
1.0
176
     1
1001
ACAD
1000
AcDbSavedByObjectVersion
1070
     0
  0
VISUALSTYLE
  5
2E
102
{ACAD_REACTORS
330
29
102
}
330
29
100
AcDbVisualStyle
  2

 70
     7
177
     3
291
     1
 70
    58
 90
        1
176
     1
 90
        0
176
     1
 90
        1
176
     1
 90
        0
176
     1
 40
0.6
176
     1
 40
30.0
176
     1
 62
     7
176
     1
 90
        0
176
     1
 90
        4
176
     1
 62
     7
176
     1
 62
   257
176
     1
 90
        1
176
     1
 90
        1
176
     1
 40
1.0
176
     1
 90
        8
176
     1
 62
     7
176
     1
 40
1.0
176
     1
 90
        1
176
     1
 90
        6
176
     1
 90
        2
176
     1
 62
     7
176
     1
 90
        5
176
     1
 90
        0
176
     1
 90
        0
176
     1
290
     0
176
     1
 90
        1
176
     1
 40
0.0
176
     1
 90
        0
176
     1
290
     0
176
     1
290
     1
176
     1
290
     1
176
     1
290
     0
176
     1
290
     0
176
     1
290
     0
176
     1
290
     0
176
     1
290
     0
176
     1
290
     0
176
     1
 90
       50
176
     1
 40
0.0
176
     1
 40
1.0
176
     1
 90
        0
176
     1
 62
    18
420
        0
176
     1
 90
       50
176
     1
 90
        3
176
     1
 62
     5
420
      255
176
     1
290
     0
176
     1
 90
       50
176
     1
 90
       50
176
     1
 90
       50
176
     1
290
     0
176
     1
 90
       50
176
     1
 62
   256
176
     0
 40
1.0
176
     0
 90
        2
176
     1
  1
strokes_ogs.tif
176
     1
290
     0
176
     1
 40
1.0
176
     1
 40
1.0
176
     1
1001
ACAD
1000
AcDbSavedByObjectVersion
1070
     0
  0
VISUALSTYLE
  5
35
102
{ACAD_REACTORS
330
29
102
}
330
29
100
AcDbVisualStyle
  2

 70
    12
177
     3
291
     1
 70
    58
 90
        2
176
     1
 90
        2
176
     1
 90
        0
176
     1
 90
        0
176
     1
 40
0.6
176
     1
 40
30.0
176
     1
 62
     7
176
     1
 90
        1
176
     1
 90
        4
176
     1
 62
     7
176
     1
 62
   257
176
     1
 90
        1
176
     1
 90
        1
176
     1
 40
1.0
176
     1
 90
        8
176
     1
 62
     7
176
     1
 40
1.0
176
     1
 90
        1
176
     1
 90
        6
176
     1
 90
        2
176
     1
 62
     7
176
     1
 90
        5
176
     1
 90
        0
176
     1
 90
        0
176
     1
290
     0
176
     1
 90
        1
176
     1
 40
50.0
176
     1
 90
        0
176
     1
290
     0
176
     1
290
     1
176
     1
290
     1
176
     1
290
     0
176
     1
290
     0
176
     1
290
     0
176
     1
290
     0
176
     1
290
     0
176
     1
290
     0
176
     1
 90
       50
176
     1
 40
0.0
176
     1
 40
1.0
176
     1
 90
        0
176
     1
 62
    18
420
        0
176
     1
 90
       50
176
     1
 90
        3
176
     1
 62
     5
420
      255
176
     1
290
     0
176
     1
 90
       50
176
     1
 90
       50
176
     1
 90
       50
176
     1
290
     0
176
     1
 90
       50
176
     1
 62
   256
176
     0
 40
1.0
176
     0
 90
        2
176
     1
  1
strokes_ogs.tif
176
     1
290
     0
176
     1
 40
1.0
176
     1
 40
1.0
176
     1
1001
ACAD
1000
AcDbSavedByObjectVersion
1070
     0
  0
VISUALSTYLE
  5
39
102
{ACAD_REACTORS
330
29
102
}
330
29
100
AcDbVisualStyle
  2

 70
    16
177
     3
291
     1
 70
    58
 90
        2
176
     1
 90
        2
176
     1
 90
        3
176
     1
 90
        0
176
     1
 40
0.6
176
     1
 40
30.0
176
     1
 62
     8
176
     1
 90
        1
176
     1
 90
        4
176
     1
 62
     7
176
     1
 62
   257
176
     1
 90
        1
176
     1
 90
        1
176
     1
 40
1.0
176
     1
 90
        8
176
     1
 62
     8
176
     1
 40
1.0
176
     1
 90
        1
176
     1
 90
        6
176
     1
 90
        2
176
     1
 62
     7
176
     1
 90
        5
176
     1
 90
        0
176
     1
 90
        0
176
     1
290
     0
176
     1
 90
        1
176
     1
 40
0.0
176
     1
 90
        0
176
     1
290
     0
176
     1
290
     1
176
     1
290
     1
176
     1
290
     0
176
     1
290
     0
176
     1
290
     0
176
     1
290
     0
176
     1
290
     0
176
     1
290
     0
176
     1
 90
       50
176
     1
 40
0.0
176
     1
 40
1.0
176
     1
 90
        0
176
     1
 62
    18
420
        0
176
     1
 90
       50
176
     1
 90
        3
176
     1
 62
     5
420
      255
176
     1
290
     0
176
     1
 90
       50
176
     1
 90
       50
176
     1
 90
       50
176
     1
290
     0
176
     1
 90
       50
176
     1
 62
   256
176
     0
 40
1.0
176
     0
 90
        2
176
     1
  1
strokes_ogs.tif
176
     1
290
     0
176
     1
 40
1.0
176
     1
 40
1.0
176
     1
1001
ACAD
1000
AcDbSavedByObjectVersion
1070
     0
  0
VISUALSTYLE
  5
32
102
{ACAD_REACTORS
330
29
102
}
330
29
100
AcDbVisualStyle
  2

 70
     9
177
     3
291
     0
 70
    58
 90
        3
176
     1
 90
        2
176
     1
 90
        0
176
     1
 90
        0
176
     1
 40
0.6
176
     1
 40
30.0
176
     1
 62
     7
176
     1
 90
        2
176
     1
 90
        2
176
     1
 62
     7
176
     1
 62
   257
176
     1
 90
        1
176
     1
 90
        1
176
     1
 40
179.0
176
     1
 90
        8
176
     1
 62
     7
176
     1
 40
1.0
176
     1
 90
        1
176
     1
 90
        6
176
     1
 90
        2
176
     1
 62
     7
176
     1
 90
        3
176
     1
 90
        0
176
     1
 90
        0
176
     1
290
     0
176
     1
 90
        1
176
     1
 40
0.0
176
     1
 90
        0
176
     1
290
     0
176
     1
290
     1
176
     1
290
     1
176
     1
290
     0
176
     1
290
     0
176
     1
290
     0
176
     1
290
     0
176
     1
290
     0
176
     1
290
     0
176
     1
 90
       50
176
     1
 40
0.0
176
     1
 40
1.0
176
     1
 90
        0
176
     1
 62
    18
420
        0
176
     1
 90
       50
176
     1
 90
        3
176
     1
 62
     5
420
      255
176
     1
290
     0
176
     1
 90
       50
176
     1
 90
       50
176
     1
 90
       50
176
     1
290
     0
176
     1
 90
       50
176
     1
 62
   256
176
     0
 40
1.0
176
     0
 90
        2
176
     1
  1
strokes_ogs.tif
176
     1
290
     0
176
     1
 40
1.0
176
     1
 40
1.0
176
     1
1001
ACAD
1000
AcDbSavedByObjectVersion
1070
     0
  0
VISUALSTYLE
  5
34
102
{ACAD_REACTORS
330
29
102
}
330
29
100
AcDbVisualStyle
  2

 70
    11
177
     3
291
     1
 70
    58
 90
        2
176
     1
 90
        2
176
     1
 90
        0
176
     1
 90
        0
176
     1
 40
0.6
176
     1
 40
30.0
176
     1
 62
     7
176
     1
 90
        1
176
     1
 90
        4
176
     1
 62
     7
176
     1
 62
   257
176
     1
 90
        1
176
     1
 90
        1
176
     1
 40
1.0
176
     1
 90
        8
176
     1
 62
     7
176
     1
 40
1.0
176
     1
 90
        1
176
     1
 90
        6
176
     1
 90
        2
176
     1
 62
     7
176
     1
 90
        5
176
     1
 90
        0
176
     1
 90
        0
176
     1
290
     0
176
     1
 90
        1
176
     1
 40
-50.0
176
     1
 90
        0
176
     1
290
     0
176
     1
290
     1
176
     1
290
     1
176
     1
290
     0
176
     1
290
     0
176
     1
290
     0
176
     1
290
     0
176
     1
290
     0
176
     1
290
     0
176
     1
 90
       50
176
     1
 40
0.0
176
     1
 40
1.0
176
     1
 90
        0
176
     1
 62
    18
420
        0
176
     1
 90
       50
176
     1
 90
        3
176
     1
 62
     5
420
      255
176
     1
290
     0
176
     1
 90
       50
176
     1
 90
       50
176
     1
 90
       50
176
     1
290
     0
176
     1
 90
       50
176
     1
 62
   256
176
     0
 40
1.0
176
     0
 90
        2
176
     1
  1
strokes_ogs.tif
176
     1
290
     0
176
     1
 40
1.0
176
     1
 40
1.0
176
     1
1001
ACAD
1000
AcDbSavedByObjectVersion
1070
     0
  0
VISUALSTYLE
  5
41
102
{ACAD_REACTORS
330
29
102
}
330
29
100
AcDbVisualStyle
  2

 70
    22
177
     3
291
     1
 70
    58
 90
        2
176
     0
 90
        2
176
     0
 90
        0
176
     0
 90
        0
176
     0
 40
0.6
176
     0
 40
30.0
176
     0
 62
     7
176
     0
 90
        1
176
     0
 90
        4
176
     0
 62
     7
176
     0
 62
   257
176
     0
 90
        1
176
     0
 90
        1
176
     0
 40
1.0
176
     0
 90
        8
176
     2
 62
     7
176
     0
 40
1.0
176
     0
 90
        1
176
     0
 90
        6
176
     0
 90
        2
176
     0
 62
     7
176
     0
 90
        5
176
     0
 90
        0
176
     0
 90
        0
176
     0
290
     0
176
     0
 90
        1
176
     0
 40
0.0
176
     0
 90
        0
176
     0
290
     0
176
     0
290
     1
176
     0
290
     1
176
     0
290
     0
176
     0
290
     0
176
     0
290
     0
176
     1
290
     0
176
     1
290
     0
176
     1
290
     0
176
     1
 90
       50
176
     1
 40
0.0
176
     1
 40
1.0
176
     1
 90
        0
176
     1
 62
    18
420
        0
176
     1
 90
       50
176
     1
 90
        3
176
     1
 62
     5
420
      255
176
     1
290
     0
176
     1
 90
       50
176
     1
 90
       50
176
     1
 90
       50
176
     1
290
     0
176
     1
 90
       50
176
     1
 62
   256
176
     0
 40
1.0
176
     0
 90
        2
176
     1
  1
strokes_ogs.tif
176
     1
290
     0
176
     1
 40
1.0
176
     1
 40
1.0
176
     1
1001
ACAD
1000
AcDbSavedByObjectVersion
1070
     0
  0
VISUALSTYLE
  5
38
102
{ACAD_REACTORS
330
29
102
}
330
29
100
AcDbVisualStyle
  2

 70
    15
177
     3
291
     1
 70
    58
 90
        2
176
     1
 90
        2
176
     1
 90
        0
176
     1
 90
        0
176
     1
 40
0.6
176
     1
 40
30.0
176
     1
 62
     7
176
     1
 90
        1
176
     1
 90
        4
176
     1
 62
     7
176
     1
 62
   257
176
     1
 90
        1
176
     1
 90
        1
176
     1
 40
1.0
176
     1
 90
        8
176
     1
 62
     7
176
     1
 40
1.0
176
     1
 90
        1
176
     1
 90
        6
176
     1
 90
        2
176
     1
 62
     7
176
     1
 90
        5
176
     1
 90
        0
176
     1
 90
        0
176
     1
290
     0
176
     1
 90
        1
176
     1
 40
0.0
176
     1
 90
        0
176
     1
290
     0
176
     1
290
     1
176
     1
290
     1
176
     1
290
     0
176
     1
290
     0
176
     1
290
     0
176
     1
290
     0
176
     1
290
     0
176
     1
290
     0
176
     1
 90
       50
176
     1
 40
0.0
176
     1
 40
1.0
176
     1
 90
        0
176
     1
 62
    18
420
        0
176
     1
 90
       50
176
     1
 90
        3
176
     1
 62
     5
420
      255
176
     1
290
     0
176
     1
 90
       50
176
     1
 90
       50
176
     1
 90
       50
176
     1
290
     0
176
     1
 90
       50
176
     1
 62
   256
176
     0
 40
1.0
176
     0
 90
        2
176
     1
  1
strokes_ogs.tif
176
     1
290
     0
176
     1
 40
1.0
176
     1
 40
1.0
176
     1
1001
ACAD
1000
AcDbSavedByObjectVersion
1070
     0
  0
VISUALSTYLE
  5
2A
102
{ACAD_REACTORS
330
29
102
}
330
29
100
AcDbVisualStyle
  2

 70
     0
177
     3
291
     1
 70
    58
 90
        2
176
     1
 90
        1
176
     1
 90
        1
176
     1
 90
        2
176
     1
 40
0.6
176
     1
 40
30.0
176
     1
 62
     7
176
     1
 90
        0
176
     1
 90
        0
176
     1
 62
     7
176
     1
 62
   257
176
     1
 90
        1
176
     1
 90
        1
176
     1
 40
1.0
176
     1
 90
        8
176
     1
 62
     7
176
     1
 40
1.0
176
     1
 90
        1
176
     1
 90
        6
176
     1
 90
        2
176
     1
 62
     7
176
     1
 90
        5
176
     1
 90
        0
176
     1
 90
        0
176
     1
290
     0
176
     1
 90
       13
176
     1
 40
0.0
176
     1
 90
        0
176
     1
290
     0
176
     1
290
     1
176
     1
290
     1
176
     1
290
     0
176
     1
290
     0
176
     1
290
     0
176
     1
290
     0
176
     1
290
     0
176
     1
290
     0
176
     1
 90
       50
176
     1
 40
0.0
176
     1
 40
1.0
176
     1
 90
        0
176
     1
 62
    18
420
        0
176
     1
 90
       50
176
     1
 90
        3
176
     1
 62
     5
420
      255
176
     1
290
     0
176
     1
 90
       50
176
     1
 90
       50
176
     1
 90
       50
176
     1
290
     0
176
     1
 90
       50
176
     1
 62
   256
176
     0
 40
1.0
176
     0
 90
        2
176
     1
  1
strokes_ogs.tif
176
     1
290
     0
176
     1
 40
1.0
176
     1
 40
1.0
176
     1
1001
ACAD
1000
AcDbSavedByObjectVersion
1070
     0
  0
VISUALSTYLE
  5
2B
102
{ACAD_REACTORS
330
29
102
}
330
29
100
AcDbVisualStyle
  2

 70
     1
177
     3
291
     1
 70
    58
 90
        2
176
     1
 90
        1
176
     1
 90
        1
176
     1
 90
        2
176
     1
 40
0.6
176
     1
 40
30.0
176
     1
 62
     7
176
     1
 90
        1
176
     1
 90
        0
176
     1
 62
     7
176
     1
 62
   257
176
     1
 90
        1
176
     1
 90
        1
176
     1
 40
1.0
176
     1
 90
        0
176
     1
 62
   257
176
     1
 40
1.0
176
     1
 90
        1
176
     1
 90
        6
176
     1
 90
        2
176
     1
 62
     7
176
     1
 90
        5
176
     1
 90
        0
176
     1
 90
        0
176
     1
290
     0
176
     1
 90
       13
176
     1
 40
0.0
176
     1
 90
        0
176
     1
290
     0
176
     1
290
     1
176
     1
290
     1
176
     1
290
     0
176
     1
290
     0
176
     1
290
     0
176
     1
290
     0
176
     1
290
     0
176
     1
290
     0
176
     1
 90
       50
176
     1
 40
0.0
176
     1
 40
1.0
176
     1
 90
        0
176
     1
 62
    18
420
        0
176
     1
 90
       50
176
     1
 90
        3
176
     1
 62
     5
420
      255
176
     1
290
     0
176
     1
 90
       50
176
     1
 90
       50
176
     1
 90
       50
176
     1
290
     0
176
     1
 90
       50
176
     1
 62
   256
176
     0
 40
1.0
176
     0
 90
        2
176
     1
  1
strokes_ogs.tif
176
     1
290
     0
176
     1
 40
1.0
176
     1
 40
1.0
176
     1
1001
ACAD
1000
AcDbSavedByObjectVersion
1070
     0
  0
VISUALSTYLE
  5
2C
102
{ACAD_REACTORS
330
29
102
}
330
29
100
AcDbVisualStyle
  2

 70
     2
177
     3
291
     1
 70
    58
 90
        2
176
     1
 90
        2
176
     1
 90
        1
176
     1
 90
        2
176
     1
 40
0.6
176
     1
 40
30.0
176
     1
 62
     7
176
     1
 90
        0
176
     1
 90
        0
176
     1
 62
     7
176
     1
 62
   257
176
     1
 90
        1
176
     1
 90
        1
176
     1
 40
1.0
176
     1
 90
        0
176
     1
 62
     7
176
     1
 40
1.0
176
     1
 90
        1
176
     1
 90
        6
176
     1
 90
        2
176
     1
 62
     7
176
     1
 90
        5
176
     1
 90
        0
176
     1
 90
        0
176
     1
290
     0
176
     1
 90
       13
176
     1
 40
0.0
176
     1
 90
        0
176
     1
290
     0
176
     1
290
     1
176
     1
290
     1
176
     1
290
     0
176
     1
290
     0
176
     1
290
     0
176
     1
290
     0
176
     1
290
     0
176
     1
290
     0
176
     1
 90
       50
176
     1
 40
0.0
176
     1
 40
1.0
176
     1
 90
        0
176
     1
 62
    18
420
        0
176
     1
 90
       50
176
     1
 90
        3
176
     1
 62
     5
420
      255
176
     1
290
     0
176
     1
 90
       50
176
     1
 90
       50
176
     1
 90
       50
176
     1
290
     0
176
     1
 90
       50
176
     1
 62
   256
176
     0
 40
1.0
176
     0
 90
        2
176
     1
  1
strokes_ogs.tif
176
     1
290
     0
176
     1
 40
1.0
176
     1
 40
1.0
176
     1
1001
ACAD
1000
AcDbSavedByObjectVersion
1070
     0
  0
VISUALSTYLE
  5
2D
102
{ACAD_REACTORS
330
29
102
}
330
29
100
AcDbVisualStyle
  2

 70
     3
177
     3
291
     1
 70
    58
 90
        2
176
     1
 90
        2
176
     1
 90
        1
176
     1
 90
        2
176
     1
 40
0.6
176
     1
 40
30.0
176
     1
 62
     7
176
     1
 90
        1
176
     1
 90
        0
176
     1
 62
     7
176
     1
 62
   257
176
     1
 90
        1
176
     1
 90
        1
176
     1
 40
1.0
176
     1
 90
        0
176
     1
 62
   257
176
     1
 40
1.0
176
     1
 90
        1
176
     1
 90
        6
176
     1
 90
        2
176
     1
 62
     7
176
     1
 90
        5
176
     1
 90
        0
176
     1
 90
        0
176
     1
290
     0
176
     1
 90
       13
176
     1
 40
0.0
176
     1
 90
        0
176
     1
290
     0
176
     1
290
     1
176
     1
290
     1
176
     1
290
     0
176
     1
290
     0
176
     1
290
     0
176
     1
290
     0
176
     1
290
     0
176
     1
290
     0
176
     1
 90
       50
176
     1
 40
0.0
176
     1
 40
1.0
176
     1
 90
        0
176
     1
 62
    18
420
        0
176
     1
 90
       50
176
     1
 90
        3
176
     1
 62
     5
420
      255
176
     1
290
     0
176
     1
 90
       50
176
     1
 90
       50
176
     1
 90
       50
176
     1
290
     0
176
     1
 90
       50
176
     1
 62
   256
176
     0
 40
1.0
176
     0
 90
        2
176
     1
  1
strokes_ogs.tif
176
     1
290
     0
176
     1
 40
1.0
176
     1
 40
1.0
176
     1
1001
ACAD
1000
AcDbSavedByObjectVersion
1070
     0
  0
VISUALSTYLE
  5
31
102
{ACAD_REACTORS
330
29
102
}
330
29
100
AcDbVisualStyle
  2

 70
     6
177
     3
291
     0
 70
    58
 90
        1
176
     1
 90
        2
176
     1
 90
        2
176
     1
 90
        0
176
     1
 40
0.6
176
     1
 40
30.0
176
     1
 62
     7
176
     1
 90
        2
176
     1
 90
        2
176
     1
 62
     7
176
     1
 62
   257
176
     1
 90
        2
176
     1
 90
        1
176
     1
 40
40.0
176
     1
 90
        0
176
     1
 62
   257
176
     1
 40
1.0
176
     1
 90
        1
176
     1
 90
        6
176
     1
 90
        2
176
     1
 62
     7
176
     1
 90
        3
176
     1
 90
        0
176
     1
 90
        0
176
     1
290
     0
176
     1
 90
        1
176
     1
 40
0.0
176
     1
 90
        0
176
     1
290
     0
176
     1
290
     1
176
     1
290
     1
176
     1
290
     0
176
     1
290
     0
176
     1
290
     0
176
     1
290
     0
176
     1
290
     0
176
     1
290
     0
176
     1
 90
       50
176
     1
 40
0.0
176
     1
 40
1.0
176
     1
 90
        0
176
     1
 62
    18
420
        0
176
     1
 90
       50
176
     1
 90
        3
176
     1
 62
     5
420
      255
176
     1
290
     0
176
     1
 90
       50
176
     1
 90
       50
176
     1
 90
       50
176
     1
290
     0
176
     1
 90
       50
176
     1
 62
   256
176
     0
 40
1.0
176
     0
 90
        2
176
     1
  1
strokes_ogs.tif
176
     1
290
     0
176
     1
 40
1.0
176
     1
 40
1.0
176
     1
1001
ACAD
1000
AcDbSavedByObjectVersion
1070
     0
  0
VISUALSTYLE
  5
3F
102
{ACAD_REACTORS
330
29
102
}
330
29
100
AcDbVisualStyle
  2

 70
    20
177
     3
291
     1
 70
    58
 90
        2
176
     0
 90
        2
176
     0
 90
        0
176
     0
 90
        0
176
     0
 40
0.6
176
     0
 40
30.0
176
     0
 62
     7
176
     0
 90
        1
176
     0
 90
        4
176
     0
 62
     7
176
     0
 62
   257
176
     0
 90
        1
176
     0
 90
        1
176
     0
 40
1.0
176
     0
 90
       10
176
     2
 62
     7
176
     0
 40
1.0
176
     0
 90
        1
176
     0
 90
        6
176
     0
 90
        2
176
     0
 62
     7
176
     0
 90
        5
176
     0
 90
        0
176
     0
 90
        0
176
     0
290
     0
176
     0
 90
        1
176
     0
 40
0.0
176
     0
 90
        0
176
     0
290
     0
176
     0
290
     1
176
     0
290
     1
176
     0
290
     0
176
     0
290
     0
176
     0
290
     0
176
     1
290
     0
176
     1
290
     0
176
     1
290
     0
176
     1
 90
       50
176
     1
 40
0.0
176
     1
 40
1.0
176
     1
 90
        0
176
     1
 62
    18
420
        0
176
     1
 90
       50
176
     1
 90
        3
176
     1
 62
     5
420
      255
176
     1
290
     0
176
     1
 90
       50
176
     1
 90
       50
176
     1
 90
       50
176
     1
290
     0
176
     1
 90
       50
176
     1
 62
   256
176
     0
 40
1.0
176
     0
 90
        2
176
     1
  1
strokes_ogs.tif
176
     1
290
     0
176
     1
 40
1.0
176
     1
 40
1.0
176
     1
1001
ACAD
1000
AcDbSavedByObjectVersion
1070
     0
  0
VISUALSTYLE
  5
37
102
{ACAD_REACTORS
330
29
102
}
330
29
100
AcDbVisualStyle
  2

 70
    14
177
     3
291
     1
 70
    58
 90
        2
176
     1
 90
        2
176
     1
 90
        0
176
     1
 90
        0
176
     1
 40
0.6
176
     1
 40
30.0
176
     1
 62
     7
176
     1
 90
        1
176
     1
 90
        4
176
     1
 62
     7
176
     1
 62
   257
176
     1
 90
        7
176
     1
 90
        7
176
     1
 40
1.0
176
     1
 90
        8
176
     1
 62
     7
176
     1
 40
1.0
176
     1
 90
        1
176
     1
 90
        6
176
     1
 90
        2
176
     1
 62
     7
176
     1
 90
        5
176
     1
 90
        0
176
     1
 90
        0
176
     1
290
     0
176
     1
 90
        1
176
     1
 40
0.0
176
     1
 90
        0
176
     1
290
     0
176
     1
290
     1
176
     1
290
     1
176
     1
290
     0
176
     1
290
     0
176
     1
290
     0
176
     1
290
     0
176
     1
290
     0
176
     1
290
     0
176
     1
 90
       50
176
     1
 40
0.0
176
     1
 40
1.0
176
     1
 90
        0
176
     1
 62
    18
420
        0
176
     1
 90
       50
176
     1
 90
        3
176
     1
 62
     5
420
      255
176
     1
290
     0
176
     1
 90
       50
176
     1
 90
       50
176
     1
 90
       50
176
     1
290
     0
176
     1
 90
       50
176
     1
 62
   256
176
     0
 40
1.0
176
     0
 90
        2
176
     1
  1
strokes_ogs.tif
176
     1
290
     0
176
     1
 40
1.0
176
     1
 40
1.0
176
     1
1001
ACAD
1000
AcDbSavedByObjectVersion
1070
     0
  0
VISUALSTYLE
  5
40
102
{ACAD_REACTORS
330
29
102
}
330
29
100
AcDbVisualStyle
  2

 70
    21
177
     3
291
     1
 70
    58
 90
        2
176
     0
 90
        2
176
     0
 90
        0
176
     0
 90
        0
176
     0
 40
0.6
176
     0
 40
30.0
176
     0
 62
     7
176
     0
 90
        1
176
     0
 90
        4
176
     0
 62
     7
176
     0
 62
   257
176
     0
 90
        1
176
     0
 90
        1
176
     0
 40
1.0
176
     0
 90
        9
176
     2
 62
     7
176
     0
 40
1.0
176
     0
 90
        1
176
     0
 90
        6
176
     0
 90
        2
176
     0
 62
     7
176
     0
 90
        5
176
     0
 90
        0
176
     0
 90
        0
176
     0
290
     0
176
     0
 90
        1
176
     0
 40
0.0
176
     0
 90
        0
176
     0
290
     0
176
     0
290
     1
176
     0
290
     1
176
     0
290
     0
176
     0
290
     0
176
     0
290
     0
176
     1
290
     0
176
     1
290
     0
176
     1
290
     0
176
     1
 90
       50
176
     1
 40
0.0
176
     1
 40
1.0
176
     1
 90
        0
176
     1
 62
    18
420
        0
176
     1
 90
       50
176
     1
 90
        3
176
     1
 62
     5
420
      255
176
     1
290
     0
176
     1
 90
       50
176
     1
 90
       50
176
     1
 90
       50
176
     1
290
     0
176
     1
 90
       50
176
     1
 62
   256
176
     0
 40
1.0
176
     0
 90
        2
176
     1
  1
strokes_ogs.tif
176
     1
290
     0
176
     1
 40
1.0
176
     1
 40
1.0
176
     1
1001
ACAD
1000
AcDbSavedByObjectVersion
1070
     0
  0
VISUALSTYLE
  5
33
102
{ACAD_REACTORS
330
29
102
}
330
29
100
AcDbVisualStyle
  2

 70
     8
177
     3
291
     0
 70
    58
 90
        2
176
     1
 90
        3
176
     1
 90
        0
176
     1
 90
        2
176
     1
 40
0.6
176
     1
 40
30.0
176
     1
 62
     7
176
     1
 90
        0
176
     1
 90
        0
176
     1
 62
     7
176
     1
 62
   257
176
     1
 90
        1
176
     1
 90
        1
176
     1
 40
1.0
176
     1
 90
        8
176
     1
 62
   257
176
     1
 40
1.0
176
     1
 90
        1
176
     1
 90
        6
176
     1
 90
        2
176
     1
 62
     7
176
     1
 90
        3
176
     1
 90
        0
176
     1
 90
        0
176
     1
290
     0
176
     1
 90
       13
176
     1
 40
0.0
176
     1
 90
        0
176
     1
290
     0
176
     1
290
     1
176
     1
290
     1
176
     1
290
     0
176
     1
290
     0
176
     1
290
     0
176
     1
290
     0
176
     1
290
     0
176
     1
290
     0
176
     1
 90
       50
176
     1
 40
0.0
176
     1
 40
1.0
176
     1
 90
        0
176
     1
 62
    18
420
        0
176
     1
 90
       50
176
     1
 90
        3
176
     1
 62
     5
420
      255
176
     1
290
     0
176
     1
 90
       50
176
     1
 90
       50
176
     1
 90
       50
176
     1
290
     0
176
     1
 90
       50
176
     1
 62
   256
176
     0
 40
1.0
176
     0
 90
        2
176
     1
  1
strokes_ogs.tif
176
     1
290
     0
176
     1
 40
1.0
176
     1
 40
1.0
176
     1
1001
ACAD
1000
AcDbSavedByObjectVersion
1070
     0
  0
VISUALSTYLE
  5
3E
102
{ACAD_REACTORS
330
29
102
}
330
29
100
AcDbVisualStyle
  2

 70
    27
177
     3
291
     0
 70
    58
 90
        2
176
     1
 90
        2
176
     1
 90
        1
176
     1
 90
        2
176
     1
 40
0.6
176
     1
 40
30.0
176
     1
 62
     7
176
     1
 90
        0
176
     1
 90
        4
176
     1
 62
     7
176
     1
 62
   257
176
     1
 90
        1
176
     1
 90
        1
176
     1
 40
1.0
176
     1
 90
        8
176
     1
 62
   257
176
     1
 40
1.0
176
     1
 90
        1
176
     1
 90
        6
176
     1
 90
        2
176
     1
 62
     8
176
     1
 90
        3
176
     1
 90
        0
176
     1
 90
        0
176
     1
290
     0
176
     1
 90
        5
176
     1
 40
0.0
176
     1
 90
        0
176
     1
290
     0
176
     1
290
     1
176
     1
290
     1
176
     1
290
     0
176
     1
290
     0
176
     1
290
     0
176
     1
290
     0
176
     1
290
     0
176
     1
290
     0
176
     1
 90
       50
176
     1
 40
0.0
176
     1
 40
1.0
176
     1
 90
        0
176
     1
 62
    18
420
        0
176
     1
 90
       50
176
     1
 90
        3
176
     1
 62
     5
420
      255
176
     1
290
     0
176
     1
 90
       50
176
     1
 90
       50
176
     1
 90
       50
176
     1
290
     0
176
     1
 90
       50
176
     1
 62
   256
176
     0
 40
1.0
176
     0
 90
        2
176
     1
  1
strokes_ogs.tif
176
     1
290
     0
176
     1
 40
1.0
176
     1
 40
1.0
176
     1
1001
ACAD
1000
AcDbSavedByObjectVersion
1070
     0
  0
VISUALSTYLE
  5
3D
102
{ACAD_REACTORS
330
29
102
}
330
29
100
AcDbVisualStyle
  2

 70
    26
177
     3
291
     0
 70
    58
 90
        2
176
     1
 90
        2
176
     1
 90
        1
176
     1
 90
        2
176
     1
 40
0.6
176
     1
 40
30.0
176
     1
 62
     7
176
     1
 90
        1
176
     1
 90
       10
176
     1
 62
     7
176
     1
 62
   257
176
     1
 90
        2
176
     1
 90
        1
176
     1
 40
1.0
176
     1
 90
        8
176
     1
 62
   257
176
     1
 40
1.0
176
     1
 90
        1
176
     1
 90
        6
176
     1
 90
        2
176
     1
 62
     7
176
     1
 90
        3
176
     1
 90
        0
176
     1
 90
        0
176
     1
290
     0
176
     1
 90
        5
176
     1
 40
0.0
176
     1
 90
        0
176
     1
290
     0
176
     1
290
     1
176
     1
290
     1
176
     1
290
     0
176
     1
290
     0
176
     1
290
     0
176
     1
290
     0
176
     1
290
     0
176
     1
290
     0
176
     1
 90
       50
176
     1
 40
0.0
176
     1
 40
1.0
176
     1
 90
        0
176
     1
 62
    18
420
        0
176
     1
 90
       50
176
     1
 90
        3
176
     1
 62
     5
420
      255
176
     1
290
     0
176
     1
 90
       50
176
     1
 90
       50
176
     1
 90
       50
176
     1
290
     0
176
     1
 90
       50
176
     1
 62
   256
176
     0
 40
1.0
176
     0
 90
        2
176
     1
  1
strokes_ogs.tif
176
     1
290
     0
176
     1
 40
1.0
176
     1
 40
1.0
176
     1
1001
ACAD
1000
AcDbSavedByObjectVersion
1070
     0
  0
VISUALSTYLE
  5
3A
102
{ACAD_REACTORS
330
29
102
}
330
29
100
AcDbVisualStyle
  2

 70
    23
177
     3
291
     0
 70
    58
 90
        2
176
     1
 90
        2
176
     1
 90
        3
176
     1
 90
        0
176
     1
 40
0.6
176
     1
 40
30.0
176
     1
 62
     7
176
     1
 90
        2
176
     1
 90
        2
176
     1
 62
     7
176
     1
 62
     7
176
     1
 90
        1
176
     1
 90
        1
176
     1
 40
40.0
176
     1
 90
        8
176
     1
 62
     7
176
     1
 40
1.0
176
     1
 90
        1
176
     1
 90
        6
176
     1
 90
        2
176
     1
 62
     7
176
     1
 90
        3
176
     1
 90
        0
176
     1
 90
        0
176
     1
290
     0
176
     1
 90
        1
176
     1
 40
0.0
176
     1
 90
        0
176
     1
290
     0
176
     1
290
     1
176
     1
290
     1
176
     1
290
     0
176
     1
290
     0
176
     1
290
     0
176
     1
290
     0
176
     1
290
     0
176
     1
290
     0
176
     1
 90
       50
176
     1
 40
0.0
176
     1
 40
1.0
176
     1
 90
        0
176
     1
 62
    18
420
        0
176
     1
 90
       50
176
     1
 90
        3
176
     1
 62
     5
420
      255
176
     1
290
     0
176
     1
 90
       50
176
     1
 90
       50
176
     1
 90
       50
176
     1
290
     0
176
     1
 90
       50
176
     1
 62
   256
176
     0
 40
1.0
176
     0
 90
        2
176
     1
  1
strokes_ogs.tif
176
     1
290
     0
176
     1
 40
1.0
176
     1
 40
1.0
176
     1
1001
ACAD
1000
AcDbSavedByObjectVersion
1070
     0
  0
VISUALSTYLE
  5
3B
102
{ACAD_REACTORS
330
29
102
}
330
29
100
AcDbVisualStyle
  2

 70
    24
177
     3
291
     0
 70
    58
 90
        1
176
     1
 90
        2
176
     1
 90
        2
176
     1
 90
        0
176
     1
 40
0.6
176
     1
 40
30.0
176
     1
 62
     7
176
     1
 90
        2
176
     1
 90
        2
176
     1
 62
     7
176
     1
 62
     7
176
     1
 90
        1
176
     1
 90
        1
176
     1
 40
40.0
176
     1
 90
       11
176
     1
 62
     7
176
     1
 40
1.0
176
     1
 90
        1
176
     1
 90
        6
176
     1
 90
        2
176
     1
 62
     7
176
     1
 90
        6
176
     1
 90
        0
176
     1
 90
        0
176
     1
290
     0
176
     1
 90
        1
176
     1
 40
0.0
176
     1
 90
        0
176
     1
290
     0
176
     1
290
     1
176
     1
290
     1
176
     1
290
     0
176
     1
290
     0
176
     1
290
     0
176
     1
290
     0
176
     1
290
     0
176
     1
290
     0
176
     1
 90
       50
176
     1
 40
0.0
176
     1
 40
1.0
176
     1
 90
        0
176
     1
 62
    18
420
        0
176
     1
 90
       50
176
     1
 90
        3
176
     1
 62
     5
420
      255
176
     1
290
     0
176
     1
 90
       50
176
     1
 90
       50
176
     1
 90
       50
176
     1
290
     0
176
     1
 90
       50
176
     1
 62
   256
176
     0
 40
1.0
176
     0
 90
        2
176
     1
  1
strokes_ogs.tif
176
     1
290
     0
176
     1
 40
1.0
176
     1
 40
1.0
176
     1
1001
ACAD
1000
AcDbSavedByObjectVersion
1070
     0
  0
VISUALSTYLE
  5
36
102
{ACAD_REACTORS
330
29
102
}
330
29
100
AcDbVisualStyle
  2

 70
    13
177
     3
291
     1
 70
    58
 90
        2
176
     1
 90
        2
176
     1
 90
        0
176
     1
 90
        0
176
     1
 40
0.6
176
     1
 40
30.0
176
     1
 62
     7
176
     1
 90
        1
176
     1
 90
        4
176
     1
 62
     7
176
     1
 62
   257
176
     1
 90
        1
176
     1
 90
        1
176
     1
 40
1.0
176
     1
 90
       12
176
     1
 62
     7
176
     1
 40
1.0
176
     1
 90
        1
176
     1
 90
        6
176
     1
 90
        2
176
     1
 62
     7
176
     1
 90
        5
176
     1
 90
        0
176
     1
 90
        0
176
     1
290
     0
176
     1
 90
        1
176
     1
 40
0.0
176
     1
 90
        0
176
     1
290
     0
176
     1
290
     1
176
     1
290
     1
176
     1
290
     0
176
     1
290
     0
176
     1
290
     0
176
     1
290
     0
176
     1
290
     0
176
     1
290
     0
176
     1
 90
       50
176
     1
 40
0.0
176
     1
 40
1.0
176
     1
 90
        0
176
     1
 62
    18
420
        0
176
     1
 90
       50
176
     1
 90
        3
176
     1
 62
     5
420
      255
176
     1
290
     0
176
     1
 90
       50
176
     1
 90
       50
176
     1
 90
       50
176
     1
290
     0
176
     1
 90
       50
176
     1
 62
   256
176
     0
 40
1.0
176
     0
 90
        2
176
     1
  1
strokes_ogs.tif
176
     1
290
     0
176
     1
 40
1.0
176
     1
 40
1.0
176
     1
1001
ACAD
1000
AcDbSavedByObjectVersion
1070
     0
  0
VISUALSTYLE
  5
30
102
{ACAD_REACTORS
330
29
102
}
330
29
100
AcDbVisualStyle
  2

 70
     5
177
     3
291
     0
 70
    58
 90
        0
176
     1
 90
        2
176
     1
 90
        0
176
     1
 90
        0
176
     1
 40
0.6
176
     1
 40
30.0
176
     1
 62
     7
176
     1
 90
        1
176
     1
 90
        4
176
     1
 62
     7
176
     1
 62
   257
176
     1
 90
        1
176
     1
 90
        1
176
     1
 40
1.0
176
     1
 90
        0
176
     1
 62
   257
176
     1
 40
1.0
176
     1
 90
        1
176
     1
 90
        6
176
     1
 90
        2
176
     1
 62
     7
176
     1
 90
        3
176
     1
 90
        0
176
     1
 90
        0
176
     1
290
     0
176
     1
 90
        1
176
     1
 40
0.0
176
     1
 90
        0
176
     1
290
     0
176
     1
290
     1
176
     1
290
     1
176
     1
290
     0
176
     1
290
     0
176
     1
290
     0
176
     1
290
     0
176
     1
290
     0
176
     1
290
     0
176
     1
 90
       50
176
     1
 40
0.0
176
     1
 40
1.0
176
     1
 90
        0
176
     1
 62
    18
420
        0
176
     1
 90
       50
176
     1
 90
        3
176
     1
 62
     5
420
      255
176
     1
290
     0
176
     1
 90
       50
176
     1
 90
       50
176
     1
 90
       50
176
     1
290
     0
176
     1
 90
       50
176
     1
 62
   256
176
     0
 40
1.0
176
     0
 90
        2
176
     1
  1
strokes_ogs.tif
176
     1
290
     0
176
     1
 40
1.0
176
     1
 40
1.0
176
     1
1001
ACAD
1000
AcDbSavedByObjectVersion
1070
     0
  0
VISUALSTYLE
  5
3C
102
{ACAD_REACTORS
330
29
102
}
330
29
100
AcDbVisualStyle
  2

 70
    25
177
     3
291
     0
 70
    58
 90
        2
176
     1
 90
        2
176
     1
 90
        1
176
     1
 90
        1
176
     1
 40
0.5
176
     1
 40
30.0
176
     1
 62
     7
176
     1
 90
        1
176
     1
 90
        0
176
     1
 62
     7
176
     1
 62
   257
176
     1
 90
        1
176
     1
 90
        1
176
     1
 40
1.0
176
     1
 90
        8
176
     1
 62
     7
176
     1
 40
1.0
176
     1
 90
        1
176
     1
 90
        6
176
     1
 90
        2
176
     1
 62
     7
176
     1
 90
        3
176
     1
 90
        0
176
     1
 90
        0
176
     1
290
     0
176
     1
 90
       13
176
     1
 40
0.0
176
     1
 90
        0
176
     1
290
     0
176
     1
290
     1
176
     1
290
     1
176
     1
290
     0
176
     1
290
     0
176
     1
290
     0
176
     1
290
     0
176
     1
290
     0
176
     1
290
     0
176
     1
 90
       50
176
     1
 40
0.0
176
     1
 40
1.0
176
     1
 90
        0
176
     1
 62
    18
420
        0
176
     1
 90
       50
176
     1
 90
        3
176
     1
 62
     5
420
      255
176
     1
290
     0
176
     1
 90
       50
176
     1
 90
       50
176
     1
 90
       50
176
     1
290
     0
176
     1
 90
       50
176
     1
 62
   256
176
     0
 40
1.0
176
     0
 90
        2
176
     1
  1
strokes_ogs.tif
176
     1
290
     0
176
     1
 40
1.0
176
     1
 40
1.0
176
     1
1001
ACAD
1000
AcDbSavedByObjectVersion
1070
     0
  0
DICTIONARYVAR
  5
6E3
102
{ACAD_REACTORS
330
6DF
102
}
330
6DF
100
DictionaryVariables
280
     0
  1
1:1
  0
DICTIONARYVAR
  5
6E1
102
{ACAD_REACTORS
330
6DF
102
}
330
6DF
100
DictionaryVariables
280
     0
  1
STANDARD
  0
DICTIONARYVAR
  5
6E0
102
{ACAD_REACTORS
330
6DF
102
}
330
6DF
100
DictionaryVariables
280
     0
  1
STANDARD
  0
DICTIONARYVAR
  5
77C
102
{ACAD_REACTORS
330
6DF
102
}
330
6DF
100
DictionaryVariables
280
     0
  1
Metric50
  0
DICTIONARYVAR
  5
77D
102
{ACAD_REACTORS
330
6DF
102
}
330
6DF
100
DictionaryVariables
280
     0
  1
Metric50
  0
DICTIONARYVAR
  5
6EA
102
{ACAD_REACTORS
330
6DF
102
}
330
6DF
100
DictionaryVariables
280
     0
  1
1
  0
DICTIONARYVAR
  5
6E9
102
{ACAD_REACTORS
330
6DF
102
}
330
6DF
100
DictionaryVariables
280
     0
  1
1
  0
DICTIONARYVAR
  5
6E8
102
{ACAD_REACTORS
330
6DF
102
}
330
6DF
100
DictionaryVariables
280
     0
  1
0
  0
DICTIONARYVAR
  5
6E5
102
{ACAD_REACTORS
330
6DF
102
}
330
6DF
100
DictionaryVariables
280
     0
  1
0
  0
DICTIONARYVAR
  5
6E6
102
{ACAD_REACTORS
330
6DF
102
}
330
6DF
100
DictionaryVariables
280
     0
  1
0
  0
DICTIONARYVAR
  5
6E4
102
{ACAD_REACTORS
330
6DF
102
}
330
6DF
100
DictionaryVariables
280
     0
  1
2
  0
DICTIONARYVAR
  5
6E2
102
{ACAD_REACTORS
330
6DF
102
}
330
6DF
100
DictionaryVariables
280
     0
  1
1
  0
DICTIONARYVAR
  5
6E7
102
{ACAD_REACTORS
330
6DF
102
}
330
6DF
100
DictionaryVariables
280
     0
  1
127
  0
DICTIONARY
  5
795
330
756
100
AcDbDictionary
280
     1
281
     1
  3
ACAD_XREC_ROUNDTRIP
360
796
  0
DICTIONARY
  5
1A
330
19
100
AcDbDictionary
280
     1
281
     1
  3
ACAD_XREC_ROUNDTRIP
360
713
  3
BUMPTILE
360
1C
  3
DIFFUSETILE
360
1B
  3
OPACITYTILE
360
1F
  3
REFLECTIONTILE
360
1E
  3
REFRACTIONTILE
360
20
  3
SPECULARTILE
360
1D
  0
DICTIONARY
  5
12
330
11
100
AcDbDictionary
280
     1
281
     1
  3
ACAD_XREC_ROUNDTRIP
360
712
  3
BUMPTILE
360
14
  3
DIFFUSETILE
360
13
  3
OPACITYTILE
360
17
  3
REFLECTIONTILE
360
16
  3
REFRACTIONTILE
360
18
  3
SPECULARTILE
360
15
  0
DICTIONARY
  5
22
330
21
100
AcDbDictionary
280
     1
281
     1
  3
ACAD_XREC_ROUNDTRIP
360
714
  3
BUMPTILE
360
24
  3
DIFFUSETILE
360
23
  3
OPACITYTILE
360
27
  3
REFLECTIONTILE
360
26
  3
REFRACTIONTILE
360
28
  3
SPECULARTILE
360
25
  0
DICTIONARY
  5
793
330
754
100
AcDbDictionary
280
     1
281
     1
  3
ACAD_XREC_ROUNDTRIP
360
794
  0
DICTIONARY
  5
6EC
330
65
100
AcDbDictionary
280
     1
281
     1
  3
ACAD_ROUNDTRIP_2008_TABLESTYLE_CELLSTYLEMAP
360
77E
  0
XRECORD
  5
796
102
{ACAD_REACTORS
330
795
102
}
330
795
100
AcDbXrecord
280
     1
102
DISPLAYNAME
  1
Metric50
102
FLAGS
 90
        0
  0
XRECORD
  5
713
102
{ACAD_REACTORS
330
1A
102
}
330
1A
100
AcDbXrecord
280
     1
102
MATERIAL
148
0.0
149
0.0
149
0.0
 93
        0
 94
      127
282
     0
 72
     0
 77
     0
171
     0
175
     0
179
     0
273
     0
  0
XRECORD
  5
1C
102
{ACAD_REACTORS
330
1A
102
}
330
1A
100
AcDbXrecord
280
     1
270
     1
271
     1
  0
XRECORD
  5
1B
102
{ACAD_REACTORS
330
1A
102
}
330
1A
100
AcDbXrecord
280
     1
270
     1
271
     1
  0
XRECORD
  5
1F
102
{ACAD_REACTORS
330
1A
102
}
330
1A
100
AcDbXrecord
280
     1
270
     1
271
     1
  0
XRECORD
  5
1E
102
{ACAD_REACTORS
330
1A
102
}
330
1A
100
AcDbXrecord
280
     1
270
     1
271
     1
  0
XRECORD
  5
20
102
{ACAD_REACTORS
330
1A
102
}
330
1A
100
AcDbXrecord
280
     1
270
     1
271
     1
  0
XRECORD
  5
1D
102
{ACAD_REACTORS
330
1A
102
}
330
1A
100
AcDbXrecord
280
     1
270
     1
271
     1
  0
XRECORD
  5
712
102
{ACAD_REACTORS
330
12
102
}
330
12
100
AcDbXrecord
280
     1
102
MATERIAL
148
0.0
149
0.0
149
0.0
 93
        0
 94
      127
282
     0
 72
     0
 77
     0
171
     0
175
     0
179
     0
273
     0
  0
XRECORD
  5
14
102
{ACAD_REACTORS
330
12
102
}
330
12
100
AcDbXrecord
280
     1
270
     1
271
     1
  0
XRECORD
  5
13
102
{ACAD_REACTORS
330
12
102
}
330
12
100
AcDbXrecord
280
     1
270
     1
271
     1
  0
XRECORD
  5
17
102
{ACAD_REACTORS
330
12
102
}
330
12
100
AcDbXrecord
280
     1
270
     1
271
     1
  0
XRECORD
  5
16
102
{ACAD_REACTORS
330
12
102
}
330
12
100
AcDbXrecord
280
     1
270
     1
271
     1
  0
XRECORD
  5
18
102
{ACAD_REACTORS
330
12
102
}
330
12
100
AcDbXrecord
280
     1
270
     1
271
     1
  0
XRECORD
  5
15
102
{ACAD_REACTORS
330
12
102
}
330
12
100
AcDbXrecord
280
     1
270
     1
271
     1
  0
XRECORD
  5
714
102
{ACAD_REACTORS
330
22
102
}
330
22
100
AcDbXrecord
280
     1
102
MATERIAL
148
0.0
149
0.0
149
0.0
 93
        0
 94
      127
282
     0
 72
     0
 77
     0
171
     0
175
     0
179
     0
273
     0
  0
XRECORD
  5
24
102
{ACAD_REACTORS
330
22
102
}
330
22
100
AcDbXrecord
280
     1
270
     1
271
     1
  0
XRECORD
  5
23
102
{ACAD_REACTORS
330
22
102
}
330
22
100
AcDbXrecord
280
     1
270
     1
271
     1
  0
XRECORD
  5
27
102
{ACAD_REACTORS
330
22
102
}
330
22
100
AcDbXrecord
280
     1
270
     1
271
     1
  0
XRECORD
  5
26
102
{ACAD_REACTORS
330
22
102
}
330
22
100
AcDbXrecord
280
     1
270
     1
271
     1
  0
XRECORD
  5
28
102
{ACAD_REACTORS
330
22
102
}
330
22
100
AcDbXrecord
280
     1
270
     1
271
     1
  0
XRECORD
  5
25
102
{ACAD_REACTORS
330
22
102
}
330
22
100
AcDbXrecord
280
     1
270
     1
271
     1
  0
XRECORD
  5
794
102
{ACAD_REACTORS
330
793
102
}
330
793
100
AcDbXrecord
280
     1
102
DISPLAYNAME
  1
Metric50
102
FLAGS
 90
        0
  0
CELLSTYLEMAP
  5
77E
102
{ACAD_REACTORS
330
6EC
102
}
330
6EC
100
AcDbCellStyleMap
 90
        3
300
CELLSTYLE
  1
TABLEFORMAT_BEGIN
 90
        5
170
     1
 91
        0
 92
    32768
 62
   257
 93
        1
300
CONTENTFORMAT
  1
CONTENTFORMAT_BEGIN
 90
        0
 91
        0
 92
      512
 93
        0
300

 40
0.0
140
1.0
 94
        5
 62
     0
340
55
144
0.25
309
CONTENTFORMAT_END
171
     1
301
MARGIN
  1
CELLMARGIN_BEGIN
 40
0.06
 40
0.06
 40
0.06
 40
0.06
 40
0.18
 40
0.18
309
CELLMARGIN_END
 94
        6
 95
        1
302
GRIDFORMAT
  1
GRIDFORMAT_BEGIN
 90
        0
 91
        1
 62
     0
 92
       -2
340
0
 93
        0
 40
0.045
309
GRIDFORMAT_END
 95
        2
302
GRIDFORMAT
  1
GRIDFORMAT_BEGIN
 90
        0
 91
        1
 62
     0
 92
       -2
340
0
 93
        0
 40
0.045
309
GRIDFORMAT_END
 95
        4
302
GRIDFORMAT
  1
GRIDFORMAT_BEGIN
 90
        0
 91
        1
 62
     0
 92
       -2
340
0
 93
        0
 40
0.045
309
GRIDFORMAT_END
 95
        8
302
GRIDFORMAT
  1
GRIDFORMAT_BEGIN
 90
        0
 91
        1
 62
     0
 92
       -2
340
0
 93
        0
 40
0.045
309
GRIDFORMAT_END
 95
       16
302
GRIDFORMAT
  1
GRIDFORMAT_BEGIN
 90
        0
 91
        1
 62
     0
 92
       -2
340
0
 93
        0
 40
0.045
309
GRIDFORMAT_END
 95
       32
302
GRIDFORMAT
  1
GRIDFORMAT_BEGIN
 90
        0
 91
        1
 62
     0
 92
       -2
340
0
 93
        0
 40
0.045
309
GRIDFORMAT_END
309
TABLEFORMAT_END
  1
CELLSTYLE_BEGIN
 90
        1
 91
        1
300
_TITLE
309
CELLSTYLE_END
300
CELLSTYLE
  1
TABLEFORMAT_BEGIN
 90
        5
170
     1
 91
        0
 92
        0
 62
   257
 93
        1
300
CONTENTFORMAT
  1
CONTENTFORMAT_BEGIN
 90
        0
 91
        0
 92
      512
 93
        0
300

 40
0.0
140
1.0
 94
        5
 62
     0
340
55
144
0.18
309
CONTENTFORMAT_END
171
     1
301
MARGIN
  1
CELLMARGIN_BEGIN
 40
0.06
 40
0.06
 40
0.06
 40
0.06
 40
0.18
 40
0.18
309
CELLMARGIN_END
 94
        6
 95
        1
302
GRIDFORMAT
  1
GRIDFORMAT_BEGIN
 90
        0
 91
        1
 62
     0
 92
       -2
340
0
 93
        0
 40
0.045
309
GRIDFORMAT_END
 95
        2
302
GRIDFORMAT
  1
GRIDFORMAT_BEGIN
 90
        0
 91
        1
 62
     0
 92
       -2
340
0
 93
        0
 40
0.045
309
GRIDFORMAT_END
 95
        4
302
GRIDFORMAT
  1
GRIDFORMAT_BEGIN
 90
        0
 91
        1
 62
     0
 92
       -2
340
0
 93
        0
 40
0.045
309
GRIDFORMAT_END
 95
        8
302
GRIDFORMAT
  1
GRIDFORMAT_BEGIN
 90
        0
 91
        1
 62
     0
 92
       -2
340
0
 93
        0
 40
0.045
309
GRIDFORMAT_END
 95
       16
302
GRIDFORMAT
  1
GRIDFORMAT_BEGIN
 90
        0
 91
        1
 62
     0
 92
       -2
340
0
 93
        0
 40
0.045
309
GRIDFORMAT_END
 95
       32
302
GRIDFORMAT
  1
GRIDFORMAT_BEGIN
 90
        0
 91
        1
 62
     0
 92
       -2
340
0
 93
        0
 40
0.045
309
GRIDFORMAT_END
309
TABLEFORMAT_END
  1
CELLSTYLE_BEGIN
 90
        2
 91
        1
300
_HEADER
309
CELLSTYLE_END
300
CELLSTYLE
  1
TABLEFORMAT_BEGIN
 90
        5
170
     1
 91
        0
 92
        0
 62
   257
 93
        1
300
CONTENTFORMAT
  1
CONTENTFORMAT_BEGIN
 90
        0
 91
        0
 92
      512
 93
        0
300

 40
0.0
140
1.0
 94
        2
 62
     0
340
55
144
0.18
309
CONTENTFORMAT_END
171
     1
301
MARGIN
  1
CELLMARGIN_BEGIN
 40
0.06
 40
0.06
 40
0.06
 40
0.06
 40
0.18
 40
0.18
309
CELLMARGIN_END
 94
        6
 95
        1
302
GRIDFORMAT
  1
GRIDFORMAT_BEGIN
 90
        0
 91
        1
 62
     0
 92
       -2
340
0
 93
        0
 40
0.045
309
GRIDFORMAT_END
 95
        2
302
GRIDFORMAT
  1
GRIDFORMAT_BEGIN
 90
        0
 91
        1
 62
     0
 92
       -2
340
0
 93
        0
 40
0.045
309
GRIDFORMAT_END
 95
        4
302
GRIDFORMAT
  1
GRIDFORMAT_BEGIN
 90
        0
 91
        1
 62
     0
 92
       -2
340
0
 93
        0
 40
0.045
309
GRIDFORMAT_END
 95
        8
302
GRIDFORMAT
  1
GRIDFORMAT_BEGIN
 90
        0
 91
        1
 62
     0
 92
       -2
340
0
 93
        0
 40
0.045
309
GRIDFORMAT_END
 95
       16
302
GRIDFORMAT
  1
GRIDFORMAT_BEGIN
 90
        0
 91
        1
 62
     0
 92
       -2
340
0
 93
        0
 40
0.045
309
GRIDFORMAT_END
 95
       32
302
GRIDFORMAT
  1
GRIDFORMAT_BEGIN
 90
        0
 91
        1
 62
     0
 92
       -2
340
0
 93
        0
 40
0.045
309
GRIDFORMAT_END
309
TABLEFORMAT_END
  1
CELLSTYLE_BEGIN
 90
        3
 91
        2
300
_DATA
309
CELLSTYLE_END
  0
ENDSEC
  0
EOF
