  0
SECTION
  2
HEADER
  9
$ACADVER
  1
AC1032
  9
$ACADMAINTVER
 90
      174
  9
$DWGCODEPAGE
  3
ANSI_1252
  9
$LASTSAVEDBY
  1
pengb
  9
$REQUIREDVERSIONS
160
                 0
  9
$INSBASE
 10
0.0
 20
0.0
 30
0.0
  9
$EXTMIN
 10
-142.0613215171333
 20
-124.4008878169
 30
0.0
  9
$EXTMAX
 10
559.2090861185416
 20
530.9695316518
 30
0.0
  9
$LIMMIN
 10
0.0
 20
0.0
  9
$LIMMAX
 10
420.0
 20
297.0
  9
$ORTHOMODE
 70
     0
  9
$REGENMODE
 70
     1
  9
$FILLMODE
 70
     1
  9
$QTEXTMODE
 70
     0
  9
$MIRRTEXT
 70
     1
  9
$LTSCALE
 40
1.0
  9
$ATTMODE
 70
     1
  9
$TEXTSIZE
 40
3.5
  9
$TRACEWID
 40
1.0
  9
$TEXTSTYLE
  7
Standard
  9
$CLAYER
  8
0
  9
$CELTYPE
  6
ByLayer
  9
$CECOLOR
 62
   256
  9
$CELTSCALE
 40
1.0
  9
$DISPSILH
 70
     0
  9
$DIMSCALE
 40
1.0
  9
$DIMASZ
 40
3.302
  9
$DIMEXO
 40
1.0
  9
$DIMDLI
 40
3.75
  9
$DIMRND
 40
0.0
  9
$DIMDLE
 40
0.0
  9
$DIMEXE
 40
1.0
  9
$DIMTP
 40
0.0
  9
$DIMTM
 40
0.0
  9
$DIMTXT
 40
3.5
  9
$DIMCEN
 40
2.5
  9
$DIMTSZ
 40
0.0
  9
$DIMTOL
 70
     0
  9
$DIMLIM
 70
     0
  9
$DIMTIH
 70
     1
  9
$DIMTOH
 70
     1
  9
$DIMSE1
 70
     0
  9
$DIMSE2
 70
     0
  9
$DIMTAD
 70
     1
  9
$DIMZIN
 70
     1
  9
$DIMBLK
  1

  9
$DIMASO
 70
     1
  9
$DIMSHO
 70
     1
  9
$DIMPOST
  1

  9
$DIMAPOST
  1

  9
$DIMALT
 70
     0
  9
$DIMALTD
 70
     3
  9
$DIMALTF
 40
0.0393700787
  9
$DIMLFAC
 40
5.0
  9
$DIMTOFL
 70
     1
  9
$DIMTVP
 40
0.0
  9
$DIMTIX
 70
     0
  9
$DIMSOXD
 70
     0
  9
$DIMSAH
 70
     0
  9
$DIMBLK1
  1

  9
$DIMBLK2
  1

  9
$DIMSTYLE
  2
ISO-25
  9
$DIMCLRD
 70
     0
  9
$DIMCLRE
 70
     0
  9
$DIMCLRT
 70
     0
  9
$DIMTFAC
 40
1.0
  9
$DIMGAP
 40
1.524
  9
$DIMJUST
 70
     0
  9
$DIMSD1
 70
     0
  9
$DIMSD2
 70
     0
  9
$DIMTOLJ
 70
     0
  9
$DIMTZIN
 70
     1
  9
$DIMALTZ
 70
     0
  9
$DIMALTTZ
 70
     0
  9
$DIMUPT
 70
     0
  9
$DIMDEC
 70
     2
  9
$DIMTDEC
 70
     2
  9
$DIMALTU
 70
     2
  9
$DIMALTTD
 70
     3
  9
$DIMTXSTY
  7
Standard
  9
$DIMAUNIT
 70
     0
  9
$DIMADEC
 70
     2
  9
$DIMALTRND
 40
0.0
  9
$DIMAZIN
 70
     0
  9
$DIMDSEP
 70
    44
  9
$DIMATFIT
 70
     3
  9
$DIMFRAC
 70
     0
  9
$DIMLDRBLK
  1

  9
$DIMLUNIT
 70
     2
  9
$DIMLWD
 70
    -2
  9
$DIMLWE
 70
    -2
  9
$DIMTMOVE
 70
     0
  9
$DIMFXL
 40
1.0
  9
$DIMFXLON
 70
     0
  9
$DIMJOGANG
 40
0.7853981633974483
  9
$DIMTFILL
 70
     0
  9
$DIMTFILLCLR
 70
     0
  9
$DIMARCSYM
 70
     0
  9
$DIMLTYPE
  6

  9
$DIMLTEX1
  6

  9
$DIMLTEX2
  6

  9
$DIMTXTDIRECTION
 70
     0
  9
$LUNITS
 70
     2
  9
$LUPREC
 70
     2
  9
$SKETCHINC
 40
1.0
  9
$FILLETRAD
 40
10.0
  9
$AUNITS
 70
     0
  9
$AUPREC
 70
     2
  9
$MENU
  1
.
  9
$ELEVATION
 40
0.0
  9
$PELEVATION
 40
0.0
  9
$THICKNESS
 40
0.0
  9
$LIMCHECK
 70
     0
  9
$CHAMFERA
 40
0.0
  9
$CHAMFERB
 40
0.0
  9
$CHAMFERC
 40
0.0
  9
$CHAMFERD
 40
0.0
  9
$SKPOLY
 70
     0
  9
$TDCREATE
 40
2459998.609039352
  9
$TDUCREATE
 40
2459998.150713438
  9
$TDUPDATE
 40
2460006.369131945
  9
$TDUUPDATE
 40
2460005.910798611
  9
$TDINDWG
 40
0.0018055671
  9
$TDUSRTIMER
 40
0.0018055671
  9
$USRTIMER
 70
     1
  9
$ANGBASE
 50
0.0
  9
$ANGDIR
 70
     0
  9
$PDMODE
 70
     0
  9
$PDSIZE
 40
-1.0
  9
$PLINEWID
 40
0.0
  9
$SPLFRAME
 70
     0
  9
$SPLINETYPE
 70
     6
  9
$SPLINESEGS
 70
     8
  9
$HANDSEED
  5
32F
  9
$SURFTAB1
 70
     6
  9
$SURFTAB2
 70
     6
  9
$SURFTYPE
 70
     6
  9
$SURFU
 70
     6
  9
$SURFV
 70
     6
  9
$UCSBASE
  2

  9
$UCSNAME
  2

  9
$UCSORG
 10
0.0
 20
0.0
 30
0.0
  9
$UCSXDIR
 10
1.0
 20
0.0
 30
0.0
  9
$UCSYDIR
 10
0.0
 20
1.0
 30
0.0
  9
$UCSORTHOREF
  2

  9
$UCSORTHOVIEW
 70
     0
  9
$UCSORGTOP
 10
0.0
 20
0.0
 30
0.0
  9
$UCSORGBOTTOM
 10
0.0
 20
0.0
 30
0.0
  9
$UCSORGLEFT
 10
0.0
 20
0.0
 30
0.0
  9
$UCSORGRIGHT
 10
0.0
 20
0.0
 30
0.0
  9
$UCSORGFRONT
 10
0.0
 20
0.0
 30
0.0
  9
$UCSORGBACK
 10
0.0
 20
0.0
 30
0.0
  9
$PUCSBASE
  2

  9
$PUCSNAME
  2

  9
$PUCSORG
 10
0.0
 20
0.0
 30
0.0
  9
$PUCSXDIR
 10
1.0
 20
0.0
 30
0.0
  9
$PUCSYDIR
 10
0.0
 20
1.0
 30
0.0
  9
$PUCSORTHOREF
  2

  9
$PUCSORTHOVIEW
 70
     0
  9
$PUCSORGTOP
 10
0.0
 20
0.0
 30
0.0
  9
$PUCSORGBOTTOM
 10
0.0
 20
0.0
 30
0.0
  9
$PUCSORGLEFT
 10
0.0
 20
0.0
 30
0.0
  9
$PUCSORGRIGHT
 10
0.0
 20
0.0
 30
0.0
  9
$PUCSORGFRONT
 10
0.0
 20
0.0
 30
0.0
  9
$PUCSORGBACK
 10
0.0
 20
0.0
 30
0.0
  9
$USERI1
 70
     0
  9
$USERI2
 70
     0
  9
$USERI3
 70
     0
  9
$USERI4
 70
     0
  9
$USERI5
 70
     0
  9
$USERR1
 40
0.0
  9
$USERR2
 40
0.0
  9
$USERR3
 40
0.0
  9
$USERR4
 40
0.0
  9
$USERR5
 40
0.0
  9
$WORLDVIEW
 70
     1
  9
$SHADEDGE
 70
     3
  9
$SHADEDIF
 70
    70
  9
$TILEMODE
 70
     1
  9
$MAXACTVP
 70
    64
  9
$PINSBASE
 10
0.0
 20
0.0
 30
0.0
  9
$PLIMCHECK
 70
     0
  9
$PEXTMIN
 10
1.000000000000000E+20
 20
1.000000000000000E+20
 30
1.000000000000000E+20
  9
$PEXTMAX
 10
-1.000000000000000E+20
 20
-1.000000000000000E+20
 30
-1.000000000000000E+20
  9
$PLIMMIN
 10
0.0
 20
0.0
  9
$PLIMMAX
 10
420.0
 20
297.0
  9
$UNITMODE
 70
     0
  9
$VISRETAIN
 70
     1
  9
$PLINEGEN
 70
     0
  9
$PSLTSCALE
 70
     1
  9
$TREEDEPTH
 70
  3020
  9
$CMLSTYLE
  2
Standard
  9
$CMLJUST
 70
     0
  9
$CMLSCALE
 40
20.0
  9
$PROXYGRAPHICS
 70
     1
  9
$MEASUREMENT
 70
     1
  9
$CELWEIGHT
370
    -1
  9
$ENDCAPS
280
     0
  9
$JOINSTYLE
280
     0
  9
$LWDISPLAY
290
     1
  9
$INSUNITS
 70
     4
  9
$HYPERLINKBASE
  1

  9
$STYLESHEET
  1

  9
$XEDIT
290
     1
  9
$CEPSNTYPE
380
     0
  9
$PSTYLEMODE
290
     1
  9
$FINGERPRINTGUID
  2
{6DC2B2E9-8C31-4F77-A599-C94FF014B79E}
  9
$VERSIONGUID
  2
{1B7A41A1-DF38-DC4D-BE9E-0F2F1D92605F}
  9
$EXTNAMES
290
     1
  9
$PSVPSCALE
 40
0.0
  9
$OLESTARTUP
290
     0
  9
$SORTENTS
280
   127
  9
$INDEXCTL
280
     0
  9
$HIDETEXT
280
     0
  9
$XCLIPFRAME
280
     2
  9
$HALOGAP
280
     0
  9
$OBSCOLOR
 70
   257
  9
$OBSLTYPE
280
     0
  9
$INTERSECTIONDISPLAY
280
     0
  9
$INTERSECTIONCOLOR
 70
   257
  9
$DIMASSOC
280
     1
  9
$PROJECTNAME
  1

  9
$CAMERADISPLAY
290
     0
  9
$LENSLENGTH
 40
50.0
  9
$CAMERAHEIGHT
 40
0.0
  9
$STEPSPERSEC
 40
2.0
  9
$STEPSIZE
 40
6.0
  9
$3DDWFPREC
 40
2.0
  9
$PSOLWIDTH
 40
0.25
  9
$PSOLHEIGHT
 40
4.0
  9
$LOFTANG1
 40
1.570796326794896
  9
$LOFTANG2
 40
1.570796326794896
  9
$LOFTMAG1
 40
0.0
  9
$LOFTMAG2
 40
0.0
  9
$LOFTPARAM
 70
     7
  9
$LOFTNORMALS
280
     1
  9
$LATITUDE
 40
37.795
  9
$LONGITUDE
 40
-122.394
  9
$NORTHDIRECTION
 40
0.0
  9
$TIMEZONE
 70
 -8000
  9
$LIGHTGLYPHDISPLAY
280
     1
  9
$TILEMODELIGHTSYNCH
280
     1
  9
$CMATERIAL
347
1B4
  9
$SOLIDHIST
280
     0
  9
$SHOWHIST
280
     1
  9
$DWFFRAME
280
     2
  9
$DGNFRAME
280
     0
  9
$REALWORLDSCALE
290
     1
  9
$INTERFERECOLOR
 62
     1
  9
$INTERFEREOBJVS
345
1D6
  9
$INTERFEREVPVS
346
1D3
  9
$CSHADOW
280
     0
  9
$SHADOWPLANELOCATION
 40
0.0
  0
ENDSEC
  0
SECTION
  2
CLASSES
  0
CLASS
  1
ACDBDICTIONARYWDFLT
  2
AcDbDictionaryWithDefault
  3
ObjectDBX Classes
 90
        0
 91
        1
280
     0
281
     0
  0
CLASS
  1
VISUALSTYLE
  2
AcDbVisualStyle
  3
ObjectDBX Classes
 90
     4095
 91
       24
280
     0
281
     0
  0
CLASS
  1
MATERIAL
  2
AcDbMaterial
  3
ObjectDBX Classes
 90
     1153
 91
        3
280
     0
281
     0
  0
CLASS
  1
SCALE
  2
AcDbScale
  3
ObjectDBX Classes
 90
     1153
 91
       33
280
     0
281
     0
  0
CLASS
  1
TABLESTYLE
  2
AcDbTableStyle
  3
ObjectDBX Classes
 90
     4095
 91
        1
280
     0
281
     0
  0
CLASS
  1
MLEADERSTYLE
  2
AcDbMLeaderStyle
  3
ACDB_MLEADERSTYLE_CLASS
 90
     4095
 91
        1
280
     0
281
     0
  0
CLASS
  1
SUN
  2
AcDbSun
  3
SCENEOE
 90
     1153
 91
        0
280
     0
281
     0
  0
CLASS
  1
ACDBSECTIONVIEWSTYLE
  2
AcDbSectionViewStyle
  3
ObjectDBX Classes
 90
     1025
 91
        1
280
     0
281
     0
  0
CLASS
  1
ACDBDETAILVIEWSTYLE
  2
AcDbDetailViewStyle
  3
ObjectDBX Classes
 90
     1025
 91
        1
280
     0
281
     0
  0
CLASS
  1
ACDB_ALDIMOBJECTCONTEXTDATA_CLASS
  2
AcDbAlignedDimensionObjectContextData
  3
ObjectDBX Classes
 90
     1153
 91
       12
280
     0
281
     0
  0
CLASS
  1
DICTIONARYVAR
  2
AcDbDictionaryVar
  3
ObjectDBX Classes
 90
        0
 91
       18
280
     0
281
     0
  0
CLASS
  1
CELLSTYLEMAP
  2
AcDbCellStyleMap
  3
ObjectDBX Classes
 90
     1152
 91
        1
280
     0
281
     0
  0
ENDSEC
  0
SECTION
  2
TABLES
  0
TABLE
  2
VPORT
  5
8
330
0
100
AcDbSymbolTable
 70
     1
  0
VPORT
  5
29
330
8
100
AcDbSymbolTableRecord
100
AcDbViewportTableRecord
  2
*Active
 70
     0
 10
0.0
 20
0.0
 11
1.0
 21
1.0
 12
418.8697188731903
 22
174.9613306972853
 13
0.0
 23
0.0
 14
10.0
 24
10.0
 15
10.0
 25
10.0
 16
0.0
 26
0.0
 36
1.0
 17
0.0
 27
0.0
 37
0.0
 40
761.6337982815116
 41
1.910336239103362
 42
50.0
 43
0.0
 44
0.0
 50
0.0
 51
0.0
 71
     0
 72
  2000
 73
     1
 74
     3
 75
     0
 76
     0
 77
     0
 78
     0
281
     0
 65
     1
110
0.0
120
0.0
130
0.0
111
1.0
121
0.0
131
0.0
112
0.0
122
1.0
132
0.0
 79
     0
146
0.0
348
1D2
 60
     3
 61
     5
292
     1
282
     1
141
0.0
142
0.0
 63
   250
421
  3355443
1001
ACAD_NAV_VCDISPLAY
1070
     3
  0
ENDTAB
  0
TABLE
  2
LTYPE
  5
5
330
0
100
AcDbSymbolTable
 70
     6
  0
LTYPE
  5
14
330
5
100
AcDbSymbolTableRecord
100
AcDbLinetypeTableRecord
  2
ByBlock
 70
     0
  3

 72
    65
 73
     0
 40
0.0
  0
LTYPE
  5
15
330
5
100
AcDbSymbolTableRecord
100
AcDbLinetypeTableRecord
  2
ByLayer
 70
     0
  3

 72
    65
 73
     0
 40
0.0
  0
LTYPE
  5
16
330
5
100
AcDbSymbolTableRecord
100
AcDbLinetypeTableRecord
  2
Continuous
 70
     0
  3
Solid line
 72
    65
 73
     0
 40
0.0
  0
LTYPE
  5
6E
330
5
100
AcDbSymbolTableRecord
100
AcDbLinetypeTableRecord
  2
HIDDEN
 70
     0
  3
Hidden __ __ __ __ __ __ __ __ __ __ __ __ __ __
 72
    65
 73
     2
 40
1.905
 49
1.27
 74
     0
 49
-0.635
 74
     0
  0
LTYPE
  5
6F
330
5
100
AcDbSymbolTableRecord
100
AcDbLinetypeTableRecord
  2
PHANTOM
 70
     0
  3
Phantom ______  __  __  ______  __  __  ______
 72
    65
 73
     6
 40
12.7
 49
6.349999999999999
 74
     0
 49
-1.27
 74
     0
 49
1.27
 74
     0
 49
-1.27
 74
     0
 49
1.27
 74
     0
 49
-1.27
 74
     0
  0
LTYPE
  5
70
330
5
100
AcDbSymbolTableRecord
100
AcDbLinetypeTableRecord
  2
CENTER
 70
     0
  3
Center ____ _ ____ _ ____ _ ____ _ ____ _ ____
 72
    65
 73
     4
 40
10.16
 49
6.349999999999999
 74
     0
 49
-1.27
 74
     0
 49
1.27
 74
     0
 49
-1.27
 74
     0
  0
LTYPE
  5
71
330
5
100
AcDbSymbolTableRecord
100
AcDbLinetypeTableRecord
  2
CENTERX2
 70
     0
  3
Center (2x) ________  __  ________  __  _____
 72
    65
 73
     4
 40
20.32
 49
12.7
 74
     0
 49
-2.54
 74
     0
 49
2.54
 74
     0
 49
-2.54
 74
     0
  0
LTYPE
  5
72
330
5
100
AcDbSymbolTableRecord
100
AcDbLinetypeTableRecord
  2
DOT2
 70
     0
  3
Dot (.5x) ........................................
 72
    65
 73
     2
 40
0.635
 49
0.0
 74
     0
 49
-0.635
 74
     0
  0
ENDTAB
  0
TABLE
  2
LAYER
  5
2
102
{ACAD_XDICTIONARY
360
204
102
}
330
0
100
AcDbSymbolTable
 70
     4
  0
LAYER
  5
10
102
{ACAD_XDICTIONARY
360
312
102
}
330
2
100
AcDbSymbolTableRecord
100
AcDbLayerTableRecord
  2
0
 70
     0
 62
     7
  6
Continuous
370
    -3
390
F
347
1C4
348
0
  0
LAYER
  5
73
102
{ACAD_XDICTIONARY
360
314
102
}
330
2
100
AcDbSymbolTableRecord
100
AcDbLayerTableRecord
  2
FORMAT
 70
     0
 62
     7
  6
Continuous
370
    -3
390
F
347
1C4
348
0
  0
LAYER
  5
1FB
330
2
100
AcDbSymbolTableRecord
100
AcDbLayerTableRecord
  2
Defpoints
 70
     0
 62
     7
  6
Continuous
290
     0
370
    -3
390
F
347
1C4
348
0
  0
LAYER
  5
1FC
102
{ACAD_XDICTIONARY
360
316
102
}
330
2
100
AcDbSymbolTableRecord
100
AcDbLayerTableRecord
  2
DIMENSION
 70
     0
 62
   255
  6
Continuous
370
    -3
390
F
347
1C4
348
0
  0
ENDTAB
  0
TABLE
  2
STYLE
  5
3
330
0
100
AcDbSymbolTable
 70
     2
  0
STYLE
  5
11
330
3
100
AcDbSymbolTableRecord
100
AcDbTextStyleTableRecord
  2
Standard
 70
     0
 40
0.0
 41
1.0
 50
0.0
 71
     0
 42
3.5
  3
txt
  4

  0
STYLE
  5
AB
330
3
100
AcDbSymbolTableRecord
100
AcDbTextStyleTableRecord
  2
SLDTEXTSTYLE0
 70
     0
 40
0.0
 41
0.75
 50
0.0
 71
     0
 42
3.5
  3
TXT
  4

  0
ENDTAB
  0
TABLE
  2
VIEW
  5
6
330
0
100
AcDbSymbolTable
 70
     0
  0
ENDTAB
  0
TABLE
  2
UCS
  5
7
330
0
100
AcDbSymbolTable
 70
     0
  0
ENDTAB
  0
TABLE
  2
APPID
  5
9
330
0
100
AcDbSymbolTable
 70
     7
  0
APPID
  5
12
330
9
100
AcDbSymbolTableRecord
100
AcDbRegAppTableRecord
  2
ACAD
 70
     0
  0
APPID
  5
1FE
330
9
100
AcDbSymbolTableRecord
100
AcDbRegAppTableRecord
  2
ACAD_PSEXT
 70
     0
  0
APPID
  5
1FF
330
9
100
AcDbSymbolTableRecord
100
AcDbRegAppTableRecord
  2
AcadAnnotative
 70
     0
  0
APPID
  5
200
330
9
100
AcDbSymbolTableRecord
100
AcDbRegAppTableRecord
  2
ACAD_DSTYLE_DIMJAG
 70
     0
  0
APPID
  5
201
330
9
100
AcDbSymbolTableRecord
100
AcDbRegAppTableRecord
  2
ACAD_DSTYLE_DIMTALN
 70
     0
  0
APPID
  5
202
330
9
100
AcDbSymbolTableRecord
100
AcDbRegAppTableRecord
  2
ACAD_NAV_VCDISPLAY
 70
     0
  0
APPID
  5
203
330
9
100
AcDbSymbolTableRecord
100
AcDbRegAppTableRecord
  2
ACAD_DSTYLE_DIMBREAK
 70
     0
  0
ENDTAB
  0
TABLE
  2
DIMSTYLE
  5
A
330
0
100
AcDbSymbolTable
 70
     3
100
AcDbDimStyleTable
 71
     2
340
1FD
340
27
  0
DIMSTYLE
105
27
330
A
100
AcDbSymbolTableRecord
100
AcDbDimStyleTableRecord
  2
ISO-25
 70
     0
 41
2.5
 42
0.625
 43
3.75
 44
1.25
 73
     0
 74
     0
 77
     1
 78
     8
140
2.5
141
2.5
143
0.0393700787
147
0.625
171
     3
172
     1
271
     2
272
     2
274
     3
278
    44
283
     0
284
     8
340
11
  0
DIMSTYLE
105
AC
330
A
100
AcDbSymbolTableRecord
100
AcDbDimStyleTableRecord
  2
SLDDIMSTYLE0
 70
     0
 41
3.302
 44
0.0
 45
0.000000001
 73
     0
 74
     0
 77
     1
 78
     4
 79
     1
140
5.2916666667
147
1.3229166667
173
     1
271
     2
272
     2
276
     2
284
    12
340
AB
341
AD
343
AD
344
AD
  0
DIMSTYLE
105
1FD
102
{ACAD_REACTORS
330
207
330
B7
330
AA
330
BF
330
11E
330
281
330
2BF
330
126
330
2E2
330
116
102
}
330
A
100
AcDbSymbolTableRecord
100
AcDbDimStyleTableRecord
  2
RG Dimension Lines
 70
     0
 40
12.0
 41
3.5
 42
1.0
 43
10.0
 44
5.0
 49
5.0
 77
     2
140
8.0
141
0.0
147
4.0
172
     1
176
   256
177
   256
178
     7
271
     0
272
     0
290
     1
340
11
341
AD
342
AD
371
     0
372
     0
1001
ACAD_DSTYLE_DIMBREAK
1070
   391
1040
0.125
1001
AcadAnnotative
1000
AnnotativeData
1002
{
1070
     1
1070
     1
1002
}
1001
ACAD_DSTYLE_DIMJAG
1070
   388
1040
1.5
1001
ACAD_DSTYLE_DIMTALN
1070
   392
1070
     0
  0
ENDTAB
  0
TABLE
  2
BLOCK_RECORD
  5
1
330
0
100
AcDbSymbolTable
 70
    25
  0
BLOCK_RECORD
  5
1F
330
1
100
AcDbSymbolTableRecord
100
AcDbBlockTableRecord
  2
*Model_Space
340
22
 70
     0
280
     1
281
     0
  0
BLOCK_RECORD
  5
1B
330
1
100
AcDbSymbolTableRecord
100
AcDbBlockTableRecord
  2
*Paper_Space
340
1E
 70
     0
280
     1
281
     0
  0
BLOCK_RECORD
  5
23
330
1
100
AcDbSymbolTableRecord
100
AcDbBlockTableRecord
  2
*Paper_Space0
340
26
 70
     0
280
     1
281
     0
  0
BLOCK_RECORD
  5
AD
330
1
100
AcDbSymbolTableRecord
100
AcDbBlockTableRecord
  2
_None
340
0
 70
     0
280
     1
281
     0
  0
BLOCK_RECORD
  5
B0
330
1
100
AcDbSymbolTableRecord
100
AcDbBlockTableRecord
  2
_D
340
0
 70
     0
280
     1
281
     0
  0
BLOCK_RECORD
  5
B8
330
1
100
AcDbSymbolTableRecord
100
AcDbBlockTableRecord
  2
_D_1
340
0
 70
     0
280
     1
281
     0
  0
BLOCK_RECORD
  5
C0
330
1
100
AcDbSymbolTableRecord
100
AcDbBlockTableRecord
  2
_D_2
340
0
 70
     0
280
     1
281
     0
  0
BLOCK_RECORD
  5
117
330
1
100
AcDbSymbolTableRecord
100
AcDbBlockTableRecord
  2
_D_3
340
0
 70
     0
280
     1
281
     0
  0
BLOCK_RECORD
  5
11F
330
1
100
AcDbSymbolTableRecord
100
AcDbBlockTableRecord
  2
_D_4
340
0
 70
     0
280
     1
281
     0
  0
BLOCK_RECORD
  5
127
330
1
100
AcDbSymbolTableRecord
100
AcDbBlockTableRecord
  2
_D_5
340
0
 70
     0
280
     1
281
     0
  0
BLOCK_RECORD
  5
1A9
330
1
100
AcDbSymbolTableRecord
100
AcDbBlockTableRecord
  2
_D_6
340
0
 70
     0
280
     1
281
     0
  0
BLOCK_RECORD
  5
1F1
330
1
100
AcDbSymbolTableRecord
100
AcDbBlockTableRecord
  2
*D9
340
0
 70
     0
280
     1
281
     0
  0
BLOCK_RECORD
  5
215
330
1
100
AcDbSymbolTableRecord
100
AcDbBlockTableRecord
  2
*D11
340
0
 70
     0
280
     1
281
     0
  0
BLOCK_RECORD
  5
21F
330
1
100
AcDbSymbolTableRecord
100
AcDbBlockTableRecord
  2
*D12
340
0
 70
     0
280
     1
281
     0
  0
BLOCK_RECORD
  5
22D
330
1
100
AcDbSymbolTableRecord
100
AcDbBlockTableRecord
  2
*D13
340
0
 70
     0
280
     1
281
     0
  0
BLOCK_RECORD
  5
23B
330
1
100
AcDbSymbolTableRecord
100
AcDbBlockTableRecord
  2
*D14
340
0
 70
     0
280
     1
281
     0
  0
BLOCK_RECORD
  5
249
330
1
100
AcDbSymbolTableRecord
100
AcDbBlockTableRecord
  2
*D15
340
0
 70
     0
280
     1
281
     0
  0
BLOCK_RECORD
  5
257
330
1
100
AcDbSymbolTableRecord
100
AcDbBlockTableRecord
  2
*D16
340
0
 70
     0
280
     1
281
     0
  0
BLOCK_RECORD
  5
265
330
1
100
AcDbSymbolTableRecord
100
AcDbBlockTableRecord
  2
*D17
340
0
 70
     0
280
     1
281
     0
  0
BLOCK_RECORD
  5
273
330
1
100
AcDbSymbolTableRecord
100
AcDbBlockTableRecord
  2
*D18
340
0
 70
     0
280
     1
281
     0
  0
BLOCK_RECORD
  5
282
330
1
100
AcDbSymbolTableRecord
100
AcDbBlockTableRecord
  2
*D19
340
0
 70
     0
280
     1
281
     0
  0
BLOCK_RECORD
  5
28E
330
1
100
AcDbSymbolTableRecord
100
AcDbBlockTableRecord
  2
*D20
340
0
 70
     0
280
     1
281
     0
  0
BLOCK_RECORD
  5
2C0
330
1
100
AcDbSymbolTableRecord
100
AcDbBlockTableRecord
  2
*D21
340
0
 70
     0
280
     1
281
     0
  0
BLOCK_RECORD
  5
2CD
330
1
100
AcDbSymbolTableRecord
100
AcDbBlockTableRecord
  2
*D22
340
0
 70
     0
280
     1
281
     0
  0
BLOCK_RECORD
  5
2E3
330
1
100
AcDbSymbolTableRecord
100
AcDbBlockTableRecord
  2
*D23
340
0
 70
     0
280
     1
281
     0
  0
BLOCK_RECORD
  5
2FD
330
1
100
AcDbSymbolTableRecord
100
AcDbBlockTableRecord
  2
*D24
340
0
 70
     0
280
     1
281
     0
  0
ENDTAB
  0
ENDSEC
  0
SECTION
  2
BLOCKS
  0
BLOCK
  5
20
330
1F
100
AcDbEntity
  8
0
100
AcDbBlockBegin
  2
*Model_Space
 70
     0
 10
0.0
 20
0.0
 30
0.0
  3
*Model_Space
  1

  0
ENDBLK
  5
21
330
1F
100
AcDbEntity
  8
0
100
AcDbBlockEnd
  0
BLOCK
  5
1C
330
1B
100
AcDbEntity
 67
     1
  8
0
100
AcDbBlockBegin
  2
*Paper_Space
 70
     0
 10
0.0
 20
0.0
 30
0.0
  3
*Paper_Space
  1

  0
ENDBLK
  5
1D
330
1B
100
AcDbEntity
 67
     1
  8
0
100
AcDbBlockEnd
  0
BLOCK
  5
24
330
23
100
AcDbEntity
 67
     1
  8
0
100
AcDbBlockBegin
  2
*Paper_Space0
 70
     0
 10
0.0
 20
0.0
 30
0.0
  3
*Paper_Space0
  1

  0
ENDBLK
  5
25
330
23
100
AcDbEntity
 67
     1
  8
0
100
AcDbBlockEnd
  0
BLOCK
  5
AE
330
AD
100
AcDbEntity
  8
0
100
AcDbBlockBegin
  2
_None
 70
     0
 10
0.0
 20
0.0
 30
0.0
  3
_None
  1

  0
ENDBLK
  5
AF
330
AD
100
AcDbEntity
  8
0
100
AcDbBlockEnd
  0
BLOCK
  5
B1
330
B0
100
AcDbEntity
  8
0
100
AcDbBlockBegin
  2
_D
 70
     0
 10
0.0
 20
0.0
 30
0.0
  3
_D
  1

  0
LINE
  5
B3
330
B0
100
AcDbEntity
  8
0
  6
Continuous
 62
     7
440
 16777216
370
     0
100
AcDbLine
 10
-68.988523248
 20
-91.95780928059999
 30
0.0
 11
-68.988523248
 21
-109.5455320537
 31
0.0
  0
LINE
  5
B4
330
B0
100
AcDbEntity
  8
0
  6
Continuous
 62
     7
440
 16777216
370
     0
100
AcDbLine
 10
71.011214556
 20
5.193200189499999
 30
0.0
 11
71.011214556
 21
-109.5455320537
 31
0.0
  0
LINE
  5
B5
330
B0
100
AcDbEntity
  8
0
  6
Continuous
 62
     7
440
 16777216
370
     0
100
AcDbLine
 10
-68.988523248
 20
-108.5455320537
 30
0.0
 11
71.011214556
 21
-108.5455320537
 31
0.0
  0
MTEXT
  5
B6
330
B0
100
AcDbEntity
  8
0
  6
Continuous
 62
     7
440
 16777216
370
    18
100
AcDbMText
 10
-15.4264445066
 20
-101.7242153805
 30
0.0
 40
5.2916666667
 41
0.0
 46
0.0
 71
     1
 72
     1
  1
140.00
  7
SLDTEXTSTYLE0
 73
     1
 44
1.0
  0
ENDBLK
  5
B2
330
B0
100
AcDbEntity
  8
0
100
AcDbBlockEnd
  0
BLOCK
  5
B9
330
B8
100
AcDbEntity
  8
0
100
AcDbBlockBegin
  2
_D_1
 70
     0
 10
0.0
 20
0.0
 30
0.0
  3
_D_1
  1

  0
LINE
  5
BB
330
B8
100
AcDbEntity
  8
0
  6
Continuous
 62
     7
440
 16777216
370
     0
100
AcDbLine
 10
-32.43060290360001
 20
-86.54553205370001
 30
0.0
 11
97.53621455600001
 21
-86.54553205370001
 31
0.0
  0
LINE
  5
BC
330
B8
100
AcDbEntity
  8
0
  6
Continuous
 62
     7
440
 16777216
370
     0
100
AcDbLine
 10
85.50137115890001
 20
13.6500910462
 30
0.0
 11
97.53621455600001
 21
13.6500910462
 31
0.0
  0
LINE
  5
BD
330
B8
100
AcDbEntity
  8
0
  6
Continuous
 62
     7
440
 16777216
370
     0
100
AcDbLine
 10
96.53621455600001
 20
-86.54553205370001
 30
0.0
 11
96.53621455600001
 21
13.6500910462
 31
0.0
  0
MTEXT
  5
BE
330
B8
100
AcDbEntity
  8
0
  6
Continuous
 62
     7
440
 16777216
370
    18
100
AcDbMText
 10
89.7148978827
 20
-47.1733388547
 30
0.0
 40
5.2916666667
 41
0.0
 46
0.0
 71
     1
 72
     1
  1
100.00
  7
SLDTEXTSTYLE0
 11
0.0000000000000001
 21
1.0
 31
0.0
 73
     1
 44
1.0
  0
ENDBLK
  5
BA
330
B8
100
AcDbEntity
  8
0
100
AcDbBlockEnd
  0
BLOCK
  5
C1
330
C0
100
AcDbEntity
  8
0
100
AcDbBlockBegin
  2
_D_2
 70
     0
 10
0.0
 20
0.0
 30
0.0
  3
_D_2
  1

  0
LINE
  5
C3
330
C0
100
AcDbEntity
  8
0
  6
Continuous
 62
     7
440
 16777216
370
     0
100
AcDbLine
 10
-65.6801462517
 20
93.45009104620002
 30
0.0
 11
-121.7279881838
 21
93.45009104620002
 31
0.0
  0
LINE
  5
C4
330
C0
100
AcDbEntity
  8
0
  6
Continuous
 62
     7
440
 16777216
370
     0
100
AcDbLine
 10
-103.3456445756
 20
-86.54553205370001
 30
0.0
 11
-121.7279881838
 21
-86.54553205370001
 31
0.0
  0
LINE
  5
C5
330
C0
100
AcDbEntity
  8
0
  6
Continuous
 62
     7
440
 16777216
370
     0
100
AcDbLine
 10
-120.7279881838
 20
93.45009104620002
 30
0.0
 11
-120.7279881838
 21
-86.54553205370001
 31
0.0
  0
MTEXT
  5
C6
330
C0
100
AcDbEntity
  8
0
  6
Continuous
 62
     7
440
 16777216
370
    18
100
AcDbMText
 10
-127.549304857
 20
-8.406811276299999
 30
0.0
 40
5.2916666667
 41
0.0
 46
0.0
 71
     1
 72
     1
  1
180.00
  7
SLDTEXTSTYLE0
 11
-0.000000000000007
 21
1.0
 31
0.0
 73
     1
 44
1.0
  0
ENDBLK
  5
C2
330
C0
100
AcDbEntity
  8
0
100
AcDbBlockEnd
  0
BLOCK
  5
118
330
117
100
AcDbEntity
  8
0
100
AcDbBlockBegin
  2
_D_3
 70
     0
 10
0.0
 20
0.0
 30
0.0
  3
_D_3
  1

  0
LINE
  5
11A
330
117
100
AcDbEntity
  8
0
  6
Continuous
 62
     7
440
 16777216
370
     0
100
AcDbLine
 10
321.8231228126
 20
93.94152741620001
 30
0.0
 11
321.8231228126
 21
115.208821049
 31
0.0
  0
LINE
  5
11B
330
117
100
AcDbEntity
  8
0
  6
Continuous
 62
     7
440
 16777216
370
     0
100
AcDbLine
 10
302.823139991
 20
94.79163108719999
 30
0.0
 11
302.823139991
 21
115.208821049
 31
0.0
  0
LINE
  5
11C
330
117
100
AcDbEntity
  8
0
  6
Continuous
 62
     7
440
 16777216
370
     0
100
AcDbLine
 10
321.8231228126
 20
114.208821049
 30
0.0
 11
302.823139991
 21
114.208821049
 31
0.0
  0
MTEXT
  5
11D
330
117
100
AcDbEntity
  8
0
  6
Continuous
 62
     7
440
 16777216
370
    18
100
AcDbMText
 10
303.568952829
 20
121.0301377222
 30
0.0
 40
5.2916666667
 41
0.0
 46
0.0
 71
     1
 72
     1
  1
19.00
  7
SLDTEXTSTYLE0
 73
     1
 44
1.0
  0
ENDBLK
  5
119
330
117
100
AcDbEntity
  8
0
100
AcDbBlockEnd
  0
BLOCK
  5
120
330
11F
100
AcDbEntity
  8
0
100
AcDbBlockBegin
  2
_D_4
 70
     0
 10
0.0
 20
0.0
 30
0.0
  3
_D_4
  1

  0
LINE
  5
122
330
11F
100
AcDbEntity
  8
0
  6
Continuous
 62
     7
440
 16777216
370
     0
100
AcDbLine
 10
215.848887698
 20
-90.39923693610001
 30
0.0
 11
215.848887698
 21
-113.4008878169
 31
0.0
  0
LINE
  5
123
330
11F
100
AcDbEntity
  8
0
  6
Continuous
 62
     7
440
 16777216
370
     0
100
AcDbLine
 10
161.848887698
 20
-89.87971282129999
 30
0.0
 11
161.848887698
 21
-113.4008878169
 31
0.0
  0
LINE
  5
124
330
11F
100
AcDbEntity
  8
0
  6
Continuous
 62
     7
440
 16777216
370
     0
100
AcDbLine
 10
215.848887698
 20
-112.4008878169
 30
0.0
 11
161.848887698
 21
-112.4008878169
 31
0.0
  0
MTEXT
  5
125
330
11F
100
AcDbEntity
  8
0
  6
Continuous
 62
     7
440
 16777216
370
    18
100
AcDbMText
 10
178.7929131236
 20
-105.5795711437
 30
0.0
 40
5.2916666667
 41
0.0
 46
0.0
 71
     1
 72
     1
  1
54.00
  7
SLDTEXTSTYLE0
 73
     1
 44
1.0
  0
ENDBLK
  5
121
330
11F
100
AcDbEntity
  8
0
100
AcDbBlockEnd
  0
BLOCK
  5
128
330
127
100
AcDbEntity
  8
0
100
AcDbBlockBegin
  2
_D_5
 70
     0
 10
0.0
 20
0.0
 30
0.0
  3
_D_5
  1

  0
LINE
  5
12A
330
127
100
AcDbEntity
  8
0
  6
Continuous
 62
     7
440
 16777216
370
     0
100
AcDbLine
 10
418.8988876979999
 20
-36.62849105300001
 30
0.0
 11
418.8988876979999
 21
-23.41967435489999
 31
0.0
  0
LINE
  5
12B
330
127
100
AcDbEntity
  8
0
  6
Continuous
 62
     7
440
 16777216
370
     0
100
AcDbLine
 10
458.898887698
 20
-37.14801516780001
 30
0.0
 11
458.898887698
 21
-23.41967435489999
 31
0.0
  0
LINE
  5
12C
330
127
100
AcDbEntity
  8
0
  6
Continuous
 62
     7
440
 16777216
370
     0
100
AcDbLine
 10
418.8988876979999
 20
-24.4196743549
 30
0.0
 11
458.898887698
 21
-24.4196743549
 31
0.0
  0
MTEXT
  5
12D
330
127
100
AcDbEntity
  8
0
  6
Continuous
 62
     7
440
 16777216
370
    18
100
AcDbMText
 10
429.9828226357
 20
-17.5983576817
 30
0.0
 40
5.2916666667
 41
0.0
 46
0.0
 71
     1
 72
     1
  1
40.00
  7
SLDTEXTSTYLE0
 73
     1
 44
1.0
  0
ENDBLK
  5
129
330
127
100
AcDbEntity
  8
0
100
AcDbBlockEnd
  0
BLOCK
  5
1AA
330
1A9
100
AcDbEntity
  8
0
100
AcDbBlockBegin
  2
_D_6
 70
     0
 10
0.0
 20
0.0
 30
0.0
  3
_D_6
  1

  0
LINE
  5
1AC
330
1A9
100
AcDbEntity
  8
0
  6
Continuous
 62
     7
440
 16777216
370
     0
100
AcDbLine
 10
-80.2376895443
 20
240.8944198098
 30
0.0
 11
-118.9951775086
 21
240.8880170358
 31
0.0
  0
LINE
  5
1AD
330
1A9
100
AcDbEntity
  8
0
  6
Continuous
 62
     7
440
 16777216
370
     0
100
AcDbLine
 10
-80.41921844319999
 20
160.8057179148
 30
0.0
 11
-118.981946784
 21
160.7993473153
 31
0.0
  0
LINE
  5
1AE
330
1A9
100
AcDbEntity
  8
0
  6
Continuous
 62
     7
440
 16777216
370
     0
100
AcDbLine
 10
-117.9951775222
 20
240.8881822368
 30
0.0
 11
-117.9819467976
 21
160.7995125162
 31
0.0
  0
MTEXT
  5
1AF
330
1A9
100
AcDbEntity
  8
0
  6
Continuous
 62
     7
440
 16777216
370
    18
100
AcDbMText
 10
-124.8083957776
 20
191.8660017674
 30
0.0
 40
5.2916666667
 41
0.0
 46
0.0
 71
     1
 72
     1
  1
80.00
  7
SLDTEXTSTYLE0
 11
-0.0001652009508923
 21
0.999999986354323
 31
0.0
 73
     1
 44
1.0
  0
ENDBLK
  5
1AB
330
1A9
100
AcDbEntity
  8
0
100
AcDbBlockEnd
  0
BLOCK
  5
1F2
330
1F1
100
AcDbEntity
  8
0
100
AcDbBlockBegin
  2
*D9
 70
     1
 10
0.0
 20
0.0
 30
0.0
  3
*D9
  1

  0
LINE
  5
1F3
330
1F1
100
AcDbEntity
  8
DIMENSION
440
 16777216
370
     0
100
AcDbLine
 10
1092.625159377854
 20
969.7937323929265
 30
0.0
 11
1092.569709633547
 21
979.7935786580374
 31
0.0
  0
LINE
  5
1F4
330
1F1
100
AcDbEntity
  8
DIMENSION
440
 16777216
370
     0
100
AcDbLine
 10
1454.657182624691
 20
971.8012215670347
 30
0.0
 11
1454.601732880384
 21
981.8010678321458
 31
0.0
  0
LINE
  5
1F5
330
1F1
100
AcDbEntity
  8
DIMENSION
440
 16777216
370
     0
100
AcDbLine
 10
1092.597434505701
 20
974.793655525482
 30
0.0
 11
1454.629457752537
 21
976.8011446995902
 31
0.0
  0
MTEXT
  5
1F6
330
1F1
100
AcDbEntity
  8
DIMENSION
 62
     7
440
 16777216
100
AcDbMText
 10
1273.568105608173
 20
983.9741418578535
 30
0.0
 40
8.0
 41
0.0
 46
0.0
 71
     5
 72
     1
  1
\A1;362
 73
     1
 44
1.0
  0
POINT
  5
1F7
330
1F1
100
AcDbEntity
  8
Defpoints
 62
     0
440
 16777216
100
AcDbPoint
 10
1092.771920384362
 20
943.3267482592359
 30
0.0
  0
POINT
  5
1F8
330
1F1
100
AcDbEntity
  8
Defpoints
 62
     0
440
 16777216
100
AcDbPoint
 10
1454.803943631198
 20
945.3342374333443
 30
0.0
  0
POINT
  5
1F9
330
1F1
100
AcDbEntity
  8
Defpoints
 62
     0
440
 16777216
100
AcDbPoint
 10
1454.629457752537
 20
976.8011446995902
 30
0.0
  0
ENDBLK
  5
1FA
330
1F1
100
AcDbEntity
  8
0
100
AcDbBlockEnd
  0
BLOCK
  5
216
330
215
100
AcDbEntity
  8
0
100
AcDbBlockBegin
  2
*D11
 70
     1
 10
0.0
 20
0.0
 30
0.0
  3
*D11
  1

  0
LINE
  5
218
330
215
100
AcDbEntity
  8
DIMENSION
440
 16777216
370
     0
100
AcDbLine
 10
197.0303018651974
 20
196.1421669005759
 30
0.0
 11
196.9748521208905
 21
206.142013165687
 31
0.0
  0
LINE
  5
219
330
215
100
AcDbEntity
  8
DIMENSION
440
 16777216
370
     0
100
AcDbLine
 10
559.0623251120339
 20
198.1496560746842
 30
0.0
 11
559.006875367727
 21
208.1495023397953
 31
0.0
  0
LINE
  5
21A
330
215
100
AcDbEntity
  8
DIMENSION
440
 16777216
370
     0
100
AcDbLine
 10
197.0025769930439
 20
201.1420900331315
 30
0.0
 11
559.0346002398805
 21
203.1495792072398
 31
0.0
  0
MTEXT
  5
21B
330
215
100
AcDbEntity
  8
DIMENSION
 62
     7
440
 16777216
100
AcDbMText
 10
377.9737785507738
 20
210.2269136876354
 30
0.0
 40
8.0
 41
0.0
 46
0.0
 71
     5
 72
     1
  1
\A1;362
 73
     1
 44
1.0
  0
POINT
  5
21C
330
215
100
AcDbEntity
  8
Defpoints
 62
     0
440
 16777216
100
AcDbPoint
 10
197.177062871705
 20
169.6751827668854
 30
0.0
  0
POINT
  5
21D
330
215
100
AcDbEntity
  8
Defpoints
 62
     0
440
 16777216
100
AcDbPoint
 10
559.2090861185416
 20
171.6826719409937
 30
0.0
  0
POINT
  5
21E
330
215
100
AcDbEntity
  8
Defpoints
 62
     0
440
 16777216
100
AcDbPoint
 10
559.0346002398805
 20
203.1495792072398
 30
0.0
  0
ENDBLK
  5
217
330
215
100
AcDbEntity
  8
0
100
AcDbBlockEnd
  0
BLOCK
  5
220
330
21F
100
AcDbEntity
  8
0
100
AcDbBlockBegin
  2
*D12
 70
     1
 10
0.0
 20
0.0
 30
0.0
  3
*D12
  1

  0
LINE
  5
222
330
21F
100
AcDbEntity
  8
DIMENSION
440
 16777216
370
     0
100
AcDbLine
 10
91.53621455600003
 20
-86.54553205370003
 30
0.0
 11
101.536214556
 21
-86.54553205370001
 31
0.0
  0
LINE
  5
223
330
21F
100
AcDbEntity
  8
DIMENSION
440
 16777216
370
     0
100
AcDbLine
 10
91.53621455600001
 20
13.6500910462
 30
0.0
 11
101.536214556
 21
13.65009104620001
 31
0.0
  0
LINE
  5
224
330
21F
100
AcDbEntity
  8
DIMENSION
440
 16777216
370
     0
100
AcDbLine
 10
96.53621455600005
 20
-86.54553205370001
 30
0.0
 11
96.53621455600003
 21
13.65009104620001
 31
0.0
  0
MTEXT
  5
225
330
21F
100
AcDbEntity
  8
DIMENSION
 62
     7
440
 16777216
100
AcDbMText
 10
108.536214556
 20
-32.4234157893
 30
0.0
 40
8.0
 41
0.0
 46
0.0
 71
     2
 72
     1
  1
\A1;100
 73
     1
 44
1.0
  0
POINT
  5
226
330
21F
100
AcDbEntity
  8
Defpoints
 62
     0
440
 16777216
100
AcDbPoint
 10
-41.98852324800001
 20
-86.54553205370005
 30
0.0
  0
POINT
  5
227
330
21F
100
AcDbEntity
  8
Defpoints
 62
     0
440
 16777216
100
AcDbPoint
 10
80.53621455600003
 20
13.6500910462
 30
0.0
  0
POINT
  5
228
330
21F
100
AcDbEntity
  8
Defpoints
 62
     0
440
 16777216
100
AcDbPoint
 10
96.53621455600003
 20
13.65009104620001
 30
0.0
  0
ENDBLK
  5
221
330
21F
100
AcDbEntity
  8
0
100
AcDbBlockEnd
  0
BLOCK
  5
22E
330
22D
100
AcDbEntity
  8
0
100
AcDbBlockBegin
  2
*D13
 70
     1
 10
0.0
 20
0.0
 30
0.0
  3
*D13
  1

  0
LINE
  5
230
330
22D
100
AcDbEntity
  8
DIMENSION
440
 16777216
370
     0
100
AcDbLine
 10
-68.988523248
 20
-103.5455320537
 30
0.0
 11
-68.988523248
 21
-113.5455320537
 31
0.0
  0
LINE
  5
231
330
22D
100
AcDbEntity
  8
DIMENSION
440
 16777216
370
     0
100
AcDbLine
 10
71.01121455599998
 20
-103.5455320537
 30
0.0
 11
71.01121455599998
 21
-113.5455320537
 31
0.0
  0
LINE
  5
232
330
22D
100
AcDbEntity
  8
DIMENSION
440
 16777216
370
     0
100
AcDbLine
 10
-68.988523248
 20
-108.5455320537
 30
0.0
 11
71.01121455599998
 21
-108.5455320537
 31
0.0
  0
MTEXT
  5
233
330
22D
100
AcDbEntity
  8
DIMENSION
 62
     7
440
 16777216
100
AcDbMText
 10
-4.676521441300001
 20
-112.5455320537
 30
0.0
 40
8.0
 41
0.0
 46
0.0
 71
     2
 72
     1
  1
\A1;140
 73
     1
 44
1.0
  0
POINT
  5
234
330
22D
100
AcDbEntity
  8
Defpoints
 62
     0
440
 16777216
100
AcDbPoint
 10
-68.988523248
 20
-86.54553205370001
 30
0.0
  0
POINT
  5
235
330
22D
100
AcDbEntity
  8
Defpoints
 62
     0
440
 16777216
100
AcDbPoint
 10
71.011214556
 20
13.6500910462
 30
0.0
  0
POINT
  5
236
330
22D
100
AcDbEntity
  8
Defpoints
 62
     0
440
 16777216
100
AcDbPoint
 10
71.01121455599998
 20
-108.5455320537
 30
0.0
  0
ENDBLK
  5
22F
330
22D
100
AcDbEntity
  8
0
100
AcDbBlockEnd
  0
BLOCK
  5
23C
330
23B
100
AcDbEntity
  8
0
100
AcDbBlockBegin
  2
*D14
 70
     1
 10
0.0
 20
0.0
 30
0.0
  3
*D14
  1

  0
LINE
  5
23E
330
23B
100
AcDbEntity
  8
DIMENSION
440
 16777216
370
     0
100
AcDbLine
 10
-115.7279881838
 20
93.45009104620002
 30
0.0
 11
-125.7279881838
 21
93.45009104620002
 31
0.0
  0
LINE
  5
23F
330
23B
100
AcDbEntity
  8
DIMENSION
440
 16777216
370
     0
100
AcDbLine
 10
-115.7279881838
 20
-86.54553205370005
 30
0.0
 11
-125.7279881838
 21
-86.54553205370005
 31
0.0
  0
LINE
  5
240
330
23B
100
AcDbEntity
  8
DIMENSION
440
 16777216
370
     0
100
AcDbLine
 10
-120.7279881838
 20
93.45009104620002
 30
0.0
 11
-120.7279881838
 21
-86.54553205370005
 31
0.0
  0
MTEXT
  5
241
330
23B
100
AcDbEntity
  8
DIMENSION
 62
     7
440
 16777216
100
AcDbMText
 10
-133.3946548504666
 20
6.343111789000001
 30
0.0
 40
8.0
 41
0.0
 46
0.0
 71
     2
 72
     1
  1
\A1;180
 73
     1
 44
1.0
  0
POINT
  5
242
330
23B
100
AcDbEntity
  8
Defpoints
 62
     0
440
 16777216
100
AcDbPoint
 10
-38.98857749540002
 20
93.45009104620004
 30
0.0
  0
POINT
  5
243
330
23B
100
AcDbEntity
  8
Defpoints
 62
     0
440
 16777216
100
AcDbPoint
 10
-95.98852324800002
 20
-86.54553205370005
 30
0.0
  0
POINT
  5
244
330
23B
100
AcDbEntity
  8
Defpoints
 62
     0
440
 16777216
100
AcDbPoint
 10
-120.7279881838
 20
-86.54553205370005
 30
0.0
  0
ENDBLK
  5
23D
330
23B
100
AcDbEntity
  8
0
100
AcDbBlockEnd
  0
BLOCK
  5
24A
330
249
100
AcDbEntity
  8
0
100
AcDbBlockBegin
  2
*D15
 70
     1
 10
0.0
 20
0.0
 30
0.0
  3
*D15
  1

  0
LINE
  5
2EF
330
249
100
AcDbEntity
  8
DIMENSION
440
 16777216
370
     0
100
AcDbLine
 10
255.8253307451919
 20
-107.4008878169
 30
0.0
 11
255.8253307451919
 21
-117.4008878169
 31
0.0
  0
LINE
  5
2F0
330
249
100
AcDbEntity
  8
DIMENSION
440
 16777216
370
     0
100
AcDbLine
 10
201.8253307451919
 20
-107.4008878169
 30
0.0
 11
201.8253307451919
 21
-117.4008878169
 31
0.0
  0
LINE
  5
2F1
330
249
100
AcDbEntity
  8
DIMENSION
440
 16777216
370
     0
100
AcDbLine
 10
255.8253307451919
 20
-112.4008878169
 30
0.0
 11
201.8253307451919
 21
-112.4008878169
 31
0.0
  0
MTEXT
  5
2F2
330
249
100
AcDbEntity
  8
DIMENSION
 62
     7
440
 16777216
100
AcDbMText
 10
227.5643027668919
 20
-116.4008878169
 30
0.0
 40
8.0
 41
0.0
 46
0.0
 71
     2
 72
     1
  1
\A1;%%C54
 73
     1
 44
1.0
  0
POINT
  5
2F3
330
249
100
AcDbEntity
  8
Defpoints
 62
     0
440
 16777216
100
AcDbPoint
 10
255.8253307451919
 20
-85.5809300738
 30
0.0
  0
POINT
  5
2F4
330
249
100
AcDbEntity
  8
Defpoints
 62
     0
440
 16777216
100
AcDbPoint
 10
201.8253307451919
 20
-85.5809300738
 30
0.0
  0
POINT
  5
2F5
330
249
100
AcDbEntity
  8
Defpoints
 62
     0
440
 16777216
100
AcDbPoint
 10
201.8253307451919
 20
-112.4008878169
 30
0.0
  0
ENDBLK
  5
24B
330
249
100
AcDbEntity
  8
0
100
AcDbBlockEnd
  0
BLOCK
  5
258
330
257
100
AcDbEntity
  8
0
100
AcDbBlockBegin
  2
*D16
 70
     1
 10
0.0
 20
0.0
 30
0.0
  3
*D16
  1

  0
LINE
  5
2F6
330
257
100
AcDbEntity
  8
DIMENSION
440
 16777216
370
     0
100
AcDbLine
 10
458.8753307451918
 20
-29.41967435489999
 30
0.0
 11
458.8753307451918
 21
-19.41967435489999
 31
0.0
  0
LINE
  5
2F7
330
257
100
AcDbEntity
  8
DIMENSION
440
 16777216
370
     0
100
AcDbLine
 10
498.8753307451919
 20
-29.41967435489999
 30
0.0
 11
498.8753307451919
 21
-19.41967435489999
 31
0.0
  0
LINE
  5
2F8
330
257
100
AcDbEntity
  8
DIMENSION
440
 16777216
370
     0
100
AcDbLine
 10
458.8753307451918
 20
-24.4196743549
 30
0.0
 11
498.8753307451919
 21
-24.4196743549
 31
0.0
  0
MTEXT
  5
2F9
330
257
100
AcDbEntity
  8
DIMENSION
 62
     7
440
 16777216
100
AcDbMText
 10
478.7542122788918
 20
-12.41967435489999
 30
0.0
 40
8.0
 41
0.0
 46
0.0
 71
     2
 72
     1
  1
\A1;%%C40
 73
     1
 44
1.0
  0
POINT
  5
2FA
330
257
100
AcDbEntity
  8
Defpoints
 62
     0
440
 16777216
100
AcDbPoint
 10
458.8753307451918
 20
-41.7809300738
 30
0.0
  0
POINT
  5
2FB
330
257
100
AcDbEntity
  8
Defpoints
 62
     0
440
 16777216
100
AcDbPoint
 10
498.8753307451919
 20
-41.7809300738
 30
0.0
  0
POINT
  5
2FC
330
257
100
AcDbEntity
  8
Defpoints
 62
     0
440
 16777216
100
AcDbPoint
 10
498.8753307451919
 20
-24.4196743549
 30
0.0
  0
ENDBLK
  5
259
330
257
100
AcDbEntity
  8
0
100
AcDbBlockEnd
  0
BLOCK
  5
266
330
265
100
AcDbEntity
  8
0
100
AcDbBlockBegin
  2
*D17
 70
     1
 10
0.0
 20
0.0
 30
0.0
  3
*D17
  1

  0
LINE
  5
30B
330
265
100
AcDbEntity
  8
DIMENSION
440
 16777216
370
     0
100
AcDbLine
 10
361.7995658597919
 20
109.208821049
 30
0.0
 11
361.7995658597919
 21
119.208821049
 31
0.0
  0
LINE
  5
30C
330
265
100
AcDbEntity
  8
DIMENSION
440
 16777216
370
     0
100
AcDbLine
 10
342.7995830381919
 20
109.208821049
 30
0.0
 11
342.7995830381919
 21
119.208821049
 31
0.0
  0
LINE
  5
30D
330
265
100
AcDbEntity
  8
DIMENSION
440
 16777216
370
     0
100
AcDbLine
 10
361.7995658597919
 20
114.208821049
 30
0.0
 11
342.7995830381919
 21
114.208821049
 31
0.0
  0
MTEXT
  5
30E
330
265
100
AcDbEntity
  8
DIMENSION
 62
     7
440
 16777216
100
AcDbMText
 10
352.2995744489918
 20
126.208821049
 30
0.0
 40
8.0
 41
0.0
 46
0.0
 71
     2
 72
     1
  1
\A1;%%C19
 73
     1
 44
1.0
  0
POINT
  5
30F
330
265
100
AcDbEntity
  8
Defpoints
 62
     0
440
 16777216
100
AcDbPoint
 10
361.7995658597919
 20
33.4500910462
 30
0.0
  0
POINT
  5
310
330
265
100
AcDbEntity
  8
Defpoints
 62
     0
440
 16777216
100
AcDbPoint
 10
342.7995830381919
 20
53.9500910462
 30
0.0
  0
POINT
  5
311
330
265
100
AcDbEntity
  8
Defpoints
 62
     0
440
 16777216
100
AcDbPoint
 10
342.7995830381919
 20
114.208821049
 30
0.0
  0
ENDBLK
  5
267
330
265
100
AcDbEntity
  8
0
100
AcDbBlockEnd
  0
BLOCK
  5
274
330
273
100
AcDbEntity
  8
0
100
AcDbBlockBegin
  2
*D18
 70
     1
 10
0.0
 20
0.0
 30
0.0
  3
*D18
  1

  0
LINE
  5
276
330
273
100
AcDbEntity
  8
DIMENSION
440
 16777216
370
     0
100
AcDbLine
 10
-112.995177590463
 20
240.8890082415855
 30
0.0
 11
-122.9951774540063
 21
240.8873562320766
 31
0.0
  0
LINE
  5
277
330
273
100
AcDbEntity
  8
DIMENSION
440
 16777216
370
     0
100
AcDbLine
 10
-112.98194686589
 20
160.8003385209889
 30
0.0
 11
-122.9819467294332
 21
160.7986865114801
 31
0.0
  0
LINE
  5
278
330
273
100
AcDbEntity
  8
DIMENSION
440
 16777216
370
     0
100
AcDbLine
 10
-117.9951775222347
 20
240.888182236831
 30
0.0
 11
-117.9819467976616
 21
160.7995125162345
 31
0.0
  0
MTEXT
  5
279
330
273
100
AcDbEntity
  8
DIMENSION
 62
     7
440
 16777216
100
AcDbMText
 10
-127.9898534656754
 20
204.6604229035829
 30
0.0
 40
8.0
 41
0.0
 46
0.0
 71
     2
 72
     1
  1
\A1;80
 73
     1
 44
1.0
  0
POINT
  5
27A
330
273
100
AcDbEntity
  8
Defpoints
 62
     0
440
 16777216
100
AcDbPoint
 10
-68.99182726700001
 20
240.896277637
 30
0.0
  0
POINT
  5
27B
330
273
100
AcDbEntity
  8
Defpoints
 62
     0
440
 16777216
100
AcDbPoint
 10
-72.97859648779999
 20
160.8069471125999
 30
0.0
  0
POINT
  5
27C
330
273
100
AcDbEntity
  8
Defpoints
 62
     0
440
 16777216
100
AcDbPoint
 10
-117.9819467976616
 20
160.7995125162345
 30
0.0
  0
ENDBLK
  5
275
330
273
100
AcDbEntity
  8
0
100
AcDbBlockEnd
  0
BLOCK
  5
283
330
282
100
AcDbEntity
  8
0
100
AcDbBlockBegin
  2
*D19
 70
     1
 10
0.0
 20
0.0
 30
0.0
  3
*D19
  1

  0
LINE
  5
285
330
282
100
AcDbEntity
  8
0
 62
     0
440
 16777216
370
    -2
100
AcDbLine
 10
128.7595573425
 20
-48.7271672217
 30
0.0
 11
128.7595573425
 21
-7.160265115796391
 31
0.0
  0
LINE
  5
286
330
282
100
AcDbEntity
  8
0
 62
     0
440
 16777216
370
    -2
100
AcDbLine
 10
208.848887698
 20
-39.5809300738
 30
0.0
 11
208.848887698
 21
-7.160265115796391
 31
0.0
  0
LINE
  5
287
330
282
100
AcDbEntity
  8
0
 62
     0
440
 16777216
370
    -2
100
AcDbLine
 10
132.0615573425
 20
-8.160265115796391
 30
0.0
 11
205.546887698
 21
-8.160265115796391
 31
0.0
  0
SOLID
  5
288
330
282
100
AcDbEntity
  8
0
 62
     0
440
 16777216
100
AcDbTrace
 10
132.0615573425
 20
-7.609931782463058
 30
0.0
 11
132.0615573425
 21
-8.710598449129724
 31
0.0
 12
128.7595573425
 22
-8.160265115796391
 32
0.0
 13
128.7595573425
 23
-8.160265115796391
 33
0.0
  0
SOLID
  5
289
330
282
100
AcDbEntity
  8
0
 62
     0
440
 16777216
100
AcDbTrace
 10
205.546887698
 20
-7.609931782463058
 30
0.0
 11
205.546887698
 21
-8.710598449129724
 31
0.0
 12
208.848887698
 22
-8.160265115796391
 32
0.0
 13
208.848887698
 23
-8.160265115796391
 33
0.0
  0
MTEXT
  5
28A
330
282
100
AcDbEntity
  8
0
 62
     0
440
 16777216
100
AcDbMText
 10
168.80422252025
 20
-4.594598449129724
 30
0.0
 40
3.5
 41
0.0
 46
0.0
 71
     5
 72
     1
  1
400,45
 73
     1
 44
1.0
  0
POINT
  5
28B
330
282
100
AcDbEntity
  8
Defpoints
 62
     0
440
 16777216
100
AcDbPoint
 10
128.7595573425
 20
-49.7271672217
 30
0.0
  0
POINT
  5
28C
330
282
100
AcDbEntity
  8
Defpoints
 62
     0
440
 16777216
100
AcDbPoint
 10
208.848887698
 20
-40.5809300738
 30
0.0
  0
POINT
  5
28D
330
282
100
AcDbEntity
  8
Defpoints
 62
     0
440
 16777216
100
AcDbPoint
 10
208.848887698
 20
-8.160265115796391
 30
0.0
  0
ENDBLK
  5
284
330
282
100
AcDbEntity
  8
0
100
AcDbBlockEnd
  0
BLOCK
  5
28F
330
28E
100
AcDbEntity
  8
0
100
AcDbBlockBegin
  2
*D20
 70
     1
 10
0.0
 20
0.0
 30
0.0
  3
*D20
  1

  0
LINE
  5
2B8
330
28E
100
AcDbEntity
  8
DIMENSION
440
 16777216
370
     0
100
AcDbLine
 10
168.7360003896919
 20
-26.91777928289662
 30
0.0
 11
168.7360003896919
 21
-16.91777928289662
 31
0.0
  0
LINE
  5
2B9
330
28E
100
AcDbEntity
  8
DIMENSION
440
 16777216
370
     0
100
AcDbLine
 10
248.8253307451919
 20
-26.91777928289662
 30
0.0
 11
248.8253307451919
 21
-16.91777928289662
 31
0.0
  0
LINE
  5
2BA
330
28E
100
AcDbEntity
  8
DIMENSION
440
 16777216
370
     0
100
AcDbLine
 10
168.7360003896919
 20
-21.91777928289662
 30
0.0
 11
248.8253307451919
 21
-21.91777928289662
 31
0.0
  0
MTEXT
  5
2BB
330
28E
100
AcDbEntity
  8
DIMENSION
 62
     7
440
 16777216
100
AcDbMText
 10
207.5881498411777
 20
-13.91777928289662
 30
0.0
 40
8.0
 41
0.0
 46
0.0
 71
     5
 72
     1
  1
\A1;80
 73
     1
 44
1.0
  0
POINT
  5
2BC
330
28E
100
AcDbEntity
  8
Defpoints
 62
     0
440
 16777216
100
AcDbPoint
 10
168.7360003896919
 20
-49.7271672217
 30
0.0
  0
POINT
  5
2BD
330
28E
100
AcDbEntity
  8
Defpoints
 62
     0
440
 16777216
100
AcDbPoint
 10
248.8253307451919
 20
-40.5809300738
 30
0.0
  0
POINT
  5
2BE
330
28E
100
AcDbEntity
  8
Defpoints
 62
     0
440
 16777216
100
AcDbPoint
 10
248.8253307451919
 20
-21.91777928289662
 30
0.0
  0
ENDBLK
  5
290
330
28E
100
AcDbEntity
  8
0
100
AcDbBlockEnd
  0
BLOCK
  5
2C1
330
2C0
100
AcDbEntity
  8
0
100
AcDbBlockBegin
  2
*D21
 70
     1
 10
0.0
 20
0.0
 30
0.0
  3
*D21
  1

  0
LINE
  5
2C3
330
2C0
100
AcDbEntity
  8
0
 62
     0
440
 16777216
370
    -2
100
AcDbLine
 10
256.8253307451919
 20
-85.58093007380003
 30
0.0
 11
286.2967677168714
 21
-85.58093007380003
 31
0.0
  0
LINE
  5
2C4
330
2C0
100
AcDbEntity
  8
0
 62
     0
440
 16777216
370
    -2
100
AcDbLine
 10
249.825330745192
 20
-40.58093007380001
 30
0.0
 11
286.2967677168714
 21
-40.58093007380001
 31
0.0
  0
LINE
  5
2C5
330
2C0
100
AcDbEntity
  8
0
 62
     0
440
 16777216
370
    -2
100
AcDbLine
 10
285.2967677168714
 20
-82.27893007380002
 30
0.0
 11
285.2967677168714
 21
-66.64659674046669
 31
0.0
  0
LINE
  5
2C6
330
2C0
100
AcDbEntity
  8
0
 62
     0
440
 16777216
370
    -2
100
AcDbLine
 10
285.2967677168714
 20
-43.8829300738
 30
0.0
 11
285.2967677168714
 21
-59.51526340713335
 31
0.0
  0
SOLID
  5
2C7
330
2C0
100
AcDbEntity
  8
0
 62
     0
440
 16777216
100
AcDbTrace
 10
284.746434383538
 20
-82.27893007380002
 30
0.0
 11
285.8471010502047
 21
-82.27893007380002
 31
0.0
 12
285.2967677168714
 22
-85.58093007380003
 32
0.0
 13
285.2967677168714
 23
-85.58093007380003
 33
0.0
  0
SOLID
  5
2C8
330
2C0
100
AcDbEntity
  8
0
 62
     0
440
 16777216
100
AcDbTrace
 10
284.746434383538
 20
-43.8829300738
 30
0.0
 11
285.8471010502047
 21
-43.8829300738
 31
0.0
 12
285.2967677168714
 22
-40.58093007380001
 32
0.0
 13
285.2967677168714
 23
-40.58093007380001
 33
0.0
  0
MTEXT
  5
2C9
330
2C0
100
AcDbEntity
  8
0
 62
     0
440
 16777216
100
AcDbMText
 10
285.2967677168713
 20
-63.08093007380008
 30
0.0
 40
3.5
 41
0.0
 46
0.0
 71
     5
 72
     1
  1
225,00
 73
     1
 44
1.0
  0
POINT
  5
2CA
330
2C0
100
AcDbEntity
  8
Defpoints
 62
     0
440
 16777216
100
AcDbPoint
 10
255.825330745192
 20
-85.58093007380003
 30
0.0
  0
POINT
  5
2CB
330
2C0
100
AcDbEntity
  8
Defpoints
 62
     0
440
 16777216
100
AcDbPoint
 10
248.825330745192
 20
-40.58093007380001
 30
0.0
  0
POINT
  5
2CC
330
2C0
100
AcDbEntity
  8
Defpoints
 62
     0
440
 16777216
100
AcDbPoint
 10
285.2967677168714
 20
-40.58093007380001
 30
0.0
  0
ENDBLK
  5
2C2
330
2C0
100
AcDbEntity
  8
0
100
AcDbBlockEnd
  0
BLOCK
  5
2CE
330
2CD
100
AcDbEntity
  8
0
100
AcDbBlockBegin
  2
*D22
 70
     1
 10
0.0
 20
0.0
 30
0.0
  3
*D22
  1

  0
LINE
  5
2DB
330
2CD
100
AcDbEntity
  8
DIMENSION
440
 16777216
370
     0
100
AcDbLine
 10
266.9158952924282
 20
-85.58093007380003
 30
0.0
 11
276.9158952924282
 21
-85.58093007380003
 31
0.0
  0
LINE
  5
2DC
330
2CD
100
AcDbEntity
  8
DIMENSION
440
 16777216
370
     0
100
AcDbLine
 10
266.9158952924282
 20
-40.58093007380001
 30
0.0
 11
276.9158952924282
 21
-40.58093007380001
 31
0.0
  0
LINE
  5
2DD
330
2CD
100
AcDbEntity
  8
DIMENSION
440
 16777216
370
     0
100
AcDbLine
 10
271.9158952924281
 20
-85.58093007380003
 30
0.0
 11
271.9158952924281
 21
-40.58093007380001
 31
0.0
  0
MTEXT
  5
2DE
330
2CD
100
AcDbEntity
  8
DIMENSION
 62
     7
440
 16777216
100
AcDbMText
 10
282.5825619590948
 20
-63.08093007380008
 30
0.0
 40
8.0
 41
0.0
 46
0.0
 71
     5
 72
     1
  1
\A1;45
 73
     1
 44
1.0
  0
POINT
  5
2DF
330
2CD
100
AcDbEntity
  8
Defpoints
 62
     0
440
 16777216
100
AcDbPoint
 10
255.825330745192
 20
-85.58093007380003
 30
0.0
  0
POINT
  5
2E0
330
2CD
100
AcDbEntity
  8
Defpoints
 62
     0
440
 16777216
100
AcDbPoint
 10
248.825330745192
 20
-40.58093007380001
 30
0.0
  0
POINT
  5
2E1
330
2CD
100
AcDbEntity
  8
Defpoints
 62
     0
440
 16777216
100
AcDbPoint
 10
271.9158952924281
 20
-40.58093007380001
 30
0.0
  0
ENDBLK
  5
2CF
330
2CD
100
AcDbEntity
  8
0
100
AcDbBlockEnd
  0
BLOCK
  5
2E4
330
2E3
100
AcDbEntity
  8
0
100
AcDbBlockBegin
  2
*D23
 70
     1
 10
0.0
 20
0.0
 30
0.0
  3
*D23
  1

  0
LINE
  5
2E6
330
2E3
100
AcDbEntity
  8
0
 62
     0
440
 16777216
370
    -2
100
AcDbLine
 10
325.5753307450919
 20
-86.6499089538
 30
0.0
 11
325.5753307450919
 21
-113.4008878169
 31
0.0
  0
LINE
  5
2E7
330
2E3
100
AcDbEntity
  8
0
 62
     0
440
 16777216
370
    -2
100
AcDbLine
 10
379.5753307450919
 20
-86.6499089538
 30
0.0
 11
379.5753307450919
 21
-113.4008878169
 31
0.0
  0
LINE
  5
2E8
330
2E3
100
AcDbEntity
  8
0
 62
     0
440
 16777216
370
    -2
100
AcDbLine
 10
328.8773307450919
 20
-112.4008878169
 30
0.0
 11
376.2733307450919
 21
-112.4008878169
 31
0.0
  0
SOLID
  5
2E9
330
2E3
100
AcDbEntity
  8
0
 62
     0
440
 16777216
100
AcDbTrace
 10
328.8773307450919
 20
-111.8505544835667
 30
0.0
 11
328.8773307450919
 21
-112.9512211502333
 31
0.0
 12
325.5753307450919
 22
-112.4008878169
 32
0.0
 13
325.5753307450919
 23
-112.4008878169
 33
0.0
  0
SOLID
  5
2EA
330
2E3
100
AcDbEntity
  8
0
 62
     0
440
 16777216
100
AcDbTrace
 10
376.2733307450919
 20
-111.8505544835667
 30
0.0
 11
376.2733307450919
 21
-112.9512211502333
 31
0.0
 12
379.5753307450919
 22
-112.4008878169
 32
0.0
 13
379.5753307450919
 23
-112.4008878169
 33
0.0
  0
MTEXT
  5
2EB
330
2E3
100
AcDbEntity
  8
0
 62
     0
440
 16777216
100
AcDbMText
 10
352.5753307450919
 20
-108.8352211502333
 30
0.0
 40
3.5
 41
0.0
 46
0.0
 71
     5
 72
     1
  1
270,00
 73
     1
 44
1.0
  0
POINT
  5
2EC
330
2E3
100
AcDbEntity
  8
Defpoints
 62
     0
440
 16777216
100
AcDbPoint
 10
325.5753307450919
 20
-85.64990895380001
 30
0.0
  0
POINT
  5
2ED
330
2E3
100
AcDbEntity
  8
Defpoints
 62
     0
440
 16777216
100
AcDbPoint
 10
379.5753307450919
 20
-85.64990895380001
 30
0.0
  0
POINT
  5
2EE
330
2E3
100
AcDbEntity
  8
Defpoints
 62
     0
440
 16777216
100
AcDbPoint
 10
379.5753307450919
 20
-112.4008878169
 30
0.0
  0
ENDBLK
  5
2E5
330
2E3
100
AcDbEntity
  8
0
100
AcDbBlockEnd
  0
BLOCK
  5
2FE
330
2FD
100
AcDbEntity
  8
0
100
AcDbBlockBegin
  2
*D24
 70
     1
 10
0.0
 20
0.0
 30
0.0
  3
*D24
  1

  0
LINE
  5
300
330
2FD
100
AcDbEntity
  8
DIMENSION
440
 16777216
370
     0
100
AcDbLine
 10
325.5753307450919
 20
-107.4008878169
 30
0.0
 11
325.5753307450919
 21
-117.4008878169
 31
0.0
  0
LINE
  5
301
330
2FD
100
AcDbEntity
  8
DIMENSION
440
 16777216
370
     0
100
AcDbLine
 10
379.5753307450919
 20
-107.4008878169
 30
0.0
 11
379.5753307450919
 21
-117.4008878169
 31
0.0
  0
LINE
  5
302
330
2FD
100
AcDbEntity
  8
DIMENSION
440
 16777216
370
     0
100
AcDbLine
 10
325.5753307450919
 20
-112.4008878169
 30
0.0
 11
379.5753307450919
 21
-112.4008878169
 31
0.0
  0
MTEXT
  5
303
330
2FD
100
AcDbEntity
  8
DIMENSION
 62
     7
440
 16777216
100
AcDbMText
 10
352.5753307450919
 20
-120.4008878169
 30
0.0
 40
8.0
 41
0.0
 46
0.0
 71
     5
 72
     1
  1
\A1;%%C54
 73
     1
 44
1.0
  0
POINT
  5
304
330
2FD
100
AcDbEntity
  8
Defpoints
 62
     0
440
 16777216
100
AcDbPoint
 10
325.5753307450919
 20
-85.64990895380001
 30
0.0
  0
POINT
  5
305
330
2FD
100
AcDbEntity
  8
Defpoints
 62
     0
440
 16777216
100
AcDbPoint
 10
379.5753307450919
 20
-85.64990895380001
 30
0.0
  0
POINT
  5
306
330
2FD
100
AcDbEntity
  8
Defpoints
 62
     0
440
 16777216
100
AcDbPoint
 10
379.5753307450919
 20
-112.4008878169
 30
0.0
  0
ENDBLK
  5
2FF
330
2FD
100
AcDbEntity
  8
0
100
AcDbBlockEnd
  0
ENDSEC
  0
SECTION
  2
ENTITIES
  0
LINE
  5
74
330
1F
100
AcDbEntity
  8
0
  6
Continuous
 62
     7
370
    25
100
AcDbLine
 10
80.511214556
 20
33.4500910462
 30
0.0
 11
80.511214556
 21
53.9500910462
 31
0.0
  0
LINE
  5
75
330
1F
100
AcDbEntity
  8
0
  6
Continuous
 62
     7
370
    25
100
AcDbLine
 10
61.51121455600001
 20
53.9500910462
 30
0.0
 11
61.51121455600001
 21
33.4500910462
 31
0.0
  0
LINE
  5
76
330
1F
100
AcDbEntity
  8
0
  6
Continuous
 62
     7
370
    25
100
AcDbLine
 10
-59.488523248
 20
-40.5809300738
 30
0.0
 11
-59.488523248
 21
53.9500910462
 31
0.0
  0
LINE
  5
77
330
1F
100
AcDbEntity
  8
0
  6
Continuous
 62
     7
370
    25
100
AcDbLine
 10
-78.48852324800001
 20
53.9500910462
 30
0.0
 11
-78.48852324800001
 21
-40.5809300738
 31
0.0
  0
LINE
  5
78
330
1F
100
AcDbEntity
  8
0
  6
Continuous
 62
     7
370
    25
100
AcDbLine
 10
-48.98852324799999
 20
-83.0809300738
 30
0.0
 11
-48.98852324799999
 21
-78.28093007380001
 31
0.0
  0
LINE
  5
79
330
1F
100
AcDbEntity
  8
0
  6
Continuous
 62
     7
370
    25
100
AcDbLine
 10
-88.98852324799999
 20
-78.28093007380001
 30
0.0
 11
-88.98852324799999
 21
-83.0809300738
 31
0.0
  0
LINE
  5
7A
330
1F
100
AcDbEntity
  8
0
  6
Continuous
 62
     7
370
    25
100
AcDbLine
 10
-41.98852324799999
 20
-85.64990895380001
 30
0.0
 11
-41.98852324799999
 21
-85.5809300738
 31
0.0
  0
LINE
  5
7B
330
1F
100
AcDbEntity
  8
0
  6
Continuous
 62
     7
370
    25
100
AcDbLine
 10
-95.98852324799999
 20
-85.5809300738
 30
0.0
 11
-95.98852324799999
 21
-85.64990895380001
 31
0.0
  0
LINE
  5
7C
330
1F
100
AcDbEntity
  8
0
  6
Continuous
 62
     7
370
    25
100
AcDbLine
 10
-86.738523248
 20
-78.28093007380001
 30
0.0
 11
-86.738523248
 21
-83.0809300738
 31
0.0
  0
LINE
  5
7D
330
1F
100
AcDbEntity
  8
0
  6
Continuous
 62
     7
370
    25
100
AcDbLine
 10
-51.238523248
 20
-83.0809300738
 30
0.0
 11
-51.238523248
 21
-78.28093007380001
 31
0.0
  0
LINE
  5
7E
330
1F
100
AcDbEntity
  8
0
  6
Continuous
 62
     7
370
    25
100
AcDbLine
 10
-41.98852324799999
 20
-86.54553205370001
 30
0.0
 11
-41.98852324799999
 21
-85.64990895380001
 31
0.0
  0
LINE
  5
7F
330
1F
100
AcDbEntity
  8
0
  6
Continuous
 62
     7
370
    25
100
AcDbLine
 10
-95.98852324799999
 20
-85.64990895380001
 30
0.0
 11
-95.98852324799999
 21
-86.54553205370001
 31
0.0
  0
LINE
  5
80
330
1F
100
AcDbEntity
  8
0
  6
Continuous
 62
     7
370
    25
100
AcDbLine
 10
-41.98852324799999
 20
-85.5809300738
 30
0.0
 11
-41.98852324799999
 21
-83.0809300738
 31
0.0
  0
LINE
  5
81
330
1F
100
AcDbEntity
  8
0
  6
Continuous
 62
     7
370
    25
100
AcDbLine
 10
-95.98852324799999
 20
-83.0809300738
 30
0.0
 11
-95.98852324799999
 21
-85.5809300738
 31
0.0
  0
LINE
  5
82
330
1F
100
AcDbEntity
  8
0
  6
Continuous
 62
     7
370
    25
100
AcDbLine
 10
-68.9785965424
 20
-45.5809300738
 30
0.0
 11
-68.98517562800001
 21
-45.5809300738
 31
0.0
  0
LINE
  5
83
330
1F
100
AcDbEntity
  8
0
  6
Continuous
 62
     7
370
    25
100
AcDbLine
 10
-68.98517562800001
 20
-53.58093007379999
 30
0.0
 11
-68.9785965424
 21
-53.58093007379999
 31
0.0
  0
LINE
  5
84
330
1F
100
AcDbEntity
  8
0
  6
Continuous
 62
     7
370
    25
100
AcDbLine
 10
80.536214556
 20
13.6500910462
 30
0.0
 11
80.536214556
 21
33.2500910462
 31
0.0
  0
LINE
  5
85
330
1F
100
AcDbEntity
  8
0
  6
Continuous
 62
     7
370
    25
100
AcDbLine
 10
61.486214556
 20
33.2500910462
 30
0.0
 11
61.486214556
 21
13.6500910462
 31
0.0
  0
ARC
  5
86
330
1F
100
AcDbEntity
  8
0
  6
Continuous
 62
     7
370
    25
100
AcDbCircle
 10
41.0112502689
 20
53.9501095808
 30
0.0
 40
20.49998146547387
100
AcDbArc
 50
359.9999481975
 51
89.99994819740001
  0
ARC
  5
87
330
1F
100
AcDbEntity
  8
0
  6
Continuous
 62
     7
370
    25
100
AcDbCircle
 10
41.01123231299999
 20
53.9501259816
 30
0.0
 40
39.49996506464116
100
AcDbArc
 50
359.9999493253
 51
89.9999470696
  0
LINE
  5
88
330
1F
100
AcDbEntity
  8
0
  6
Continuous
 62
     7
370
    25
100
AcDbLine
 10
80.511214556
 20
33.4500910462
 30
0.0
 11
70.9931483269
 21
33.4500910462
 31
0.0
  0
LINE
  5
89
330
1F
100
AcDbEntity
  8
0
  6
Continuous
 62
     7
370
    25
100
AcDbLine
 10
70.9931483269
 20
33.4500910462
 30
0.0
 11
61.51121455600001
 21
33.4500910462
 31
0.0
  0
LINE
  5
8A
330
1F
100
AcDbEntity
  8
0
  6
Continuous
 62
     7
370
    25
100
AcDbLine
 10
-4.8072454324
 20
74.4500910462
 30
0.0
 11
41.01126880339999
 21
74.4500910462
 31
0.0
  0
LINE
  5
8B
330
1F
100
AcDbEntity
  8
0
  6
Continuous
 62
     7
370
    25
100
AcDbLine
 10
-4.8072454324
 20
93.45009104620002
 30
0.0
 11
41.01126880339999
 21
93.45009104620002
 31
0.0
  0
LINE
  5
8C
330
1F
100
AcDbEntity
  8
0
  6
Continuous
 62
     7
370
    25
100
AcDbLine
 10
-38.9885774954
 20
74.4500910462
 30
0.0
 11
-4.8072454324
 21
74.4500910462
 31
0.0
  0
LINE
  5
8D
330
1F
100
AcDbEntity
  8
0
  6
Continuous
 62
     7
370
    25
100
AcDbLine
 10
-38.9885774954
 20
93.45009104620002
 30
0.0
 11
-4.8072454324
 21
93.45009104620002
 31
0.0
  0
ARC
  5
8E
330
1F
100
AcDbEntity
  8
0
  6
Continuous
 62
     7
370
    25
100
AcDbCircle
 10
-38.9885589609
 20
53.9501095808
 30
0.0
 40
20.49998146547377
100
AcDbArc
 50
90.0000518026
 51
180.0000518025
  0
ARC
  5
8F
330
1F
100
AcDbEntity
  8
0
  6
Continuous
 62
     7
370
    25
100
AcDbCircle
 10
-38.98854256
 20
53.9501275366
 30
0.0
 40
39.49996350962339
100
AcDbArc
 50
90.0000506748
 51
180.0000529303
  0
LINE
  5
90
330
1F
100
AcDbEntity
  8
0
  6
Continuous
 62
     7
370
    25
100
AcDbLine
 10
-41.98852324799999
 20
-85.64990895380001
 30
0.0
 11
-95.6177312656
 21
-85.64990895380001
 31
0.0
  0
LINE
  5
91
330
1F
100
AcDbEntity
  8
0
  6
Continuous
 62
     7
370
    25
100
AcDbLine
 10
-95.6177312656
 20
-85.64990895380001
 30
0.0
 11
-95.98852324799999
 21
-85.64990895380001
 31
0.0
  0
LINE
  5
92
330
1F
100
AcDbEntity
  8
0
  6
Continuous
 62
     7
370
    25
100
AcDbLine
 10
-41.98852324799999
 20
-86.54553205370001
 30
0.0
 11
-91.71577517979999
 21
-86.54553205370001
 31
0.0
  0
LINE
  5
93
330
1F
100
AcDbEntity
  8
0
  6
Continuous
 62
     7
370
    25
100
AcDbLine
 10
-91.71577517979999
 20
-86.54553205370001
 30
0.0
 11
-95.98852324799999
 21
-86.54553205370001
 31
0.0
  0
LINE
  5
94
330
1F
100
AcDbEntity
  8
0
  6
Continuous
 62
     7
370
    25
100
AcDbLine
 10
-41.98852324799999
 20
-85.5809300738
 30
0.0
 11
-95.6177312656
 21
-85.5809300738
 31
0.0
  0
LINE
  5
95
330
1F
100
AcDbEntity
  8
0
  6
Continuous
 62
     7
370
    25
100
AcDbLine
 10
-41.98852324799999
 20
-83.0809300738
 30
0.0
 11
-95.6177312656
 21
-83.0809300738
 31
0.0
  0
LINE
  5
96
330
1F
100
AcDbEntity
  8
0
  6
Continuous
 62
     7
370
    25
100
AcDbLine
 10
-95.6177312656
 20
-83.0809300738
 30
0.0
 11
-95.98852324799999
 21
-83.0809300738
 31
0.0
  0
LINE
  5
97
330
1F
100
AcDbEntity
  8
0
  6
Continuous
 62
     7
370
    25
100
AcDbLine
 10
-95.6177312656
 20
-85.5809300738
 30
0.0
 11
-95.98852324799999
 21
-85.5809300738
 31
0.0
  0
ARC
  5
98
330
1F
100
AcDbEntity
  8
0
  6
Continuous
 62
     7
370
    25
100
AcDbCircle
 10
-68.9785965475
 20
-49.58093006649999
 30
0.0
 40
3.999999963215698
100
AcDbArc
 50
34.8224327148
 51
214.8224329687
  0
ARC
  5
99
330
1F
100
AcDbEntity
  8
0
  6
Continuous
 62
     7
370
    25
100
AcDbCircle
 10
-68.97859653729999
 20
-49.5809300811
 30
0.0
 40
3.999999963215689
100
AcDbArc
 50
214.8224327148
 51
34.8224329687
  0
ARC
  5
9A
330
1F
100
AcDbEntity
  8
0
  6
Continuous
 62
     7
370
    25
100
AcDbCircle
 10
-68.9851755828
 20
-49.58093007399999
 30
0.0
 40
4.000000000196874
100
AcDbArc
 50
90.0000006477
 51
214.8224324699
  0
ARC
  5
9B
330
1F
100
AcDbEntity
  8
0
  6
Continuous
 62
     7
370
    25
100
AcDbCircle
 10
-68.9851756214
 20
-49.5809301469
 30
0.0
 40
3.999999926892991
100
AcDbArc
 50
214.8224319281
 51
269.9999999058
  0
LINE
  5
9C
330
1F
100
AcDbEntity
  8
0
  6
Continuous
 62
     7
370
    25
100
AcDbLine
 10
-48.9885235209
 20
-78.28093007380001
 30
0.0
 11
-88.9885229751
 21
-78.28093007380001
 31
0.0
  0
LINE
  5
9D
330
1F
100
AcDbEntity
  8
0
  6
Continuous
 62
     7
370
    25
100
AcDbLine
 10
-88.9885229751
 20
-40.5809300738
 30
0.0
 11
-88.9885229751
 21
-78.28093007380001
 31
0.0
  0
LINE
  5
9E
330
1F
100
AcDbEntity
  8
0
  6
Continuous
 62
     7
370
    25
100
AcDbLine
 10
-48.9885235209
 20
-40.5809300738
 30
0.0
 11
-88.9885229751
 21
-40.5809300738
 31
0.0
  0
LINE
  5
9F
330
1F
100
AcDbEntity
  8
0
  6
Continuous
 62
     7
370
    25
100
AcDbLine
 10
-48.9885235209
 20
-40.5809300738
 30
0.0
 11
-48.9885235209
 21
-78.28093007380001
 31
0.0
  0
SPLINE
  5
A0
330
1F
100
AcDbEntity
  8
0
  6
Continuous
 62
     7
370
    25
100
AcDbSpline
210
0.0
220
0.0
230
1.0
 70
     8
 71
     3
 72
    13
 73
     9
 74
     0
 42
0.00000001
 43
0.0000000001
 40
0.0
 40
0.0
 40
0.0
 40
0.0
 40
0.1213845381558287
 40
0.3052681020654366
 40
0.4782215778967024
 40
0.6511831378875368
 40
0.8350730671721986
 40
1.0
 40
1.0
 40
1.0
 40
1.0
 10
-70.95149060006325
 20
-53.02795310295906
 30
0.0
 10
-70.81108813828308
 20
-53.1389770175968
 30
0.0
 10
-70.45799215353811
 20
-53.41818934743923
 30
0.0
 10
-69.76062924451388
 20
-53.5933141477538
 30
0.0
 10
-68.9865407975179
 20
-53.68572463136815
 30
0.0
 10
-68.21063437782585
 20
-53.59560156909006
 30
0.0
 10
-67.45508664292106
 20
-53.39537769201228
 30
0.0
 10
-67.05412621026022
 20
-53.07174784733969
 30
0.0
 10
-66.86454485245666
 20
-52.91872979273604
 30
0.0
  0
SPLINE
  5
A1
330
1F
100
AcDbEntity
  8
0
  6
Continuous
 62
     7
370
    25
100
AcDbSpline
210
0.0
220
0.0
230
1.0
 70
     8
 71
     3
 72
    15
 73
    11
 74
     0
 42
0.00000001
 43
0.0000000001
 40
0.0
 40
0.0
 40
0.0
 40
0.0
 40
0.0916663530733923
 40
0.233686346364899
 40
0.3672331439257505
 40
0.501023992636222
 40
0.6432462168175605
 40
0.7814307292675198
 40
0.9196904674114419
 40
1.0
 40
1.0
 40
1.0
 40
1.0
 10
-67.02686746667307
 20
-46.12838311302663
 30
0.0
 10
-67.16403326415896
 20
-46.01985114785718
 30
0.0
 10
-67.51371199562377
 20
-45.74316905509468
 30
0.0
 10
-68.20743240099389
 20
-45.56884012245943
 30
0.0
 10
-68.98012918079114
 20
-45.47768896784864
 30
0.0
 10
-69.76123896329088
 20
-45.55955103757066
 30
0.0
 10
-70.51935666813981
 20
-45.79553764111287
 30
0.0
 10
-71.20330766204976
 20
-46.19706123631932
 30
0.0
 10
-71.75374826075337
 20
-46.61478868484279
 30
0.0
 10
-71.95952225949551
 20
-46.97735016499172
 30
0.0
 10
-72.03513038868256
 20
-47.1105671671247
 30
0.0
  0
LINE
  5
A2
330
1F
100
AcDbEntity
  8
0
  6
Continuous
 62
     7
370
    25
100
AcDbLine
 10
80.536214556
 20
13.6500910462
 30
0.0
 11
62.181778287
 21
13.6500910462
 31
0.0
  0
LINE
  5
A3
330
1F
100
AcDbEntity
  8
0
  6
Continuous
 62
     7
370
    25
100
AcDbLine
 10
80.536214556
 20
33.2500910462
 30
0.0
 11
62.181778287
 21
33.2500910462
 31
0.0
  0
LINE
  5
A4
330
1F
100
AcDbEntity
  8
0
  6
Continuous
 62
     7
370
    25
100
AcDbLine
 10
62.181778287
 20
13.6500910462
 30
0.0
 11
61.486214556
 21
13.6500910462
 31
0.0
  0
LINE
  5
A5
330
1F
100
AcDbEntity
  8
0
  6
Continuous
 62
     7
370
    25
100
AcDbLine
 10
62.181778287
 20
33.2500910462
 30
0.0
 11
61.486214556
 21
33.2500910462
 31
0.0
  0
LINE
  5
A6
330
1F
100
AcDbEntity
  8
0
  6
CENTERX2
 62
     7
370
    18
100
AcDbLine
 10
61.486214556
 20
13.6500910462
 30
0.0
 11
71.011214556
 21
13.6500910462
 31
0.0
  0
LINE
  5
A7
330
1F
100
AcDbEntity
  8
0
  6
CENTERX2
 62
     7
370
    18
100
AcDbLine
 10
71.011214556
 20
13.6500910462
 30
0.0
 11
80.536214556
 21
13.6500910462
 31
0.0
  0
LINE
  5
A8
330
1F
100
AcDbEntity
  8
0
  6
CENTERX2
 62
     7
370
    18
100
AcDbLine
 10
-95.98852324799999
 20
-86.54553205370001
 30
0.0
 11
-68.988523248
 21
-86.54553205370001
 31
0.0
  0
LINE
  5
A9
330
1F
100
AcDbEntity
  8
0
  6
CENTERX2
 62
     7
370
    18
100
AcDbLine
 10
-68.988523248
 20
-86.54553205370001
 30
0.0
 11
-41.98852324799999
 21
-86.54553205370001
 31
0.0
  0
DIMENSION
  5
AA
102
{ACAD_XDICTIONARY
360
237
102
}
330
1F
100
AcDbEntity
  8
DIMENSION
100
AcDbDimension
280
     0
  2
*D13
 10
71.01121455599998
 20
-108.5455320537
 30
0.0
 11
-4.6765214413
 21
-108.5455320537
 31
0.0
 70
   160
  1
<>
 71
     2
 42
139.999737804
 73
     0
 74
     0
 75
     0
  3
RG Dimension Lines
100
AcDbAlignedDimension
 13
-68.988523248
 23
-86.54553205370001
 33
0.0
 14
71.011214556
 24
13.6500910462
 34
0.0
100
AcDbRotatedDimension
1001
AcadAnnotative
1000
AnnotativeData
1002
{
1070
     1
1070
     1
1002
}
  0
DIMENSION
  5
B7
102
{ACAD_XDICTIONARY
360
229
102
}
330
1F
100
AcDbEntity
  8
DIMENSION
100
AcDbDimension
280
     0
  2
*D12
 10
96.53621455600003
 20
13.65009104620001
 30
0.0
 11
96.53621455600001
 21
-36.4234157893
 31
0.0
 70
   160
  1
<>
 71
     2
 42
100.1956230999
 73
     0
 74
     0
 75
     0
  3
RG Dimension Lines
100
AcDbAlignedDimension
 13
-41.98852324799999
 23
-86.54553205370001
 33
0.0
 14
80.536214556
 24
13.6500910462
 34
0.0
 50
90.0
100
AcDbRotatedDimension
1001
AcadAnnotative
1000
AnnotativeData
1002
{
1070
     1
1070
     1
1002
}
  0
DIMENSION
  5
BF
102
{ACAD_XDICTIONARY
360
245
102
}
330
1F
100
AcDbEntity
  8
DIMENSION
100
AcDbDimension
280
     0
  2
*D14
 10
-120.7279881838
 20
-86.54553205370005
 30
0.0
 11
-120.7279881838
 21
2.343111788999999
 31
0.0
 70
   160
  1
<>
 71
     2
 42
179.9956230999
 73
     0
 74
     0
 75
     0
  3
RG Dimension Lines
100
AcDbAlignedDimension
 13
-38.9885774954
 23
93.45009104620002
 33
0.0
 14
-95.98852324799999
 24
-86.54553205370001
 34
0.0
 50
90.0
100
AcDbRotatedDimension
1001
AcadAnnotative
1000
AnnotativeData
1002
{
1070
     1
1070
     1
1002
}
  0
SPLINE
  5
C7
330
1F
100
AcDbEntity
  8
0
  6
Continuous
 62
     7
370
    25
100
AcDbSpline
210
0.0
220
0.0
230
1.0
 70
     8
 71
     3
 72
    24
 73
    20
 74
     0
 42
0.00000001
 43
0.0000000001
 40
0.0
 40
0.0
 40
0.0
 40
0.0
 40
0.0339452096936673
 40
0.0985120774140802
 40
0.1630957656695875
 40
0.2276771497749647
 40
0.2922547917748072
 40
0.3568268540195221
 40
0.4213908021277157
 40
0.4859429293335616
 40
0.5504775003306972
 40
0.614985100939053
 40
0.6794492033920573
 40
0.7438383258132168
 40
0.8080859168984082
 40
0.8720301853014504
 40
0.9351923260833267
 40
0.9806536838718979
 40
1.0
 40
1.0
 40
1.0
 40
1.0
 10
361.7995830381597
 20
53.95009104624909
 30
0.0
 10
361.7995976100857
 20
54.45383362114556
 30
0.0
 10
361.7996398991368
 20
55.91574026372621
 30
0.0
 10
361.80011017284
 20
58.32822379439526
 30
0.0
 10
361.80116162906
 20
61.15311402892546
 30
0.0
 10
361.8027299509525
 20
63.91196313561645
 30
0.0
 10
361.8047914514579
 20
66.57888599885561
 30
0.0
 10
361.8073293171744
 20
69.12928596898201
 30
0.0
 10
361.8103191269687
 20
71.53955772292936
 30
0.0
 10
361.8137329232973
 20
73.7873589112252
 30
0.0
 10
361.8175379818462
 20
75.85175917655246
 30
0.0
 10
361.8216979766945
 20
77.71343447664614
 30
0.0
 10
361.8261687770119
 20
79.35458438881631
 30
0.0
 10
361.8309102909949
 20
80.75951912373227
 30
0.0
 10
361.8358308750377
 20
81.91202126004077
 30
0.0
 10
361.8409551042154
 20
82.80275603176642
 30
0.0
 10
361.8452787304108
 20
83.34616531368268
 30
0.0
 10
361.8489186880262
 20
83.60608061289198
 30
0.0
 10
361.8491248606794
 20
83.61529201488709
 30
0.0
 10
361.8491864071149
 20
83.6180417925633
 30
0.0
  0
SPLINE
  5
C8
330
1F
100
AcDbEntity
  8
0
  6
Continuous
 62
     7
370
    25
100
AcDbSpline
210
0.0
220
0.0
230
1.0
 70
     8
 71
     3
 72
    30
 73
    26
 74
     0
 42
0.00000001
 43
0.0000000001
 40
0.0
 40
0.0
 40
0.0
 40
0.0
 40
0.0109610241034631
 40
0.0220537786914851
 40
0.030300361824574
 40
0.0370823044919587
 40
0.0457580562640482
 40
0.060363839353668
 40
0.0844885813340631
 40
0.1389424376888656
 40
0.1977775874642735
 40
0.2601215740484782
 40
0.3209739953922517
 40
0.3813780606506412
 40
0.4416031525948688
 40
0.50174147390171
 40
0.5618323920480925
 40
0.6218952108419528
 40
0.6819403866177671
 40
0.7419740434499309
 40
0.8020000139841066
 40
0.8620208488583212
 40
0.922038355495828
 40
0.9820539073491923
 40
1.0
 40
1.0
 40
1.0
 40
1.0
 10
343.0778727465963
 20
85.96272633543817
 30
0.0
 10
343.041325537213
 20
85.7927425669431
 30
0.0
 10
342.9677918910936
 20
85.45073215111429
 30
0.0
 10
342.9103083666753
 20
84.98660472015933
 30
0.0
 10
342.8800110476247
 20
84.64243807664677
 30
0.0
 10
342.8671166842537
 20
84.42694148543345
 30
0.0
 10
342.859582264501
 20
84.25570922016595
 30
0.0
 10
342.8549053514295
 20
84.09640857495457
 30
0.0
 10
342.8502894139709
 20
83.8680346193024
 30
0.0
 10
342.8458382831835
 20
83.49417272850581
 30
0.0
 10
342.8404157662356
 20
82.7941412989888
 30
0.0
 10
342.8351365618584
 20
81.81303856440358
 30
0.0
 10
342.8300360524033
 20
80.56091552938932
 30
0.0
 10
342.8252644885372
 20
79.07739779072662
 30
0.0
 10
342.8208086867864
 20
77.36839883524726
 30
0.0
 10
342.8166960396878
 20
75.44711472107373
 30
0.0
 10
342.8129576449023
 20
73.33005726842255
 30
0.0
 10
342.8096250230825
 20
71.03607858197894
 30
0.0
 10
342.8067272280748
 20
68.58589536218338
 30
0.0
 10
342.8042898900585
 20
66.0017820977949
 30
0.0
 10
342.8023353130605
 20
63.30733758637085
 30
0.0
 10
342.8008794943732
 20
60.52713851555483
 30
0.0
 10
342.7999417343991
 20
57.68687460841734
 30
0.0
 10
342.7996091087223
 20
55.48348641649309
 30
0.0
 10
342.799587916439
 20
54.23701737983865
 30
0.0
 10
342.7995830381597
 20
53.9500910462495
 30
0.0
  0
SPLINE
  5
C9
330
1F
100
AcDbEntity
  8
0
  6
Continuous
 62
     7
370
    25
100
AcDbSpline
210
0.0
220
0.0
230
1.0
 70
     8
 71
     3
 72
    28
 73
    24
 74
     0
 42
0.00000001
 43
0.0000000001
 40
0.0
 40
0.0
 40
0.0
 40
0.0
 40
0.0316179500138349
 40
0.0917585958203649
 40
0.1519166175119716
 40
0.2120764335358045
 40
0.2722392776885721
 40
0.3324067207779079
 40
0.3925808871495494
 40
0.4527648312423865
 40
0.512963203659203
 40
0.5731835143816442
 40
0.6334387192290534
 40
0.6937530289458648
 40
0.7541766085927816
 40
0.8148294124060734
 40
0.87606899666798
 40
0.9395315133161115
 40
0.9581700924702028
 40
0.9686558054899771
 40
0.9775198122651952
 40
0.9888752972861563
 40
1.0
 40
1.0
 40
1.0
 40
1.0
 10
362.0753307451388
 20
53.95009104624934
 30
0.0
 10
362.0753161556148
 20
54.4544410261394
 30
0.0
 10
362.0752738152914
 20
55.91811738518521
 30
0.0
 10
362.0748029639612
 20
58.33356962821967
 30
0.0
 10
362.0737501434177
 20
61.16212418414108
 30
0.0
 10
362.0721795694596
 20
63.92491108869025
 30
0.0
 10
362.0701146358082
 20
66.59620143884996
 30
0.0
 10
362.0675716698086
 20
69.15158194571191
 30
0.0
 10
362.0645742870804
 20
71.56767783679959
 30
0.0
 10
362.0611493068933
 20
73.82244731866894
 30
0.0
 10
362.0573269745271
 20
75.89540022815143
 30
0.0
 10
362.0531415265598
 20
77.76780253627726
 30
0.0
 10
362.0486246464805
 20
79.42306102015971
 30
0.0
 10
362.0438238587522
 20
80.84659561501789
 30
0.0
 10
362.0387195148397
 20
82.02819969969906
 30
0.0
 10
362.033495155636
 20
82.95694091222912
 30
0.0
 10
362.0273480440737
 20
83.65214860680442
 30
0.0
 10
362.0235623445453
 20
83.96957151501728
 30
0.0
 10
362.0153954403638
 20
84.25726050354667
 30
0.0
 10
362.0045609046348
 20
84.50067870017416
 30
0.0
 10
361.9775825315666
 20
84.86069480830789
 30
0.0
 10
361.9247132301182
 20
85.33510918465777
 30
0.0
 10
361.8555214126812
 20
85.68283849598593
 30
0.0
 10
361.8212806666388
 20
85.85491825168238
 30
0.0
  0
LINE
  5
CA
330
1F
100
AcDbEntity
  8
0
  6
Continuous
 62
     7
370
    25
100
AcDbLine
 10
325.5753307450919
 20
-83.14990895380001
 30
0.0
 11
325.5753307450919
 21
-85.64990895380001
 31
0.0
  0
LINE
  5
CB
330
1F
100
AcDbEntity
  8
DIMENSION
100
AcDbLine
 10
379.5753307450919
 20
-85.64990895380001
 30
0.0
 11
379.5753307450919
 21
-83.14990895380001
 31
0.0
  0
LINE
  5
CC
330
1F
100
AcDbEntity
  8
0
  6
Continuous
 62
     7
370
    25
100
AcDbLine
 10
246.5753307451919
 20
-83.0809300738
 30
0.0
 11
246.5753307451919
 21
-78.28093007380001
 31
0.0
  0
LINE
  5
CD
330
1F
100
AcDbEntity
  8
0
  6
Continuous
 62
     7
370
    25
100
AcDbLine
 10
211.0753307451919
 20
-78.28093007380001
 30
0.0
 11
211.0753307451919
 21
-83.0809300738
 31
0.0
  0
LINE
  5
CE
330
1F
100
AcDbEntity
  8
DIMENSION
100
AcDbLine
 10
451.8753307451919
 20
-84.0455320537
 30
0.0
 11
451.8753307451919
 21
-86.54553205370001
 31
0.0
  0
LINE
  5
CF
330
1F
100
AcDbEntity
  8
0
  6
Continuous
 62
     7
370
    25
100
AcDbLine
 10
505.8753307451919
 20
-86.54553205370001
 30
0.0
 11
505.8753307451919
 21
-84.0455320537
 31
0.0
  0
LINE
  5
D0
330
1F
100
AcDbEntity
  8
0
  6
Continuous
 62
     7
370
    25
100
AcDbLine
 10
201.8253307451919
 20
-83.0809300738
 30
0.0
 11
201.8253307451919
 21
-85.5809300738
 31
0.0
  0
LINE
  5
D1
330
1F
100
AcDbEntity
  8
0
  6
Continuous
 62
     7
370
    25
100
AcDbLine
 10
255.8253307451919
 20
-85.5809300738
 30
0.0
 11
255.8253307451919
 21
-83.0809300738
 31
0.0
  0
LINE
  5
D2
330
1F
100
AcDbEntity
  8
0
  6
Continuous
 62
     7
370
    25
100
AcDbLine
 10
168.7366607517919
 20
-53.58093007379999
 30
0.0
 11
208.5614043199919
 21
-53.58093007379999
 31
0.0
  0
LINE
  5
D3
330
1F
100
AcDbEntity
  8
0
  6
Continuous
 62
     7
370
    25
100
AcDbLine
 10
208.5614043491919
 20
-53.58093006989999
 30
0.0
 11
208.8539462806919
 21
-53.50254369449999
 31
0.0
  0
LINE
  5
D4
330
1F
100
AcDbEntity
  8
0
  6
Continuous
 62
     7
370
    25
100
AcDbLine
 10
208.5614043199919
 20
-45.5809300738
 30
0.0
 11
168.7366607517919
 21
-45.5809300738
 31
0.0
  0
LINE
  5
D5
330
1F
100
AcDbEntity
  8
0
  6
Continuous
 62
     7
370
    25
100
AcDbLine
 10
208.8539483329919
 20
-45.65931700310001
 30
0.0
 11
208.5614043491919
 21
-45.5809300777
 31
0.0
  0
LINE
  5
D6
330
1F
100
AcDbEntity
  8
0
  6
Continuous
 62
     7
370
    25
100
AcDbLine
 10
498.8450731565919
 20
-54.7259674463
 30
0.0
 11
499.0501725082919
 21
-54.7809247449
 31
0.0
  0
LINE
  5
D7
330
1F
100
AcDbEntity
  8
0
  6
Continuous
 62
     7
370
    25
100
AcDbLine
 10
499.0502122828918
 20
-54.7809300738
 30
0.0
 11
538.8742174488918
 21
-54.7809300738
 31
0.0
  0
LINE
  5
D8
330
1F
100
AcDbEntity
  8
0
  6
Continuous
 62
     7
370
    25
100
AcDbLine
 10
538.8742174488918
 20
-46.7809300738
 30
0.0
 11
499.0502122828918
 21
-46.7809300738
 31
0.0
  0
LINE
  5
D9
330
1F
100
AcDbEntity
  8
0
  6
Continuous
 62
     7
370
    25
100
AcDbLine
 10
499.0501725082919
 20
-46.7809354027
 30
0.0
 11
498.8450818107919
 21
-46.83589038229999
 31
0.0
  0
LINE
  5
DA
330
1F
100
AcDbEntity
  8
0
  6
Continuous
 62
     7
370
    25
100
AcDbLine
 10
496.6253307451919
 20
-84.0455320537
 30
0.0
 11
496.6253307451919
 21
-78.28093007380001
 31
0.0
  0
LINE
  5
DB
330
1F
100
AcDbEntity
  8
DIMENSION
100
AcDbLine
 10
461.1253307451918
 20
-78.28093007380001
 30
0.0
 11
461.1253307451918
 21
-84.0455320537
 31
0.0
  0
LINE
  5
DC
330
1F
100
AcDbEntity
  8
0
  6
Continuous
 62
     7
370
    25
100
AcDbLine
 10
498.8753307451919
 20
-46.71793129810001
 30
0.0
 11
498.8753307451919
 21
-41.7809300738
 31
0.0
  0
LINE
  5
DD
330
1F
100
AcDbEntity
  8
0
  6
Continuous
 62
     7
370
    25
100
AcDbLine
 10
498.8753307451919
 20
-78.28093007380001
 30
0.0
 11
498.8753307451919
 21
-54.8435566204
 31
0.0
  0
LINE
  5
DE
330
1F
100
AcDbEntity
  8
DIMENSION
100
AcDbLine
 10
458.8753307451918
 20
-41.7809300738
 30
0.0
 11
458.8753307451918
 21
-78.28093007380001
 31
0.0
  0
LINE
  5
DF
330
1F
100
AcDbEntity
  8
0
  6
Continuous
 62
     7
370
    25
100
AcDbLine
 10
208.8253307451919
 20
-53.65570053529999
 30
0.0
 11
208.8253307451919
 21
-78.28093007380001
 31
0.0
  0
LINE
  5
E0
330
1F
100
AcDbEntity
  8
0
  6
Continuous
 62
     7
370
    25
100
AcDbLine
 10
208.8253307451919
 20
-40.5809300738
 30
0.0
 11
208.8253307451919
 21
-45.50668682709999
 31
0.0
  0
LINE
  5
E1
330
1F
100
AcDbEntity
  8
0
  6
Continuous
 62
     7
370
    25
100
AcDbLine
 10
248.8253307451919
 20
-78.28093007380001
 30
0.0
 11
248.8253307451919
 21
-40.5809300738
 31
0.0
  0
LINE
  5
E2
330
1F
100
AcDbEntity
  8
0
  6
Continuous
 62
     7
370
    25
100
AcDbLine
 10
342.7745830381919
 20
33.2500910462
 30
0.0
 11
342.7745830381919
 21
13.6500910462
 31
0.0
  0
LINE
  5
E3
330
1F
100
AcDbEntity
  8
0
  6
Continuous
 62
     7
370
    25
100
AcDbLine
 10
361.8245830381919
 20
13.6500910462
 30
0.0
 11
361.8245830381919
 21
33.2500910462
 31
0.0
  0
LINE
  5
E4
330
1F
100
AcDbEntity
  8
0
  6
Continuous
 62
     7
370
    25
100
AcDbLine
 10
342.7996002164919
 20
53.9500910462
 30
0.0
 11
342.7996002164919
 21
33.4500910462
 31
0.0
  0
LINE
  5
E5
330
1F
100
AcDbEntity
  8
0
  6
Continuous
 62
     7
370
    25
100
AcDbLine
 10
361.7995658597919
 20
53.9500910462
 30
0.0
 11
361.7995658597919
 21
33.4500910462
 31
0.0
  0
LINE
  5
E6
330
1F
100
AcDbEntity
  8
0
  6
Continuous
 62
     7
370
    25
100
AcDbLine
 10
361.7995658597919
 20
33.4500910462
 30
0.0
 11
342.7996002164919
 21
33.4500910462
 31
0.0
  0
ARC
  5
E7
330
1F
100
AcDbEntity
  8
0
  6
Continuous
 62
     7
370
    25
100
AcDbCircle
 10
352.3566411142919
 20
83.95010339779998
 30
0.0
 40
9.499987648442933
100
AcDbArc
 50
90.00004117090005
 51
167.7787693398
  0
LINE
  5
E8
330
1F
100
AcDbEntity
  8
0
  6
Continuous
 62
     7
370
    25
100
AcDbLine
 10
352.4437678953919
 20
93.45009104620002
 30
0.0
 11
352.3566342878919
 21
93.45009104620002
 31
0.0
  0
LINE
  5
E9
330
1F
100
AcDbEntity
  8
0
  6
Continuous
 62
     7
370
    25
100
AcDbLine
 10
352.5182794953919
 20
93.45009104620002
 30
0.0
 11
352.4532764541919
 21
93.45009104620002
 31
0.0
  0
ARC
  5
EA
330
1F
100
AcDbEntity
  8
0
  6
Continuous
 62
     7
370
    25
100
AcDbCircle
 10
352.5182726026919
 20
83.9501032245
 30
0.0
 40
9.499987821715443
100
AcDbArc
 50
11.57971272989997
 51
89.99995842870019
  0
LINE
  5
EB
330
1F
100
AcDbEntity
  8
0
  6
Continuous
 62
     7
370
    25
100
AcDbLine
 10
343.0753479234919
 20
33.4500910462
 30
0.0
 11
343.0753479234919
 21
33.2500910462
 31
0.0
  0
LINE
  5
EC
330
1F
100
AcDbEntity
  8
0
  6
Continuous
 62
     7
370
    25
100
AcDbLine
 10
343.0753479234919
 20
13.6500910462
 30
0.0
 11
343.0753479234919
 21
-77.14990895380001
 31
0.0
  0
LINE
  5
ED
330
1F
100
AcDbEntity
  8
0
  6
Continuous
 62
     7
370
    25
100
AcDbLine
 10
362.0753135667919
 20
53.9500910462
 30
0.0
 11
362.0753135667919
 21
-77.14990895380001
 31
0.0
  0
LINE
  5
EE
330
1F
100
AcDbEntity
  8
0
  6
Continuous
 62
     7
370
    25
100
AcDbLine
 10
332.5753669100919
 20
-77.14990895380001
 30
0.0
 11
332.5753669100919
 21
-83.14990895380001
 31
0.0
  0
LINE
  5
EF
330
1F
100
AcDbEntity
  8
DIMENSION
100
AcDbLine
 10
372.5752945801919
 20
-77.14990895380001
 30
0.0
 11
372.5752945801919
 21
-83.14990895380001
 31
0.0
  0
LINE
  5
F0
330
1F
100
AcDbEntity
  8
0
  6
Continuous
 62
     7
370
    25
100
AcDbLine
 10
372.5752945801919
 20
-77.14990895380001
 30
0.0
 11
332.5753669100919
 21
-77.14990895380001
 31
0.0
  0
LINE
  5
F1
330
1F
100
AcDbEntity
  8
0
  6
Continuous
 62
     7
370
    25
100
AcDbLine
 10
357.0346222082918
 20
-83.14990895380001
 30
0.0
 11
325.5753307450919
 21
-83.14990895380001
 31
0.0
  0
LINE
  5
F2
330
1F
100
AcDbEntity
  8
0
  6
Continuous
 62
     7
370
    25
100
AcDbLine
 10
357.0346222082918
 20
-85.64990895380001
 30
0.0
 11
325.5753307450919
 21
-85.64990895380001
 31
0.0
  0
LINE
  5
F3
330
1F
100
AcDbEntity
  8
DIMENSION
100
AcDbLine
 10
379.5753307450919
 20
-83.14990895380001
 30
0.0
 11
357.0346222082918
 21
-83.14990895380001
 31
0.0
  0
LINE
  5
F4
330
1F
100
AcDbEntity
  8
DIMENSION
100
AcDbLine
 10
379.5753307450919
 20
-85.64990895380001
 30
0.0
 11
357.0346222082918
 21
-85.64990895380001
 31
0.0
  0
LINE
  5
F5
330
1F
100
AcDbEntity
  8
DIMENSION
100
AcDbLine
 10
493.4517507318918
 20
-86.54553205370001
 30
0.0
 11
451.8753307451919
 21
-86.54553205370001
 31
0.0
  0
LINE
  5
F6
330
1F
100
AcDbEntity
  8
DIMENSION
100
AcDbLine
 10
493.4517507318918
 20
-84.0455320537
 30
0.0
 11
451.8753307451919
 21
-84.0455320537
 31
0.0
  0
LINE
  5
F7
330
1F
100
AcDbEntity
  8
0
  6
Continuous
 62
     7
370
    25
100
AcDbLine
 10
505.8753307451919
 20
-84.0455320537
 30
0.0
 11
493.4517507318918
 21
-84.0455320537
 31
0.0
  0
LINE
  5
F8
330
1F
100
AcDbEntity
  8
0
  6
Continuous
 62
     7
370
    25
100
AcDbLine
 10
505.8753307451919
 20
-86.54553205370001
 30
0.0
 11
493.4517507318918
 21
-86.54553205370001
 31
0.0
  0
LINE
  5
F9
330
1F
100
AcDbEntity
  8
0
  6
Continuous
 62
     7
370
    25
100
AcDbLine
 10
233.2846222083919
 20
-85.5809300738
 30
0.0
 11
201.8253307451919
 21
-85.5809300738
 31
0.0
  0
LINE
  5
FA
330
1F
100
AcDbEntity
  8
0
  6
Continuous
 62
     7
370
    25
100
AcDbLine
 10
233.2846222083919
 20
-83.0809300738
 30
0.0
 11
201.8253307451919
 21
-83.0809300738
 31
0.0
  0
LINE
  5
FB
330
1F
100
AcDbEntity
  8
0
  6
Continuous
 62
     7
370
    25
100
AcDbLine
 10
255.8253307451919
 20
-85.5809300738
 30
0.0
 11
233.2846222083919
 21
-85.5809300738
 31
0.0
  0
LINE
  5
FC
330
1F
100
AcDbEntity
  8
0
  6
Continuous
 62
     7
370
    25
100
AcDbLine
 10
255.8253307451919
 20
-83.0809300738
 30
0.0
 11
233.2846222083919
 21
-83.0809300738
 31
0.0
  0
LWPOLYLINE
  5
FD
330
1F
100
AcDbEntity
  8
0
  6
Continuous
 62
     7
370
    25
100
AcDbPolyline
 90
       12
 70
   128
 43
0.0
 10
168.7372032225919
 20
-47.2967899909
 10
168.7370749390919
 20
-46.46418772759999
 10
168.7369131006918
 20
-45.88408539329999
 10
168.7367308184918
 20
-45.6034794289
 10
168.7365428597919
 20
-45.645102861
 10
168.7363644520918
 20
-46.0055836067
 10
168.7362100487919
 20
-46.6557176596
 10
168.7360921587919
 20
-47.5428350255
 10
168.7360203327918
 20
-48.5950667312
 10
168.7360003896919
 20
-49.7271672217
 10
168.7360339452918
 20
-50.8474204482
 10
168.7361182808919
 20
-51.8650701567
  0
LWPOLYLINE
  5
FE
330
1F
100
AcDbEntity
  8
0
  6
Continuous
 62
     7
370
    25
100
AcDbPolyline
 90
       12
 70
   128
 43
0.0
 10
168.7361182808919
 20
-51.8650701567
 10
168.7362465643919
 20
-52.69767242
 10
168.7364084027919
 20
-53.2777747543
 10
168.7365906850919
 20
-53.5583807187
 10
168.7367786436919
 20
-53.5167572866
 10
168.7369570513918
 20
-53.1562765409
 10
168.7371114546919
 20
-52.506142488
 10
168.7372293446919
 20
-51.6190251221
 10
168.7373011706919
 20
-50.5667934164
 10
168.7373211137918
 20
-49.4346929259
 10
168.7372875582919
 20
-48.3144396994
 10
168.7372032225919
 20
-47.2967899909
  0
LWPOLYLINE
  5
FF
330
1F
100
AcDbEntity
  8
0
  6
Continuous
 62
     7
370
    25
100
AcDbPolyline
 90
        9
 70
   128
 43
0.0
 10
208.5614043199919
 20
-53.58093007379999
 10
208.5615222118919
 20
-53.5167572866
 10
208.5617006196919
 20
-53.1562765409
 10
208.5618550229919
 20
-52.506142488
 10
208.5619729129919
 20
-51.6190251221
 10
208.5620447389919
 20
-50.5667934164
 10
208.5620646819918
 20
-49.4346929259
 10
208.5620311264919
 20
-48.3144396994
 10
208.5619467907919
 20
-47.2967899909
  0
LWPOLYLINE
  5
100
330
1F
100
AcDbEntity
  8
0
  6
Continuous
 62
     7
370
    25
100
AcDbPolyline
 90
        5
 70
   128
 43
0.0
 10
208.5619467907919
 20
-47.2967899909
 10
208.5618185073919
 20
-46.46418772759999
 10
208.5616566688919
 20
-45.88408539329999
 10
208.5614743866919
 20
-45.6034794289
 10
208.5614043199919
 20
-45.5809300738
  0
ARC
  5
101
330
1F
100
AcDbEntity
  8
0
  6
Continuous
 62
     7
370
    25
100
AcDbCircle
 10
732.7741609173918
 20
-50.9989184436
 30
0.0
 40
233.7545856866588
100
AcDbArc
 50
179.4980974626
 51
180.9270511365
  0
LWPOLYLINE
  5
102
330
1F
100
AcDbEntity
  8
0
  6
Continuous
 62
     7
370
    25
100
AcDbPolyline
 90
       12
 70
   128
 43
0.0
 10
538.8525489188919
 20
-48.9512891028
 10
538.8502865307919
 20
-50.0275316537
 10
538.8499628832919
 20
-51.16481006399999
 10
538.8516041964919
 20
-52.27098880039999
 10
538.8550775008918
 20
-53.2564518406
 10
538.8601014100918
 20
-54.0413628297
 10
538.8662689167918
 20
-54.5621329475
 10
538.8730803662919
 20
-54.7765724961
 10
538.8799839353919
 20
-54.66730885869999
 10
538.8864203380918
 20
-54.2431939253
 10
538.8918681352918
 20
-53.5385869655
 10
538.8958859788917
 20
-52.61057104479999
  0
LWPOLYLINE
  5
103
330
1F
100
AcDbEntity
  8
0
  6
Continuous
 62
     7
370
    25
100
AcDbPolyline
 90
       12
 70
   128
 43
0.0
 10
538.8958859788917
 20
-52.61057104479999
 10
538.8981483669919
 20
-51.5343284939
 10
538.8984720143919
 20
-50.3970500836
 10
538.8968307011919
 20
-49.2908713472
 10
538.8933573967919
 20
-48.305408307
 10
538.8883334875917
 20
-47.5204973179
 10
538.8821659808918
 20
-46.9997272001
 10
538.8753545313918
 20
-46.7852876515
 10
538.8684509622919
 20
-46.8945512889
 10
538.8620145595918
 20
-47.3186662223
 10
538.8565667623918
 20
-48.0232731821
 10
538.8525489188919
 20
-48.9512891028
  0
ARC
  5
104
330
1F
100
AcDbEntity
  8
0
  6
Continuous
 62
     7
370
    25
100
AcDbCircle
 10
565.4850915519919
 20
-48.5294933499
 30
0.0
 40
66.45788634189924
100
AcDbArc
 50
178.4923255296
 51
180.3636480188999
  0
SPLINE
  5
105
330
1F
100
AcDbEntity
  8
0
  6
Continuous
 62
     7
370
    25
100
AcDbSpline
210
0.0
220
0.0
230
1.0
 70
     8
 71
     3
 72
    13
 73
     9
 74
     0
 42
0.00000001
 43
0.0000000001
 40
0.0
 40
0.0
 40
0.0
 40
0.0
 40
0.2447824555915883
 40
0.4906178417079202
 40
0.7347734262438074
 40
0.8614979563570061
 40
0.98068994597841
 40
1.0
 40
1.0
 40
1.0
 40
1.0
 10
498.4605098931495
 20
-50.78093007380171
 30
0.0
 10
498.4728035852453
 20
-51.30590410495102
 30
0.0
 10
498.497443850693
 20
-52.35811034045391
 30
0.0
 10
498.6603521738245
 20
-53.70600152012877
 30
0.0
 10
498.7964291097215
 20
-54.490334402774
 30
0.0
 10
498.8577619625882
 20
-54.79306367460472
 30
0.0
 10
498.878560712766
 20
-54.88147035174486
 30
0.0
 10
498.873974820407
 20
-54.84819578437935
 30
0.0
 10
498.8733354520133
 20
-54.84355662038961
 30
0.0
  0
SPLINE
  5
106
330
1F
100
AcDbEntity
  8
0
  6
Continuous
 62
     7
370
    25
100
AcDbSpline
210
0.0
220
0.0
230
1.0
 70
     8
 71
     3
 72
    14
 73
    10
 74
     0
 42
0.00000001
 43
0.0000000001
 40
0.0
 40
0.0
 40
0.0
 40
0.0
 40
0.0184602063725335
 40
0.1376543885353609
 40
0.2643600777486027
 40
0.3874685721457625
 40
0.5106440850659139
 40
0.7554274997246812
 40
1.0
 40
1.0
 40
1.0
 40
1.0
 10
498.8734073640093
 20
-46.717931298082
 30
0.0
 10
498.8740256947046
 20
-46.71345714124525
 30
0.0
 10
498.8786364738091
 20
-46.68009417058569
 30
0.0
 10
498.8578780174196
 20
-46.76804383977359
 30
0.0
 10
498.8121124694202
 20
-46.99496168201043
 30
0.0
 10
498.7402378793994
 20
-47.39117458787228
 30
0.0
 10
498.6342297291215
 20
-48.0765621537462
 30
0.0
 10
498.4971219910558
 20
-49.20600158500502
 30
0.0
 10
498.4727104186227
 20
-50.25610477711401
 30
0.0
 10
498.4605098931495
 20
-50.78093007380172
 30
0.0
  0
LINE
  5
107
330
1F
100
AcDbEntity
  8
0
  6
Continuous
 62
     7
370
    25
100
AcDbLine
 10
498.8753307451919
 20
-41.7809300738
 30
0.0
 11
478.7534955538919
 21
-41.7809300738
 31
0.0
  0
LINE
  5
108
330
1F
100
AcDbEntity
  8
0
  6
Continuous
 62
     7
370
    25
100
AcDbLine
 10
498.8753307451919
 20
-78.28093007380001
 30
0.0
 11
478.7534955538919
 21
-78.28093007380001
 31
0.0
  0
LINE
  5
109
330
1F
100
AcDbEntity
  8
DIMENSION
100
AcDbLine
 10
478.7534955538919
 20
-41.7809300738
 30
0.0
 11
458.8753307451918
 21
-41.7809300738
 31
0.0
  0
LINE
  5
10A
330
1F
100
AcDbEntity
  8
DIMENSION
100
AcDbLine
 10
478.7534955538919
 20
-78.28093007380001
 30
0.0
 11
458.8753307451918
 21
-78.28093007380001
 31
0.0
  0
LINE
  5
10B
330
1F
100
AcDbEntity
  8
0
  6
Continuous
 62
     7
370
    25
100
AcDbLine
 10
228.8286347641919
 20
-78.28093007380001
 30
0.0
 11
208.8253307451919
 21
-78.28093007380001
 31
0.0
  0
LINE
  5
10C
330
1F
100
AcDbEntity
  8
0
  6
Continuous
 62
     7
370
    25
100
AcDbLine
 10
208.8535999651919
 20
-53.5026364894
 30
0.0
 11
208.8398877341919
 21
-53.5791445847
 31
0.0
  0
SPLINE
  5
10D
330
1F
100
AcDbEntity
  8
0
  6
Continuous
 62
     7
370
    25
100
AcDbSpline
210
0.0
220
0.0
230
1.0
 70
     8
 71
     3
 72
    13
 73
     9
 74
     0
 42
0.00000001
 43
0.0000000001
 40
0.0
 40
0.0
 40
0.0
 40
0.0
 40
0.0003628484792887
 40
0.1218239538999308
 40
0.2509594339905494
 40
0.5004811462456359
 40
0.750223620445098
 40
1.0
 40
1.0
 40
1.0
 40
1.0
 10
208.8253743622363
 20
-53.65570053528097
 30
0.0
 10
208.8253598258557
 20
-53.65577720757269
 30
0.0
 10
208.8204793331503
 20
-53.68151941751997
 30
0.0
 10
208.8384010407231
 20
-53.59048270406456
 30
0.0
 10
208.8928824447485
 20
-53.29255117632245
 30
0.0
 10
209.0229977086307
 20
-52.50568582250727
 30
0.0
 10
209.180489935251
 20
-51.15815354362847
 30
0.0
 10
209.2044825202714
 20
-50.10669502001984
 30
0.0
 10
209.2164796270423
 20
-49.58093007380174
 30
0.0
  0
SPLINE
  5
10E
330
1F
100
AcDbEntity
  8
0
  6
Continuous
 62
     7
370
    25
100
AcDbSpline
210
0.0
220
0.0
230
1.0
 70
     8
 71
     3
 72
    13
 73
     9
 74
     0
 42
0.00000001
 43
0.0000000001
 40
0.0
 40
0.0
 40
0.0
 40
0.0
 40
0.2496320590990158
 40
0.4991054919416588
 40
0.7483282198373964
 40
0.8774106099968216
 40
0.9987916876026218
 40
1.0
 40
1.0
 40
1.0
 40
1.0
 10
209.2164796270423
 20
-49.58093007380174
 30
0.0
 10
209.204497359504
 20
-49.05546384326504
 30
0.0
 10
209.1805404384423
 20
-48.00486528458105
 30
0.0
 10
209.0232774066242
 20
-46.6582691726408
 30
0.0
 10
208.8932459770509
 20
-45.87135837317058
 30
0.0
 10
208.8385689452085
 20
-45.5722600302607
 30
0.0
 10
208.8205445995768
 20
-45.48069003947725
 30
0.0
 10
208.8254270910194
 20
-45.50643308864927
 30
0.0
 10
208.8254752156976
 20
-45.50668682712909
 30
0.0
  0
LINE
  5
10F
330
1F
100
AcDbEntity
  8
0
  6
Continuous
 62
     7
370
    25
100
AcDbLine
 10
228.8286347641919
 20
-40.5809300738
 30
0.0
 11
208.8253307451919
 21
-40.5809300738
 31
0.0
  0
LINE
  5
110
330
1F
100
AcDbEntity
  8
0
  6
Continuous
 62
     7
370
    25
100
AcDbLine
 10
248.8253307451919
 20
-78.28093007380001
 30
0.0
 11
228.8286347641919
 21
-78.28093007380001
 31
0.0
  0
LINE
  5
111
330
1F
100
AcDbEntity
  8
0
  6
Continuous
 62
     7
370
    25
100
AcDbLine
 10
248.8253307451919
 20
-40.5809300738
 30
0.0
 11
228.8286347641919
 21
-40.5809300738
 31
0.0
  0
LINE
  5
112
330
1F
100
AcDbEntity
  8
0
  6
Continuous
 62
     7
370
    25
100
AcDbLine
 10
355.8726321802919
 20
13.6500910462
 30
0.0
 11
342.7745830381919
 21
13.6500910462
 31
0.0
  0
LINE
  5
113
330
1F
100
AcDbEntity
  8
0
  6
Continuous
 62
     7
370
    25
100
AcDbLine
 10
355.8726321802919
 20
33.2500910462
 30
0.0
 11
342.7745830381919
 21
33.2500910462
 31
0.0
  0
LINE
  5
114
330
1F
100
AcDbEntity
  8
0
  6
Continuous
 62
     7
370
    25
100
AcDbLine
 10
361.8245830381919
 20
13.6500910462
 30
0.0
 11
355.8726321802919
 21
13.6500910462
 31
0.0
  0
LINE
  5
115
330
1F
100
AcDbEntity
  8
0
  6
Continuous
 62
     7
370
    25
100
AcDbLine
 10
361.8245830381919
 20
33.2500910462
 30
0.0
 11
355.8726321802919
 21
33.2500910462
 31
0.0
  0
DIMENSION
  5
116
102
{ACAD_XDICTIONARY
360
26F
102
}
330
1F
100
AcDbEntity
  8
DIMENSION
100
AcDbDimension
280
     0
  2
*D17
 10
342.7995830381919
 20
114.208821049
 30
0.0
 11
352.2995744489918
 21
114.208821049
 31
0.0
 70
   160
  1
<>
 71
     2
 42
18.99998282159998
 73
     0
 74
     0
 75
     0
  3
RG Dimension Lines
100
AcDbAlignedDimension
 13
361.7995658597919
 23
33.4500910462
 33
0.0
 14
342.7995830381919
 24
53.9500910462
 34
0.0
100
AcDbRotatedDimension
1001
AcadAnnotative
1000
AnnotativeData
1002
{
1070
     1
1070
     1
1002
}
1001
ACAD
1000
DSTYLE
1002
{
1070
     3
1000
%%C<>
1002
}
  0
DIMENSION
  5
11E
102
{ACAD_XDICTIONARY
360
253
102
}
330
1F
100
AcDbEntity
  8
DIMENSION
100
AcDbDimension
280
     0
  2
*D15
 10
201.8253307451919
 20
-112.4008878169
 30
0.0
 11
227.5643027668919
 21
-112.4008878169
 31
0.0
 70
   160
  1
<>
 71
     2
 42
54.0
 73
     0
 74
     0
 75
     0
  3
RG Dimension Lines
100
AcDbAlignedDimension
 13
255.8253307451919
 23
-85.5809300738
 33
0.0
 14
201.8253307451919
 24
-85.5809300738
 34
0.0
100
AcDbRotatedDimension
1001
AcadAnnotative
1000
AnnotativeData
1002
{
1070
     1
1070
     1
1002
}
1001
ACAD
1000
DSTYLE
1002
{
1070
     3
1000
%%C<>
1002
}
  0
DIMENSION
  5
126
102
{ACAD_XDICTIONARY
360
261
102
}
330
1F
100
AcDbEntity
  8
DIMENSION
100
AcDbDimension
280
     0
  2
*D16
 10
498.8753307451919
 20
-24.4196743549
 30
0.0
 11
478.7542122788918
 21
-24.4196743549
 31
0.0
 70
   160
  1
<>
 71
     2
 42
40.0
 73
     0
 74
     0
 75
     0
  3
RG Dimension Lines
100
AcDbAlignedDimension
 13
458.8753307451918
 23
-41.7809300738
 33
0.0
 14
498.8753307451919
 24
-41.7809300738
 34
0.0
100
AcDbRotatedDimension
1001
AcadAnnotative
1000
AnnotativeData
1002
{
1070
     1
1070
     1
1002
}
1001
ACAD
1000
DSTYLE
1002
{
1070
     3
1000
%%C<>
1002
}
  0
LINE
  5
12E
330
1F
100
AcDbEntity
  8
0
  6
Continuous
 62
     7
370
    25
100
AcDbLine
 10
-4.733474035299999
 20
354.0241005053
 30
0.0
 11
-38.9705112663
 21
354.0892094817
 31
0.0
  0
LINE
  5
12F
330
1F
100
AcDbEntity
  8
0
  6
Continuous
 62
     7
370
    25
100
AcDbLine
 10
41.0293350325
 20
353.9275642742
 30
0.0
 11
-4.8810168294
 21
354.0148725303
 31
0.0
  0
LINE
  5
130
330
1F
100
AcDbEntity
  8
0
  6
Continuous
 62
     7
370
    25
100
AcDbLine
 10
-4.8810168294
 20
335.0148381736
 30
0.0
 11
40.9932025743
 21
334.9275986309
 31
0.0
  0
LINE
  5
131
330
1F
100
AcDbEntity
  8
0
  6
Continuous
 62
     7
370
    25
100
AcDbLine
 10
-39.0066437245
 20
335.0892438384
 30
0.0
 11
-4.733474035299999
 21
335.0240661484999
 31
0.0
  0
LINE
  5
132
330
1F
100
AcDbEntity
  8
0
  6
Continuous
 62
     7
370
    25
100
AcDbLine
 10
-38.9705112663
 20
354.0892094817
 30
0.0
 11
-68.9704570189
 21
354.1462607314
 31
0.0
  0
LINE
  5
133
330
1F
100
AcDbEntity
  8
0
  6
Continuous
 62
     7
370
    25
100
AcDbLine
 10
-69.00658947699999
 20
335.1462950882
 30
0.0
 11
-39.0066437245
 21
335.0892438384
 31
0.0
  0
LINE
  5
134
330
1F
100
AcDbEntity
  8
0
  6
Continuous
 62
     7
370
    25
100
AcDbLine
 10
71.02928078499999
 20
353.8705130245
 30
0.0
 11
41.0293350325
 21
353.9275642742
 31
0.0
  0
LINE
  5
135
330
1F
100
AcDbEntity
  8
0
  6
Continuous
 62
     7
370
    25
100
AcDbLine
 10
40.9932025743
 20
334.9275986309
 30
0.0
 11
70.9931483269
 21
334.8705473812
 31
0.0
  0
LINE
  5
136
330
1F
100
AcDbEntity
  8
0
  6
Continuous
 62
     7
370
    25
100
AcDbLine
 10
-72.81537561399999
 20
201.2658117675
 30
0.0
 11
-72.9851755734
 21
200.6316906808
 31
0.0
  0
LINE
  5
137
330
1F
100
AcDbEntity
  8
0
  6
Continuous
 62
     7
370
    25
100
AcDbLine
 10
-72.9851755734
 20
200.6316906808
 30
0.0
 11
-72.97859648780001
 21
160.8069471126
 31
0.0
  0
LINE
  5
138
330
1F
100
AcDbEntity
  8
0
  6
Continuous
 62
     7
370
    25
100
AcDbLine
 10
-64.9851756826
 20
200.6330122885
 30
0.0
 11
-65.1551851475
 21
201.2670772382
 31
0.0
  0
LINE
  5
139
330
1F
100
AcDbEntity
  8
0
  6
Continuous
 62
     7
370
    25
100
AcDbLine
 10
-64.97859659699999
 20
160.8082687202
 30
0.0
 11
-64.9851756826
 21
200.6330122885
 31
0.0
  0
LINE
  5
13A
330
1F
100
AcDbEntity
  8
0
  6
Continuous
 62
     7
370
    25
100
AcDbLine
 10
-72.8655462202
 20
491.1455264858
 30
0.0
 11
-72.7215691285
 21
490.59479868
 31
0.0
  0
LINE
  5
13B
330
1F
100
AcDbEntity
  8
0
  6
Continuous
 62
     7
370
    25
100
AcDbLine
 10
-72.62294345419999
 20
530.9695316518
 30
0.0
 11
-72.8655462202
 21
491.1455264858
 31
0.0
  0
LINE
  5
13C
330
1F
100
AcDbEntity
  8
0
  6
Continuous
 62
     7
370
    25
100
AcDbLine
 10
-65.01637074369999
 20
490.5478595931
 30
0.0
 11
-64.86569465969999
 21
491.0967924092999
 31
0.0
  0
LINE
  5
13D
330
1F
100
AcDbEntity
  8
0
  6
Continuous
 62
     7
370
    25
100
AcDbLine
 10
-64.86569465969999
 20
491.0967924092999
 30
0.0
 11
-64.62309189379999
 21
530.9207975751998
 31
0.0
  0
ARC
  5
13E
330
1F
100
AcDbEntity
  8
0
  6
Continuous
 62
     7
370
    25
100
AcDbCircle
 10
-68.988523248
 20
344.6462779098
 30
0.0
 40
9.499999999999998
100
AcDbArc
 50
89.8910400735
 51
179.8910400735
  0
ARC
  5
13F
330
1F
100
AcDbEntity
  8
0
  6
Continuous
 62
     7
370
    25
100
AcDbCircle
 10
-68.988523248
 20
344.6462779098
 30
0.0
 40
9.500000000000039
100
AcDbArc
 50
179.8910400735
 51
269.8910400735
  0
ARC
  5
140
330
1F
100
AcDbEntity
  8
0
  6
Continuous
 62
     7
370
    25
100
AcDbCircle
 10
71.011214556
 20
344.3705302028
 30
0.0
 40
9.500000000000039
100
AcDbArc
 50
359.8910400735
 51
89.8910400735
  0
ARC
  5
141
330
1F
100
AcDbEntity
  8
0
  6
Continuous
 62
     7
370
    25
100
AcDbCircle
 10
71.011214556
 20
344.3705302028
 30
0.0
 40
9.499999999999984
100
AcDbArc
 50
269.8910400735
 51
359.8910400735
  0
ARC
  5
142
330
1F
100
AcDbEntity
  8
0
  6
Continuous
 62
     7
370
    25
100
AcDbCircle
 10
-68.988523248
 20
344.6462779098
 30
0.0
 40
19.99999999999998
100
AcDbArc
 50
28.2503901017
 51
89.8910400735
  0
ARC
  5
143
330
1F
100
AcDbEntity
  8
0
  6
Continuous
 62
     7
370
    25
100
AcDbCircle
 10
-68.988523248
 20
344.6462779098
 30
0.0
 40
20.00000000000004
100
AcDbArc
 50
269.8910400735
 51
331.5316900453
  0
ARC
  5
144
330
1F
100
AcDbEntity
  8
0
  6
Continuous
 62
     7
370
    25
100
AcDbCircle
 10
-68.988523248
 20
344.6462779098
 30
0.0
 40
20.00000000000004
100
AcDbArc
 50
89.8910400735
 51
269.8910400735
  0
LWPOLYLINE
  5
145
330
1F
100
AcDbEntity
  8
0
  6
Continuous
 62
     7
370
    25
100
AcDbPolyline
 90
        3
 70
   128
 43
0.0
 10
-68.9699815918
 20
354.3962602794
 10
-67.17874273959999
 20
354.2268412811
 10
-66.77671988890001
 20
354.1420888757
  0
LWPOLYLINE
  5
146
330
1F
100
AcDbEntity
  8
0
  6
Continuous
 62
     7
370
    25
100
AcDbPolyline
 90
        3
 70
   128
 43
0.0
 10
-66.812852347
 20
335.1421232325
 10
-67.21519463799999
 20
335.0589004977
 10
-69.00706490410001
 20
334.8962955402
  0
ARC
  5
147
330
1F
100
AcDbEntity
  8
0
  6
Continuous
 62
     7
370
    25
100
AcDbCircle
 10
-68.988523248
 20
344.6462779098
 30
0.0
 40
9.75000000000003
100
AcDbArc
 50
89.8910400735
 51
269.8910400735
  0
ARC
  5
148
330
1F
100
AcDbEntity
  8
0
  6
Continuous
 62
     7
370
    25
100
AcDbCircle
 10
-68.988523248
 20
344.6462779098
 30
0.0
 40
27.0
100
AcDbArc
 50
189.5064679166999
 51
339.2904155238
  0
ARC
  5
149
330
1F
100
AcDbEntity
  8
0
  6
Continuous
 62
     7
370
    25
100
AcDbCircle
 10
-68.988523248
 20
344.6462779098
 30
0.0
 40
27.0
100
AcDbArc
 50
20.4916646231
 51
189.5064679166999
  0
ARC
  5
14A
330
1F
100
AcDbEntity
  8
0
  6
Continuous
 62
     7
370
    25
100
AcDbCircle
 10
-68.988523248
 20
470.9462779098999
 30
0.0
 40
26.99999999999999
100
AcDbArc
 50
212.6746131173
 51
32.6746131173
  0
ARC
  5
14B
330
1F
100
AcDbEntity
  8
0
  6
Continuous
 62
     7
370
    25
100
AcDbCircle
 10
-68.988523248
 20
470.9462779098999
 30
0.0
 40
27.00000000000001
100
AcDbArc
 50
98.1705899824
 51
212.6746131173
  0
ARC
  5
14C
330
1F
100
AcDbEntity
  8
0
  6
Continuous
 62
     7
370
    25
100
AcDbCircle
 10
-68.988523248
 20
470.9462779098999
 30
0.0
 40
27.0
100
AcDbArc
 50
32.6746131173
 51
81.13134147409999
  0
ARC
  5
14D
330
1F
100
AcDbEntity
  8
0
  6
Continuous
 62
     7
370
    25
100
AcDbCircle
 10
-68.988523248
 20
220.8962779099
 30
0.0
 40
27.00000000000001
100
AcDbArc
 50
278.5290895714
 51
9.5064679167
  0
ARC
  5
14E
330
1F
100
AcDbEntity
  8
0
  6
Continuous
 62
     7
370
    25
100
AcDbCircle
 10
-68.988523248
 20
220.8962779099
 30
0.0
 40
26.99999999999999
100
AcDbArc
 50
189.5064679166999
 51
261.4898410632
  0
ARC
  5
14F
330
1F
100
AcDbEntity
  8
0
  6
Continuous
 62
     7
370
    25
100
AcDbCircle
 10
-68.988523248
 20
220.8962779099
 30
0.0
 40
26.99999999999999
100
AcDbArc
 50
9.5064679167
 51
189.5064679166999
  0
LINE
  5
150
330
1F
100
AcDbEntity
  8
0
  6
Continuous
 62
     7
370
    25
100
AcDbLine
 10
-65.70147287240001
 20
200.6328939555
 30
0.0
 11
-72.9851755734
 21
200.6316906808
 31
0.0
  0
LINE
  5
151
330
1F
100
AcDbEntity
  8
0
  6
Continuous
 62
     7
370
    25
100
AcDbLine
 10
-65.69489378680001
 20
160.8081503872
 30
0.0
 11
-72.97859648780001
 21
160.8069471126
 31
0.0
  0
LINE
  5
152
330
1F
100
AcDbEntity
  8
0
  6
Continuous
 62
     7
370
    25
100
AcDbLine
 10
-64.9851756826
 20
200.6330122885
 30
0.0
 11
-65.70147287240001
 21
200.6328939555
 31
0.0
  0
LINE
  5
153
330
1F
100
AcDbEntity
  8
0
  6
Continuous
 62
     7
370
    25
100
AcDbLine
 10
-64.97859659699999
 20
160.8082687202
 30
0.0
 11
-65.69489378680001
 21
160.8081503872
 31
0.0
  0
LINE
  5
154
330
1F
100
AcDbEntity
  8
0
  6
Continuous
 62
     7
370
    25
100
AcDbLine
 10
-72.8655462202
 20
491.1455264858
 30
0.0
 11
-65.3086632583
 21
491.0994909175999
 31
0.0
  0
LINE
  5
155
330
1F
100
AcDbEntity
  8
0
  6
Continuous
 62
     7
370
    25
100
AcDbLine
 10
-72.62294345419999
 20
530.9695316518
 30
0.0
 11
-65.0660604924
 21
530.9234960835
 31
0.0
  0
LINE
  5
156
330
1F
100
AcDbEntity
  8
0
  6
Continuous
 62
     7
370
    25
100
AcDbLine
 10
-65.3086632583
 20
491.0994909175999
 30
0.0
 11
-64.86569465969999
 21
491.0967924092999
 31
0.0
  0
LINE
  5
157
330
1F
100
AcDbEntity
  8
0
  6
Continuous
 62
     7
370
    25
100
AcDbLine
 10
-65.0660604924
 20
530.9234960835
 30
0.0
 11
-64.62309189379999
 21
530.9207975751998
 31
0.0
  0
ARC
  5
158
330
1F
100
AcDbEntity
  8
0
  6
Continuous
 62
     7
370
    25
100
AcDbCircle
 10
-68.988523248
 20
470.9462779098999
 30
0.0
 40
20.0
100
AcDbArc
 50
359.6509657283001
 51
179.6509657283
  0
ARC
  5
159
330
1F
100
AcDbEntity
  8
0
  6
Continuous
 62
     7
370
    25
100
AcDbCircle
 10
-68.988523248
 20
470.9462779098999
 30
0.0
 40
20.0
100
AcDbArc
 50
179.6509657283
 51
359.6509657283001
  0
LINE
  5
15A
330
1F
100
AcDbEntity
  8
0
  6
Continuous
 62
     7
370
    25
100
AcDbLine
 10
-72.2801597852
 20
485.2062048559999
 30
0.0
 11
-66.10225746640001
 21
485.1685698622
 31
0.0
  0
LINE
  5
15B
330
1F
100
AcDbEntity
  8
0
  6
Continuous
 62
     7
370
    25
100
AcDbLine
 10
-72.2846165607
 20
484.4746111604
 30
0.0
 11
-72.2801597852
 21
485.2062048559999
 31
0.0
  0
LINE
  5
15C
330
1F
100
AcDbEntity
  8
0
  6
Continuous
 62
     7
370
    25
100
AcDbLine
 10
-66.10671424189999
 20
484.4369761664999
 30
0.0
 11
-72.2846165607
 21
484.4746111604
 31
0.0
  0
LINE
  5
15D
330
1F
100
AcDbEntity
  8
0
  6
Continuous
 62
     7
370
    25
100
AcDbLine
 10
-66.10225746640001
 20
485.1685698622
 30
0.0
 11
-66.10671424189999
 21
484.4369761664999
 31
0.0
  0
LINE
  5
15E
330
1F
100
AcDbEntity
  8
0
  6
Continuous
 62
     7
370
    25
100
AcDbLine
 10
-71.7830335094
 20
480.0737013853
 30
0.0
 11
-71.1733720963
 21
480.0699874055999
 31
0.0
  0
SPLINE
  5
15F
330
1F
100
AcDbEntity
  8
0
  6
Continuous
 62
     7
370
    25
100
AcDbSpline
210
0.0
220
0.0
230
1.0
 70
     8
 71
     3
 72
    14
 73
    10
 74
     0
 42
0.00000001
 43
0.0000000001
 40
0.0
 40
0.0
 40
0.0
 40
0.0
 40
0.25
 40
0.25
 40
0.5
 40
0.5
 40
0.75
 40
0.75
 40
1.0
 40
1.0
 40
1.0
 40
1.0
 10
-71.99366646478863
 20
478.8581568083077
 30
0.0
 10
-71.99144322823918
 20
478.961528297496
 30
0.0
 10
-71.9891025044855
 20
479.0649801635513
 30
0.0
 10
-71.97326701291304
 20
479.2711730052224
 30
0.0
 10
-71.95960813591351
 20
479.3737795698151
 30
0.0
 10
-71.92789939516906
 20
479.5781314109265
 30
0.0
 10
-71.90703935084164
 20
479.6795475970646
 30
0.0
 10
-71.85507327844011
 20
479.8797205405821
 30
0.0
 10
-71.82112732039247
 20
479.9775532615233
 30
0.0
 10
-71.78303350937534
 20
480.0737013852806
 30
0.0
  0
SPLINE
  5
160
330
1F
100
AcDbEntity
  8
0
  6
Continuous
 62
     7
370
    25
100
AcDbSpline
210
0.0
220
0.0
230
1.0
 70
     8
 71
     3
 72
    24
 73
    20
 74
     0
 42
0.00000001
 43
0.0000000001
 40
0.0
 40
0.0
 40
0.0
 40
0.0
 40
0.0625000000000012
 40
0.0625000000000012
 40
0.1250000000000024
 40
0.1250000000000024
 40
0.2500000000000021
 40
0.2500000000000021
 40
0.3750000000000017
 40
0.3750000000000017
 40
0.5000000000000014
 40
0.5000000000000014
 40
0.7500000000000007
 40
0.7500000000000007
 40
0.8750000000000001
 40
0.8750000000000001
 40
0.9375
 40
0.9375
 40
1.0
 40
1.0
 40
1.0
 40
1.0
 10
-68.97209287246723
 20
475.9107260337435
 30
0.0
 10
-69.07116387392747
 20
475.9134359941186
 30
0.0
 10
-69.1702348753877
 20
475.9161459544938
 30
0.0
 10
-69.36776729684071
 20
475.9302235414966
 30
0.0
 10
-69.46622445873614
 20
475.942038957172
 30
0.0
 10
-69.75990851214703
 20
475.988597569661
 30
0.0
 10
-69.95331115251419
 20
476.0346098693665
 30
0.0
 10
-70.3277619748829
 20
476.1647397404088
 30
0.0
 10
-70.50954538845093
 20
476.2460436986841
 30
0.0
 10
-70.85033647004618
 20
476.4485025342697
 30
0.0
 10
-71.00987606160146
 20
476.5682548353926
 30
0.0
 10
-71.43951797324972
 20
476.9792249660626
 30
0.0
 10
-71.65840129504381
 20
477.3214046006618
 30
0.0
 10
-71.86913856681915
 20
477.8774226719901
 30
0.0
 10
-71.91885877135284
 20
478.0702183177401
 30
0.0
 10
-71.96642712579262
 20
478.3637550806166
 30
0.0
 10
-71.9777305304488
 20
478.4623189587452
 30
0.0
 10
-71.99026910126239
 20
478.6599628339071
 30
0.0
 10
-71.99196778302551
 20
478.7590598211074
 30
0.0
 10
-71.99366646478863
 20
478.8581568083077
 30
0.0
  0
SPLINE
  5
161
330
1F
100
AcDbEntity
  8
0
  6
Continuous
 62
     7
370
    25
100
AcDbSpline
210
0.0
220
0.0
230
1.0
 70
     8
 71
     3
 72
    24
 73
    20
 74
     0
 42
0.00000001
 43
0.0000000001
 40
0.0
 40
0.0
 40
0.0
 40
0.0
 40
0.1249999999999998
 40
0.1249999999999998
 40
0.2499999999999997
 40
0.2499999999999997
 40
0.3749999999999993
 40
0.3749999999999993
 40
0.499999999999999
 40
0.499999999999999
 40
0.6249999999999987
 40
0.6249999999999987
 40
0.7499999999999983
 40
0.7499999999999983
 40
0.8749999999999978
 40
0.8749999999999978
 40
0.9374999999999987
 40
0.9374999999999987
 40
1.0
 40
1.0
 40
1.0
 40
1.0
 10
-66.05946622458943
 20
478.8486800931275
 30
0.0
 10
-66.06474762147934
 20
478.6526908697762
 30
0.0
 10
-66.0726731658304
 20
478.4565885737293
 30
0.0
 10
-66.12662765648369
 20
478.0681675934909
 30
0.0
 10
-66.16856774331118
 20
477.8758893363108
 30
0.0
 10
-66.29023015113792
 20
477.5031060794435
 30
0.0
 10
-66.36837986253097
 20
477.3221493528112
 30
0.0
 10
-66.56289738882732
 20
476.9816713396513
 30
0.0
 10
-66.68128277493057
 20
476.8233284502577
 30
0.0
 10
-66.95526655062096
 20
476.5427746861022
 30
0.0
 10
-67.10968939448989
 20
476.4190806119063
 30
0.0
 10
-67.44608296003183
 20
476.2177325537094
 30
0.0
 10
-67.62684802720973
 20
476.1385207548214
 30
0.0
 10
-67.99891157633988
 20
476.0146087426996
 30
0.0
 10
-68.19140330904139
 20
475.9736427317766
 30
0.0
 10
-68.48276247781857
 20
475.9330758391278
 30
0.0
 10
-68.58036095541748
 20
475.9232095012485
 30
0.0
 10
-68.77600181229938
 20
475.9128131322718
 30
0.0
 10
-68.87404734238329
 20
475.9117695830077
 30
0.0
 10
-68.97209287246723
 20
475.9107260337435
 30
0.0
  0
SPLINE
  5
162
330
1F
100
AcDbEntity
  8
0
  6
Continuous
 62
     7
370
    25
100
AcDbSpline
210
0.0
220
0.0
230
1.0
 70
     8
 71
     3
 72
    14
 73
    10
 74
     0
 42
0.00000001
 43
0.0000000001
 40
0.0
 40
0.0
 40
0.0
 40
0.0
 40
0.2500000000000003
 40
0.2500000000000003
 40
0.5000000000000002
 40
0.5000000000000002
 40
0.7500000000000001
 40
0.7500000000000001
 40
1.0
 40
1.0
 40
1.0
 40
1.0
 10
-66.25494150052515
 20
480.1213161581238
 30
0.0
 10
-66.21923237467355
 20
480.0195521955782
 30
0.0
 10
-66.18603188239539
 20
479.9167932639726
 30
0.0
 10
-66.13716416424637
 20
479.7067202577069
 30
0.0
 10
-66.11831779873232
 20
479.6004708885437
 30
0.0
 10
-66.08685600286569
 20
479.3870163386468
 30
0.0
 10
-66.07498136699081
 20
479.279671382644
 30
0.0
 10
-66.06217497087065
 20
479.0644476494815
 30
0.0
 10
-66.06082059773007
 20
478.9565638713047
 30
0.0
 10
-66.05946622458943
 20
478.8486800931275
 30
0.0
  0
LINE
  5
163
330
1F
100
AcDbEntity
  8
0
  6
Continuous
 62
     7
370
    25
100
AcDbLine
 10
-66.86460291359999
 20
480.1250301377999
 30
0.0
 11
-66.25494150049999
 21
480.1213161580999
 31
0.0
  0
SPLINE
  5
164
330
1F
100
AcDbEntity
  8
0
  6
Continuous
 62
     7
370
    25
100
AcDbSpline
210
0.0
220
0.0
230
1.0
 70
     8
 71
     3
 72
    12
 73
     8
 74
     0
 42
0.00000001
 43
0.0000000001
 40
0.0
 40
0.0
 40
0.0
 40
0.0
 40
0.5
 40
0.5
 40
0.75
 40
0.75
 40
1.0
 40
1.0
 40
1.0
 40
1.0
 10
-66.70936938403585
 20
478.9186883245084
 30
0.0
 10
-66.70931173617664
 20
479.1219777336165
 30
0.0
 10
-66.72397331691027
 20
479.3250243097832
 30
0.0
 10
-66.76441184684154
 20
479.6272160369263
 30
0.0
 10
-66.77972812950297
 20
479.7276710610598
 30
0.0
 10
-66.81641759472718
 20
479.9275796863803
 30
0.0
 10
-66.83895705557758
 20
480.0266884529984
 30
0.0
 10
-66.86460291356514
 20
480.1250301377815
 30
0.0
  0
SPLINE
  5
165
330
1F
100
AcDbEntity
  8
0
  6
Continuous
 62
     7
370
    25
100
AcDbSpline
210
0.0
220
0.0
230
1.0
 70
     8
 71
     3
 72
    20
 73
    16
 74
     0
 42
0.00000001
 43
0.0000000001
 40
0.0
 40
0.0
 40
0.0
 40
0.0
 40
0.1249999999999999
 40
0.1249999999999999
 40
0.2499999999999998
 40
0.2499999999999998
 40
0.4999999999999997
 40
0.4999999999999997
 40
0.6249999999999997
 40
0.6249999999999997
 40
0.7499999999999999
 40
0.7499999999999999
 40
0.8749999999999998
 40
0.8749999999999998
 40
1.0
 40
1.0
 40
1.0
 40
1.0
 10
-68.99303865575479
 20
476.6424744785438
 30
0.0
 10
-68.83982952634358
 20
476.6446214040676
 30
0.0
 10
-68.68644116503175
 20
476.6484067823387
 30
0.0
 10
-68.38238119242484
 20
476.6868633976797
 30
0.0
 10
-68.23189698404975
 20
476.7188715350703
 30
0.0
 10
-67.7933123778549
 20
476.8566377867531
 30
0.0
 10
-67.51822703614054
 20
477.0108896836921
 30
0.0
 10
-67.19251428609867
 20
477.3352638298065
 30
0.0
 10
-67.09942339668346
 20
477.4587094130771
 30
0.0
 10
-66.94534280938815
 20
477.7236512111893
 30
0.0
 10
-66.88609034147453
 20
477.8659826648169
 30
0.0
 10
-66.7941439835647
 20
478.158351014131
 30
0.0
 10
-66.76257828580659
 20
478.3087497405366
 30
0.0
 10
-66.72047378272456
 20
478.6123324731446
 30
0.0
 10
-66.7134169436925
 20
478.7655105808012
 30
0.0
 10
-66.70936938403585
 20
478.9186883245084
 30
0.0
  0
SPLINE
  5
166
330
1F
100
AcDbEntity
  8
0
  6
Continuous
 62
     7
370
    25
100
AcDbSpline
210
0.0
220
0.0
230
1.0
 70
     8
 71
     3
 72
    24
 73
    20
 74
     0
 42
0.00000001
 43
0.0000000001
 40
0.0
 40
0.0
 40
0.0
 40
0.0
 40
0.0625000000000098
 40
0.0625000000000098
 40
0.1250000000000195
 40
0.1250000000000195
 40
0.2500000000000167
 40
0.2500000000000167
 40
0.3750000000000138
 40
0.3750000000000138
 40
0.5000000000000112
 40
0.5000000000000112
 40
0.6250000000000085
 40
0.6250000000000085
 40
0.7500000000000055
 40
0.7500000000000055
 40
0.8750000000000028
 40
0.8750000000000028
 40
1.0
 40
1.0
 40
1.0
 40
1.0
 10
-71.3430514592412
 20
478.9050003477594
 30
0.0
 10
-71.34214628657798
 20
478.8282243239538
 30
0.0
 10
-71.34124111391476
 20
478.7514483001482
 30
0.0
 10
-71.33026776235944
 20
478.5984928829516
 30
0.0
 10
-71.32012811829792
 20
478.5223152795794
 30
0.0
 10
-71.28246739522321
 20
478.2950631472029
 30
0.0
 10
-71.24451627854099
 20
478.1458604349116
 30
0.0
 10
-71.13835475997266
 20
477.8577064499673
 30
0.0
 10
-71.06998092512931
 20
477.719312918363
 30
0.0
 10
-70.90177859742555
 20
477.4624238243181
 30
0.0
 10
-70.80158387741235
 20
477.3447509462233
 30
0.0
 10
-70.57747827354548
 20
477.1349313255124
 30
0.0
 10
-70.45255287023071
 20
477.0439752842652
 30
0.0
 10
-70.18559807370793
 20
476.8924011524178
 30
0.0
 10
-70.04532927902712
 20
476.8283486405469
 30
0.0
 10
-69.75408809449284
 20
476.731219178962
 30
0.0
 10
-69.60403610981806
 20
476.6959849926727
 30
0.0
 10
-69.30003950874241
 20
476.6531597917971
 30
0.0
 10
-69.14644183313349
 20
476.6471665136806
 30
0.0
 10
-68.99303865575479
 20
476.6424744785438
 30
0.0
  0
SPLINE
  5
167
330
1F
100
AcDbEntity
  8
0
  6
Continuous
 62
     7
370
    25
100
AcDbSpline
210
0.0
220
0.0
230
1.0
 70
     8
 71
     3
 72
    14
 73
    10
 74
     0
 42
0.00000001
 43
0.0000000001
 40
0.0
 40
0.0
 40
0.0
 40
0.0
 40
0.25
 40
0.25
 40
0.5
 40
0.5
 40
0.75
 40
0.75
 40
1.0
 40
1.0
 40
1.0
 40
1.0
 10
-71.17337209633537
 20
480.0699874056234
 30
0.0
 10
-71.19787543550585
 20
479.9746898263348
 30
0.0
 10
-71.22235318712923
 20
479.8793861391093
 30
0.0
 10
-71.26350838344293
 20
479.6870583938114
 30
0.0
 10
-71.28054112992436
 20
479.5901164190722
 30
0.0
 10
-71.31046412085381
 20
479.3955381911748
 30
0.0
 10
-71.32308214452487
 20
479.297875147366
 30
0.0
 10
-71.33798742918393
 20
479.1018005324479
 30
0.0
 10
-71.34051944421256
 20
479.0034004401038
 30
0.0
 10
-71.3430514592412
 20
478.9050003477594
 30
0.0
  0
SPLINE
  5
168
330
1F
100
AcDbEntity
  8
0
  6
Continuous
 62
     7
370
    25
100
AcDbSpline
210
0.0
220
0.0
230
1.0
 70
     8
 71
     3
 72
    18
 73
    14
 74
     0
 42
0.00000001
 43
0.0000000001
 40
0.0
 40
0.0
 40
0.0
 40
0.0
 40
0.1249999999999974
 40
0.1249999999999974
 40
0.2499999999999947
 40
0.2499999999999947
 40
0.4999999999999887
 40
0.4999999999999887
 40
0.7499999999999827
 40
0.7499999999999827
 40
0.8749999999999912
 40
0.8749999999999912
 40
1.0
 40
1.0
 40
1.0
 40
1.0
 10
-68.16063598842304
 20
480.2589267740398
 30
0.0
 10
-68.29575029775917
 20
480.2627139618254
 30
0.0
 10
-68.43090061740885
 20
480.2687796775963
 30
0.0
 10
-68.69845794489821
 20
480.3075832511706
 30
0.0
 10
-68.83078108175467
 20
480.3372497378707
 30
0.0
 10
-69.21593338899571
 20
480.464091612449
 30
0.0
 10
-69.460050407853
 20
480.5927010428916
 30
0.0
 10
-69.8653028817522
 20
480.9506105534937
 30
0.0
 10
-70.02389661244878
 20
481.1784795943232
 30
0.0
 10
-70.17448412829654
 20
481.5549275774588
 30
0.0
 10
-70.2112555255526
 20
481.6857932519138
 30
0.0
 10
-70.25719607509664
 20
481.9522129828899
 30
0.0
 10
-70.26293621691235
 20
482.0876135477418
 30
0.0
 10
-70.26605453588882
 20
482.2227416376202
 30
0.0
  0
SPLINE
  5
169
330
1F
100
AcDbEntity
  8
0
  6
Continuous
 62
     7
370
    25
100
AcDbSpline
210
0.0
220
0.0
230
1.0
 70
     8
 71
     3
 72
    22
 73
    18
 74
     0
 42
0.00000001
 43
0.0000000001
 40
0.0
 40
0.0
 40
0.0
 40
0.0
 40
0.0625000000000005
 40
0.0625000000000005
 40
0.1250000000000009
 40
0.1250000000000009
 40
0.2500000000000019
 40
0.2500000000000019
 40
0.3750000000000027
 40
0.3750000000000027
 40
0.5000000000000038
 40
0.5000000000000038
 40
0.7500000000000057
 40
0.7500000000000057
 40
0.8750000000000028
 40
0.8750000000000028
 40
1.0
 40
1.0
 40
1.0
 40
1.0
 10
-66.03904552643875
 20
482.2008017624925
 30
0.0
 10
-66.04068873106013
 20
482.1331498524553
 30
0.0
 10
-66.04233193568148
 20
482.0654979424179
 30
0.0
 10
-66.05279434342768
 20
481.9307569084925
 30
0.0
 10
-66.06201830965843
 20
481.8636747379138
 30
0.0
 10
-66.09821798029935
 20
481.663893257509
 30
0.0
 10
-66.1341463545844
 20
481.5328332311865
 30
0.0
 10
-66.23747195904989
 20
481.2826912903382
 30
0.0
 10
-66.30142276914496
 20
481.1625179497735
 30
0.0
 10
-66.45774077879707
 20
480.9417020052141
 30
0.0
 10
-66.54985980066989
 20
480.8413671616145
 30
0.0
 10
-66.8546614950225
 20
480.5732561611026
 30
0.0
 10
-67.10082248710711
 20
480.4468794765638
 30
0.0
 10
-67.48920092040119
 20
480.3294001716619
 30
0.0
 10
-67.62167452725761
 20
480.2998461225128
 30
0.0
 10
-67.88997716313186
 20
480.2652511592283
 30
0.0
 10
-68.02541374437224
 20
480.2614613751678
 30
0.0
 10
-68.16063598842304
 20
480.2589267740398
 30
0.0
  0
SPLINE
  5
16A
330
1F
100
AcDbEntity
  8
0
  6
Continuous
 62
     7
370
    25
100
AcDbSpline
210
0.0
220
0.0
230
1.0
 70
     8
 71
     3
 72
    22
 73
    18
 74
     0
 42
0.00000001
 43
0.0000000001
 40
0.0
 40
0.0
 40
0.0
 40
0.0
 40
0.124999999999997
 40
0.124999999999997
 40
0.249999999999994
 40
0.249999999999994
 40
0.4999999999999961
 40
0.4999999999999961
 40
0.6249999999999972
 40
0.6249999999999972
 40
0.7499999999999979
 40
0.7499999999999979
 40
0.8749999999999989
 40
0.8749999999999989
 40
0.9374999999999994
 40
0.9374999999999994
 40
1.0
 40
1.0
 40
1.0
 40
1.0
 10
-68.13686651861441
 20
484.1607598174956
 30
0.0
 10
-68.00216746515774
 20
484.156886926653
 30
0.0
 10
-67.8674182936403
 20
484.1507990823546
 30
0.0
 10
-67.60070132804347
 20
484.1119133299096
 30
0.0
 10
-67.46889048745403
 20
484.0818990851826
 30
0.0
 10
-67.08493660169089
 20
483.9553420611136
 30
0.0
 10
-66.84138438273743
 20
483.8270943293563
 30
0.0
 10
-66.53976774938391
 20
483.5577265461465
 30
0.0
 10
-66.44869337382917
 20
483.4571579568683
 30
0.0
 10
-66.29428935961768
 20
483.2362871081711
 30
0.0
 10
-66.23109829560437
 20
483.1162998100741
 30
0.0
 10
-66.12921450809203
 20
482.866718395476
 30
0.0
 10
-66.09386355474469
 20
482.736026159752
 30
0.0
 10
-66.05896724058597
 20
482.5368030328681
 30
0.0
 10
-66.05015766687225
 20
482.4699126388996
 30
0.0
 10
-66.0408049318052
 20
482.3356139667733
 30
0.0
 10
-66.03992522912197
 20
482.268207864633
 30
0.0
 10
-66.03904552643875
 20
482.2008017624925
 30
0.0
  0
SPLINE
  5
16B
330
1F
100
AcDbEntity
  8
0
  6
Continuous
 62
     7
370
    25
100
AcDbSpline
210
0.0
220
0.0
230
1.0
 70
     8
 71
     3
 72
    20
 73
    16
 74
     0
 42
0.00000001
 43
0.0000000001
 40
0.0
 40
0.0
 40
0.0
 40
0.0
 40
0.1249999999999869
 40
0.1249999999999869
 40
0.2499999999999739
 40
0.2499999999999739
 40
0.4999999999999715
 40
0.4999999999999715
 40
0.6249999999999786
 40
0.6249999999999786
 40
0.7499999999999857
 40
0.7499999999999857
 40
0.8749999999999928
 40
0.8749999999999928
 40
1.0
 40
1.0
 40
1.0
 40
1.0
 10
-70.26605453588882
 20
482.2227416376202
 30
0.0
 10
-70.26130635020243
 20
482.3580974412703
 30
0.0
 10
-70.25438353070278
 20
482.4937444286908
 30
0.0
 10
-70.20648381731033
 20
482.7603735791565
 30
0.0
 10
-70.16887911087682
 20
482.8913299572867
 30
0.0
 10
-70.01658144531869
 20
483.2679584775038
 30
0.0
 10
-69.8557344012438
 20
483.4954133292656
 30
0.0
 10
-69.54835127840572
 20
483.7612703138568
 30
0.0
 10
-69.43406903905401
 20
483.8355822014456
 30
0.0
 10
-69.19476353021875
 20
483.9625330473681
 30
0.0
 10
-69.06884959753715
 20
484.0140525073622
 30
0.0
 10
-68.80964507961135
 20
484.0927093537167
 30
0.0
 10
-68.67655951263834
 20
484.1202636747881
 30
0.0
 10
-68.40781450131273
 20
484.1542863404691
 30
0.0
 10
-68.27227876183767
 20
484.1583861442905
 30
0.0
 10
-68.13686651861441
 20
484.1607598174956
 30
0.0
  0
SPLINE
  5
16C
330
1F
100
AcDbEntity
  8
0
  6
Continuous
 62
     7
370
    25
100
AcDbSpline
210
0.0
220
0.0
230
1.0
 70
     8
 71
     3
 72
    14
 73
    10
 74
     0
 42
0.00000001
 43
0.0000000001
 40
0.0
 40
0.0
 40
0.0
 40
0.0
 40
0.2499999999999992
 40
0.2499999999999992
 40
0.4999999999999984
 40
0.4999999999999984
 40
0.7499999999999992
 40
0.7499999999999992
 40
1.0
 40
1.0
 40
1.0
 40
1.0
 10
-66.53731631785589
 20
488.396448746973
 30
0.0
 10
-66.45221956182126
 20
488.324928510006
 30
0.0
 10
-66.36748530895911
 20
488.2521637547051
 30
0.0
 10
-66.22307787758463
 20
488.0829485472582
 30
0.0
 10
-66.16192795215754
 20
487.9886099272576
 30
0.0
 10
-66.0711050395578
 20
487.7854418917863
 30
0.0
 10
-66.04473914485993
 20
487.6762082790444
 30
0.0
 10
-66.01187967153061
 20
487.4561713988571
 30
0.0
 10
-66.00948415416593
 20
487.3448229070381
 30
0.0
 10
-66.0083866243653
 20
487.2335567271375
 30
0.0
  0
LINE
  5
16D
330
1F
100
AcDbEntity
  8
0
  6
Continuous
 62
     7
370
    25
100
AcDbLine
 10
-66.5372157309
 20
488.4129604101999
 30
0.0
 11
-66.53731631789999
 21
488.396448747
 31
0.0
  0
LINE
  5
16E
330
1F
100
AcDbEntity
  8
0
  6
Continuous
 62
     7
370
    25
100
AcDbLine
 10
-66.08158916959999
 20
488.5613356257
 30
0.0
 11
-66.5372157309
 21
488.4129604101999
 31
0.0
  0
LINE
  5
16F
330
1F
100
AcDbEntity
  8
0
  6
Continuous
 62
     7
370
    25
100
AcDbLine
 10
-66.078215638
 20
489.1151114091999
 30
0.0
 11
-66.08158916959999
 21
488.5613356257
 31
0.0
  0
LINE
  5
170
330
1F
100
AcDbEntity
  8
0
  6
Continuous
 62
     7
370
    25
100
AcDbLine
 10
-72.25611795679999
 20
489.1527464030999
 30
0.0
 11
-66.078215638
 21
489.1151114091999
 31
0.0
  0
LINE
  5
171
330
1F
100
AcDbEntity
  8
0
  6
Continuous
 62
     7
370
    25
100
AcDbLine
 10
-72.260566995
 20
488.4224228354
 30
0.0
 11
-72.25611795679999
 21
489.1527464030999
 31
0.0
  0
LINE
  5
172
330
1F
100
AcDbEntity
  8
0
  6
Continuous
 62
     7
370
    25
100
AcDbLine
 10
-69.7393630265
 20
488.407063982
 30
0.0
 11
-72.260566995
 21
488.4224228354
 31
0.0
  0
LINE
  5
173
330
1F
100
AcDbEntity
  8
0
  6
Continuous
 62
     7
370
    25
100
AcDbLine
 10
-69.73944813850001
 20
488.3930925746
 30
0.0
 11
-69.7393630265
 21
488.407063982
 31
0.0
  0
SPLINE
  5
174
330
1F
100
AcDbEntity
  8
0
  6
Continuous
 62
     7
370
    25
100
AcDbSpline
210
0.0
220
0.0
230
1.0
 70
     8
 71
     3
 72
    16
 73
    12
 74
     0
 42
0.00000001
 43
0.0000000001
 40
0.0
 40
0.0
 40
0.0
 40
0.0
 40
0.2500000000000126
 40
0.2500000000000126
 40
0.5000000000000253
 40
0.5000000000000253
 40
0.7500000000000383
 40
0.7500000000000383
 40
0.8750000000000191
 40
0.8750000000000191
 40
1.0
 40
1.0
 40
1.0
 40
1.0
 10
-70.23534920906965
 20
487.2631173699283
 30
0.0
 10
-70.23254479892075
 20
487.369392337943
 30
0.0
 10
-70.22643641782356
 20
487.4755923817835
 30
0.0
 10
-70.18788958332777
 20
487.6847099582029
 30
0.0
 10
-70.15967715840722
 20
487.7878327160138
 30
0.0
 10
-70.07357609896061
 20
487.9822156300181
 30
0.0
 10
-70.01810450093997
 20
488.0735174755325
 30
0.0
 10
-69.9232436659299
 20
488.201666452358
 30
0.0
 10
-69.88963164058013
 20
488.2429728307148
 30
0.0
 10
-69.81716776885085
 20
488.3205562465968
 30
0.0
 10
-69.77830796090791
 20
488.3568244186815
 30
0.0
 10
-69.7394481384968
 20
488.393092574644
 30
0.0
  0
SPLINE
  5
175
330
1F
100
AcDbEntity
  8
0
  6
Continuous
 62
     7
370
    25
100
AcDbSpline
210
0.0
220
0.0
230
1.0
 70
     8
 71
     3
 72
    22
 73
    18
 74
     0
 42
0.00000001
 43
0.0000000001
 40
0.0
 40
0.0
 40
0.0
 40
0.0
 40
0.1249999999999998
 40
0.1249999999999998
 40
0.2499999999999997
 40
0.2499999999999997
 40
0.4999999999999993
 40
0.4999999999999993
 40
0.6249999999999995
 40
0.6249999999999995
 40
0.7499999999999997
 40
0.7499999999999997
 40
0.8749999999999998
 40
0.8749999999999998
 40
0.9375
 40
0.9375
 40
1.0
 40
1.0
 40
1.0
 40
1.0
 10
-68.08189910836093
 20
485.4692133648895
 30
0.0
 10
-68.21294675894485
 20
485.4718456329898
 30
0.0
 10
-68.34409295683999
 20
485.4762299177754
 30
0.0
 10
-68.60444148689452
 20
485.5070550580277
 30
0.0
 10
-68.73342215159799
 20
485.5323345440481
 30
0.0
 10
-69.11257298208089
 20
485.6364431529493
 30
0.0
 10
-69.35799203401394
 20
485.7411958104498
 30
0.0
 10
-69.67321168271694
 20
485.9762847549183
 30
0.0
 10
-69.76556130680791
 20
486.0708132989047
 30
0.0
 10
-69.93035884806338
 20
486.2748821951881
 30
0.0
 10
-70.00158629320364
 20
486.3858259698258
 30
0.0
 10
-70.11899178333407
 20
486.6204897513667
 30
0.0
 10
-70.16251067371114
 20
486.7449898703996
 30
0.0
 10
-70.2056408730407
 20
486.9370435552188
 30
0.0
 10
-70.21699558782273
 20
487.0017603354646
 30
0.0
 10
-70.23089329825928
 20
487.1320185924333
 30
0.0
 10
-70.23312999222925
 20
487.1975677859524
 30
0.0
 10
-70.23534920906965
 20
487.2631173699283
 30
0.0
  0
SPLINE
  5
176
330
1F
100
AcDbEntity
  8
0
  6
Continuous
 62
     7
370
    25
100
AcDbSpline
210
0.0
220
0.0
230
1.0
 70
     8
 71
     3
 72
    20
 73
    16
 74
     0
 42
0.00000001
 43
0.0000000001
 40
0.0
 40
0.0
 40
0.0
 40
0.0
 40
0.0624999999999833
 40
0.0624999999999833
 40
0.1249999999999667
 40
0.1249999999999667
 40
0.2499999999999599
 40
0.2499999999999599
 40
0.4999999999999711
 40
0.4999999999999711
 40
0.7499999999999824
 40
0.7499999999999824
 40
0.8749999999999911
 40
0.8749999999999911
 40
1.0
 40
1.0
 40
1.0
 40
1.0
 10
-66.0083866243653
 20
487.2335567271375
 30
0.0
 10
-66.0099148781227
 20
487.1694937780515
 30
0.0
 10
-66.01158129083586
 20
487.1054369113085
 30
0.0
 10
-66.02503274577869
 20
486.9781437197208
 30
0.0
 10
-66.03570408838457
 20
486.914838412021
 30
0.0
 10
-66.07359871597869
 20
486.7264495127265
 30
0.0
 10
-66.111605313343
 20
486.6034007807813
 30
0.0
 10
-66.2646402384503
 20
486.2509397846607
 30
0.0
 10
-66.43056605519904
 20
486.0452578210765
 30
0.0
 10
-66.8364835922748
 20
485.7325005845577
 30
0.0
 10
-67.07315329918523
 20
485.6217464097836
 30
0.0
 10
-67.44407221407026
 20
485.5213215464171
 30
0.0
 10
-67.57080881989555
 20
485.4997429369271
 30
0.0
 10
-67.8256942336101
 20
485.4740000731169
 30
0.0
 10
-67.95383124609884
 20
485.4713267499935
 30
0.0
 10
-68.08189910836093
 20
485.4692133648895
 30
0.0
  0
SPLINE
  5
177
330
1F
100
AcDbEntity
  8
0
  6
Continuous
 62
     7
370
    25
100
AcDbSpline
210
0.0
220
0.0
230
1.0
 70
     8
 71
     3
 72
    14
 73
    10
 74
     0
 42
0.00000001
 43
0.0000000001
 40
0.0
 40
0.0
 40
0.0
 40
0.0
 40
0.25
 40
0.25
 40
0.5
 40
0.5
 40
0.75
 40
0.75
 40
1.0
 40
1.0
 40
1.0
 40
1.0
 10
-69.2059170275106
 20
488.4025441218819
 30
0.0
 10
-69.27374817281208
 20
488.3337513018936
 30
0.0
 10
-69.33949852804014
 20
488.2626118097674
 30
0.0
 10
-69.45137803298428
 20
488.1051283285881
 30
0.0
 10
-69.5014471646272
 20
488.0219591944971
 30
0.0
 10
-69.58267659651878
 20
487.8467484277667
 30
0.0
 10
-69.61392646810971
 20
487.7546708798013
 30
0.0
 10
-69.65587973686838
 20
487.5660408109562
 30
0.0
 10
-69.66223173960995
 20
487.4692585486046
 30
0.0
 10
-69.66564325650414
 20
487.3726923759156
 30
0.0
  0
LINE
  5
178
330
1F
100
AcDbEntity
  8
0
  6
Continuous
 62
     7
370
    25
100
AcDbLine
 10
-67.1165565599
 20
488.3898160041
 30
0.0
 11
-69.20591702750001
 21
488.4025441219
 31
0.0
  0
SPLINE
  5
179
330
1F
100
AcDbEntity
  8
0
  6
Continuous
 62
     7
370
    25
100
AcDbSpline
210
0.0
220
0.0
230
1.0
 70
     8
 71
     3
 72
    16
 73
    12
 74
     0
 42
0.00000001
 43
0.0000000001
 40
0.0
 40
0.0
 40
0.0
 40
0.0
 40
0.2499999999999873
 40
0.2499999999999873
 40
0.4999999999999746
 40
0.4999999999999746
 40
0.7499999999999618
 40
0.7499999999999618
 40
0.8749999999999808
 40
0.8749999999999808
 40
1.0
 40
1.0
 40
1.0
 40
1.0
 10
-66.57676947167778
 20
487.3411735995455
 30
0.0
 10
-66.57998164249453
 20
487.443418121103
 30
0.0
 10
-66.58582981146874
 20
487.545768019219
 30
0.0
 10
-66.63437658438258
 20
487.7444663074981
 30
0.0
 10
-66.67184260190042
 20
487.8402783889968
 30
0.0
 10
-66.76575795739608
 20
488.021697339371
 30
0.0
 10
-66.82321500301921
 20
488.1070877747843
 30
0.0
 10
-66.92464430760542
 20
488.2218623895681
 30
0.0
 10
-66.96028947425614
 20
488.2586241272191
 30
0.0
 10
-67.03528610364275
 20
488.3279164139083
 30
0.0
 10
-67.07575032340028
 20
488.3590856471513
 30
0.0
 10
-67.11655655990483
 20
488.3898160040971
 30
0.0
  0
SPLINE
  5
17A
330
1F
100
AcDbEntity
  8
0
  6
Continuous
 62
     7
370
    25
100
AcDbSpline
210
0.0
220
0.0
230
1.0
 70
     8
 71
     3
 72
    18
 73
    14
 74
     0
 42
0.00000001
 43
0.0000000001
 40
0.0
 40
0.0
 40
0.0
 40
0.0
 40
0.1249999999999998
 40
0.1249999999999998
 40
0.2499999999999995
 40
0.2499999999999995
 40
0.3749999999999992
 40
0.3749999999999992
 40
0.499999999999999
 40
0.499999999999999
 40
0.7499999999999995
 40
0.7499999999999995
 40
1.0
 40
1.0
 40
1.0
 40
1.0
 10
-69.66564325650414
 20
487.3726923759156
 30
0.0
 10
-69.66050637150221
 20
487.2806521622207
 30
0.0
 10
-69.65385415388742
 20
487.1886040503898
 30
0.0
 10
-69.61112758449795
 20
487.0093392958188
 30
0.0
 10
-69.58047033311782
 20
486.9213474686537
 30
0.0
 10
-69.48868545719242
 20
486.7617296297201
 30
0.0
 10
-69.43242018848204
 20
486.6878698504868
 30
0.0
 10
-69.30091478400846
 20
486.5588030857136
 30
0.0
 10
-69.22793676224145
 20
486.5019320195988
 30
0.0
 10
-68.99198414316829
 20
486.3582042958
 30
0.0
 10
-68.81788019525146
 20
486.2908551097833
 30
0.0
 10
-68.45774731995799
 20
486.2142208702321
 30
0.0
 10
-68.27287445538885
 20
486.2058562461498
 30
0.0
 10
-68.08887348426633
 20
486.2008766976561
 30
0.0
  0
SPLINE
  5
17B
330
1F
100
AcDbEntity
  8
0
  6
Continuous
 62
     7
370
    25
100
AcDbSpline
210
0.0
220
0.0
230
1.0
 70
     8
 71
     3
 72
    18
 73
    14
 74
     0
 42
0.00000001
 43
0.0000000001
 40
0.0
 40
0.0
 40
0.0
 40
0.0
 40
0.1250000000000001
 40
0.1250000000000001
 40
0.2500000000000001
 40
0.2500000000000001
 40
0.5000000000000002
 40
0.5000000000000002
 40
0.7500000000000004
 40
0.7500000000000004
 40
0.8750000000000001
 40
0.8750000000000001
 40
1.0
 40
1.0
 40
1.0
 40
1.0
 10
-68.08887348426633
 20
486.2008766976561
 30
0.0
 10
-67.99984865741821
 20
486.2019734435108
 30
0.0
 10
-67.91079025802826
 20
486.2037072898118
 30
0.0
 10
-67.73341592025824
 20
486.2194218281449
 30
0.0
 10
-67.64511476056748
 20
486.2321420184234
 30
0.0
 10
-67.3841911271656
 20
486.2893415953906
 30
0.0
 10
-67.21381216979167
 20
486.3496711691878
 30
0.0
 10
-66.91174551776382
 20
486.5384831792076
 30
0.0
 10
-66.78115614553296
 20
486.6683812494825
 30
0.0
 10
-66.6572788926866
 20
486.90525364712
 30
0.0
 10
-66.626199248996
 20
486.9893662181887
 30
0.0
 10
-66.58604369479407
 20
487.1630104513235
 30
0.0
 10
-66.57943746712454
 20
487.2521075061508
 30
0.0
 10
-66.57676947167778
 20
487.3411735995455
 30
0.0
  0
SPLINE
  5
17C
330
1F
100
AcDbEntity
  8
0
  6
Continuous
 62
     7
370
    25
100
AcDbSpline
210
0.0
220
0.0
230
1.0
 70
     8
 71
     3
 72
    18
 73
    14
 74
     0
 42
0.00000001
 43
0.0000000001
 40
0.0
 40
0.0
 40
0.0
 40
0.0
 40
0.1250000000000034
 40
0.1250000000000034
 40
0.2500000000000067
 40
0.2500000000000067
 40
0.5000000000000046
 40
0.5000000000000046
 40
0.7500000000000023
 40
0.7500000000000023
 40
0.875000000000001
 40
0.875000000000001
 40
1.0
 40
1.0
 40
1.0
 40
1.0
 10
-68.15617921283392
 20
480.9905204696876
 30
0.0
 10
-68.06403042389192
 20
480.9910121017633
 30
0.0
 10
-67.97190673799787
 20
480.9928644430926
 30
0.0
 10
-67.78869480629741
 20
481.0124523701812
 30
0.0
 10
-67.69734048880028
 20
481.0261996542511
 30
0.0
 10
-67.42927491842815
 20
481.0930316449752
 30
0.0
 10
-67.25514845836291
 20
481.1621424184601
 30
0.0
 10
-66.95101605940692
 20
481.3701007719487
 30
0.0
 10
-66.82077527745146
 20
481.5083147952576
 30
0.0
 10
-66.69297071179153
 20
481.753488127366
 30
0.0
 10
-66.66115697757314
 20
481.840718291432
 30
0.0
 10
-66.61767703349204
 20
482.0197633127448
 30
0.0
 10
-66.61127474738862
 20
482.1121809076843
 30
0.0
 10
-66.60806284527606
 20
482.2042681435061
 30
0.0
  0
SPLINE
  5
17D
330
1F
100
AcDbEntity
  8
0
  6
Continuous
 62
     7
370
    25
100
AcDbSpline
210
0.0
220
0.0
230
1.0
 70
     8
 71
     3
 72
    18
 73
    14
 74
     0
 42
0.00000001
 43
0.0000000001
 40
0.0
 40
0.0
 40
0.0
 40
0.0
 40
0.1250000000000139
 40
0.1250000000000139
 40
0.2500000000000278
 40
0.2500000000000278
 40
0.5000000000000222
 40
0.5000000000000222
 40
0.7500000000000162
 40
0.7500000000000162
 40
0.8750000000000081
 40
0.8750000000000081
 40
1.0
 40
1.0
 40
1.0
 40
1.0
 10
-69.6970372170515
 20
482.2192752566065
 30
0.0
 10
-69.69494288542617
 20
482.1269625828228
 30
0.0
 10
-69.68963677125116
 20
482.0342770858928
 30
0.0
 10
-69.64815005391263
 20
481.8543656707666
 30
0.0
 10
-69.61729352452239
 20
481.7665768805449
 30
0.0
 10
-69.4918743493522
 20
481.5195459491223
 30
0.0
 10
-69.36181767047507
 20
481.3805877879004
 30
0.0
 10
-69.05687091242938
 20
481.1721507204803
 30
0.0
 10
-68.88360713380532
 20
481.1007975731696
 30
0.0
 10
-68.61559257702943
 20
481.0312758599863
 30
0.0
 10
-68.52413893881013
 20
481.0169127210444
 30
0.0
 10
-68.3407931688751
 20
480.9950816728109
 30
0.0
 10
-68.24851339176513
 20
480.9920850835105
 30
0.0
 10
-68.15617921283392
 20
480.9905204696876
 30
0.0
  0
SPLINE
  5
17E
330
1F
100
AcDbEntity
  8
0
  6
Continuous
 62
     7
370
    25
100
AcDbSpline
210
0.0
220
0.0
230
1.0
 70
     8
 71
     3
 72
    18
 73
    14
 74
     0
 42
0.00000001
 43
0.0000000001
 40
0.0
 40
0.0
 40
0.0
 40
0.0
 40
0.125
 40
0.125
 40
0.25
 40
0.25
 40
0.5
 40
0.5
 40
0.75
 40
0.75
 40
0.875
 40
0.875
 40
1.0
 40
1.0
 40
1.0
 40
1.0
 10
-68.14132329420353
 20
483.4291661218476
 30
0.0
 10
-68.2336672544651
 20
483.4287028334381
 30
0.0
 10
-68.32599897948914
 20
483.4268940770015
 30
0.0
 10
-68.50961175271105
 20
483.407318508413
 30
0.0
 10
-68.60106325696023
 20
483.3934426918482
 30
0.0
 10
-68.8706923784861
 20
483.3299624411751
 30
0.0
 10
-69.04411865093826
 20
483.2585832003703
 30
0.0
 10
-69.3515772666425
 20
483.0538001672367
 30
0.0
 10
-69.48334447322635
 20
482.9164810522707
 30
0.0
 10
-69.6117762798884
 20
482.6709885453793
 30
0.0
 10
-69.64370272484245
 20
482.5835784831376
 30
0.0
 10
-69.68738252369782
 20
482.4041781182804
 30
0.0
 10
-69.69381821930348
 20
482.3115598348817
 30
0.0
 10
-69.6970372170515
 20
482.2192752566065
 30
0.0
  0
SPLINE
  5
17F
330
1F
100
AcDbEntity
  8
0
  6
Continuous
 62
     7
370
    25
100
AcDbSpline
210
0.0
220
0.0
230
1.0
 70
     8
 71
     3
 72
    18
 73
    14
 74
     0
 42
0.00000001
 43
0.0000000001
 40
0.0
 40
0.0
 40
0.0
 40
0.0
 40
0.1249999999999999
 40
0.1249999999999999
 40
0.2499999999999999
 40
0.2499999999999999
 40
0.5000000000000004
 40
0.5000000000000004
 40
0.7500000000000008
 40
0.7500000000000008
 40
0.8750000000000003
 40
0.8750000000000003
 40
1.0
 40
1.0
 40
1.0
 40
1.0
 10
-66.60806284527606
 20
482.2042681435061
 30
0.0
 10
-66.61001867915111
 20
482.2961723369406
 30
0.0
 10
-66.61540857616242
 20
482.3883908674998
 30
0.0
 10
-66.65642900418678
 20
482.5675671169778
 30
0.0
 10
-66.68729718586636
 20
482.6549131415131
 30
0.0
 10
-66.81305507367437
 20
482.9003639369272
 30
0.0
 10
-66.94208737218414
 20
483.0391025850312
 30
0.0
 10
-67.24485686841368
 20
483.2477511618258
 30
0.0
 10
-67.41674789969758
 20
483.3207471679351
 30
0.0
 10
-67.68424869021854
 20
483.3875386135032
 30
0.0
 10
-67.7750179341581
 20
483.4029594654178
 30
0.0
 10
-67.95753641610829
 20
483.4246464576863
 30
0.0
 10
-68.04942345386698
 20
483.4275309765717
 30
0.0
 10
-68.14132329420353
 20
483.4291661218476
 30
0.0
  0
ARC
  5
180
330
1F
100
AcDbEntity
  8
0
  6
Continuous
 62
     7
370
    25
100
AcDbCircle
 10
-68.988523248
 20
220.8962779099
 30
0.0
 40
19.99999999999999
100
AcDbArc
 50
180.0094653173
 51
0.0094653173
  0
SPLINE
  5
181
330
1F
100
AcDbEntity
  8
0
  6
Continuous
 62
     7
370
    25
100
AcDbSpline
210
0.0
220
0.0
230
1.0
 70
     8
 71
     3
 72
    22
 73
    18
 74
     0
 42
0.00000001
 43
0.0000000001
 40
0.0
 40
0.0
 40
0.0
 40
0.0
 40
0.124999999999996
 40
0.124999999999996
 40
0.2499999999999921
 40
0.2499999999999921
 40
0.4999999999999835
 40
0.4999999999999835
 40
0.6249999999999875
 40
0.6249999999999875
 40
0.7499999999999915
 40
0.7499999999999915
 40
0.8749999999999957
 40
0.8749999999999957
 40
0.937499999999998
 40
0.937499999999998
 40
1.0
 40
1.0
 40
1.0
 40
1.0
 10
-68.13080444542868
 20
208.0511741487425
 30
0.0
 10
-68.27128616451573
 20
208.0542867883024
 30
0.0
 10
-68.41184566564057
 20
208.0595744301375
 30
0.0
 10
-68.69026975634473
 20
208.0979755808168
 30
0.0
 10
-68.82793992918156
 20
208.1283330057985
 30
0.0
 10
-69.22920188441546
 20
208.2575645610744
 30
0.0
 10
-69.48335087122429
 20
208.3904508377775
 30
0.0
 10
-69.80108326637128
 20
208.6676870037988
 30
0.0
 10
-69.89666964080038
 20
208.7719012707979
 30
0.0
 10
-70.05974825836637
 20
209.0008701705022
 30
0.0
 10
-70.12687339035321
 20
209.1252494336515
 30
0.0
 10
-70.23386410369386
 20
209.3852512189467
 30
0.0
 10
-70.27150004023225
 20
209.5212434677721
 30
0.0
 10
-70.30917738587205
 20
209.7287655050726
 30
0.0
 10
-70.31888197487099
 20
209.7984433492376
 30
0.0
 10
-70.32958646800726
 20
209.9384116193133
 30
0.0
 10
-70.33093515252336
 20
210.0086955616611
 30
0.0
 10
-70.33228383703946
 20
210.0789795040089
 30
0.0
  0
SPLINE
  5
182
330
1F
100
AcDbEntity
  8
0
  6
Continuous
 62
     7
370
    25
100
AcDbSpline
210
0.0
220
0.0
230
1.0
 70
     8
 71
     3
 72
    18
 73
    14
 74
     0
 42
0.00000001
 43
0.0000000001
 40
0.0
 40
0.0
 40
0.0
 40
0.0
 40
0.1250000000000003
 40
0.1250000000000003
 40
0.2500000000000006
 40
0.2500000000000006
 40
0.5000000000000007
 40
0.5000000000000007
 40
0.7500000000000007
 40
0.7500000000000007
 40
0.8750000000000003
 40
0.8750000000000003
 40
1.0
 40
1.0
 40
1.0
 40
1.0
 10
-65.93791835422564
 20
210.083666725035
 30
0.0
 10
-65.94185401610926
 20
209.9430899816942
 30
0.0
 10
-65.94804743123312
 20
209.8022274353139
 30
0.0
 10
-65.99553643135895
 20
209.5249725998808
 30
0.0
 10
-66.0337629223568
 20
209.3888200215306
 30
0.0
 10
-66.18936776183533
 20
208.996657759931
 30
0.0
 10
-66.35369251442935
 20
208.758652018474
 30
0.0
 10
-66.7759193717249
 20
208.3868950859739
 30
0.0
 10
-67.03005729336933
 20
208.252524550008
 30
0.0
 10
-67.43277905620395
 20
208.1269454217312
 30
0.0
 10
-67.57075510976855
 20
208.0971660123672
 30
0.0
 10
-67.84951236392863
 20
208.0597774155366
 30
0.0
 10
-67.99023248666474
 20
208.0546235970861
 30
0.0
 10
-68.13080444542868
 20
208.0511741487425
 30
0.0
  0
SPLINE
  5
183
330
1F
100
AcDbEntity
  8
0
  6
Continuous
 62
     7
370
    25
100
AcDbSpline
210
0.0
220
0.0
230
1.0
 70
     8
 71
     3
 72
    20
 73
    16
 74
     0
 42
0.00000001
 43
0.0000000001
 40
0.0
 40
0.0
 40
0.0
 40
0.0
 40
0.1250000000000071
 40
0.1250000000000071
 40
0.2500000000000142
 40
0.2500000000000142
 40
0.3750000000000212
 40
0.3750000000000212
 40
0.5000000000000284
 40
0.5000000000000284
 40
0.7500000000000256
 40
0.7500000000000256
 40
0.8750000000000127
 40
0.8750000000000127
 40
1.0
 40
1.0
 40
1.0
 40
1.0
 10
-68.1314745563281
 20
212.1075121215601
 30
0.0
 10
-67.99144089502513
 20
212.1043575677871
 30
0.0
 10
-67.85132612500003
 20
212.09893208586
 30
0.0
 10
-67.57384904257945
 20
212.060229185952
 30
0.0
 10
-67.43656322176287
 20
212.0300592313643
 30
0.0
 10
-67.16998875995023
 20
211.9439520121681
 30
0.0
 10
-67.04024167667842
 20
211.8895497761311
 30
0.0
 10
-66.79376314593413
 20
211.7564847777273
 30
0.0
 10
-66.67837264495209
 20
211.6754838980576
 30
0.0
 10
-66.36125989895622
 20
211.3998651012543
 30
0.0
 10
-66.19553426047859
 20
211.1642834259998
 30
0.0
 10
-66.03712174534547
 20
210.7751185033883
 30
0.0
 10
-65.99805839084324
 20
210.6397558229032
 30
0.0
 10
-65.94869657165863
 20
210.3639846427127
 30
0.0
 10
-65.94204931665746
 20
210.2236726068482
 30
0.0
 10
-65.93791835422564
 20
210.083666725035
 30
0.0
  0
SPLINE
  5
184
330
1F
100
AcDbEntity
  8
0
  6
Continuous
 62
     7
370
    25
100
AcDbSpline
210
0.0
220
0.0
230
1.0
 70
     8
 71
     3
 72
    24
 73
    20
 74
     0
 42
0.00000001
 43
0.0000000001
 40
0.0
 40
0.0
 40
0.0
 40
0.0
 40
0.0625
 40
0.0625
 40
0.125
 40
0.125
 40
0.25
 40
0.25
 40
0.375
 40
0.375
 40
0.5000000000000001
 40
0.5000000000000001
 40
0.6250000000000001
 40
0.6250000000000001
 40
0.75
 40
0.75
 40
0.875
 40
0.875
 40
1.0
 40
1.0
 40
1.0
 40
1.0
 10
-70.33228383703946
 20
210.0789795040089
 30
0.0
 10
-70.3310253384239
 20
210.1494063934314
 30
0.0
 10
-70.32976683980833
 20
210.2198332828537
 30
0.0
 10
-70.31953845339828
 20
210.3601138044718
 30
0.0
 10
-70.31014146316197
 20
210.4299579902799
 30
0.0
 10
-70.27351824928619
 20
210.6380959440919
 30
0.0
 10
-70.23710885290312
 20
210.774734362232
 30
0.0
 10
-70.13087115829255
 20
211.0356504795326
 30
0.0
 10
-70.06461882785955
 20
211.1608091793047
 30
0.0
 10
-69.90306586360675
 20
211.3915233810995
 30
0.0
 10
-69.8073752967603
 20
211.4961995607637
 30
0.0
 10
-69.5946604513826
 20
211.6807617143707
 30
0.0
 10
-69.47793920109337
 20
211.7609509789865
 30
0.0
 10
-69.23027748078357
 20
211.8949943564259
 30
0.0
 10
-69.099020281188
 20
211.9477764357083
 30
0.0
 10
-68.82997292044615
 20
212.0306959210315
 30
0.0
 10
-68.6922262696413
 20
212.0621461721767
 30
0.0
 10
-68.41314036109728
 20
212.0993870534742
 30
0.0
 10
-68.27219482675483
 20
212.1040396367322
 30
0.0
 10
-68.1314745563281
 20
212.1075121215601
 30
0.0
  0
SPLINE
  5
185
330
1F
100
AcDbEntity
  8
0
  6
Continuous
 62
     7
370
    25
100
AcDbSpline
210
0.0
220
0.0
230
1.0
 70
     8
 71
     3
 72
    10
 73
     6
 74
     0
 42
0.00000001
 43
0.0000000001
 40
0.0
 40
0.0
 40
0.0
 40
0.0
 40
0.5
 40
0.5
 40
1.0
 40
1.0
 40
1.0
 40
1.0
 10
-66.53017370148525
 20
214.3575126041798
 30
0.0
 10
-66.53219412996779
 20
214.4544581147798
 30
0.0
 10
-66.53817967680557
 20
214.5512623752036
 30
0.0
 10
-66.56690553325457
 20
214.7430568234763
 30
0.0
 10
-66.58780417502118
 20
214.8377203315085
 30
0.0
 10
-66.61081436378445
 20
214.9318830929202
 30
0.0
  0
SPLINE
  5
186
330
1F
100
AcDbEntity
  8
0
  6
Continuous
 62
     7
370
    25
100
AcDbSpline
210
0.0
220
0.0
230
1.0
 70
     8
 71
     3
 72
    16
 73
    12
 74
     0
 42
0.00000001
 43
0.0000000001
 40
0.0
 40
0.0
 40
0.0
 40
0.0
 40
0.1249999999999904
 40
0.1249999999999904
 40
0.2499999999999808
 40
0.2499999999999808
 40
0.4999999999999872
 40
0.4999999999999872
 40
0.7499999999999936
 40
0.7499999999999936
 40
1.0
 40
1.0
 40
1.0
 40
1.0
 10
-67.20610547516982
 20
213.6034396617125
 30
0.0
 10
-67.15806502082457
 20
213.6054563384594
 30
0.0
 10
-67.1100240934578
 20
213.6074760878495
 30
0.0
 10
-67.01507058436842
 20
213.6216287391939
 30
0.0
 10
-66.96817290011946
 20
213.6336398602525
 30
0.0
 10
-66.83322458914947
 20
213.684842959657
 30
0.0
 10
-66.75135273548949
 20
213.7410918422573
 30
0.0
 10
-66.6290419752911
 20
213.8895789778785
 30
0.0
 10
-66.5870649276891
 20
213.9786987674067
 30
0.0
 10
-66.53867875423526
 20
214.16486066913
 30
0.0
 10
-66.53379775026957
 20
214.2614517789742
 30
0.0
 10
-66.53017370148525
 20
214.3575126041798
 30
0.0
  0
LINE
  5
187
330
1F
100
AcDbEntity
  8
0
  6
Continuous
 62
     7
370
    25
100
AcDbLine
 10
-69.6568096671
 20
213.603034803
 30
0.0
 11
-67.2061054752
 21
213.6034396617
 31
0.0
  0
LINE
  5
188
330
1F
100
AcDbEntity
  8
0
  6
Continuous
 62
     7
370
    25
100
AcDbLine
 10
-69.65701885859999
 20
214.869319997
 30
0.0
 11
-69.6568096671
 21
213.603034803
 31
0.0
  0
LINE
  5
189
330
1F
100
AcDbEntity
  8
0
  6
Continuous
 62
     7
370
    25
100
AcDbLine
 10
-70.2485681463
 20
214.8692222725
 30
0.0
 11
-69.65701885859999
 21
214.869319997
 31
0.0
  0
LINE
  5
18A
330
1F
100
AcDbEntity
  8
0
  6
Continuous
 62
     7
370
    25
100
AcDbLine
 10
-70.24835895479999
 20
213.6029370785
 30
0.0
 11
-70.2485681463
 21
214.8692222725
 31
0.0
  0
LINE
  5
18B
330
1F
100
AcDbEntity
  8
0
  6
Continuous
 62
     7
370
    25
100
AcDbLine
 10
-71.4314575302
 20
213.6027416295
 30
0.0
 11
-70.24835895479999
 21
213.6029370785
 31
0.0
  0
LINE
  5
18C
330
1F
100
AcDbEntity
  8
0
  6
Continuous
 62
     7
370
    25
100
AcDbLine
 10
-71.4313318844
 20
212.8421782596
 30
0.0
 11
-71.4314575302
 21
213.6027416295
 31
0.0
  0
LINE
  5
18D
330
1F
100
AcDbEntity
  8
0
  6
Continuous
 62
     7
370
    25
100
AcDbLine
 10
-70.248233309
 20
212.8423737086
 30
0.0
 11
-71.4313318844
 21
212.8421782596
 31
0.0
  0
LINE
  5
18E
330
1F
100
AcDbEntity
  8
0
  6
Continuous
 62
     7
370
    25
100
AcDbLine
 10
-70.24809871969999
 20
212.0276730155
 30
0.0
 11
-70.248233309
 21
212.8423737086
 31
0.0
  0
LINE
  5
18F
330
1F
100
AcDbEntity
  8
0
  6
Continuous
 62
     7
370
    25
100
AcDbLine
 10
-69.65654943199999
 20
212.02777074
 30
0.0
 11
-70.24809871969999
 21
212.0276730155
 31
0.0
  0
LINE
  5
190
330
1F
100
AcDbEntity
  8
0
  6
Continuous
 62
     7
370
    25
100
AcDbLine
 10
-69.65668402129999
 20
212.8424714331
 30
0.0
 11
-69.65654943199999
 21
212.02777074
 31
0.0
  0
LINE
  5
191
330
1F
100
AcDbEntity
  8
0
  6
Continuous
 62
     7
370
    25
100
AcDbLine
 10
-67.10430729560001
 20
212.8428930882
 30
0.0
 11
-69.65668402129999
 21
212.8424714331
 31
0.0
  0
SPLINE
  5
192
330
1F
100
AcDbEntity
  8
0
  6
Continuous
 62
     7
370
    25
100
AcDbSpline
210
0.0
220
0.0
230
1.0
 70
     8
 71
     3
 72
    20
 73
    16
 74
     0
 42
0.00000001
 43
0.0000000001
 40
0.0
 40
0.0
 40
0.0
 40
0.0
 40
0.1250000000000057
 40
0.1250000000000057
 40
0.2500000000000113
 40
0.2500000000000113
 40
0.375000000000017
 40
0.375000000000017
 40
0.5000000000000227
 40
0.5000000000000227
 40
0.7500000000000027
 40
0.7500000000000027
 40
0.8750000000000014
 40
0.8750000000000014
 40
1.0
 40
1.0
 40
1.0
 40
1.0
 10
-65.93860238214181
 20
214.2242476544493
 30
0.0
 10
-65.94004611848903
 20
214.138913567044
 30
0.0
 10
-65.94257198567028
 20
214.0535841838686
 30
0.0
 10
-65.96161963065582
 20
213.8839730369263
 30
0.0
 10
-65.97535946278181
 20
213.7995475637084
 30
0.0
 10
-66.01740598825682
 20
213.6341324847784
 30
0.0
 10
-66.04519669383961
 20
213.5531197332318
 30
0.0
 10
-66.11527115335988
 20
213.3974264862998
 30
0.0
 10
-66.15941495825833
 20
213.3239104518613
 30
0.0
 10
-66.3101240840482
 20
213.1168409086339
 30
0.0
 10
-66.44821899533977
 20
213.0065670375924
 30
0.0
 10
-66.68323726056026
 20
212.9049124145487
 30
0.0
 10
-66.76582705881429
 20
212.881512830791
 30
0.0
 10
-66.93357023272763
 20
212.8496649633333
 30
0.0
 10
-67.01894848576384
 20
212.8446105689451
 30
0.0
 10
-67.10430729555231
 20
212.8428930882087
 30
0.0
  0
SPLINE
  5
193
330
1F
100
AcDbEntity
  8
0
  6
Continuous
 62
     7
370
    25
100
AcDbSpline
210
0.0
220
0.0
230
1.0
 70
     8
 71
     3
 72
    12
 73
     8
 74
     0
 42
0.00000001
 43
0.0000000001
 40
0.0
 40
0.0
 40
0.0
 40
0.0
 40
0.2500000000000285
 40
0.2500000000000285
 40
0.5000000000000571
 40
0.5000000000000571
 40
1.0
 40
1.0
 40
1.0
 40
1.0
 10
-66.03907141383979
 20
214.9319775454005
 30
0.0
 10
-66.01863998037512
 20
214.8757146139558
 30
0.0
 10
-66.0048646035679
 20
214.8173984812381
 30
0.0
 10
-65.97868831399519
 20
214.7007279939268
 30
0.0
 10
-65.96937249031674
 20
214.6415425005034
 30
0.0
 10
-65.94649402578314
 20
214.4635230079872
 30
0.0
 10
-65.94200868114167
 20
214.3438622421768
 30
0.0
 10
-65.93860238214181
 20
214.2242476544493
 30
0.0
  0
LINE
  5
194
330
1F
100
AcDbEntity
  8
0
  6
Continuous
 62
     7
370
    25
100
AcDbLine
 10
-66.6108143638
 20
214.9318830929
 30
0.0
 11
-66.0390714138
 21
214.9319775454
 31
0.0
  0
LINE
  5
195
330
1F
100
AcDbEntity
  8
0
  6
Continuous
 62
     7
370
    25
100
AcDbLine
 10
-72.02122823189999
 20
202.8364468688
 30
0.0
 11
-72.02135387770001
 21
203.5970102387
 31
0.0
  0
LINE
  5
196
330
1F
100
AcDbEntity
  8
0
  6
Continuous
 62
     7
370
    25
100
AcDbLine
 10
-66.0212283138
 20
202.8374380745
 30
0.0
 11
-72.02122823189999
 21
202.8364468688
 31
0.0
  0
LINE
  5
197
330
1F
100
AcDbEntity
  8
0
  6
Continuous
 62
     7
370
    25
100
AcDbLine
 10
-66.0213539595
 20
203.5980014444
 30
0.0
 11
-66.0212283138
 21
202.8374380745
 31
0.0
  0
LINE
  5
198
330
1F
100
AcDbEntity
  8
0
  6
Continuous
 62
     7
370
    25
100
AcDbLine
 10
-68.72557927479999
 20
203.5975547038
 30
0.0
 11
-66.0213539595
 21
203.5980014444
 31
0.0
  0
LINE
  5
199
330
1F
100
AcDbEntity
  8
0
  6
Continuous
 62
     7
370
    25
100
AcDbLine
 10
-68.72608185789999
 20
206.6398081835
 30
0.0
 11
-68.72557927479999
 21
203.5975547038
 31
0.0
  0
LINE
  5
19A
330
1F
100
AcDbEntity
  8
0
  6
Continuous
 62
     7
370
    25
100
AcDbLine
 10
-66.02185654270001
 20
206.6402549241
 30
0.0
 11
-68.72608185789999
 21
206.6398081835
 31
0.0
  0
LINE
  5
19B
330
1F
100
AcDbEntity
  8
0
  6
Continuous
 62
     7
370
    25
100
AcDbLine
 10
-66.0219821885
 20
207.400818294
 30
0.0
 11
-66.02185654270001
 21
206.6402549241
 31
0.0
  0
LINE
  5
19C
330
1F
100
AcDbEntity
  8
0
  6
Continuous
 62
     7
370
    25
100
AcDbLine
 10
-72.02198210659999
 20
207.3998270883
 30
0.0
 11
-66.0219821885
 21
207.400818294
 31
0.0
  0
LINE
  5
19D
330
1F
100
AcDbEntity
  8
0
  6
Continuous
 62
     7
370
    25
100
AcDbLine
 10
-72.0218564608
 20
206.6392637183
 30
0.0
 11
-72.02198210659999
 21
207.3998270883
 31
0.0
  0
LINE
  5
19E
330
1F
100
AcDbEntity
  8
0
  6
Continuous
 62
     7
370
    25
100
AcDbLine
 10
-69.4021381867
 20
206.6396964983
 30
0.0
 11
-72.0218564608
 21
206.6392637183
 31
0.0
  0
LINE
  5
19F
330
1F
100
AcDbEntity
  8
0
  6
Continuous
 62
     7
370
    25
100
AcDbLine
 10
-69.4016356036
 20
203.5974430187
 30
0.0
 11
-69.4021381867
 21
206.6396964983
 31
0.0
  0
LINE
  5
1A0
330
1F
100
AcDbEntity
  8
0
  6
Continuous
 62
     7
370
    25
100
AcDbLine
 10
-72.02135387770001
 20
203.5970102387
 30
0.0
 11
-69.4016356036
 21
203.5974430187
 31
0.0
  0
ARC
  5
1A1
330
1F
100
AcDbEntity
  8
0
  6
Continuous
 62
     7
370
    25
100
AcDbCircle
 10
-68.988523248
 20
220.8962779099
 30
0.0
 40
19.99999999999999
100
AcDbArc
 50
0.0094653173
 51
180.0094653173
  0
SPLINE
  5
1A2
330
1F
100
AcDbEntity
  8
0
  6
Continuous
 62
     7
370
    25
100
AcDbSpline
210
0.0
220
0.0
230
1.0
 70
     8
 71
     3
 72
    18
 73
    14
 74
     0
 42
0.00000001
 43
0.0000000001
 40
0.0
 40
0.0
 40
0.0
 40
0.0
 40
0.125
 40
0.125
 40
0.25
 40
0.25
 40
0.5
 40
0.5
 40
0.75
 40
0.75
 40
0.875
 40
0.875
 40
1.0
 40
1.0
 40
1.0
 40
1.0
 10
-66.52946764192821
 20
210.0835690005287
 30
0.0
 10
-66.53209978729103
 20
210.1791052833212
 30
0.0
 10
-66.53829712347711
 20
210.2749517712475
 30
0.0
 10
-66.58213112161639
 20
210.460956078309
 30
0.0
 10
-66.61475366821439
 20
210.551593544035
 30
0.0
 10
-66.74736976923895
 20
210.8057757155465
 30
0.0
 10
-66.88129429510445
 20
210.95017366881
 30
0.0
 10
-67.19788153544411
 20
211.1643694446491
 30
0.0
 10
-67.37798056208037
 20
211.2366481313333
 30
0.0
 10
-67.6556952964694
 20
211.3072193705369
 30
0.0
 10
-67.75039117217797
 20
211.3217628101155
 30
0.0
 10
-67.94025786957073
 20
211.3433873334355
 30
0.0
 10
-68.0357803914687
 20
211.3459175196961
 30
0.0
 10
-68.13134891053445
 20
211.3469487516568
 30
0.0
  0
SPLINE
  5
1A3
330
1F
100
AcDbEntity
  8
0
  6
Continuous
 62
     7
370
    25
100
AcDbSpline
210
0.0
220
0.0
230
1.0
 70
     8
 71
     3
 72
    18
 73
    14
 74
     0
 42
0.00000001
 43
0.0000000001
 40
0.0
 40
0.0
 40
0.0
 40
0.0
 40
0.1249999999999961
 40
0.1249999999999961
 40
0.2499999999999921
 40
0.2499999999999921
 40
0.4999999999999842
 40
0.4999999999999842
 40
0.7499999999999764
 40
0.7499999999999764
 40
0.874999999999988
 40
0.874999999999988
 40
1.0
 40
1.0
 40
1.0
 40
1.0
 10
-68.13134891053445
 20
211.3469487516568
 30
0.0
 10
-68.22733866452461
 20
211.3458769204444
 30
0.0
 10
-68.32329059461843
 20
211.3433690338957
 30
0.0
 10
-68.51401842361489
 20
211.3218191130801
 30
0.0
 10
-68.60911931233481
 20
211.3071531783974
 30
0.0
 10
-68.88812457837068
 20
211.2363455030708
 30
0.0
 10
-69.06886215316872
 20
211.1636965528258
 30
0.0
 10
-69.38709102312978
 20
210.9487915893525
 30
0.0
 10
-69.52316350191978
 20
210.805196425347
 30
0.0
 10
-69.65505452742603
 20
210.5491737155779
 30
0.0
 10
-69.68767005270487
 20
210.45810565689
 30
0.0
 10
-69.73190237910057
 20
210.2713400615743
 30
0.0
 10
-69.73798873362807
 20
210.1750247684529
 30
0.0
 10
-69.74073454933691
 20
210.0790772285152
 30
0.0
  0
SPLINE
  5
1A4
330
1F
100
AcDbEntity
  8
0
  6
Continuous
 62
     7
370
    25
100
AcDbSpline
210
0.0
220
0.0
230
1.0
 70
     8
 71
     3
 72
    18
 73
    14
 74
     0
 42
0.00000001
 43
0.0000000001
 40
0.0
 40
0.0
 40
0.0
 40
0.0
 40
0.1249999999999998
 40
0.1249999999999998
 40
0.2499999999999997
 40
0.2499999999999997
 40
0.4999999999999999
 40
0.4999999999999999
 40
0.75
 40
0.75
 40
0.8749999999999998
 40
0.8749999999999998
 40
1.0
 40
1.0
 40
1.0
 40
1.0
 10
-69.74073454933691
 20
210.0790772285152
 30
0.0
 10
-69.73795690374129
 20
209.9831261594187
 30
0.0
 10
-69.73183796267233
 20
209.8868083957937
 30
0.0
 10
-69.68753956370473
 20
209.7000493449815
 30
0.0
 10
-69.65489122028914
 20
209.6089881821317
 30
0.0
 10
-69.52290288508042
 20
209.353000745
 30
0.0
 10
-69.38675439661754
 20
209.20949635617
 30
0.0
 10
-69.06846019775271
 20
208.994616815577
 30
0.0
 10
-68.88843830635291
 20
208.9197854777278
 30
0.0
 10
-68.6085715521185
 20
208.8519565494392
 30
0.0
 10
-68.51364411428767
 20
208.8366788589443
 30
0.0
 10
-68.32289383107452
 20
208.81521277536
 30
0.0
 10
-68.22691752623512
 20
208.8128022781638
 30
0.0
 10
-68.13093009122231
 20
208.811737518646
 30
0.0
  0
SPLINE
  5
1A5
330
1F
100
AcDbEntity
  8
0
  6
Continuous
 62
     7
370
    25
100
AcDbSpline
210
0.0
220
0.0
230
1.0
 70
     8
 71
     3
 72
    22
 73
    18
 74
     0
 42
0.00000001
 43
0.0000000001
 40
0.0
 40
0.0
 40
0.0
 40
0.0
 40
0.125
 40
0.125
 40
0.25
 40
0.25
 40
0.375
 40
0.375
 40
0.5
 40
0.5
 40
0.625
 40
0.625
 40
0.75
 40
0.75
 40
0.875
 40
0.875
 40
1.0
 40
1.0
 40
1.0
 40
1.0
 10
-68.13093009122231
 20
208.811737518646
 30
0.0
 10
-68.03511179389527
 20
208.812827587188
 30
0.0
 10
-67.93931410860316
 20
208.8153471549047
 30
0.0
 10
-67.74894403272085
 20
208.837134780867
 30
0.0
 10
-67.65418321809921
 20
208.85241908473
 30
0.0
 10
-67.46804909705912
 20
208.8978945587306
 30
0.0
 10
-67.3770565868208
 20
208.9288364705669
 30
0.0
 10
-67.20096531992415
 20
209.004363385047
 30
0.0
 10
-67.11572347031895
 20
209.0491422279
 30
0.0
 10
-66.95803410245644
 20
209.1579746512378
 30
0.0
 10
-66.8851058259726
 20
209.2212980151122
 30
0.0
 10
-66.75875583626418
 20
209.3652997736534
 30
0.0
 10
-66.70238823302381
 20
209.443733663393
 30
0.0
 10
-66.61486233003953
 20
209.6142720045412
 30
0.0
 10
-66.58232985963079
 20
209.7051778432577
 30
0.0
 10
-66.538269407062
 20
209.8916449854557
 30
0.0
 10
-66.53220825119079
 20
209.9877884614304
 30
0.0
 10
-66.52946764192821
 20
210.0835690005287
 30
0.0
  0
ARC
  5
1A6
330
1F
100
AcDbEntity
  8
0
  6
Continuous
 62
     7
370
    25
100
AcDbCircle
 10
71.011214556
 20
344.3705302028
 30
0.0
 40
9.525000000000064
100
AcDbArc
 50
265.7389173807
 51
22.031931849
  0
ARC
  5
1A7
330
1F
100
AcDbEntity
  8
0
  6
Continuous
 62
     7
370
    25
100
AcDbCircle
 10
71.011214556
 20
344.3705302028
 30
0.0
 40
9.525000000000064
100
AcDbArc
 50
22.031931849
 51
94.04316276649998
  0
DIMENSION
  5
281
102
{ACAD_XDICTIONARY
360
298
102
}
330
1F
100
AcDbEntity
  8
DIMENSION
100
AcDbDimension
280
     0
  2
*D20
 10
248.8253307451919
 20
-21.91777928289662
 30
0.0
 11
207.5881498411777
 21
-21.91777928289662
 31
0.0
 70
   160
 71
     5
 42
80.08933035550001
 73
     0
 74
     0
 75
     0
  3
RG Dimension Lines
100
AcDbAlignedDimension
 13
168.7360003896919
 23
-49.7271672217
 33
0.0
 14
248.8253307451919
 24
-40.5809300738
 34
0.0
100
AcDbRotatedDimension
1001
AcadAnnotative
1000
AnnotativeData
1002
{
1070
     1
1070
     1
1002
}
  0
DIMENSION
  5
2BF
102
{ACAD_XDICTIONARY
360
2D7
102
}
330
1F
100
AcDbEntity
  8
DIMENSION
100
AcDbDimension
280
     0
  2
*D22
 10
271.9158952924281
 20
-40.58093007380001
 30
0.0
 11
271.9158952924281
 21
-63.08093007380008
 31
0.0
 70
   160
 71
     5
 42
45.00000000000001
 73
     0
 74
     0
 75
     0
  3
RG Dimension Lines
100
AcDbAlignedDimension
 13
255.8253307451919
 23
-85.5809300738
 33
0.0
 14
248.8253307451919
 24
-40.5809300738
 34
0.0
 50
90.0
100
AcDbRotatedDimension
1001
AcadAnnotative
1000
AnnotativeData
1002
{
1070
     1
1070
     1
1002
}
  0
DIMENSION
  5
2E2
102
{ACAD_XDICTIONARY
360
307
102
}
330
1F
100
AcDbEntity
  8
DIMENSION
100
AcDbDimension
280
     0
  2
*D24
 10
379.5753307450919
 20
-112.4008878169
 30
0.0
 11
352.5753307450919
 21
-120.4008878169
 31
0.0
 70
    32
 71
     5
 42
54.0
 73
     0
 74
     0
 75
     0
  3
RG Dimension Lines
100
AcDbAlignedDimension
 13
325.5753307450919
 23
-85.64990895380001
 33
0.0
 14
379.5753307450919
 24
-85.64990895380001
 34
0.0
100
AcDbRotatedDimension
1001
AcadAnnotative
1000
AnnotativeData
1002
{
1070
     1
1070
     1
1002
}
1001
ACAD
1000
DSTYLE
1002
{
1070
     3
1000
%%C<>
1002
}
  0
ENDSEC
  0
SECTION
  2
OBJECTS
  0
DICTIONARY
  5
C
330
0
100
AcDbDictionary
281
     1
  3
ACAD_CIP_PREVIOUS_PRODUCT_INFO
350
1F0
  3
ACAD_COLOR
350
1E5
  3
ACAD_DETAILVIEWSTYLE
350
1EC
  3
ACAD_GROUP
350
D
  3
ACAD_LAYOUT
350
1A
  3
ACAD_MATERIAL
350
1B3
  3
ACAD_MLEADERSTYLE
350
1E8
  3
ACAD_MLINESTYLE
350
17
  3
ACAD_PLOTSETTINGS
350
19
  3
ACAD_PLOTSTYLENAME
350
E
  3
ACAD_SCALELIST
350
47
  3
ACAD_SECTIONVIEWSTYLE
350
1EA
  3
ACAD_TABLESTYLE
350
1E6
  3
ACAD_VISUALSTYLE
350
1CC
  3
ACDB_RECOMPOSE_DATA
350
32E
  3
AcDbVariableDictionary
350
322
  0
DICTIONARY
  5
204
330
2
100
AcDbDictionary
280
     1
281
     1
  3
ACAD_LAYERSTATES
360
205
  0
DICTIONARY
  5
312
330
10
100
AcDbDictionary
280
     1
281
     1
  3
ADSK_XREC_LAYER_RECONCILED
360
313
  0
DICTIONARY
  5
314
330
73
100
AcDbDictionary
280
     1
281
     1
  3
ADSK_XREC_LAYER_RECONCILED
360
315
  0
DICTIONARY
  5
316
330
1FC
100
AcDbDictionary
280
     1
281
     1
  3
ADSK_XREC_LAYER_RECONCILED
360
317
  0
DICTIONARY
  5
237
330
AA
100
AcDbDictionary
280
     1
281
     1
  3
AcDbContextDataManager
360
238
  0
DICTIONARY
  5
229
330
B7
100
AcDbDictionary
280
     1
281
     1
  3
AcDbContextDataManager
360
22A
  0
DICTIONARY
  5
245
330
BF
100
AcDbDictionary
280
     1
281
     1
  3
AcDbContextDataManager
360
246
  0
DICTIONARY
  5
26F
330
116
100
AcDbDictionary
280
     1
281
     1
  3
AcDbContextDataManager
360
270
  0
DICTIONARY
  5
253
330
11E
100
AcDbDictionary
280
     1
281
     1
  3
AcDbContextDataManager
360
254
  0
DICTIONARY
  5
261
330
126
100
AcDbDictionary
280
     1
281
     1
  3
AcDbContextDataManager
360
262
  0
DICTIONARY
  5
298
330
281
100
AcDbDictionary
280
     1
281
     1
  3
AcDbContextDataManager
360
299
  0
DICTIONARY
  5
2D7
330
2BF
100
AcDbDictionary
280
     1
281
     1
  3
AcDbContextDataManager
360
2D8
  0
DICTIONARY
  5
307
330
2E2
100
AcDbDictionary
280
     1
281
     1
  3
AcDbContextDataManager
360
308
  0
XRECORD
  5
1F0
102
{ACAD_REACTORS
330
C
102
}
330
C
100
AcDbXrecord
280
     1
300
ACD
300
2021
300

  0
DICTIONARY
  5
1E5
102
{ACAD_REACTORS
330
C
102
}
330
C
100
AcDbDictionary
281
     1
  0
DICTIONARY
  5
1EC
102
{ACAD_REACTORS
330
C
102
}
330
C
100
AcDbDictionary
281
     1
  3
Metric50
350
1ED
  0
DICTIONARY
  5
D
102
{ACAD_REACTORS
330
C
102
}
330
C
100
AcDbDictionary
281
     1
  0
DICTIONARY
  5
1A
102
{ACAD_REACTORS
330
C
102
}
330
C
100
AcDbDictionary
281
     1
  3
Layout1
350
1E
  3
Layout2
350
26
  3
Model
350
22
  0
DICTIONARY
  5
1B3
102
{ACAD_REACTORS
330
C
102
}
330
C
100
AcDbDictionary
281
     1
  3
ByBlock
350
1BC
  3
ByLayer
350
1B4
  3
Global
350
1C4
  0
DICTIONARY
  5
1E8
102
{ACAD_REACTORS
330
C
102
}
330
C
100
AcDbDictionary
281
     1
  3
Standard
350
1E9
  0
DICTIONARY
  5
17
102
{ACAD_REACTORS
330
C
102
}
330
C
100
AcDbDictionary
281
     1
  3
Standard
350
18
  0
DICTIONARY
  5
19
102
{ACAD_REACTORS
330
C
102
}
330
C
100
AcDbDictionary
281
     1
  0
ACDBDICTIONARYWDFLT
  5
E
102
{ACAD_REACTORS
330
C
102
}
330
C
100
AcDbDictionary
281
     1
  3
Normal
350
F
100
AcDbDictionaryWithDefault
340
F
  0
DICTIONARY
  5
47
102
{ACAD_REACTORS
330
C
102
}
330
C
100
AcDbDictionary
281
     1
  3
A0
350
48
  3
A1
350
49
  3
A2
350
4A
  3
A3
350
4B
  3
A4
350
4C
  3
A5
350
4D
  3
A6
350
4E
  3
A7
350
4F
  3
A8
350
50
  3
A9
350
51
  3
B0
350
52
  3
B1
350
53
  3
B2
350
54
  3
B3
350
55
  3
B4
350
56
  3
B5
350
57
  3
B6
350
58
  3
B7
350
59
  3
B8
350
5A
  3
B9
350
5B
  3
C0
350
5C
  3
C1
350
5D
  3
C2
350
5E
  3
C3
350
5F
  3
C4
350
60
  3
C5
350
61
  3
C6
350
62
  3
C7
350
63
  3
C8
350
64
  3
C9
350
65
  3
D0
350
66
  3
D1
350
67
  3
D2
350
68
  0
DICTIONARY
  5
1EA
102
{ACAD_REACTORS
330
C
102
}
330
C
100
AcDbDictionary
281
     1
  3
Metric50
350
1EB
  0
DICTIONARY
  5
1E6
102
{ACAD_REACTORS
330
C
102
}
330
C
100
AcDbDictionary
281
     1
  3
Standard
350
1E7
  0
DICTIONARY
  5
1CC
102
{ACAD_REACTORS
330
C
102
}
330
C
100
AcDbDictionary
281
     1
  3
2dWireframe
350
1D2
  3
Basic
350
1D1
  3
Brighten
350
1D8
  3
ColorChange
350
1DC
  3
Conceptual
350
1D5
  3
Dim
350
1D7
  3
EdgeColorOff
350
1E4
  3
Facepattern
350
1DB
  3
Flat
350
1CD
  3
FlatWithEdges
350
1CE
  3
Gouraud
350
1CF
  3
GouraudWithEdges
350
1D0
  3
Hidden
350
1D4
  3
JitterOff
350
1E2
  3
Linepattern
350
1DA
  3
OverhangOff
350
1E3
  3
Realistic
350
1D6
  3
Shaded
350
1E1
  3
Shaded with edges
350
1E0
  3
Shades of Gray
350
1DD
  3
Sketchy
350
1DE
  3
Thicken
350
1D9
  3
Wireframe
350
1D3
  3
X-Ray
350
1DF
  0
XRECORD
  5
32E
102
{ACAD_REACTORS
330
C
102
}
330
C
100
AcDbXrecord
280
     1
 90
        1
330
1E7
  0
DICTIONARY
  5
322
102
{ACAD_REACTORS
330
C
102
}
330
C
100
AcDbDictionary
281
     1
  3
CANNOSCALE
350
328
  3
CMLEADERSTYLE
350
324
  3
CTABLESTYLE
350
323
  3
CVIEWDETAILSTYLE
350
325
  3
CVIEWSECTIONSTYLE
350
326
  3
LAYEREVAL
350
32A
  3
LAYERNOTIFY
350
32B
  3
LIGHTINGUNITS
350
329
  3
MSLTSCALE
350
327
  0
DICTIONARY
  5
205
102
{ACAD_REACTORS
330
204
102
}
330
204
100
AcDbDictionary
281
     1
  0
XRECORD
  5
313
102
{ACAD_REACTORS
330
312
102
}
330
312
100
AcDbXrecord
280
     1
290
     1
  0
XRECORD
  5
315
102
{ACAD_REACTORS
330
314
102
}
330
314
100
AcDbXrecord
280
     1
290
     1
  0
XRECORD
  5
317
102
{ACAD_REACTORS
330
316
102
}
330
316
100
AcDbXrecord
280
     1
290
     1
  0
DICTIONARY
  5
238
102
{ACAD_REACTORS
330
237
102
}
330
237
100
AcDbDictionary
281
     1
  3
ACDB_ANNOTATIONSCALES
350
239
  0
DICTIONARY
  5
22A
102
{ACAD_REACTORS
330
229
102
}
330
229
100
AcDbDictionary
281
     1
  3
ACDB_ANNOTATIONSCALES
350
22B
  0
DICTIONARY
  5
246
102
{ACAD_REACTORS
330
245
102
}
330
245
100
AcDbDictionary
281
     1
  3
ACDB_ANNOTATIONSCALES
350
247
  0
DICTIONARY
  5
270
102
{ACAD_REACTORS
330
26F
102
}
330
26F
100
AcDbDictionary
281
     1
  3
ACDB_ANNOTATIONSCALES
350
271
  0
DICTIONARY
  5
254
102
{ACAD_REACTORS
330
253
102
}
330
253
100
AcDbDictionary
281
     1
  3
ACDB_ANNOTATIONSCALES
350
255
  0
DICTIONARY
  5
262
102
{ACAD_REACTORS
330
261
102
}
330
261
100
AcDbDictionary
281
     1
  3
ACDB_ANNOTATIONSCALES
350
263
  0
DICTIONARY
  5
299
102
{ACAD_REACTORS
330
298
102
}
330
298
100
AcDbDictionary
281
     1
  3
ACDB_ANNOTATIONSCALES
350
29A
  0
DICTIONARY
  5
2D8
102
{ACAD_REACTORS
330
2D7
102
}
330
2D7
100
AcDbDictionary
281
     1
  3
ACDB_ANNOTATIONSCALES
350
2D9
  0
DICTIONARY
  5
308
102
{ACAD_REACTORS
330
307
102
}
330
307
100
AcDbDictionary
281
     1
  3
ACDB_ANNOTATIONSCALES
350
309
  0
ACDBDETAILVIEWSTYLE
  5
1ED
102
{ACAD_REACTORS
330
1EC
102
}
330
1EC
100
AcDbModelDocViewStyle
 70
     0
  3
Metric50
290
     0
300
Metric50
 90
        0
100
AcDbDetailViewStyle
 70
     0
 71
     0
 90
        3
 71
     1
340
11
 62
   256
 40
5.0
340
0
 62
   256
 40
5.0
300

 40
0.0
280
     1
 71
     2
340
16
 90
       25
 62
   256
 71
     3
340
11
 62
   256
 40
5.0
 90
        0
 40
15.0
 90
        1
300
%<\AcVar ViewDetailId>% (%<\AcVar ViewScale \f "%sn">%)
 71
     4
340
16
 90
       25
 62
   256
340
16
 90
       25
 62
   256
280
     0
  0
LAYOUT
  5
1E
102
{ACAD_REACTORS
330
1A
102
}
330
1A
100
AcDbPlotSettings
  1

  2
none_device
  4

  6

 40
0.0
 41
0.0
 42
0.0
 43
0.0
 44
0.0
 45
0.0
 46
0.0
 47
0.0
 48
0.0
 49
0.0
140
0.0
141
0.0
142
1.0
143
1.0
 70
   688
 72
     1
 73
     0
 74
     5
  7

 75
    16
147
1.0
 76
     0
 77
     2
 78
   300
148
0.0
149
0.0
100
AcDbLayout
  1
Layout1
 70
     1
 71
     1
 10
0.0
 20
0.0
 11
420.0
 21
297.0
 12
0.0
 22
0.0
 32
0.0
 14
1.000000000000000E+20
 24
1.000000000000000E+20
 34
1.000000000000000E+20
 15
-1.000000000000000E+20
 25
-1.000000000000000E+20
 35
-1.000000000000000E+20
146
0.0
 13
0.0
 23
0.0
 33
0.0
 16
1.0
 26
0.0
 36
0.0
 17
0.0
 27
1.0
 37
0.0
 76
     0
330
1B
  0
LAYOUT
  5
26
102
{ACAD_REACTORS
330
1A
102
}
330
1A
100
AcDbPlotSettings
  1

  2
none_device
  4

  6

 40
0.0
 41
0.0
 42
0.0
 43
0.0
 44
0.0
 45
0.0
 46
0.0
 47
0.0
 48
0.0
 49
0.0
140
0.0
141
0.0
142
1.0
143
1.0
 70
   688
 72
     1
 73
     0
 74
     5
  7

 75
    16
147
1.0
 76
     0
 77
     2
 78
   300
148
0.0
149
0.0
100
AcDbLayout
  1
Layout2
 70
     1
 71
     2
 10
0.0
 20
0.0
 11
0.0
 21
0.0
 12
0.0
 22
0.0
 32
0.0
 14
0.0
 24
0.0
 34
0.0
 15
0.0
 25
0.0
 35
0.0
146
0.0
 13
0.0
 23
0.0
 33
0.0
 16
1.0
 26
0.0
 36
0.0
 17
0.0
 27
1.0
 37
0.0
 76
     0
330
23
  0
LAYOUT
  5
22
102
{ACAD_REACTORS
330
1A
102
}
330
1A
100
AcDbPlotSettings
  1

  2
none_device
  4
Letter_(8.50_x_11.00_Inches)
  6

 40
6.349999999999999
 41
6.349999999999999
 42
6.350005079999999
 43
6.350005079999999
 44
215.9
 45
279.4
 46
0.0
 47
0.0
 48
0.0
 49
0.0
140
0.0
141
0.0
142
1.0
143
1.0
 70
  1712
 72
     1
 73
     0
 74
     0
  7

 75
     0
147
1.0
 76
     0
 77
     2
 78
   300
148
0.0
149
0.0
100
AcDbLayout
  1
Model
 70
     1
 71
     0
 10
0.0
 20
0.0
 11
420.0
 21
297.0
 12
0.0
 22
0.0
 32
0.0
 14
0.0
 24
0.0
 34
0.0
 15
420.0
 25
297.0
 35
0.0
146
0.0
 13
0.0
 23
0.0
 33
0.0
 16
1.0
 26
0.0
 36
0.0
 17
0.0
 27
1.0
 37
0.0
 76
     0
330
1F
331
29
  0
MATERIAL
  5
1BC
102
{ACAD_XDICTIONARY
360
1BD
102
}
102
{ACAD_REACTORS
330
1B3
102
}
330
1B3
100
AcDbMaterial
  1
ByBlock
 72
     0
 43
0.0008202099737533
 43
0.0
 43
0.0
 43
0.0
 43
0.0
 43
0.0008202099737533
 43
0.0
 43
0.0
 43
0.0
 43
0.0
 43
1.0
 43
0.0
 43
0.0
 43
0.0
 43
0.0
 43
1.0
 77
     0
 47
0.0008202099737533
 47
0.0
 47
0.0
 47
0.0
 47
0.0
 47
0.0008202099737533
 47
0.0
 47
0.0
 47
0.0
 47
0.0
 47
1.0
 47
0.0
 47
0.0
 47
0.0
 47
0.0
 47
1.0
171
     0
 49
0.0008202099737533
 49
0.0
 49
0.0
 49
0.0
 49
0.0
 49
0.0008202099737533
 49
0.0
 49
0.0
 49
0.0
 49
0.0
 49
1.0
 49
0.0
 49
0.0
 49
0.0
 49
0.0
 49
1.0
175
     0
142
0.0008202099737533
142
0.0
142
0.0
142
0.0
142
0.0
142
0.0008202099737533
142
0.0
142
0.0
142
0.0
142
0.0
142
1.0
142
0.0
142
0.0
142
0.0
142
0.0
142
1.0
179
     0
144
0.0008202099737533
144
0.0
144
0.0
144
0.0
144
0.0
144
0.0008202099737533
144
0.0
144
0.0
144
0.0
144
0.0
144
1.0
144
0.0
144
0.0
144
0.0
144
0.0
144
1.0
147
0.0008202099737533
147
0.0
147
0.0
147
0.0
147
0.0
147
0.0008202099737533
147
0.0
147
0.0
147
0.0
147
0.0
147
1.0
147
0.0
147
0.0
147
0.0
147
0.0
147
1.0
  0
MATERIAL
  5
1B4
102
{ACAD_XDICTIONARY
360
1B5
102
}
102
{ACAD_REACTORS
330
1B3
102
}
330
1B3
100
AcDbMaterial
  1
ByLayer
 72
     0
 43
0.0008202099737533
 43
0.0
 43
0.0
 43
0.0
 43
0.0
 43
0.0008202099737533
 43
0.0
 43
0.0
 43
0.0
 43
0.0
 43
1.0
 43
0.0
 43
0.0
 43
0.0
 43
0.0
 43
1.0
 77
     0
 47
0.0008202099737533
 47
0.0
 47
0.0
 47
0.0
 47
0.0
 47
0.0008202099737533
 47
0.0
 47
0.0
 47
0.0
 47
0.0
 47
1.0
 47
0.0
 47
0.0
 47
0.0
 47
0.0
 47
1.0
171
     0
 49
0.0008202099737533
 49
0.0
 49
0.0
 49
0.0
 49
0.0
 49
0.0008202099737533
 49
0.0
 49
0.0
 49
0.0
 49
0.0
 49
1.0
 49
0.0
 49
0.0
 49
0.0
 49
0.0
 49
1.0
175
     0
142
0.0008202099737533
142
0.0
142
0.0
142
0.0
142
0.0
142
0.0008202099737533
142
0.0
142
0.0
142
0.0
142
0.0
142
1.0
142
0.0
142
0.0
142
0.0
142
0.0
142
1.0
179
     0
144
0.0008202099737533
144
0.0
144
0.0
144
0.0
144
0.0
144
0.0008202099737533
144
0.0
144
0.0
144
0.0
144
0.0
144
1.0
144
0.0
144
0.0
144
0.0
144
0.0
144
1.0
147
0.0008202099737533
147
0.0
147
0.0
147
0.0
147
0.0
147
0.0008202099737533
147
0.0
147
0.0
147
0.0
147
0.0
147
1.0
147
0.0
147
0.0
147
0.0
147
0.0
147
1.0
  0
MATERIAL
  5
1C4
102
{ACAD_XDICTIONARY
360
1C5
102
}
102
{ACAD_REACTORS
330
1B3
102
}
330
1B3
100
AcDbMaterial
  1
Global
 72
     0
 43
0.0008202099737533
 43
0.0
 43
0.0
 43
0.0
 43
0.0
 43
0.0008202099737533
 43
0.0
 43
0.0
 43
0.0
 43
0.0
 43
1.0
 43
0.0
 43
0.0
 43
0.0
 43
0.0
 43
1.0
 77
     0
 47
0.0008202099737533
 47
0.0
 47
0.0
 47
0.0
 47
0.0
 47
0.0008202099737533
 47
0.0
 47
0.0
 47
0.0
 47
0.0
 47
1.0
 47
0.0
 47
0.0
 47
0.0
 47
0.0
 47
1.0
171
     0
 49
0.0008202099737533
 49
0.0
 49
0.0
 49
0.0
 49
0.0
 49
0.0008202099737533
 49
0.0
 49
0.0
 49
0.0
 49
0.0
 49
1.0
 49
0.0
 49
0.0
 49
0.0
 49
0.0
 49
1.0
175
     0
142
0.0008202099737533
142
0.0
142
0.0
142
0.0
142
0.0
142
0.0008202099737533
142
0.0
142
0.0
142
0.0
142
0.0
142
1.0
142
0.0
142
0.0
142
0.0
142
0.0
142
1.0
179
     0
144
0.0008202099737533
144
0.0
144
0.0
144
0.0
144
0.0
144
0.0008202099737533
144
0.0
144
0.0
144
0.0
144
0.0
144
1.0
144
0.0
144
0.0
144
0.0
144
0.0
144
1.0
147
0.0008202099737533
147
0.0
147
0.0
147
0.0
147
0.0
147
0.0008202099737533
147
0.0
147
0.0
147
0.0
147
0.0
147
1.0
147
0.0
147
0.0
147
0.0
147
0.0
147
1.0
  0
MLEADERSTYLE
  5
1E9
102
{ACAD_REACTORS
330
1E8
102
}
330
1E8
100
AcDbMLeaderStyle
179
     2
170
     2
171
     1
172
     0
 90
        2
 40
0.0
 41
0.0
173
     1
 91
-1056964608
340
14
 92
       -2
290
     1
 42
2.0
291
     1
 43
0.36
  3
Standard
 44
4.0
300

342
11
174
     1
178
     6
175
     1
176
     0
 93
-1056964608
 45
4.0
292
     0
297
     0
 46
4.0
 94
-1056964608
 47
1.0
 49
1.0
140
1.0
293
     1
141
0.0
294
     1
177
     0
142
1.0
295
     0
296
     0
143
0.125
271
     0
272
     9
273
     9
298
     0
  0
MLINESTYLE
  5
18
102
{ACAD_REACTORS
330
17
102
}
330
17
100
AcDbMlineStyle
  2
STANDARD
 70
     0
  3

 62
   256
 51
90.0
 52
90.0
 71
     2
 49
0.5
 62
   256
  6
BYLAYER
 49
-0.5
 62
   256
  6
BYLAYER
  0
ACDBPLACEHOLDER
  5
F
102
{ACAD_REACTORS
330
E
102
}
330
E
  0
SCALE
  5
48
102
{ACAD_REACTORS
330
47
102
}
330
47
100
AcDbScale
 70
     0
300
1:1
140
1.0
141
1.0
290
     1
  0
SCALE
  5
49
102
{ACAD_REACTORS
330
47
102
}
330
47
100
AcDbScale
 70
     0
300
1:2
140
1.0
141
2.0
290
     0
  0
SCALE
  5
4A
102
{ACAD_REACTORS
330
47
102
}
330
47
100
AcDbScale
 70
     0
300
1:4
140
1.0
141
4.0
290
     0
  0
SCALE
  5
4B
102
{ACAD_REACTORS
330
47
102
}
330
47
100
AcDbScale
 70
     0
300
1:5
140
1.0
141
5.0
290
     0
  0
SCALE
  5
4C
102
{ACAD_REACTORS
330
47
102
}
330
47
100
AcDbScale
 70
     0
300
1:8
140
1.0
141
8.0
290
     0
  0
SCALE
  5
4D
102
{ACAD_REACTORS
330
47
102
}
330
47
100
AcDbScale
 70
     0
300
1:10
140
1.0
141
10.0
290
     0
  0
SCALE
  5
4E
102
{ACAD_REACTORS
330
47
102
}
330
47
100
AcDbScale
 70
     0
300
1:16
140
1.0
141
16.0
290
     0
  0
SCALE
  5
4F
102
{ACAD_REACTORS
330
47
102
}
330
47
100
AcDbScale
 70
     0
300
1:20
140
1.0
141
20.0
290
     0
  0
SCALE
  5
50
102
{ACAD_REACTORS
330
47
102
}
330
47
100
AcDbScale
 70
     0
300
1:30
140
1.0
141
30.0
290
     0
  0
SCALE
  5
51
102
{ACAD_REACTORS
330
47
102
}
330
47
100
AcDbScale
 70
     0
300
1:40
140
1.0
141
40.0
290
     0
  0
SCALE
  5
52
102
{ACAD_REACTORS
330
47
102
}
330
47
100
AcDbScale
 70
     0
300
1:50
140
1.0
141
50.0
290
     0
  0
SCALE
  5
53
102
{ACAD_REACTORS
330
47
102
}
330
47
100
AcDbScale
 70
     0
300
1:100
140
1.0
141
100.0
290
     0
  0
SCALE
  5
54
102
{ACAD_REACTORS
330
47
102
}
330
47
100
AcDbScale
 70
     0
300
2:1
140
2.0
141
1.0
290
     0
  0
SCALE
  5
55
102
{ACAD_REACTORS
330
47
102
}
330
47
100
AcDbScale
 70
     0
300
4:1
140
4.0
141
1.0
290
     0
  0
SCALE
  5
56
102
{ACAD_REACTORS
330
47
102
}
330
47
100
AcDbScale
 70
     0
300
8:1
140
8.0
141
1.0
290
     0
  0
SCALE
  5
57
102
{ACAD_REACTORS
330
47
102
}
330
47
100
AcDbScale
 70
     0
300
10:1
140
10.0
141
1.0
290
     0
  0
SCALE
  5
58
102
{ACAD_REACTORS
330
47
102
}
330
47
100
AcDbScale
 70
     0
300
100:1
140
100.0
141
1.0
290
     0
  0
SCALE
  5
59
102
{ACAD_REACTORS
330
47
102
}
330
47
100
AcDbScale
 70
     0
300
1/128" = 1'-0"
140
0.0078125
141
12.0
290
     0
  0
SCALE
  5
5A
102
{ACAD_REACTORS
330
47
102
}
330
47
100
AcDbScale
 70
     0
300
1/64" = 1'-0"
140
0.015625
141
12.0
290
     0
  0
SCALE
  5
5B
102
{ACAD_REACTORS
330
47
102
}
330
47
100
AcDbScale
 70
     0
300
1/32" = 1'-0"
140
0.03125
141
12.0
290
     0
  0
SCALE
  5
5C
102
{ACAD_REACTORS
330
47
102
}
330
47
100
AcDbScale
 70
     0
300
1/16" = 1'-0"
140
0.0625
141
12.0
290
     0
  0
SCALE
  5
5D
102
{ACAD_REACTORS
330
47
102
}
330
47
100
AcDbScale
 70
     0
300
3/32" = 1'-0"
140
0.09375
141
12.0
290
     0
  0
SCALE
  5
5E
102
{ACAD_REACTORS
330
47
102
}
330
47
100
AcDbScale
 70
     0
300
1/8" = 1'-0"
140
0.125
141
12.0
290
     0
  0
SCALE
  5
5F
102
{ACAD_REACTORS
330
47
102
}
330
47
100
AcDbScale
 70
     0
300
3/16" = 1'-0"
140
0.1875
141
12.0
290
     0
  0
SCALE
  5
60
102
{ACAD_REACTORS
330
47
102
}
330
47
100
AcDbScale
 70
     0
300
1/4" = 1'-0"
140
0.25
141
12.0
290
     0
  0
SCALE
  5
61
102
{ACAD_REACTORS
330
47
102
}
330
47
100
AcDbScale
 70
     0
300
3/8" = 1'-0"
140
0.375
141
12.0
290
     0
  0
SCALE
  5
62
102
{ACAD_REACTORS
330
47
102
}
330
47
100
AcDbScale
 70
     0
300
1/2" = 1'-0"
140
0.5
141
12.0
290
     0
  0
SCALE
  5
63
102
{ACAD_REACTORS
330
47
102
}
330
47
100
AcDbScale
 70
     0
300
3/4" = 1'-0"
140
0.75
141
12.0
290
     0
  0
SCALE
  5
64
102
{ACAD_REACTORS
330
47
102
}
330
47
100
AcDbScale
 70
     0
300
1" = 1'-0"
140
1.0
141
12.0
290
     0
  0
SCALE
  5
65
102
{ACAD_REACTORS
330
47
102
}
330
47
100
AcDbScale
 70
     0
300
1-1/2" = 1'-0"
140
1.5
141
12.0
290
     0
  0
SCALE
  5
66
102
{ACAD_REACTORS
330
47
102
}
330
47
100
AcDbScale
 70
     0
300
3" = 1'-0"
140
3.0
141
12.0
290
     0
  0
SCALE
  5
67
102
{ACAD_REACTORS
330
47
102
}
330
47
100
AcDbScale
 70
     0
300
6" = 1'-0"
140
6.0
141
12.0
290
     0
  0
SCALE
  5
68
102
{ACAD_REACTORS
330
47
102
}
330
47
100
AcDbScale
 70
     0
300
1'-0" = 1'-0"
140
12.0
141
12.0
290
     0
  0
ACDBSECTIONVIEWSTYLE
  5
1EB
102
{ACAD_REACTORS
330
1EA
102
}
330
1EA
100
AcDbModelDocViewStyle
 70
     0
  3
Metric50
290
     0
300
Metric50
 90
        0
100
AcDbSectionViewStyle
 70
     0
 71
     0
 90
      102
 71
     1
340
11
 62
   256
 40
5.0
340
0
340
0
 62
   256
 40
5.0
300
I, O, Q, S, X, Z
 40
10.0
 90
        0
 40
2.5
 90
        0
 71
     2
340
16
 90
       25
 62
   256
340
16
 90
       50
 62
   256
 40
5.0
 40
2.5
 40
5.0
 71
     3
340
11
 62
   256
 40
5.0
 90
        0
 40
15.0
 90
        1
300
%<\AcVar ViewSectionStartId>%-%<\AcVar ViewSectionEndId>% (%<\AcVar ViewScale \f "%sn">%)
 71
     4
 62
   256
 62
   257
300
ANSI31
 40
1.0
 90
        0
290
     0
290
     0
 90
        6
 40
0.0
 40
1.570796326794896
 40
0.2617993877991494
 40
1.308996938995747
 40
-0.2617993877991494
 40
1.832595714594046
  0
TABLESTYLE
  5
1E7
102
{ACAD_XDICTIONARY
360
32C
102
}
102
{ACAD_REACTORS
330
1E6
102
}
330
1E6
100
AcDbTableStyle
280
     0
  3
Standard
 70
     0
 71
     0
 40
1.5
 41
1.5
280
     0
281
     0
  7
Standard
140
4.5
170
     2
 62
     0
 63
     7
283
     0
 90
      512
 91
        0
  1

274
    -2
284
     1
 64
     0
275
    -2
285
     1
 65
     0
276
    -2
286
     1
 66
     0
277
    -2
287
     1
 67
     0
278
    -2
288
     1
 68
     0
279
    -2
289
     1
 69
     0
  7
Standard
140
6.0
170
     5
 62
     0
 63
     7
283
     0
 90
      512
 91
        0
  1

274
    -2
284
     1
 64
     0
275
    -2
285
     1
 65
     0
276
    -2
286
     1
 66
     0
277
    -2
287
     1
 67
     0
278
    -2
288
     1
 68
     0
279
    -2
289
     1
 69
     0
  7
Standard
140
4.5
170
     5
 62
     0
 63
     7
283
     0
 90
      512
 91
        0
  1

274
    -2
284
     1
 64
     0
275
    -2
285
     1
 65
     0
276
    -2
286
     1
 66
     0
277
    -2
287
     1
 67
     0
278
    -2
288
     1
 68
     0
279
    -2
289
     1
 69
     0
  0
VISUALSTYLE
  5
1D2
102
{ACAD_REACTORS
330
1CC
102
}
330
1CC
100
AcDbVisualStyle
  2
2dWireframe
 70
     4
177
     3
291
     0
 70
    58
 90
        0
176
     1
 90
        2
176
     1
 90
        0
176
     1
 90
        0
176
     1
 40
0.6
176
     1
 40
30.0
176
     1
 62
     7
420
 16777215
176
     1
 90
        1
176
     1
 90
        4
176
     1
 62
     7
176
     1
 62
   257
176
     1
 90
        1
176
     1
 90
        1
176
     1
 40
1.0
176
     1
 90
        0
176
     1
 62
   257
176
     1
 40
1.0
176
     1
 90
        1
176
     1
 90
        6
176
     1
 90
        2
176
     1
 62
     7
176
     1
 90
        5
176
     1
 90
        0
176
     1
 90
        0
176
     1
290
     0
176
     1
 90
        1
176
     1
 40
0.0
176
     1
 90
        0
176
     1
290
     1
176
     1
290
     1
176
     1
290
     0
176
     1
290
     0
176
     1
290
     0
176
     1
290
     0
176
     1
290
     0
176
     1
290
     0
176
     1
290
     0
176
     1
 90
       50
176
     1
 40
0.0
176
     1
 40
1.0
176
     1
 90
        0
176
     1
 62
    18
420
        0
176
     1
 90
       50
176
     1
 90
        3
176
     1
 62
     5
420
      255
176
     1
290
     0
176
     1
 90
       50
176
     1
 90
       50
176
     1
 90
       50
176
     1
290
     0
176
     1
 90
       50
176
     1
 62
   256
176
     0
 40
1.0
176
     0
 90
        2
176
     1
  1
strokes_ogs.tif
176
     1
290
     0
176
     1
 40
1.0
176
     1
 40
1.0
176
     1
  0
VISUALSTYLE
  5
1D1
102
{ACAD_REACTORS
330
1CC
102
}
330
1CC
100
AcDbVisualStyle
  2
Basic
 70
     7
177
     3
291
     1
 70
    58
 90
        1
176
     1
 90
        0
176
     1
 90
        1
176
     1
 90
        0
176
     1
 40
0.6
176
     1
 40
30.0
176
     1
 62
     7
420
 16777215
176
     1
 90
        0
176
     1
 90
        4
176
     1
 62
     7
176
     1
 62
   257
176
     1
 90
        1
176
     1
 90
        1
176
     1
 40
1.0
176
     1
 90
        8
176
     1
 62
     7
176
     1
 40
1.0
176
     1
 90
        1
176
     1
 90
        6
176
     1
 90
        2
176
     1
 62
     7
176
     1
 90
        5
176
     1
 90
        0
176
     1
 90
        0
176
     1
290
     0
176
     1
 90
        1
176
     1
 40
0.0
176
     1
 90
        0
176
     1
290
     0
176
     1
290
     1
176
     1
290
     1
176
     1
290
     0
176
     1
290
     0
176
     1
290
     0
176
     1
290
     0
176
     1
290
     0
176
     1
290
     0
176
     1
 90
       50
176
     1
 40
0.0
176
     1
 40
1.0
176
     1
 90
        0
176
     1
 62
    18
420
        0
176
     1
 90
       50
176
     1
 90
        3
176
     1
 62
     5
420
      255
176
     1
290
     0
176
     1
 90
       50
176
     1
 90
       50
176
     1
 90
       50
176
     1
290
     0
176
     1
 90
       50
176
     1
 62
   256
176
     0
 40
1.0
176
     0
 90
        2
176
     1
  1
strokes_ogs.tif
176
     1
290
     0
176
     1
 40
1.0
176
     1
 40
1.0
176
     1
  0
VISUALSTYLE
  5
1D8
102
{ACAD_REACTORS
330
1CC
102
}
330
1CC
100
AcDbVisualStyle
  2
Brighten
 70
    12
177
     3
291
     1
 70
    58
 90
        2
176
     1
 90
        2
176
     1
 90
        0
176
     1
 90
        0
176
     1
 40
0.6
176
     1
 40
30.0
176
     1
 62
     7
420
 16777215
176
     1
 90
        1
176
     1
 90
        4
176
     1
 62
     7
176
     1
 62
   257
176
     1
 90
        1
176
     1
 90
        1
176
     1
 40
1.0
176
     1
 90
        8
176
     1
 62
     7
176
     1
 40
1.0
176
     1
 90
        1
176
     1
 90
        6
176
     1
 90
        2
176
     1
 62
     7
176
     1
 90
        5
176
     1
 90
        0
176
     1
 90
        0
176
     1
290
     0
176
     1
 90
        1
176
     1
 40
50.0
176
     1
 90
        0
176
     1
290
     0
176
     1
290
     1
176
     1
290
     1
176
     1
290
     0
176
     1
290
     0
176
     1
290
     0
176
     1
290
     0
176
     1
290
     0
176
     1
290
     0
176
     1
 90
       50
176
     1
 40
0.0
176
     1
 40
1.0
176
     1
 90
        0
176
     1
 62
    18
420
        0
176
     1
 90
       50
176
     1
 90
        3
176
     1
 62
     5
420
      255
176
     1
290
     0
176
     1
 90
       50
176
     1
 90
       50
176
     1
 90
       50
176
     1
290
     0
176
     1
 90
       50
176
     1
 62
   256
176
     0
 40
1.0
176
     0
 90
        2
176
     1
  1
strokes_ogs.tif
176
     1
290
     0
176
     1
 40
1.0
176
     1
 40
1.0
176
     1
  0
VISUALSTYLE
  5
1DC
102
{ACAD_REACTORS
330
1CC
102
}
330
1CC
100
AcDbVisualStyle
  2
ColorChange
 70
    16
177
     3
291
     1
 70
    58
 90
        2
176
     1
 90
        2
176
     1
 90
        3
176
     1
 90
        0
176
     1
 40
0.6
176
     1
 40
30.0
176
     1
 62
     8
420
  8421504
176
     1
 90
        1
176
     1
 90
        4
176
     1
 62
     7
176
     1
 62
   257
176
     1
 90
        1
176
     1
 90
        1
176
     1
 40
1.0
176
     1
 90
        8
176
     1
 62
     8
420
  8421504
176
     1
 40
1.0
176
     1
 90
        1
176
     1
 90
        6
176
     1
 90
        2
176
     1
 62
     7
176
     1
 90
        5
176
     1
 90
        0
176
     1
 90
        0
176
     1
290
     0
176
     1
 90
        1
176
     1
 40
0.0
176
     1
 90
        0
176
     1
290
     0
176
     1
290
     1
176
     1
290
     1
176
     1
290
     0
176
     1
290
     0
176
     1
290
     0
176
     1
290
     0
176
     1
290
     0
176
     1
290
     0
176
     1
 90
       50
176
     1
 40
0.0
176
     1
 40
1.0
176
     1
 90
        0
176
     1
 62
    18
420
        0
176
     1
 90
       50
176
     1
 90
        3
176
     1
 62
     5
420
      255
176
     1
290
     0
176
     1
 90
       50
176
     1
 90
       50
176
     1
 90
       50
176
     1
290
     0
176
     1
 90
       50
176
     1
 62
   256
176
     0
 40
1.0
176
     0
 90
        2
176
     1
  1
strokes_ogs.tif
176
     1
290
     0
176
     1
 40
1.0
176
     1
 40
1.0
176
     1
  0
VISUALSTYLE
  5
1D5
102
{ACAD_REACTORS
330
1CC
102
}
330
1CC
100
AcDbVisualStyle
  2
Conceptual
 70
     9
177
     3
291
     0
 70
    58
 90
        3
176
     1
 90
        2
176
     1
 90
        0
176
     1
 90
        0
176
     1
 40
0.6
176
     1
 40
30.0
176
     1
 62
     7
420
 16777215
176
     1
 90
        2
176
     1
 90
        2
176
     1
 62
     7
176
     1
 62
   257
176
     1
 90
        1
176
     1
 90
        1
176
     1
 40
179.0
176
     1
 90
        8
176
     1
 62
     7
176
     1
 40
1.0
176
     1
 90
        1
176
     1
 90
        6
176
     1
 90
        2
176
     1
 62
     7
176
     1
 90
        3
176
     1
 90
        0
176
     1
 90
        0
176
     1
290
     0
176
     1
 90
        1
176
     1
 40
0.0
176
     1
 90
        0
176
     1
290
     0
176
     1
290
     1
176
     1
290
     1
176
     1
290
     0
176
     1
290
     0
176
     1
290
     0
176
     1
290
     0
176
     1
290
     0
176
     1
290
     0
176
     1
 90
       50
176
     1
 40
0.0
176
     1
 40
1.0
176
     1
 90
        0
176
     1
 62
    18
420
        0
176
     1
 90
       50
176
     1
 90
        3
176
     1
 62
     5
420
      255
176
     1
290
     0
176
     1
 90
       50
176
     1
 90
       50
176
     1
 90
       50
176
     1
290
     0
176
     1
 90
       50
176
     1
 62
   256
176
     0
 40
1.0
176
     0
 90
        2
176
     1
  1
strokes_ogs.tif
176
     1
290
     0
176
     1
 40
1.0
176
     1
 40
1.0
176
     1
  0
VISUALSTYLE
  5
1D7
102
{ACAD_REACTORS
330
1CC
102
}
330
1CC
100
AcDbVisualStyle
  2
Dim
 70
    11
177
     3
291
     1
 70
    58
 90
        2
176
     1
 90
        2
176
     1
 90
        0
176
     1
 90
        0
176
     1
 40
0.6
176
     1
 40
30.0
176
     1
 62
     7
420
 16777215
176
     1
 90
        1
176
     1
 90
        4
176
     1
 62
     7
176
     1
 62
   257
176
     1
 90
        1
176
     1
 90
        1
176
     1
 40
1.0
176
     1
 90
        8
176
     1
 62
     7
176
     1
 40
1.0
176
     1
 90
        1
176
     1
 90
        6
176
     1
 90
        2
176
     1
 62
     7
176
     1
 90
        5
176
     1
 90
        0
176
     1
 90
        0
176
     1
290
     0
176
     1
 90
        1
176
     1
 40
-50.0
176
     1
 90
        0
176
     1
290
     0
176
     1
290
     1
176
     1
290
     1
176
     1
290
     0
176
     1
290
     0
176
     1
290
     0
176
     1
290
     0
176
     1
290
     0
176
     1
290
     0
176
     1
 90
       50
176
     1
 40
0.0
176
     1
 40
1.0
176
     1
 90
        0
176
     1
 62
    18
420
        0
176
     1
 90
       50
176
     1
 90
        3
176
     1
 62
     5
420
      255
176
     1
290
     0
176
     1
 90
       50
176
     1
 90
       50
176
     1
 90
       50
176
     1
290
     0
176
     1
 90
       50
176
     1
 62
   256
176
     0
 40
1.0
176
     0
 90
        2
176
     1
  1
strokes_ogs.tif
176
     1
290
     0
176
     1
 40
1.0
176
     1
 40
1.0
176
     1
  0
VISUALSTYLE
  5
1E4
102
{ACAD_REACTORS
330
1CC
102
}
330
1CC
100
AcDbVisualStyle
  2
EdgeColorOff
 70
    22
177
     3
291
     1
 70
    58
 90
        2
176
     0
 90
        2
176
     0
 90
        0
176
     0
 90
        0
176
     0
 40
0.6
176
     0
 40
30.0
176
     0
 62
     7
420
 16777215
176
     0
 90
        1
176
     0
 90
        4
176
     0
 62
     7
176
     0
 62
   257
176
     0
 90
        1
176
     0
 90
        1
176
     0
 40
1.0
176
     0
 90
        8
176
     2
 62
     7
176
     0
 40
1.0
176
     0
 90
        1
176
     0
 90
        6
176
     0
 90
        2
176
     0
 62
     7
176
     0
 90
        5
176
     0
 90
        0
176
     0
 90
        0
176
     0
290
     0
176
     0
 90
        1
176
     0
 40
0.0
176
     0
 90
        0
176
     0
290
     0
176
     1
290
     1
176
     1
290
     1
176
     1
290
     0
176
     1
290
     0
176
     1
290
     0
176
     1
290
     0
176
     1
290
     0
176
     1
290
     0
176
     1
 90
       50
176
     0
 40
0.0
176
     0
 40
1.0
176
     0
 90
        0
176
     0
 62
    18
420
        0
176
     0
 90
       50
176
     0
 90
        3
176
     0
 62
     5
420
      255
176
     0
290
     0
176
     1
 90
       50
176
     0
 90
       50
176
     0
 90
       50
176
     0
290
     0
176
     1
 90
       50
176
     0
 62
   256
176
     0
 40
1.0
176
     0
 90
        2
176
     0
  1
strokes_ogs.tif
176
     0
290
     0
176
     1
 40
1.0
176
     0
 40
1.0
176
     0
  0
VISUALSTYLE
  5
1DB
102
{ACAD_REACTORS
330
1CC
102
}
330
1CC
100
AcDbVisualStyle
  2
Facepattern
 70
    15
177
     3
291
     1
 70
    58
 90
        2
176
     1
 90
        2
176
     1
 90
        0
176
     1
 90
        0
176
     1
 40
0.6
176
     1
 40
30.0
176
     1
 62
     7
420
 16777215
176
     1
 90
        1
176
     1
 90
        4
176
     1
 62
     7
176
     1
 62
   257
176
     1
 90
        1
176
     1
 90
        1
176
     1
 40
1.0
176
     1
 90
        8
176
     1
 62
     7
176
     1
 40
1.0
176
     1
 90
        1
176
     1
 90
        6
176
     1
 90
        2
176
     1
 62
     7
176
     1
 90
        5
176
     1
 90
        0
176
     1
 90
        0
176
     1
290
     0
176
     1
 90
        1
176
     1
 40
0.0
176
     1
 90
        0
176
     1
290
     0
176
     1
290
     1
176
     1
290
     1
176
     1
290
     0
176
     1
290
     0
176
     1
290
     0
176
     1
290
     0
176
     1
290
     0
176
     1
290
     0
176
     1
 90
       50
176
     1
 40
0.0
176
     1
 40
1.0
176
     1
 90
        0
176
     1
 62
    18
420
        0
176
     1
 90
       50
176
     1
 90
        3
176
     1
 62
     5
420
      255
176
     1
290
     0
176
     1
 90
       50
176
     1
 90
       50
176
     1
 90
       50
176
     1
290
     0
176
     1
 90
       50
176
     1
 62
   256
176
     0
 40
1.0
176
     0
 90
        2
176
     1
  1
strokes_ogs.tif
176
     1
290
     0
176
     1
 40
1.0
176
     1
 40
1.0
176
     1
  0
VISUALSTYLE
  5
1CD
102
{ACAD_REACTORS
330
1CC
102
}
330
1CC
100
AcDbVisualStyle
  2
Flat
 70
     0
177
     3
291
     1
 70
    58
 90
        2
176
     1
 90
        1
176
     1
 90
        1
176
     1
 90
        2
176
     1
 40
0.6
176
     1
 40
30.0
176
     1
 62
     7
420
 16777215
176
     1
 90
        0
176
     1
 90
        0
176
     1
 62
     7
176
     1
 62
   257
176
     1
 90
        1
176
     1
 90
        1
176
     1
 40
1.0
176
     1
 90
        8
176
     1
 62
     7
176
     1
 40
1.0
176
     1
 90
        1
176
     1
 90
        6
176
     1
 90
        2
176
     1
 62
     7
176
     1
 90
        5
176
     1
 90
        0
176
     1
 90
        0
176
     1
290
     0
176
     1
 90
       13
176
     1
 40
0.0
176
     1
 90
        0
176
     1
290
     0
176
     1
290
     1
176
     1
290
     1
176
     1
290
     0
176
     1
290
     0
176
     1
290
     0
176
     1
290
     0
176
     1
290
     0
176
     1
290
     0
176
     1
 90
       50
176
     1
 40
0.0
176
     1
 40
1.0
176
     1
 90
        0
176
     1
 62
    18
420
        0
176
     1
 90
       50
176
     1
 90
        3
176
     1
 62
     5
420
      255
176
     1
290
     0
176
     1
 90
       50
176
     1
 90
       50
176
     1
 90
       50
176
     1
290
     0
176
     1
 90
       50
176
     1
 62
   256
176
     0
 40
1.0
176
     0
 90
        2
176
     1
  1
strokes_ogs.tif
176
     1
290
     0
176
     1
 40
1.0
176
     1
 40
1.0
176
     1
  0
VISUALSTYLE
  5
1CE
102
{ACAD_REACTORS
330
1CC
102
}
330
1CC
100
AcDbVisualStyle
  2
FlatWithEdges
 70
     1
177
     3
291
     1
 70
    58
 90
        2
176
     1
 90
        1
176
     1
 90
        1
176
     1
 90
        2
176
     1
 40
0.6
176
     1
 40
30.0
176
     1
 62
     7
420
 16777215
176
     1
 90
        1
176
     1
 90
        0
176
     1
 62
     7
176
     1
 62
   257
176
     1
 90
        1
176
     1
 90
        1
176
     1
 40
1.0
176
     1
 90
        0
176
     1
 62
   257
176
     1
 40
1.0
176
     1
 90
        1
176
     1
 90
        6
176
     1
 90
        2
176
     1
 62
     7
176
     1
 90
        5
176
     1
 90
        0
176
     1
 90
        0
176
     1
290
     0
176
     1
 90
       13
176
     1
 40
0.0
176
     1
 90
        0
176
     1
290
     0
176
     1
290
     1
176
     1
290
     1
176
     1
290
     0
176
     1
290
     0
176
     1
290
     0
176
     1
290
     0
176
     1
290
     0
176
     1
290
     0
176
     1
 90
       50
176
     1
 40
0.0
176
     1
 40
1.0
176
     1
 90
        0
176
     1
 62
    18
420
        0
176
     1
 90
       50
176
     1
 90
        3
176
     1
 62
     5
420
      255
176
     1
290
     0
176
     1
 90
       50
176
     1
 90
       50
176
     1
 90
       50
176
     1
290
     0
176
     1
 90
       50
176
     1
 62
   256
176
     0
 40
1.0
176
     0
 90
        2
176
     1
  1
strokes_ogs.tif
176
     1
290
     0
176
     1
 40
1.0
176
     1
 40
1.0
176
     1
  0
VISUALSTYLE
  5
1CF
102
{ACAD_REACTORS
330
1CC
102
}
330
1CC
100
AcDbVisualStyle
  2
Gouraud
 70
     2
177
     3
291
     1
 70
    58
 90
        2
176
     1
 90
        2
176
     1
 90
        1
176
     1
 90
        2
176
     1
 40
0.6
176
     1
 40
30.0
176
     1
 62
     7
420
 16777215
176
     1
 90
        0
176
     1
 90
        0
176
     1
 62
     7
176
     1
 62
   257
176
     1
 90
        1
176
     1
 90
        1
176
     1
 40
1.0
176
     1
 90
        0
176
     1
 62
     7
176
     1
 40
1.0
176
     1
 90
        1
176
     1
 90
        6
176
     1
 90
        2
176
     1
 62
     7
176
     1
 90
        5
176
     1
 90
        0
176
     1
 90
        0
176
     1
290
     0
176
     1
 90
       13
176
     1
 40
0.0
176
     1
 90
        0
176
     1
290
     0
176
     1
290
     1
176
     1
290
     1
176
     1
290
     0
176
     1
290
     0
176
     1
290
     0
176
     1
290
     0
176
     1
290
     0
176
     1
290
     0
176
     1
 90
       50
176
     1
 40
0.0
176
     1
 40
1.0
176
     1
 90
        0
176
     1
 62
    18
420
        0
176
     1
 90
       50
176
     1
 90
        3
176
     1
 62
     5
420
      255
176
     1
290
     0
176
     1
 90
       50
176
     1
 90
       50
176
     1
 90
       50
176
     1
290
     0
176
     1
 90
       50
176
     1
 62
   256
176
     0
 40
1.0
176
     0
 90
        2
176
     1
  1
strokes_ogs.tif
176
     1
290
     0
176
     1
 40
1.0
176
     1
 40
1.0
176
     1
  0
VISUALSTYLE
  5
1D0
102
{ACAD_REACTORS
330
1CC
102
}
330
1CC
100
AcDbVisualStyle
  2
GouraudWithEdges
 70
     3
177
     3
291
     1
 70
    58
 90
        2
176
     1
 90
        2
176
     1
 90
        1
176
     1
 90
        2
176
     1
 40
0.6
176
     1
 40
30.0
176
     1
 62
     7
420
 16777215
176
     1
 90
        1
176
     1
 90
        0
176
     1
 62
     7
176
     1
 62
   257
176
     1
 90
        1
176
     1
 90
        1
176
     1
 40
1.0
176
     1
 90
        0
176
     1
 62
   257
176
     1
 40
1.0
176
     1
 90
        1
176
     1
 90
        6
176
     1
 90
        2
176
     1
 62
     7
176
     1
 90
        5
176
     1
 90
        0
176
     1
 90
        0
176
     1
290
     0
176
     1
 90
       13
176
     1
 40
0.0
176
     1
 90
        0
176
     1
290
     0
176
     1
290
     1
176
     1
290
     1
176
     1
290
     0
176
     1
290
     0
176
     1
290
     0
176
     1
290
     0
176
     1
290
     0
176
     1
290
     0
176
     1
 90
       50
176
     1
 40
0.0
176
     1
 40
1.0
176
     1
 90
        0
176
     1
 62
    18
420
        0
176
     1
 90
       50
176
     1
 90
        3
176
     1
 62
     5
420
      255
176
     1
290
     0
176
     1
 90
       50
176
     1
 90
       50
176
     1
 90
       50
176
     1
290
     0
176
     1
 90
       50
176
     1
 62
   256
176
     0
 40
1.0
176
     0
 90
        2
176
     1
  1
strokes_ogs.tif
176
     1
290
     0
176
     1
 40
1.0
176
     1
 40
1.0
176
     1
  0
VISUALSTYLE
  5
1D4
102
{ACAD_REACTORS
330
1CC
102
}
330
1CC
100
AcDbVisualStyle
  2
Hidden
 70
     6
177
     3
291
     0
 70
    58
 90
        1
176
     1
 90
        2
176
     1
 90
        2
176
     1
 90
        0
176
     1
 40
0.6
176
     1
 40
30.0
176
     1
 62
     7
420
 16777215
176
     1
 90
        2
176
     1
 90
        2
176
     1
 62
     7
176
     1
 62
   257
176
     1
 90
        2
176
     1
 90
        1
176
     1
 40
40.0
176
     1
 90
        0
176
     1
 62
   257
176
     1
 40
1.0
176
     1
 90
        1
176
     1
 90
        6
176
     1
 90
        2
176
     1
 62
     7
176
     1
 90
        3
176
     1
 90
        0
176
     1
 90
        0
176
     1
290
     0
176
     1
 90
        1
176
     1
 40
0.0
176
     1
 90
        0
176
     1
290
     0
176
     1
290
     1
176
     1
290
     1
176
     1
290
     0
176
     1
290
     0
176
     1
290
     0
176
     1
290
     0
176
     1
290
     0
176
     1
290
     0
176
     1
 90
       50
176
     1
 40
0.0
176
     1
 40
1.0
176
     1
 90
        0
176
     1
 62
    18
420
        0
176
     1
 90
       50
176
     1
 90
        3
176
     1
 62
     5
420
      255
176
     1
290
     0
176
     1
 90
       50
176
     1
 90
       50
176
     1
 90
       50
176
     1
290
     0
176
     1
 90
       50
176
     1
 62
   256
176
     0
 40
1.0
176
     0
 90
        2
176
     1
  1
strokes_ogs.tif
176
     1
290
     0
176
     1
 40
1.0
176
     1
 40
1.0
176
     1
  0
VISUALSTYLE
  5
1E2
102
{ACAD_REACTORS
330
1CC
102
}
330
1CC
100
AcDbVisualStyle
  2
JitterOff
 70
    20
177
     3
291
     1
 70
    58
 90
        2
176
     0
 90
        2
176
     0
 90
        0
176
     0
 90
        0
176
     0
 40
0.6
176
     0
 40
30.0
176
     0
 62
     7
420
 16777215
176
     0
 90
        1
176
     0
 90
        4
176
     0
 62
     7
176
     0
 62
   257
176
     0
 90
        1
176
     0
 90
        1
176
     0
 40
1.0
176
     0
 90
       10
176
     2
 62
     7
176
     0
 40
1.0
176
     0
 90
        1
176
     0
 90
        6
176
     0
 90
        2
176
     0
 62
     7
176
     0
 90
        5
176
     0
 90
        0
176
     0
 90
        0
176
     0
290
     0
176
     0
 90
        1
176
     0
 40
0.0
176
     0
 90
        0
176
     0
290
     0
176
     1
290
     1
176
     1
290
     1
176
     1
290
     0
176
     1
290
     0
176
     1
290
     0
176
     1
290
     0
176
     1
290
     0
176
     1
290
     0
176
     1
 90
       50
176
     0
 40
0.0
176
     0
 40
1.0
176
     0
 90
        0
176
     0
 62
    18
420
        0
176
     0
 90
       50
176
     0
 90
        3
176
     0
 62
     5
420
      255
176
     0
290
     0
176
     1
 90
       50
176
     0
 90
       50
176
     0
 90
       50
176
     0
290
     0
176
     1
 90
       50
176
     0
 62
   256
176
     0
 40
1.0
176
     0
 90
        2
176
     0
  1
strokes_ogs.tif
176
     0
290
     0
176
     1
 40
1.0
176
     0
 40
1.0
176
     0
  0
VISUALSTYLE
  5
1DA
102
{ACAD_REACTORS
330
1CC
102
}
330
1CC
100
AcDbVisualStyle
  2
Linepattern
 70
    14
177
     3
291
     1
 70
    58
 90
        2
176
     1
 90
        2
176
     1
 90
        0
176
     1
 90
        0
176
     1
 40
0.6
176
     1
 40
30.0
176
     1
 62
     7
420
 16777215
176
     1
 90
        1
176
     1
 90
        4
176
     1
 62
     7
176
     1
 62
   257
176
     1
 90
        7
176
     1
 90
        7
176
     1
 40
1.0
176
     1
 90
        8
176
     1
 62
     7
176
     1
 40
1.0
176
     1
 90
        1
176
     1
 90
        6
176
     1
 90
        2
176
     1
 62
     7
176
     1
 90
        5
176
     1
 90
        0
176
     1
 90
        0
176
     1
290
     0
176
     1
 90
        1
176
     1
 40
0.0
176
     1
 90
        0
176
     1
290
     0
176
     1
290
     1
176
     1
290
     1
176
     1
290
     0
176
     1
290
     0
176
     1
290
     0
176
     1
290
     0
176
     1
290
     0
176
     1
290
     0
176
     1
 90
       50
176
     1
 40
0.0
176
     1
 40
1.0
176
     1
 90
        0
176
     1
 62
    18
420
        0
176
     1
 90
       50
176
     1
 90
        3
176
     1
 62
     5
420
      255
176
     1
290
     0
176
     1
 90
       50
176
     1
 90
       50
176
     1
 90
       50
176
     1
290
     0
176
     1
 90
       50
176
     1
 62
   256
176
     0
 40
1.0
176
     0
 90
        2
176
     1
  1
strokes_ogs.tif
176
     1
290
     0
176
     1
 40
1.0
176
     1
 40
1.0
176
     1
  0
VISUALSTYLE
  5
1E3
102
{ACAD_REACTORS
330
1CC
102
}
330
1CC
100
AcDbVisualStyle
  2
OverhangOff
 70
    21
177
     3
291
     1
 70
    58
 90
        2
176
     0
 90
        2
176
     0
 90
        0
176
     0
 90
        0
176
     0
 40
0.6
176
     0
 40
30.0
176
     0
 62
     7
420
 16777215
176
     0
 90
        1
176
     0
 90
        4
176
     0
 62
     7
176
     0
 62
   257
176
     0
 90
        1
176
     0
 90
        1
176
     0
 40
1.0
176
     0
 90
        9
176
     2
 62
     7
176
     0
 40
1.0
176
     0
 90
        1
176
     0
 90
        6
176
     0
 90
        2
176
     0
 62
     7
176
     0
 90
        5
176
     0
 90
        0
176
     0
 90
        0
176
     0
290
     0
176
     0
 90
        1
176
     0
 40
0.0
176
     0
 90
        0
176
     0
290
     0
176
     1
290
     1
176
     1
290
     1
176
     1
290
     0
176
     1
290
     0
176
     1
290
     0
176
     1
290
     0
176
     1
290
     0
176
     1
290
     0
176
     1
 90
       50
176
     0
 40
0.0
176
     0
 40
1.0
176
     0
 90
        0
176
     0
 62
    18
420
        0
176
     0
 90
       50
176
     0
 90
        3
176
     0
 62
     5
420
      255
176
     0
290
     0
176
     1
 90
       50
176
     0
 90
       50
176
     0
 90
       50
176
     0
290
     0
176
     1
 90
       50
176
     0
 62
   256
176
     0
 40
1.0
176
     0
 90
        2
176
     0
  1
strokes_ogs.tif
176
     0
290
     0
176
     1
 40
1.0
176
     0
 40
1.0
176
     0
  0
VISUALSTYLE
  5
1D6
102
{ACAD_REACTORS
330
1CC
102
}
330
1CC
100
AcDbVisualStyle
  2
Realistic
 70
     8
177
     3
291
     0
 70
    58
 90
        2
176
     1
 90
        3
176
     1
 90
        0
176
     1
 90
        2
176
     1
 40
0.6
176
     1
 40
30.0
176
     1
 62
     7
420
 16777215
176
     1
 90
        0
176
     1
 90
        0
176
     1
 62
     7
176
     1
 62
   257
176
     1
 90
        1
176
     1
 90
        1
176
     1
 40
1.0
176
     1
 90
        8
176
     1
 62
   257
176
     1
 40
1.0
176
     1
 90
        1
176
     1
 90
        6
176
     1
 90
        2
176
     1
 62
     7
176
     1
 90
        3
176
     1
 90
        0
176
     1
 90
        0
176
     1
290
     0
176
     1
 90
       13
176
     1
 40
0.0
176
     1
 90
        0
176
     1
290
     0
176
     1
290
     1
176
     1
290
     1
176
     1
290
     0
176
     1
290
     0
176
     1
290
     0
176
     1
290
     0
176
     1
290
     0
176
     1
290
     0
176
     1
 90
       50
176
     1
 40
0.0
176
     1
 40
1.0
176
     1
 90
        0
176
     1
 62
    18
420
        0
176
     1
 90
       50
176
     1
 90
        3
176
     1
 62
     5
420
      255
176
     1
290
     0
176
     1
 90
       50
176
     1
 90
       50
176
     1
 90
       50
176
     1
290
     0
176
     1
 90
       50
176
     1
 62
   256
176
     0
 40
1.0
176
     0
 90
        2
176
     1
  1
strokes_ogs.tif
176
     1
290
     0
176
     1
 40
1.0
176
     1
 40
1.0
176
     1
  0
VISUALSTYLE
  5
1E1
102
{ACAD_REACTORS
330
1CC
102
}
330
1CC
100
AcDbVisualStyle
  2
Shaded
 70
    27
177
     3
291
     0
 70
    58
 90
        2
176
     1
 90
        2
176
     1
 90
        1
176
     1
 90
        2
176
     1
 40
0.6
176
     1
 40
30.0
176
     1
 62
     7
420
 16777215
176
     1
 90
        0
176
     1
 90
        4
176
     1
 62
     7
176
     1
 62
   257
176
     1
 90
        1
176
     1
 90
        1
176
     1
 40
1.0
176
     1
 90
        8
176
     1
 62
   257
176
     1
 40
1.0
176
     1
 90
        1
176
     1
 90
        6
176
     1
 90
        2
176
     1
 62
     8
420
  7895160
176
     1
 90
        3
176
     1
 90
        0
176
     1
 90
        0
176
     1
290
     0
176
     1
 90
        5
176
     1
 40
0.0
176
     1
 90
        0
176
     1
290
     0
176
     1
290
     1
176
     1
290
     1
176
     1
290
     0
176
     1
290
     0
176
     1
290
     0
176
     1
290
     0
176
     1
290
     0
176
     1
290
     0
176
     1
 90
       50
176
     1
 40
0.0
176
     1
 40
1.0
176
     1
 90
        0
176
     1
 62
    18
420
        0
176
     1
 90
       50
176
     1
 90
        3
176
     1
 62
     5
420
      255
176
     1
290
     0
176
     1
 90
       50
176
     1
 90
       50
176
     1
 90
       50
176
     1
290
     0
176
     1
 90
       50
176
     1
 62
   256
176
     0
 40
1.0
176
     0
 90
        2
176
     1
  1
strokes_ogs.tif
176
     1
290
     0
176
     1
 40
1.0
176
     1
 40
1.0
176
     1
  0
VISUALSTYLE
  5
1E0
102
{ACAD_REACTORS
330
1CC
102
}
330
1CC
100
AcDbVisualStyle
  2
Shaded with edges
 70
    26
177
     3
291
     0
 70
    58
 90
        2
176
     1
 90
        2
176
     1
 90
        1
176
     1
 90
        2
176
     1
 40
0.6
176
     1
 40
30.0
176
     1
 62
     7
420
 16777215
176
     1
 90
        1
176
     1
 90
        2
176
     1
 62
     7
176
     1
 62
   257
176
     1
 90
        2
176
     1
 90
        1
176
     1
 40
1.0
176
     1
 90
        8
176
     1
 62
   257
176
     1
 40
1.0
176
     1
 90
        1
176
     1
 90
        6
176
     1
 90
        2
176
     1
 62
     7
176
     1
 90
        3
176
     1
 90
        0
176
     1
 90
        0
176
     1
290
     0
176
     1
 90
        5
176
     1
 40
0.0
176
     1
 90
        0
176
     1
290
     0
176
     1
290
     1
176
     1
290
     1
176
     1
290
     0
176
     1
290
     0
176
     1
290
     0
176
     1
290
     0
176
     1
290
     0
176
     1
290
     0
176
     1
 90
       50
176
     1
 40
0.0
176
     1
 40
1.0
176
     1
 90
        0
176
     1
 62
    18
420
        0
176
     1
 90
       50
176
     1
 90
        3
176
     1
 62
     5
420
      255
176
     1
290
     0
176
     1
 90
       50
176
     1
 90
       50
176
     1
 90
       50
176
     1
290
     0
176
     1
 90
       50
176
     1
 62
   256
176
     0
 40
1.0
176
     0
 90
        2
176
     1
  1
strokes_ogs.tif
176
     1
290
     0
176
     1
 40
1.0
176
     1
 40
1.0
176
     1
  0
VISUALSTYLE
  5
1DD
102
{ACAD_REACTORS
330
1CC
102
}
330
1CC
100
AcDbVisualStyle
  2
Shades of Gray
 70
    23
177
     3
291
     0
 70
    58
 90
        2
176
     1
 90
        2
176
     1
 90
        3
176
     1
 90
        0
176
     1
 40
0.6
176
     1
 40
30.0
176
     1
 62
     7
420
 16777215
176
     1
 90
        2
176
     1
 90
        2
176
     1
 62
     7
176
     1
 62
     7
176
     1
 90
        1
176
     1
 90
        1
176
     1
 40
40.0
176
     1
 90
        8
176
     1
 62
     7
176
     1
 40
1.0
176
     1
 90
        1
176
     1
 90
        6
176
     1
 90
        2
176
     1
 62
     7
176
     1
 90
        3
176
     1
 90
        0
176
     1
 90
        0
176
     1
290
     0
176
     1
 90
        1
176
     1
 40
0.0
176
     1
 90
        0
176
     1
290
     0
176
     1
290
     1
176
     1
290
     1
176
     1
290
     0
176
     1
290
     0
176
     1
290
     0
176
     1
290
     0
176
     1
290
     0
176
     1
290
     0
176
     1
 90
       50
176
     1
 40
0.0
176
     1
 40
1.0
176
     1
 90
        0
176
     1
 62
    18
420
        0
176
     1
 90
       50
176
     1
 90
        3
176
     1
 62
     5
420
      255
176
     1
290
     0
176
     1
 90
       50
176
     1
 90
       50
176
     1
 90
       50
176
     1
290
     0
176
     1
 90
       50
176
     1
 62
   256
176
     0
 40
1.0
176
     0
 90
        2
176
     1
  1
strokes_ogs.tif
176
     1
290
     0
176
     1
 40
1.0
176
     1
 40
1.0
176
     1
  0
VISUALSTYLE
  5
1DE
102
{ACAD_REACTORS
330
1CC
102
}
330
1CC
100
AcDbVisualStyle
  2
Sketchy
 70
    24
177
     3
291
     0
 70
    58
 90
        1
176
     1
 90
        2
176
     1
 90
        2
176
     1
 90
        0
176
     1
 40
0.6
176
     1
 40
30.0
176
     1
 62
     7
420
 16777215
176
     1
 90
        2
176
     1
 90
        2
176
     1
 62
     7
176
     1
 62
     7
176
     1
 90
        1
176
     1
 90
        1
176
     1
 40
40.0
176
     1
 90
       11
176
     1
 62
     7
176
     1
 40
1.0
176
     1
 90
        1
176
     1
 90
        6
176
     1
 90
        2
176
     1
 62
     7
176
     1
 90
        6
176
     1
 90
        0
176
     1
 90
        0
176
     1
290
     0
176
     1
 90
        1
176
     1
 40
0.0
176
     1
 90
        0
176
     1
290
     0
176
     1
290
     1
176
     1
290
     1
176
     1
290
     0
176
     1
290
     0
176
     1
290
     0
176
     1
290
     0
176
     1
290
     0
176
     1
290
     0
176
     1
 90
       50
176
     1
 40
0.0
176
     1
 40
1.0
176
     1
 90
        0
176
     1
 62
    18
420
        0
176
     1
 90
       50
176
     1
 90
        3
176
     1
 62
     5
420
      255
176
     1
290
     0
176
     1
 90
       50
176
     1
 90
       50
176
     1
 90
       50
176
     1
290
     0
176
     1
 90
       50
176
     1
 62
   256
176
     0
 40
1.0
176
     0
 90
        2
176
     1
  1
strokes_ogs.tif
176
     1
290
     0
176
     1
 40
1.0
176
     1
 40
1.0
176
     1
  0
VISUALSTYLE
  5
1D9
102
{ACAD_REACTORS
330
1CC
102
}
330
1CC
100
AcDbVisualStyle
  2
Thicken
 70
    13
177
     3
291
     1
 70
    58
 90
        2
176
     1
 90
        2
176
     1
 90
        0
176
     1
 90
        0
176
     1
 40
0.6
176
     1
 40
30.0
176
     1
 62
     7
420
 16777215
176
     1
 90
        1
176
     1
 90
        4
176
     1
 62
     7
176
     1
 62
   257
176
     1
 90
        1
176
     1
 90
        1
176
     1
 40
1.0
176
     1
 90
       12
176
     1
 62
     7
176
     1
 40
1.0
176
     1
 90
        1
176
     1
 90
        6
176
     1
 90
        2
176
     1
 62
     7
176
     1
 90
        5
176
     1
 90
        0
176
     1
 90
        0
176
     1
290
     0
176
     1
 90
        1
176
     1
 40
0.0
176
     1
 90
        0
176
     1
290
     0
176
     1
290
     1
176
     1
290
     1
176
     1
290
     0
176
     1
290
     0
176
     1
290
     0
176
     1
290
     0
176
     1
290
     0
176
     1
290
     0
176
     1
 90
       50
176
     1
 40
0.0
176
     1
 40
1.0
176
     1
 90
        0
176
     1
 62
    18
420
        0
176
     1
 90
       50
176
     1
 90
        3
176
     1
 62
     5
420
      255
176
     1
290
     0
176
     1
 90
       50
176
     1
 90
       50
176
     1
 90
       50
176
     1
290
     0
176
     1
 90
       50
176
     1
 62
   256
176
     0
 40
1.0
176
     0
 90
        2
176
     1
  1
strokes_ogs.tif
176
     1
290
     0
176
     1
 40
1.0
176
     1
 40
1.0
176
     1
  0
VISUALSTYLE
  5
1D3
102
{ACAD_REACTORS
330
1CC
102
}
330
1CC
100
AcDbVisualStyle
  2
Wireframe
 70
     5
177
     3
291
     0
 70
    58
 90
        0
176
     1
 90
        2
176
     1
 90
        0
176
     1
 90
        0
176
     1
 40
0.6
176
     1
 40
30.0
176
     1
 62
     7
420
 16777215
176
     1
 90
        1
176
     1
 90
        4
176
     1
 62
     7
176
     1
 62
   257
176
     1
 90
        1
176
     1
 90
        1
176
     1
 40
1.0
176
     1
 90
        0
176
     1
 62
   257
176
     1
 40
1.0
176
     1
 90
        1
176
     1
 90
        6
176
     1
 90
        2
176
     1
 62
     7
176
     1
 90
        3
176
     1
 90
        0
176
     1
 90
        0
176
     1
290
     0
176
     1
 90
        1
176
     1
 40
0.0
176
     1
 90
        0
176
     1
290
     0
176
     1
290
     1
176
     1
290
     1
176
     1
290
     0
176
     1
290
     0
176
     1
290
     0
176
     1
290
     0
176
     1
290
     0
176
     1
290
     0
176
     1
 90
       50
176
     1
 40
0.0
176
     1
 40
1.0
176
     1
 90
        0
176
     1
 62
    18
420
        0
176
     1
 90
       50
176
     1
 90
        3
176
     1
 62
     5
420
      255
176
     1
290
     0
176
     1
 90
       50
176
     1
 90
       50
176
     1
 90
       50
176
     1
290
     0
176
     1
 90
       50
176
     1
 62
   256
176
     0
 40
1.0
176
     0
 90
        2
176
     1
  1
strokes_ogs.tif
176
     1
290
     0
176
     1
 40
1.0
176
     1
 40
1.0
176
     1
  0
VISUALSTYLE
  5
1DF
102
{ACAD_REACTORS
330
1CC
102
}
330
1CC
100
AcDbVisualStyle
  2
X-Ray
 70
    25
177
     3
291
     0
 70
    58
 90
        2
176
     1
 90
        2
176
     1
 90
        1
176
     1
 90
        1
176
     1
 40
0.5
176
     1
 40
30.0
176
     1
 62
     7
420
 16777215
176
     1
 90
        1
176
     1
 90
        0
176
     1
 62
     7
176
     1
 62
   257
176
     1
 90
        1
176
     1
 90
        1
176
     1
 40
1.0
176
     1
 90
        8
176
     1
 62
     7
176
     1
 40
1.0
176
     1
 90
        1
176
     1
 90
        6
176
     1
 90
        2
176
     1
 62
     7
176
     1
 90
        3
176
     1
 90
        0
176
     1
 90
        0
176
     1
290
     0
176
     1
 90
       13
176
     1
 40
0.0
176
     1
 90
        0
176
     1
290
     0
176
     1
290
     1
176
     1
290
     1
176
     1
290
     0
176
     1
290
     0
176
     1
290
     0
176
     1
290
     0
176
     1
290
     0
176
     1
290
     0
176
     1
 90
       50
176
     1
 40
0.0
176
     1
 40
1.0
176
     1
 90
        0
176
     1
 62
    18
420
        0
176
     1
 90
       50
176
     1
 90
        3
176
     1
 62
     5
420
      255
176
     1
290
     0
176
     1
 90
       50
176
     1
 90
       50
176
     1
 90
       50
176
     1
290
     0
176
     1
 90
       50
176
     1
 62
   256
176
     0
 40
1.0
176
     0
 90
        2
176
     1
  1
strokes_ogs.tif
176
     1
290
     0
176
     1
 40
1.0
176
     1
 40
1.0
176
     1
  0
DICTIONARYVAR
  5
328
102
{ACAD_REACTORS
330
322
102
}
330
322
100
DictionaryVariables
280
     0
  1
1:1
  0
DICTIONARYVAR
  5
324
102
{ACAD_REACTORS
330
322
102
}
330
322
100
DictionaryVariables
280
     0
  1
STANDARD
  0
DICTIONARYVAR
  5
323
102
{ACAD_REACTORS
330
322
102
}
330
322
100
DictionaryVariables
280
     0
  1
STANDARD
  0
DICTIONARYVAR
  5
325
102
{ACAD_REACTORS
330
322
102
}
330
322
100
DictionaryVariables
280
     0
  1
Metric50
  0
DICTIONARYVAR
  5
326
102
{ACAD_REACTORS
330
322
102
}
330
322
100
DictionaryVariables
280
     0
  1
Metric50
  0
DICTIONARYVAR
  5
32A
102
{ACAD_REACTORS
330
322
102
}
330
322
100
DictionaryVariables
280
     0
  1
1
  0
DICTIONARYVAR
  5
32B
102
{ACAD_REACTORS
330
322
102
}
330
322
100
DictionaryVariables
280
     0
  1
15
  0
DICTIONARYVAR
  5
329
102
{ACAD_REACTORS
330
322
102
}
330
322
100
DictionaryVariables
280
     0
  1
0
  0
DICTIONARYVAR
  5
327
102
{ACAD_REACTORS
330
322
102
}
330
322
100
DictionaryVariables
280
     0
  1
0
  0
DICTIONARY
  5
239
102
{ACAD_REACTORS
330
238
102
}
330
238
100
AcDbDictionary
281
     1
  3
*A1
350
23A
  0
DICTIONARY
  5
22B
102
{ACAD_REACTORS
330
22A
102
}
330
22A
100
AcDbDictionary
281
     1
  3
*A1
350
22C
  0
DICTIONARY
  5
247
102
{ACAD_REACTORS
330
246
102
}
330
246
100
AcDbDictionary
281
     1
  3
*A1
350
248
  0
DICTIONARY
  5
271
102
{ACAD_REACTORS
330
270
102
}
330
270
100
AcDbDictionary
281
     1
  3
*A1
350
272
  0
DICTIONARY
  5
255
102
{ACAD_REACTORS
330
254
102
}
330
254
100
AcDbDictionary
281
     1
  3
*A1
350
256
  0
DICTIONARY
  5
263
102
{ACAD_REACTORS
330
262
102
}
330
262
100
AcDbDictionary
281
     1
  3
*A1
350
264
  0
DICTIONARY
  5
29A
102
{ACAD_REACTORS
330
299
102
}
330
299
100
AcDbDictionary
281
     1
  3
*A1
350
29B
  0
DICTIONARY
  5
2D9
102
{ACAD_REACTORS
330
2D8
102
}
330
2D8
100
AcDbDictionary
281
     1
  3
*A1
350
2DA
  0
DICTIONARY
  5
309
102
{ACAD_REACTORS
330
308
102
}
330
308
100
AcDbDictionary
281
     1
  3
*A1
350
30A
  0
DICTIONARY
  5
1BD
330
1BC
100
AcDbDictionary
280
     1
281
     1
  3
BUMPTILE
360
1BF
  3
DIFFUSETILE
360
1BE
  3
OPACITYTILE
360
1C2
  3
REFLECTIONTILE
360
1C1
  3
REFRACTIONTILE
360
1C3
  3
SPECULARTILE
360
1C0
  0
DICTIONARY
  5
1B5
330
1B4
100
AcDbDictionary
280
     1
281
     1
  3
BUMPTILE
360
1B7
  3
DIFFUSETILE
360
1B6
  3
OPACITYTILE
360
1BA
  3
REFLECTIONTILE
360
1B9
  3
REFRACTIONTILE
360
1BB
  3
SPECULARTILE
360
1B8
  0
DICTIONARY
  5
1C5
330
1C4
100
AcDbDictionary
280
     1
281
     1
  3
BUMPTILE
360
1C7
  3
DIFFUSETILE
360
1C6
  3
OPACITYTILE
360
1CA
  3
REFLECTIONTILE
360
1C9
  3
REFRACTIONTILE
360
1CB
  3
SPECULARTILE
360
1C8
  0
DICTIONARY
  5
32C
330
1E7
100
AcDbDictionary
280
     1
281
     1
  3
ACAD_ROUNDTRIP_2008_TABLESTYLE_CELLSTYLEMAP
360
32D
  0
ACDB_ALDIMOBJECTCONTEXTDATA_CLASS
  5
23A
102
{ACAD_REACTORS
330
239
102
}
330
239
100
AcDbObjectContextData
 70
     4
290
     1
100
AcDbAnnotScaleObjectContextData
340
48
100
AcDbDimensionObjectContextData
  2
*D13
293
     0
 10
-4.6765214413
 20
-108.5455320537
294
     0
140
0.0
298
     0
291
     0
 70
     0
292
     0
 71
     0
280
     0
295
     0
296
     0
297
     0
100
AcDbAlignedDimensionObjectContextData
 11
71.01121455599998
 21
-108.5455320537
 31
0.0
  0
ACDB_ALDIMOBJECTCONTEXTDATA_CLASS
  5
22C
102
{ACAD_REACTORS
330
22B
102
}
330
22B
100
AcDbObjectContextData
 70
     4
290
     1
100
AcDbAnnotScaleObjectContextData
340
48
100
AcDbDimensionObjectContextData
  2
*D12
293
     0
 10
96.53621455600001
 20
-36.4234157893
294
     0
140
0.0
298
     0
291
     0
 70
     0
292
     0
 71
     0
280
     0
295
     0
296
     0
297
     0
100
AcDbAlignedDimensionObjectContextData
 11
96.53621455600003
 21
13.65009104620001
 31
0.0
  0
ACDB_ALDIMOBJECTCONTEXTDATA_CLASS
  5
248
102
{ACAD_REACTORS
330
247
102
}
330
247
100
AcDbObjectContextData
 70
     4
290
     1
100
AcDbAnnotScaleObjectContextData
340
48
100
AcDbDimensionObjectContextData
  2
*D14
293
     0
 10
-120.7279881838
 20
2.343111788999999
294
     0
140
0.0
298
     0
291
     0
 70
     0
292
     0
 71
     0
280
     0
295
     0
296
     0
297
     0
100
AcDbAlignedDimensionObjectContextData
 11
-120.7279881838
 21
-86.54553205370005
 31
0.0
  0
ACDB_ALDIMOBJECTCONTEXTDATA_CLASS
  5
272
102
{ACAD_REACTORS
330
271
102
}
330
271
100
AcDbObjectContextData
 70
     4
290
     1
100
AcDbAnnotScaleObjectContextData
340
48
100
AcDbDimensionObjectContextData
  2
*D17
293
     0
 10
352.2995744489918
 20
114.208821049
294
     0
140
0.0
298
     0
291
     0
 70
     0
292
     0
 71
     0
280
     0
295
     0
296
     0
297
     0
100
AcDbAlignedDimensionObjectContextData
 11
342.7995830381919
 21
114.208821049
 31
0.0
  0
ACDB_ALDIMOBJECTCONTEXTDATA_CLASS
  5
256
102
{ACAD_REACTORS
330
255
102
}
330
255
100
AcDbObjectContextData
 70
     4
290
     1
100
AcDbAnnotScaleObjectContextData
340
48
100
AcDbDimensionObjectContextData
  2
*D15
293
     0
 10
227.5643027668919
 20
-112.4008878169
294
     0
140
0.0
298
     0
291
     0
 70
     0
292
     0
 71
     0
280
     0
295
     0
296
     0
297
     0
100
AcDbAlignedDimensionObjectContextData
 11
201.8253307451919
 21
-112.4008878169
 31
0.0
  0
ACDB_ALDIMOBJECTCONTEXTDATA_CLASS
  5
264
102
{ACAD_REACTORS
330
263
102
}
330
263
100
AcDbObjectContextData
 70
     4
290
     1
100
AcDbAnnotScaleObjectContextData
340
48
100
AcDbDimensionObjectContextData
  2
*D16
293
     0
 10
478.7542122788918
 20
-24.4196743549
294
     0
140
0.0
298
     0
291
     0
 70
     0
292
     0
 71
     0
280
     0
295
     0
296
     0
297
     0
100
AcDbAlignedDimensionObjectContextData
 11
498.8753307451919
 21
-24.4196743549
 31
0.0
  0
ACDB_ALDIMOBJECTCONTEXTDATA_CLASS
  5
29B
102
{ACAD_REACTORS
330
29A
102
}
330
29A
100
AcDbObjectContextData
 70
     4
290
     1
100
AcDbAnnotScaleObjectContextData
340
48
100
AcDbDimensionObjectContextData
  2
*D20
293
     0
 10
207.5881498411777
 20
-21.91777928289662
294
     0
140
0.0
298
     0
291
     0
 70
     0
292
     0
 71
     0
280
     0
295
     0
296
     0
297
     0
100
AcDbAlignedDimensionObjectContextData
 11
248.8253307451919
 21
-21.91777928289662
 31
0.0
  0
ACDB_ALDIMOBJECTCONTEXTDATA_CLASS
  5
2DA
102
{ACAD_REACTORS
330
2D9
102
}
330
2D9
100
AcDbObjectContextData
 70
     4
290
     1
100
AcDbAnnotScaleObjectContextData
340
48
100
AcDbDimensionObjectContextData
  2
*D22
293
     0
 10
271.9158952924281
 20
-63.08093007380008
294
     0
140
0.0
298
     0
291
     0
 70
     0
292
     0
 71
     0
280
     0
295
     0
296
     0
297
     0
100
AcDbAlignedDimensionObjectContextData
 11
271.9158952924281
 21
-40.58093007380001
 31
0.0
  0
ACDB_ALDIMOBJECTCONTEXTDATA_CLASS
  5
30A
102
{ACAD_REACTORS
330
309
102
}
330
309
100
AcDbObjectContextData
 70
     4
290
     1
100
AcDbAnnotScaleObjectContextData
340
48
100
AcDbDimensionObjectContextData
  2
*D24
293
     0
 10
352.5753307450919
 20
-120.4008878169
294
     1
140
0.0
298
     0
291
     0
 70
     0
292
     0
 71
     0
280
     0
295
     0
296
     0
297
     0
100
AcDbAlignedDimensionObjectContextData
 11
379.5753307450919
 21
-112.4008878169
 31
0.0
  0
XRECORD
  5
1BF
102
{ACAD_REACTORS
330
1BD
102
}
330
1BD
100
AcDbXrecord
280
     1
270
     1
271
     1
  0
XRECORD
  5
1BE
102
{ACAD_REACTORS
330
1BD
102
}
330
1BD
100
AcDbXrecord
280
     1
270
     1
271
     1
  0
XRECORD
  5
1C2
102
{ACAD_REACTORS
330
1BD
102
}
330
1BD
100
AcDbXrecord
280
     1
270
     1
271
     1
  0
XRECORD
  5
1C1
102
{ACAD_REACTORS
330
1BD
102
}
330
1BD
100
AcDbXrecord
280
     1
270
     1
271
     1
  0
XRECORD
  5
1C3
102
{ACAD_REACTORS
330
1BD
102
}
330
1BD
100
AcDbXrecord
280
     1
270
     1
271
     1
  0
XRECORD
  5
1C0
102
{ACAD_REACTORS
330
1BD
102
}
330
1BD
100
AcDbXrecord
280
     1
270
     1
271
     1
  0
XRECORD
  5
1B7
102
{ACAD_REACTORS
330
1B5
102
}
330
1B5
100
AcDbXrecord
280
     1
270
     1
271
     1
  0
XRECORD
  5
1B6
102
{ACAD_REACTORS
330
1B5
102
}
330
1B5
100
AcDbXrecord
280
     1
270
     1
271
     1
  0
XRECORD
  5
1BA
102
{ACAD_REACTORS
330
1B5
102
}
330
1B5
100
AcDbXrecord
280
     1
270
     1
271
     1
  0
XRECORD
  5
1B9
102
{ACAD_REACTORS
330
1B5
102
}
330
1B5
100
AcDbXrecord
280
     1
270
     1
271
     1
  0
XRECORD
  5
1BB
102
{ACAD_REACTORS
330
1B5
102
}
330
1B5
100
AcDbXrecord
280
     1
270
     1
271
     1
  0
XRECORD
  5
1B8
102
{ACAD_REACTORS
330
1B5
102
}
330
1B5
100
AcDbXrecord
280
     1
270
     1
271
     1
  0
XRECORD
  5
1C7
102
{ACAD_REACTORS
330
1C5
102
}
330
1C5
100
AcDbXrecord
280
     1
270
     1
271
     1
  0
XRECORD
  5
1C6
102
{ACAD_REACTORS
330
1C5
102
}
330
1C5
100
AcDbXrecord
280
     1
270
     1
271
     1
  0
XRECORD
  5
1CA
102
{ACAD_REACTORS
330
1C5
102
}
330
1C5
100
AcDbXrecord
280
     1
270
     1
271
     1
  0
XRECORD
  5
1C9
102
{ACAD_REACTORS
330
1C5
102
}
330
1C5
100
AcDbXrecord
280
     1
270
     1
271
     1
  0
XRECORD
  5
1CB
102
{ACAD_REACTORS
330
1C5
102
}
330
1C5
100
AcDbXrecord
280
     1
270
     1
271
     1
  0
XRECORD
  5
1C8
102
{ACAD_REACTORS
330
1C5
102
}
330
1C5
100
AcDbXrecord
280
     1
270
     1
271
     1
  0
CELLSTYLEMAP
  5
32D
102
{ACAD_REACTORS
330
32C
102
}
330
32C
100
AcDbCellStyleMap
 90
        3
300
CELLSTYLE
  1
TABLEFORMAT_BEGIN
 90
        5
170
     1
 91
        0
 92
    32768
 62
   257
 93
        1
300
CONTENTFORMAT
  1
CONTENTFORMAT_BEGIN
 90
        0
 91
        0
 92
      512
 93
        0
300

 40
0.0
140
1.0
 94
        5
 62
     0
340
11
144
6.0
309
CONTENTFORMAT_END
171
     1
301
MARGIN
  1
CELLMARGIN_BEGIN
 40
1.5
 40
1.5
 40
1.5
 40
1.5
 40
4.5
 40
4.5
309
CELLMARGIN_END
 94
        6
 95
        1
302
GRIDFORMAT
  1
GRIDFORMAT_BEGIN
 90
        0
 91
        1
 62
     0
 92
       -2
340
0
 93
        0
 40
1.125
309
GRIDFORMAT_END
 95
        2
302
GRIDFORMAT
  1
GRIDFORMAT_BEGIN
 90
        0
 91
        1
 62
     0
 92
       -2
340
0
 93
        0
 40
1.125
309
GRIDFORMAT_END
 95
        4
302
GRIDFORMAT
  1
GRIDFORMAT_BEGIN
 90
        0
 91
        1
 62
     0
 92
       -2
340
0
 93
        0
 40
1.125
309
GRIDFORMAT_END
 95
        8
302
GRIDFORMAT
  1
GRIDFORMAT_BEGIN
 90
        0
 91
        1
 62
     0
 92
       -2
340
0
 93
        0
 40
1.125
309
GRIDFORMAT_END
 95
       16
302
GRIDFORMAT
  1
GRIDFORMAT_BEGIN
 90
        0
 91
        1
 62
     0
 92
       -2
340
0
 93
        0
 40
1.125
309
GRIDFORMAT_END
 95
       32
302
GRIDFORMAT
  1
GRIDFORMAT_BEGIN
 90
        0
 91
        1
 62
     0
 92
       -2
340
0
 93
        0
 40
1.125
309
GRIDFORMAT_END
309
TABLEFORMAT_END
  1
CELLSTYLE_BEGIN
 90
        1
 91
        1
300
_TITLE
309
CELLSTYLE_END
300
CELLSTYLE
  1
TABLEFORMAT_BEGIN
 90
        5
170
     1
 91
        0
 92
        0
 62
   257
 93
        1
300
CONTENTFORMAT
  1
CONTENTFORMAT_BEGIN
 90
        0
 91
        0
 92
      512
 93
        0
300

 40
0.0
140
1.0
 94
        5
 62
     0
340
11
144
4.5
309
CONTENTFORMAT_END
171
     1
301
MARGIN
  1
CELLMARGIN_BEGIN
 40
1.5
 40
1.5
 40
1.5
 40
1.5
 40
4.5
 40
4.5
309
CELLMARGIN_END
 94
        6
 95
        1
302
GRIDFORMAT
  1
GRIDFORMAT_BEGIN
 90
        0
 91
        1
 62
     0
 92
       -2
340
0
 93
        0
 40
1.125
309
GRIDFORMAT_END
 95
        2
302
GRIDFORMAT
  1
GRIDFORMAT_BEGIN
 90
        0
 91
        1
 62
     0
 92
       -2
340
0
 93
        0
 40
1.125
309
GRIDFORMAT_END
 95
        4
302
GRIDFORMAT
  1
GRIDFORMAT_BEGIN
 90
        0
 91
        1
 62
     0
 92
       -2
340
0
 93
        0
 40
1.125
309
GRIDFORMAT_END
 95
        8
302
GRIDFORMAT
  1
GRIDFORMAT_BEGIN
 90
        0
 91
        1
 62
     0
 92
       -2
340
0
 93
        0
 40
1.125
309
GRIDFORMAT_END
 95
       16
302
GRIDFORMAT
  1
GRIDFORMAT_BEGIN
 90
        0
 91
        1
 62
     0
 92
       -2
340
0
 93
        0
 40
1.125
309
GRIDFORMAT_END
 95
       32
302
GRIDFORMAT
  1
GRIDFORMAT_BEGIN
 90
        0
 91
        1
 62
     0
 92
       -2
340
0
 93
        0
 40
1.125
309
GRIDFORMAT_END
309
TABLEFORMAT_END
  1
CELLSTYLE_BEGIN
 90
        2
 91
        1
300
_HEADER
309
CELLSTYLE_END
300
CELLSTYLE
  1
TABLEFORMAT_BEGIN
 90
        5
170
     1
 91
        0
 92
        0
 62
   257
 93
        1
300
CONTENTFORMAT
  1
CONTENTFORMAT_BEGIN
 90
        0
 91
        0
 92
      512
 93
        0
300

 40
0.0
140
1.0
 94
        2
 62
     0
340
11
144
4.5
309
CONTENTFORMAT_END
171
     1
301
MARGIN
  1
CELLMARGIN_BEGIN
 40
1.5
 40
1.5
 40
1.5
 40
1.5
 40
4.5
 40
4.5
309
CELLMARGIN_END
 94
        6
 95
        1
302
GRIDFORMAT
  1
GRIDFORMAT_BEGIN
 90
        0
 91
        1
 62
     0
 92
       -2
340
0
 93
        0
 40
1.125
309
GRIDFORMAT_END
 95
        2
302
GRIDFORMAT
  1
GRIDFORMAT_BEGIN
 90
        0
 91
        1
 62
     0
 92
       -2
340
0
 93
        0
 40
1.125
309
GRIDFORMAT_END
 95
        4
302
GRIDFORMAT
  1
GRIDFORMAT_BEGIN
 90
        0
 91
        1
 62
     0
 92
       -2
340
0
 93
        0
 40
1.125
309
GRIDFORMAT_END
 95
        8
302
GRIDFORMAT
  1
GRIDFORMAT_BEGIN
 90
        0
 91
        1
 62
     0
 92
       -2
340
0
 93
        0
 40
1.125
309
GRIDFORMAT_END
 95
       16
302
GRIDFORMAT
  1
GRIDFORMAT_BEGIN
 90
        0
 91
        1
 62
     0
 92
       -2
340
0
 93
        0
 40
1.125
309
GRIDFORMAT_END
 95
       32
302
GRIDFORMAT
  1
GRIDFORMAT_BEGIN
 90
        0
 91
        1
 62
     0
 92
       -2
340
0
 93
        0
 40
1.125
309
GRIDFORMAT_END
309
TABLEFORMAT_END
  1
CELLSTYLE_BEGIN
 90
        3
 91
        2
300
_DATA
309
CELLSTYLE_END
  0
ENDSEC
  0
EOF
