  0
SECTION
  2
HEADER
  9
$ACADVER
  1
AC1027
  9
$ACADMAINTVER
 70
   125
  9
$DWGCODEPAGE
  3
ANSI_1252
  9
$LASTSAVEDBY
  1
fleminab
  9
$REQUIREDVERSIONS
160
                 0
  9
$INSBASE
 10
0.0
 20
0.0
 30
0.0
  9
$EXTMIN
 10
1661.191469738845
 20
38.4895119010738
 30
-0.0015258207003583
  9
$EXTMAX
 10
2091.008479910639
 20
279.8408300524743
 30
0.0000000349246037
  9
$LIMMIN
 10
0.0
 20
0.0
  9
$LIMMAX
 10
420.0
 20
297.0
  9
$ORTHOMODE
 70
     0
  9
$REGENMODE
 70
     1
  9
$FILLMODE
 70
     1
  9
$QTEXTMODE
 70
     0
  9
$MIRRTEXT
 70
     0
  9
$LTSCALE
 40
0.3
  9
$ATTMODE
 70
     1
  9
$TEXTSIZE
 40
2.5
  9
$TRACEWID
 40
1.0
  9
$TEXTSTYLE
  7
Standard
  9
$CLAYER
  8
0
  9
$CELTYPE
  6
ByLayer
  9
$CECOLOR
 62
   256
  9
$CELTSCALE
 40
1.0
  9
$DISPSILH
 70
     0
  9
$DIMSCALE
 40
2.5
  9
$DIMASZ
 40
2.5
  9
$DIMEXO
 40
0.625
  9
$DIMDLI
 40
3.75
  9
$DIMRND
 40
0.0
  9
$DIMDLE
 40
0.0
  9
$DIMEXE
 40
1.25
  9
$DIMTP
 40
0.0
  9
$DIMTM
 40
0.0
  9
$DIMTXT
 40
2.5
  9
$DIMCEN
 40
2.5
  9
$DIMTSZ
 40
0.0
  9
$DIMTOL
 70
     0
  9
$DIMLIM
 70
     0
  9
$DIMTIH
 70
     0
  9
$DIMTOH
 70
     0
  9
$DIMSE1
 70
     0
  9
$DIMSE2
 70
     0
  9
$DIMTAD
 70
     1
  9
$DIMZIN
 70
     8
  9
$DIMBLK
  1

  9
$DIMASO
 70
     1
  9
$DIMSHO
 70
     1
  9
$DIMPOST
  1

  9
$DIMAPOST
  1

  9
$DIMALT
 70
     0
  9
$DIMALTD
 70
     3
  9
$DIMALTF
 40
0.03937007874016
  9
$DIMLFAC
 40
1.0
  9
$DIMTOFL
 70
     1
  9
$DIMTVP
 40
0.0
  9
$DIMTIX
 70
     0
  9
$DIMSOXD
 70
     0
  9
$DIMSAH
 70
     0
  9
$DIMBLK1
  1

  9
$DIMBLK2
  1

  9
$DIMSTYLE
  2
ISO-25
  9
$DIMCLRD
 70
     0
  9
$DIMCLRE
 70
     0
  9
$DIMCLRT
 70
     0
  9
$DIMTFAC
 40
1.0
  9
$DIMGAP
 40
0.625
  9
$DIMJUST
 70
     0
  9
$DIMSD1
 70
     0
  9
$DIMSD2
 70
     0
  9
$DIMTOLJ
 70
     0
  9
$DIMTZIN
 70
     8
  9
$DIMALTZ
 70
     0
  9
$DIMALTTZ
 70
     0
  9
$DIMUPT
 70
     0
  9
$DIMDEC
 70
     2
  9
$DIMTDEC
 70
     2
  9
$DIMALTU
 70
     2
  9
$DIMALTTD
 70
     3
  9
$DIMTXSTY
  7
Standard
  9
$DIMAUNIT
 70
     0
  9
$DIMADEC
 70
     0
  9
$DIMALTRND
 40
0.0
  9
$DIMAZIN
 70
     0
  9
$DIMDSEP
 70
    46
  9
$DIMATFIT
 70
     3
  9
$DIMFRAC
 70
     0
  9
$DIMLDRBLK
  1

  9
$DIMLUNIT
 70
     2
  9
$DIMLWD
 70
    -2
  9
$DIMLWE
 70
    -2
  9
$DIMTMOVE
 70
     0
  9
$DIMFXL
 40
1.0
  9
$DIMFXLON
 70
     0
  9
$DIMJOGANG
 40
0.7853981633974483
  9
$DIMTFILL
 70
     0
  9
$DIMTFILLCLR
 70
     0
  9
$DIMARCSYM
 70
     0
  9
$DIMLTYPE
  6

  9
$DIMLTEX1
  6

  9
$DIMLTEX2
  6

  9
$DIMTXTDIRECTION
 70
     0
  9
$LUNITS
 70
     2
  9
$LUPREC
 70
     4
  9
$SKETCHINC
 40
1.0
  9
$FILLETRAD
 40
0.0
  9
$AUNITS
 70
     0
  9
$AUPREC
 70
     0
  9
$MENU
  1
.
  9
$ELEVATION
 40
0.0
  9
$PELEVATION
 40
0.0
  9
$THICKNESS
 40
0.0
  9
$LIMCHECK
 70
     0
  9
$CHAMFERA
 40
0.5
  9
$CHAMFERB
 40
0.5
  9
$CHAMFERC
 40
0.0
  9
$CHAMFERD
 40
0.0
  9
$SKPOLY
 70
     0
  9
$TDCREATE
 40
2454820.718125001
  9
$TDUCREATE
 40
2454820.259800706
  9
$TDUPDATE
 40
2458015.596307871
  9
$TDUUPDATE
 40
2458015.179641204
  9
$TDINDWG
 40
0.2031756713
  9
$TDUSRTIMER
 40
0.2031756713
  9
$USRTIMER
 70
     1
  9
$ANGBASE
 50
0.0
  9
$ANGDIR
 70
     0
  9
$PDMODE
 70
     0
  9
$PDSIZE
 40
0.0
  9
$PLINEWID
 40
0.0
  9
$SPLFRAME
 70
     0
  9
$SPLINETYPE
 70
     6
  9
$SPLINESEGS
 70
     8
  9
$HANDSEED
  5
2E3E
  9
$SURFTAB1
 70
     6
  9
$SURFTAB2
 70
     6
  9
$SURFTYPE
 70
     6
  9
$SURFU
 70
     6
  9
$SURFV
 70
     6
  9
$UCSBASE
  2

  9
$UCSNAME
  2

  9
$UCSORG
 10
0.0
 20
0.0
 30
0.0
  9
$UCSXDIR
 10
1.0
 20
0.0
 30
0.0
  9
$UCSYDIR
 10
0.0
 20
1.0
 30
0.0
  9
$UCSORTHOREF
  2

  9
$UCSORTHOVIEW
 70
     0
  9
$UCSORGTOP
 10
0.0
 20
0.0
 30
0.0
  9
$UCSORGBOTTOM
 10
0.0
 20
0.0
 30
0.0
  9
$UCSORGLEFT
 10
0.0
 20
0.0
 30
0.0
  9
$UCSORGRIGHT
 10
0.0
 20
0.0
 30
0.0
  9
$UCSORGFRONT
 10
0.0
 20
0.0
 30
0.0
  9
$UCSORGBACK
 10
0.0
 20
0.0
 30
0.0
  9
$PUCSBASE
  2

  9
$PUCSNAME
  2

  9
$PUCSORG
 10
0.0
 20
0.0
 30
0.0
  9
$PUCSXDIR
 10
1.0
 20
0.0
 30
0.0
  9
$PUCSYDIR
 10
0.0
 20
1.0
 30
0.0
  9
$PUCSORTHOREF
  2

  9
$PUCSORTHOVIEW
 70
     0
  9
$PUCSORGTOP
 10
0.0
 20
0.0
 30
0.0
  9
$PUCSORGBOTTOM
 10
0.0
 20
0.0
 30
0.0
  9
$PUCSORGLEFT
 10
0.0
 20
0.0
 30
0.0
  9
$PUCSORGRIGHT
 10
0.0
 20
0.0
 30
0.0
  9
$PUCSORGFRONT
 10
0.0
 20
0.0
 30
0.0
  9
$PUCSORGBACK
 10
0.0
 20
0.0
 30
0.0
  9
$USERI1
 70
     0
  9
$USERI2
 70
     0
  9
$USERI3
 70
     0
  9
$USERI4
 70
     0
  9
$USERI5
 70
     0
  9
$USERR1
 40
0.0
  9
$USERR2
 40
0.0
  9
$USERR3
 40
0.0
  9
$USERR4
 40
0.0
  9
$USERR5
 40
0.0
  9
$WORLDVIEW
 70
     1
  9
$SHADEDGE
 70
     3
  9
$SHADEDIF
 70
    70
  9
$TILEMODE
 70
     1
  9
$MAXACTVP
 70
    64
  9
$PINSBASE
 10
0.0
 20
0.0
 30
0.0
  9
$PLIMCHECK
 70
     0
  9
$PEXTMIN
 10
0.0
 20
0.0
 30
0.0
  9
$PEXTMAX
 10
0.0
 20
0.0
 30
0.0
  9
$PLIMMIN
 10
0.0
 20
0.0
  9
$PLIMMAX
 10
12.0
 20
9.0
  9
$UNITMODE
 70
     0
  9
$VISRETAIN
 70
     1
  9
$PLINEGEN
 70
     0
  9
$PSLTSCALE
 70
     1
  9
$TREEDEPTH
 70
  3020
  9
$CMLSTYLE
  2
Standard
  9
$CMLJUST
 70
     0
  9
$CMLSCALE
 40
20.0
  9
$PROXYGRAPHICS
 70
     1
  9
$MEASUREMENT
 70
     1
  9
$CELWEIGHT
370
    -1
  9
$ENDCAPS
280
     0
  9
$JOINSTYLE
280
     0
  9
$LWDISPLAY
290
     1
  9
$INSUNITS
 70
     4
  9
$HYPERLINKBASE
  1

  9
$STYLESHEET
  1

  9
$XEDIT
290
     1
  9
$CEPSNTYPE
380
     0
  9
$PSTYLEMODE
290
     1
  9
$FINGERPRINTGUID
  2
{468A9624-4C38-4882-BEBC-C4A470AC1383}
  9
$VERSIONGUID
  2
{45E3E3D7-835C-4D4F-87CC-311639A99986}
  9
$EXTNAMES
290
     1
  9
$PSVPSCALE
 40
0.0
  9
$OLESTARTUP
290
     0
  9
$SORTENTS
280
   127
  9
$INDEXCTL
280
     0
  9
$HIDETEXT
280
     1
  9
$XCLIPFRAME
280
     0
  9
$HALOGAP
280
     0
  9
$OBSCOLOR
 70
   257
  9
$OBSLTYPE
280
     0
  9
$INTERSECTIONDISPLAY
280
     0
  9
$INTERSECTIONCOLOR
 70
   257
  9
$DIMASSOC
280
     2
  9
$PROJECTNAME
  1

  9
$CAMERADISPLAY
290
     0
  9
$LENSLENGTH
 40
50.0
  9
$CAMERAHEIGHT
 40
0.0
  9
$STEPSPERSEC
 40
2.0
  9
$STEPSIZE
 40
6.0
  9
$3DDWFPREC
 40
2.0
  9
$PSOLWIDTH
 40
0.25
  9
$PSOLHEIGHT
 40
4.0
  9
$LOFTANG1
 40
1.570796326794896
  9
$LOFTANG2
 40
1.570796326794896
  9
$LOFTMAG1
 40
0.0
  9
$LOFTMAG2
 40
0.0
  9
$LOFTPARAM
 70
     7
  9
$LOFTNORMALS
280
     1
  9
$LATITUDE
 40
37.795
  9
$LONGITUDE
 40
-122.394
  9
$NORTHDIRECTION
 40
0.0
  9
$TIMEZONE
 70
 -8000
  9
$LIGHTGLYPHDISPLAY
280
     1
  9
$TILEMODELIGHTSYNCH
280
     1
  9
$CMATERIAL
347
2DBA
  9
$SOLIDHIST
280
     0
  9
$SHOWHIST
280
     1
  9
$DWFFRAME
280
     2
  9
$DGNFRAME
280
     0
  9
$REALWORLDSCALE
290
     1
  9
$INTERFERECOLOR
 62
     1
  9
$INTERFEREOBJVS
345
2DDC
  9
$INTERFEREVPVS
346
2DD9
  9
$CSHADOW
280
     0
  9
$SHADOWPLANELOCATION
 40
0.0
  0
ENDSEC
  0
SECTION
  2
CLASSES
  0
CLASS
  1
ACDBDICTIONARYWDFLT
  2
AcDbDictionaryWithDefault
  3
ObjectDBX Classes
 90
        0
 91
        1
280
     0
281
     0
  0
CLASS
  1
DICTIONARYVAR
  2
AcDbDictionaryVar
  3
ObjectDBX Classes
 90
        0
 91
       20
280
     0
281
     0
  0
CLASS
  1
TABLESTYLE
  2
AcDbTableStyle
  3
ObjectDBX Classes
 90
     4095
 91
        1
280
     0
281
     0
  0
CLASS
  1
DIMASSOC
  2
AcDbDimAssoc
  3
"AcDbDimAssoc|Product Desc:     AcDim ARX App For Dimension|Company:          Autodesk, Inc.|WEB Address:      www.autodesk.com"
 90
        0
 91
        4
280
     0
281
     0
  0
CLASS
  1
SORTENTSTABLE
  2
AcDbSortentsTable
  3
ObjectDBX Classes
 90
        0
 91
        1
280
     0
281
     0
  0
CLASS
  1
MATERIAL
  2
AcDbMaterial
  3
ObjectDBX Classes
 90
     1153
 91
        3
280
     0
281
     0
  0
CLASS
  1
VISUALSTYLE
  2
AcDbVisualStyle
  3
ObjectDBX Classes
 90
     4095
 91
       24
280
     0
281
     0
  0
CLASS
  1
SCALE
  2
AcDbScale
  3
ObjectDBX Classes
 90
     1153
 91
       17
280
     0
281
     0
  0
CLASS
  1
MLEADERSTYLE
  2
AcDbMLeaderStyle
  3
ACDB_MLEADERSTYLE_CLASS
 90
     4095
 91
        1
280
     0
281
     0
  0
CLASS
  1
ACDBSECTIONVIEWSTYLE
  2
AcDbSectionViewStyle
  3
ObjectDBX Classes
 90
     1025
 91
        1
280
     0
281
     0
  0
CLASS
  1
ACDBDETAILVIEWSTYLE
  2
AcDbDetailViewStyle
  3
ObjectDBX Classes
 90
     1025
 91
        1
280
     0
281
     0
  0
CLASS
  1
CELLSTYLEMAP
  2
AcDbCellStyleMap
  3
ObjectDBX Classes
 90
     1152
 91
        1
280
     0
281
     0
  0
ENDSEC
  0
SECTION
  2
TABLES
  0
TABLE
  2
VPORT
  5
8
330
0
100
AcDbSymbolTable
 70
     1
1001
ACAD
1000
DbSaveVer
1071
        5
  0
VPORT
  5
2DB8
330
8
100
AcDbSymbolTableRecord
100
AcDbViewportTableRecord
  2
*Active
 70
     0
 10
0.0
 20
0.0
 11
1.0
 21
1.0
 12
1876.099974824742
 22
159.165170976774
 13
0.0
 23
0.0
 14
10.0
 24
10.0
 15
10.0
 25
10.0
 16
0.0
 26
0.0
 36
1.0
 17
0.0
 27
0.0
 37
0.0
 40
243.0793705486659
 41
2.292712066905615
 42
50.0
 43
0.0
 44
0.0
 50
0.0
 51
0.0
 71
     0
 72
 20000
 73
     1
 74
     3
 75
     0
 76
     0
 77
     0
 78
     0
281
     0
 65
     1
110
0.0
120
0.0
130
0.0
111
1.0
121
0.0
131
0.0
112
0.0
122
1.0
132
0.0
 79
     0
146
0.0
348
2DD8
 60
     3
 61
     5
292
     1
282
     1
141
0.0
142
0.0
 63
   250
421
  3355443
1001
ACAD_NAV_VCDISPLAY
1070
     3
  0
ENDTAB
  0
TABLE
  2
LTYPE
  5
5
330
0
100
AcDbSymbolTable
 70
     9
  0
LTYPE
  5
14
330
5
100
AcDbSymbolTableRecord
100
AcDbLinetypeTableRecord
  2
ByBlock
 70
     0
  3

 72
    65
 73
     0
 40
0.0
  0
LTYPE
  5
15
330
5
100
AcDbSymbolTableRecord
100
AcDbLinetypeTableRecord
  2
ByLayer
 70
     0
  3

 72
    65
 73
     0
 40
0.0
  0
LTYPE
  5
16
330
5
100
AcDbSymbolTableRecord
100
AcDbLinetypeTableRecord
  2
Continuous
 70
     0
  3
Solid line
 72
    65
 73
     0
 40
0.0
  0
LTYPE
  5
F1
330
5
100
AcDbSymbolTableRecord
100
AcDbLinetypeTableRecord
  2
HIDDEN
 70
     0
  3
- - - - - - - - - - - - - - - - - - - -
 72
    65
 73
     2
 40
0.2
 49
0.1
 74
     0
 49
-0.1
 74
     0
  0
LTYPE
  5
515
330
5
100
AcDbSymbolTableRecord
100
AcDbLinetypeTableRecord
  2
CENTER
 70
     0
  3
Center ____ _ ____ _ ____ _ ____ _ ____ _ ____
 72
    65
 73
     4
 40
50.8
 49
31.75
 74
     0
 49
-6.349999999999999
 74
     0
 49
6.349999999999999
 74
     0
 49
-6.349999999999999
 74
     0
  0
LTYPE
  5
675
330
5
100
AcDbSymbolTableRecord
100
AcDbLinetypeTableRecord
  2
DASHED
 70
     0
  3
Dashed __ __ __ __ __ __ __ __ __ __ __ __ __ _
 72
    65
 73
     2
 40
19.05
 49
12.7
 74
     0
 49
-6.349999999999999
 74
     0
  0
LTYPE
  5
71B
330
5
100
AcDbSymbolTableRecord
100
AcDbLinetypeTableRecord
  2
DIVIDE
 70
     0
  3
Divide ____ . . ____ . . ____ . . ____ . . ____
 72
    65
 73
     6
 40
31.75
 49
12.7
 74
     0
 49
-6.349999999999999
 74
     0
 49
0.0
 74
     0
 49
-6.349999999999999
 74
     0
 49
0.0
 74
     0
 49
-6.349999999999999
 74
     0
  0
LTYPE
  5
71E
330
5
100
AcDbSymbolTableRecord
100
AcDbLinetypeTableRecord
  2
DIVIDEX2
 70
     0
  3
Divide (2x) ________  .  .  ________  .  .  _
 72
    65
 73
     6
 40
63.49999999999999
 49
25.4
 74
     0
 49
-12.7
 74
     0
 49
0.0
 74
     0
 49
-12.7
 74
     0
 49
0.0
 74
     0
 49
-12.7
 74
     0
  0
LTYPE
  5
2222
330
5
100
AcDbSymbolTableRecord
100
AcDbLinetypeTableRecord
  2
DASHED2
 70
     0
  3
Dashed (.5x) _ _ _ _ _ _ _ _ _ _ _ _ _ _ _ _ _
 72
    65
 73
     2
 40
9.524999999999998
 49
6.349999999999999
 74
     0
 49
-3.174999999999999
 74
     0
  0
LTYPE
  5
25FA
330
5
100
AcDbSymbolTableRecord
100
AcDbLinetypeTableRecord
  2
CENTER2
 70
     0
  3
Center (.5x) ___ _ ___ _ ___ _ ___ _ ___ _ ___
 72
    65
 73
     4
 40
28.575
 49
19.05
 74
     0
 49
-3.174999999999999
 74
     0
 49
3.174999999999999
 74
     0
 49
-3.174999999999999
 74
     0
  0
LTYPE
  5
2ABF
330
5
100
AcDbSymbolTableRecord
100
AcDbLinetypeTableRecord
  2
ACAD_ISO12W100
 70
     0
  3
ISO dash double-dot __ . . __ . . __ . . __ . .
 72
    65
 73
     6
 40
21.0
 49
12.0
 74
     0
 49
-3.0
 74
     0
 49
0.0
 74
     0
 49
-3.0
 74
     0
 49
0.0
 74
     0
 49
-3.0
 74
     0
  0
ENDTAB
  0
TABLE
  2
LAYER
  5
2
102
{ACAD_XDICTIONARY
360
EC4
102
}
330
0
100
AcDbSymbolTable
 70
    11
  0
LAYER
  5
10
102
{ACAD_XDICTIONARY
360
2E0D
102
}
330
2
100
AcDbSymbolTableRecord
100
AcDbLayerTableRecord
  2
0
 70
     0
 62
     7
  6
Continuous
370
    -3
390
F
347
2DCA
348
0
  0
LAYER
  5
F2
102
{ACAD_XDICTIONARY
360
2E0F
102
}
330
2
100
AcDbSymbolTableRecord
100
AcDbLayerTableRecord
  2
1014813_DXF_HIDDEN_LINE
 70
     0
 62
     7
  6
Continuous
370
    -3
390
F
347
2DCA
348
0
  0
LAYER
  5
F3
102
{ACAD_XDICTIONARY
360
2E11
102
}
330
2
100
AcDbSymbolTableRecord
100
AcDbLayerTableRecord
  2
1014813_DXF_CONTINUOUS_LINE
 70
     0
 62
     7
  6
Continuous
370
    -3
390
F
347
2DCA
348
0
  0
LAYER
  5
1FC
330
2
100
AcDbSymbolTableRecord
100
AcDbLayerTableRecord
  2
Defpoints
 70
     0
 62
     7
  6
Continuous
290
     0
370
    -3
390
F
347
2DCA
348
0
  0
LAYER
  5
271
102
{ACAD_XDICTIONARY
360
2E13
102
}
330
2
100
AcDbSymbolTableRecord
100
AcDbLayerTableRecord
  2
1014806_DXF_CONTINUOUS_LINE
 70
     0
 62
     7
  6
Continuous
370
    -3
390
F
347
2DCA
348
0
  0
LAYER
  5
272
102
{ACAD_XDICTIONARY
360
2E15
102
}
330
2
100
AcDbSymbolTableRecord
100
AcDbLayerTableRecord
  2
图层1
 70
     0
 62
     7
  6
Continuous
370
    -3
390
F
347
2DCA
348
0
1001
AcAecLayerStandard
1000

1000

1001
AcadStringInfo
1000
MIFCodePage
1070
     5
  0
LAYER
  5
273
102
{ACAD_XDICTIONARY
360
2E17
102
}
330
2
100
AcDbSymbolTableRecord
100
AcDbLayerTableRecord
  2
图层4
 70
     0
 62
     7
  6
Continuous
370
    15
390
F
347
2DCA
348
0
1001
AcadStringInfo
1000
MIFCodePage
1070
     5
  0
LAYER
  5
2223
102
{ACAD_XDICTIONARY
360
2E19
102
}
330
2
100
AcDbSymbolTableRecord
100
AcDbLayerTableRecord
  2
图层2
 70
     0
 62
     3
  6
DASHED2
370
    15
390
F
347
2DCA
348
0
1001
AcadStringInfo
1000
MIFCodePage
1070
     5
  0
LAYER
  5
2224
102
{ACAD_XDICTIONARY
360
2E1B
102
}
330
2
100
AcDbSymbolTableRecord
100
AcDbLayerTableRecord
  2
图层3
 70
     0
 62
     5
  6
Continuous
370
    15
390
F
347
2DCA
348
0
1001
AcadStringInfo
1000
MIFCodePage
1070
     5
  0
LAYER
  5
2225
102
{ACAD_XDICTIONARY
360
2E1D
102
}
330
2
100
AcDbSymbolTableRecord
100
AcDbLayerTableRecord
  2
图层7
 70
     0
 62
     7
  6
Continuous
370
    15
390
F
347
2DCA
348
0
1001
AcadStringInfo
1000
MIFCodePage
1070
     5
  0
LAYER
  5
2AC0
102
{ACAD_XDICTIONARY
360
2E1F
102
}
330
2
100
AcDbSymbolTableRecord
100
AcDbLayerTableRecord
  2
xixian
 70
     0
 62
     7
  6
Continuous
370
    -3
390
F
347
2DCA
348
0
1001
AcAecLayerStandard
1000

1000

  0
ENDTAB
  0
TABLE
  2
STYLE
  5
3
330
0
100
AcDbSymbolTable
 70
     6
  0
STYLE
  5
11
330
3
100
AcDbSymbolTableRecord
100
AcDbTextStyleTableRecord
  2
Standard
 70
     0
 40
0.0
 41
1.0
 50
0.0
 71
     0
 42
2.5
  3
ARIAL.TTF
  4

1001
ACAD
1000
Arial
1071
       34
  0
STYLE
  5
274
330
3
100
AcDbSymbolTableRecord
100
AcDbTextStyleTableRecord
  2
样式 1
 70
     0
 40
2.5
 41
1.0
 50
0.0
 71
     0
 42
2.5
  3
SimSun.ttf
  4

1001
ACAD
1000
SimSun
1071
    34306
1001
AcadStringInfo
1000
MIFCodePage
1070
     5
  0
STYLE
  5
514
330
3
100
AcDbSymbolTableRecord
100
AcDbTextStyleTableRecord
  2

 70
     1
 40
0.0
 41
1.0
 50
0.0
 71
     0
 42
2.5
  3
ltypeshp.shx
  4

  0
STYLE
  5
763
330
3
100
AcDbSymbolTableRecord
100
AcDbTextStyleTableRecord
  2
GN3
 70
     0
 40
0.156
 41
1.0
 50
0.0
 71
     0
 42
0.2
  3
ROMANK
  4

  0
STYLE
  5
764
330
3
100
AcDbSymbolTableRecord
100
AcDbTextStyleTableRecord
  2
GN4
 70
     0
 40
0.188
 41
1.0
 50
0.0
 71
     0
 42
0.2
  3
ROMAND
  4

  0
STYLE
  5
2226
330
3
100
AcDbSymbolTableRecord
100
AcDbTextStyleTableRecord
  2
样式 2
 70
     0
 40
3.2
 41
1.0
 50
0.0
 71
     0
 42
3.2
  3
SimSun.ttf
  4

1001
ACAD
1000
SimSun
1071
    34306
1001
AcadStringInfo
1000
MIFCodePage
1070
     5
  0
ENDTAB
  0
TABLE
  2
VIEW
  5
6
330
0
100
AcDbSymbolTable
 70
     0
  0
ENDTAB
  0
TABLE
  2
UCS
  5
7
330
0
100
AcDbSymbolTable
 70
     0
  0
ENDTAB
  0
TABLE
  2
APPID
  5
9
330
0
100
AcDbSymbolTable
 70
     9
  0
APPID
  5
12
330
9
100
AcDbSymbolTableRecord
100
AcDbRegAppTableRecord
  2
ACAD
 70
     0
  0
APPID
  5
9E
330
9
100
AcDbSymbolTableRecord
100
AcDbRegAppTableRecord
  2
ACAD_PSEXT
 70
     0
  0
APPID
  5
F5
330
9
100
AcDbSymbolTableRecord
100
AcDbRegAppTableRecord
  2
DCO15
 70
     0
  0
APPID
  5
275
330
9
100
AcDbSymbolTableRecord
100
AcDbRegAppTableRecord
  2
AcAecLayerStandard
 70
     0
  0
APPID
  5
580
330
9
100
AcDbSymbolTableRecord
100
AcDbRegAppTableRecord
  2
ACAD_DSTYLE_DIMTEXT_FILL
 70
     0
  0
APPID
  5
765
330
9
100
AcDbSymbolTableRecord
100
AcDbRegAppTableRecord
  2
PSP
 70
     0
  0
APPID
  5
2455
330
9
100
AcDbSymbolTableRecord
100
AcDbRegAppTableRecord
  2
ACAD_EXEMPT_FROM_CAD_STANDARDS
 70
     0
  0
APPID
  5
2E00
330
9
100
AcDbSymbolTableRecord
100
AcDbRegAppTableRecord
  2
AcadStringInfo
 70
     0
  0
APPID
  5
2E21
330
9
100
AcDbSymbolTableRecord
100
AcDbRegAppTableRecord
  2
ACAD_NAV_VCDISPLAY
 70
     0
  0
ENDTAB
  0
TABLE
  2
DIMSTYLE
  5
A
330
0
100
AcDbSymbolTable
 70
     1
100
AcDbDimStyleTable
 71
     1
340
27
  0
DIMSTYLE
105
27
102
{ACAD_REACTORS
330
287C
330
287D
330
287E
330
294C
330
296D
330
2985
330
29A6
102
}
330
A
100
AcDbSymbolTableRecord
100
AcDbDimStyleTableRecord
  2
ISO-25
 70
     0
 40
2.5
 41
2.5
 42
0.625
 43
3.75
 44
1.25
 73
     0
 74
     0
 77
     1
 78
     8
140
2.5
141
2.5
143
0.03937007874016
147
0.625
171
     3
172
     1
271
     2
272
     2
274
     3
283
     0
284
     8
340
11
  0
ENDTAB
  0
TABLE
  2
BLOCK_RECORD
  5
1
330
0
100
AcDbSymbolTable
 70
    19
  0
BLOCK_RECORD
  5
1F
102
{ACAD_XDICTIONARY
360
22F
102
}
330
1
100
AcDbSymbolTableRecord
100
AcDbBlockTableRecord
  2
*Model_Space
340
22
 70
     0
280
     1
281
     0
  0
BLOCK_RECORD
  5
D2
330
1
100
AcDbSymbolTableRecord
100
AcDbBlockTableRecord
  2
*Paper_Space
340
D3
 70
     0
280
     1
281
     0
  0
BLOCK_RECORD
  5
D6
330
1
100
AcDbSymbolTableRecord
100
AcDbBlockTableRecord
  2
*Paper_Space0
340
D7
 70
     0
280
     1
281
     0
  0
BLOCK_RECORD
  5
2881
330
1
100
AcDbSymbolTableRecord
100
AcDbBlockTableRecord
  2
*D7
340
0
 70
     0
280
     1
281
     0
  0
BLOCK_RECORD
  5
288D
330
1
100
AcDbSymbolTableRecord
100
AcDbBlockTableRecord
  2
*D8
340
0
 70
     0
280
     1
281
     0
  0
BLOCK_RECORD
  5
2899
330
1
100
AcDbSymbolTableRecord
100
AcDbBlockTableRecord
  2
*D9
340
0
 70
     0
280
     1
281
     0
  0
BLOCK_RECORD
  5
294D
330
1
100
AcDbSymbolTableRecord
100
AcDbBlockTableRecord
  2
*D10
340
0
 70
     0
280
     1
281
     0
  0
BLOCK_RECORD
  5
296E
330
1
100
AcDbSymbolTableRecord
100
AcDbBlockTableRecord
  2
*D11
340
0
 70
     0
280
     1
281
     0
  0
BLOCK_RECORD
  5
2986
330
1
100
AcDbSymbolTableRecord
100
AcDbBlockTableRecord
  2
*D12
340
0
 70
     0
280
     1
281
     0
  0
BLOCK_RECORD
  5
29A7
330
1
100
AcDbSymbolTableRecord
100
AcDbBlockTableRecord
  2
*D13
340
0
 70
     0
280
     1
281
     0
  0
ENDTAB
  0
ENDSEC
  0
SECTION
  2
BLOCKS
  0
BLOCK
  5
20
330
1F
100
AcDbEntity
  8
0
100
AcDbBlockBegin
  2
*Model_Space
 70
     0
 10
0.0
 20
0.0
 30
0.0
  3
*Model_Space
  1

  0
ENDBLK
  5
21
330
1F
100
AcDbEntity
  8
0
100
AcDbBlockEnd
  0
BLOCK
  5
D4
330
D2
100
AcDbEntity
 67
     1
  8
0
100
AcDbBlockBegin
  2
*Paper_Space
 70
     0
 10
0.0
 20
0.0
 30
0.0
  3
*Paper_Space
  1

  0
ENDBLK
  5
D5
330
D2
100
AcDbEntity
 67
     1
  8
0
100
AcDbBlockEnd
  0
BLOCK
  5
D8
330
D6
100
AcDbEntity
 67
     1
  8
0
100
AcDbBlockBegin
  2
*Paper_Space0
 70
     0
 10
0.0
 20
0.0
 30
0.0
  3
*Paper_Space0
  1

  0
ENDBLK
  5
D9
330
D6
100
AcDbEntity
 67
     1
  8
0
100
AcDbBlockEnd
  0
BLOCK
  5
288B
330
2881
100
AcDbEntity
  8
0
100
AcDbBlockBegin
  2
*D7
 70
     1
 10
0.0
 20
0.0
 30
0.0
  3
*D7
  1

  0
LINE
  5
2942
330
2881
100
AcDbEntity
  8
图层7
 62
     0
440
 16777216
370
    -2
100
AcDbLine
 10
1682.733699987738
 20
229.2525738332288
 30
0.0
 11
1682.733699987738
 21
252.0032204294093
 31
0.0
  0
LINE
  5
2943
330
2881
100
AcDbEntity
  8
图层7
 62
     0
440
 16777216
370
    -2
100
AcDbLine
 10
1966.278678194877
 20
229.2525738332288
 30
0.0
 11
1966.278678194877
 21
252.0032204294093
 31
0.0
  0
LINE
  5
2944
330
2881
100
AcDbEntity
  8
图层7
 62
     0
440
 16777216
370
    -2
100
AcDbLine
 10
1688.983699987738
 20
248.8782204294093
 30
0.0
 11
1960.028678194877
 21
248.8782204294093
 31
0.0
  0
SOLID
  5
2945
330
2881
100
AcDbEntity
  8
图层7
 62
     0
440
 16777216
100
AcDbTrace
 10
1688.983699987738
 20
249.919887096076
 30
0.0
 11
1688.983699987738
 21
247.8365537627427
 31
0.0
 12
1682.733699987738
 22
248.8782204294093
 32
0.0
 13
1682.733699987738
 23
248.8782204294093
 33
0.0
  0
SOLID
  5
2946
330
2881
100
AcDbEntity
  8
图层7
 62
     0
440
 16777216
100
AcDbTrace
 10
1960.028678194877
 20
249.919887096076
 30
0.0
 11
1960.028678194877
 21
247.8365537627427
 31
0.0
 12
1966.278678194877
 22
248.8782204294093
 32
0.0
 13
1966.278678194877
 23
248.8782204294093
 33
0.0
  0
MTEXT
  5
2947
330
2881
100
AcDbEntity
  8
图层7
 62
     0
440
 16777216
100
AcDbMText
 10
1824.506189091308
 20
253.6318016026699
 30
0.0
 40
6.25
 41
0.0
 46
0.0
 71
     5
 72
     1
  1
655
 73
     1
 44
1.0
  0
POINT
  5
2948
330
2881
100
AcDbEntity
  8
Defpoints
 62
     0
440
 16777216
100
AcDbPoint
 10
1682.733699987738
 20
227.6900738332288
 30
0.0
  0
POINT
  5
2949
330
2881
100
AcDbEntity
  8
Defpoints
 62
     0
440
 16777216
100
AcDbPoint
 10
1966.278678194877
 20
227.6900738332288
 30
0.0
  0
POINT
  5
294A
330
2881
100
AcDbEntity
  8
Defpoints
 62
     0
440
 16777216
100
AcDbPoint
 10
1966.278678194877
 20
248.8782204294093
 30
0.0
  0
ENDBLK
  5
288C
330
2881
100
AcDbEntity
  8
0
100
AcDbBlockEnd
  0
BLOCK
  5
2897
330
288D
100
AcDbEntity
  8
0
100
AcDbBlockBegin
  2
*D8
 70
     1
 10
0.0
 20
0.0
 30
0.0
  3
*D8
  1

  0
LINE
  5
2939
330
288D
100
AcDbEntity
  8
图层7
 62
     0
440
 16777216
370
    -2
100
AcDbLine
 10
1662.733699987738
 20
220.2525738332288
 30
0.0
 11
1662.733699987738
 21
262.6263687906153
 31
0.0
  0
LINE
  5
293A
330
288D
100
AcDbEntity
  8
图层7
 62
     0
440
 16777216
370
    -2
100
AcDbLine
 10
1986.278678194878
 20
220.2525738332279
 30
0.0
 11
1986.278678194878
 21
262.6263687906153
 31
0.0
  0
LINE
  5
293B
330
288D
100
AcDbEntity
  8
图层7
 62
     0
440
 16777216
370
    -2
100
AcDbLine
 10
1668.983699987738
 20
259.5013687906153
 30
0.0
 11
1980.028678194878
 21
259.5013687906153
 31
0.0
  0
SOLID
  5
293C
330
288D
100
AcDbEntity
  8
图层7
 62
     0
440
 16777216
100
AcDbTrace
 10
1668.983699987738
 20
260.543035457282
 30
0.0
 11
1668.983699987738
 21
258.4597021239486
 31
0.0
 12
1662.733699987738
 22
259.5013687906153
 32
0.0
 13
1662.733699987738
 23
259.5013687906153
 33
0.0
  0
SOLID
  5
293D
330
288D
100
AcDbEntity
  8
图层7
 62
     0
440
 16777216
100
AcDbTrace
 10
1980.028678194878
 20
260.543035457282
 30
0.0
 11
1980.028678194878
 21
258.4597021239486
 31
0.0
 12
1986.278678194878
 22
259.5013687906153
 32
0.0
 13
1986.278678194878
 23
259.5013687906153
 33
0.0
  0
MTEXT
  5
293E
330
288D
100
AcDbEntity
  8
图层7
 62
     0
440
 16777216
100
AcDbMText
 10
1824.506189091308
 20
264.2549499638759
 30
0.0
 40
6.25
 41
0.0
 46
0.0
 71
     5
 72
     1
  1
695
 73
     1
 44
1.0
  0
POINT
  5
293F
330
288D
100
AcDbEntity
  8
Defpoints
 62
     0
440
 16777216
100
AcDbPoint
 10
1662.733699987738
 20
218.6900738332288
 30
0.0
  0
POINT
  5
2940
330
288D
100
AcDbEntity
  8
Defpoints
 62
     0
440
 16777216
100
AcDbPoint
 10
1986.278678194878
 20
218.6900738332279
 30
0.0
  0
POINT
  5
2941
330
288D
100
AcDbEntity
  8
Defpoints
 62
     0
440
 16777216
100
AcDbPoint
 10
1986.278678194878
 20
259.5013687906153
 30
0.0
  0
ENDBLK
  5
2898
330
288D
100
AcDbEntity
  8
0
100
AcDbBlockEnd
  0
BLOCK
  5
28A3
330
2899
100
AcDbEntity
  8
0
100
AcDbBlockBegin
  2
*D9
 70
     1
 10
0.0
 20
0.0
 30
0.0
  3
*D9
  1

  0
LINE
  5
2930
330
2899
100
AcDbEntity
  8
图层7
 62
     0
440
 16777216
370
    -2
100
AcDbLine
 10
1661.233699987738
 20
220.2525738332287
 30
0.0
 11
1661.233699987738
 21
273.3800071368416
 31
0.0
  0
LINE
  5
2931
330
2899
100
AcDbEntity
  8
图层7
 62
     0
440
 16777216
370
    -2
100
AcDbLine
 10
1987.778678194878
 20
220.2525738332287
 30
0.0
 11
1987.778678194878
 21
273.3800071368416
 31
0.0
  0
LINE
  5
2932
330
2899
100
AcDbEntity
  8
图层7
 62
     0
440
 16777216
370
    -2
100
AcDbLine
 10
1667.483699987738
 20
270.2550071368416
 30
0.0
 11
1981.528678194878
 21
270.2550071368416
 31
0.0
  0
SOLID
  5
2933
330
2899
100
AcDbEntity
  8
图层7
 62
     0
440
 16777216
100
AcDbTrace
 10
1667.483699987738
 20
271.2966738035083
 30
0.0
 11
1667.483699987738
 21
269.2133404701749
 31
0.0
 12
1661.233699987738
 22
270.2550071368416
 32
0.0
 13
1661.233699987738
 23
270.2550071368416
 33
0.0
  0
SOLID
  5
2934
330
2899
100
AcDbEntity
  8
图层7
 62
     0
440
 16777216
100
AcDbTrace
 10
1981.528678194878
 20
271.2966738035083
 30
0.0
 11
1981.528678194878
 21
269.2133404701749
 31
0.0
 12
1987.778678194878
 22
270.2550071368416
 32
0.0
 13
1987.778678194878
 23
270.2550071368416
 33
0.0
  0
MTEXT
  5
2935
330
2899
100
AcDbEntity
  8
图层7
 62
     0
440
 16777216
100
AcDbMText
 10
1824.506189091308
 20
275.0085883101022
 30
0.0
 40
6.25
 41
0.0
 46
0.0
 71
     5
 72
     1
  1
698
 73
     1
 44
1.0
  0
POINT
  5
2936
330
2899
100
AcDbEntity
  8
Defpoints
 62
     0
440
 16777216
100
AcDbPoint
 10
1661.233699987738
 20
218.6900738332287
 30
0.0
  0
POINT
  5
2937
330
2899
100
AcDbEntity
  8
Defpoints
 62
     0
440
 16777216
100
AcDbPoint
 10
1987.778678194878
 20
218.6900738332287
 30
0.0
  0
POINT
  5
2938
330
2899
100
AcDbEntity
  8
Defpoints
 62
     0
440
 16777216
100
AcDbPoint
 10
1987.778678194878
 20
270.2550071368416
 30
0.0
  0
ENDBLK
  5
28A4
330
2899
100
AcDbEntity
  8
0
100
AcDbBlockEnd
  0
BLOCK
  5
2957
330
294D
100
AcDbEntity
  8
0
100
AcDbBlockBegin
  2
*D10
 70
     1
 10
0.0
 20
0.0
 30
0.0
  3
*D10
  1

  0
LINE
  5
2964
330
294D
100
AcDbEntity
  8
图层4
 62
     0
440
 16777216
370
    -2
100
AcDbLine
 10
2057.530894490422
 20
164.0738099774154
 30
0.0
 11
2074.308778892014
 21
164.0738099774154
 31
0.0
  0
LINE
  5
2965
330
294D
100
AcDbEntity
  8
图层4
 62
     0
440
 16777216
370
    -2
100
AcDbLine
 10
2037.530894490422
 20
40.77380997741532
 30
0.0
 11
2074.308778892014
 21
40.77380997741531
 31
0.0
  0
LINE
  5
2966
330
294D
100
AcDbEntity
  8
图层4
 62
     0
440
 16777216
370
    -2
100
AcDbLine
 10
2071.183778892014
 20
157.8238099774154
 30
0.0
 11
2071.183778892014
 21
47.02380997741531
 31
0.0
  0
SOLID
  5
2967
330
294D
100
AcDbEntity
  8
图层4
 62
     0
440
 16777216
100
AcDbTrace
 10
2070.142112225347
 20
157.8238099774154
 30
0.0
 11
2072.225445558681
 21
157.8238099774154
 31
0.0
 12
2071.183778892014
 22
164.0738099774154
 32
0.0
 13
2071.183778892014
 23
164.0738099774154
 33
0.0
  0
SOLID
  5
2968
330
294D
100
AcDbEntity
  8
图层4
 62
     0
440
 16777216
100
AcDbTrace
 10
2070.142112225347
 20
47.02380997741531
 30
0.0
 11
2072.225445558681
 21
47.02380997741531
 31
0.0
 12
2071.183778892014
 22
40.77380997741531
 32
0.0
 13
2071.183778892014
 23
40.77380997741531
 33
0.0
  0
MTEXT
  5
2969
330
294D
100
AcDbEntity
  8
图层4
 62
     0
440
 16777216
100
AcDbMText
 10
2066.428066068003
 20
102.4238099774156
 30
0.0
 40
6.25
 41
0.0
 46
0.0
 71
     5
 72
     1
  1
123.3
 11
0.0000000000000001
 21
1.0
 31
0.0
 73
     1
 44
1.0
  0
POINT
  5
296A
330
294D
100
AcDbEntity
  8
Defpoints
 62
     0
440
 16777216
100
AcDbPoint
 10
2055.968394490422
 20
164.0738099774154
 30
0.0
  0
POINT
  5
296B
330
294D
100
AcDbEntity
  8
Defpoints
 62
     0
440
 16777216
100
AcDbPoint
 10
2035.968394490422
 20
40.77380997741532
 30
0.0
  0
POINT
  5
296C
330
294D
100
AcDbEntity
  8
Defpoints
 62
     0
440
 16777216
100
AcDbPoint
 10
2071.183778892014
 20
40.77380997741531
 30
0.0
  0
ENDBLK
  5
2958
330
294D
100
AcDbEntity
  8
0
100
AcDbBlockEnd
  0
BLOCK
  5
2978
330
296E
100
AcDbEntity
  8
0
100
AcDbBlockBegin
  2
*D11
 70
     1
 10
0.0
 20
0.0
 30
0.0
  3
*D11
  1

  0
LINE
  5
297B
330
296E
100
AcDbEntity
  8
图层4
 62
     0
440
 16777216
370
    -2
100
AcDbLine
 10
2057.530894490422
 20
164.0738099774154
 30
0.0
 11
2062.689044222234
 21
164.0738099774154
 31
0.0
  0
LINE
  5
297C
330
296E
100
AcDbEntity
  8
图层4
 62
     0
440
 16777216
370
    -2
100
AcDbLine
 10
2037.530894490422
 20
113.0738099774152
 30
0.0
 11
2062.689044222234
 21
113.0738099774152
 31
0.0
  0
LINE
  5
297D
330
296E
100
AcDbEntity
  8
图层4
 62
     0
440
 16777216
370
    -2
100
AcDbLine
 10
2059.564044222234
 20
157.8238099774154
 30
0.0
 11
2059.564044222234
 21
119.3238099774152
 31
0.0
  0
SOLID
  5
297E
330
296E
100
AcDbEntity
  8
图层4
 62
     0
440
 16777216
100
AcDbTrace
 10
2058.522377555567
 20
157.8238099774154
 30
0.0
 11
2060.6057108889
 21
157.8238099774154
 31
0.0
 12
2059.564044222234
 22
164.0738099774154
 32
0.0
 13
2059.564044222234
 23
164.0738099774154
 33
0.0
  0
SOLID
  5
297F
330
296E
100
AcDbEntity
  8
图层4
 62
     0
440
 16777216
100
AcDbTrace
 10
2058.522377555567
 20
119.3238099774152
 30
0.0
 11
2060.6057108889
 21
119.3238099774152
 31
0.0
 12
2059.564044222234
 22
113.0738099774152
 32
0.0
 13
2059.564044222234
 23
113.0738099774152
 33
0.0
  0
MTEXT
  5
2980
330
296E
100
AcDbEntity
  8
图层4
 62
     0
440
 16777216
100
AcDbMText
 10
2054.810463048974
 20
138.5738099774156
 30
0.0
 40
6.25
 41
0.0
 46
0.0
 71
     5
 72
     1
  1
51
 11
0.0000000000000001
 21
1.0
 31
0.0
 73
     1
 44
1.0
  0
POINT
  5
2981
330
296E
100
AcDbEntity
  8
Defpoints
 62
     0
440
 16777216
100
AcDbPoint
 10
2055.968394490422
 20
164.0738099774154
 30
0.0
  0
POINT
  5
2982
330
296E
100
AcDbEntity
  8
Defpoints
 62
     0
440
 16777216
100
AcDbPoint
 10
2035.968394490422
 20
113.0738099774152
 30
0.0
  0
POINT
  5
2983
330
296E
100
AcDbEntity
  8
Defpoints
 62
     0
440
 16777216
100
AcDbPoint
 10
2059.564044222234
 20
113.0738099774152
 30
0.0
  0
ENDBLK
  5
2979
330
296E
100
AcDbEntity
  8
0
100
AcDbBlockEnd
  0
BLOCK
  5
2990
330
2986
100
AcDbEntity
  8
0
100
AcDbBlockBegin
  2
*D12
 70
     1
 10
0.0
 20
0.0
 30
0.0
  3
*D12
  1

  0
LINE
  5
299D
330
2986
100
AcDbEntity
  8
图层4
 62
     0
440
 16777216
370
    -2
100
AcDbLine
 10
1875.737257129061
 20
40.77380997741535
 30
0.0
 11
1874.174757129061
 21
40.77380997741535
 31
0.0
  0
LINE
  5
299E
330
2986
100
AcDbEntity
  8
图层4
 62
     0
440
 16777216
370
    -2
100
AcDbLine
 10
1875.737257129061
 20
62.77380997741546
 30
0.0
 11
1874.174757129061
 21
62.77380997741546
 31
0.0
  0
LINE
  5
299F
330
2986
100
AcDbEntity
  8
图层4
 62
     0
440
 16777216
370
    -2
100
AcDbLine
 10
1877.299757129061
 20
47.02380997741535
 30
0.0
 11
1877.299757129061
 21
56.52380997741546
 31
0.0
  0
SOLID
  5
29A0
330
2986
100
AcDbEntity
  8
图层4
 62
     0
440
 16777216
100
AcDbTrace
 10
1876.258090462394
 20
47.02380997741535
 30
0.0
 11
1878.341423795728
 21
47.02380997741535
 31
0.0
 12
1877.299757129061
 22
40.77380997741535
 32
0.0
 13
1877.299757129061
 23
40.77380997741535
 33
0.0
  0
SOLID
  5
29A1
330
2986
100
AcDbEntity
  8
图层4
 62
     0
440
 16777216
100
AcDbTrace
 10
1876.258090462394
 20
56.52380997741546
 30
0.0
 11
1878.341423795728
 21
56.52380997741546
 31
0.0
 12
1877.299757129061
 22
62.77380997741546
 32
0.0
 13
1877.299757129061
 23
62.77380997741546
 33
0.0
  0
MTEXT
  5
29A2
330
2986
100
AcDbEntity
  8
图层4
 62
     0
440
 16777216
100
AcDbMText
 10
1872.371380594272
 20
51.77380997741571
 30
0.0
 40
6.25
 41
0.0
 46
0.0
 71
     5
 72
     1
  1
%%C22
 11
0.0000000000000001
 21
1.0
 31
0.0
 73
     1
 44
1.0
  0
POINT
  5
29A3
330
2986
100
AcDbEntity
  8
Defpoints
 62
     0
440
 16777216
100
AcDbPoint
 10
1877.299757129061
 20
40.77380997741535
 30
0.0
  0
POINT
  5
29A4
330
2986
100
AcDbEntity
  8
Defpoints
 62
     0
440
 16777216
100
AcDbPoint
 10
1877.299757129061
 20
62.77380997741546
 30
0.0
  0
POINT
  5
29A5
330
2986
100
AcDbEntity
  8
Defpoints
 62
     0
440
 16777216
100
AcDbPoint
 10
1877.299757129061
 20
62.77380997741546
 30
0.0
  0
ENDBLK
  5
2991
330
2986
100
AcDbEntity
  8
0
100
AcDbBlockEnd
  0
BLOCK
  5
29B3
330
29A7
100
AcDbEntity
  8
0
100
AcDbBlockBegin
  2
*D13
 70
     1
 10
0.0
 20
0.0
 30
0.0
  3
*D13
  1

  0
LINE
  5
29C2
330
29A7
100
AcDbEntity
  8
图层4
 62
     0
440
 16777216
370
    -2
100
AcDbLine
 10
1878.265007104296
 20
107.0738099774153
 30
0.0
 11
1876.702507104296
 21
107.0738099774153
 31
0.0
  0
LINE
  5
29C3
330
29A7
100
AcDbEntity
  8
图层4
 62
     0
440
 16777216
370
    -2
100
AcDbLine
 10
1878.265007104296
 20
119.0738099774153
 30
0.0
 11
1876.702507104296
 21
119.0738099774153
 31
0.0
  0
LINE
  5
29C4
330
29A7
100
AcDbEntity
  8
图层4
 62
     0
440
 16777216
370
    -2
100
AcDbLine
 10
1879.827507104296
 20
100.8238099774153
 30
0.0
 11
1879.827507104296
 21
94.57380997741536
 31
0.0
  0
LINE
  5
29C5
330
29A7
100
AcDbEntity
  8
图层4
 62
     0
440
 16777216
370
    -2
100
AcDbLine
 10
1879.827507104296
 20
125.3238099774153
 30
0.0
 11
1879.827507104296
 21
150.3877594999255
 31
0.0
  0
LINE
  5
29C6
330
29A7
100
AcDbEntity
  8
图层4
 62
     0
440
 16777216
370
    -2
100
AcDbLine
 10
1879.827507104296
 20
107.0738099774153
 30
0.0
 11
1879.827507104296
 21
119.0738099774153
 31
0.0
  0
SOLID
  5
29C7
330
29A7
100
AcDbEntity
  8
图层4
 62
     0
440
 16777216
100
AcDbTrace
 10
1878.785840437629
 20
100.8238099774153
 30
0.0
 11
1880.869173770963
 21
100.8238099774153
 31
0.0
 12
1879.827507104296
 22
107.0738099774153
 32
0.0
 13
1879.827507104296
 23
107.0738099774153
 33
0.0
  0
SOLID
  5
29C8
330
29A7
100
AcDbEntity
  8
图层4
 62
     0
440
 16777216
100
AcDbTrace
 10
1878.785840437629
 20
125.3238099774153
 30
0.0
 11
1880.869173770963
 21
125.3238099774153
 31
0.0
 12
1879.827507104296
 22
119.0738099774153
 32
0.0
 13
1879.827507104296
 23
119.0738099774153
 33
0.0
  0
MTEXT
  5
29C9
330
29A7
100
AcDbEntity
  8
图层4
 62
     0
440
 16777216
100
AcDbMText
 10
1874.899130569508
 20
140.9807847386707
 30
0.0
 40
6.25
 41
0.0
 46
0.0
 71
     5
 72
     1
  1
%%C12
 11
0.0000000000000001
 21
1.0
 31
0.0
 73
     1
 44
1.0
  0
POINT
  5
29CA
330
29A7
100
AcDbEntity
  8
Defpoints
 62
     0
440
 16777216
100
AcDbPoint
 10
1879.827507104296
 20
107.0738099774153
 30
0.0
  0
POINT
  5
29CB
330
29A7
100
AcDbEntity
  8
Defpoints
 62
     0
440
 16777216
100
AcDbPoint
 10
1879.827507104296
 20
119.0738099774153
 30
0.0
  0
POINT
  5
29CC
330
29A7
100
AcDbEntity
  8
Defpoints
 62
     0
440
 16777216
100
AcDbPoint
 10
1879.827507104296
 20
119.0738099774153
 30
0.0
  0
ENDBLK
  5
29B4
330
29A7
100
AcDbEntity
  8
0
100
AcDbBlockEnd
  0
ENDSEC
  0
SECTION
  2
ENTITIES
  0
MTEXT
  5
380
330
1F
100
AcDbEntity
  8
0
100
AcDbMText
 10
674.4589651782393
 20
394.9187085861921
 30
0.0
 40
2.5
 41
6.139376301850282
 46
0.0
 71
     9
 72
     1
  1

 73
     1
 44
1.0
  0
LINE
  5
2742
330
1F
100
AcDbEntity
  8
1014813_DXF_CONTINUOUS_LINE
  6
Continuous
 62
     0
370
    40
100
AcDbLine
 10
1661.233699987738
 20
196.6900738332288
 30
0.0
 11
1818.343009746298
 21
196.6900738332288
 31
0.0
  0
LINE
  5
2743
330
1F
100
AcDbEntity
  8
1014813_DXF_CONTINUOUS_LINE
  6
Continuous
 62
     0
370
    40
100
AcDbLine
 10
1827.738373833448
 20
196.6900738332288
 30
0.0
 11
1987.778678194878
 21
196.6900738332287
 31
0.0
  0
LINE
  5
2744
330
1F
100
AcDbEntity
  8
1014813_DXF_CONTINUOUS_LINE
  6
Continuous
 62
     0
370
    40
100
AcDbLine
 10
1661.233699987738
 20
218.6900738332288
 30
0.0
 11
1820.817791084193
 21
218.6900738332288
 31
0.0
  0
LINE
  5
2745
330
1F
100
AcDbEntity
  8
1014813_DXF_CONTINUOUS_LINE
  6
Continuous
 62
     0
370
    40
100
AcDbLine
 10
1830.213155171342
 20
218.6900738332287
 30
0.0
 11
1987.778678194878
 21
218.6900738332287
 31
0.0
  0
ARC
  5
2746
330
1F
100
AcDbEntity
  8
1014813_DXF_CONTINUOUS_LINE
  6
Continuous
 62
     0
370
    40
100
AcDbCircle
 10
1682.733699987738
 20
207.6900738332288
 30
0.0
 40
20.0
100
AcDbArc
 50
213.3670129692321
 51
326.6329870307679
  0
ARC
  5
2747
330
1F
100
AcDbEntity
  8
1014813_DXF_CONTINUOUS_LINE
  6
Continuous
 62
     0
370
    40
100
AcDbCircle
 10
1682.733699987738
 20
207.6900738332288
 30
0.0
 40
20.0
100
AcDbArc
 50
33.36701296923208
 51
146.6329870307679
  0
ARC
  5
2748
330
1F
100
AcDbEntity
  8
1014813_DXF_CONTINUOUS_LINE
  6
Continuous
 62
     0
370
    40
100
AcDbCircle
 10
1666.333699987738
 20
162.5738099774153
 30
0.0
 40
2.5
100
AcDbArc
 50
180.0
 51
270.0
  0
LINE
  5
2749
330
1F
100
AcDbEntity
  8
1014813_DXF_CONTINUOUS_LINE
  6
Continuous
 62
     0
370
    40
100
AcDbLine
 10
1682.733699987738
 20
160.0738099774153
 30
0.0
 11
1699.133699987738
 21
160.0738099774153
 31
0.0
  0
LINE
  5
274A
330
1F
100
AcDbEntity
  8
1014813_DXF_CONTINUOUS_LINE
  6
Continuous
 62
     0
370
    40
100
AcDbLine
 10
1701.633699987738
 20
164.0738099774153
 30
0.0
 11
1663.833699987738
 21
164.0738099774153
 31
0.0
  0
LINE
  5
274B
330
1F
100
AcDbEntity
  8
图层2
100
AcDbLine
 10
1698.833699987738
 20
162.0738099774153
 30
0.0
 11
1690.633699987738
 21
162.0738099774153
 31
0.0
  0
ARC
  5
274C
330
1F
100
AcDbEntity
  8
1014813_DXF_CONTINUOUS_LINE
  6
Continuous
 62
     0
370
    40
100
AcDbCircle
 10
1699.133699987738
 20
162.5738099774153
 30
0.0
 40
2.5
100
AcDbArc
 50
270.0
 51
0.0
  0
LINE
  5
274D
330
1F
100
AcDbEntity
  8
1014813_DXF_CONTINUOUS_LINE
  6
Continuous
 62
     0
370
    40
100
AcDbLine
 10
1701.633699987738
 20
162.5738099774153
 30
0.0
 11
1701.633699987738
 21
164.0738099774153
 31
0.0
  0
LINE
  5
274E
330
1F
100
AcDbEntity
  8
图层2
100
AcDbLine
 10
1696.833699987738
 20
164.0738099774153
 30
0.0
 11
1696.833699987738
 21
162.0738099774153
 31
0.0
  0
LINE
  5
274F
330
1F
100
AcDbEntity
  8
图层2
100
AcDbLine
 10
1698.833699987738
 20
162.0738099774153
 30
0.0
 11
1698.833699987738
 21
160.0738099774153
 31
0.0
  0
HATCH
  5
2750
330
1F
100
AcDbEntity
  8
图层7
100
AcDbHatch
 10
0.0
 20
0.0
 30
0.0
210
0.0
220
0.0
230
1.0
  2
LINE
 70
     0
 71
     0
 91
        2
 92
        7
 72
     1
 73
     1
 93
       16
 10
1677.733699987738
 20
145.0238099774154
 42
0.0
 10
1677.733699987738
 20
143.0738099774154
 42
0.0
 10
1678.733699987738
 20
142.0738099774153
 42
0.0
 10
1682.733699987738
 20
142.0738099774153
 42
0.0
 10
1682.733699987738
 20
152.0738099774153
 42
-0.3786699902072361
 10
1680.748775368445
 20
153.8287094761449
 42
0.0
 10
1679.483699987738
 20
164.0738099774153
 42
0.0
 10
1672.833699987738
 20
164.0738099774153
 42
0.0
 10
1672.833699987738
 20
162.0738099774153
 42
0.0
 10
1674.833699987738
 20
162.0738099774153
 42
0.0
 10
1674.833699987738
 20
160.0738099774153
 42
0.0
 10
1675.633699987738
 20
160.0738099774154
 42
0.0
 10
1675.633699987738
 20
157.3738099774153
 42
0.0
 10
1677.733699987738
 20
157.3738099774154
 42
0.0
 10
1677.733699987738
 20
149.5238099774153
 42
0.0
 10
1679.983699987738
 20
147.2738099774153
 42
0.0
 97
        0
 92
        7
 72
     1
 73
     1
 93
        7
 10
1663.833699987738
 20
164.0738099774153
 42
0.0
 10
1663.833699987738
 20
162.5738099774153
 42
0.4142135623730951
 10
1666.333699987738
 20
160.0738099774153
 42
0.0
 10
1666.633699987738
 20
160.0738099774153
 42
0.0
 10
1666.633699987738
 20
162.0738099774153
 42
0.0
 10
1668.633699987738
 20
162.0738099774153
 42
0.0
 10
1668.633699987738
 20
164.0738099774153
 42
0.0
 97
        0
 75
     0
 76
     1
 52
-150.0
 41
0.7
 77
     0
 78
     1
 53
210.0
 43
1834.257689555733
 44
351.2349131675829
 45
1.111249999999998
 46
-1.924741459910915
 79
     0
 47
0.1186004525245611
 98
        2
 10
1679.963495379456
 20
144.314999102731
 10
1665.239080993774
 20
162.69806965952
  0
LINE
  5
2751
330
1F
100
AcDbEntity
  8
1014813_DXF_CONTINUOUS_LINE
  6
Continuous
 62
     0
370
    40
100
AcDbLine
 10
1677.733699987738
 20
157.3738099774153
 30
0.0
 11
1677.733699987738
 21
143.0738099774154
 31
0.0
  0
LINE
  5
2752
330
1F
100
AcDbEntity
  8
图层2
100
AcDbLine
 10
1685.983699987738
 20
164.0738099774153
 30
0.0
 11
1684.718624607032
 21
153.8287094761449
 31
0.0
  0
LINE
  5
2753
330
1F
100
AcDbEntity
  8
1014813_DXF_CONTINUOUS_LINE
  6
Continuous
 62
     0
370
    40
100
AcDbLine
 10
1679.483699987738
 20
164.0738099774153
 30
0.0
 11
1680.748775368445
 21
153.8287094761449
 31
0.0
  0
LINE
  5
2756
330
1F
100
AcDbEntity
  8
1014813_DXF_CONTINUOUS_LINE
  6
Continuous
 62
     0
370
    40
100
AcDbLine
 10
1689.833699987739
 20
157.3738099774153
 30
0.0
 11
1682.733699987738
 21
157.3738099774153
 31
0.0
  0
LINE
  5
2758
330
1F
100
AcDbEntity
  8
图层2
100
AcDbLine
 10
1692.633699987738
 20
162.0738099774153
 30
0.0
 11
1692.633699987738
 21
164.0738099774153
 31
0.0
  0
LINE
  5
2759
330
1F
100
AcDbEntity
  8
图层2
100
AcDbLine
 10
1690.633699987738
 20
160.0738099774153
 30
0.0
 11
1690.633699987738
 21
162.0738099774153
 31
0.0
  0
LINE
  5
275A
330
1F
100
AcDbEntity
  8
1014813_DXF_CONTINUOUS_LINE
  6
Continuous
 62
     0
370
    40
100
AcDbLine
 10
1689.833699987739
 20
160.0738099774153
 30
0.0
 11
1689.833699987739
 21
157.3738099774153
 31
0.0
  0
LINE
  5
275B
330
1F
100
AcDbEntity
  8
1014813_DXF_CONTINUOUS_LINE
  6
Continuous
 62
     0
370
    40
100
AcDbLine
 10
1674.833699987738
 20
162.0738099774153
 30
0.0
 11
1666.633699987738
 21
162.0738099774153
 31
0.0
  0
LINE
  5
275C
330
1F
100
AcDbEntity
  8
1014813_DXF_CONTINUOUS_LINE
  6
Continuous
 62
     0
370
    40
100
AcDbLine
 10
1666.333699987738
 20
160.0738099774153
 30
0.0
 11
1675.633699987738
 21
160.0738099774153
 31
0.0
  0
LINE
  5
275D
330
1F
100
AcDbEntity
  8
1014813_DXF_CONTINUOUS_LINE
  6
Continuous
 62
     0
370
    40
100
AcDbLine
 10
1677.733699987738
 20
157.3738099774154
 30
0.0
 11
1675.633699987738
 21
157.3738099774153
 31
0.0
  0
LINE
  5
275E
330
1F
100
AcDbEntity
  8
1014813_DXF_CONTINUOUS_LINE
  6
Continuous
 62
     0
370
    40
100
AcDbLine
 10
1672.833699987738
 20
164.0738099774153
 30
0.0
 11
1672.833699987738
 21
162.0738099774153
 31
0.0
  0
LINE
  5
275F
330
1F
100
AcDbEntity
  8
1014813_DXF_CONTINUOUS_LINE
  6
Continuous
 62
     0
370
    40
100
AcDbLine
 10
1674.833699987738
 20
162.0738099774153
 30
0.0
 11
1674.833699987738
 21
160.0738099774153
 31
0.0
  0
LINE
  5
2760
330
1F
100
AcDbEntity
  8
1014813_DXF_CONTINUOUS_LINE
  6
Continuous
 62
     0
370
    40
100
AcDbLine
 10
1675.633699987738
 20
157.3738099774153
 30
0.0
 11
1675.633699987738
 21
160.0738099774153
 31
0.0
  0
LINE
  5
2761
330
1F
100
AcDbEntity
  8
1014813_DXF_CONTINUOUS_LINE
  6
Continuous
 62
     0
370
    40
100
AcDbLine
 10
1668.633699987738
 20
162.0738099774153
 30
0.0
 11
1668.633699987738
 21
164.0738099774153
 31
0.0
  0
LINE
  5
2762
330
1F
100
AcDbEntity
  8
1014813_DXF_CONTINUOUS_LINE
  6
Continuous
 62
     0
370
    40
100
AcDbLine
 10
1663.833699987738
 20
164.0738099774153
 30
0.0
 11
1663.833699987738
 21
162.5738099774153
 31
0.0
  0
LINE
  5
2763
330
1F
100
AcDbEntity
  8
1014813_DXF_CONTINUOUS_LINE
  6
Continuous
 62
     0
370
    40
100
AcDbLine
 10
1666.633699987738
 20
160.0738099774153
 30
0.0
 11
1666.633699987738
 21
162.0738099774153
 31
0.0
  0
LINE
  5
2764
330
1F
100
AcDbEntity
  8
1014813_DXF_CONTINUOUS_LINE
  6
Continuous
 62
     0
370
    40
100
AcDbLine
 10
1686.733699987738
 20
142.0738099774153
 30
0.0
 11
1678.733699987738
 21
142.0738099774153
 31
0.0
  0
ARC
  5
2765
330
1F
100
AcDbEntity
  8
图层2
100
AcDbCircle
 10
1682.733699987738
 20
154.0738099774153
 30
0.0
 40
2.0
100
AcDbArc
 50
270.0
 51
352.9606922491752
  0
LINE
  5
2766
330
1F
100
AcDbEntity
  8
图层1
100
AcDbLine
 10
1684.251521049883
 20
154.0738099774153
 30
0.0
 11
1681.21188563979
 21
154.0738099774153
 31
0.0
  0
ARC
  5
2767
330
1F
100
AcDbEntity
  8
1014813_DXF_CONTINUOUS_LINE
  6
Continuous
 62
     0
370
    40
100
AcDbCircle
 10
1682.733699987738
 20
154.0738099774153
 30
0.0
 40
2.0
100
AcDbArc
 50
187.0393077508248
 51
270.0
  0
LINE
  5
2768
330
1F
100
AcDbEntity
  8
1014813_DXF_CONTINUOUS_LINE
  6
Continuous
 62
     0
370
    40
100
AcDbLine
 10
1687.733699987738
 20
143.0738099774153
 30
0.0
 11
1682.733699987738
 21
143.0738099774153
 31
0.0
  0
LINE
  5
2769
330
1F
100
AcDbEntity
  8
1014813_DXF_CONTINUOUS_LINE
  6
Continuous
 62
     0
370
    40
100
AcDbLine
 10
1687.733699987738
 20
143.0738099774153
 30
0.0
 11
1686.733699987738
 21
142.0738099774153
 31
0.0
  0
LINE
  5
276A
330
1F
100
AcDbEntity
  8
1014813_DXF_CONTINUOUS_LINE
  6
Continuous
 62
     0
370
    40
100
AcDbLine
 10
1678.733699987738
 20
142.0738099774153
 30
0.0
 11
1677.733699987738
 21
143.0738099774153
 31
0.0
  0
HATCH
  5
276B
330
1F
100
AcDbEntity
  8
图层7
100
AcDbHatch
 10
0.0
 20
0.0
 30
0.0
210
0.0
220
0.0
230
1.0
  2
LINE
 70
     0
 71
     0
 91
        2
 92
        7
 72
     1
 73
     1
 93
        8
 10
1675.433699987738
 20
157.0738099774154
 42
0.0
 10
1675.433699987738
 20
158.0738099774153
 42
0.0
 10
1664.733699987738
 20
158.0738099774153
 42
-0.4142135623730951
 10
1663.733699987738
 20
159.0738099774153
 42
0.0
 10
1663.733699987738
 20
164.0738099774153
 42
0.0
 10
1662.733699987738
 20
164.0738099774153
 42
0.0
 10
1662.733699987738
 20
159.0738099774153
 42
0.4142135623730951
 10
1664.733699987738
 20
157.0738099774153
 42
0.0
 97
        0
 92
        7
 72
     1
 73
     1
 93
        8
 10
1700.733699987738
 20
157.0738099774153
 42
0.4142135623730994
 10
1702.733699987738
 20
159.0738099774153
 42
0.0
 10
1702.733699987738
 20
164.0738099774153
 42
0.0
 10
1701.733699987738
 20
164.0738099774153
 42
0.0
 10
1701.733699987738
 20
159.0738099774153
 42
-0.4142135623730951
 10
1700.733699987738
 20
158.0738099774153
 42
0.0
 10
1690.279625193547
 20
158.0738099774153
 42
0.0
 10
1690.279625193547
 20
157.0738099774153
 42
0.0
 97
        0
 75
     0
 76
     1
 52
44.99999999999999
 41
0.7
 77
     0
 78
     1
 53
44.99999999999999
 43
1575.080528616156
 44
-32.851516778367
 45
-1.571544821187101
 46
1.571544821187101
 79
     0
 47
0.1554848170902332
 98
        2
 10
1667.327788262989
 20
157.4354646313578
 10
1693.169783705177
 20
157.4354646313578
  0
LINE
  5
276C
330
1F
100
AcDbEntity
  8
1014813_DXF_CONTINUOUS_LINE
  6
Continuous
 62
     0
370
    40
100
AcDbLine
 10
1663.733699987738
 20
164.0738099774153
 30
0.0
 11
1701.733699987738
 21
164.0738099774153
 31
0.0
  0
LINE
  5
276D
330
1F
100
AcDbEntity
  8
1014813_DXF_CONTINUOUS_LINE
  6
Continuous
 62
     0
370
    40
100
AcDbLine
 10
1664.733699987738
 20
158.0738099774153
 30
0.0
 11
1675.633699987738
 21
158.0738099774153
 31
0.0
  0
HATCH
  5
276E
330
1F
100
AcDbEntity
  8
图层7
100
AcDbHatch
 10
0.0
 20
0.0
 30
0.0
210
0.0
220
0.0
230
1.0
  2
ANSI31
 70
     0
 71
     0
 91
        6
 92
        7
 72
     0
 73
     1
 93
        7
 10
1673.733699987738
 20
113.0738099774154
 10
1677.433699987738
 20
113.0738099774154
 10
1677.433699987738
 20
119.0738099774153
 10
1677.633699987739
 20
119.0738099774153
 10
1677.633699987739
 20
156.0738099774153
 10
1676.633699987738
 20
157.0738099774153
 10
1673.733699987738
 20
157.0738099774153
 97
        0
 92
        7
 72
     0
 73
     1
 93
        8
 10
1677.633699987739
 20
107.0738099774154
 10
1677.433699987738
 20
107.0738099774153
 10
1677.433699987738
 20
113.0738099774153
 10
1673.733699987738
 20
113.0738099774153
 10
1673.733699987738
 20
62.77380997741535
 10
1680.033699987738
 20
62.77380997741534
 10
1680.033699987738
 20
65.87380997741539
 10
1677.633699987739
 20
68.27380997741535
 97
        0
 92
        7
 72
     0
 73
     1
 93
        4
 10
1687.833699987739
 20
119.0738099774153
 10
1691.733699987738
 20
119.0738099774153
 10
1691.733699987738
 20
152.391844785315
 10
1687.833699987739
 20
153.2508780162067
 97
        0
 92
        7
 72
     0
 73
     1
 93
        5
 10
1687.833699987739
 20
153.2508780162067
 10
1691.733699987738
 20
152.391844785315
 10
1691.733699987738
 20
157.0738099774153
 10
1688.833699987738
 20
157.0738099774153
 10
1687.833699987739
 20
156.0738099774153
 97
        0
 92
        7
 72
     0
 73
     1
 93
        4
 10
1687.833699987739
 20
73.96256091269703
 10
1691.733699987738
 20
78.98438430581646
 10
1691.733699987738
 20
107.0738099774153
 10
1687.833699987739
 20
107.0738099774153
 97
        0
 92
        7
 72
     0
 73
     1
 93
        6
 10
1691.733699987738
 20
78.98438430581641
 10
1687.833699987739
 20
73.96256091269703
 10
1687.833699987739
 20
68.27380997741537
 10
1685.433699987738
 20
65.87380997741537
 10
1685.433699987738
 20
62.77380997741532
 10
1691.733699987738
 20
62.77380997741535
 97
        0
 75
     0
 76
     1
 52
0.0
 41
0.8
 77
     0
 78
     1
 53
45.0
 43
1622.892428422472
 44
-40.89668053026048
 45
-1.79605122421383
 46
1.79605122421383
 79
     0
 47
0.2183288995596658
 98
        6
 10
1675.188831343255
 20
143.1980352482743
 10
1676.062719453746
 20
103.243846146776
 10
1689.608002708026
 20
130.3166296272481
 10
1689.171058652781
 20
154.551138087057
 10
1689.389531411307
 20
100.6238989138061
 10
1690.481892280323
 20
72.24114227620418
1001
ACAD
1010
0.0
1020
0.0
1030
0.0
  0
LINE
  5
276F
330
1F
100
AcDbEntity
  8
1014813_DXF_CONTINUOUS_LINE
  6
Continuous
 62
     0
370
    40
100
AcDbLine
 10
1664.733699987738
 20
157.0738099774153
 30
0.0
 11
1677.733699987738
 21
157.0738099774153
 31
0.0
  0
LINE
  5
2770
330
1F
100
AcDbEntity
  8
1014813_DXF_CONTINUOUS_LINE
  6
Continuous
 62
     0
370
    40
100
AcDbLine
 10
1663.733699987738
 20
159.0738099774153
 30
0.0
 11
1663.733699987738
 21
164.0738099774153
 31
0.0
  0
LINE
  5
2771
330
1F
100
AcDbEntity
  8
1014813_DXF_CONTINUOUS_LINE
  6
Continuous
 62
     0
370
    40
100
AcDbLine
 10
1662.733699987738
 20
159.0738099774153
 30
0.0
 11
1662.733699987738
 21
164.0738099774153
 31
0.0
  0
ARC
  5
2772
330
1F
100
AcDbEntity
  8
1014813_DXF_CONTINUOUS_LINE
  6
Continuous
 62
     0
370
    40
100
AcDbCircle
 10
1664.733699987738
 20
159.0738099774153
 30
0.0
 40
2.0
100
AcDbArc
 50
180.0
 51
270.0
  0
ARC
  5
2773
330
1F
100
AcDbEntity
  8
1014813_DXF_CONTINUOUS_LINE
  6
Continuous
 62
     0
370
    40
100
AcDbCircle
 10
1664.733699987738
 20
159.0738099774153
 30
0.0
 40
1.0
100
AcDbArc
 50
180.0
 51
270.0
  0
LINE
  5
2774
330
1F
100
AcDbEntity
  8
1014813_DXF_CONTINUOUS_LINE
  6
Continuous
 62
     0
370
    40
100
AcDbLine
 10
1675.433699987738
 20
157.0738099774153
 30
0.0
 11
1675.433699987738
 21
158.0738099774153
 31
0.0
  0
LINE
  5
2775
330
1F
100
AcDbEntity
  8
1014813_DXF_CONTINUOUS_LINE
  6
Continuous
 62
     0
370
    40
100
AcDbLine
 10
1662.733699987738
 20
164.0738099774153
 30
0.0
 11
1663.733699987738
 21
164.0738099774153
 31
0.0
  0
LINE
  5
2776
330
1F
100
AcDbEntity
  8
1014813_DXF_CONTINUOUS_LINE
  6
Continuous
 62
     0
370
    40
100
AcDbLine
 10
1701.733699987738
 20
159.0738099774153
 30
0.0
 11
1701.733699987738
 21
164.0738099774153
 31
0.0
  0
LINE
  5
2777
330
1F
100
AcDbEntity
  8
1014813_DXF_CONTINUOUS_LINE
  6
Continuous
 62
     0
370
    40
100
AcDbLine
 10
1702.733699987738
 20
159.0738099774153
 30
0.0
 11
1702.733699987738
 21
164.0738099774153
 31
0.0
  0
LINE
  5
2779
330
1F
100
AcDbEntity
  8
1014813_DXF_CONTINUOUS_LINE
  6
Continuous
 62
     0
370
    40
100
AcDbLine
 10
1690.279625193547
 20
157.0738099774153
 30
0.0
 11
1690.279625193547
 21
158.0738099774153
 31
0.0
  0
ARC
  5
277A
330
1F
100
AcDbEntity
  8
1014813_DXF_CONTINUOUS_LINE
  6
Continuous
 62
     0
370
    40
100
AcDbCircle
 10
1700.733699987738
 20
159.0738099774153
 30
0.0
 40
2.0
100
AcDbArc
 50
270.0
 51
0.0
  0
ARC
  5
277B
330
1F
100
AcDbEntity
  8
1014813_DXF_CONTINUOUS_LINE
  6
Continuous
 62
     0
370
    40
100
AcDbCircle
 10
1700.733699987738
 20
159.0738099774153
 30
0.0
 40
1.0
100
AcDbArc
 50
270.0
 51
0.0
  0
LINE
  5
277C
330
1F
100
AcDbEntity
  8
1014813_DXF_CONTINUOUS_LINE
  6
Continuous
 62
     0
370
    40
100
AcDbLine
 10
1701.733699987738
 20
164.0738099774153
 30
0.0
 11
1702.733699987738
 21
164.0738099774153
 31
0.0
  0
LINE
  5
277D
330
1F
100
AcDbEntity
  8
1014813_DXF_CONTINUOUS_LINE
  6
Continuous
 62
     0
370
    40
100
AcDbLine
 10
1689.833699987739
 20
158.0738099774153
 30
0.0
 11
1700.733699987738
 21
158.0738099774153
 31
0.0
  0
LINE
  5
277E
330
1F
100
AcDbEntity
  8
1014813_DXF_CONTINUOUS_LINE
  6
Continuous
 62
     0
370
    40
100
AcDbLine
 10
1687.733699987738
 20
157.0738099774153
 30
0.0
 11
1700.733699987738
 21
157.0738099774153
 31
0.0
  0
HATCH
  5
2784
330
1F
100
AcDbEntity
  8
图层7
100
AcDbHatch
 10
0.0
 20
0.0
 30
0.0
210
0.0
220
0.0
230
1.0
  2
ANSI31
 70
     0
 71
     0
 91
        2
 92
        5
 93
        5
 72
     1
 10
1682.103071444424
 20
68.27380997741535
 11
1680.51847367169
 21
68.27380997741537
 72
     4
 94
        3
 73
     0
 74
     0
 95
        9
 96
        5
 40
0.0
 40
0.0
 40
0.0
 40
0.0
 40
1.891178409891626
 40
3.047731487490541
 40
3.047731487490541
 40
3.047731487490541
 40
3.047731487490569
 10
1680.51847367169
 20
68.27380997741534
 10
1680.806357546816
 20
67.68143027127727
 10
1681.270297250428
 20
66.72677984088728
 10
1682.349135204611
 20
66.3930298852205
 10
1682.733699987738
 20
66.42783133807132
 97
        0
 72
     1
 10
1682.733699987738
 20
66.42783133807128
 11
1682.733699987738
 21
67.39556109092553
 72
     1
 10
1682.733699987738
 20
67.39556109092553
 11
1682.103071444424
 21
67.39556109092553
 72
     1
 10
1682.103071444425
 20
67.39556109092553
 11
1682.103071444425
 21
68.27380997741535
 97
        0
 92
        5
 93
        6
 72
     4
 94
        3
 73
     0
 74
     0
 95
        9
 96
        5
 40
3.047731487490541
 40
3.047731487490541
 40
3.047731487490541
 40
3.047731487490569
 40
4.612893787757689
 40
5.880697458612634
 40
5.880697458612634
 40
5.880697458612634
 40
5.880697458612634
 10
1682.733699987738
 20
66.42783133807132
 10
1683.254131183002
 20
66.47492811473604
 10
1684.113801536695
 20
67.09537307046495
 10
1684.579620733513
 20
67.90948162763212
 10
1684.788083275492
 20
68.27380997741537
 97
        0
 72
     1
 10
1684.788083275492
 20
68.27380997741535
 11
1683.415757158845
 21
68.27380997741535
 72
     1
 10
1683.415757158845
 20
68.27380997741535
 11
1683.408344823609
 21
68.2642655060082
 72
     1
 10
1683.408344823609
 20
68.2642655060082
 11
1683.408344823609
 21
67.39556109092553
 72
     1
 10
1683.408344823609
 20
67.39556109092553
 11
1682.733699987738
 21
67.39556109092551
 72
     1
 10
1682.733699987738
 20
67.39556109092551
 11
1682.733699987738
 21
66.4278313380713
 97
        0
 75
     0
 76
     1
 52
90.0
 41
0.1
 77
     0
 78
     1
 53
135.0
 43
1622.892428422472
 44
-40.89668053026048
 45
-0.2245064030267288
 46
-0.2245064030267288
 79
     0
 47
0.0227417735815387
 98
        2
 10
1681.518700993665
 20
67.6668940651756
 10
1684.136351751767
 20
67.78060261446057
  0
ARC
  5
2785
330
1F
100
AcDbEntity
  8
1014813_DXF_CONTINUOUS_LINE
  6
Continuous
 62
     0
370
    40
100
AcDbCircle
 10
1966.278678194877
 20
69.09836529775219
 30
0.0
 40
11.00000000000004
100
AcDbArc
 50
215.0968012275867
 51
324.9031987724134
  0
HATCH
  5
2787
330
1F
100
AcDbEntity
  8
图层7
100
AcDbHatch
 10
0.0
 20
0.0
 30
0.0
210
0.0
220
0.0
230
1.0
  2
ANSI31
 70
     0
 71
     0
 91
        4
 92
        7
 72
     1
 73
     1
 93
        4
 10
2033.468394490423
 20
61.86885826853312
 42
0.0
 10
2033.468394490423
 20
62.48595262022961
 42
0.3485472574544804
 10
2024.968394490422
 20
51.77380997741535
 42
0.0
 10
2025.568394490422
 20
51.77380997741535
 42
-0.3447706324116306
 97
        0
 92
        7
 72
     1
 73
     1
 93
        4
 10
2025.568394490422
 20
51.77380997741535
 42
0.0
 10
2024.968394490422
 20
51.77380997741535
 42
0.4142135623730959
 10
2035.968394490422
 20
40.77380997741532
 42
0.0
 10
2035.968394490422
 20
41.3738099774153
 42
-0.4142135623730971
 97
        0
 92
        7
 72
     1
 73
     1
 93
        4
 10
2046.968394490423
 20
51.77380997741535
 42
0.0
 10
2046.368394490423
 20
51.77380997741535
 42
-0.4142135623730966
 10
2035.968394490422
 20
41.37380997741532
 42
0.0
 10
2035.968394490422
 20
40.77380997741532
 42
0.4142135623730974
 97
        0
 92
        7
 72
     1
 73
     1
 93
        4
 10
2038.468394490422
 20
62.48595262022958
 42
0.0
 10
2038.468394490422
 20
61.8688582685331
 42
-0.3447706324116289
 10
2046.368394490423
 20
51.77380997741535
 42
0.0
 10
2046.968394490422
 20
51.77380997741535
 42
0.3485472574544774
 97
        0
 75
     0
 76
     1
 52
0.0
 41
0.4
 77
     0
 78
     1
 53
45.0
 43
1645.103509645062
 44
-40.89668053026048
 45
-0.8980256121069151
 46
0.8980256121069153
 79
     0
 47
0.0561859735909363
 98
        4
 10
2027.495967460759
 20
58.09992413108114
 10
2026.315287009795
 20
47.70551933503509
 10
2045.824626853487
 20
47.42458941840266
 10
2046.330632118718
 20
54.84113808717632
1001
ACAD
1010
0.0
1020
0.0
1030
0.0
  0
HATCH
  5
2788
330
1F
100
AcDbEntity
  8
图层7
100
AcDbHatch
 10
0.0
 20
0.0
 30
0.0
210
0.0
220
0.0
230
1.0
  2
ANSI31
 70
     0
 71
     0
 91
        4
 92
        7
 72
     1
 73
     1
 93
        5
 10
2029.457634166159
 20
58.27380997741532
 42
0.0
 10
2033.468394490423
 20
58.27380997741534
 42
0.0
 10
2033.468394490423
 20
61.8688582685331
 42
0.3447706324116291
 10
2025.568394490422
 20
51.77380997741535
 42
0.0
 10
2026.768394490423
 20
51.77380997741535
 42
-0.198697437468696
 97
        0
 92
        7
 72
     1
 73
     1
 93
        4
 10
2026.768394490423
 20
51.77380997741535
 42
0.0
 10
2025.568394490422
 20
51.77380997741535
 42
0.4142135623730966
 10
2035.968394490422
 20
41.37380997741532
 42
0.0
 10
2035.968394490422
 20
42.57380997741529
 42
-0.4142135623730954
 97
        0
 92
        7
 72
     1
 73
     1
 93
        4
 10
2046.368394490423
 20
51.77380997741535
 42
0.0
 10
2045.168394490422
 20
51.77380997741535
 42
-0.4142135623730964
 10
2035.968394490422
 20
42.57380997741532
 42
0.0
 10
2035.968394490422
 20
41.3738099774153
 42
0.4142135623730987
 97
        0
 92
        7
 72
     1
 73
     1
 93
        5
 10
2038.468394490422
 20
61.86885826853309
 42
0.0
 10
2038.468394490422
 20
58.27380997741531
 42
0.0
 10
2042.479154814686
 20
58.27380997741532
 42
-0.198697437468696
 10
2045.168394490422
 20
51.77380997741535
 42
0.0
 10
2046.368394490423
 20
51.77380997741535
 42
0.3447706324116286
 97
        0
 75
     0
 76
     1
 52
90.0
 41
0.6
 77
     0
 78
     1
 53
135.0
 43
1645.103509645062
 44
-40.89668053026048
 45
-1.347038418160372
 46
-1.347038418160372
 79
     0
 47
0.0535984614768072
 98
        4
 10
2027.103702237885
 20
54.89898719618111
 10
2027.425504073578
 20
48.09198235397525
 10
2042.818367352728
 20
45.41205899306135
 10
2042.818367352728
 20
58.75807669460698
1001
ACAD
1010
0.0
1020
0.0
1030
0.0
  0
LINE
  5
2789
330
1F
100
AcDbEntity
  8
1014813_DXF_CONTINUOUS_LINE
  6
Continuous
 62
     0
370
    40
100
AcDbLine
 10
2038.468394490422
 20
65.87380997741537
 30
0.0
 11
2038.468394490422
 21
57.99832787221406
 31
0.0
  0
LINE
  5
278A
330
1F
100
AcDbEntity
  8
1014813_DXF_CONTINUOUS_LINE
  6
Continuous
 62
     0
370
    40
100
AcDbLine
 10
2037.968394490422
 20
57.49832787221406
 30
0.0
 11
2038.468394490422
 21
57.99832787221406
 31
0.0
  0
LINE
  5
278B
330
1F
100
AcDbEntity
  8
1014813_DXF_CONTINUOUS_LINE
  6
Continuous
 62
     0
370
    40
100
AcDbLine
 10
2033.468394490423
 20
65.87380997741535
 30
0.0
 11
2033.468394490423
 21
57.99832787221408
 31
0.0
  0
LINE
  5
278C
330
1F
100
AcDbEntity
  8
图层2
100
AcDbLine
 10
2037.968394490423
 20
65.87380997741539
 30
0.0
 11
2037.968394490423
 21
57.99832787221408
 31
0.0
  0
LINE
  5
278D
330
1F
100
AcDbEntity
  8
图层2
100
AcDbLine
 10
2033.968394490423
 20
65.87380997741537
 30
0.0
 11
2033.968394490422
 21
57.99832787221409
 31
0.0
  0
LINE
  5
278E
330
1F
100
AcDbEntity
  8
1014813_DXF_CONTINUOUS_LINE
  6
Continuous
 62
     0
370
    40
100
AcDbLine
 10
1661.233699987738
 20
62.77380997741535
 30
0.0
 11
1661.233699987738
 21
40.77380997741535
 31
0.0
  0
LINE
  5
278F
330
1F
100
AcDbEntity
  8
1014813_DXF_CONTINUOUS_LINE
  6
Continuous
 62
     0
370
    40
100
AcDbLine
 10
1661.233699987738
 20
40.77380997741535
 30
0.0
 11
1662.733699987738
 21
40.77380997741535
 31
0.0
  0
HATCH
  5
2790
330
1F
100
AcDbEntity
  8
图层7
100
AcDbHatch
 10
0.0
 20
0.0
 30
0.0
210
0.0
220
0.0
230
1.0
  2
ANSI31
 70
     0
 71
     0
 91
        4
 92
        7
 72
     1
 73
     1
 93
        5
 10
1680.233699987739
 20
62.17380997741533
 42
0.0
 10
1680.233699987739
 20
62.7251564446438
 42
-0.0046781219228362
 10
1680.033699987738
 20
62.77380997741534
 42
0.0
 10
1662.733699987738
 20
62.77380997741531
 42
0.0
 10
1662.733699987738
 20
62.17380997741535
 42
0.0
 97
        0
 92
        5
 93
        5
 72
     2
 10
1682.73369998774
 20
73.43729908745899
 40
11.0000000000005
 50
75.79130246530398
 51
76.86344121306418
 73
     0
 72
     1
 10
1685.233699987738
 20
62.72515644464384
 11
1685.233699987738
 21
62.17380997741535
 72
     1
 10
1685.233699987738
 20
62.17380997741535
 11
1696.239304403728
 21
62.17380997741535
 72
     4
 94
        3
 73
     0
 74
     0
 95
        8
 96
        4
 40
3.683317529891537
 40
3.68331752989154
 40
3.68331752989154
 40
3.68331752989154
 40
4.323708967546657
 40
4.323708967546657
 40
4.323708967546657
 40
4.323708967546657
 10
1696.239304403728
 20
62.17380997741535
 10
1696.142584014534
 20
62.37202075366187
 10
1696.055493052725
 20
62.57211367622719
 10
1695.976605288438
 20
62.77380997741534
 97
        0
 72
     1
 10
1695.976605288438
 20
62.77380997741532
 11
1685.433699987738
 21
62.77380997741532
 97
        0
 92
        7
 72
     0
 73
     1
 93
        4
 10
1682.733699987738
 20
40.77380997741535
 10
1682.733699987738
 20
41.37380997741533
 10
1662.733699987738
 20
41.37380997741535
 10
1662.733699987738
 20
40.77380997741535
 97
        0
 92
        5
 93
        4
 72
     4
 94
        3
 73
     0
 74
     0
 95
        8
 96
        4
 40
27.66197451943885
 40
27.66197451943885
 40
27.66197451943885
 40
27.66197451943885
 40
28.31376872392779
 40
28.31376872392779
 40
28.31376872392779
 40
28.31376872392781
 10
1701.927616863214
 20
40.77380997741535
 10
1701.829122416278
 20
40.97525375972312
 10
1701.723310066647
 20
41.17530624264998
 10
1701.609351671311
 20
41.3738099774153
 97
        0
 72
     1
 10
1701.609351671311
 20
41.37380997741533
 11
1682.733699987738
 21
41.37380997741535
 72
     1
 10
1682.733699987738
 20
41.37380997741535
 11
1682.733699987738
 21
40.77380997741535
 72
     1
 10
1682.733699987738
 20
40.77380997741535
 11
1701.927616863214
 21
40.77380997741535
 97
        0
 75
     0
 76
     1
 52
0.0
 41
0.6
 77
     0
 78
     1
 53
45.0
 43
1622.892428422472
 44
-40.89668053026048
 45
-1.347038418160372
 46
1.347038418160372
 79
     0
 47
0.0991841296553288
 98
        4
 10
1670.742825911692
 20
62.3927989391135
 10
1687.615203376323
 20
62.49198317111677
 10
1681.759495367719
 20
41.06821095837358
 10
1684.637724537359
 20
40.86984249436705
1001
ACAD
1010
0.0
1020
0.0
1030
0.0
  0
LINE
  5
2791
330
1F
100
AcDbEntity
  8
1014813_DXF_CONTINUOUS_LINE
  6
Continuous
 62
     0
370
    40
100
AcDbLine
 10
1662.733699987738
 20
40.77380997741535
 30
0.0
 11
1662.733699987738
 21
41.37380997741535
 31
0.0
  0
LINE
  5
2792
330
1F
100
AcDbEntity
  8
1014813_DXF_CONTINUOUS_LINE
  6
Continuous
 62
     0
370
    40
100
AcDbLine
 10
1662.733699987738
 20
62.77380997741535
 30
0.0
 11
1661.233699987738
 21
62.77380997741535
 31
0.0
  0
LINE
  5
2793
330
1F
100
AcDbEntity
  8
1014813_DXF_CONTINUOUS_LINE
  6
Continuous
 62
     0
370
    40
100
AcDbLine
 10
1688.733699987738
 20
61.17380997741536
 30
0.0
 11
1688.733699987738
 21
42.37380997741531
 31
0.0
  0
ARC
  5
2794
330
1F
100
AcDbEntity
  8
1014813_DXF_CONTINUOUS_LINE
  6
Continuous
 62
     0
370
    40
100
AcDbCircle
 10
2035.968394490422
 20
51.77380997741533
 30
0.0
 40
10.4
100
AcDbArc
 50
103.9092417776301
 51
76.09075822236987
  0
ARC
  5
2795
102
{ACAD_REACTORS
330
2963
102
}
330
1F
100
AcDbEntity
  8
1014813_DXF_CONTINUOUS_LINE
  6
Continuous
 62
     0
370
    40
100
AcDbCircle
 10
2035.968394490422
 20
51.77380997741533
 30
0.0
 40
11.0
100
AcDbArc
 50
103.136558786946
 51
76.86344121305393
  0
LINE
  5
2796
330
1F
100
AcDbEntity
  8
1014813_DXF_CONTINUOUS_LINE
  6
Continuous
 62
     0
370
    40
100
AcDbLine
 10
2042.479154814686
 20
58.27380997741532
 30
0.0
 11
2038.468394490422
 21
58.27380997741531
 31
0.0
  0
LINE
  5
2797
330
1F
100
AcDbEntity
  8
1014813_DXF_CONTINUOUS_LINE
  6
Continuous
 62
     0
370
    40
100
AcDbLine
 10
2033.468394490423
 20
58.27380997741532
 30
0.0
 11
2029.457634166159
 21
58.27380997741532
 31
0.0
  0
ARC
  5
2798
330
1F
100
AcDbEntity
  8
1014813_DXF_CONTINUOUS_LINE
  6
Continuous
 62
     0
370
    40
100
AcDbCircle
 10
2035.968394490422
 20
51.77380997741533
 30
0.0
 40
9.200000000000001
100
AcDbArc
 50
135.0473854725257
 51
44.9526145274743
  0
LINE
  5
2799
330
1F
100
AcDbEntity
  8
1014813_DXF_CONTINUOUS_LINE
  6
Continuous
 62
     0
370
    40
100
AcDbLine
 10
1688.733699987738
 20
58.27380997741535
 30
0.0
 11
1685.233699987738
 21
58.27380997741534
 31
0.0
  0
LINE
  5
279A
330
1F
100
AcDbEntity
  8
1014813_DXF_CONTINUOUS_LINE
  6
Continuous
 62
     0
370
    40
100
AcDbLine
 10
1680.233699987739
 20
58.27380997741535
 30
0.0
 11
1662.733699987738
 21
58.27380997741535
 31
0.0
  0
LINE
  5
279B
330
1F
100
AcDbEntity
  8
1014813_DXF_CONTINUOUS_LINE
  6
Continuous
 62
     0
370
    40
100
AcDbLine
 10
1688.733699987738
 20
42.57380997741534
 30
0.0
 11
1662.733699987738
 21
42.5738099774153
 31
0.0
  0
LINE
  5
279C
330
1F
100
AcDbEntity
  8
1014813_DXF_CONTINUOUS_LINE
  6
Continuous
 62
     0
370
    40
100
AcDbLine
 10
1662.733699987738
 20
62.17380997741535
 30
0.0
 11
1680.233699987739
 21
62.17380997741533
 31
0.0
  0
LINE
  5
279D
330
1F
100
AcDbEntity
  8
1014813_DXF_CONTINUOUS_LINE
  6
Continuous
 62
     0
370
    40
100
AcDbLine
 10
1685.233699987738
 20
62.17380997741535
 30
0.0
 11
1696.239304403728
 21
62.17380997741535
 31
0.0
  0
LINE
  5
279E
330
1F
100
AcDbEntity
  8
1014813_DXF_CONTINUOUS_LINE
  6
Continuous
 62
     0
370
    40
100
AcDbLine
 10
1662.733699987738
 20
41.37380997741535
 30
0.0
 11
1701.609351671311
 21
41.37380997741532
 31
0.0
  0
LINE
  5
279F
330
1F
100
AcDbEntity
  8
1014813_DXF_CONTINUOUS_LINE
  6
Continuous
 62
     0
370
    40
100
AcDbLine
 10
1687.733699987738
 20
62.17380997741535
 30
0.0
 11
1688.733699987738
 21
61.17380997741536
 31
0.0
  0
LINE
  5
27A0
330
1F
100
AcDbEntity
  8
1014813_DXF_CONTINUOUS_LINE
  6
Continuous
 62
     0
370
    40
100
AcDbLine
 10
1688.733699987738
 20
42.37380997741531
 30
0.0
 11
1687.733699987738
 21
41.37380997741532
 31
0.0
  0
LINE
  5
27A1
330
1F
100
AcDbEntity
  8
1014813_DXF_CONTINUOUS_LINE
  6
Continuous
 62
     0
370
    40
100
AcDbLine
 10
1662.733699987738
 20
42.5738099774153
 30
0.0
 11
1662.733699987738
 21
58.27380997741535
 31
0.0
  0
LINE
  5
27A2
330
1F
100
AcDbEntity
  8
1014813_DXF_CONTINUOUS_LINE
  6
Continuous
 62
     0
370
    40
100
AcDbLine
 10
1662.733699987738
 20
62.17380997741533
 30
0.0
 11
1662.733699987738
 21
62.77380997741535
 31
0.0
  0
LINE
  5
27A4
330
1F
100
AcDbEntity
  8
图层2
100
AcDbLine
 10
1680.233699987738
 20
62.17380997741535
 30
0.0
 11
1680.233699987738
 21
58.27380997741535
 31
0.0
  0
LINE
  5
27A5
330
1F
100
AcDbEntity
  8
图层2
100
AcDbLine
 10
1685.233699987738
 20
62.17380997741535
 30
0.0
 11
1685.233699987738
 21
58.27380997741535
 31
0.0
  0
HATCH
  5
27A7
330
1F
100
AcDbEntity
  8
图层7
100
AcDbHatch
 10
0.0
 20
0.0
 30
0.0
210
0.0
220
0.0
230
1.0
  2
LINE
 70
     0
 71
     0
 91
        3
 92
        7
 72
     0
 73
     1
 93
        9
 10
1687.733699987738
 20
41.37380997741532
 10
1688.733699987738
 20
42.37380997741531
 10
1688.733699987738
 20
42.57380997741534
 10
1662.733699987738
 20
42.5738099774153
 10
1662.733699987738
 20
51.77380997741536
 10
1661.233699987738
 20
51.77380997741535
 10
1661.233699987738
 20
40.77380997741535
 10
1662.733699987738
 20
40.77380997741537
 10
1662.733699987738
 20
41.37380997741535
 97
        0
 92
        1
 93
        5
 72
     1
 10
1685.233699987738
 20
62.17380997741533
 11
1685.233699987738
 21
58.27380997741534
 72
     1
 10
1685.233699987738
 20
58.27380997741534
 11
1688.733699987738
 21
58.27380997741535
 72
     1
 10
1688.733699987738
 20
58.27380997741535
 11
1688.733699987738
 21
61.17380997741536
 72
     1
 10
1688.733699987738
 20
61.17380997741536
 11
1687.733699987738
 21
62.17380997741535
 72
     1
 10
1687.733699987738
 20
62.17380997741535
 11
1685.233699987738
 21
62.17380997741533
 97
        0
 92
        1
 93
        8
 72
     1
 10
1680.233699987739
 20
58.27380997741537
 11
1680.233699987739
 21
62.17380997741533
 72
     1
 10
1680.233699987739
 20
62.17380997741533
 11
1662.733699987738
 21
62.17380997741535
 72
     1
 10
1662.733699987738
 20
62.17380997741535
 11
1662.733699987738
 21
62.77380997741537
 72
     1
 10
1662.733699987738
 20
62.77380997741537
 11
1661.233699987738
 21
62.77380997741532
 72
     1
 10
1661.233699987738
 20
62.77380997741532
 11
1661.233699987738
 21
51.77380997741534
 72
     1
 10
1661.233699987738
 20
51.77380997741534
 11
1662.733699987738
 21
51.77380997741535
 72
     1
 10
1662.733699987738
 20
51.77380997741535
 11
1662.733699987738
 21
58.27380997741537
 72
     1
 10
1662.733699987738
 20
58.27380997741537
 11
1680.233699987738
 21
58.27380997741537
 97
        0
 75
     0
 76
     1
 52
-45.00000000000001
 41
0.35
 77
     0
 78
     1
 53
315.0
 43
1574.24322298531
 44
108.3030411317088
 45
0.785772410593551
 46
0.7857724105935507
 79
     0
 47
0.2709351249699821
 98
        3
 10
1687.019914858427
 20
60.64816447684963
 10
1675.64063940014
 20
60.64816447684963
 10
1676.724380016435
 20
41.79518102633063
  0
LINE
  5
27A8
330
1F
100
AcDbEntity
  8
1014813_DXF_CONTINUOUS_LINE
  6
Continuous
 62
     0
370
    40
100
AcDbLine
 10
1673.733699987738
 20
157.0738099774153
 30
0.0
 11
1673.733699987738
 21
62.77380997741535
 31
0.0
  0
LINE
  5
27A9
330
1F
100
AcDbEntity
  8
1014813_DXF_CONTINUOUS_LINE
  6
Continuous
 62
     0
370
    40
100
AcDbLine
 10
1691.733699987738
 20
157.0738099774153
 30
0.0
 11
1691.733699987738
 21
119.0738099774153
 31
0.0
  0
LINE
  5
27AA
330
1F
100
AcDbEntity
  8
1014813_DXF_CONTINUOUS_LINE
  6
Continuous
 62
     0
370
    40
100
AcDbLine
 10
1691.733699987738
 20
107.0738099774153
 30
0.0
 11
1691.733699987738
 21
62.77380997741535
 31
0.0
  0
LINE
  5
27AB
330
1F
100
AcDbEntity
  8
图层1
100
AcDbLine
 10
1678.248776140863
 20
147.0738099774153
 30
0.0
 11
1687.248776140863
 21
147.0738099774153
 31
0.0
  0
CIRCLE
  5
27AD
330
1F
100
AcDbEntity
  8
图层2
100
AcDbCircle
 10
1682.733699987738
 20
147.0738099774153
 30
0.0
 40
2.5
  0
CIRCLE
  5
27AE
330
1F
100
AcDbEntity
  8
图层2
100
AcDbCircle
 10
1682.733699987738
 20
147.0738099774153
 30
0.0
 40
2.0
  0
LINE
  5
27AF
330
1F
100
AcDbEntity
  8
1014813_DXF_CONTINUOUS_LINE
  6
Continuous
 62
     0
370
    40
100
AcDbLine
 10
2026.968394490422
 20
157.0738099774153
 30
0.0
 11
2026.968394490422
 21
58.09836529775212
 31
0.0
  0
LINE
  5
27B0
330
1F
100
AcDbEntity
  8
0
100
AcDbLine
 10
2026.968394490422
 20
157.0738099774153
 30
0.0
 11
2029.868394490423
 21
157.0738099774153
 31
0.0
  0
LINE
  5
27B1
330
1F
100
AcDbEntity
  8
1014813_DXF_CONTINUOUS_LINE
  6
Continuous
 62
     0
370
    40
100
AcDbLine
 10
2044.968394490422
 20
157.0738099774153
 30
0.0
 11
2044.968394490422
 21
58.09836529775212
 31
0.0
  0
LINE
  5
27B3
330
1F
100
AcDbEntity
  8
1014813_DXF_CONTINUOUS_LINE
  6
Continuous
 62
     0
370
    40
100
AcDbLine
 10
2030.868394490422
 20
156.0738099774154
 30
0.0
 11
2030.868394490422
 21
149.5738099774153
 31
0.0
  0
LINE
  5
27B4
330
1F
100
AcDbEntity
  8
1014813_DXF_CONTINUOUS_LINE
  6
Continuous
 62
     0
370
    40
100
AcDbLine
 10
2030.868394490422
 20
144.5738099774153
 30
0.0
 11
2030.868394490422
 21
116.4204500835515
 31
0.0
  0
LINE
  5
27B5
330
1F
100
AcDbEntity
  8
1014813_DXF_CONTINUOUS_LINE
  6
Continuous
 62
     0
370
    40
100
AcDbLine
 10
2030.868394490422
 20
109.7271698712789
 30
0.0
 11
2030.868394490422
 21
68.27380997741538
 31
0.0
  0
LINE
  5
27B6
330
1F
100
AcDbEntity
  8
1014813_DXF_CONTINUOUS_LINE
  6
Continuous
 62
     0
370
    40
100
AcDbLine
 10
2030.868394490422
 20
68.27380997741535
 30
0.0
 11
2041.068394490423
 21
68.27380997741535
 31
0.0
  0
LINE
  5
27B7
330
1F
100
AcDbEntity
  8
1014813_DXF_CONTINUOUS_LINE
  6
Continuous
 62
     0
370
    40
100
AcDbLine
 10
2041.068394490423
 20
68.27380997741538
 30
0.0
 11
2041.068394490423
 21
109.727169871279
 31
0.0
  0
LINE
  5
27B8
330
1F
100
AcDbEntity
  8
1014813_DXF_CONTINUOUS_LINE
  6
Continuous
 62
     0
370
    40
100
AcDbLine
 10
2041.068394490423
 20
116.4204500835515
 30
0.0
 11
2041.068394490423
 21
156.0738099774154
 31
0.0
  0
LINE
  5
27B9
330
1F
100
AcDbEntity
  8
1014813_DXF_CONTINUOUS_LINE
  6
Continuous
 62
     0
370
    40
100
AcDbLine
 10
2041.068394490423
 20
68.27380997741535
 30
0.0
 11
2038.668394490422
 21
65.87380997741535
 31
0.0
  0
LINE
  5
27BA
330
1F
100
AcDbEntity
  8
1014813_DXF_CONTINUOUS_LINE
  6
Continuous
 62
     0
370
    40
100
AcDbLine
 10
2038.668394490422
 20
65.87380997741537
 30
0.0
 11
2033.268394490423
 21
65.87380997741535
 31
0.0
  0
LINE
  5
27BB
330
1F
100
AcDbEntity
  8
1014813_DXF_CONTINUOUS_LINE
  6
Continuous
 62
     0
370
    40
100
AcDbLine
 10
2030.868394490422
 20
68.27380997741535
 30
0.0
 11
2033.268394490423
 21
65.87380997741537
 31
0.0
  0
LINE
  5
27BC
330
1F
100
AcDbEntity
  8
1014813_DXF_CONTINUOUS_LINE
  6
Continuous
 62
     0
370
    40
100
AcDbLine
 10
2033.268394490423
 20
65.87380997741537
 30
0.0
 11
2033.268394490423
 21
62.4372990874581
 31
0.0
  0
LINE
  5
27BD
330
1F
100
AcDbEntity
  8
1014813_DXF_CONTINUOUS_LINE
  6
Continuous
 62
     0
370
    40
100
AcDbLine
 10
2038.668394490423
 20
65.87380997741537
 30
0.0
 11
2038.668394490422
 21
62.4372990874581
 31
0.0
  0
LINE
  5
27BE
330
1F
100
AcDbEntity
  8
1014813_DXF_CONTINUOUS_LINE
  6
Continuous
 62
     0
370
    40
100
AcDbLine
 10
2030.868394490422
 20
156.0738099774154
 30
0.0
 11
2029.868394490423
 21
157.0738099774153
 31
0.0
  0
LINE
  5
27BF
330
1F
100
AcDbEntity
  8
0
100
AcDbLine
 10
2042.068394490422
 20
157.0738099774153
 30
0.0
 11
2044.968394490422
 21
157.0738099774153
 31
0.0
  0
LINE
  5
27C0
330
1F
100
AcDbEntity
  8
0
100
AcDbLine
 10
2041.068394490423
 20
156.0738099774154
 30
0.0
 11
2042.068394490422
 21
157.0738099774153
 31
0.0
  0
LINE
  5
27C2
330
1F
100
AcDbEntity
  8
1014813_DXF_CONTINUOUS_LINE
  6
Continuous
 62
     0
370
    40
100
AcDbLine
 10
2030.868394490422
 20
156.0738099774154
 30
0.0
 11
2030.968394490422
 21
156.0738099774154
 31
0.0
  0
LINE
  5
27C3
330
1F
100
AcDbEntity
  8
0
100
AcDbLine
 10
2040.968394490422
 20
156.0738099774154
 30
0.0
 11
2041.068394490423
 21
156.0738099774154
 31
0.0
  0
LINE
  5
27C4
330
1F
100
AcDbEntity
  8
1014813_DXF_CONTINUOUS_LINE
  6
Continuous
 62
     0
370
    40
100
AcDbLine
 10
1677.633699987739
 20
156.0738099774153
 30
0.0
 11
1677.633699987739
 21
119.0738099774153
 31
0.0
  0
LINE
  5
27C5
330
1F
100
AcDbEntity
  8
1014813_DXF_CONTINUOUS_LINE
  6
Continuous
 62
     0
370
    40
100
AcDbLine
 10
1677.633699987739
 20
107.0738099774153
 30
0.0
 11
1677.633699987739
 21
68.27380997741538
 31
0.0
  0
LINE
  5
27C6
330
1F
100
AcDbEntity
  8
1014813_DXF_CONTINUOUS_LINE
  6
Continuous
 62
     0
370
    40
100
AcDbLine
 10
1677.633699987739
 20
68.27380997741535
 30
0.0
 11
1687.833699987739
 21
68.27380997741535
 31
0.0
  0
LINE
  5
27C7
330
1F
100
AcDbEntity
  8
1014813_DXF_CONTINUOUS_LINE
  6
Continuous
 62
     0
370
    40
100
AcDbLine
 10
1687.833699987739
 20
68.27380997741538
 30
0.0
 11
1687.833699987739
 21
107.0738099774153
 31
0.0
  0
LINE
  5
27C8
330
1F
100
AcDbEntity
  8
1014813_DXF_CONTINUOUS_LINE
  6
Continuous
 62
     0
370
    40
100
AcDbLine
 10
1687.833699987739
 20
119.0738099774153
 30
0.0
 11
1687.833699987739
 21
156.0738099774153
 31
0.0
  0
LINE
  5
27C9
330
1F
100
AcDbEntity
  8
0
100
AcDbLine
 10
1687.833699987739
 20
68.27380997741535
 30
0.0
 11
1685.433699987738
 21
65.87380997741535
 31
0.0
  0
LINE
  5
27CA
330
1F
100
AcDbEntity
  8
1014813_DXF_CONTINUOUS_LINE
  6
Continuous
 62
     0
370
    40
100
AcDbLine
 10
1685.433699987738
 20
65.87380997741537
 30
0.0
 11
1680.033699987738
 21
65.87380997741535
 31
0.0
  0
LINE
  5
27CB
330
1F
100
AcDbEntity
  8
1014813_DXF_CONTINUOUS_LINE
  6
Continuous
 62
     0
370
    40
100
AcDbLine
 10
1677.633699987739
 20
68.27380997741535
 30
0.0
 11
1680.033699987738
 21
65.87380997741537
 31
0.0
  0
LINE
  5
27CC
330
1F
100
AcDbEntity
  8
1014813_DXF_CONTINUOUS_LINE
  6
Continuous
 62
     0
370
    40
100
AcDbLine
 10
1680.033699987738
 20
65.87380997741537
 30
0.0
 11
1680.033699987738
 21
62.77380997741537
 31
0.0
  0
LINE
  5
27CD
330
1F
100
AcDbEntity
  8
1014813_DXF_CONTINUOUS_LINE
  6
Continuous
 62
     0
370
    40
100
AcDbLine
 10
1685.433699987738
 20
65.87380997741537
 30
0.0
 11
1685.433699987738
 21
62.77380997741537
 31
0.0
  0
LINE
  5
27CE
330
1F
100
AcDbEntity
  8
1014813_DXF_CONTINUOUS_LINE
  6
Continuous
 62
     0
370
    40
100
AcDbLine
 10
1677.633699987739
 20
156.0738099774153
 30
0.0
 11
1676.633699987738
 21
157.0738099774153
 31
0.0
  0
LINE
  5
27CF
330
1F
100
AcDbEntity
  8
1014813_DXF_CONTINUOUS_LINE
  6
Continuous
 62
     0
370
    40
100
AcDbLine
 10
1687.833699987739
 20
156.0738099774153
 30
0.0
 11
1688.833699987738
 21
157.0738099774153
 31
0.0
  0
LINE
  5
27D0
330
1F
100
AcDbEntity
  8
1014813_DXF_CONTINUOUS_LINE
  6
Continuous
 62
     0
370
    40
100
AcDbLine
 10
1677.633699987739
 20
156.0738099774153
 30
0.0
 11
1677.733699987738
 21
156.0738099774153
 31
0.0
  0
LINE
  5
27D1
330
1F
100
AcDbEntity
  8
1014813_DXF_CONTINUOUS_LINE
  6
Continuous
 62
     0
370
    40
100
AcDbLine
 10
1687.733699987738
 20
156.0738099774153
 30
0.0
 11
1687.833699987739
 21
156.0738099774153
 31
0.0
  0
LINE
  5
27D2
330
1F
100
AcDbEntity
  8
1014813_DXF_CONTINUOUS_LINE
  6
Continuous
 62
     0
370
    40
100
AcDbLine
 10
1662.733699987738
 20
62.77380997741532
 30
0.0
 11
1680.233699987739
 21
62.77380997741534
 31
0.0
  0
LINE
  5
27D3
330
1F
100
AcDbEntity
  8
1014813_DXF_CONTINUOUS_LINE
  6
Continuous
 62
     0
370
    40
100
AcDbLine
 10
1685.233699987738
 20
62.77380997741532
 30
0.0
 11
1820.817791084193
 21
62.77380997741542
 31
0.0
  0
LINE
  5
27D4
102
{ACAD_REACTORS
330
299C
102
}
330
1F
100
AcDbEntity
  8
1014813_DXF_CONTINUOUS_LINE
  6
Continuous
 62
     0
370
    40
100
AcDbLine
 10
1830.213155171342
 20
62.77380997741542
 30
0.0
 11
1957.278678194877
 21
62.77380997741552
 31
0.0
  0
LINE
  5
27D5
330
1F
100
AcDbEntity
  8
1014813_DXF_CONTINUOUS_LINE
  6
Continuous
 62
     0
370
    40
100
AcDbLine
 10
1975.278678194878
 20
62.77380997741554
 30
0.0
 11
1986.278678194878
 21
62.77380997741554
 31
0.0
  0
LINE
  5
27D8
330
1F
100
AcDbEntity
  8
1014813_DXF_CONTINUOUS_LINE
  6
Continuous
 62
     0
370
    40
100
AcDbLine
 10
1662.733699987738
 20
40.77380997741535
 30
0.0
 11
1818.343009746298
 21
40.77380997741535
 31
0.0
  0
LINE
  5
27D9
102
{ACAD_REACTORS
330
299C
102
}
330
1F
100
AcDbEntity
  8
1014813_DXF_CONTINUOUS_LINE
  6
Continuous
 62
     0
370
    40
100
AcDbLine
 10
1827.738373833448
 20
40.77380997741535
 30
0.0
 11
1986.278678194878
 21
40.77380997741535
 31
0.0
  0
ARC
  5
27DA
330
1F
100
AcDbEntity
  8
0
100
AcDbCircle
 10
1682.733699987738
 20
73.43729908745858
 30
0.0
 40
11.00000000000047
100
AcDbArc
 50
255.7913024652941
 51
256.8634412130541
  0
ARC
  5
27DB
330
1F
100
AcDbEntity
  8
0
100
AcDbCircle
 10
1682.733699987738
 20
73.43729908745858
 30
0.0
 40
11.00000000000047
100
AcDbArc
 50
283.1365587869461
 51
284.2086975347059
  0
LINE
  5
27DC
330
1F
100
AcDbEntity
  8
1014813_DXF_CONTINUOUS_LINE
  6
Continuous
 62
     0
370
    40
100
AcDbLine
 10
1687.733699987738
 20
157.3738099774153
 30
0.0
 11
1687.733699987738
 21
143.0738099774154
 31
0.0
  0
LINE
  5
27DD
330
1F
100
AcDbEntity
  8
图层7
100
AcDbLine
 10
1678.674591505201
 20
148.494305017652
 30
0.0
 11
1677.79077204772
 21
148.07371478978
 31
0.0
  0
LINE
  5
27DE
330
1F
100
AcDbEntity
  8
图层7
100
AcDbLine
 10
1678.590417848847
 20
145.8866458874257
 30
0.0
 11
1677.748684657508
 21
145.4660556595537
 31
0.0
  0
CIRCLE
  5
27E0
330
1F
100
AcDbEntity
  8
图层2
100
AcDbCircle
 10
1682.733699987738
 20
207.6900738332288
 30
0.0
 40
9.0
  0
LINE
  5
27E1
330
1F
100
AcDbEntity
  8
1014813_DXF_CONTINUOUS_LINE
  6
Continuous
 62
     0
370
    40
100
AcDbLine
 10
1946.278678194877
 20
164.0738099774153
 30
0.0
 11
1985.178678194878
 21
164.0738099774153
 31
0.0
  0
LINE
  5
27E4
330
1F
100
AcDbEntity
  8
1014813_DXF_CONTINUOUS_LINE
  6
Continuous
 62
     0
370
    40
100
AcDbLine
 10
1986.278678194878
 20
159.0738099774153
 30
0.0
 11
1986.278678194878
 21
164.0738099774153
 31
0.0
  0
ARC
  5
27E5
330
1F
100
AcDbEntity
  8
1014813_DXF_CONTINUOUS_LINE
  6
Continuous
 62
     0
370
    40
100
AcDbCircle
 10
1984.278678194877
 20
159.0738099774153
 30
0.0
 40
2.0
100
AcDbArc
 50
270.0
 51
0.0
  0
LINE
  5
27E6
330
1F
100
AcDbEntity
  8
1014813_DXF_CONTINUOUS_LINE
  6
Continuous
 62
     0
370
    40
100
AcDbLine
 10
1986.278678194878
 20
164.0738099774153
 30
0.0
 11
1985.278678194877
 21
164.0738099774153
 31
0.0
  0
LINE
  5
27E7
330
1F
100
AcDbEntity
  8
1014813_DXF_CONTINUOUS_LINE
  6
Continuous
 62
     0
370
    40
100
AcDbLine
 10
1946.278678194877
 20
159.0738099774153
 30
0.0
 11
1946.278678194877
 21
164.0738099774153
 31
0.0
  0
ARC
  5
27E9
330
1F
100
AcDbEntity
  8
1014813_DXF_CONTINUOUS_LINE
  6
Continuous
 62
     0
370
    40
100
AcDbCircle
 10
1948.278678194877
 20
159.0738099774153
 30
0.0
 40
2.0
100
AcDbArc
 50
180.0
 51
270.0
  0
LINE
  5
27EA
330
1F
100
AcDbEntity
  8
1014813_DXF_CONTINUOUS_LINE
  6
Continuous
 62
     0
370
    40
100
AcDbLine
 10
1961.278678194878
 20
157.0738099774153
 30
0.0
 11
1948.278678194877
 21
157.0738099774153
 31
0.0
  0
LINE
  5
27EB
330
1F
100
AcDbEntity
  8
1014813_DXF_CONTINUOUS_LINE
  6
Continuous
 62
     0
370
    40
100
AcDbLine
 10
1987.778678194878
 20
62.77380997741535
 30
0.0
 11
1987.778678194878
 21
40.77380997741535
 31
0.0
  0
LINE
  5
27EC
330
1F
100
AcDbEntity
  8
1014813_DXF_CONTINUOUS_LINE
  6
Continuous
 62
     0
370
    40
100
AcDbLine
 10
1975.278678194877
 20
157.0738099774153
 30
0.0
 11
1975.278678194877
 21
62.77380997741535
 31
0.0
  0
LINE
  5
27ED
330
1F
100
AcDbEntity
  8
1014813_DXF_CONTINUOUS_LINE
  6
Continuous
 62
     0
370
    40
100
AcDbLine
 10
1957.278678194877
 20
157.0738099774153
 30
0.0
 11
1957.278678194877
 21
119.0738099774153
 31
0.0
  0
LINE
  5
27EE
330
1F
100
AcDbEntity
  8
1014813_DXF_CONTINUOUS_LINE
  6
Continuous
 62
     0
370
    40
100
AcDbLine
 10
1957.278678194877
 20
107.0738099774154
 30
0.0
 11
1957.278678194877
 21
62.77380997741535
 31
0.0
  0
LINE
  5
27EF
330
1F
100
AcDbEntity
  8
1014813_DXF_CONTINUOUS_LINE
  6
Continuous
 62
     0
370
    40
100
AcDbLine
 10
1984.278678194877
 20
157.0738099774153
 30
0.0
 11
1961.278678194878
 21
157.0738099774153
 31
0.0
  0
LINE
  5
27F0
330
1F
100
AcDbEntity
  8
1014813_DXF_CONTINUOUS_LINE
  6
Continuous
 62
     0
370
    40
100
AcDbLine
 10
1986.278678194878
 20
62.77380997741554
 30
0.0
 11
1986.278678194878
 21
40.77380997741535
 31
0.0
  0
LINE
  5
27F1
330
1F
100
AcDbEntity
  8
1014813_DXF_CONTINUOUS_LINE
  6
Continuous
 62
     0
370
    40
100
AcDbLine
 10
1986.278678194878
 20
62.77380997741554
 30
0.0
 11
1987.778678194878
 21
62.77380997741535
 31
0.0
  0
LINE
  5
27F2
330
1F
100
AcDbEntity
  8
1014813_DXF_CONTINUOUS_LINE
  6
Continuous
 62
     0
370
    40
100
AcDbLine
 10
1987.778678194878
 20
40.77380997741535
 30
0.0
 11
1986.278678194878
 21
40.77380997741535
 31
0.0
  0
LINE
  5
27F3
330
1F
100
AcDbEntity
  8
1014813_DXF_CONTINUOUS_LINE
  6
Continuous
 62
     0
370
    40
100
AcDbLine
 10
1986.278678194878
 20
196.6900738332287
 30
0.0
 11
1986.278678194878
 21
218.6900738332288
 31
0.0
  0
LINE
  5
27F4
330
1F
100
AcDbEntity
  8
1014813_DXF_CONTINUOUS_LINE
  6
Continuous
 62
     0
370
    40
100
AcDbLine
 10
1987.778678194878
 20
196.6900738332287
 30
0.0
 11
1987.778678194878
 21
218.6900738332287
 31
0.0
  0
LINE
  5
27F5
330
1F
100
AcDbEntity
  8
1014813_DXF_CONTINUOUS_LINE
  6
Continuous
 62
     0
370
    40
100
AcDbLine
 10
1662.733699987738
 20
196.6900738332287
 30
0.0
 11
1662.733699987738
 21
218.6900738332288
 31
0.0
  0
LINE
  5
27F6
330
1F
100
AcDbEntity
  8
1014813_DXF_CONTINUOUS_LINE
  6
Continuous
 62
     0
370
    40
100
AcDbLine
 10
1661.233699987738
 20
196.6900738332287
 30
0.0
 11
1661.233699987738
 21
218.6900738332287
 31
0.0
  0
ARC
  5
27F7
330
1F
100
AcDbEntity
  8
1014813_DXF_CONTINUOUS_LINE
  6
Continuous
 62
     0
370
    40
100
AcDbCircle
 10
1966.278678194877
 20
207.6900738332288
 30
0.0
 40
20.0
100
AcDbArc
 50
213.3670129692327
 51
326.6329870307672
  0
ARC
  5
27F8
330
1F
100
AcDbEntity
  8
1014813_DXF_CONTINUOUS_LINE
  6
Continuous
 62
     0
370
    40
100
AcDbCircle
 10
1966.278678194877
 20
207.6900738332288
 30
0.0
 40
20.0
100
AcDbArc
 50
33.36701296923276
 51
146.6329870307672
  0
CIRCLE
  5
27FA
330
1F
100
AcDbEntity
  8
图层2
100
AcDbCircle
 10
1966.278678194877
 20
207.6900738332288
 30
0.0
 40
9.0
  0
LINE
  5
27FB
330
1F
100
AcDbEntity
  8
1014813_DXF_CONTINUOUS_LINE
  6
Continuous
 62
     0
370
    40
100
AcDbLine
 10
2015.968394490422
 20
164.0738099774154
 30
0.0
 11
2054.868394490422
 21
164.0738099774154
 31
0.0
  0
LINE
  5
27FE
330
1F
100
AcDbEntity
  8
1014813_DXF_CONTINUOUS_LINE
  6
Continuous
 62
     0
370
    40
100
AcDbLine
 10
2055.968394490422
 20
159.0738099774154
 30
0.0
 11
2055.968394490422
 21
164.0738099774153
 31
0.0
  0
ARC
  5
27FF
330
1F
100
AcDbEntity
  8
1014813_DXF_CONTINUOUS_LINE
  6
Continuous
 62
     0
370
    40
100
AcDbCircle
 10
2053.968394490422
 20
159.0738099774154
 30
0.0
 40
2.0
100
AcDbArc
 50
270.0
 51
0.0
  0
LINE
  5
2800
102
{ACAD_REACTORS
330
2963
102
}
330
1F
100
AcDbEntity
  8
1014813_DXF_CONTINUOUS_LINE
  6
Continuous
 62
     0
370
    40
100
AcDbLine
 10
2055.968394490422
 20
164.0738099774154
 30
0.0
 11
2054.968394490423
 21
164.0738099774154
 31
0.0
  0
LINE
  5
2801
330
1F
100
AcDbEntity
  8
1014813_DXF_CONTINUOUS_LINE
  6
Continuous
 62
     0
370
    40
100
AcDbLine
 10
2015.968394490422
 20
159.0738099774153
 30
0.0
 11
2015.968394490422
 21
164.0738099774153
 31
0.0
  0
ARC
  5
2803
330
1F
100
AcDbEntity
  8
0
100
AcDbCircle
 10
2017.968394490422
 20
159.0738099774154
 30
0.0
 40
2.0
100
AcDbArc
 50
180.0
 51
270.0
  0
LINE
  5
2804
330
1F
100
AcDbEntity
  8
1014813_DXF_CONTINUOUS_LINE
  6
Continuous
 62
     0
370
    40
100
AcDbLine
 10
2030.968394490423
 20
157.0738099774153
 30
0.0
 11
2017.968394490422
 21
157.0738099774153
 31
0.0
  0
ARC
  5
2806
330
1F
100
AcDbEntity
  8
1014813_DXF_CONTINUOUS_LINE
  6
Continuous
 62
     0
370
    40
100
AcDbCircle
 10
2019.568394490422
 20
162.5738099774153
 30
0.0
 40
2.5
100
AcDbArc
 50
180.0
 51
270.0
  0
LINE
  5
2807
330
1F
100
AcDbEntity
  8
1014813_DXF_CONTINUOUS_LINE
  6
Continuous
 62
     0
370
    40
100
AcDbLine
 10
2035.968394490422
 20
160.0738099774154
 30
0.0
 11
2052.368394490422
 21
160.0738099774154
 31
0.0
  0
LINE
  5
2808
330
1F
100
AcDbEntity
  8
1014813_DXF_CONTINUOUS_LINE
  6
Continuous
 62
     0
370
    40
100
AcDbLine
 10
2054.868394490422
 20
164.0738099774154
 30
0.0
 11
2017.068394490422
 21
164.0738099774154
 31
0.0
  0
LINE
  5
2809
330
1F
100
AcDbEntity
  8
图层2
100
AcDbLine
 10
2052.068394490422
 20
162.0738099774154
 30
0.0
 11
2043.868394490422
 21
162.0738099774154
 31
0.0
  0
ARC
  5
280A
330
1F
100
AcDbEntity
  8
1014813_DXF_CONTINUOUS_LINE
  6
Continuous
 62
     0
370
    40
100
AcDbCircle
 10
2052.368394490422
 20
162.5738099774153
 30
0.0
 40
2.5
100
AcDbArc
 50
270.0
 51
0.0
  0
LINE
  5
280B
330
1F
100
AcDbEntity
  8
1014813_DXF_CONTINUOUS_LINE
  6
Continuous
 62
     0
370
    40
100
AcDbLine
 10
2054.868394490422
 20
162.5738099774153
 30
0.0
 11
2054.868394490422
 21
164.0738099774154
 31
0.0
  0
LINE
  5
280C
330
1F
100
AcDbEntity
  8
图层2
100
AcDbLine
 10
2050.068394490422
 20
164.0738099774154
 30
0.0
 11
2050.068394490422
 21
162.0738099774154
 31
0.0
  0
LINE
  5
280D
330
1F
100
AcDbEntity
  8
图层2
100
AcDbLine
 10
2052.068394490422
 20
162.0738099774154
 30
0.0
 11
2052.068394490422
 21
160.0738099774154
 31
0.0
  0
HATCH
  5
280E
330
1F
100
AcDbEntity
  8
图层7
100
AcDbHatch
 10
0.0
 20
0.0
 30
0.0
210
0.0
220
0.0
230
1.0
  2
LINE
 70
     0
 71
     0
 91
        2
 92
        7
 72
     1
 73
     1
 93
       16
 10
2030.968394490422
 20
145.0238099774154
 42
0.0
 10
2030.968394490422
 20
143.0738099774154
 42
0.0
 10
2031.968394490422
 20
142.0738099774154
 42
0.0
 10
2035.968394490422
 20
142.0738099774154
 42
0.0
 10
2035.968394490422
 20
152.0738099774153
 42
-0.3786699902072361
 10
2033.983469871129
 20
153.828709476145
 42
0.0
 10
2032.718394490423
 20
164.0738099774153
 42
0.0
 10
2026.068394490422
 20
164.0738099774154
 42
0.0
 10
2026.068394490422
 20
162.0738099774154
 42
0.0
 10
2028.068394490423
 20
162.0738099774154
 42
0.0
 10
2028.068394490423
 20
160.0738099774154
 42
0.0
 10
2028.868394490423
 20
160.0738099774154
 42
0.0
 10
2028.868394490423
 20
157.3738099774154
 42
0.0
 10
2030.968394490422
 20
157.3738099774154
 42
0.0
 10
2030.968394490422
 20
149.5238099774153
 42
0.0
 10
2033.218394490422
 20
147.2738099774153
 42
0.0
 97
        0
 92
        7
 72
     1
 73
     1
 93
        7
 10
2017.068394490422
 20
164.0738099774154
 42
0.0
 10
2017.068394490422
 20
162.5738099774153
 42
0.4142135623730951
 10
2019.568394490423
 20
160.0738099774154
 42
0.0
 10
2019.868394490423
 20
160.0738099774154
 42
0.0
 10
2019.868394490423
 20
162.0738099774154
 42
0.0
 10
2021.868394490422
 20
162.0738099774154
 42
0.0
 10
2021.868394490422
 20
164.0738099774154
 42
0.0
 97
        0
 75
     0
 76
     1
 52
-150.0
 41
0.7
 77
     0
 78
     1
 53
210.0
 43
2187.492384058417
 44
351.2349131675829
 45
1.111249999999998
 46
-1.924741459910915
 79
     0
 47
0.1186004525245611
 98
        2
 10
2033.19818988214
 20
144.3149991027311
 10
2018.473775496458
 20
162.6980696595201
  0
LINE
  5
280F
330
1F
100
AcDbEntity
  8
1014813_DXF_CONTINUOUS_LINE
  6
Continuous
 62
     0
370
    40
100
AcDbLine
 10
2030.968394490422
 20
157.3738099774153
 30
0.0
 11
2030.968394490422
 21
148.8283308230153
 31
0.0
  0
LINE
  5
2810
330
1F
100
AcDbEntity
  8
1014813_DXF_CONTINUOUS_LINE
  6
Continuous
 62
     0
370
    40
100
AcDbLine
 10
2030.968394490422
 20
145.3192891318153
 30
0.0
 11
2030.968394490422
 21
143.0738099774154
 31
0.0
  0
LINE
  5
2811
330
1F
100
AcDbEntity
  8
图层2
100
AcDbLine
 10
2039.218394490422
 20
164.0738099774154
 30
0.0
 11
2037.953319109716
 21
153.828709476145
 31
0.0
  0
LINE
  5
2812
330
1F
100
AcDbEntity
  8
0
100
AcDbLine
 10
2032.718394490423
 20
164.0738099774154
 30
0.0
 11
2033.983469871129
 21
153.828709476145
 31
0.0
  0
LINE
  5
2815
330
1F
100
AcDbEntity
  8
1014813_DXF_CONTINUOUS_LINE
  6
Continuous
 62
     0
370
    40
100
AcDbLine
 10
2043.068394490422
 20
157.3738099774154
 30
0.0
 11
2035.968394490422
 21
157.3738099774153
 31
0.0
  0
LINE
  5
2817
330
1F
100
AcDbEntity
  8
图层2
100
AcDbLine
 10
2045.868394490423
 20
162.0738099774154
 30
0.0
 11
2045.868394490423
 21
164.0738099774154
 31
0.0
  0
LINE
  5
2818
330
1F
100
AcDbEntity
  8
图层2
100
AcDbLine
 10
2043.868394490422
 20
160.0738099774154
 30
0.0
 11
2043.868394490422
 21
162.0738099774154
 31
0.0
  0
LINE
  5
2819
330
1F
100
AcDbEntity
  8
1014813_DXF_CONTINUOUS_LINE
  6
Continuous
 62
     0
370
    40
100
AcDbLine
 10
2043.068394490422
 20
160.0738099774154
 30
0.0
 11
2043.068394490422
 21
157.3738099774154
 31
0.0
  0
LINE
  5
281A
330
1F
100
AcDbEntity
  8
1014813_DXF_CONTINUOUS_LINE
  6
Continuous
 62
     0
370
    40
100
AcDbLine
 10
2028.068394490423
 20
162.0738099774154
 30
0.0
 11
2019.868394490423
 21
162.0738099774154
 31
0.0
  0
LINE
  5
281B
330
1F
100
AcDbEntity
  8
1014813_DXF_CONTINUOUS_LINE
  6
Continuous
 62
     0
370
    40
100
AcDbLine
 10
2019.568394490423
 20
160.0738099774154
 30
0.0
 11
2028.868394490423
 21
160.0738099774154
 31
0.0
  0
LINE
  5
281C
330
1F
100
AcDbEntity
  8
0
100
AcDbLine
 10
2030.968394490422
 20
157.3738099774154
 30
0.0
 11
2028.868394490423
 21
157.3738099774154
 31
0.0
  0
LINE
  5
281D
330
1F
100
AcDbEntity
  8
1014813_DXF_CONTINUOUS_LINE
  6
Continuous
 62
     0
370
    40
100
AcDbLine
 10
2026.068394490422
 20
164.0738099774154
 30
0.0
 11
2026.068394490422
 21
162.0738099774154
 31
0.0
  0
LINE
  5
281E
330
1F
100
AcDbEntity
  8
1014813_DXF_CONTINUOUS_LINE
  6
Continuous
 62
     0
370
    40
100
AcDbLine
 10
2028.068394490423
 20
162.0738099774154
 30
0.0
 11
2028.068394490423
 21
160.0738099774154
 31
0.0
  0
LINE
  5
281F
330
1F
100
AcDbEntity
  8
1014813_DXF_CONTINUOUS_LINE
  6
Continuous
 62
     0
370
    40
100
AcDbLine
 10
2028.868394490423
 20
157.3738099774154
 30
0.0
 11
2028.868394490423
 21
160.0738099774154
 31
0.0
  0
LINE
  5
2820
330
1F
100
AcDbEntity
  8
1014813_DXF_CONTINUOUS_LINE
  6
Continuous
 62
     0
370
    40
100
AcDbLine
 10
2021.868394490422
 20
162.0738099774154
 30
0.0
 11
2021.868394490422
 21
164.0738099774154
 31
0.0
  0
LINE
  5
2821
330
1F
100
AcDbEntity
  8
1014813_DXF_CONTINUOUS_LINE
  6
Continuous
 62
     0
370
    40
100
AcDbLine
 10
2017.068394490422
 20
164.0738099774154
 30
0.0
 11
2017.068394490422
 21
162.5738099774153
 31
0.0
  0
LINE
  5
2822
330
1F
100
AcDbEntity
  8
1014813_DXF_CONTINUOUS_LINE
  6
Continuous
 62
     0
370
    40
100
AcDbLine
 10
2019.868394490423
 20
160.0738099774154
 30
0.0
 11
2019.868394490423
 21
162.0738099774154
 31
0.0
  0
LINE
  5
2823
330
1F
100
AcDbEntity
  8
1014813_DXF_CONTINUOUS_LINE
  6
Continuous
 62
     0
370
    40
100
AcDbLine
 10
2039.968394490422
 20
142.0738099774154
 30
0.0
 11
2031.968394490422
 21
142.0738099774154
 31
0.0
  0
ARC
  5
2824
330
1F
100
AcDbEntity
  8
图层2
100
AcDbCircle
 10
2035.968394490422
 20
154.0738099774153
 30
0.0
 40
2.0
100
AcDbArc
 50
270.0
 51
352.9606922491752
  0
ARC
  5
2826
330
1F
100
AcDbEntity
  8
0
100
AcDbCircle
 10
2035.968394490422
 20
154.0738099774153
 30
0.0
 40
2.0
100
AcDbArc
 50
187.0393077508248
 51
270.0
  0
LINE
  5
2827
330
1F
100
AcDbEntity
  8
1014813_DXF_CONTINUOUS_LINE
  6
Continuous
 62
     0
370
    40
100
AcDbLine
 10
2040.968394490422
 20
143.0738099774154
 30
0.0
 11
2035.968394490422
 21
143.0738099774154
 31
0.0
  0
LINE
  5
2828
330
1F
100
AcDbEntity
  8
1014813_DXF_CONTINUOUS_LINE
  6
Continuous
 62
     0
370
    40
100
AcDbLine
 10
2040.968394490422
 20
143.0738099774154
 30
0.0
 11
2039.968394490422
 21
142.0738099774154
 31
0.0
  0
LINE
  5
2829
330
1F
100
AcDbEntity
  8
1014813_DXF_CONTINUOUS_LINE
  6
Continuous
 62
     0
370
    40
100
AcDbLine
 10
2031.968394490422
 20
142.0738099774154
 30
0.0
 11
2030.968394490422
 21
143.0738099774154
 31
0.0
  0
HATCH
  5
282A
330
1F
100
AcDbEntity
  8
图层7
100
AcDbHatch
 10
0.0
 20
0.0
 30
0.0
210
0.0
220
0.0
230
1.0
  2
LINE
 70
     0
 71
     0
 91
        2
 92
        7
 72
     1
 73
     1
 93
        8
 10
2028.668394490422
 20
157.0738099774154
 42
0.0
 10
2028.668394490422
 20
158.0738099774154
 42
0.0
 10
2017.968394490422
 20
158.0738099774154
 42
-0.4142135623730951
 10
2016.968394490422
 20
159.0738099774154
 42
0.0
 10
2016.968394490422
 20
164.0738099774154
 42
0.0
 10
2015.968394490422
 20
164.0738099774154
 42
0.0
 10
2015.968394490422
 20
159.0738099774154
 42
0.4142135623730951
 10
2017.968394490422
 20
157.0738099774153
 42
0.0
 97
        0
 92
        7
 72
     1
 73
     1
 93
        8
 10
2053.968394490422
 20
157.0738099774153
 42
0.4142135623730994
 10
2055.968394490422
 20
159.0738099774153
 42
0.0
 10
2055.968394490422
 20
164.0738099774153
 42
0.0
 10
2054.968394490423
 20
164.0738099774153
 42
0.0
 10
2054.968394490423
 20
159.0738099774154
 42
-0.4142135623730951
 10
2053.968394490422
 20
158.0738099774154
 42
0.0
 10
2043.514319696231
 20
158.0738099774154
 42
0.0
 10
2043.514319696231
 20
157.0738099774153
 42
0.0
 97
        0
 75
     0
 76
     1
 52
44.99999999999999
 41
0.7
 77
     0
 78
     1
 53
44.99999999999999
 43
1928.31522311884
 44
-32.85151677836697
 45
-1.571544821187101
 46
1.571544821187101
 79
     0
 47
0.1554848170902332
 98
        2
 10
2020.562482765674
 20
157.4354646313578
 10
2046.404478207861
 20
157.4354646313578
  0
LINE
  5
282B
330
1F
100
AcDbEntity
  8
1014813_DXF_CONTINUOUS_LINE
  6
Continuous
 62
     0
370
    40
100
AcDbLine
 10
2016.968394490422
 20
164.0738099774154
 30
0.0
 11
2054.968394490423
 21
164.0738099774154
 31
0.0
  0
LINE
  5
282C
330
1F
100
AcDbEntity
  8
1014813_DXF_CONTINUOUS_LINE
  6
Continuous
 62
     0
370
    40
100
AcDbLine
 10
2017.968394490422
 20
158.0738099774154
 30
0.0
 11
2028.868394490423
 21
158.0738099774154
 31
0.0
  0
LINE
  5
282D
330
1F
100
AcDbEntity
  8
1014813_DXF_CONTINUOUS_LINE
  6
Continuous
 62
     0
370
    40
100
AcDbLine
 10
2017.968394490422
 20
157.0738099774153
 30
0.0
 11
2030.968394490422
 21
157.0738099774153
 31
0.0
  0
LINE
  5
282E
330
1F
100
AcDbEntity
  8
1014813_DXF_CONTINUOUS_LINE
  6
Continuous
 62
     0
370
    40
100
AcDbLine
 10
2016.968394490422
 20
159.0738099774154
 30
0.0
 11
2016.968394490422
 21
164.0738099774154
 31
0.0
  0
LINE
  5
282F
330
1F
100
AcDbEntity
  8
1014813_DXF_CONTINUOUS_LINE
  6
Continuous
 62
     0
370
    40
100
AcDbLine
 10
2015.968394490422
 20
159.0738099774154
 30
0.0
 11
2015.968394490422
 21
164.0738099774153
 31
0.0
  0
ARC
  5
2830
330
1F
100
AcDbEntity
  8
1014813_DXF_CONTINUOUS_LINE
  6
Continuous
 62
     0
370
    40
100
AcDbCircle
 10
2017.968394490422
 20
159.0738099774154
 30
0.0
 40
2.0
100
AcDbArc
 50
180.0
 51
270.0
  0
ARC
  5
2831
330
1F
100
AcDbEntity
  8
1014813_DXF_CONTINUOUS_LINE
  6
Continuous
 62
     0
370
    40
100
AcDbCircle
 10
2017.968394490422
 20
159.0738099774154
 30
0.0
 40
1.0
100
AcDbArc
 50
180.0
 51
270.0
  0
LINE
  5
2832
330
1F
100
AcDbEntity
  8
1014813_DXF_CONTINUOUS_LINE
  6
Continuous
 62
     0
370
    40
100
AcDbLine
 10
2028.668394490422
 20
157.0738099774153
 30
0.0
 11
2028.668394490422
 21
158.0738099774153
 31
0.0
  0
LINE
  5
2833
330
1F
100
AcDbEntity
  8
1014813_DXF_CONTINUOUS_LINE
  6
Continuous
 62
     0
370
    40
100
AcDbLine
 10
2015.968394490422
 20
164.0738099774154
 30
0.0
 11
2016.968394490422
 21
164.0738099774154
 31
0.0
  0
LINE
  5
2834
330
1F
100
AcDbEntity
  8
1014813_DXF_CONTINUOUS_LINE
  6
Continuous
 62
     0
370
    40
100
AcDbLine
 10
2054.968394490423
 20
159.0738099774154
 30
0.0
 11
2054.968394490423
 21
164.0738099774154
 31
0.0
  0
LINE
  5
2835
330
1F
100
AcDbEntity
  8
1014813_DXF_CONTINUOUS_LINE
  6
Continuous
 62
     0
370
    40
100
AcDbLine
 10
2055.968394490422
 20
159.0738099774153
 30
0.0
 11
2055.968394490422
 21
164.0738099774153
 31
0.0
  0
LINE
  5
2836
330
1F
100
AcDbEntity
  8
1014813_DXF_CONTINUOUS_LINE
  6
Continuous
 62
     0
370
    40
100
AcDbLine
 10
2043.514319696231
 20
157.0738099774153
 30
0.0
 11
2043.514319696231
 21
158.0738099774153
 31
0.0
  0
ARC
  5
2837
330
1F
100
AcDbEntity
  8
1014813_DXF_CONTINUOUS_LINE
  6
Continuous
 62
     0
370
    40
100
AcDbCircle
 10
2053.968394490422
 20
159.0738099774154
 30
0.0
 40
2.0
100
AcDbArc
 50
270.0
 51
0.0
  0
ARC
  5
2838
330
1F
100
AcDbEntity
  8
1014813_DXF_CONTINUOUS_LINE
  6
Continuous
 62
     0
370
    40
100
AcDbCircle
 10
2053.968394490422
 20
159.0738099774154
 30
0.0
 40
1.0
100
AcDbArc
 50
270.0
 51
0.0
  0
LINE
  5
2839
330
1F
100
AcDbEntity
  8
1014813_DXF_CONTINUOUS_LINE
  6
Continuous
 62
     0
370
    40
100
AcDbLine
 10
2054.968394490423
 20
164.0738099774153
 30
0.0
 11
2055.968394490422
 21
164.0738099774153
 31
0.0
  0
LINE
  5
283A
330
1F
100
AcDbEntity
  8
1014813_DXF_CONTINUOUS_LINE
  6
Continuous
 62
     0
370
    40
100
AcDbLine
 10
2043.068394490422
 20
158.0738099774154
 30
0.0
 11
2053.968394490422
 21
158.0738099774154
 31
0.0
  0
LINE
  5
283B
330
1F
100
AcDbEntity
  8
1014813_DXF_CONTINUOUS_LINE
  6
Continuous
 62
     0
370
    40
100
AcDbLine
 10
2040.968394490422
 20
157.0738099774153
 30
0.0
 11
2053.968394490422
 21
157.0738099774153
 31
0.0
  0
LINE
  5
283E
330
1F
100
AcDbEntity
  8
1014813_DXF_CONTINUOUS_LINE
  6
Continuous
 62
     0
370
    40
100
AcDbLine
 10
2030.868394490422
 20
156.0738099774154
 30
0.0
 11
2029.868394490423
 21
157.0738099774153
 31
0.0
  0
LINE
  5
283F
330
1F
100
AcDbEntity
  8
0
100
AcDbLine
 10
2041.068394490422
 20
156.0738099774154
 30
0.0
 11
2042.068394490422
 21
157.0738099774153
 31
0.0
  0
LINE
  5
2841
330
1F
100
AcDbEntity
  8
1014813_DXF_CONTINUOUS_LINE
  6
Continuous
 62
     0
370
    40
100
AcDbLine
 10
2030.868394490422
 20
156.0738099774154
 30
0.0
 11
2030.968394490422
 21
156.0738099774154
 31
0.0
  0
LINE
  5
2842
330
1F
100
AcDbEntity
  8
0
100
AcDbLine
 10
2040.968394490422
 20
156.0738099774154
 30
0.0
 11
2041.068394490422
 21
156.0738099774154
 31
0.0
  0
LINE
  5
2843
330
1F
100
AcDbEntity
  8
1014813_DXF_CONTINUOUS_LINE
  6
Continuous
 62
     0
370
    40
100
AcDbLine
 10
2040.968394490422
 20
157.3738099774153
 30
0.0
 11
2040.968394490422
 21
143.0738099774154
 31
0.0
  0
LINE
  5
2844
330
1F
100
AcDbEntity
  8
图层7
100
AcDbLine
 10
2035.337765947109
 20
68.27380997741537
 30
0.0
 11
2035.337765947109
 21
67.39556109092553
 31
0.0
  0
LINE
  5
2845
330
1F
100
AcDbEntity
  8
图层7
100
AcDbLine
 10
2035.337765947109
 20
67.39556109092553
 30
0.0
 11
2035.968394490422
 21
67.39556109092553
 31
0.0
  0
LINE
  5
2846
330
1F
100
AcDbEntity
  8
图层7
100
AcDbLine
 10
2036.643039326293
 20
68.27380997741537
 30
0.0
 11
2036.643039326293
 21
67.39556109092553
 31
0.0
  0
LINE
  5
2847
330
1F
100
AcDbEntity
  8
图层7
100
AcDbLine
 10
2036.643039326293
 20
67.39556109092553
 30
0.0
 11
2035.968394490422
 21
67.39556109092553
 31
0.0
  0
SPLINE
  5
2848
330
1F
100
AcDbEntity
  8
图层7
100
AcDbSpline
210
0.0
220
0.0
230
1.0
 70
  1064
 71
     3
 72
    11
 73
     7
 74
     5
 42
0.000000001
 43
0.0000000001
 44
0.0000000001
 40
0.0
 40
0.0
 40
0.0
 40
0.0
 40
1.891178409891758
 40
3.047731487490483
 40
4.612893787757799
 40
5.880697458612743
 40
5.880697458612743
 40
5.880697458612743
 40
5.880697458612743
 10
2033.753168174374
 20
68.27380997741534
 30
0.0
 10
2034.0410520495
 20
67.68143027127729
 30
0.0
 10
2034.504991753113
 20
66.72677984088739
 30
0.0
 10
2036.137866866053
 20
66.22163261795154
 30
0.0
 10
2037.348496039379
 20
67.09537307046488
 30
0.0
 10
2037.814315236197
 20
67.90948162763213
 30
0.0
 10
2038.022777778176
 20
68.27380997741537
 30
0.0
 11
2033.753168174374
 21
68.27380997741534
 31
0.0
 11
2034.853583356778
 21
66.73574554301137
 31
0.0
 11
2035.968394490422
 21
66.42783133807132
 31
0.0
 11
2037.318512600992
 21
67.21961041943848
 31
0.0
 11
2038.022777778176
 21
68.27380997741537
 31
0.0
  0
LINE
  5
2849
330
1F
100
AcDbEntity
  8
1014813_DXF_CONTINUOUS_LINE
  6
Continuous
 62
     0
370
    40
100
AcDbLine
 10
2033.468394490423
 20
65.87380997741535
 30
0.0
 11
2030.868394490422
 21
68.27380997741538
 31
0.0
  0
LINE
  5
284A
330
1F
100
AcDbEntity
  8
1014813_DXF_CONTINUOUS_LINE
  6
Continuous
 62
     0
370
    40
100
AcDbLine
 10
2038.468394490422
 20
65.87380997741537
 30
0.0
 11
2041.068394490423
 21
68.27380997741538
 31
0.0
  0
LINE
  5
284B
330
1F
100
AcDbEntity
  8
1014813_DXF_CONTINUOUS_LINE
  6
Continuous
 62
     0
370
    40
100
AcDbLine
 10
2033.968394490423
 20
57.49832787221407
 30
0.0
 11
2037.968394490422
 21
57.49832787221406
 31
0.0
  0
LINE
  5
284C
330
1F
100
AcDbEntity
  8
1014813_DXF_CONTINUOUS_LINE
  6
Continuous
 62
     0
370
    40
100
AcDbLine
 10
2033.468394490423
 20
57.99832787221408
 30
0.0
 11
2033.968394490423
 21
57.49832787221407
 31
0.0
  0
LINE
  5
284D
330
1F
100
AcDbEntity
  8
1014813_DXF_CONTINUOUS_LINE
  6
Continuous
 62
     0
370
    40
100
AcDbLine
 10
2033.468394490423
 20
57.99832787221408
 30
0.0
 11
2038.468394490422
 21
57.99832787221406
 31
0.0
  0
LINE
  5
284E
330
1F
100
AcDbEntity
  8
0
100
AcDbLine
 10
2033.02447360636
 20
147.0738099774153
 30
0.0
 11
2030.77447360636
 21
148.9938099774153
 31
0.0
  0
LINE
  5
284F
330
1F
100
AcDbEntity
  8
0
100
AcDbLine
 10
2033.02447360636
 20
147.0738099774153
 30
0.0
 11
2030.77447360636
 21
145.1538099774153
 31
0.0
  0
LINE
  5
2850
330
1F
100
AcDbEntity
  8
1014813_DXF_CONTINUOUS_LINE
  6
Continuous
 62
     0
370
    40
100
AcDbLine
 10
2027.02447360636
 20
149.5738099774153
 30
0.0
 11
2030.77447360636
 21
149.5738099774153
 31
0.0
  0
LINE
  5
2851
330
1F
100
AcDbEntity
  8
1014813_DXF_CONTINUOUS_LINE
  6
Continuous
 62
     0
370
    40
100
AcDbLine
 10
2030.77447360636
 20
144.5738099774153
 30
0.0
 11
2027.02447360636
 21
144.5738099774153
 31
0.0
  0
LINE
  5
2852
330
1F
100
AcDbEntity
  8
图层2
100
AcDbLine
 10
2027.02447360636
 20
148.9938099774153
 30
0.0
 11
2030.77447360636
 21
148.9938099774153
 31
0.0
  0
LINE
  5
2853
330
1F
100
AcDbEntity
  8
图层2
100
AcDbLine
 10
2030.77447360636
 20
145.1538099774153
 30
0.0
 11
2027.02447360636
 21
145.1538099774154
 31
0.0
  0
LINE
  5
2854
330
1F
100
AcDbEntity
  8
0
100
AcDbLine
 10
2027.02447360636
 20
149.5738099774153
 30
0.0
 11
2027.02447360636
 21
144.5738099774153
 31
0.0
  0
LINE
  5
2855
330
1F
100
AcDbEntity
  8
0
100
AcDbLine
 10
2027.02447360636
 20
148.9938099774153
 30
0.0
 11
2026.968394490422
 21
148.9938099774153
 31
0.0
  0
LINE
  5
2856
330
1F
100
AcDbEntity
  8
0
100
AcDbLine
 10
2027.02447360636
 20
145.1538099774154
 30
0.0
 11
2026.968394490423
 21
145.1538099774154
 31
0.0
  0
LINE
  5
2857
330
1F
100
AcDbEntity
  8
图层2
100
AcDbLine
 10
2027.02447360636
 20
144.5738099774153
 30
0.0
 11
2026.968394490423
 21
144.5738099774153
 31
0.0
  0
LINE
  5
2858
330
1F
100
AcDbEntity
  8
图层2
100
AcDbLine
 10
2027.02447360636
 20
149.5738099774153
 30
0.0
 11
2026.968394490422
 21
149.5738099774153
 31
0.0
  0
LINE
  5
2859
330
1F
100
AcDbEntity
  8
图层2
100
AcDbLine
 10
2027.02447360636
 20
148.3238099774153
 30
0.0
 11
2030.02447360636
 21
148.3238099774153
 31
0.0
  0
LINE
  5
285A
330
1F
100
AcDbEntity
  8
图层2
100
AcDbLine
 10
2030.02447360636
 20
148.3238099774153
 30
0.0
 11
2030.02447360636
 21
145.8238099774153
 31
0.0
  0
LINE
  5
285B
330
1F
100
AcDbEntity
  8
图层2
100
AcDbLine
 10
2030.02447360636
 20
145.8238099774153
 30
0.0
 11
2027.02447360636
 21
145.8238099774153
 31
0.0
  0
LINE
  5
285C
330
1F
100
AcDbEntity
  8
图层2
100
AcDbLine
 10
2030.02447360636
 20
147.0738099774153
 30
0.0
 11
2027.02447360636
 21
147.0738099774153
 31
0.0
  0
LINE
  5
285D
330
1F
100
AcDbEntity
  8
1014813_DXF_CONTINUOUS_LINE
  6
Continuous
 62
     0
370
    40
100
AcDbLine
 10
2030.77447360636
 20
149.5738099774153
 30
0.0
 11
2030.77447360636
 21
144.5738099774153
 31
0.0
  0
LINE
  5
285E
330
1F
100
AcDbEntity
  8
图层2
100
AcDbLine
 10
2030.77447360636
 20
149.5738099774153
 30
0.0
 11
2030.968394490422
 21
149.5738099774153
 31
0.0
  0
LINE
  5
285F
330
1F
100
AcDbEntity
  8
图层2
100
AcDbLine
 10
2030.77447360636
 20
144.5738099774153
 30
0.0
 11
2030.968394490422
 21
144.5738099774153
 31
0.0
  0
LINE
  5
2860
330
1F
100
AcDbEntity
  8
1014813_DXF_CONTINUOUS_LINE
  6
Continuous
 62
     0
370
    40
100
AcDbLine
 10
1685.233699987738
 20
65.87380997741537
 30
0.0
 11
1685.233699987738
 21
57.99832787221406
 31
0.0
  0
LINE
  5
2861
330
1F
100
AcDbEntity
  8
1014813_DXF_CONTINUOUS_LINE
  6
Continuous
 62
     0
370
    40
100
AcDbLine
 10
1684.733699987738
 20
57.49832787221406
 30
0.0
 11
1685.233699987738
 21
57.99832787221406
 31
0.0
  0
LINE
  5
2862
330
1F
100
AcDbEntity
  8
1014813_DXF_CONTINUOUS_LINE
  6
Continuous
 62
     0
370
    40
100
AcDbLine
 10
1680.233699987738
 20
65.87380997741535
 30
0.0
 11
1680.233699987739
 21
57.99832787221408
 31
0.0
  0
LINE
  5
2863
330
1F
100
AcDbEntity
  8
图层2
100
AcDbLine
 10
1684.733699987739
 20
65.87380997741539
 30
0.0
 11
1684.733699987739
 21
57.99832787221408
 31
0.0
  0
LINE
  5
2864
330
1F
100
AcDbEntity
  8
图层2
100
AcDbLine
 10
1680.733699987738
 20
65.87380997741537
 30
0.0
 11
1680.733699987738
 21
57.99832787221409
 31
0.0
  0
LINE
  5
2865
330
1F
100
AcDbEntity
  8
1014813_DXF_CONTINUOUS_LINE
  6
Continuous
 62
     0
370
    40
100
AcDbLine
 10
1677.633699987739
 20
68.27380997741535
 30
0.0
 11
1687.833699987739
 21
68.27380997741535
 31
0.0
  0
LINE
  5
2866
330
1F
100
AcDbEntity
  8
1014813_DXF_CONTINUOUS_LINE
  6
Continuous
 62
     0
370
    40
100
AcDbLine
 10
1682.103071444424
 20
68.27380997741537
 30
0.0
 11
1682.103071444424
 21
67.39556109092553
 31
0.0
  0
LINE
  5
2867
330
1F
100
AcDbEntity
  8
1014813_DXF_CONTINUOUS_LINE
  6
Continuous
 62
     0
370
    40
100
AcDbLine
 10
1682.103071444424
 20
67.39556109092553
 30
0.0
 11
1682.733699987738
 21
67.39556109092553
 31
0.0
  0
LINE
  5
2868
330
1F
100
AcDbEntity
  8
1014813_DXF_CONTINUOUS_LINE
  6
Continuous
 62
     0
370
    40
100
AcDbLine
 10
1683.408344823609
 20
68.27380997741537
 30
0.0
 11
1683.408344823609
 21
67.39556109092553
 31
0.0
  0
LINE
  5
2869
330
1F
100
AcDbEntity
  8
1014813_DXF_CONTINUOUS_LINE
  6
Continuous
 62
     0
370
    40
100
AcDbLine
 10
1683.408344823609
 20
67.39556109092553
 30
0.0
 11
1682.733699987738
 21
67.39556109092553
 31
0.0
  0
SPLINE
  5
286A
330
1F
100
AcDbEntity
  8
图层7
100
AcDbSpline
210
0.0
220
0.0
230
1.0
 70
  1064
 71
     3
 72
    11
 73
     7
 74
     5
 42
0.000000001
 43
0.0000000001
 44
0.0000000001
 40
0.0
 40
0.0
 40
0.0
 40
0.0
 40
1.891178409891758
 40
3.047731487490483
 40
4.612893787757799
 40
5.880697458612743
 40
5.880697458612743
 40
5.880697458612743
 40
5.880697458612743
 10
1680.51847367169
 20
68.27380997741534
 30
0.0
 10
1680.806357546816
 20
67.68143027127729
 30
0.0
 10
1681.270297250429
 20
66.72677984088739
 30
0.0
 10
1682.903172363369
 20
66.22163261795154
 30
0.0
 10
1684.113801536695
 20
67.09537307046488
 30
0.0
 10
1684.579620733513
 20
67.90948162763213
 30
0.0
 10
1684.788083275492
 20
68.27380997741537
 30
0.0
 11
1680.51847367169
 21
68.27380997741534
 31
0.0
 11
1681.618888854093
 21
66.73574554301137
 31
0.0
 11
1682.733699987738
 21
66.42783133807132
 31
0.0
 11
1684.083818098307
 21
67.21961041943848
 31
0.0
 11
1684.788083275492
 21
68.27380997741537
 31
0.0
  0
LINE
  5
286B
330
1F
100
AcDbEntity
  8
1014813_DXF_CONTINUOUS_LINE
  6
Continuous
 62
     0
370
    40
100
AcDbLine
 10
1680.733699987738
 20
57.49832787221407
 30
0.0
 11
1684.733699987738
 21
57.49832787221406
 31
0.0
  0
LINE
  5
286C
330
1F
100
AcDbEntity
  8
1014813_DXF_CONTINUOUS_LINE
  6
Continuous
 62
     0
370
    40
100
AcDbLine
 10
1680.233699987739
 20
57.99832787221408
 30
0.0
 11
1680.733699987738
 21
57.49832787221407
 31
0.0
  0
LINE
  5
286D
330
1F
100
AcDbEntity
  8
1014813_DXF_CONTINUOUS_LINE
  6
Continuous
 62
     0
370
    40
100
AcDbLine
 10
1680.233699987739
 20
57.99832787221408
 30
0.0
 11
1685.233699987738
 21
57.99832787221406
 31
0.0
  0
SPLINE
  5
286E
330
1F
100
AcDbEntity
  8
图层7
100
AcDbSpline
210
0.0
220
0.0
230
1.0
 70
     8
 71
     3
 72
    12
 73
     8
 74
     0
 42
0.000000001
 43
0.0000000001
 40
3.683317529891537
 40
3.683317529891537
 40
3.683317529891537
 40
3.683317529891537
 40
4.323708967546657
 40
13.58945614268429
 40
20.25835418724443
 40
27.66197451943885
 40
28.31376872392781
 40
28.31376872392781
 40
28.31376872392781
 40
28.31376872392781
 10
1695.976605288438
 20
62.77380997741534
 30
0.0
 10
1696.055493052725
 20
62.57211367622719
 30
0.0
 10
1697.402692732288
 20
59.47690017114232
 30
0.0
 10
1703.512228965685
 20
55.05152812734653
 30
0.0
 10
1695.856753406657
 20
47.53454354746618
 30
0.0
 10
1700.521405450542
 20
43.44766862314172
 30
0.0
 10
1701.829122416278
 20
40.97525375972314
 30
0.0
 10
1701.927616863214
 20
40.77380997741535
 30
0.0
  0
SPLINE
  5
286F
330
1F
100
AcDbEntity
  8
图层7
100
AcDbSpline
210
0.0
220
0.0
230
1.0
 70
     8
 71
     3
 72
    11
 73
     7
 74
     0
 42
0.000000001
 43
0.0000000001
 40
4.473476290692131
 40
4.473476290692131
 40
4.473476290692131
 40
4.473476290692131
 40
8.998754987532846
 40
16.43016729323357
 40
25.51571442141013
 40
28.24663945182436
 40
28.24663945182436
 40
28.24663945182436
 40
28.24663945182436
 10
1820.817791084193
 20
62.77380997741542
 30
0.0
 10
1820.950840934643
 20
61.24865362479065
 30
0.0
 10
1820.663982147578
 20
57.35336319663852
 30
0.0
 10
1814.187710393566
 20
51.75601718533589
 30
0.0
 10
1819.722387020282
 20
44.81380737366234
 30
0.0
 10
1818.743153816116
 20
41.50158701213658
 30
0.0
 10
1818.343009746298
 20
40.77380997741535
 30
0.0
  0
SPLINE
  5
2870
330
1F
100
AcDbEntity
  8
图层7
100
AcDbSpline
210
0.0
220
0.0
230
1.0
 70
     8
 71
     3
 72
    11
 73
     7
 74
     0
 42
0.000000001
 43
0.0000000001
 40
4.473476290692131
 40
4.473476290692131
 40
4.473476290692131
 40
4.473476290692131
 40
8.998754987532846
 40
16.43016729323357
 40
25.51571442141013
 40
28.24663945182436
 40
28.24663945182436
 40
28.24663945182436
 40
28.24663945182436
 10
1830.213155171343
 20
62.77380997741542
 30
0.0
 10
1830.346205021792
 20
61.24865362479065
 30
0.0
 10
1830.059346234728
 20
57.35336319663852
 30
0.0
 10
1823.583074480715
 20
51.75601718533589
 30
0.0
 10
1829.117751107432
 20
44.81380737366234
 30
0.0
 10
1828.138517903266
 20
41.50158701213658
 30
0.0
 10
1827.738373833448
 20
40.77380997741535
 30
0.0
  0
SPLINE
  5
2871
330
1F
100
AcDbEntity
  8
图层7
100
AcDbSpline
210
0.0
220
0.0
230
1.0
 70
     8
 71
     3
 72
    11
 73
     7
 74
     0
 42
0.000000001
 43
0.0000000001
 40
4.473476290692131
 40
4.473476290692131
 40
4.473476290692131
 40
4.473476290692131
 40
8.998754987532846
 40
16.43016729323357
 40
25.51571442141013
 40
28.24663945182436
 40
28.24663945182436
 40
28.24663945182436
 40
28.24663945182436
 10
1820.817791084193
 20
218.6900738332288
 30
0.0
 10
1820.950840934643
 20
217.164917480604
 30
0.0
 10
1820.663982147578
 20
213.2696270524519
 30
0.0
 10
1814.187710393566
 20
207.6722810411492
 30
0.0
 10
1819.722387020282
 20
200.7300712294757
 30
0.0
 10
1818.743153816116
 20
197.4178508679499
 30
0.0
 10
1818.343009746298
 20
196.6900738332287
 30
0.0
  0
SPLINE
  5
2872
330
1F
100
AcDbEntity
  8
图层7
100
AcDbSpline
210
0.0
220
0.0
230
1.0
 70
     8
 71
     3
 72
    11
 73
     7
 74
     0
 42
0.000000001
 43
0.0000000001
 40
4.473476290692131
 40
4.473476290692131
 40
4.473476290692131
 40
4.473476290692131
 40
8.998754987532846
 40
16.43016729323357
 40
25.51571442141013
 40
28.24663945182436
 40
28.24663945182436
 40
28.24663945182436
 40
28.24663945182436
 10
1830.213155171342
 20
218.6900738332288
 30
0.0
 10
1830.346205021792
 20
217.164917480604
 30
0.0
 10
1830.059346234728
 20
213.2696270524519
 30
0.0
 10
1823.583074480715
 20
207.6722810411492
 30
0.0
 10
1829.117751107432
 20
200.7300712294757
 30
0.0
 10
1828.138517903266
 20
197.4178508679499
 30
0.0
 10
1827.738373833448
 20
196.6900738332287
 30
0.0
  0
LINE
  5
2873
330
1F
100
AcDbEntity
  8
1014813_DXF_CONTINUOUS_LINE
  6
Continuous
 62
     0
370
    40
100
AcDbLine
 10
1677.433699987738
 20
119.0738099774153
 30
0.0
 11
1821.508479007786
 21
119.0738099774153
 31
0.0
  0
LINE
  5
2874
330
1F
100
AcDbEntity
  8
1014813_DXF_CONTINUOUS_LINE
  6
Continuous
 62
     0
370
    40
100
AcDbLine
 10
1827.114354718533
 20
119.0738099774153
 30
0.0
 11
1957.278678194877
 21
119.0738099774153
 31
0.0
  0
LINE
  5
2875
330
1F
100
AcDbEntity
  8
1014813_DXF_CONTINUOUS_LINE
  6
Continuous
 62
     0
370
    40
100
AcDbLine
 10
1677.433699987738
 20
107.0738099774153
 30
0.0
 11
1822.336735459107
 21
107.0738099774153
 31
0.0
  0
LINE
  5
2876
102
{ACAD_REACTORS
330
29C1
102
}
330
1F
100
AcDbEntity
  8
1014813_DXF_CONTINUOUS_LINE
  6
Continuous
 62
     0
370
    40
100
AcDbLine
 10
1827.989530016429
 20
107.0738099774153
 30
0.0
 11
1957.278678194877
 21
107.0738099774153
 31
0.0
  0
LINE
  5
2877
330
1F
100
AcDbEntity
  8
1014813_DXF_CONTINUOUS_LINE
  6
Continuous
 62
     0
370
    40
100
AcDbLine
 10
1677.433699987738
 20
119.0738099774153
 30
0.0
 11
1677.433699987738
 21
107.0738099774153
 31
0.0
  0
CIRCLE
  5
2878
102
{ACAD_REACTORS
330
2984
102
}
330
1F
100
AcDbEntity
  8
1014813_DXF_CONTINUOUS_LINE
  6
Continuous
 62
     0
370
    40
100
AcDbCircle
 10
2035.968394490422
 20
113.0738099774152
 30
0.0
 40
6.099999999999999
  0
ARC
  5
2879
330
1F
100
AcDbEntity
  8
1014813_DXF_CONTINUOUS_LINE
  6
Continuous
 62
     0
370
    40
100
AcDbCircle
 10
1950.570474262378
 20
113.0738099774153
 30
0.0
 40
8.999999999999984
100
AcDbArc
 50
318.1896851042231
 51
41.81031489577688
  0
SPLINE
  5
287A
330
1F
100
AcDbEntity
  8
图层7
100
AcDbSpline
210
0.0
220
0.0
230
1.0
 70
     8
 71
     3
 72
    10
 73
     6
 74
     0
 42
0.000000001
 43
0.0000000001
 40
4.022355232305086
 40
4.022355232305086
 40
4.022355232305086
 40
4.022355232305086
 40
8.174654316450759
 40
13.58568747649603
 40
16.48163008940755
 40
16.48163008940755
 40
16.48163008940755
 40
16.48163008940755
 10
1821.508479007786
 20
119.0738099774153
 30
0.0
 10
1821.191096625825
 20
117.7103595129257
 30
0.0
 10
1820.899524417879
 20
114.5809000409756
 30
0.0
 10
1823.199181764875
 20
110.5694004376833
 30
0.0
 10
1822.671371236371
 20
107.9731700178095
 30
0.0
 10
1822.336735459112
 20
107.0738099774278
 30
0.0
  0
SPLINE
  5
287B
330
1F
100
AcDbEntity
  8
图层7
100
AcDbSpline
210
0.0
220
0.0
230
1.0
 70
     8
 71
     3
 72
    10
 73
     6
 74
     0
 42
0.000000001
 43
0.0000000001
 40
3.15131622791782
 40
3.15131622791782
 40
3.15131622791782
 40
3.15131622791782
 40
8.174654316450759
 40
13.58568747649603
 40
15.56203744703606
 40
15.56203744703606
 40
15.56203744703606
 40
15.56203744703606
 10
1827.114354718533
 20
119.0738099774153
 30
0.0
 10
1826.644045134482
 20
117.4222303643958
 30
0.0
 10
1826.121526359509
 20
114.0027312569857
 30
0.0
 10
1828.412221970642
 20
110.0068644173773
 30
0.0
 10
1828.145745014715
 20
107.6903259107837
 30
0.0
 10
1827.98953001643
 20
107.0738099774195
 30
0.0
  0
DIMENSION
  5
287C
330
1F
100
AcDbEntity
  8
图层7
100
AcDbDimension
280
     0
  2
*D7
 10
1966.278678194877
 20
248.8782204294093
 30
0.0
 11
1824.506189091308
 21
253.6318016026699
 31
0.0
 70
    32
  1
655
 71
     5
 42
283.5449782071391
 73
     0
 74
     0
 75
     0
  3
ISO-25
100
AcDbAlignedDimension
 13
1682.733699987738
 23
227.6900738332288
 33
0.0
 14
1966.278678194877
 24
227.6900738332288
 34
0.0
100
AcDbRotatedDimension
  0
DIMENSION
  5
287D
330
1F
100
AcDbEntity
  8
图层7
100
AcDbDimension
280
     0
  2
*D8
 10
1986.278678194878
 20
259.5013687906153
 30
0.0
 11
1824.506189091308
 21
264.2549499638759
 31
0.0
 70
    32
  1
695
 71
     5
 42
323.5449782071394
 73
     0
 74
     0
 75
     0
  3
ISO-25
100
AcDbAlignedDimension
 13
1662.733699987738
 23
218.6900738332288
 33
0.0
 14
1986.278678194878
 24
218.6900738332279
 34
0.0
100
AcDbRotatedDimension
  0
DIMENSION
  5
287E
330
1F
100
AcDbEntity
  8
图层7
100
AcDbDimension
280
     0
  2
*D9
 10
1987.778678194878
 20
270.2550071368416
 30
0.0
 11
1824.506189091308
 21
275.0085883101022
 31
0.0
 70
    32
  1
698
 71
     5
 42
326.5449782071394
 73
     0
 74
     0
 75
     0
  3
ISO-25
100
AcDbAlignedDimension
 13
1661.233699987738
 23
218.6900738332287
 33
0.0
 14
1987.778678194878
 24
218.6900738332287
 34
0.0
100
AcDbRotatedDimension
  0
LINE
  5
2905
330
1F
100
AcDbEntity
  8
0
100
AcDbLine
 10
2035.968394490422
 20
142.0738099774154
 30
0.0
 11
2035.968394490422
 21
164.0738099774153
 31
0.0
  0
LINE
  5
2910
330
1F
100
AcDbEntity
  8
0
100
AcDbLine
 10
1682.733699987738
 20
142.0738099774153
 30
0.0
 11
1682.733699987738
 21
164.0738099774153
 31
0.0
  0
HATCH
  5
292E
330
1F
100
AcDbEntity
  8
图层7
100
AcDbHatch
 10
0.0
 20
0.0
 30
0.0
210
0.0
220
0.0
230
1.0
  2
ANSI31
 70
     0
 71
     0
 91
        3
 92
        7
 72
     0
 73
     1
 93
        6
 10
2030.868394490422
 20
156.0738099774153
 10
2029.868394490423
 20
157.0738099774153
 10
2026.968394490422
 20
157.0738099774153
 10
2026.968394490422
 20
149.5738099774153
 10
2027.02447360636
 20
149.5738099774153
 10
2030.868394490423
 20
149.5738099774154
 97
        0
 92
        7
 72
     1
 73
     1
 93
       10
 10
2030.868394490423
 20
144.5738099774153
 42
0.0
 10
2030.77447360636
 20
144.5738099774153
 42
0.0
 10
2026.968394490422
 20
144.5738099774153
 42
0.0
 10
2026.968394490422
 20
58.09836529775207
 42
-0.1794532107407327
 10
2033.268394490423
 20
62.43729908745804
 42
0.0
 10
2033.268394490423
 20
65.87380997741529
 42
0.0
 10
2030.868394490422
 20
68.27380997741527
 42
0.0
 10
2030.868394490422
 20
109.7271698712788
 42
-0.1462097331782995
 10
2029.868394490423
 20
113.0738099774152
 42
-0.1462097331782995
 10
2030.868394490422
 20
116.4204500835517
 42
0.0
 97
        0
 92
        7
 72
     1
 73
     1
 93
       10
 10
2044.968394490422
 20
157.0738099774153
 42
0.0
 10
2042.068394490422
 20
157.0738099774153
 42
0.0
 10
2041.068394490423
 20
156.0738099774155
 42
0.0
 10
2041.068394490423
 20
116.4204500835513
 42
-0.1462097331782823
 10
2042.068394490422
 20
113.0738099774152
 42
-0.1462097331782823
 10
2041.068394490423
 20
109.7271698712791
 42
0.0
 10
2041.068394490423
 20
68.27380997741517
 42
0.0
 10
2038.668394490423
 20
65.87380997741589
 42
0.0
 10
2038.668394490422
 20
62.43729908745804
 42
-0.179453210740728
 10
2044.968394490422
 20
58.09836529775207
 42
0.0
 97
        0
 75
     0
 76
     1
 52
90.0
 41
0.5
 77
     0
 78
     1
 53
135.0
 43
0.0
 44
0.0
 45
-1.122532015133644
 46
-1.122532015133643
 79
     0
 47
0.2384367377785203
 98
        3
 10
2028.568719258144
 20
152.3363654235982
 10
2028.807369883566
 20
140.1760915554648
 10
2043.12653106213
 20
95.34998362456645
1001
ACAD
1010
0.0
1020
0.0
1030
0.0
  0
DIMENSION
  5
294C
102
{ACAD_XDICTIONARY
360
2959
102
}
102
{ACAD_REACTORS
330
2963
102
}
330
1F
100
AcDbEntity
  8
图层4
100
AcDbDimension
280
     0
  2
*D10
 10
2071.183778892014
 20
40.77380997741531
 30
0.0
 11
2066.428066068003
 21
102.4238099774156
 31
0.0
 70
    32
 71
     5
 42
123.3
 73
     0
 74
     0
 75
     0
  3
ISO-25
100
AcDbAlignedDimension
 13
2055.968394490422
 23
164.0738099774154
 33
0.0
 14
2035.968394490422
 24
40.77380997741532
 34
0.0
 50
90.0
100
AcDbRotatedDimension
  0
DIMENSION
  5
296D
102
{ACAD_XDICTIONARY
360
297A
102
}
102
{ACAD_REACTORS
330
2984
102
}
330
1F
100
AcDbEntity
  8
图层4
100
AcDbDimension
280
     0
  2
*D11
 10
2059.564044222234
 20
113.0738099774152
 30
0.0
 11
2054.810463048974
 21
138.5738099774156
 31
0.0
 70
    32
 71
     5
 42
51.00000000000012
 73
     0
 74
     0
 75
     0
  3
ISO-25
100
AcDbAlignedDimension
 13
2055.968394490422
 23
164.0738099774154
 33
0.0
 14
2035.968394490422
 24
113.0738099774152
 34
0.0
 50
90.0
100
AcDbRotatedDimension
  0
DIMENSION
  5
2985
102
{ACAD_XDICTIONARY
360
2992
102
}
102
{ACAD_REACTORS
330
299C
102
}
330
1F
100
AcDbEntity
  8
图层4
100
AcDbDimension
280
     0
  2
*D12
 10
1877.299757129061
 20
62.77380997741546
 30
0.0
 11
1872.371380594272
 21
51.77380997741571
 31
0.0
 70
    32
  1
%%C<>
 71
     5
 42
22.00000000000011
 73
     0
 74
     0
 75
     0
  3
ISO-25
100
AcDbAlignedDimension
 13
1877.299757129061
 23
40.77380997741535
 33
0.0
 14
1877.299757129061
 24
62.77380997741546
 34
0.0
 50
90.0
100
AcDbRotatedDimension
  0
DIMENSION
  5
29A6
102
{ACAD_XDICTIONARY
360
29B5
102
}
102
{ACAD_REACTORS
330
29C1
102
}
330
1F
100
AcDbEntity
  8
图层4
100
AcDbDimension
280
     0
  2
*D13
 10
1879.827507104296
 20
119.0738099774153
 30
0.0
 11
1874.899130569508
 21
140.9807847386707
 31
0.0
 70
    32
  1
%%C<>
 71
     5
 42
11.99999999999997
 73
     0
 74
     0
 75
     0
  3
ISO-25
100
AcDbAlignedDimension
 13
1879.827507104296
 23
107.0738099774153
 33
0.0
 14
1879.827507104296
 24
119.0738099774153
 34
0.0
 50
90.0
100
AcDbRotatedDimension
  0
ENDSEC
  0
SECTION
  2
OBJECTS
  0
DICTIONARY
  5
C
330
0
100
AcDbDictionary
281
     1
  3
ACAD_CIP_PREVIOUS_PRODUCT_INFO
350
2E0C
  3
ACAD_COLOR
350
6B
  3
ACAD_DETAILVIEWSTYLE
350
2E02
  3
ACAD_GROUP
350
D
  3
ACAD_LAYOUT
350
1A
  3
ACAD_MATERIAL
350
6A
  3
ACAD_MLEADERSTYLE
350
2DFD
  3
ACAD_MLINESTYLE
350
17
  3
ACAD_PLOTSETTINGS
350
19
  3
ACAD_PLOTSTYLENAME
350
E
  3
ACAD_SCALELIST
350
2DEB
  3
ACAD_SECTIONVIEWSTYLE
350
2DFF
  3
ACAD_TABLESTYLE
350
7E
  3
ACAD_VISUALSTYLE
350
2DD2
  3
AcadDim
350
C99
  3
ACDB_RECOMPOSE_DATA
350
2E3D
  3
AcDbVariableDictionary
350
5E
  3
ASE_INDEX_DICTIONARY
350
445
  0
DICTIONARY
  5
EC4
330
2
100
AcDbDictionary
280
     1
281
     1
  3
ACAD_LAYERFILTERS
360
EC6
  3
ACLYDICTIONARY
360
EC5
  0
DICTIONARY
  5
2E0D
330
10
100
AcDbDictionary
280
     1
281
     1
  3
ADSK_XREC_LAYER_RECONCILED
360
2E0E
  0
DICTIONARY
  5
2E0F
330
F2
100
AcDbDictionary
280
     1
281
     1
  3
ADSK_XREC_LAYER_RECONCILED
360
2E10
  0
DICTIONARY
  5
2E11
330
F3
100
AcDbDictionary
280
     1
281
     1
  3
ADSK_XREC_LAYER_RECONCILED
360
2E12
  0
DICTIONARY
  5
2E13
330
271
100
AcDbDictionary
280
     1
281
     1
  3
ADSK_XREC_LAYER_RECONCILED
360
2E14
  0
DICTIONARY
  5
2E15
330
272
100
AcDbDictionary
280
     1
281
     1
  3
ADSK_XREC_LAYER_RECONCILED
360
2E16
  0
DICTIONARY
  5
2E17
330
273
100
AcDbDictionary
280
     1
281
     1
  3
ADSK_XREC_LAYER_RECONCILED
360
2E18
  0
DICTIONARY
  5
2E19
330
2223
100
AcDbDictionary
280
     1
281
     1
  3
ADSK_XREC_LAYER_RECONCILED
360
2E1A
  0
DICTIONARY
  5
2E1B
330
2224
100
AcDbDictionary
280
     1
281
     1
  3
ADSK_XREC_LAYER_RECONCILED
360
2E1C
  0
DICTIONARY
  5
2E1D
330
2225
100
AcDbDictionary
280
     1
281
     1
  3
ADSK_XREC_LAYER_RECONCILED
360
2E1E
  0
DICTIONARY
  5
2E1F
330
2AC0
100
AcDbDictionary
280
     1
281
     1
  3
ADSK_XREC_LAYER_RECONCILED
360
2E20
  0
DICTIONARY
  5
22F
330
1F
100
AcDbDictionary
280
     1
281
     1
  3
ACAD_SORTENTS
360
230
  0
DICTIONARY
  5
2959
330
294C
100
AcDbDictionary
280
     1
281
     1
  3
ACAD_DIMASSOC
360
2963
  0
DICTIONARY
  5
297A
330
296D
100
AcDbDictionary
280
     1
281
     1
  3
ACAD_DIMASSOC
360
2984
  0
DICTIONARY
  5
2992
330
2985
100
AcDbDictionary
280
     1
281
     1
  3
ACAD_DIMASSOC
360
299C
  0
DICTIONARY
  5
29B5
330
29A6
100
AcDbDictionary
280
     1
281
     1
  3
ACAD_DIMASSOC
360
29C1
  0
XRECORD
  5
2E0C
102
{ACAD_REACTORS
330
C
102
}
330
C
100
AcDbXrecord
280
     1
300
ACD
300
2017
300
ACD_F_S
  0
DICTIONARY
  5
6B
102
{ACAD_REACTORS
330
C
102
}
330
C
100
AcDbDictionary
281
     1
  0
DICTIONARY
  5
2E02
102
{ACAD_REACTORS
330
C
102
}
330
C
100
AcDbDictionary
281
     1
  3
Metric50
350
2E03
  0
DICTIONARY
  5
D
102
{ACAD_REACTORS
330
C
102
}
330
C
100
AcDbDictionary
281
     1
  0
DICTIONARY
  5
1A
102
{ACAD_REACTORS
330
C
102
}
330
C
100
AcDbDictionary
281
     1
  3
Model
350
22
  3
布局1
350
D3
  3
布局2
350
D7
1001
AcadStringInfo
1000
MIFCodePage
1070
     5
  0
DICTIONARY
  5
6A
102
{ACAD_REACTORS
330
C
102
}
330
C
100
AcDbDictionary
281
     1
  3
ByBlock
350
2DC2
  3
ByLayer
350
2DBA
  3
Global
350
2DCA
  0
DICTIONARY
  5
2DFD
102
{ACAD_REACTORS
330
C
102
}
330
C
100
AcDbDictionary
281
     1
  3
Standard
350
2DFE
  0
DICTIONARY
  5
17
102
{ACAD_REACTORS
330
C
102
}
330
C
100
AcDbDictionary
281
     1
  3
Standard
350
18
  0
DICTIONARY
  5
19
102
{ACAD_REACTORS
330
C
102
}
330
C
100
AcDbDictionary
281
     1
  0
ACDBDICTIONARYWDFLT
  5
E
102
{ACAD_REACTORS
330
C
102
}
330
C
100
AcDbDictionary
281
     1
  3
Normal
350
F
100
AcDbDictionaryWithDefault
340
F
  0
DICTIONARY
  5
2DEB
102
{ACAD_REACTORS
330
C
102
}
330
C
100
AcDbDictionary
281
     1
  3
A0
350
2DEC
  3
A1
350
2DED
  3
A2
350
2DEE
  3
A3
350
2DEF
  3
A4
350
2DF0
  3
A5
350
2DF1
  3
A6
350
2DF2
  3
A7
350
2DF3
  3
A8
350
2DF4
  3
A9
350
2DF5
  3
B0
350
2DF6
  3
B1
350
2DF7
  3
B2
350
2DF8
  3
B3
350
2DF9
  3
B4
350
2DFA
  3
B5
350
2DFB
  3
B6
350
2DFC
  0
DICTIONARY
  5
2DFF
102
{ACAD_REACTORS
330
C
102
}
330
C
100
AcDbDictionary
281
     1
  3
Metric50
350
2E01
  0
DICTIONARY
  5
7E
102
{ACAD_REACTORS
330
C
102
}
330
C
100
AcDbDictionary
281
     1
  3
Standard
350
7F
  0
DICTIONARY
  5
2DD2
102
{ACAD_REACTORS
330
C
102
}
330
C
100
AcDbDictionary
281
     1
  3
2dWireframe
350
2DD8
  3
Basic
350
2DD7
  3
Brighten
350
2DDE
  3
ColorChange
350
2DE2
  3
Conceptual
350
2DDB
  3
Dim
350
2DDD
  3
EdgeColorOff
350
2DEA
  3
Facepattern
350
2DE1
  3
Flat
350
2DD3
  3
FlatWithEdges
350
2DD4
  3
Gouraud
350
2DD5
  3
GouraudWithEdges
350
2DD6
  3
Hidden
350
2DDA
  3
JitterOff
350
2DE8
  3
Linepattern
350
2DE0
  3
OverhangOff
350
2DE9
  3
Realistic
350
2DDC
  3
Shaded
350
2DE7
  3
Shaded with edges
350
2DE6
  3
Shades of Gray
350
2DE3
  3
Sketchy
350
2DE4
  3
Thicken
350
2DDF
  3
Wireframe
350
2DD9
  3
X-Ray
350
2DE5
  0
XRECORD
  5
C99
102
{ACAD_REACTORS
330
C
102
}
330
C
100
AcDbXrecord
280
     1
 90
   990106
  3

 60
     0
 61
     0
 62
     1
 63
     3
 64
     0
 65
     0
 66
     0
 67
     3
 68
     1
 69
     0
 70
     0
 71
     0
 72
     0
 40
0.0
170
     0
  0
XRECORD
  5
2E3D
102
{ACAD_REACTORS
330
C
102
}
330
C
100
AcDbXrecord
280
     1
 90
        1
330
7F
330
2E01
330
2E03
  0
DICTIONARY
  5
5E
102
{ACAD_REACTORS
330
C
102
}
330
C
100
AcDbDictionary
281
     1
  3
CANNOSCALE
350
2E33
  3
CMLEADERSTYLE
350
2E2F
  3
CTABLESTYLE
350
84
  3
CVIEWDETAILSTYLE
350
2E30
  3
CVIEWSECTIONSTYLE
350
2E31
  3
DIMASSOC
350
5F
  3
HIDETEXT
350
63
  3
LAYEREVAL
350
2E35
  3
LAYERNOTIFY
350
2E36
  3
LIGHTINGUNITS
350
2E34
  3
MSLTSCALE
350
2E32
  3
PROJECTNAME
350
482
  0
DICTIONARY
  5
445
102
{ACAD_REACTORS
330
C
102
}
330
C
100
AcDbDictionary
281
     1
  3
ASEBlockHierarchyIndexRecord
350
446
1001
DCO15
1040
1643103082.297
  0
DICTIONARY
  5
EC6
102
{ACAD_REACTORS
330
EC4
102
}
330
EC4
100
AcDbDictionary
281
     1
  0
DICTIONARY
  5
EC5
102
{ACAD_REACTORS
330
EC4
102
}
330
EC4
100
AcDbDictionary
281
     1
1001
ACAD
1000
<All
  0
XRECORD
  5
2E0E
102
{ACAD_REACTORS
330
2E0D
102
}
330
2E0D
100
AcDbXrecord
280
     1
290
     1
  0
XRECORD
  5
2E10
102
{ACAD_REACTORS
330
2E0F
102
}
330
2E0F
100
AcDbXrecord
280
     1
290
     1
  0
XRECORD
  5
2E12
102
{ACAD_REACTORS
330
2E11
102
}
330
2E11
100
AcDbXrecord
280
     1
290
     1
  0
XRECORD
  5
2E14
102
{ACAD_REACTORS
330
2E13
102
}
330
2E13
100
AcDbXrecord
280
     1
290
     1
  0
XRECORD
  5
2E16
102
{ACAD_REACTORS
330
2E15
102
}
330
2E15
100
AcDbXrecord
280
     1
290
     1
  0
XRECORD
  5
2E18
102
{ACAD_REACTORS
330
2E17
102
}
330
2E17
100
AcDbXrecord
280
     1
290
     1
  0
XRECORD
  5
2E1A
102
{ACAD_REACTORS
330
2E19
102
}
330
2E19
100
AcDbXrecord
280
     1
290
     1
  0
XRECORD
  5
2E1C
102
{ACAD_REACTORS
330
2E1B
102
}
330
2E1B
100
AcDbXrecord
280
     1
290
     1
  0
XRECORD
  5
2E1E
102
{ACAD_REACTORS
330
2E1D
102
}
330
2E1D
100
AcDbXrecord
280
     1
290
     1
  0
XRECORD
  5
2E20
102
{ACAD_REACTORS
330
2E1F
102
}
330
2E1F
100
AcDbXrecord
280
     1
290
     1
  0
SORTENTSTABLE
  5
230
102
{ACAD_REACTORS
330
22F
102
}
330
22F
100
AcDbSortentsTable
330
1F
331
279C
  5
279D
331
2798
  5
2799
331
27DB
  5
27DC
331
2794
  5
2794
331
2790
  5
2790
331
2857
  5
2858
331
2810
  5
2811
331
280C
  5
280D
331
2853
  5
2854
331
27D3
  5
27D4
331
284F
  5
2850
331
2808
  5
2809
331
284B
  5
284C
331
2764
  5
2764
331
2760
  5
2760
331
275C
  5
275C
331
2758
  5
2758
331
27CC
  5
27CD
331
27C8
  5
27C9
331
2844
  5
2845
331
27C4
  5
27C5
331
2807
  5
2808
331
27C0
  5
27C1
331
2803
  5
2804
331
2838
  5
2839
331
287B
  5
287C
331
2910
  5
2913
331
2751
  5
2751
331
278C
  5
278C
331
274D
  5
274D
331
2788
  5
2788
331
2749
  5
2749
331
27BC
  5
27BD
331
27B8
  5
27B9
331
27FF
  5
2800
331
2834
  5
2835
331
27FB
  5
27FE
331
27B4
  5
27B5
331
27F7
  5
27F8
331
27B0
  5
27B1
331
2830
  5
2831
331
2877
  5
2878
331
282C
  5
282D
331
27F3
  5
27F4
331
2873
  5
2874
331
286F
  5
2870
331
2828
  5
2829
331
286B
  5
286C
331
2784
  5
2784
331
2745
  5
2745
331
277C
  5
277C
331
27EC
  5
27ED
331
27AD
  5
27AE
331
27A9
  5
27AA
331
27E4
  5
27E5
331
2864
  5
2865
331
27A5
  5
27A7
331
27E0
  5
27E1
331
2860
  5
2861
331
2821
  5
2822
331
27A1
  5
27A2
331
285C
  5
285D
331
281D
  5
281E
331
2858
  5
2859
331
2819
  5
281A
331
2775
  5
2775
331
2771
  5
2771
331
276D
  5
276D
331
2769
  5
2769
331
279D
  5
279E
331
27DC
  5
27DD
331
27D8
  5
27D9
331
2799
  5
279A
331
27D4
  5
27D5
331
2854
  5
2855
331
2815
  5
2817
331
2795
  5
2796
331
27D0
  5
27D1
331
2850
  5
2851
331
2811
  5
2812
331
2791
  5
2791
331
284C
  5
284D
331
280D
  5
280E
331
2848
  5
2849
331
2809
  5
280A
331
2765
  5
2765
331
2761
  5
2761
331
275D
  5
275D
331
2759
  5
2759
331
27CD
  5
27CE
331
27C9
  5
27CA
331
2804
  5
2805
331
2845
  5
2846
331
27C5
  5
27C6
331
2841
  5
2842
331
2800
  5
2801
331
287C
  5
287D
331
2878
  5
2879
331
2839
  5
283A
331
2756
  5
2756
331
2752
  5
2752
331
278D
  5
278D
331
274E
  5
274E
331
2789
  5
2789
331
274A
  5
274A
331
27BD
  5
27BE
331
27F8
  5
27FA
331
27B9
  5
27BA
331
27F4
  5
27F5
331
2874
  5
2875
331
2835
  5
2836
331
27B5
  5
27B6
331
27F0
  5
27F1
331
2870
  5
2871
331
2831
  5
2832
331
2905
  5
2910
331
27B1
  5
27B3
331
286C
  5
286D
331
282D
  5
282E
331
2868
  5
2869
331
2829
  5
282A
331
2785
  5
2785
331
2746
  5
2746
331
2742
  5
2742
331
277D
  5
277D
331
2779
  5
2779
331
27ED
  5
27EE
331
27AE
  5
27AF
331
27E9
  5
27EA
331
27AA
  5
27AB
331
27E5
  5
27E6
331
2865
  5
2866
331
2826
  5
2827
331
27E1
  5
27E4
331
2861
  5
2862
331
2822
  5
2823
331
27A2
  5
27A3
331
285D
  5
285E
331
281E
  5
281F
331
2859
  5
285A
331
281A
  5
281B
331
2776
  5
2776
331
2772
  5
2772
331
276E
  5
276E
331
276A
  5
276A
331
27DD
  5
27DE
331
279E
  5
279F
331
27D9
  5
27DA
331
279A
  5
279B
331
27D5
  5
27D8
331
2855
  5
2856
331
2796
  5
2797
331
27D1
  5
27D2
331
2812
  5
2815
331
2851
  5
2852
331
2792
  5
2792
331
284D
  5
284E
331
280E
  5
280F
331
2849
  5
284A
331
280A
  5
280B
331
2766
  5
2766
331
2762
  5
2762
331
275E
  5
275E
331
275A
  5
275A
331
27CE
  5
27CF
331
27CA
  5
27CB
331
27C6
  5
27C7
331
2846
  5
2847
331
2801
  5
2803
331
2842
  5
2843
331
292E
  5
2795
331
27C2
  5
27C3
331
287D
  5
287E
331
283E
  5
283F
331
2879
  5
287A
331
283A
  5
283B
331
2753
  5
2753
331
278E
  5
278E
331
274F
  5
274F
331
278A
  5
278A
331
274B
  5
274B
331
27BE
  5
27BF
331
27BA
  5
27BB
331
27F5
  5
27F6
331
27B6
  5
27B7
331
2875
  5
2876
331
2836
  5
2837
331
2871
  5
2872
331
2832
  5
2833
331
27F1
  5
27F2
331
286D
  5
286E
331
282E
  5
282F
331
2869
  5
286A
331
282A
  5
282B
331
2747
  5
2747
331
2743
  5
2743
331
277E
  5
277E
331
277A
  5
277A
331
27EE
  5
27EF
331
27AF
  5
27B0
331
27EA
  5
27EB
331
27AB
  5
27AD
331
27E6
  5
27E7
331
27A7
  5
27A8
331
2866
  5
2867
331
2827
  5
2828
331
2862
  5
2863
331
2823
  5
2824
331
285E
  5
285F
331
281F
  5
2820
331
285A
  5
285B
331
281B
  5
281C
331
380
  5
3AA
331
2777
  5
2777
331
2773
  5
2773
331
276F
  5
276F
331
276B
  5
276B
331
279F
  5
27A0
331
27DE
  5
27E0
331
27DA
  5
27DB
331
279B
  5
279C
331
2797
  5
2798
331
2856
  5
2857
331
2817
  5
2818
331
27D2
  5
27D3
331
2852
  5
2853
331
2793
  5
2793
331
284E
  5
284F
331
280F
  5
2810
331
284A
  5
284B
331
280B
  5
280C
331
2767
  5
2767
331
2763
  5
2763
331
275F
  5
275F
331
275B
  5
275B
331
27CF
  5
27D0
331
27CB
  5
27CC
331
2806
  5
2807
331
27C7
  5
27C8
331
2847
  5
2848
331
2843
  5
2844
331
27C3
  5
27C4
331
287E
  5
287F
331
283F
  5
2840
331
287A
  5
287B
331
283B
  5
283D
331
2750
  5
2750
331
274C
  5
274C
331
278F
  5
278F
331
2748
  5
2748
331
278B
  5
278B
331
27FE
  5
27FF
331
27BF
  5
27C0
331
27FA
  5
27FB
331
27BB
  5
27BC
331
27F6
  5
27F7
331
27B7
  5
27B8
331
2876
  5
2877
331
2837
  5
2838
331
27F2
  5
27F3
331
2872
  5
2873
331
2833
  5
2834
331
27B3
  5
27B4
331
286E
  5
286F
331
282F
  5
2830
331
286A
  5
286B
331
282B
  5
282C
331
2744
  5
2744
331
2787
  5
2787
331
277B
  5
277B
331
27EF
  5
27F0
331
27A8
  5
27A9
331
2824
  5
2826
331
27EB
  5
27EC
331
27A4
  5
27A5
331
27E7
  5
27E9
331
27A0
  5
27A1
331
2867
  5
2868
331
2820
  5
2821
331
281C
  5
281D
331
2863
  5
2864
331
285F
  5
2860
331
2818
  5
2819
331
285B
  5
285C
331
2774
  5
2774
331
2770
  5
2770
331
276C
  5
276C
331
2768
  5
2768
  0
DIMASSOC
  5
2963
102
{ACAD_REACTORS
330
2959
102
}
330
2959
100
AcDbDimAssoc
330
294C
 90
        3
 70
     0
 71
     0
  1
AcDbOsnapPointRef
 72
    13
331
2800
 73
     2
 91
        0
 40
0.0
 10
0.0
 20
0.0
 30
2.000000000000000E+50
 75
     0
  1
AcDbOsnapPointRef
 72
     2
331
2795
 73
     2
 91
        0
 40
4.712388980384689
 10
0.0
 20
0.0
 30
0.0
 75
     0
  0
DIMASSOC
  5
2984
102
{ACAD_REACTORS
330
297A
102
}
330
297A
100
AcDbDimAssoc
330
296D
 90
        2
 70
     0
 71
     0
  1
AcDbOsnapPointRef
 72
     3
331
2878
 73
     2
 91
        0
 40
0.0
 10
0.0
 20
0.0
 30
0.0
 75
     0
  0
DIMASSOC
  5
299C
102
{ACAD_REACTORS
330
2992
102
}
330
2992
100
AcDbDimAssoc
330
2985
 90
        3
 70
     0
 71
     0
  1
AcDbOsnapPointRef
 72
    10
331
27D9
 73
     2
 91
        0
 40
0.3126106228648748
 10
0.0
 20
0.0
 30
0.0
 75
     0
  1
AcDbOsnapPointRef
 72
     8
331
27D4
 73
     2
 91
        0
 40
0.3705694576883553
 10
0.0
 20
0.0
 30
0.0
 75
     1
  1
AcDbOsnapPointRef
 72
    10
331
27D9
 73
     2
 91
        0
 40
0.3126106228648748
 10
0.0
 20
0.0
 30
0.0
 75
     0
  0
DIMASSOC
  5
29C1
102
{ACAD_REACTORS
330
29B5
102
}
330
29B5
100
AcDbDimAssoc
330
29A6
 90
        1
 70
     0
 71
     0
  1
AcDbOsnapPointRef
 72
    10
331
2876
 73
     2
 91
        0
 40
0.4009460795295755
 10
0.0
 20
0.0
 30
0.0
 75
     0
  0
ACDBDETAILVIEWSTYLE
  5
2E03
102
{ACAD_XDICTIONARY
360
2E3B
102
}
102
{ACAD_REACTORS
330
2E02
102
}
330
2E02
100
AcDbModelDocViewStyle
 70
     0
  3
Metric50
290
     0
100
AcDbDetailViewStyle
 70
     0
 71
     0
 90
        3
 71
     1
340
11
 62
   256
 40
5.0
340
0
 62
   256
 40
5.0
300

 40
0.0
280
     1
 71
     2
340
16
 90
       25
 62
   256
 71
     3
340
11
 62
   256
 40
5.0
 90
        0
 40
15.0
 90
        1
300
%<\AcVar ViewDetailId>% (%<\AcVar ViewScale \f "%sn">%)
 71
     4
340
16
 90
       25
 62
   256
340
16
 90
       25
 62
   256
280
     0
  0
LAYOUT
  5
22
102
{ACAD_REACTORS
330
1A
102
}
330
1A
100
AcDbPlotSettings
  1

  2
none_device
  4
ISO_A4_(210.00_x_297.00_MM)
  6

 40
7.5
 41
20.0
 42
7.5
 43
20.0
 44
210.0
 45
297.0
 46
11.54999923706054
 47
-13.65000009536743
 48
0.0
 49
0.0
140
0.0
141
0.0
142
1.0
143
8.704084754739808
 70
 11952
 72
     1
 73
     0
 74
     0
  7

 75
     0
147
0.1148885871608098
 76
     0
 77
     2
 78
   300
148
0.0
149
0.0
100
AcDbLayout
  1
Model
 70
     1
 71
     0
 10
0.0
 20
0.0
 11
12.0
 21
9.0
 12
0.0
 22
0.0
 32
0.0
 14
0.0
 24
0.0
 34
0.0
 15
0.0
 25
0.0
 35
0.0
146
0.0
 13
0.0
 23
0.0
 33
0.0
 16
1.0
 26
0.0
 36
0.0
 17
0.0
 27
1.0
 37
0.0
 76
     0
330
1F
331
2DB8
1001
ACAD_PSEXT
1000
None
1000
None
1000
Not applicable
1000
The layout will not be plotted unless a new plotter configuration name is selected.
1070
     0
  0
LAYOUT
  5
D3
102
{ACAD_REACTORS
330
1A
102
}
330
1A
100
AcDbPlotSettings
  1

  2
C:\Documents and Settings\basas\Application Data\Autodesk\AutoCAD 2005\R16.1\enu\plotters\Default Windows System Printer.pc3
  4

  6

 40
0.0
 41
0.0
 42
0.0
 43
0.0
 44
0.0
 45
0.0
 46
0.0
 47
0.0
 48
0.0
 49
0.0
140
0.0
141
0.0
142
1.0
143
1.0
 70
   688
 72
     0
 73
     0
 74
     5
  7

 75
    16
147
1.0
 76
     0
 77
     2
 78
   300
148
0.0
149
0.0
100
AcDbLayout
  1
布局1
 70
     1
 71
     1
 10
0.0
 20
0.0
 11
12.0
 21
9.0
 12
0.0
 22
0.0
 32
0.0
 14
0.0
 24
0.0
 34
0.0
 15
0.0
 25
0.0
 35
0.0
146
0.0
 13
0.0
 23
0.0
 33
0.0
 16
1.0
 26
0.0
 36
0.0
 17
0.0
 27
1.0
 37
0.0
 76
     0
330
D2
1001
AcadStringInfo
1000
MIFCodePage
1070
     5
  0
LAYOUT
  5
D7
102
{ACAD_REACTORS
330
1A
102
}
330
1A
100
AcDbPlotSettings
  1

  2
C:\Documents and Settings\basas\Application Data\Autodesk\AutoCAD 2005\R16.1\enu\plotters\Default Windows System Printer.pc3
  4

  6

 40
0.0
 41
0.0
 42
0.0
 43
0.0
 44
0.0
 45
0.0
 46
0.0
 47
0.0
 48
0.0
 49
0.0
140
0.0
141
0.0
142
1.0
143
1.0
 70
   688
 72
     0
 73
     0
 74
     5
  7

 75
    16
147
1.0
 76
     0
 77
     2
 78
   300
148
0.0
149
0.0
100
AcDbLayout
  1
布局2
 70
     1
 71
     2
 10
0.0
 20
0.0
 11
12.0
 21
9.0
 12
0.0
 22
0.0
 32
0.0
 14
0.0
 24
0.0
 34
0.0
 15
0.0
 25
0.0
 35
0.0
146
0.0
 13
0.0
 23
0.0
 33
0.0
 16
1.0
 26
0.0
 36
0.0
 17
0.0
 27
1.0
 37
0.0
 76
     0
330
D6
1001
AcadStringInfo
1000
MIFCodePage
1070
     5
  0
MATERIAL
  5
2DC2
102
{ACAD_XDICTIONARY
360
2DC3
102
}
102
{ACAD_REACTORS
330
6A
102
}
330
6A
100
AcDbMaterial
  1
ByBlock
 72
     0
 43
0.0008202099737533
 43
0.0
 43
0.0
 43
0.0
 43
0.0
 43
0.0008202099737533
 43
0.0
 43
0.0
 43
0.0
 43
0.0
 43
1.0
 43
0.0
 43
0.0
 43
0.0
 43
0.0
 43
1.0
 77
     0
 47
0.0008202099737533
 47
0.0
 47
0.0
 47
0.0
 47
0.0
 47
0.0008202099737533
 47
0.0
 47
0.0
 47
0.0
 47
0.0
 47
1.0
 47
0.0
 47
0.0
 47
0.0
 47
0.0
 47
1.0
171
     0
 49
0.0008202099737533
 49
0.0
 49
0.0
 49
0.0
 49
0.0
 49
0.0008202099737533
 49
0.0
 49
0.0
 49
0.0
 49
0.0
 49
1.0
 49
0.0
 49
0.0
 49
0.0
 49
0.0
 49
1.0
175
     0
142
0.0008202099737533
142
0.0
142
0.0
142
0.0
142
0.0
142
0.0008202099737533
142
0.0
142
0.0
142
0.0
142
0.0
142
1.0
142
0.0
142
0.0
142
0.0
142
0.0
142
1.0
179
     0
144
0.0008202099737533
144
0.0
144
0.0
144
0.0
144
0.0
144
0.0008202099737533
144
0.0
144
0.0
144
0.0
144
0.0
144
1.0
144
0.0
144
0.0
144
0.0
144
0.0
144
1.0
147
0.0008202099737533
147
0.0
147
0.0
147
0.0
147
0.0
147
0.0008202099737533
147
0.0
147
0.0
147
0.0
147
0.0
147
1.0
147
0.0
147
0.0
147
0.0
147
0.0
147
1.0
  0
MATERIAL
  5
2DBA
102
{ACAD_XDICTIONARY
360
2DBB
102
}
102
{ACAD_REACTORS
330
6A
102
}
330
6A
100
AcDbMaterial
  1
ByLayer
 72
     0
 43
0.0008202099737533
 43
0.0
 43
0.0
 43
0.0
 43
0.0
 43
0.0008202099737533
 43
0.0
 43
0.0
 43
0.0
 43
0.0
 43
1.0
 43
0.0
 43
0.0
 43
0.0
 43
0.0
 43
1.0
 77
     0
 47
0.0008202099737533
 47
0.0
 47
0.0
 47
0.0
 47
0.0
 47
0.0008202099737533
 47
0.0
 47
0.0
 47
0.0
 47
0.0
 47
1.0
 47
0.0
 47
0.0
 47
0.0
 47
0.0
 47
1.0
171
     0
 49
0.0008202099737533
 49
0.0
 49
0.0
 49
0.0
 49
0.0
 49
0.0008202099737533
 49
0.0
 49
0.0
 49
0.0
 49
0.0
 49
1.0
 49
0.0
 49
0.0
 49
0.0
 49
0.0
 49
1.0
175
     0
142
0.0008202099737533
142
0.0
142
0.0
142
0.0
142
0.0
142
0.0008202099737533
142
0.0
142
0.0
142
0.0
142
0.0
142
1.0
142
0.0
142
0.0
142
0.0
142
0.0
142
1.0
179
     0
144
0.0008202099737533
144
0.0
144
0.0
144
0.0
144
0.0
144
0.0008202099737533
144
0.0
144
0.0
144
0.0
144
0.0
144
1.0
144
0.0
144
0.0
144
0.0
144
0.0
144
1.0
147
0.0008202099737533
147
0.0
147
0.0
147
0.0
147
0.0
147
0.0008202099737533
147
0.0
147
0.0
147
0.0
147
0.0
147
1.0
147
0.0
147
0.0
147
0.0
147
0.0
147
1.0
  0
MATERIAL
  5
2DCA
102
{ACAD_XDICTIONARY
360
2DCB
102
}
102
{ACAD_REACTORS
330
6A
102
}
330
6A
100
AcDbMaterial
  1
Global
 72
     0
 43
0.0008202099737533
 43
0.0
 43
0.0
 43
0.0
 43
0.0
 43
0.0008202099737533
 43
0.0
 43
0.0
 43
0.0
 43
0.0
 43
1.0
 43
0.0
 43
0.0
 43
0.0
 43
0.0
 43
1.0
 77
     0
 47
0.0008202099737533
 47
0.0
 47
0.0
 47
0.0
 47
0.0
 47
0.0008202099737533
 47
0.0
 47
0.0
 47
0.0
 47
0.0
 47
1.0
 47
0.0
 47
0.0
 47
0.0
 47
0.0
 47
1.0
171
     0
 49
0.0008202099737533
 49
0.0
 49
0.0
 49
0.0
 49
0.0
 49
0.0008202099737533
 49
0.0
 49
0.0
 49
0.0
 49
0.0
 49
1.0
 49
0.0
 49
0.0
 49
0.0
 49
0.0
 49
1.0
175
     0
142
0.0008202099737533
142
0.0
142
0.0
142
0.0
142
0.0
142
0.0008202099737533
142
0.0
142
0.0
142
0.0
142
0.0
142
1.0
142
0.0
142
0.0
142
0.0
142
0.0
142
1.0
179
     0
144
0.0008202099737533
144
0.0
144
0.0
144
0.0
144
0.0
144
0.0008202099737533
144
0.0
144
0.0
144
0.0
144
0.0
144
1.0
144
0.0
144
0.0
144
0.0
144
0.0
144
1.0
147
0.0008202099737533
147
0.0
147
0.0
147
0.0
147
0.0
147
0.0008202099737533
147
0.0
147
0.0
147
0.0
147
0.0
147
1.0
147
0.0
147
0.0
147
0.0
147
0.0
147
1.0
  0
MLEADERSTYLE
  5
2DFE
102
{ACAD_REACTORS
330
2DFD
102
}
330
2DFD
100
AcDbMLeaderStyle
179
     2
170
     2
171
     1
172
     0
 90
        2
 40
0.0
 41
0.0
173
     1
 91
-1056964608
340
14
 92
       -2
290
     1
 42
2.0
291
     1
 43
0.36
  3
Standard
 44
4.0
300

342
11
174
     1
178
     6
175
     1
176
     0
 93
-1056964608
 45
4.0
292
     0
297
     0
 46
4.0
 94
-1056964608
 47
1.0
 49
1.0
140
1.0
293
     1
141
0.0
294
     1
177
     0
142
1.0
295
     1
296
     0
143
0.125
271
     0
272
     9
273
     9
298
     1
  0
MLINESTYLE
  5
18
102
{ACAD_REACTORS
330
17
102
}
330
17
100
AcDbMlineStyle
  2
STANDARD
 70
     0
  3

 62
   256
 51
90.0
 52
90.0
 71
     2
 49
0.5
 62
   256
  6
BYLAYER
 49
-0.5
 62
   256
  6
BYLAYER
  0
ACDBPLACEHOLDER
  5
F
102
{ACAD_REACTORS
330
E
102
}
330
E
  0
SCALE
  5
2DEC
102
{ACAD_REACTORS
330
2DEB
102
}
330
2DEB
100
AcDbScale
 70
     0
300
1:1
140
1.0
141
1.0
290
     1
  0
SCALE
  5
2DED
102
{ACAD_REACTORS
330
2DEB
102
}
330
2DEB
100
AcDbScale
 70
     0
300
1:2
140
1.0
141
2.0
290
     0
  0
SCALE
  5
2DEE
102
{ACAD_REACTORS
330
2DEB
102
}
330
2DEB
100
AcDbScale
 70
     0
300
1:4
140
1.0
141
4.0
290
     0
  0
SCALE
  5
2DEF
102
{ACAD_REACTORS
330
2DEB
102
}
330
2DEB
100
AcDbScale
 70
     0
300
1:5
140
1.0
141
5.0
290
     0
  0
SCALE
  5
2DF0
102
{ACAD_REACTORS
330
2DEB
102
}
330
2DEB
100
AcDbScale
 70
     0
300
1:8
140
1.0
141
8.0
290
     0
  0
SCALE
  5
2DF1
102
{ACAD_REACTORS
330
2DEB
102
}
330
2DEB
100
AcDbScale
 70
     0
300
1:10
140
1.0
141
10.0
290
     0
  0
SCALE
  5
2DF2
102
{ACAD_REACTORS
330
2DEB
102
}
330
2DEB
100
AcDbScale
 70
     0
300
1:16
140
1.0
141
16.0
290
     0
  0
SCALE
  5
2DF3
102
{ACAD_REACTORS
330
2DEB
102
}
330
2DEB
100
AcDbScale
 70
     0
300
1:20
140
1.0
141
20.0
290
     0
  0
SCALE
  5
2DF4
102
{ACAD_REACTORS
330
2DEB
102
}
330
2DEB
100
AcDbScale
 70
     0
300
1:30
140
1.0
141
30.0
290
     0
  0
SCALE
  5
2DF5
102
{ACAD_REACTORS
330
2DEB
102
}
330
2DEB
100
AcDbScale
 70
     0
300
1:40
140
1.0
141
40.0
290
     0
  0
SCALE
  5
2DF6
102
{ACAD_REACTORS
330
2DEB
102
}
330
2DEB
100
AcDbScale
 70
     0
300
1:50
140
1.0
141
50.0
290
     0
  0
SCALE
  5
2DF7
102
{ACAD_REACTORS
330
2DEB
102
}
330
2DEB
100
AcDbScale
 70
     0
300
1:100
140
1.0
141
100.0
290
     0
  0
SCALE
  5
2DF8
102
{ACAD_REACTORS
330
2DEB
102
}
330
2DEB
100
AcDbScale
 70
     0
300
2:1
140
2.0
141
1.0
290
     0
  0
SCALE
  5
2DF9
102
{ACAD_REACTORS
330
2DEB
102
}
330
2DEB
100
AcDbScale
 70
     0
300
4:1
140
4.0
141
1.0
290
     0
  0
SCALE
  5
2DFA
102
{ACAD_REACTORS
330
2DEB
102
}
330
2DEB
100
AcDbScale
 70
     0
300
8:1
140
8.0
141
1.0
290
     0
  0
SCALE
  5
2DFB
102
{ACAD_REACTORS
330
2DEB
102
}
330
2DEB
100
AcDbScale
 70
     0
300
10:1
140
10.0
141
1.0
290
     0
  0
SCALE
  5
2DFC
102
{ACAD_REACTORS
330
2DEB
102
}
330
2DEB
100
AcDbScale
 70
     0
300
100:1
140
100.0
141
1.0
290
     0
  0
ACDBSECTIONVIEWSTYLE
  5
2E01
102
{ACAD_XDICTIONARY
360
2E39
102
}
102
{ACAD_REACTORS
330
2DFF
102
}
330
2DFF
100
AcDbModelDocViewStyle
 70
     0
  3
Metric50
290
     0
100
AcDbSectionViewStyle
 70
     0
 71
     0
 90
      102
 71
     1
340
11
 62
   256
 40
5.0
340
0
340
0
 62
   256
 40
5.0
300
I, O, Q, S, X, Z
 40
10.0
 90
        0
 40
2.5
 90
        0
 71
     2
340
16
 90
       25
 62
   256
340
16
 90
       50
 62
   256
 40
5.0
 40
2.5
 40
5.0
 71
     3
340
11
 62
   256
 40
5.0
 90
        0
 40
15.0
 90
        1
300
%<\AcVar ViewSectionStartId>%-%<\AcVar ViewSectionEndId>% (%<\AcVar ViewScale \f "%sn">%)
 71
     4
 62
   256
 62
   257
300
ANSI31
 40
1.0
 90
        0
290
     0
290
     0
 90
        6
 40
0.0
 40
1.570796326794896
 40
0.2617993877991494
 40
1.308996938995747
 40
-0.2617993877991494
 40
1.832595714594046
  0
TABLESTYLE
  5
7F
102
{ACAD_XDICTIONARY
360
2E37
102
}
102
{ACAD_REACTORS
330
7E
102
}
330
7E
100
AcDbTableStyle
280
     0
  3
Standard
 70
     0
 71
     0
 40
1.5
 41
1.5
280
     0
281
     0
  7
Standard
140
4.5
170
     2
 62
     0
 63
     7
283
     0
 90
        4
 91
        0
  1

274
    -2
284
     1
 64
     0
275
    -2
285
     1
 65
     0
276
    -2
286
     1
 66
     0
277
    -2
287
     1
 67
     0
278
    -2
288
     1
 68
     0
279
    -2
289
     1
 69
     0
  7
Standard
140
6.0
170
     5
 62
     0
 63
     7
283
     0
 90
        4
 91
        0
  1

274
    -2
284
     1
 64
     0
275
    -2
285
     1
 65
     0
276
    -2
286
     1
 66
     0
277
    -2
287
     1
 67
     0
278
    -2
288
     1
 68
     0
279
    -2
289
     1
 69
     0
  7
Standard
140
4.5
170
     5
 62
     0
 63
     7
283
     0
 90
        4
 91
        0
  1

274
    -2
284
     1
 64
     0
275
    -2
285
     1
 65
     0
276
    -2
286
     1
 66
     0
277
    -2
287
     1
 67
     0
278
    -2
288
     1
 68
     0
279
    -2
289
     1
 69
     0
  0
VISUALSTYLE
  5
2DD8
102
{ACAD_REACTORS
330
2DD2
102
}
330
2DD2
100
AcDbVisualStyle
  2
2dWireframe
 70
     4
177
     3
291
     0
 70
    58
 90
        0
176
     1
 90
        2
176
     1
 90
        0
176
     1
 90
        0
176
     1
 40
0.6
176
     1
 40
30.0
176
     1
 62
     7
420
 16777215
176
     1
 90
        1
176
     1
 90
        4
176
     1
 62
     7
176
     1
 62
   257
176
     1
 90
        1
176
     1
 90
        1
176
     1
 40
1.0
176
     1
 90
        0
176
     1
 62
   257
176
     1
 40
1.0
176
     1
 90
        1
176
     1
 90
        6
176
     1
 90
        2
176
     1
 62
     7
176
     1
 90
        5
176
     1
 90
        0
176
     1
 90
        0
176
     1
290
     0
176
     1
 90
        1
176
     1
 40
0.0
176
     1
 90
        0
176
     1
290
     1
176
     1
290
     1
176
     1
290
     0
176
     1
290
     0
176
     1
290
     0
176
     1
290
     0
176
     1
290
     0
176
     1
290
     0
176
     1
290
     0
176
     1
 90
       50
176
     1
 40
0.0
176
     1
 40
1.0
176
     1
 90
        0
176
     1
 62
    18
420
        0
176
     1
 90
       50
176
     1
 90
        3
176
     1
 62
     5
420
      255
176
     1
290
     0
176
     1
 90
       50
176
     1
 90
       50
176
     1
 90
       50
176
     1
290
     0
176
     1
 90
       50
176
     1
 62
   256
176
     0
 40
1.0
176
     0
 90
        2
176
     1
  1
strokes_ogs.tif
176
     1
290
     0
176
     1
 40
1.0
176
     1
 40
1.0
176
     1
  0
VISUALSTYLE
  5
2DD7
102
{ACAD_REACTORS
330
2DD2
102
}
330
2DD2
100
AcDbVisualStyle
  2
Basic
 70
     7
177
     3
291
     1
 70
    58
 90
        1
176
     1
 90
        0
176
     1
 90
        1
176
     1
 90
        0
176
     1
 40
0.6
176
     1
 40
30.0
176
     1
 62
     7
420
 16777215
176
     1
 90
        0
176
     1
 90
        4
176
     1
 62
     7
176
     1
 62
   257
176
     1
 90
        1
176
     1
 90
        1
176
     1
 40
1.0
176
     1
 90
        8
176
     1
 62
     7
176
     1
 40
1.0
176
     1
 90
        1
176
     1
 90
        6
176
     1
 90
        2
176
     1
 62
     7
176
     1
 90
        5
176
     1
 90
        0
176
     1
 90
        0
176
     1
290
     0
176
     1
 90
        1
176
     1
 40
0.0
176
     1
 90
        0
176
     1
290
     0
176
     1
290
     1
176
     1
290
     1
176
     1
290
     0
176
     1
290
     0
176
     1
290
     0
176
     1
290
     0
176
     1
290
     0
176
     1
290
     0
176
     1
 90
       50
176
     1
 40
0.0
176
     1
 40
1.0
176
     1
 90
        0
176
     1
 62
    18
420
        0
176
     1
 90
       50
176
     1
 90
        3
176
     1
 62
     5
420
      255
176
     1
290
     0
176
     1
 90
       50
176
     1
 90
       50
176
     1
 90
       50
176
     1
290
     0
176
     1
 90
       50
176
     1
 62
   256
176
     0
 40
1.0
176
     0
 90
        2
176
     1
  1
strokes_ogs.tif
176
     1
290
     0
176
     1
 40
1.0
176
     1
 40
1.0
176
     1
  0
VISUALSTYLE
  5
2DDE
102
{ACAD_REACTORS
330
2DD2
102
}
330
2DD2
100
AcDbVisualStyle
  2
Brighten
 70
    12
177
     3
291
     1
 70
    58
 90
        2
176
     1
 90
        2
176
     1
 90
        0
176
     1
 90
        0
176
     1
 40
0.6
176
     1
 40
30.0
176
     1
 62
     7
420
 16777215
176
     1
 90
        1
176
     1
 90
        4
176
     1
 62
     7
176
     1
 62
   257
176
     1
 90
        1
176
     1
 90
        1
176
     1
 40
1.0
176
     1
 90
        8
176
     1
 62
     7
176
     1
 40
1.0
176
     1
 90
        1
176
     1
 90
        6
176
     1
 90
        2
176
     1
 62
     7
176
     1
 90
        5
176
     1
 90
        0
176
     1
 90
        0
176
     1
290
     0
176
     1
 90
        1
176
     1
 40
50.0
176
     1
 90
        0
176
     1
290
     0
176
     1
290
     1
176
     1
290
     1
176
     1
290
     0
176
     1
290
     0
176
     1
290
     0
176
     1
290
     0
176
     1
290
     0
176
     1
290
     0
176
     1
 90
       50
176
     1
 40
0.0
176
     1
 40
1.0
176
     1
 90
        0
176
     1
 62
    18
420
        0
176
     1
 90
       50
176
     1
 90
        3
176
     1
 62
     5
420
      255
176
     1
290
     0
176
     1
 90
       50
176
     1
 90
       50
176
     1
 90
       50
176
     1
290
     0
176
     1
 90
       50
176
     1
 62
   256
176
     0
 40
1.0
176
     0
 90
        2
176
     1
  1
strokes_ogs.tif
176
     1
290
     0
176
     1
 40
1.0
176
     1
 40
1.0
176
     1
  0
VISUALSTYLE
  5
2DE2
102
{ACAD_REACTORS
330
2DD2
102
}
330
2DD2
100
AcDbVisualStyle
  2
ColorChange
 70
    16
177
     3
291
     1
 70
    58
 90
        2
176
     1
 90
        2
176
     1
 90
        3
176
     1
 90
        0
176
     1
 40
0.6
176
     1
 40
30.0
176
     1
 62
     8
420
  8421504
176
     1
 90
        1
176
     1
 90
        4
176
     1
 62
     7
176
     1
 62
   257
176
     1
 90
        1
176
     1
 90
        1
176
     1
 40
1.0
176
     1
 90
        8
176
     1
 62
     8
420
  8421504
176
     1
 40
1.0
176
     1
 90
        1
176
     1
 90
        6
176
     1
 90
        2
176
     1
 62
     7
176
     1
 90
        5
176
     1
 90
        0
176
     1
 90
        0
176
     1
290
     0
176
     1
 90
        1
176
     1
 40
0.0
176
     1
 90
        0
176
     1
290
     0
176
     1
290
     1
176
     1
290
     1
176
     1
290
     0
176
     1
290
     0
176
     1
290
     0
176
     1
290
     0
176
     1
290
     0
176
     1
290
     0
176
     1
 90
       50
176
     1
 40
0.0
176
     1
 40
1.0
176
     1
 90
        0
176
     1
 62
    18
420
        0
176
     1
 90
       50
176
     1
 90
        3
176
     1
 62
     5
420
      255
176
     1
290
     0
176
     1
 90
       50
176
     1
 90
       50
176
     1
 90
       50
176
     1
290
     0
176
     1
 90
       50
176
     1
 62
   256
176
     0
 40
1.0
176
     0
 90
        2
176
     1
  1
strokes_ogs.tif
176
     1
290
     0
176
     1
 40
1.0
176
     1
 40
1.0
176
     1
  0
VISUALSTYLE
  5
2DDB
102
{ACAD_REACTORS
330
2DD2
102
}
330
2DD2
100
AcDbVisualStyle
  2
Conceptual
 70
     9
177
     3
291
     0
 70
    58
 90
        3
176
     1
 90
        2
176
     1
 90
        0
176
     1
 90
        0
176
     1
 40
0.6
176
     1
 40
30.0
176
     1
 62
     7
420
 16777215
176
     1
 90
        2
176
     1
 90
        2
176
     1
 62
     7
176
     1
 62
   257
176
     1
 90
        1
176
     1
 90
        1
176
     1
 40
179.0
176
     1
 90
        8
176
     1
 62
     7
176
     1
 40
1.0
176
     1
 90
        1
176
     1
 90
        6
176
     1
 90
        2
176
     1
 62
     7
176
     1
 90
        3
176
     1
 90
        0
176
     1
 90
        0
176
     1
290
     0
176
     1
 90
        1
176
     1
 40
0.0
176
     1
 90
        0
176
     1
290
     0
176
     1
290
     1
176
     1
290
     1
176
     1
290
     0
176
     1
290
     0
176
     1
290
     0
176
     1
290
     0
176
     1
290
     0
176
     1
290
     0
176
     1
 90
       50
176
     1
 40
0.0
176
     1
 40
1.0
176
     1
 90
        0
176
     1
 62
    18
420
        0
176
     1
 90
       50
176
     1
 90
        3
176
     1
 62
     5
420
      255
176
     1
290
     0
176
     1
 90
       50
176
     1
 90
       50
176
     1
 90
       50
176
     1
290
     0
176
     1
 90
       50
176
     1
 62
   256
176
     0
 40
1.0
176
     0
 90
        2
176
     1
  1
strokes_ogs.tif
176
     1
290
     0
176
     1
 40
1.0
176
     1
 40
1.0
176
     1
  0
VISUALSTYLE
  5
2DDD
102
{ACAD_REACTORS
330
2DD2
102
}
330
2DD2
100
AcDbVisualStyle
  2
Dim
 70
    11
177
     3
291
     1
 70
    58
 90
        2
176
     1
 90
        2
176
     1
 90
        0
176
     1
 90
        0
176
     1
 40
0.6
176
     1
 40
30.0
176
     1
 62
     7
420
 16777215
176
     1
 90
        1
176
     1
 90
        4
176
     1
 62
     7
176
     1
 62
   257
176
     1
 90
        1
176
     1
 90
        1
176
     1
 40
1.0
176
     1
 90
        8
176
     1
 62
     7
176
     1
 40
1.0
176
     1
 90
        1
176
     1
 90
        6
176
     1
 90
        2
176
     1
 62
     7
176
     1
 90
        5
176
     1
 90
        0
176
     1
 90
        0
176
     1
290
     0
176
     1
 90
        1
176
     1
 40
-50.0
176
     1
 90
        0
176
     1
290
     0
176
     1
290
     1
176
     1
290
     1
176
     1
290
     0
176
     1
290
     0
176
     1
290
     0
176
     1
290
     0
176
     1
290
     0
176
     1
290
     0
176
     1
 90
       50
176
     1
 40
0.0
176
     1
 40
1.0
176
     1
 90
        0
176
     1
 62
    18
420
        0
176
     1
 90
       50
176
     1
 90
        3
176
     1
 62
     5
420
      255
176
     1
290
     0
176
     1
 90
       50
176
     1
 90
       50
176
     1
 90
       50
176
     1
290
     0
176
     1
 90
       50
176
     1
 62
   256
176
     0
 40
1.0
176
     0
 90
        2
176
     1
  1
strokes_ogs.tif
176
     1
290
     0
176
     1
 40
1.0
176
     1
 40
1.0
176
     1
  0
VISUALSTYLE
  5
2DEA
102
{ACAD_REACTORS
330
2DD2
102
}
330
2DD2
100
AcDbVisualStyle
  2
EdgeColorOff
 70
    22
177
     3
291
     1
 70
    58
 90
        2
176
     0
 90
        2
176
     0
 90
        0
176
     0
 90
        0
176
     0
 40
0.6
176
     0
 40
30.0
176
     0
 62
     7
420
 16777215
176
     0
 90
        1
176
     0
 90
        4
176
     0
 62
     7
176
     0
 62
   257
176
     0
 90
        1
176
     0
 90
        1
176
     0
 40
1.0
176
     0
 90
        8
176
     2
 62
     7
176
     0
 40
1.0
176
     0
 90
        1
176
     0
 90
        6
176
     0
 90
        2
176
     0
 62
     7
176
     0
 90
        5
176
     0
 90
        0
176
     0
 90
        0
176
     0
290
     0
176
     0
 90
        1
176
     0
 40
0.0
176
     0
 90
        0
176
     0
290
     0
176
     0
290
     1
176
     0
290
     1
176
     0
290
     0
176
     0
290
     0
176
     0
290
     0
176
     0
290
     0
176
     0
290
     0
176
     0
290
     0
176
     0
 90
       50
176
     0
 40
0.0
176
     0
 40
1.0
176
     0
 90
        0
176
     0
 62
    18
420
        0
176
     0
 90
       50
176
     0
 90
        3
176
     0
 62
     5
420
      255
176
     0
290
     0
176
     0
 90
       50
176
     0
 90
       50
176
     0
 90
       50
176
     0
290
     0
176
     0
 90
       50
176
     0
 62
   256
176
     0
 40
1.0
176
     0
 90
        2
176
     0
  1
strokes_ogs.tif
176
     0
290
     0
176
     0
 40
1.0
176
     0
 40
1.0
176
     0
  0
VISUALSTYLE
  5
2DE1
102
{ACAD_REACTORS
330
2DD2
102
}
330
2DD2
100
AcDbVisualStyle
  2
Facepattern
 70
    15
177
     3
291
     1
 70
    58
 90
        2
176
     1
 90
        2
176
     1
 90
        0
176
     1
 90
        0
176
     1
 40
0.6
176
     1
 40
30.0
176
     1
 62
     7
420
 16777215
176
     1
 90
        1
176
     1
 90
        4
176
     1
 62
     7
176
     1
 62
   257
176
     1
 90
        1
176
     1
 90
        1
176
     1
 40
1.0
176
     1
 90
        8
176
     1
 62
     7
176
     1
 40
1.0
176
     1
 90
        1
176
     1
 90
        6
176
     1
 90
        2
176
     1
 62
     7
176
     1
 90
        5
176
     1
 90
        0
176
     1
 90
        0
176
     1
290
     0
176
     1
 90
        1
176
     1
 40
0.0
176
     1
 90
        0
176
     1
290
     0
176
     1
290
     1
176
     1
290
     1
176
     1
290
     0
176
     1
290
     0
176
     1
290
     0
176
     1
290
     0
176
     1
290
     0
176
     1
290
     0
176
     1
 90
       50
176
     1
 40
0.0
176
     1
 40
1.0
176
     1
 90
        0
176
     1
 62
    18
420
        0
176
     1
 90
       50
176
     1
 90
        3
176
     1
 62
     5
420
      255
176
     1
290
     0
176
     1
 90
       50
176
     1
 90
       50
176
     1
 90
       50
176
     1
290
     0
176
     1
 90
       50
176
     1
 62
   256
176
     0
 40
1.0
176
     0
 90
        2
176
     1
  1
strokes_ogs.tif
176
     1
290
     0
176
     1
 40
1.0
176
     1
 40
1.0
176
     1
  0
VISUALSTYLE
  5
2DD3
102
{ACAD_REACTORS
330
2DD2
102
}
330
2DD2
100
AcDbVisualStyle
  2
Flat
 70
     0
177
     3
291
     1
 70
    58
 90
        2
176
     1
 90
        1
176
     1
 90
        1
176
     1
 90
        2
176
     1
 40
0.6
176
     1
 40
30.0
176
     1
 62
     7
420
 16777215
176
     1
 90
        0
176
     1
 90
        0
176
     1
 62
     7
176
     1
 62
   257
176
     1
 90
        1
176
     1
 90
        1
176
     1
 40
1.0
176
     1
 90
        8
176
     1
 62
     7
176
     1
 40
1.0
176
     1
 90
        1
176
     1
 90
        6
176
     1
 90
        2
176
     1
 62
     7
176
     1
 90
        5
176
     1
 90
        0
176
     1
 90
        0
176
     1
290
     0
176
     1
 90
       13
176
     1
 40
0.0
176
     1
 90
        0
176
     1
290
     0
176
     1
290
     1
176
     1
290
     1
176
     1
290
     0
176
     1
290
     0
176
     1
290
     0
176
     1
290
     0
176
     1
290
     0
176
     1
290
     0
176
     1
 90
       50
176
     1
 40
0.0
176
     1
 40
1.0
176
     1
 90
        0
176
     1
 62
    18
420
        0
176
     1
 90
       50
176
     1
 90
        3
176
     1
 62
     5
420
      255
176
     1
290
     0
176
     1
 90
       50
176
     1
 90
       50
176
     1
 90
       50
176
     1
290
     0
176
     1
 90
       50
176
     1
 62
   256
176
     0
 40
1.0
176
     0
 90
        2
176
     1
  1
strokes_ogs.tif
176
     1
290
     0
176
     1
 40
1.0
176
     1
 40
1.0
176
     1
  0
VISUALSTYLE
  5
2DD4
102
{ACAD_REACTORS
330
2DD2
102
}
330
2DD2
100
AcDbVisualStyle
  2
FlatWithEdges
 70
     1
177
     3
291
     1
 70
    58
 90
        2
176
     1
 90
        1
176
     1
 90
        1
176
     1
 90
        2
176
     1
 40
0.6
176
     1
 40
30.0
176
     1
 62
     7
420
 16777215
176
     1
 90
        1
176
     1
 90
        0
176
     1
 62
     7
176
     1
 62
   257
176
     1
 90
        1
176
     1
 90
        1
176
     1
 40
1.0
176
     1
 90
        0
176
     1
 62
   257
176
     1
 40
1.0
176
     1
 90
        1
176
     1
 90
        6
176
     1
 90
        2
176
     1
 62
     7
176
     1
 90
        5
176
     1
 90
        0
176
     1
 90
        0
176
     1
290
     0
176
     1
 90
       13
176
     1
 40
0.0
176
     1
 90
        0
176
     1
290
     0
176
     1
290
     1
176
     1
290
     1
176
     1
290
     0
176
     1
290
     0
176
     1
290
     0
176
     1
290
     0
176
     1
290
     0
176
     1
290
     0
176
     1
 90
       50
176
     1
 40
0.0
176
     1
 40
1.0
176
     1
 90
        0
176
     1
 62
    18
420
        0
176
     1
 90
       50
176
     1
 90
        3
176
     1
 62
     5
420
      255
176
     1
290
     0
176
     1
 90
       50
176
     1
 90
       50
176
     1
 90
       50
176
     1
290
     0
176
     1
 90
       50
176
     1
 62
   256
176
     0
 40
1.0
176
     0
 90
        2
176
     1
  1
strokes_ogs.tif
176
     1
290
     0
176
     1
 40
1.0
176
     1
 40
1.0
176
     1
  0
VISUALSTYLE
  5
2DD5
102
{ACAD_REACTORS
330
2DD2
102
}
330
2DD2
100
AcDbVisualStyle
  2
Gouraud
 70
     2
177
     3
291
     1
 70
    58
 90
        2
176
     1
 90
        2
176
     1
 90
        1
176
     1
 90
        2
176
     1
 40
0.6
176
     1
 40
30.0
176
     1
 62
     7
420
 16777215
176
     1
 90
        0
176
     1
 90
        0
176
     1
 62
     7
176
     1
 62
   257
176
     1
 90
        1
176
     1
 90
        1
176
     1
 40
1.0
176
     1
 90
        0
176
     1
 62
     7
176
     1
 40
1.0
176
     1
 90
        1
176
     1
 90
        6
176
     1
 90
        2
176
     1
 62
     7
176
     1
 90
        5
176
     1
 90
        0
176
     1
 90
        0
176
     1
290
     0
176
     1
 90
       13
176
     1
 40
0.0
176
     1
 90
        0
176
     1
290
     0
176
     1
290
     1
176
     1
290
     1
176
     1
290
     0
176
     1
290
     0
176
     1
290
     0
176
     1
290
     0
176
     1
290
     0
176
     1
290
     0
176
     1
 90
       50
176
     1
 40
0.0
176
     1
 40
1.0
176
     1
 90
        0
176
     1
 62
    18
420
        0
176
     1
 90
       50
176
     1
 90
        3
176
     1
 62
     5
420
      255
176
     1
290
     0
176
     1
 90
       50
176
     1
 90
       50
176
     1
 90
       50
176
     1
290
     0
176
     1
 90
       50
176
     1
 62
   256
176
     0
 40
1.0
176
     0
 90
        2
176
     1
  1
strokes_ogs.tif
176
     1
290
     0
176
     1
 40
1.0
176
     1
 40
1.0
176
     1
  0
VISUALSTYLE
  5
2DD6
102
{ACAD_REACTORS
330
2DD2
102
}
330
2DD2
100
AcDbVisualStyle
  2
GouraudWithEdges
 70
     3
177
     3
291
     1
 70
    58
 90
        2
176
     1
 90
        2
176
     1
 90
        1
176
     1
 90
        2
176
     1
 40
0.6
176
     1
 40
30.0
176
     1
 62
     7
420
 16777215
176
     1
 90
        1
176
     1
 90
        0
176
     1
 62
     7
176
     1
 62
   257
176
     1
 90
        1
176
     1
 90
        1
176
     1
 40
1.0
176
     1
 90
        0
176
     1
 62
   257
176
     1
 40
1.0
176
     1
 90
        1
176
     1
 90
        6
176
     1
 90
        2
176
     1
 62
     7
176
     1
 90
        5
176
     1
 90
        0
176
     1
 90
        0
176
     1
290
     0
176
     1
 90
       13
176
     1
 40
0.0
176
     1
 90
        0
176
     1
290
     0
176
     1
290
     1
176
     1
290
     1
176
     1
290
     0
176
     1
290
     0
176
     1
290
     0
176
     1
290
     0
176
     1
290
     0
176
     1
290
     0
176
     1
 90
       50
176
     1
 40
0.0
176
     1
 40
1.0
176
     1
 90
        0
176
     1
 62
    18
420
        0
176
     1
 90
       50
176
     1
 90
        3
176
     1
 62
     5
420
      255
176
     1
290
     0
176
     1
 90
       50
176
     1
 90
       50
176
     1
 90
       50
176
     1
290
     0
176
     1
 90
       50
176
     1
 62
   256
176
     0
 40
1.0
176
     0
 90
        2
176
     1
  1
strokes_ogs.tif
176
     1
290
     0
176
     1
 40
1.0
176
     1
 40
1.0
176
     1
  0
VISUALSTYLE
  5
2DDA
102
{ACAD_REACTORS
330
2DD2
102
}
330
2DD2
100
AcDbVisualStyle
  2
Hidden
 70
     6
177
     3
291
     0
 70
    58
 90
        1
176
     1
 90
        2
176
     1
 90
        2
176
     1
 90
        0
176
     1
 40
0.6
176
     1
 40
30.0
176
     1
 62
     7
420
 16777215
176
     1
 90
        2
176
     1
 90
        2
176
     1
 62
     7
176
     1
 62
   257
176
     1
 90
        2
176
     1
 90
        1
176
     1
 40
40.0
176
     1
 90
        0
176
     1
 62
   257
176
     1
 40
1.0
176
     1
 90
        1
176
     1
 90
        6
176
     1
 90
        2
176
     1
 62
     7
176
     1
 90
        3
176
     1
 90
        0
176
     1
 90
        0
176
     1
290
     0
176
     1
 90
        1
176
     1
 40
0.0
176
     1
 90
        0
176
     1
290
     0
176
     1
290
     1
176
     1
290
     1
176
     1
290
     0
176
     1
290
     0
176
     1
290
     0
176
     1
290
     0
176
     1
290
     0
176
     1
290
     0
176
     1
 90
       50
176
     1
 40
0.0
176
     1
 40
1.0
176
     1
 90
        0
176
     1
 62
    18
420
        0
176
     1
 90
       50
176
     1
 90
        3
176
     1
 62
     5
420
      255
176
     1
290
     0
176
     1
 90
       50
176
     1
 90
       50
176
     1
 90
       50
176
     1
290
     0
176
     1
 90
       50
176
     1
 62
   256
176
     0
 40
1.0
176
     0
 90
        2
176
     1
  1
strokes_ogs.tif
176
     1
290
     0
176
     1
 40
1.0
176
     1
 40
1.0
176
     1
  0
VISUALSTYLE
  5
2DE8
102
{ACAD_REACTORS
330
2DD2
102
}
330
2DD2
100
AcDbVisualStyle
  2
JitterOff
 70
    20
177
     3
291
     1
 70
    58
 90
        2
176
     0
 90
        2
176
     0
 90
        0
176
     0
 90
        0
176
     0
 40
0.6
176
     0
 40
30.0
176
     0
 62
     7
420
 16777215
176
     0
 90
        1
176
     0
 90
        4
176
     0
 62
     7
176
     0
 62
   257
176
     0
 90
        1
176
     0
 90
        1
176
     0
 40
1.0
176
     0
 90
       10
176
     2
 62
     7
176
     0
 40
1.0
176
     0
 90
        1
176
     0
 90
        6
176
     0
 90
        2
176
     0
 62
     7
176
     0
 90
        5
176
     0
 90
        0
176
     0
 90
        0
176
     0
290
     0
176
     0
 90
        1
176
     0
 40
0.0
176
     0
 90
        0
176
     0
290
     0
176
     0
290
     1
176
     0
290
     1
176
     0
290
     0
176
     0
290
     0
176
     0
290
     0
176
     0
290
     0
176
     0
290
     0
176
     0
290
     0
176
     0
 90
       50
176
     0
 40
0.0
176
     0
 40
1.0
176
     0
 90
        0
176
     0
 62
    18
420
        0
176
     0
 90
       50
176
     0
 90
        3
176
     0
 62
     5
420
      255
176
     0
290
     0
176
     0
 90
       50
176
     0
 90
       50
176
     0
 90
       50
176
     0
290
     0
176
     0
 90
       50
176
     0
 62
   256
176
     0
 40
1.0
176
     0
 90
        2
176
     0
  1
strokes_ogs.tif
176
     0
290
     0
176
     0
 40
1.0
176
     0
 40
1.0
176
     0
  0
VISUALSTYLE
  5
2DE0
102
{ACAD_REACTORS
330
2DD2
102
}
330
2DD2
100
AcDbVisualStyle
  2
Linepattern
 70
    14
177
     3
291
     1
 70
    58
 90
        2
176
     1
 90
        2
176
     1
 90
        0
176
     1
 90
        0
176
     1
 40
0.6
176
     1
 40
30.0
176
     1
 62
     7
420
 16777215
176
     1
 90
        1
176
     1
 90
        4
176
     1
 62
     7
176
     1
 62
   257
176
     1
 90
        7
176
     1
 90
        7
176
     1
 40
1.0
176
     1
 90
        8
176
     1
 62
     7
176
     1
 40
1.0
176
     1
 90
        1
176
     1
 90
        6
176
     1
 90
        2
176
     1
 62
     7
176
     1
 90
        5
176
     1
 90
        0
176
     1
 90
        0
176
     1
290
     0
176
     1
 90
        1
176
     1
 40
0.0
176
     1
 90
        0
176
     1
290
     0
176
     1
290
     1
176
     1
290
     1
176
     1
290
     0
176
     1
290
     0
176
     1
290
     0
176
     1
290
     0
176
     1
290
     0
176
     1
290
     0
176
     1
 90
       50
176
     1
 40
0.0
176
     1
 40
1.0
176
     1
 90
        0
176
     1
 62
    18
420
        0
176
     1
 90
       50
176
     1
 90
        3
176
     1
 62
     5
420
      255
176
     1
290
     0
176
     1
 90
       50
176
     1
 90
       50
176
     1
 90
       50
176
     1
290
     0
176
     1
 90
       50
176
     1
 62
   256
176
     0
 40
1.0
176
     0
 90
        2
176
     1
  1
strokes_ogs.tif
176
     1
290
     0
176
     1
 40
1.0
176
     1
 40
1.0
176
     1
  0
VISUALSTYLE
  5
2DE9
102
{ACAD_REACTORS
330
2DD2
102
}
330
2DD2
100
AcDbVisualStyle
  2
OverhangOff
 70
    21
177
     3
291
     1
 70
    58
 90
        2
176
     0
 90
        2
176
     0
 90
        0
176
     0
 90
        0
176
     0
 40
0.6
176
     0
 40
30.0
176
     0
 62
     7
420
 16777215
176
     0
 90
        1
176
     0
 90
        4
176
     0
 62
     7
176
     0
 62
   257
176
     0
 90
        1
176
     0
 90
        1
176
     0
 40
1.0
176
     0
 90
        9
176
     2
 62
     7
176
     0
 40
1.0
176
     0
 90
        1
176
     0
 90
        6
176
     0
 90
        2
176
     0
 62
     7
176
     0
 90
        5
176
     0
 90
        0
176
     0
 90
        0
176
     0
290
     0
176
     0
 90
        1
176
     0
 40
0.0
176
     0
 90
        0
176
     0
290
     0
176
     0
290
     1
176
     0
290
     1
176
     0
290
     0
176
     0
290
     0
176
     0
290
     0
176
     0
290
     0
176
     0
290
     0
176
     0
290
     0
176
     0
 90
       50
176
     0
 40
0.0
176
     0
 40
1.0
176
     0
 90
        0
176
     0
 62
    18
420
        0
176
     0
 90
       50
176
     0
 90
        3
176
     0
 62
     5
420
      255
176
     0
290
     0
176
     0
 90
       50
176
     0
 90
       50
176
     0
 90
       50
176
     0
290
     0
176
     0
 90
       50
176
     0
 62
   256
176
     0
 40
1.0
176
     0
 90
        2
176
     0
  1
strokes_ogs.tif
176
     0
290
     0
176
     0
 40
1.0
176
     0
 40
1.0
176
     0
  0
VISUALSTYLE
  5
2DDC
102
{ACAD_REACTORS
330
2DD2
102
}
330
2DD2
100
AcDbVisualStyle
  2
Realistic
 70
     8
177
     3
291
     0
 70
    58
 90
        2
176
     1
 90
        3
176
     1
 90
        0
176
     1
 90
        2
176
     1
 40
0.6
176
     1
 40
30.0
176
     1
 62
     7
420
 16777215
176
     1
 90
        0
176
     1
 90
        0
176
     1
 62
     7
176
     1
 62
   257
176
     1
 90
        1
176
     1
 90
        1
176
     1
 40
1.0
176
     1
 90
        8
176
     1
 62
   257
176
     1
 40
1.0
176
     1
 90
        1
176
     1
 90
        6
176
     1
 90
        2
176
     1
 62
     7
176
     1
 90
        3
176
     1
 90
        0
176
     1
 90
        0
176
     1
290
     0
176
     1
 90
       13
176
     1
 40
0.0
176
     1
 90
        0
176
     1
290
     0
176
     1
290
     1
176
     1
290
     1
176
     1
290
     0
176
     1
290
     0
176
     1
290
     0
176
     1
290
     0
176
     1
290
     0
176
     1
290
     0
176
     1
 90
       50
176
     1
 40
0.0
176
     1
 40
1.0
176
     1
 90
        0
176
     1
 62
    18
420
        0
176
     1
 90
       50
176
     1
 90
        3
176
     1
 62
     5
420
      255
176
     1
290
     0
176
     1
 90
       50
176
     1
 90
       50
176
     1
 90
       50
176
     1
290
     0
176
     1
 90
       50
176
     1
 62
   256
176
     0
 40
1.0
176
     0
 90
        2
176
     1
  1
strokes_ogs.tif
176
     1
290
     0
176
     1
 40
1.0
176
     1
 40
1.0
176
     1
  0
VISUALSTYLE
  5
2DE7
102
{ACAD_REACTORS
330
2DD2
102
}
330
2DD2
100
AcDbVisualStyle
  2
Shaded
 70
    27
177
     3
291
     0
 70
    58
 90
        2
176
     1
 90
        2
176
     1
 90
        1
176
     1
 90
        2
176
     1
 40
0.6
176
     1
 40
30.0
176
     1
 62
     7
420
 16777215
176
     1
 90
        0
176
     1
 90
        4
176
     1
 62
     7
176
     1
 62
   257
176
     1
 90
        1
176
     1
 90
        1
176
     1
 40
1.0
176
     1
 90
        8
176
     1
 62
   257
176
     1
 40
1.0
176
     1
 90
        1
176
     1
 90
        6
176
     1
 90
        2
176
     1
 62
     8
420
  7895160
176
     1
 90
        3
176
     1
 90
        0
176
     1
 90
        0
176
     1
290
     0
176
     1
 90
        5
176
     1
 40
0.0
176
     1
 90
        0
176
     1
290
     0
176
     1
290
     1
176
     1
290
     1
176
     1
290
     0
176
     1
290
     0
176
     1
290
     0
176
     1
290
     0
176
     1
290
     0
176
     1
290
     0
176
     1
 90
       50
176
     1
 40
0.0
176
     1
 40
1.0
176
     1
 90
        0
176
     1
 62
    18
420
        0
176
     1
 90
       50
176
     1
 90
        3
176
     1
 62
     5
420
      255
176
     1
290
     0
176
     1
 90
       50
176
     1
 90
       50
176
     1
 90
       50
176
     1
290
     0
176
     1
 90
       50
176
     1
 62
   256
176
     0
 40
1.0
176
     0
 90
        2
176
     1
  1
strokes_ogs.tif
176
     1
290
     0
176
     1
 40
1.0
176
     1
 40
1.0
176
     1
  0
VISUALSTYLE
  5
2DE6
102
{ACAD_REACTORS
330
2DD2
102
}
330
2DD2
100
AcDbVisualStyle
  2
Shaded with edges
 70
    26
177
     3
291
     0
 70
    58
 90
        2
176
     1
 90
        2
176
     1
 90
        1
176
     1
 90
        2
176
     1
 40
0.6
176
     1
 40
30.0
176
     1
 62
     7
420
 16777215
176
     1
 90
        1
176
     1
 90
        2
176
     1
 62
     7
176
     1
 62
   257
176
     1
 90
        2
176
     1
 90
        1
176
     1
 40
1.0
176
     1
 90
        8
176
     1
 62
   257
176
     1
 40
1.0
176
     1
 90
        1
176
     1
 90
        6
176
     1
 90
        2
176
     1
 62
     7
176
     1
 90
        3
176
     1
 90
        0
176
     1
 90
        0
176
     1
290
     0
176
     1
 90
        5
176
     1
 40
0.0
176
     1
 90
        0
176
     1
290
     0
176
     1
290
     1
176
     1
290
     1
176
     1
290
     0
176
     1
290
     0
176
     1
290
     0
176
     1
290
     0
176
     1
290
     0
176
     1
290
     0
176
     1
 90
       50
176
     1
 40
0.0
176
     1
 40
1.0
176
     1
 90
        0
176
     1
 62
    18
420
        0
176
     1
 90
       50
176
     1
 90
        3
176
     1
 62
     5
420
      255
176
     1
290
     0
176
     1
 90
       50
176
     1
 90
       50
176
     1
 90
       50
176
     1
290
     0
176
     1
 90
       50
176
     1
 62
   256
176
     0
 40
1.0
176
     0
 90
        2
176
     1
  1
strokes_ogs.tif
176
     1
290
     0
176
     1
 40
1.0
176
     1
 40
1.0
176
     1
  0
VISUALSTYLE
  5
2DE3
102
{ACAD_REACTORS
330
2DD2
102
}
330
2DD2
100
AcDbVisualStyle
  2
Shades of Gray
 70
    23
177
     3
291
     0
 70
    58
 90
        2
176
     1
 90
        2
176
     1
 90
        3
176
     1
 90
        0
176
     1
 40
0.6
176
     1
 40
30.0
176
     1
 62
     7
420
 16777215
176
     1
 90
        2
176
     1
 90
        2
176
     1
 62
     7
176
     1
 62
     7
176
     1
 90
        1
176
     1
 90
        1
176
     1
 40
40.0
176
     1
 90
        8
176
     1
 62
     7
176
     1
 40
1.0
176
     1
 90
        1
176
     1
 90
        6
176
     1
 90
        2
176
     1
 62
     7
176
     1
 90
        3
176
     1
 90
        0
176
     1
 90
        0
176
     1
290
     0
176
     1
 90
        1
176
     1
 40
0.0
176
     1
 90
        0
176
     1
290
     0
176
     1
290
     1
176
     1
290
     1
176
     1
290
     0
176
     1
290
     0
176
     1
290
     0
176
     1
290
     0
176
     1
290
     0
176
     1
290
     0
176
     1
 90
       50
176
     1
 40
0.0
176
     1
 40
1.0
176
     1
 90
        0
176
     1
 62
    18
420
        0
176
     1
 90
       50
176
     1
 90
        3
176
     1
 62
     5
420
      255
176
     1
290
     0
176
     1
 90
       50
176
     1
 90
       50
176
     1
 90
       50
176
     1
290
     0
176
     1
 90
       50
176
     1
 62
   256
176
     0
 40
1.0
176
     0
 90
        2
176
     1
  1
strokes_ogs.tif
176
     1
290
     0
176
     1
 40
1.0
176
     1
 40
1.0
176
     1
  0
VISUALSTYLE
  5
2DE4
102
{ACAD_REACTORS
330
2DD2
102
}
330
2DD2
100
AcDbVisualStyle
  2
Sketchy
 70
    24
177
     3
291
     0
 70
    58
 90
        1
176
     1
 90
        2
176
     1
 90
        2
176
     1
 90
        0
176
     1
 40
0.6
176
     1
 40
30.0
176
     1
 62
     7
420
 16777215
176
     1
 90
        2
176
     1
 90
        2
176
     1
 62
     7
176
     1
 62
     7
176
     1
 90
        1
176
     1
 90
        1
176
     1
 40
40.0
176
     1
 90
       11
176
     1
 62
     7
176
     1
 40
1.0
176
     1
 90
        1
176
     1
 90
        6
176
     1
 90
        2
176
     1
 62
     7
176
     1
 90
        6
176
     1
 90
        0
176
     1
 90
        0
176
     1
290
     0
176
     1
 90
        1
176
     1
 40
0.0
176
     1
 90
        0
176
     1
290
     0
176
     1
290
     1
176
     1
290
     1
176
     1
290
     0
176
     1
290
     0
176
     1
290
     0
176
     1
290
     0
176
     1
290
     0
176
     1
290
     0
176
     1
 90
       50
176
     1
 40
0.0
176
     1
 40
1.0
176
     1
 90
        0
176
     1
 62
    18
420
        0
176
     1
 90
       50
176
     1
 90
        3
176
     1
 62
     5
420
      255
176
     1
290
     0
176
     1
 90
       50
176
     1
 90
       50
176
     1
 90
       50
176
     1
290
     0
176
     1
 90
       50
176
     1
 62
   256
176
     0
 40
1.0
176
     0
 90
        2
176
     1
  1
strokes_ogs.tif
176
     1
290
     0
176
     1
 40
1.0
176
     1
 40
1.0
176
     1
  0
VISUALSTYLE
  5
2DDF
102
{ACAD_REACTORS
330
2DD2
102
}
330
2DD2
100
AcDbVisualStyle
  2
Thicken
 70
    13
177
     3
291
     1
 70
    58
 90
        2
176
     1
 90
        2
176
     1
 90
        0
176
     1
 90
        0
176
     1
 40
0.6
176
     1
 40
30.0
176
     1
 62
     7
420
 16777215
176
     1
 90
        1
176
     1
 90
        4
176
     1
 62
     7
176
     1
 62
   257
176
     1
 90
        1
176
     1
 90
        1
176
     1
 40
1.0
176
     1
 90
       12
176
     1
 62
     7
176
     1
 40
1.0
176
     1
 90
        1
176
     1
 90
        6
176
     1
 90
        2
176
     1
 62
     7
176
     1
 90
        5
176
     1
 90
        0
176
     1
 90
        0
176
     1
290
     0
176
     1
 90
        1
176
     1
 40
0.0
176
     1
 90
        0
176
     1
290
     0
176
     1
290
     1
176
     1
290
     1
176
     1
290
     0
176
     1
290
     0
176
     1
290
     0
176
     1
290
     0
176
     1
290
     0
176
     1
290
     0
176
     1
 90
       50
176
     1
 40
0.0
176
     1
 40
1.0
176
     1
 90
        0
176
     1
 62
    18
420
        0
176
     1
 90
       50
176
     1
 90
        3
176
     1
 62
     5
420
      255
176
     1
290
     0
176
     1
 90
       50
176
     1
 90
       50
176
     1
 90
       50
176
     1
290
     0
176
     1
 90
       50
176
     1
 62
   256
176
     0
 40
1.0
176
     0
 90
        2
176
     1
  1
strokes_ogs.tif
176
     1
290
     0
176
     1
 40
1.0
176
     1
 40
1.0
176
     1
  0
VISUALSTYLE
  5
2DD9
102
{ACAD_REACTORS
330
2DD2
102
}
330
2DD2
100
AcDbVisualStyle
  2
Wireframe
 70
     5
177
     3
291
     0
 70
    58
 90
        0
176
     1
 90
        2
176
     1
 90
        0
176
     1
 90
        0
176
     1
 40
0.6
176
     1
 40
30.0
176
     1
 62
     7
420
 16777215
176
     1
 90
        1
176
     1
 90
        4
176
     1
 62
     7
176
     1
 62
   257
176
     1
 90
        1
176
     1
 90
        1
176
     1
 40
1.0
176
     1
 90
        0
176
     1
 62
   257
176
     1
 40
1.0
176
     1
 90
        1
176
     1
 90
        6
176
     1
 90
        2
176
     1
 62
     7
176
     1
 90
        3
176
     1
 90
        0
176
     1
 90
        0
176
     1
290
     0
176
     1
 90
        1
176
     1
 40
0.0
176
     1
 90
        0
176
     1
290
     0
176
     1
290
     1
176
     1
290
     1
176
     1
290
     0
176
     1
290
     0
176
     1
290
     0
176
     1
290
     0
176
     1
290
     0
176
     1
290
     0
176
     1
 90
       50
176
     1
 40
0.0
176
     1
 40
1.0
176
     1
 90
        0
176
     1
 62
    18
420
        0
176
     1
 90
       50
176
     1
 90
        3
176
     1
 62
     5
420
      255
176
     1
290
     0
176
     1
 90
       50
176
     1
 90
       50
176
     1
 90
       50
176
     1
290
     0
176
     1
 90
       50
176
     1
 62
   256
176
     0
 40
1.0
176
     0
 90
        2
176
     1
  1
strokes_ogs.tif
176
     1
290
     0
176
     1
 40
1.0
176
     1
 40
1.0
176
     1
  0
VISUALSTYLE
  5
2DE5
102
{ACAD_REACTORS
330
2DD2
102
}
330
2DD2
100
AcDbVisualStyle
  2
X-Ray
 70
    25
177
     3
291
     0
 70
    58
 90
        2
176
     1
 90
        2
176
     1
 90
        1
176
     1
 90
        1
176
     1
 40
0.5
176
     1
 40
30.0
176
     1
 62
     7
420
 16777215
176
     1
 90
        1
176
     1
 90
        0
176
     1
 62
     7
176
     1
 62
   257
176
     1
 90
        1
176
     1
 90
        1
176
     1
 40
1.0
176
     1
 90
        8
176
     1
 62
     7
176
     1
 40
1.0
176
     1
 90
        1
176
     1
 90
        6
176
     1
 90
        2
176
     1
 62
     7
176
     1
 90
        3
176
     1
 90
        0
176
     1
 90
        0
176
     1
290
     0
176
     1
 90
       13
176
     1
 40
0.0
176
     1
 90
        0
176
     1
290
     0
176
     1
290
     1
176
     1
290
     1
176
     1
290
     0
176
     1
290
     0
176
     1
290
     0
176
     1
290
     0
176
     1
290
     0
176
     1
290
     0
176
     1
 90
       50
176
     1
 40
0.0
176
     1
 40
1.0
176
     1
 90
        0
176
     1
 62
    18
420
        0
176
     1
 90
       50
176
     1
 90
        3
176
     1
 62
     5
420
      255
176
     1
290
     0
176
     1
 90
       50
176
     1
 90
       50
176
     1
 90
       50
176
     1
290
     0
176
     1
 90
       50
176
     1
 62
   256
176
     0
 40
1.0
176
     0
 90
        2
176
     1
  1
strokes_ogs.tif
176
     1
290
     0
176
     1
 40
1.0
176
     1
 40
1.0
176
     1
  0
DICTIONARYVAR
  5
2E33
102
{ACAD_REACTORS
330
5E
102
}
330
5E
100
DictionaryVariables
280
     0
  1
1:1
  0
DICTIONARYVAR
  5
2E2F
102
{ACAD_REACTORS
330
5E
102
}
330
5E
100
DictionaryVariables
280
     0
  1
STANDARD
  0
DICTIONARYVAR
  5
84
102
{ACAD_REACTORS
330
5E
102
}
330
5E
100
DictionaryVariables
280
     0
  1
STANDARD
  0
DICTIONARYVAR
  5
2E30
102
{ACAD_REACTORS
330
5E
102
}
330
5E
100
DictionaryVariables
280
     0
  1
Metric50
  0
DICTIONARYVAR
  5
2E31
102
{ACAD_REACTORS
330
5E
102
}
330
5E
100
DictionaryVariables
280
     0
  1
Metric50
  0
DICTIONARYVAR
  5
5F
102
{ACAD_REACTORS
330
5E
102
}
330
5E
100
DictionaryVariables
280
     0
  1
2
  0
DICTIONARYVAR
  5
63
102
{ACAD_REACTORS
330
5E
102
}
330
5E
100
DictionaryVariables
280
     0
  1
1
  0
DICTIONARYVAR
  5
2E35
102
{ACAD_REACTORS
330
5E
102
}
330
5E
100
DictionaryVariables
280
     0
  1
1
  0
DICTIONARYVAR
  5
2E36
102
{ACAD_REACTORS
330
5E
102
}
330
5E
100
DictionaryVariables
280
     0
  1
15
  0
DICTIONARYVAR
  5
2E34
102
{ACAD_REACTORS
330
5E
102
}
330
5E
100
DictionaryVariables
280
     0
  1
0
  0
DICTIONARYVAR
  5
2E32
102
{ACAD_REACTORS
330
5E
102
}
330
5E
100
DictionaryVariables
280
     0
  1
0
  0
DICTIONARYVAR
  5
482
102
{ACAD_REACTORS
330
5E
102
}
330
5E
100
DictionaryVariables
280
     0
  1

  0
XRECORD
  5
446
102
{ACAD_REACTORS
330
445
102
}
330
445
100
AcDbXrecord
280
     1
  0
DICTIONARY
  5
2E3B
330
2E03
100
AcDbDictionary
280
     1
281
     1
  3
ACAD_XREC_ROUNDTRIP
360
2E3C
  0
DICTIONARY
  5
2DC3
330
2DC2
100
AcDbDictionary
280
     1
281
     1
  3
BUMPTILE
360
2DC5
  3
DIFFUSETILE
360
2DC4
  3
OPACITYTILE
360
2DC8
  3
REFLECTIONTILE
360
2DC7
  3
REFRACTIONTILE
360
2DC9
  3
SPECULARTILE
360
2DC6
  0
DICTIONARY
  5
2DBB
330
2DBA
100
AcDbDictionary
280
     1
281
     1
  3
BUMPTILE
360
2DBD
  3
DIFFUSETILE
360
2DBC
  3
OPACITYTILE
360
2DC0
  3
REFLECTIONTILE
360
2DBF
  3
REFRACTIONTILE
360
2DC1
  3
SPECULARTILE
360
2DBE
  0
DICTIONARY
  5
2DCB
330
2DCA
100
AcDbDictionary
280
     1
281
     1
  3
BUMPTILE
360
2DCD
  3
DIFFUSETILE
360
2DCC
  3
OPACITYTILE
360
2DD0
  3
REFLECTIONTILE
360
2DCF
  3
REFRACTIONTILE
360
2DD1
  3
SPECULARTILE
360
2DCE
  0
DICTIONARY
  5
2E39
330
2E01
100
AcDbDictionary
280
     1
281
     1
  3
ACAD_XREC_ROUNDTRIP
360
2E3A
  0
DICTIONARY
  5
2E37
330
7F
100
AcDbDictionary
280
     1
281
     1
  3
ACAD_ROUNDTRIP_2008_TABLESTYLE_CELLSTYLEMAP
360
2E38
  0
XRECORD
  5
2E3C
102
{ACAD_REACTORS
330
2E3B
102
}
330
2E3B
100
AcDbXrecord
280
     1
102
DISPLAYNAME
  1
Metric50
102
FLAGS
 90
        0
  0
XRECORD
  5
2DC5
102
{ACAD_REACTORS
330
2DC3
102
}
330
2DC3
100
AcDbXrecord
280
     1
270
     1
271
     1
  0
XRECORD
  5
2DC4
102
{ACAD_REACTORS
330
2DC3
102
}
330
2DC3
100
AcDbXrecord
280
     1
270
     1
271
     1
  0
XRECORD
  5
2DC8
102
{ACAD_REACTORS
330
2DC3
102
}
330
2DC3
100
AcDbXrecord
280
     1
270
     1
271
     1
  0
XRECORD
  5
2DC7
102
{ACAD_REACTORS
330
2DC3
102
}
330
2DC3
100
AcDbXrecord
280
     1
270
     1
271
     1
  0
XRECORD
  5
2DC9
102
{ACAD_REACTORS
330
2DC3
102
}
330
2DC3
100
AcDbXrecord
280
     1
270
     1
271
     1
  0
XRECORD
  5
2DC6
102
{ACAD_REACTORS
330
2DC3
102
}
330
2DC3
100
AcDbXrecord
280
     1
270
     1
271
     1
  0
XRECORD
  5
2DBD
102
{ACAD_REACTORS
330
2DBB
102
}
330
2DBB
100
AcDbXrecord
280
     1
270
     1
271
     1
  0
XRECORD
  5
2DBC
102
{ACAD_REACTORS
330
2DBB
102
}
330
2DBB
100
AcDbXrecord
280
     1
270
     1
271
     1
  0
XRECORD
  5
2DC0
102
{ACAD_REACTORS
330
2DBB
102
}
330
2DBB
100
AcDbXrecord
280
     1
270
     1
271
     1
  0
XRECORD
  5
2DBF
102
{ACAD_REACTORS
330
2DBB
102
}
330
2DBB
100
AcDbXrecord
280
     1
270
     1
271
     1
  0
XRECORD
  5
2DC1
102
{ACAD_REACTORS
330
2DBB
102
}
330
2DBB
100
AcDbXrecord
280
     1
270
     1
271
     1
  0
XRECORD
  5
2DBE
102
{ACAD_REACTORS
330
2DBB
102
}
330
2DBB
100
AcDbXrecord
280
     1
270
     1
271
     1
  0
XRECORD
  5
2DCD
102
{ACAD_REACTORS
330
2DCB
102
}
330
2DCB
100
AcDbXrecord
280
     1
270
     1
271
     1
  0
XRECORD
  5
2DCC
102
{ACAD_REACTORS
330
2DCB
102
}
330
2DCB
100
AcDbXrecord
280
     1
270
     1
271
     1
  0
XRECORD
  5
2DD0
102
{ACAD_REACTORS
330
2DCB
102
}
330
2DCB
100
AcDbXrecord
280
     1
270
     1
271
     1
  0
XRECORD
  5
2DCF
102
{ACAD_REACTORS
330
2DCB
102
}
330
2DCB
100
AcDbXrecord
280
     1
270
     1
271
     1
  0
XRECORD
  5
2DD1
102
{ACAD_REACTORS
330
2DCB
102
}
330
2DCB
100
AcDbXrecord
280
     1
270
     1
271
     1
  0
XRECORD
  5
2DCE
102
{ACAD_REACTORS
330
2DCB
102
}
330
2DCB
100
AcDbXrecord
280
     1
270
     1
271
     1
  0
XRECORD
  5
2E3A
102
{ACAD_REACTORS
330
2E39
102
}
330
2E39
100
AcDbXrecord
280
     1
102
DISPLAYNAME
  1
Metric50
102
FLAGS
 90
        0
  0
CELLSTYLEMAP
  5
2E38
102
{ACAD_REACTORS
330
2E37
102
}
330
2E37
100
AcDbCellStyleMap
 90
        3
300
CELLSTYLE
  1
TABLEFORMAT_BEGIN
 90
        5
170
     1
 91
        0
 92
    32768
 62
   257
 93
        1
300
CONTENTFORMAT
  1
CONTENTFORMAT_BEGIN
 90
        0
 91
        0
 92
        4
 93
        0
300

 40
0.0
140
1.0
 94
        5
 62
     0
340
11
144
6.0
309
CONTENTFORMAT_END
171
     1
301
MARGIN
  1
CELLMARGIN_BEGIN
 40
1.5
 40
1.5
 40
1.5
 40
1.5
 40
0.18
 40
0.18
309
CELLMARGIN_END
 94
        6
 95
        1
302
GRIDFORMAT
  1
GRIDFORMAT_BEGIN
 90
        0
 91
        1
 62
     0
 92
       -2
340
0
 93
        0
 40
0.045
309
GRIDFORMAT_END
 95
        2
302
GRIDFORMAT
  1
GRIDFORMAT_BEGIN
 90
        0
 91
        1
 62
     0
 92
       -2
340
0
 93
        0
 40
0.045
309
GRIDFORMAT_END
 95
        4
302
GRIDFORMAT
  1
GRIDFORMAT_BEGIN
 90
        0
 91
        1
 62
     0
 92
       -2
340
0
 93
        0
 40
0.045
309
GRIDFORMAT_END
 95
        8
302
GRIDFORMAT
  1
GRIDFORMAT_BEGIN
 90
        0
 91
        1
 62
     0
 92
       -2
340
0
 93
        0
 40
0.045
309
GRIDFORMAT_END
 95
       16
302
GRIDFORMAT
  1
GRIDFORMAT_BEGIN
 90
        0
 91
        1
 62
     0
 92
       -2
340
0
 93
        0
 40
0.045
309
GRIDFORMAT_END
 95
       32
302
GRIDFORMAT
  1
GRIDFORMAT_BEGIN
 90
        0
 91
        1
 62
     0
 92
       -2
340
0
 93
        0
 40
0.045
309
GRIDFORMAT_END
309
TABLEFORMAT_END
  1
CELLSTYLE_BEGIN
 90
        1
 91
        1
300
_TITLE
309
CELLSTYLE_END
300
CELLSTYLE
  1
TABLEFORMAT_BEGIN
 90
        5
170
     1
 91
        0
 92
        0
 62
   257
 93
        1
300
CONTENTFORMAT
  1
CONTENTFORMAT_BEGIN
 90
        0
 91
        0
 92
        4
 93
        0
300

 40
0.0
140
1.0
 94
        5
 62
     0
340
11
144
4.5
309
CONTENTFORMAT_END
171
     1
301
MARGIN
  1
CELLMARGIN_BEGIN
 40
1.5
 40
1.5
 40
1.5
 40
1.5
 40
0.18
 40
0.18
309
CELLMARGIN_END
 94
        6
 95
        1
302
GRIDFORMAT
  1
GRIDFORMAT_BEGIN
 90
        0
 91
        1
 62
     0
 92
       -2
340
0
 93
        0
 40
0.045
309
GRIDFORMAT_END
 95
        2
302
GRIDFORMAT
  1
GRIDFORMAT_BEGIN
 90
        0
 91
        1
 62
     0
 92
       -2
340
0
 93
        0
 40
0.045
309
GRIDFORMAT_END
 95
        4
302
GRIDFORMAT
  1
GRIDFORMAT_BEGIN
 90
        0
 91
        1
 62
     0
 92
       -2
340
0
 93
        0
 40
0.045
309
GRIDFORMAT_END
 95
        8
302
GRIDFORMAT
  1
GRIDFORMAT_BEGIN
 90
        0
 91
        1
 62
     0
 92
       -2
340
0
 93
        0
 40
0.045
309
GRIDFORMAT_END
 95
       16
302
GRIDFORMAT
  1
GRIDFORMAT_BEGIN
 90
        0
 91
        1
 62
     0
 92
       -2
340
0
 93
        0
 40
0.045
309
GRIDFORMAT_END
 95
       32
302
GRIDFORMAT
  1
GRIDFORMAT_BEGIN
 90
        0
 91
        1
 62
     0
 92
       -2
340
0
 93
        0
 40
0.045
309
GRIDFORMAT_END
309
TABLEFORMAT_END
  1
CELLSTYLE_BEGIN
 90
        2
 91
        1
300
_HEADER
309
CELLSTYLE_END
300
CELLSTYLE
  1
TABLEFORMAT_BEGIN
 90
        5
170
     1
 91
        0
 92
        0
 62
   257
 93
        1
300
CONTENTFORMAT
  1
CONTENTFORMAT_BEGIN
 90
        0
 91
        0
 92
        4
 93
        0
300

 40
0.0
140
1.0
 94
        2
 62
     0
340
11
144
4.5
309
CONTENTFORMAT_END
171
     1
301
MARGIN
  1
CELLMARGIN_BEGIN
 40
1.5
 40
1.5
 40
1.5
 40
1.5
 40
0.18
 40
0.18
309
CELLMARGIN_END
 94
        6
 95
        1
302
GRIDFORMAT
  1
GRIDFORMAT_BEGIN
 90
        0
 91
        1
 62
     0
 92
       -2
340
0
 93
        0
 40
0.045
309
GRIDFORMAT_END
 95
        2
302
GRIDFORMAT
  1
GRIDFORMAT_BEGIN
 90
        0
 91
        1
 62
     0
 92
       -2
340
0
 93
        0
 40
0.045
309
GRIDFORMAT_END
 95
        4
302
GRIDFORMAT
  1
GRIDFORMAT_BEGIN
 90
        0
 91
        1
 62
     0
 92
       -2
340
0
 93
        0
 40
0.045
309
GRIDFORMAT_END
 95
        8
302
GRIDFORMAT
  1
GRIDFORMAT_BEGIN
 90
        0
 91
        1
 62
     0
 92
       -2
340
0
 93
        0
 40
0.045
309
GRIDFORMAT_END
 95
       16
302
GRIDFORMAT
  1
GRIDFORMAT_BEGIN
 90
        0
 91
        1
 62
     0
 92
       -2
340
0
 93
        0
 40
0.045
309
GRIDFORMAT_END
 95
       32
302
GRIDFORMAT
  1
GRIDFORMAT_BEGIN
 90
        0
 91
        1
 62
     0
 92
       -2
340
0
 93
        0
 40
0.045
309
GRIDFORMAT_END
309
TABLEFORMAT_END
  1
CELLSTYLE_BEGIN
 90
        3
 91
        2
300
_DATA
309
CELLSTYLE_END
  0
ENDSEC
  0
EOF
