  0
SECTION
  2
HEADER
  9
$ACADVER
  1
AC1032
  9
$ACADMAINTVER
 90
      174
  9
$DWGCODEPAGE
  3
ANSI_1252
  9
$LASTSAVEDBY
  1
pengb
  9
$REQUIREDVERSIONS
160
                 0
  9
$INSBASE
 10
0.0
 20
0.0
 30
0.0
  9
$EXTMIN
 10
-0.0128164049386896
 20
-0.0090630292066862
 30
-0.0015258207003583
  9
$EXTMAX
 10
301.8365486918908
 20
334.7594611846836
 30
0.0000000349246037
  9
$LIMMIN
 10
0.0
 20
0.0
  9
$LIMMAX
 10
420.0
 20
297.0
  9
$ORTHOMODE
 70
     0
  9
$REGENMODE
 70
     1
  9
$FILLMODE
 70
     1
  9
$QTEXTMODE
 70
     0
  9
$MIRRTEXT
 70
     0
  9
$LTSCALE
 40
1.0
  9
$ATTMODE
 70
     1
  9
$TEXTSIZE
 40
2.5
  9
$TRACEWID
 40
1.0
  9
$TEXTSTYLE
  7
Standard
  9
$CLAYER
  8
DIMENSION
  9
$CELTYPE
  6
ByLayer
  9
$CECOLOR
 62
   256
  9
$CELTSCALE
 40
1.0
  9
$DISPSILH
 70
     0
  9
$DIMSCALE
 40
12.0
  9
$DIMASZ
 40
3.5
  9
$DIMEXO
 40
1.0
  9
$DIMDLI
 40
10.0
  9
$DIMRND
 40
0.0
  9
$DIMDLE
 40
0.0
  9
$DIMEXE
 40
5.0
  9
$DIMTP
 40
0.0
  9
$DIMTM
 40
0.0
  9
$DIMTXT
 40
8.0
  9
$DIMCEN
 40
0.0
  9
$DIMTSZ
 40
0.0
  9
$DIMTOL
 70
     0
  9
$DIMLIM
 70
     0
  9
$DIMTIH
 70
     1
  9
$DIMTOH
 70
     1
  9
$DIMSE1
 70
     0
  9
$DIMSE2
 70
     0
  9
$DIMTAD
 70
     2
  9
$DIMZIN
 70
     0
  9
$DIMBLK
  1
None
  9
$DIMASO
 70
     1
  9
$DIMSHO
 70
     1
  9
$DIMPOST
  1

  9
$DIMAPOST
  1

  9
$DIMALT
 70
     0
  9
$DIMALTD
 70
     2
  9
$DIMALTF
 40
25.4
  9
$DIMLFAC
 40
1.0
  9
$DIMTOFL
 70
     1
  9
$DIMTVP
 40
0.0
  9
$DIMTIX
 70
     0
  9
$DIMSOXD
 70
     0
  9
$DIMSAH
 70
     0
  9
$DIMBLK1
  1

  9
$DIMBLK2
  1

  9
$DIMSTYLE
  2
RG Dimension Lines
  9
$DIMCLRD
 70
   256
  9
$DIMCLRE
 70
   256
  9
$DIMCLRT
 70
     7
  9
$DIMTFAC
 40
1.0
  9
$DIMGAP
 40
4.0
  9
$DIMJUST
 70
     0
  9
$DIMSD1
 70
     0
  9
$DIMSD2
 70
     0
  9
$DIMTOLJ
 70
     1
  9
$DIMTZIN
 70
     0
  9
$DIMALTZ
 70
     0
  9
$DIMALTTZ
 70
     0
  9
$DIMUPT
 70
     0
  9
$DIMDEC
 70
     0
  9
$DIMTDEC
 70
     0
  9
$DIMALTU
 70
     2
  9
$DIMALTTD
 70
     2
  9
$DIMTXSTY
  7
Standard
  9
$DIMAUNIT
 70
     0
  9
$DIMADEC
 70
     0
  9
$DIMALTRND
 40
0.0
  9
$DIMAZIN
 70
     0
  9
$DIMDSEP
 70
    46
  9
$DIMATFIT
 70
     3
  9
$DIMFRAC
 70
     0
  9
$DIMLDRBLK
  1
None
  9
$DIMLUNIT
 70
     2
  9
$DIMLWD
 70
     0
  9
$DIMLWE
 70
     0
  9
$DIMTMOVE
 70
     0
  9
$DIMFXL
 40
5.0
  9
$DIMFXLON
 70
     1
  9
$DIMJOGANG
 40
0.7853981633974483
  9
$DIMTFILL
 70
     0
  9
$DIMTFILLCLR
 70
     0
  9
$DIMARCSYM
 70
     0
  9
$DIMLTYPE
  6

  9
$DIMLTEX1
  6

  9
$DIMLTEX2
  6

  9
$DIMTXTDIRECTION
 70
     0
  9
$LUNITS
 70
     2
  9
$LUPREC
 70
     2
  9
$SKETCHINC
 40
1.0
  9
$FILLETRAD
 40
0.0
  9
$AUNITS
 70
     0
  9
$AUPREC
 70
     4
  9
$MENU
  1
.
  9
$ELEVATION
 40
0.0
  9
$PELEVATION
 40
0.0
  9
$THICKNESS
 40
0.0
  9
$LIMCHECK
 70
     0
  9
$CHAMFERA
 40
0.0
  9
$CHAMFERB
 40
0.0
  9
$CHAMFERC
 40
0.0
  9
$CHAMFERD
 40
0.0
  9
$SKPOLY
 70
     0
  9
$TDCREATE
 40
2460055.631620370
  9
$TDUCREATE
 40
2460055.214953704
  9
$TDUPDATE
 40
2460055.637476852
  9
$TDUUPDATE
 40
2460055.220810185
  9
$TDINDWG
 40
0.0058564815
  9
$TDUSRTIMER
 40
0.0058564815
  9
$USRTIMER
 70
     1
  9
$ANGBASE
 50
0.0
  9
$ANGDIR
 70
     0
  9
$PDMODE
 70
     0
  9
$PDSIZE
 40
0.0
  9
$PLINEWID
 40
0.0
  9
$SPLFRAME
 70
     0
  9
$SPLINETYPE
 70
     6
  9
$SPLINESEGS
 70
     8
  9
$HANDSEED
  5
D31
  9
$SURFTAB1
 70
     6
  9
$SURFTAB2
 70
     6
  9
$SURFTYPE
 70
     6
  9
$SURFU
 70
     6
  9
$SURFV
 70
     6
  9
$UCSBASE
  2

  9
$UCSNAME
  2

  9
$UCSORG
 10
0.0
 20
0.0
 30
0.0
  9
$UCSXDIR
 10
1.0
 20
0.0
 30
0.0
  9
$UCSYDIR
 10
0.0
 20
1.0
 30
0.0
  9
$UCSORTHOREF
  2

  9
$UCSORTHOVIEW
 70
     0
  9
$UCSORGTOP
 10
0.0
 20
0.0
 30
0.0
  9
$UCSORGBOTTOM
 10
0.0
 20
0.0
 30
0.0
  9
$UCSORGLEFT
 10
0.0
 20
0.0
 30
0.0
  9
$UCSORGRIGHT
 10
0.0
 20
0.0
 30
0.0
  9
$UCSORGFRONT
 10
0.0
 20
0.0
 30
0.0
  9
$UCSORGBACK
 10
0.0
 20
0.0
 30
0.0
  9
$PUCSBASE
  2

  9
$PUCSNAME
  2

  9
$PUCSORG
 10
0.0
 20
0.0
 30
0.0
  9
$PUCSXDIR
 10
1.0
 20
0.0
 30
0.0
  9
$PUCSYDIR
 10
0.0
 20
1.0
 30
0.0
  9
$PUCSORTHOREF
  2

  9
$PUCSORTHOVIEW
 70
     0
  9
$PUCSORGTOP
 10
0.0
 20
0.0
 30
0.0
  9
$PUCSORGBOTTOM
 10
0.0
 20
0.0
 30
0.0
  9
$PUCSORGLEFT
 10
0.0
 20
0.0
 30
0.0
  9
$PUCSORGRIGHT
 10
0.0
 20
0.0
 30
0.0
  9
$PUCSORGFRONT
 10
0.0
 20
0.0
 30
0.0
  9
$PUCSORGBACK
 10
0.0
 20
0.0
 30
0.0
  9
$USERI1
 70
     0
  9
$USERI2
 70
     0
  9
$USERI3
 70
     0
  9
$USERI4
 70
     0
  9
$USERI5
 70
     0
  9
$USERR1
 40
0.0
  9
$USERR2
 40
0.0
  9
$USERR3
 40
0.0
  9
$USERR4
 40
0.0
  9
$USERR5
 40
0.0
  9
$WORLDVIEW
 70
     1
  9
$SHADEDGE
 70
     3
  9
$SHADEDIF
 70
    70
  9
$TILEMODE
 70
     1
  9
$MAXACTVP
 70
    64
  9
$PINSBASE
 10
0.0
 20
0.0
 30
0.0
  9
$PLIMCHECK
 70
     0
  9
$PEXTMIN
 10
-0.1982315454655463
 20
-0.1320665964683769
 30
-0.0015258207003583
  9
$PEXTMAX
 10
135.0013736228009
 20
94.99053977778009
 30
0.0000000349246037
  9
$PLIMMIN
 10
0.0
 20
0.0
  9
$PLIMMAX
 10
120.0
 20
90.0
  9
$UNITMODE
 70
     0
  9
$VISRETAIN
 70
     1
  9
$PLINEGEN
 70
     0
  9
$PSLTSCALE
 70
     1
  9
$TREEDEPTH
 70
  3020
  9
$CMLSTYLE
  2
Standard
  9
$CMLJUST
 70
     0
  9
$CMLSCALE
 40
20.0
  9
$PROXYGRAPHICS
 70
     1
  9
$MEASUREMENT
 70
     1
  9
$CELWEIGHT
370
    -1
  9
$ENDCAPS
280
     0
  9
$JOINSTYLE
280
     0
  9
$LWDISPLAY
290
     0
  9
$INSUNITS
 70
     4
  9
$HYPERLINKBASE
  1

  9
$STYLESHEET
  1

  9
$XEDIT
290
     1
  9
$CEPSNTYPE
380
     0
  9
$PSTYLEMODE
290
     1
  9
$FINGERPRINTGUID
  2
{6EC366BC-F97E-A140-9FA9-FF968A5AC10D}
  9
$VERSIONGUID
  2
{25B04C81-0AAA-014C-A647-57A1A386015F}
  9
$EXTNAMES
290
     1
  9
$PSVPSCALE
 40
0.0
  9
$OLESTARTUP
290
     0
  9
$SORTENTS
280
   127
  9
$INDEXCTL
280
     0
  9
$HIDETEXT
280
     1
  9
$XCLIPFRAME
280
     2
  9
$HALOGAP
280
     0
  9
$OBSCOLOR
 70
   257
  9
$OBSLTYPE
280
     0
  9
$INTERSECTIONDISPLAY
280
     0
  9
$INTERSECTIONCOLOR
 70
   257
  9
$DIMASSOC
280
     2
  9
$PROJECTNAME
  1

  9
$CAMERADISPLAY
290
     0
  9
$LENSLENGTH
 40
50.0
  9
$CAMERAHEIGHT
 40
0.0
  9
$STEPSPERSEC
 40
2.0
  9
$STEPSIZE
 40
6.0
  9
$3DDWFPREC
 40
2.0
  9
$PSOLWIDTH
 40
5.0
  9
$PSOLHEIGHT
 40
80.0
  9
$LOFTANG1
 40
1.570796326794896
  9
$LOFTANG2
 40
1.570796326794896
  9
$LOFTMAG1
 40
0.0
  9
$LOFTMAG2
 40
0.0
  9
$LOFTPARAM
 70
     7
  9
$LOFTNORMALS
280
     1
  9
$LATITUDE
 40
37.795
  9
$LONGITUDE
 40
-122.394
  9
$NORTHDIRECTION
 40
0.0
  9
$TIMEZONE
 70
 -8000
  9
$LIGHTGLYPHDISPLAY
280
     1
  9
$TILEMODELIGHTSYNCH
280
     1
  9
$CMATERIAL
347
EC
  9
$SOLIDHIST
280
     0
  9
$SHOWHIST
280
     1
  9
$DWFFRAME
280
     2
  9
$DGNFRAME
280
     0
  9
$REALWORLDSCALE
290
     1
  9
$INTERFERECOLOR
 62
     1
  9
$INTERFEREOBJVS
345
F9
  9
$INTERFEREVPVS
346
F6
  9
$CSHADOW
280
     0
  9
$SHADOWPLANELOCATION
 40
0.0
  0
ENDSEC
  0
SECTION
  2
CLASSES
  0
CLASS
  1
ACDBDICTIONARYWDFLT
  2
AcDbDictionaryWithDefault
  3
ObjectDBX Classes
 90
        0
 91
        1
280
     0
281
     0
  0
CLASS
  1
DICTIONARYVAR
  2
AcDbDictionaryVar
  3
ObjectDBX Classes
 90
        0
 91
       11
280
     0
281
     0
  0
CLASS
  1
TABLESTYLE
  2
AcDbTableStyle
  3
ObjectDBX Classes
 90
     4095
 91
        1
280
     0
281
     0
  0
CLASS
  1
MATERIAL
  2
AcDbMaterial
  3
ObjectDBX Classes
 90
     1153
 91
        3
280
     0
281
     0
  0
CLASS
  1
VISUALSTYLE
  2
AcDbVisualStyle
  3
ObjectDBX Classes
 90
     4095
 91
       24
280
     0
281
     0
  0
CLASS
  1
SCALE
  2
AcDbScale
  3
ObjectDBX Classes
 90
     1153
 91
       17
280
     0
281
     0
  0
CLASS
  1
MLEADERSTYLE
  2
AcDbMLeaderStyle
  3
ACDB_MLEADERSTYLE_CLASS
 90
     4095
 91
        2
280
     0
281
     0
  0
CLASS
  1
CELLSTYLEMAP
  2
AcDbCellStyleMap
  3
ObjectDBX Classes
 90
     1152
 91
        1
280
     0
281
     0
  0
CLASS
  1
EXACXREFPANELOBJECT
  2
ExAcXREFPanelObject
  3
EXAC_ESW
 90
     1025
 91
        0
280
     0
281
     0
  0
CLASS
  1
NPOCOLLECTION
  2
AcDbImpNonPersistentObjectsCollection
  3
ObjectDBX Classes
 90
     1153
 91
        0
280
     0
281
     0
  0
CLASS
  1
LAYER_INDEX
  2
AcDbLayerIndex
  3
ObjectDBX Classes
 90
        0
 91
        0
280
     0
281
     0
  0
CLASS
  1
SPATIAL_INDEX
  2
AcDbSpatialIndex
  3
ObjectDBX Classes
 90
        0
 91
        0
280
     0
281
     0
  0
CLASS
  1
IDBUFFER
  2
AcDbIdBuffer
  3
ObjectDBX Classes
 90
        0
 91
        0
280
     0
281
     0
  0
CLASS
  1
ACDBSECTIONVIEWSTYLE
  2
AcDbSectionViewStyle
  3
ObjectDBX Classes
 90
     1025
 91
        2
280
     0
281
     0
  0
CLASS
  1
ACDBDETAILVIEWSTYLE
  2
AcDbDetailViewStyle
  3
ObjectDBX Classes
 90
     1025
 91
        2
280
     0
281
     0
  0
CLASS
  1
RAPIDRTRENDERSETTINGS
  2
AcDbRapidRTRenderSettings
  3
ObjectDBX Classes
 90
     1024
 91
        7
280
     0
281
     0
  0
CLASS
  1
SURFACE
  2
AcDbSurface
  3
ObjectDBX Classes
 90
     4095
 91
        0
280
     0
281
     1
  0
CLASS
  1
ACDBASSOCPERSSUBENTMANAGER
  2
AcDbAssocPersSubentManager
  3
ObjectDBX Classes
 90
     1024
 91
        1
280
     0
281
     0
  0
CLASS
  1
DIMASSOC
  2
AcDbDimAssoc
  3
"AcDbDimAssoc|Product Desc:     AcDim ARX App For Dimension|Company:          Autodesk, Inc.|WEB Address:      www.autodesk.com"
 90
        0
 91
        7
280
     0
281
     0
  0
CLASS
  1
ACDB_ALDIMOBJECTCONTEXTDATA_CLASS
  2
AcDbAlignedDimensionObjectContextData
  3
ObjectDBX Classes
 90
     1153
 91
        7
280
     0
281
     0
  0
ENDSEC
  0
SECTION
  2
TABLES
  0
TABLE
  2
VPORT
  5
8
330
0
100
AcDbSymbolTable
 70
     1
  0
VPORT
  5
EA
330
8
100
AcDbSymbolTableRecord
100
AcDbViewportTableRecord
  2
*Active
 70
     0
 10
0.0
 20
0.0
 11
1.0
 21
1.0
 12
150.911866143476
 22
167.3751990777384
 13
0.0
 23
0.0
 14
10.0
 24
10.0
 15
10.0
 25
10.0
 16
0.0
 26
0.0
 36
1.0
 17
0.0
 27
0.0
 37
0.0
 40
336.0365868056096
 41
1.950094756790903
 42
50.0
 43
0.0
 44
0.0
 50
0.0
 51
0.0
 71
     0
 72
  1000
 73
     1
 74
     3
 75
     1
 76
     1
 77
     0
 78
     0
281
     0
 65
     1
110
0.0
120
0.0
130
0.0
111
1.0
121
0.0
131
0.0
112
0.0
122
1.0
132
0.0
 79
     0
146
0.0
348
F5
 60
     3
 61
     5
292
     1
282
     1
141
0.0
142
0.0
 63
   250
421
  3355443
1001
ACAD_NAV_VCDISPLAY
1070
     3
  0
ENDTAB
  0
TABLE
  2
LTYPE
  5
5
330
0
100
AcDbSymbolTable
 70
     2
  0
LTYPE
  5
14
330
5
100
AcDbSymbolTableRecord
100
AcDbLinetypeTableRecord
  2
ByBlock
 70
     0
  3

 72
    65
 73
     0
 40
0.0
  0
LTYPE
  5
15
330
5
100
AcDbSymbolTableRecord
100
AcDbLinetypeTableRecord
  2
ByLayer
 70
     0
  3

 72
    65
 73
     0
 40
0.0
  0
LTYPE
  5
16
330
5
100
AcDbSymbolTableRecord
100
AcDbLinetypeTableRecord
  2
Continuous
 70
     0
  3
Solid line
 72
    65
 73
     0
 40
0.0
  0
ENDTAB
  0
TABLE
  2
LAYER
  5
2
102
{ACAD_XDICTIONARY
360
1FF
102
}
330
0
100
AcDbSymbolTable
 70
     9
  0
LAYER
  5
10
102
{ACAD_XDICTIONARY
360
13C
102
}
330
2
100
AcDbSymbolTableRecord
100
AcDbLayerTableRecord
  2
0
 70
     0
 62
   255
  6
Continuous
370
    -3
390
F
347
EE
348
0
  0
LAYER
  5
2A8
330
2
100
AcDbSymbolTableRecord
100
AcDbLayerTableRecord
  2
OBJECTS
 70
     0
 62
   250
  6
Continuous
370
    -3
390
F
347
EE
348
0
1001
AcAecLayerStandard
1000

1000

1001
AcCmTransparency
1071
        0
  0
LAYER
  5
582
330
2
100
AcDbSymbolTableRecord
100
AcDbLayerTableRecord
  2
Defpoints
 70
     0
 62
     7
  6
Continuous
290
     0
370
    -3
390
F
347
EE
348
0
  0
LAYER
  5
65C
330
2
100
AcDbSymbolTableRecord
100
AcDbLayerTableRecord
  2
DIMENSION
 70
     0
 62
   255
  6
Continuous
370
    -3
390
F
347
EE
348
0
  0
LAYER
  5
718
330
2
100
AcDbSymbolTableRecord
100
AcDbLayerTableRecord
  2
Layer 1
 70
     0
 62
     7
  6
Continuous
370
     0
390
F
347
EE
348
0
  0
LAYER
  5
C6D
330
2
100
AcDbSymbolTableRecord
100
AcDbLayerTableRecord
  2
Default
 70
     0
 62
     7
  6
Continuous
370
    -3
390
F
347
EE
348
0
  0
LAYER
  5
C6E
330
2
100
AcDbSymbolTableRecord
100
AcDbLayerTableRecord
  2
DV1_Default
 70
     0
 62
     7
  6
Continuous
370
    -3
390
F
347
EE
348
0
  0
LAYER
  5
C6F
330
2
100
AcDbSymbolTableRecord
100
AcDbLayerTableRecord
  2
DV2_Default
 70
     0
 62
     7
  6
Continuous
370
    -3
390
F
347
EE
348
0
  0
LAYER
  5
C70
330
2
100
AcDbSymbolTableRecord
100
AcDbLayerTableRecord
  2
DV3_Default
 70
     0
 62
     7
  6
Continuous
370
    -3
390
F
347
EE
348
0
  0
ENDTAB
  0
TABLE
  2
STYLE
  5
3
330
0
100
AcDbSymbolTable
 70
     1
  0
STYLE
  5
11
330
3
100
AcDbSymbolTableRecord
100
AcDbTextStyleTableRecord
  2
Standard
 70
     0
 40
8.0
 41
1.0
 50
0.0
 71
     0
 42
2.5
  3
HV______.TTF
  4

1001
AcadAnnotative
1000
AnnotativeData
1002
{
1070
     1
1070
     1
1002
}
1001
ACAD
1000
Helvetica
1071
        2
  0
ENDTAB
  0
TABLE
  2
VIEW
  5
6
330
0
100
AcDbSymbolTable
 70
     0
  0
ENDTAB
  0
TABLE
  2
UCS
  5
7
330
0
100
AcDbSymbolTable
 70
     0
  0
ENDTAB
  0
TABLE
  2
APPID
  5
9
330
0
100
AcDbSymbolTable
 70
    19
  0
APPID
  5
12
330
9
100
AcDbSymbolTableRecord
100
AcDbRegAppTableRecord
  2
ACAD
 70
     0
  0
APPID
  5
9E
330
9
100
AcDbSymbolTableRecord
100
AcDbRegAppTableRecord
  2
ACAD_PSEXT
 70
     0
  0
APPID
  5
133
330
9
100
AcDbSymbolTableRecord
100
AcDbRegAppTableRecord
  2
AcadAnnoPO
 70
     0
  0
APPID
  5
134
330
9
100
AcDbSymbolTableRecord
100
AcDbRegAppTableRecord
  2
AcadAnnotative
 70
     0
  0
APPID
  5
135
330
9
100
AcDbSymbolTableRecord
100
AcDbRegAppTableRecord
  2
ACAD_DSTYLE_DIMJAG
 70
     0
  0
APPID
  5
136
330
9
100
AcDbSymbolTableRecord
100
AcDbRegAppTableRecord
  2
ACAD_DSTYLE_DIMTALN
 70
     0
  0
APPID
  5
165
330
9
100
AcDbSymbolTableRecord
100
AcDbRegAppTableRecord
  2
ACAD_MLEADERVER
 70
     0
  0
APPID
  5
217
330
9
100
AcDbSymbolTableRecord
100
AcDbRegAppTableRecord
  2
ACAD_NAV_VCDISPLAY
 70
     0
  0
APPID
  5
2A9
330
9
100
AcDbSymbolTableRecord
100
AcDbRegAppTableRecord
  2
AcAecLayerStandard
 70
     0
  0
APPID
  5
2AA
330
9
100
AcDbSymbolTableRecord
100
AcDbRegAppTableRecord
  2
AcCmTransparency
 70
     0
  0
APPID
  5
2AB
330
9
100
AcDbSymbolTableRecord
100
AcDbRegAppTableRecord
  2
ACAD_EXEMPT_FROM_CAD_STANDARDS
 70
     0
  0
APPID
  5
2B2
330
9
100
AcDbSymbolTableRecord
100
AcDbRegAppTableRecord
  2
Acad_TC
 70
     0
  0
APPID
  5
2BA
330
9
100
AcDbSymbolTableRecord
100
AcDbRegAppTableRecord
  2
AcadStringInfo
 70
     0
  0
APPID
  5
4A1
330
9
100
AcDbSymbolTableRecord
100
AcDbRegAppTableRecord
  2
ACAD_DIMASSOC_CALC_DIMLFAC
 70
     0
  0
APPID
  5
4A2
330
9
100
AcDbSymbolTableRecord
100
AcDbRegAppTableRecord
  2
ACAD_DIMASSOC_DIMLFAC
 70
     0
  0
APPID
  5
4A3
330
9
100
AcDbSymbolTableRecord
100
AcDbRegAppTableRecord
  2
ACAD_DIMASSOC_OVERRIDDEN_DIMLFAC
 70
     0
  0
APPID
  5
50B
330
9
100
AcDbSymbolTableRecord
100
AcDbRegAppTableRecord
  2
ACAD_STEPID
 70
     0
  0
APPID
  5
65E
330
9
100
AcDbSymbolTableRecord
100
AcDbRegAppTableRecord
  2
ACAD_DSTYLE_DIMBREAK
 70
     0
  0
APPID
  5
C82
330
9
100
AcDbSymbolTableRecord
100
AcDbRegAppTableRecord
  2
ACAD_DSTYLE_DIMRADIAL_EXTENSION
 70
     0
  0
ENDTAB
  0
TABLE
  2
DIMSTYLE
  5
A
330
0
100
AcDbSymbolTable
 70
     5
100
AcDbDimStyleTable
 71
     1
340
65D
  0
DIMSTYLE
105
65D
102
{ACAD_REACTORS
330
C94
330
CD8
330
C84
330
D16
330
D06
102
}
330
A
100
AcDbSymbolTableRecord
100
AcDbDimStyleTableRecord
  2
RG Dimension Lines
 70
     0
 40
12.0
 41
3.5
 42
1.0
 43
10.0
 44
5.0
 49
5.0
 77
     2
140
8.0
141
0.0
147
4.0
172
     1
176
   256
177
   256
178
     7
271
     0
272
     0
290
     1
340
11
341
5DD
342
5DD
371
     0
372
     0
1001
ACAD_DSTYLE_DIMBREAK
1070
   391
1040
0.125
1001
AcadAnnotative
1000
AnnotativeData
1002
{
1070
     1
1070
     1
1002
}
1001
ACAD_DSTYLE_DIMJAG
1070
   388
1040
1.5
1001
ACAD_DSTYLE_DIMTALN
1070
   392
1070
     0
  0
DIMSTYLE
105
719
330
A
100
AcDbSymbolTableRecord
100
AcDbDimStyleTableRecord
  2
Standard
 70
     0
340
11
  0
DIMSTYLE
105
9C7
330
A
100
AcDbSymbolTableRecord
100
AcDbDimStyleTableRecord
  2
RG Dimension Lines_Large
 70
     0
 40
12.0
 41
3.5
 42
6.0
 43
10.0
 44
10.0
 49
10.0
 77
     2
140
30.0
141
0.0
147
10.0
172
     1
176
   256
177
   256
178
     7
271
     0
272
     0
290
     1
340
11
341
5DD
342
5DD
371
     0
372
     0
1001
ACAD_DSTYLE_DIMBREAK
1070
   391
1040
0.125
1001
AcadAnnotative
1000
AnnotativeData
1002
{
1070
     1
1070
     1
1002
}
1001
ACAD_DSTYLE_DIMJAG
1070
   388
1040
1.5
1001
ACAD_DSTYLE_DIMTALN
1070
   392
1070
     0
  0
DIMSTYLE
105
C71
330
A
100
AcDbSymbolTableRecord
100
AcDbDimStyleTableRecord
  2
ISO-25
 70
     0
 41
2.5
 42
0.625
 43
3.75
 44
1.25
 73
     0
 74
     0
 77
     1
 78
     8
140
2.5
141
2.5
143
0.03937007874016
147
0.625
171
     3
172
     1
271
     2
272
     2
274
     3
278
    44
283
     0
284
     8
340
11
  0
ENDTAB
  0
TABLE
  2
BLOCK_RECORD
  5
1
330
0
100
AcDbSymbolTable
 70
    34
  0
BLOCK_RECORD
  5
1F
102
{ACAD_XDICTIONARY
360
1CE
102
}
330
1
100
AcDbSymbolTableRecord
100
AcDbBlockTableRecord
  2
*Model_Space
340
22
 70
     0
280
     1
281
     0
  0
BLOCK_RECORD
  5
4ED
330
1
100
AcDbSymbolTableRecord
100
AcDbBlockTableRecord
  2
*Paper_Space
340
4EE
 70
     0
280
     1
281
     0
  0
BLOCK_RECORD
  5
5DD
330
1
100
AcDbSymbolTableRecord
100
AcDbBlockTableRecord
  2
_None
340
0
 70
     0
280
     1
281
     0
  0
BLOCK_RECORD
  5
6B5
330
1
100
AcDbSymbolTableRecord
100
AcDbBlockTableRecord
  2
Block_0
340
0
 70
     0
280
     1
281
     0
  0
BLOCK_RECORD
  5
6B9
330
1
100
AcDbSymbolTableRecord
100
AcDbBlockTableRecord
  2
Block_1
340
0
102
{BLKREFS
331
6B7
102
}
 70
     0
280
     1
281
     0
  0
BLOCK_RECORD
  5
6C4
330
1
100
AcDbSymbolTableRecord
100
AcDbBlockTableRecord
  2
Block_2
340
0
 70
     0
280
     1
281
     0
  0
BLOCK_RECORD
  5
6C8
330
1
100
AcDbSymbolTableRecord
100
AcDbBlockTableRecord
  2
Block_3
340
0
102
{BLKREFS
331
6C6
102
}
 70
     0
280
     1
281
     0
  0
BLOCK_RECORD
  5
6D0
330
1
100
AcDbSymbolTableRecord
100
AcDbBlockTableRecord
  2
Block_4
340
0
 70
     0
280
     1
281
     0
  0
BLOCK_RECORD
  5
6D4
330
1
100
AcDbSymbolTableRecord
100
AcDbBlockTableRecord
  2
Block_5
340
0
102
{BLKREFS
331
6D2
102
}
 70
     0
280
     1
281
     0
  0
BLOCK_RECORD
  5
6DE
330
1
100
AcDbSymbolTableRecord
100
AcDbBlockTableRecord
  2
Block_6
340
0
 70
     0
280
     1
281
     0
  0
BLOCK_RECORD
  5
6E4
330
1
100
AcDbSymbolTableRecord
100
AcDbBlockTableRecord
  2
Block_7
340
0
 70
     0
280
     1
281
     0
  0
BLOCK_RECORD
  5
6E9
330
1
100
AcDbSymbolTableRecord
100
AcDbBlockTableRecord
  2
Block_8
340
0
 70
     0
280
     1
281
     0
  0
BLOCK_RECORD
  5
6EE
330
1
100
AcDbSymbolTableRecord
100
AcDbBlockTableRecord
  2
Block_9
340
0
 70
     0
280
     1
281
     0
  0
BLOCK_RECORD
  5
6F4
330
1
100
AcDbSymbolTableRecord
100
AcDbBlockTableRecord
  2
Block_10
340
0
 70
     0
280
     1
281
     0
  0
BLOCK_RECORD
  5
6F9
330
1
100
AcDbSymbolTableRecord
100
AcDbBlockTableRecord
  2
Block_11
340
0
 70
     0
280
     1
281
     0
  0
BLOCK_RECORD
  5
6FE
330
1
100
AcDbSymbolTableRecord
100
AcDbBlockTableRecord
  2
Block_12
340
0
 70
     0
280
     1
281
     0
  0
BLOCK_RECORD
  5
702
330
1
100
AcDbSymbolTableRecord
100
AcDbBlockTableRecord
  2
Block_13
340
0
102
{BLKREFS
331
700
102
}
 70
     0
280
     1
281
     0
  0
BLOCK_RECORD
  5
70A
330
1
100
AcDbSymbolTableRecord
100
AcDbBlockTableRecord
  2
Block_14
340
0
 70
     0
280
     1
281
     0
  0
BLOCK_RECORD
  5
70E
330
1
100
AcDbSymbolTableRecord
100
AcDbBlockTableRecord
  2
Block_15
340
0
102
{BLKREFS
331
70C
102
}
 70
     0
280
     1
281
     0
  0
BLOCK_RECORD
  5
91A
330
1
100
AcDbSymbolTableRecord
100
AcDbBlockTableRecord
  2
SW_CENTERMARKSYMBOL_0
340
0
 70
     0
280
     1
281
     0
  0
BLOCK_RECORD
  5
925
330
1
100
AcDbSymbolTableRecord
100
AcDbBlockTableRecord
  2
SW_CENTERMARKSYMBOL_1
340
0
 70
     0
280
     1
281
     0
  0
BLOCK_RECORD
  5
930
330
1
100
AcDbSymbolTableRecord
100
AcDbBlockTableRecord
  2
SW_CENTERMARKSYMBOL_2
340
0
 70
     0
280
     1
281
     0
  0
BLOCK_RECORD
  5
BEF
330
1
100
AcDbSymbolTableRecord
100
AcDbBlockTableRecord
  2
SEANNOT_GROUP
340
0
102
{BLKREFS
331
C7C
102
}
 70
     0
280
     1
281
     0
  0
BLOCK_RECORD
  5
BF4
330
1
100
AcDbSymbolTableRecord
100
AcDbBlockTableRecord
  2
SEANNOT_GROUP1
340
0
102
{BLKREFS
331
C7D
102
}
 70
     0
280
     1
281
     0
  0
BLOCK_RECORD
  5
BFD
330
1
100
AcDbSymbolTableRecord
100
AcDbBlockTableRecord
  2
SEANNOT_GROUP2
340
0
102
{BLKREFS
331
C7E
102
}
 70
     0
280
     1
281
     0
  0
BLOCK_RECORD
  5
C02
330
1
100
AcDbSymbolTableRecord
100
AcDbBlockTableRecord
  2
SE
340
0
102
{BLKREFS
331
C7F
102
}
 70
     0
280
     1
281
     0
  0
BLOCK_RECORD
  5
C1D
330
1
100
AcDbSymbolTableRecord
100
AcDbBlockTableRecord
  2
SE1
340
0
102
{BLKREFS
331
C80
102
}
 70
     0
280
     1
281
     0
  0
BLOCK_RECORD
  5
C43
330
1
100
AcDbSymbolTableRecord
100
AcDbBlockTableRecord
  2
SE2
340
0
102
{BLKREFS
331
C81
102
}
 70
     0
280
     1
281
     0
  0
BLOCK_RECORD
  5
C89
330
1
100
AcDbSymbolTableRecord
100
AcDbBlockTableRecord
  2
*D27
340
0
 70
     0
280
     1
281
     0
  0
BLOCK_RECORD
  5
C99
330
1
100
AcDbSymbolTableRecord
100
AcDbBlockTableRecord
  2
*D28
340
0
 70
     0
280
     1
281
     0
  0
BLOCK_RECORD
  5
CCD
330
1
100
AcDbSymbolTableRecord
100
AcDbBlockTableRecord
  2
*D30
340
0
 70
     0
280
     1
281
     0
  0
BLOCK_RECORD
  5
CDD
330
1
100
AcDbSymbolTableRecord
100
AcDbBlockTableRecord
  2
*D31
340
0
 70
     0
280
     1
281
     0
  0
BLOCK_RECORD
  5
D0B
330
1
100
AcDbSymbolTableRecord
100
AcDbBlockTableRecord
  2
*D32
340
0
 70
     0
280
     1
281
     0
  0
BLOCK_RECORD
  5
D1B
330
1
100
AcDbSymbolTableRecord
100
AcDbBlockTableRecord
  2
*D33
340
0
 70
     0
280
     1
281
     0
  0
ENDTAB
  0
ENDSEC
  0
SECTION
  2
BLOCKS
  0
BLOCK
  5
20
330
1F
100
AcDbEntity
  8
0
100
AcDbBlockBegin
  2
*Model_Space
 70
     0
 10
0.0
 20
0.0
 30
0.0
  3
*Model_Space
  1

  0
ENDBLK
  5
21
330
1F
100
AcDbEntity
  8
0
100
AcDbBlockEnd
  0
BLOCK
  5
4EF
330
4ED
100
AcDbEntity
 67
     1
  8
0
100
AcDbBlockBegin
  2
*Paper_Space
 70
     0
 10
0.0
 20
0.0
 30
0.0
  3
*Paper_Space
  1

  0
ENDBLK
  5
4F0
330
4ED
100
AcDbEntity
 67
     1
  8
0
100
AcDbBlockEnd
  0
BLOCK
  5
5DE
330
5DD
100
AcDbEntity
  8
0
100
AcDbBlockBegin
  2
_None
 70
     0
 10
0.0
 20
0.0
 30
0.0
  3
_None
  1

  0
ENDBLK
  5
5DF
330
5DD
100
AcDbEntity
  8
0
100
AcDbBlockEnd
  0
BLOCK
  5
6B6
330
6B5
100
AcDbEntity
  8
0
100
AcDbBlockBegin
  2
Block_0
 70
     0
 10
0.0
 20
0.0
 30
0.0
  3
Block_0
  1

  0
INSERT
  5
6B7
330
6B5
100
AcDbEntity
  8
Layer 1
100
AcDbBlockReference
  2
Block_1
 10
0.0
 20
0.0
 30
0.0
  0
ENDBLK
  5
6B8
330
6B5
100
AcDbEntity
  8
0
100
AcDbBlockEnd
  0
BLOCK
  5
6BA
330
6B9
100
AcDbEntity
  8
0
100
AcDbBlockBegin
  2
Block_1
 70
     0
 10
0.0
 20
0.0
 30
0.0
  3
Block_1
  1

  0
SPLINE
  5
6BB
330
6B9
100
AcDbEntity
  8
Layer 1
100
AcDbSpline
210
0.0
220
0.0
230
1.0
 70
    11
 71
     3
 72
    41
 73
    37
 74
     0
 42
0.000000001
 43
0.0000000001
 40
0.0
 40
0.0
 40
0.0
 40
0.0
 40
1.0
 40
1.0
 40
1.0
 40
2.0
 40
2.0
 40
2.0
 40
3.0
 40
3.0
 40
3.0
 40
4.0
 40
4.0
 40
4.0
 40
5.0
 40
5.0
 40
5.0
 40
6.0
 40
6.0
 40
6.0
 40
7.0
 40
7.0
 40
7.0
 40
8.0
 40
8.0
 40
8.0
 40
9.0
 40
9.0
 40
9.0
 40
10.0
 40
10.0
 40
10.0
 40
11.0
 40
11.0
 40
11.0
 40
12.0
 40
12.0
 40
12.0
 40
12.0
 10
161.7001953125
 20
265.833984375
 30
0.0
 10
161.7001953125
 20
265.833984375
 30
0.0
 10
161.7001953125
 20
262.55859375
 30
0.0
 10
161.7001953125
 20
262.55859375
 30
0.0
 10
161.7001953125
 20
262.55859375
 30
0.0
 10
161.0146484375
 20
262.55859375
 30
0.0
 10
161.0146484375
 20
262.55859375
 30
0.0
 10
161.0146484375
 20
262.55859375
 30
0.0
 10
161.0146484375
 20
263.77734375
 30
0.0
 10
161.0146484375
 20
263.77734375
 30
0.0
 10
161.0146484375
 20
263.77734375
 30
0.0
 10
156.51171875
 20
263.77734375
 30
0.0
 10
156.51171875
 20
263.77734375
 30
0.0
 10
156.51171875
 20
263.77734375
 30
0.0
 10
156.51171875
 20
262.55859375
 30
0.0
 10
156.51171875
 20
262.55859375
 30
0.0
 10
156.51171875
 20
262.55859375
 30
0.0
 10
155.8984375
 20
262.55859375
 30
0.0
 10
155.8984375
 20
262.55859375
 30
0.0
 10
155.8984375
 20
263.01953125
 30
0.0
 10
155.8330078125
 20
263.357421875
 30
0.0
 10
155.7021484375
 20
263.576171875
 30
0.0
 10
155.5712890625
 20
263.7939453125
 30
0.0
 10
155.3232421875
 20
263.916015625
 30
0.0
 10
154.9599609375
 20
263.943359375
 30
0.0
 10
154.9599609375
 20
263.943359375
 30
0.0
 10
154.9599609375
 20
264.642578125
 30
0.0
 10
154.9599609375
 20
264.642578125
 30
0.0
 10
154.9599609375
 20
264.642578125
 30
0.0
 10
161.0146484375
 20
264.642578125
 30
0.0
 10
161.0146484375
 20
264.642578125
 30
0.0
 10
161.0146484375
 20
264.642578125
 30
0.0
 10
161.0146484375
 20
265.833984375
 30
0.0
 10
161.0146484375
 20
265.833984375
 30
0.0
 10
161.0146484375
 20
265.833984375
 30
0.0
 10
161.7001953125
 20
265.833984375
 30
0.0
 10
161.7001953125
 20
265.833984375
 30
0.0
  0
HATCH
  5
6BC
330
6B9
100
AcDbEntity
  8
Layer 1
 62
     7
100
AcDbHatch
 10
0.0
 20
0.0
 30
0.0
210
0.0
220
0.0
230
1.0
  2
SOLID
 70
     1
 71
     1
 91
        1
 92
        1
 93
        1
 72
     4
 94
        3
 73
     0
 74
     0
 95
       41
 96
       37
 40
0.0
 40
0.0
 40
0.0
 40
0.0
 40
1.0
 40
1.0
 40
1.0
 40
2.0
 40
2.0
 40
2.0
 40
3.0
 40
3.0
 40
3.0
 40
4.0
 40
4.0
 40
4.0
 40
5.0
 40
5.0
 40
5.0
 40
6.0
 40
6.0
 40
6.0
 40
7.0
 40
7.0
 40
7.0
 40
8.0
 40
8.0
 40
8.0
 40
9.0
 40
9.0
 40
9.0
 40
10.0
 40
10.0
 40
10.0
 40
11.0
 40
11.0
 40
11.0
 40
12.0
 40
12.0
 40
12.0
 40
12.0
 10
161.7001953125
 20
265.833984375
 10
161.7001953125
 20
265.833984375
 10
161.7001953125
 20
262.55859375
 10
161.7001953125
 20
262.55859375
 10
161.7001953125
 20
262.55859375
 10
161.0146484375
 20
262.55859375
 10
161.0146484375
 20
262.55859375
 10
161.0146484375
 20
262.55859375
 10
161.0146484375
 20
263.77734375
 10
161.0146484375
 20
263.77734375
 10
161.0146484375
 20
263.77734375
 10
156.51171875
 20
263.77734375
 10
156.51171875
 20
263.77734375
 10
156.51171875
 20
263.77734375
 10
156.51171875
 20
262.55859375
 10
156.51171875
 20
262.55859375
 10
156.51171875
 20
262.55859375
 10
155.8984375
 20
262.55859375
 10
155.8984375
 20
262.55859375
 10
155.8984375
 20
263.01953125
 10
155.8330078125
 20
263.357421875
 10
155.7021484375
 20
263.576171875
 10
155.5712890625
 20
263.7939453125
 10
155.3232421875
 20
263.916015625
 10
154.9599609375
 20
263.943359375
 10
154.9599609375
 20
263.943359375
 10
154.9599609375
 20
264.642578125
 10
154.9599609375
 20
264.642578125
 10
154.9599609375
 20
264.642578125
 10
161.0146484375
 20
264.642578125
 10
161.0146484375
 20
264.642578125
 10
161.0146484375
 20
264.642578125
 10
161.0146484375
 20
265.833984375
 10
161.0146484375
 20
265.833984375
 10
161.0146484375
 20
265.833984375
 10
161.7001953125
 20
265.833984375
 10
161.7001953125
 20
265.833984375
 97
        0
 97
        1
330
6BB
 75
     2
 76
     1
 98
        1
 10
0.0
 20
0.0
450
        0
451
        0
460
0.0
461
0.0
452
        0
462
0.0
453
        0
470

  0
SPLINE
  5
6BD
330
6B9
100
AcDbEntity
  8
Layer 1
100
AcDbSpline
210
0.0
220
0.0
230
1.0
 70
     9
 71
     3
 72
    47
 73
    43
 74
     0
 42
0.000000001
 43
0.0000000001
 40
0.0
 40
0.0
 40
0.0
 40
0.0
 40
1.0
 40
1.0
 40
1.0
 40
2.0
 40
2.0
 40
2.0
 40
3.0
 40
3.0
 40
3.0
 40
4.0
 40
4.0
 40
4.0
 40
5.0
 40
5.0
 40
5.0
 40
6.0
 40
6.0
 40
6.0
 40
7.0
 40
7.0
 40
7.0
 40
8.0
 40
8.0
 40
8.0
 40
9.0
 40
9.0
 40
9.0
 40
10.0
 40
10.0
 40
10.0
 40
11.0
 40
11.0
 40
11.0
 40
12.0
 40
12.0
 40
12.0
 40
13.0
 40
13.0
 40
13.0
 40
14.0
 40
14.0
 40
14.0
 40
14.0
 10
159.5576171875
 20
270.4091796875
 30
0.0
 10
159.2802734375
 20
270.4091796875
 30
0.0
 10
159.048828125
 20
270.373046875
 30
0.0
 10
158.8623046875
 20
270.30078125
 30
0.0
 10
158.67578125
 20
270.228515625
 30
0.0
 10
158.5166015625
 20
270.111328125
 30
0.0
 10
158.3837890625
 20
269.94921875
 30
0.0
 10
158.2880859375
 20
269.83203125
 30
0.0
 10
158.224609375
 20
269.6982421875
 30
0.0
 10
158.1943359375
 20
269.548828125
 30
0.0
 10
158.1650390625
 20
269.400390625
 30
0.0
 10
158.1494140625
 20
269.248046875
 30
0.0
 10
158.1494140625
 20
269.091796875
 30
0.0
 10
158.1494140625
 20
268.880859375
 30
0.0
 10
158.1806640625
 20
268.67578125
 30
0.0
 10
158.244140625
 20
268.478515625
 30
0.0
 10
158.3076171875
 20
268.279296875
 30
0.0
 10
158.3994140625
 20
268.083984375
 30
0.0
 10
158.51953125
 20
267.8916015625
 30
0.0
 10
158.5859375
 20
267.884765625
 30
0.0
 10
158.6494140625
 20
267.880859375
 30
0.0
 10
158.7109375
 20
267.8779296875
 30
0.0
 10
158.7724609375
 20
267.875
 30
0.0
 10
158.8505859375
 20
267.873046875
 30
0.0
 10
158.943359375
 20
267.873046875
 30
0.0
 10
159.41015625
 20
267.873046875
 30
0.0
 10
159.7861328125
 20
267.9189453125
 30
0.0
 10
160.0712890625
 20
268.0107421875
 30
0.0
 10
160.357421875
 20
268.1025390625
 30
0.0
 10
160.57421875
 20
268.216796875
 30
0.0
 10
160.720703125
 20
268.3515625
 30
0.0
 10
160.8623046875
 20
268.48046875
 30
0.0
 10
160.9619140625
 20
268.61328125
 30
0.0
 10
161.0185546875
 20
268.7509765625
 30
0.0
 10
161.076171875
 20
268.8876953125
 30
0.0
 10
161.1044921875
 20
269.03515625
 30
0.0
 10
161.1044921875
 20
269.1953125
 30
0.0
 10
161.1044921875
 20
269.556640625
 30
0.0
 10
160.9755859375
 20
269.8486328125
 30
0.0
 10
160.716796875
 20
270.072265625
 30
0.0
 10
160.4580078125
 20
270.296875
 30
0.0
 10
160.0712890625
 20
270.4091796875
 30
0.0
 10
159.5576171875
 20
270.4091796875
 30
0.0
  0
SPLINE
  5
6BE
330
6B9
100
AcDbEntity
  8
Layer 1
100
AcDbSpline
210
0.0
220
0.0
230
1.0
 70
     9
 71
     3
 72
    83
 73
    79
 74
     0
 42
0.000000001
 43
0.0000000001
 40
0.0
 40
0.0
 40
0.0
 40
0.0
 40
1.0
 40
1.0
 40
1.0
 40
2.0
 40
2.0
 40
2.0
 40
3.0
 40
3.0
 40
3.0
 40
4.0
 40
4.0
 40
4.0
 40
5.0
 40
5.0
 40
5.0
 40
6.0
 40
6.0
 40
6.0
 40
7.0
 40
7.0
 40
7.0
 40
8.0
 40
8.0
 40
8.0
 40
9.0
 40
9.0
 40
9.0
 40
10.0
 40
10.0
 40
10.0
 40
11.0
 40
11.0
 40
11.0
 40
12.0
 40
12.0
 40
12.0
 40
13.0
 40
13.0
 40
13.0
 40
14.0
 40
14.0
 40
14.0
 40
15.0
 40
15.0
 40
15.0
 40
16.0
 40
16.0
 40
16.0
 40
17.0
 40
17.0
 40
17.0
 40
18.0
 40
18.0
 40
18.0
 40
19.0
 40
19.0
 40
19.0
 40
20.0
 40
20.0
 40
20.0
 40
21.0
 40
21.0
 40
21.0
 40
22.0
 40
22.0
 40
22.0
 40
23.0
 40
23.0
 40
23.0
 40
24.0
 40
24.0
 40
24.0
 40
25.0
 40
25.0
 40
25.0
 40
26.0
 40
26.0
 40
26.0
 40
26.0
 10
159.521484375
 20
271.32421875
 30
0.0
 10
159.8671875
 20
271.32421875
 30
0.0
 10
160.185546875
 20
271.267578125
 30
0.0
 10
160.4775390625
 20
271.1533203125
 30
0.0
 10
160.76953125
 20
271.0390625
 30
0.0
 10
161.0126953125
 20
270.8857421875
 30
0.0
 10
161.2080078125
 20
270.693359375
 30
0.0
 10
161.416015625
 20
270.4921875
 30
0.0
 10
161.5732421875
 20
270.265625
 30
0.0
 10
161.6796875
 20
270.0166015625
 30
0.0
 10
161.787109375
 20
269.7666015625
 30
0.0
 10
161.83984375
 20
269.4921875
 30
0.0
 10
161.83984375
 20
269.19140625
 30
0.0
 10
161.83984375
 20
268.88671875
 30
0.0
 10
161.7890625
 20
268.611328125
 30
0.0
 10
161.6865234375
 20
268.36328125
 30
0.0
 10
161.583984375
 20
268.115234375
 30
0.0
 10
161.4326171875
 20
267.896484375
 30
0.0
 10
161.2314453125
 20
267.70703125
 30
0.0
 10
160.9873046875
 20
267.474609375
 30
0.0
 10
160.662109375
 20
267.29296875
 30
0.0
 10
160.25390625
 20
267.162109375
 30
0.0
 10
159.8466796875
 20
267.03125
 30
0.0
 10
159.3447265625
 20
266.966796875
 30
0.0
 10
158.75
 20
266.966796875
 30
0.0
 10
158.166015625
 20
266.966796875
 30
0.0
 10
157.638671875
 20
267.02734375
 30
0.0
 10
157.16796875
 20
267.146484375
 30
0.0
 10
156.697265625
 20
267.267578125
 30
0.0
 10
156.2880859375
 20
267.4521484375
 30
0.0
 10
155.9384765625
 20
267.7021484375
 30
0.0
 10
155.5986328125
 20
267.9453125
 30
0.0
 10
155.3330078125
 20
268.259765625
 30
0.0
 10
155.142578125
 20
268.64453125
 30
0.0
 10
154.951171875
 20
269.029296875
 30
0.0
 10
154.85546875
 20
269.474609375
 30
0.0
 10
154.85546875
 20
269.98046875
 30
0.0
 10
154.85546875
 20
270.130859375
 30
0.0
 10
154.86328125
 20
270.2705078125
 30
0.0
 10
154.87890625
 20
270.400390625
 30
0.0
 10
154.8935546875
 20
270.529296875
 30
0.0
 10
154.91796875
 20
270.6435546875
 30
0.0
 10
154.9501953125
 20
270.7421875
 30
0.0
 10
154.9501953125
 20
270.7421875
 30
0.0
 10
155.8125
 20
270.7421875
 30
0.0
 10
155.8125
 20
270.7421875
 30
0.0
 10
155.8125
 20
270.7421875
 30
0.0
 10
155.8125
 20
270.7021484375
 30
0.0
 10
155.8125
 20
270.7021484375
 30
0.0
 10
155.767578125
 20
270.62109375
 30
0.0
 10
155.7255859375
 20
270.50390625
 30
0.0
 10
155.6884765625
 20
270.349609375
 30
0.0
 10
155.650390625
 20
270.197265625
 30
0.0
 10
155.6318359375
 20
270.033203125
 30
0.0
 10
155.6318359375
 20
269.8583984375
 30
0.0
 10
155.6318359375
 20
269.298828125
 30
0.0
 10
155.8203125
 20
268.84765625
 30
0.0
 10
156.1982421875
 20
268.5029296875
 30
0.0
 10
156.5751953125
 20
268.158203125
 30
0.0
 10
157.1357421875
 20
267.955078125
 30
0.0
 10
157.87890625
 20
267.8916015625
 30
0.0
 10
157.728515625
 20
268.10546875
 30
0.0
 10
157.6123046875
 20
268.32421875
 30
0.0
 10
157.53125
 20
268.55078125
 30
0.0
 10
157.4501953125
 20
268.775390625
 30
0.0
 10
157.4091796875
 20
269.0224609375
 30
0.0
 10
157.4091796875
 20
269.2900390625
 30
0.0
 10
157.4091796875
 20
269.5517578125
 30
0.0
 10
157.435546875
 20
269.78125
 30
0.0
 10
157.48828125
 20
269.978515625
 30
0.0
 10
157.541015625
 20
270.1748046875
 30
0.0
 10
157.6474609375
 20
270.380859375
 30
0.0
 10
157.806640625
 20
270.59375
 30
0.0
 10
157.9931640625
 20
270.83984375
 30
0.0
 10
158.2294921875
 20
271.0234375
 30
0.0
 10
158.5146484375
 20
271.14453125
 30
0.0
 10
158.80078125
 20
271.2646484375
 30
0.0
 10
159.1357421875
 20
271.32421875
 30
0.0
 10
159.521484375
 20
271.32421875
 30
0.0
  0
HATCH
  5
6BF
330
6B9
100
AcDbEntity
  8
Layer 1
 62
     7
100
AcDbHatch
 10
0.0
 20
0.0
 30
0.0
210
0.0
220
0.0
230
1.0
  2
SOLID
 70
     1
 71
     1
 91
        2
 92
        1
 93
        1
 72
     4
 94
        3
 73
     0
 74
     0
 95
       47
 96
       43
 40
0.0
 40
0.0
 40
0.0
 40
0.0
 40
1.0
 40
1.0
 40
1.0
 40
2.0
 40
2.0
 40
2.0
 40
3.0
 40
3.0
 40
3.0
 40
4.0
 40
4.0
 40
4.0
 40
5.0
 40
5.0
 40
5.0
 40
6.0
 40
6.0
 40
6.0
 40
7.0
 40
7.0
 40
7.0
 40
8.0
 40
8.0
 40
8.0
 40
9.0
 40
9.0
 40
9.0
 40
10.0
 40
10.0
 40
10.0
 40
11.0
 40
11.0
 40
11.0
 40
12.0
 40
12.0
 40
12.0
 40
13.0
 40
13.0
 40
13.0
 40
14.0
 40
14.0
 40
14.0
 40
14.0
 10
159.5576171875
 20
270.4091796875
 10
159.2802734375
 20
270.4091796875
 10
159.048828125
 20
270.373046875
 10
158.8623046875
 20
270.30078125
 10
158.67578125
 20
270.228515625
 10
158.5166015625
 20
270.111328125
 10
158.3837890625
 20
269.94921875
 10
158.2880859375
 20
269.83203125
 10
158.224609375
 20
269.6982421875
 10
158.1943359375
 20
269.548828125
 10
158.1650390625
 20
269.400390625
 10
158.1494140625
 20
269.248046875
 10
158.1494140625
 20
269.091796875
 10
158.1494140625
 20
268.880859375
 10
158.1806640625
 20
268.67578125
 10
158.244140625
 20
268.478515625
 10
158.3076171875
 20
268.279296875
 10
158.3994140625
 20
268.083984375
 10
158.51953125
 20
267.8916015625
 10
158.5859375
 20
267.884765625
 10
158.6494140625
 20
267.880859375
 10
158.7109375
 20
267.8779296875
 10
158.7724609375
 20
267.875
 10
158.8505859375
 20
267.873046875
 10
158.943359375
 20
267.873046875
 10
159.41015625
 20
267.873046875
 10
159.7861328125
 20
267.9189453125
 10
160.0712890625
 20
268.0107421875
 10
160.357421875
 20
268.1025390625
 10
160.57421875
 20
268.216796875
 10
160.720703125
 20
268.3515625
 10
160.8623046875
 20
268.48046875
 10
160.9619140625
 20
268.61328125
 10
161.0185546875
 20
268.7509765625
 10
161.076171875
 20
268.8876953125
 10
161.1044921875
 20
269.03515625
 10
161.1044921875
 20
269.1953125
 10
161.1044921875
 20
269.556640625
 10
160.9755859375
 20
269.8486328125
 10
160.716796875
 20
270.072265625
 10
160.4580078125
 20
270.296875
 10
160.0712890625
 20
270.4091796875
 10
159.5576171875
 20
270.4091796875
 97
        0
 97
        1
330
6BD
 92
        1
 93
        1
 72
     4
 94
        3
 73
     0
 74
     0
 95
       83
 96
       79
 40
0.0
 40
0.0
 40
0.0
 40
0.0
 40
1.0
 40
1.0
 40
1.0
 40
2.0
 40
2.0
 40
2.0
 40
3.0
 40
3.0
 40
3.0
 40
4.0
 40
4.0
 40
4.0
 40
5.0
 40
5.0
 40
5.0
 40
6.0
 40
6.0
 40
6.0
 40
7.0
 40
7.0
 40
7.0
 40
8.0
 40
8.0
 40
8.0
 40
9.0
 40
9.0
 40
9.0
 40
10.0
 40
10.0
 40
10.0
 40
11.0
 40
11.0
 40
11.0
 40
12.0
 40
12.0
 40
12.0
 40
13.0
 40
13.0
 40
13.0
 40
14.0
 40
14.0
 40
14.0
 40
15.0
 40
15.0
 40
15.0
 40
16.0
 40
16.0
 40
16.0
 40
17.0
 40
17.0
 40
17.0
 40
18.0
 40
18.0
 40
18.0
 40
19.0
 40
19.0
 40
19.0
 40
20.0
 40
20.0
 40
20.0
 40
21.0
 40
21.0
 40
21.0
 40
22.0
 40
22.0
 40
22.0
 40
23.0
 40
23.0
 40
23.0
 40
24.0
 40
24.0
 40
24.0
 40
25.0
 40
25.0
 40
25.0
 40
26.0
 40
26.0
 40
26.0
 40
26.0
 10
159.521484375
 20
271.32421875
 10
159.8671875
 20
271.32421875
 10
160.185546875
 20
271.267578125
 10
160.4775390625
 20
271.1533203125
 10
160.76953125
 20
271.0390625
 10
161.0126953125
 20
270.8857421875
 10
161.2080078125
 20
270.693359375
 10
161.416015625
 20
270.4921875
 10
161.5732421875
 20
270.265625
 10
161.6796875
 20
270.0166015625
 10
161.787109375
 20
269.7666015625
 10
161.83984375
 20
269.4921875
 10
161.83984375
 20
269.19140625
 10
161.83984375
 20
268.88671875
 10
161.7890625
 20
268.611328125
 10
161.6865234375
 20
268.36328125
 10
161.583984375
 20
268.115234375
 10
161.4326171875
 20
267.896484375
 10
161.2314453125
 20
267.70703125
 10
160.9873046875
 20
267.474609375
 10
160.662109375
 20
267.29296875
 10
160.25390625
 20
267.162109375
 10
159.8466796875
 20
267.03125
 10
159.3447265625
 20
266.966796875
 10
158.75
 20
266.966796875
 10
158.166015625
 20
266.966796875
 10
157.638671875
 20
267.02734375
 10
157.16796875
 20
267.146484375
 10
156.697265625
 20
267.267578125
 10
156.2880859375
 20
267.4521484375
 10
155.9384765625
 20
267.7021484375
 10
155.5986328125
 20
267.9453125
 10
155.3330078125
 20
268.259765625
 10
155.142578125
 20
268.64453125
 10
154.951171875
 20
269.029296875
 10
154.85546875
 20
269.474609375
 10
154.85546875
 20
269.98046875
 10
154.85546875
 20
270.130859375
 10
154.86328125
 20
270.2705078125
 10
154.87890625
 20
270.400390625
 10
154.8935546875
 20
270.529296875
 10
154.91796875
 20
270.6435546875
 10
154.9501953125
 20
270.7421875
 10
154.9501953125
 20
270.7421875
 10
155.8125
 20
270.7421875
 10
155.8125
 20
270.7421875
 10
155.8125
 20
270.7421875
 10
155.8125
 20
270.7021484375
 10
155.8125
 20
270.7021484375
 10
155.767578125
 20
270.62109375
 10
155.7255859375
 20
270.50390625
 10
155.6884765625
 20
270.349609375
 10
155.650390625
 20
270.197265625
 10
155.6318359375
 20
270.033203125
 10
155.6318359375
 20
269.8583984375
 10
155.6318359375
 20
269.298828125
 10
155.8203125
 20
268.84765625
 10
156.1982421875
 20
268.5029296875
 10
156.5751953125
 20
268.158203125
 10
157.1357421875
 20
267.955078125
 10
157.87890625
 20
267.8916015625
 10
157.728515625
 20
268.10546875
 10
157.6123046875
 20
268.32421875
 10
157.53125
 20
268.55078125
 10
157.4501953125
 20
268.775390625
 10
157.4091796875
 20
269.0224609375
 10
157.4091796875
 20
269.2900390625
 10
157.4091796875
 20
269.5517578125
 10
157.435546875
 20
269.78125
 10
157.48828125
 20
269.978515625
 10
157.541015625
 20
270.1748046875
 10
157.6474609375
 20
270.380859375
 10
157.806640625
 20
270.59375
 10
157.9931640625
 20
270.83984375
 10
158.2294921875
 20
271.0234375
 10
158.5146484375
 20
271.14453125
 10
158.80078125
 20
271.2646484375
 10
159.1357421875
 20
271.32421875
 10
159.521484375
 20
271.32421875
 97
        0
 97
        1
330
6BE
 75
     2
 76
     1
 98
        1
 10
0.0
 20
0.0
450
        0
451
        0
460
0.0
461
0.0
452
        0
462
0.0
453
        0
470

  0
SPLINE
  5
6C0
330
6B9
100
AcDbEntity
  8
Layer 1
100
AcDbSpline
210
0.0
220
0.0
230
1.0
 70
     9
 71
     3
 72
    53
 73
    49
 74
     0
 42
0.000000001
 43
0.0000000001
 40
0.0
 40
0.0
 40
0.0
 40
0.0
 40
1.0
 40
1.0
 40
1.0
 40
2.0
 40
2.0
 40
2.0
 40
3.0
 40
3.0
 40
3.0
 40
4.0
 40
4.0
 40
4.0
 40
5.0
 40
5.0
 40
5.0
 40
6.0
 40
6.0
 40
6.0
 40
7.0
 40
7.0
 40
7.0
 40
8.0
 40
8.0
 40
8.0
 40
9.0
 40
9.0
 40
9.0
 40
10.0
 40
10.0
 40
10.0
 40
11.0
 40
11.0
 40
11.0
 40
12.0
 40
12.0
 40
12.0
 40
13.0
 40
13.0
 40
13.0
 40
14.0
 40
14.0
 40
14.0
 40
15.0
 40
15.0
 40
15.0
 40
16.0
 40
16.0
 40
16.0
 40
16.0
 10
160.3876953125
 20
275.1416015625
 30
0.0
 10
160.1650390625
 20
275.228515625
 30
0.0
 10
159.8837890625
 20
275.291015625
 30
0.0
 10
159.5439453125
 20
275.326171875
 30
0.0
 10
159.2041015625
 20
275.36328125
 30
0.0
 10
158.8017578125
 20
275.380859375
 30
0.0
 10
158.3388671875
 20
275.380859375
 30
0.0
 10
157.87890625
 20
275.380859375
 30
0.0
 10
157.478515625
 20
275.36328125
 30
0.0
 10
157.138671875
 20
275.326171875
 30
0.0
 10
156.798828125
 20
275.291015625
 30
0.0
 10
156.5166015625
 20
275.2275390625
 30
0.0
 10
156.291015625
 20
275.13671875
 30
0.0
 10
156.0625
 20
275.046875
 30
0.0
 10
155.888671875
 20
274.9228515625
 30
0.0
 10
155.76953125
 20
274.7646484375
 30
0.0
 10
155.650390625
 20
274.607421875
 30
0.0
 10
155.591796875
 20
274.40234375
 30
0.0
 10
155.591796875
 20
274.1484375
 30
0.0
 10
155.591796875
 20
273.8994140625
 30
0.0
 10
155.650390625
 20
273.693359375
 30
0.0
 10
155.76953125
 20
273.533203125
 30
0.0
 10
155.888671875
 20
273.3720703125
 30
0.0
 10
156.0654296875
 20
273.2451171875
 30
0.0
 10
156.2998046875
 20
273.15234375
 30
0.0
 10
156.5283203125
 20
273.0615234375
 30
0.0
 10
156.8173828125
 20
273.0
 30
0.0
 10
157.166015625
 20
272.966796875
 30
0.0
 10
157.5146484375
 20
272.93359375
 30
0.0
 10
157.9091796875
 20
272.91796875
 30
0.0
 10
158.34765625
 20
272.91796875
 30
0.0
 10
158.8173828125
 20
272.91796875
 30
0.0
 10
159.2099609375
 20
272.931640625
 30
0.0
 10
159.525390625
 20
272.9599609375
 30
0.0
 10
159.841796875
 20
272.98828125
 30
0.0
 10
160.1240234375
 20
273.05078125
 30
0.0
 10
160.3740234375
 20
273.1474609375
 30
0.0
 10
160.60546875
 20
273.234375
 30
0.0
 10
160.783203125
 20
273.359375
 30
0.0
 10
160.908203125
 20
273.51953125
 30
0.0
 10
161.033203125
 20
273.6806640625
 30
0.0
 10
161.095703125
 20
273.890625
 30
0.0
 10
161.095703125
 20
274.1484375
 30
0.0
 10
161.095703125
 20
274.3984375
 30
0.0
 10
161.0361328125
 20
274.603515625
 30
0.0
 10
160.9169921875
 20
274.7646484375
 30
0.0
 10
160.798828125
 20
274.92578125
 30
0.0
 10
160.6220703125
 20
275.05078125
 30
0.0
 10
160.3876953125
 20
275.1416015625
 30
0.0
  0
SPLINE
  5
6C1
330
6B9
100
AcDbEntity
  8
Layer 1
100
AcDbSpline
210
0.0
220
0.0
230
1.0
 70
     9
 71
     3
 72
    29
 73
    25
 74
     0
 42
0.000000001
 43
0.0000000001
 40
0.0
 40
0.0
 40
0.0
 40
0.0
 40
1.0
 40
1.0
 40
1.0
 40
2.0
 40
2.0
 40
2.0
 40
3.0
 40
3.0
 40
3.0
 40
4.0
 40
4.0
 40
4.0
 40
5.0
 40
5.0
 40
5.0
 40
6.0
 40
6.0
 40
6.0
 40
7.0
 40
7.0
 40
7.0
 40
8.0
 40
8.0
 40
8.0
 40
8.0
 10
158.3388671875
 20
276.296875
 30
0.0
 10
159.544921875
 20
276.296875
 30
0.0
 10
160.4296875
 20
276.12109375
 30
0.0
 10
160.994140625
 20
275.771484375
 30
0.0
 10
161.5576171875
 20
275.419921875
 30
0.0
 10
161.83984375
 20
274.8798828125
 30
0.0
 10
161.83984375
 20
274.1484375
 30
0.0
 10
161.83984375
 20
273.4091796875
 30
0.0
 10
161.552734375
 20
272.8662109375
 30
0.0
 10
160.978515625
 20
272.5205078125
 30
0.0
 10
160.404296875
 20
272.173828125
 30
0.0
 10
159.52734375
 20
272.001953125
 30
0.0
 10
158.34765625
 20
272.001953125
 30
0.0
 10
157.1357421875
 20
272.001953125
 30
0.0
 10
156.2490234375
 20
272.1767578125
 30
0.0
 10
155.6884765625
 20
272.52734375
 30
0.0
 10
155.126953125
 20
272.876953125
 30
0.0
 10
154.8466796875
 20
273.41796875
 30
0.0
 10
154.8466796875
 20
274.1484375
 30
0.0
 10
154.8466796875
 20
274.888671875
 30
0.0
 10
155.13671875
 20
275.431640625
 30
0.0
 10
155.7177734375
 20
275.77734375
 30
0.0
 10
156.2978515625
 20
276.123046875
 30
0.0
 10
157.171875
 20
276.296875
 30
0.0
 10
158.3388671875
 20
276.296875
 30
0.0
  0
HATCH
  5
6C2
330
6B9
100
AcDbEntity
  8
Layer 1
 62
     7
100
AcDbHatch
 10
0.0
 20
0.0
 30
0.0
210
0.0
220
0.0
230
1.0
  2
SOLID
 70
     1
 71
     1
 91
        2
 92
        1
 93
        1
 72
     4
 94
        3
 73
     0
 74
     0
 95
       53
 96
       49
 40
0.0
 40
0.0
 40
0.0
 40
0.0
 40
1.0
 40
1.0
 40
1.0
 40
2.0
 40
2.0
 40
2.0
 40
3.0
 40
3.0
 40
3.0
 40
4.0
 40
4.0
 40
4.0
 40
5.0
 40
5.0
 40
5.0
 40
6.0
 40
6.0
 40
6.0
 40
7.0
 40
7.0
 40
7.0
 40
8.0
 40
8.0
 40
8.0
 40
9.0
 40
9.0
 40
9.0
 40
10.0
 40
10.0
 40
10.0
 40
11.0
 40
11.0
 40
11.0
 40
12.0
 40
12.0
 40
12.0
 40
13.0
 40
13.0
 40
13.0
 40
14.0
 40
14.0
 40
14.0
 40
15.0
 40
15.0
 40
15.0
 40
16.0
 40
16.0
 40
16.0
 40
16.0
 10
160.3876953125
 20
275.1416015625
 10
160.1650390625
 20
275.228515625
 10
159.8837890625
 20
275.291015625
 10
159.5439453125
 20
275.326171875
 10
159.2041015625
 20
275.36328125
 10
158.8017578125
 20
275.380859375
 10
158.3388671875
 20
275.380859375
 10
157.87890625
 20
275.380859375
 10
157.478515625
 20
275.36328125
 10
157.138671875
 20
275.326171875
 10
156.798828125
 20
275.291015625
 10
156.5166015625
 20
275.2275390625
 10
156.291015625
 20
275.13671875
 10
156.0625
 20
275.046875
 10
155.888671875
 20
274.9228515625
 10
155.76953125
 20
274.7646484375
 10
155.650390625
 20
274.607421875
 10
155.591796875
 20
274.40234375
 10
155.591796875
 20
274.1484375
 10
155.591796875
 20
273.8994140625
 10
155.650390625
 20
273.693359375
 10
155.76953125
 20
273.533203125
 10
155.888671875
 20
273.3720703125
 10
156.0654296875
 20
273.2451171875
 10
156.2998046875
 20
273.15234375
 10
156.5283203125
 20
273.0615234375
 10
156.8173828125
 20
273.0
 10
157.166015625
 20
272.966796875
 10
157.5146484375
 20
272.93359375
 10
157.9091796875
 20
272.91796875
 10
158.34765625
 20
272.91796875
 10
158.8173828125
 20
272.91796875
 10
159.2099609375
 20
272.931640625
 10
159.525390625
 20
272.9599609375
 10
159.841796875
 20
272.98828125
 10
160.1240234375
 20
273.05078125
 10
160.3740234375
 20
273.1474609375
 10
160.60546875
 20
273.234375
 10
160.783203125
 20
273.359375
 10
160.908203125
 20
273.51953125
 10
161.033203125
 20
273.6806640625
 10
161.095703125
 20
273.890625
 10
161.095703125
 20
274.1484375
 10
161.095703125
 20
274.3984375
 10
161.0361328125
 20
274.603515625
 10
160.9169921875
 20
274.7646484375
 10
160.798828125
 20
274.92578125
 10
160.6220703125
 20
275.05078125
 10
160.3876953125
 20
275.1416015625
 97
        0
 97
        1
330
6C0
 92
        1
 93
        1
 72
     4
 94
        3
 73
     0
 74
     0
 95
       29
 96
       25
 40
0.0
 40
0.0
 40
0.0
 40
0.0
 40
1.0
 40
1.0
 40
1.0
 40
2.0
 40
2.0
 40
2.0
 40
3.0
 40
3.0
 40
3.0
 40
4.0
 40
4.0
 40
4.0
 40
5.0
 40
5.0
 40
5.0
 40
6.0
 40
6.0
 40
6.0
 40
7.0
 40
7.0
 40
7.0
 40
8.0
 40
8.0
 40
8.0
 40
8.0
 10
158.3388671875
 20
276.296875
 10
159.544921875
 20
276.296875
 10
160.4296875
 20
276.12109375
 10
160.994140625
 20
275.771484375
 10
161.5576171875
 20
275.419921875
 10
161.83984375
 20
274.8798828125
 10
161.83984375
 20
274.1484375
 10
161.83984375
 20
273.4091796875
 10
161.552734375
 20
272.8662109375
 10
160.978515625
 20
272.5205078125
 10
160.404296875
 20
272.173828125
 10
159.52734375
 20
272.001953125
 10
158.34765625
 20
272.001953125
 10
157.1357421875
 20
272.001953125
 10
156.2490234375
 20
272.1767578125
 10
155.6884765625
 20
272.52734375
 10
155.126953125
 20
272.876953125
 10
154.8466796875
 20
273.41796875
 10
154.8466796875
 20
274.1484375
 10
154.8466796875
 20
274.888671875
 10
155.13671875
 20
275.431640625
 10
155.7177734375
 20
275.77734375
 10
156.2978515625
 20
276.123046875
 10
157.171875
 20
276.296875
 10
158.3388671875
 20
276.296875
 97
        0
 97
        1
330
6C1
 75
     2
 76
     1
 98
        1
 10
0.0
 20
0.0
450
        0
451
        0
460
0.0
461
0.0
452
        0
462
0.0
453
        0
470

  0
ENDBLK
  5
6C3
330
6B9
100
AcDbEntity
  8
0
100
AcDbBlockEnd
  0
BLOCK
  5
6C5
330
6C4
100
AcDbEntity
  8
0
100
AcDbBlockBegin
  2
Block_2
 70
     0
 10
0.0
 20
0.0
 30
0.0
  3
Block_2
  1

  0
INSERT
  5
6C6
330
6C4
100
AcDbEntity
  8
Layer 1
100
AcDbBlockReference
  2
Block_3
 10
0.0
 20
0.0
 30
0.0
  0
ENDBLK
  5
6C7
330
6C4
100
AcDbEntity
  8
0
100
AcDbBlockEnd
  0
BLOCK
  5
6C9
330
6C8
100
AcDbEntity
  8
0
100
AcDbBlockBegin
  2
Block_3
 70
     0
 10
0.0
 20
0.0
 30
0.0
  3
Block_3
  1

  0
SPLINE
  5
6CA
330
6C8
100
AcDbEntity
  8
Layer 1
100
AcDbSpline
210
0.0
220
0.0
230
1.0
 70
    11
 71
     3
 72
    41
 73
    37
 74
     0
 42
0.000000001
 43
0.0000000001
 40
0.0
 40
0.0
 40
0.0
 40
0.0
 40
1.0
 40
1.0
 40
1.0
 40
2.0
 40
2.0
 40
2.0
 40
3.0
 40
3.0
 40
3.0
 40
4.0
 40
4.0
 40
4.0
 40
5.0
 40
5.0
 40
5.0
 40
6.0
 40
6.0
 40
6.0
 40
7.0
 40
7.0
 40
7.0
 40
8.0
 40
8.0
 40
8.0
 40
9.0
 40
9.0
 40
9.0
 40
10.0
 40
10.0
 40
10.0
 40
11.0
 40
11.0
 40
11.0
 40
12.0
 40
12.0
 40
12.0
 40
12.0
 10
121.87744140625
 20
409.0107421875
 30
0.0
 10
121.87744140625
 20
409.0107421875
 30
0.0
 10
125.15283203125
 20
409.0107421875
 30
0.0
 10
125.15283203125
 20
409.0107421875
 30
0.0
 10
125.15283203125
 20
409.0107421875
 30
0.0
 10
125.15283203125
 20
408.3251953125
 30
0.0
 10
125.15283203125
 20
408.3251953125
 30
0.0
 10
125.15283203125
 20
408.3251953125
 30
0.0
 10
123.9345703125
 20
408.3251953125
 30
0.0
 10
123.9345703125
 20
408.3251953125
 30
0.0
 10
123.9345703125
 20
408.3251953125
 30
0.0
 10
123.9345703125
 20
403.822265625
 30
0.0
 10
123.9345703125
 20
403.822265625
 30
0.0
 10
123.9345703125
 20
403.822265625
 30
0.0
 10
125.15283203125
 20
403.822265625
 30
0.0
 10
125.15283203125
 20
403.822265625
 30
0.0
 10
125.15283203125
 20
403.822265625
 30
0.0
 10
125.15283203125
 20
403.2089843749999
 30
0.0
 10
125.15283203125
 20
403.2089843749999
 30
0.0
 10
124.6923828125
 20
403.2089843749999
 30
0.0
 10
124.353515625
 20
403.1435546875
 30
0.0
 10
124.13525390625
 20
403.0126953125
 30
0.0
 10
123.91748046875
 20
402.8818359375
 30
0.0
 10
123.794921875
 20
402.6337890625
 30
0.0
 10
123.767578125
 20
402.2705078125
 30
0.0
 10
123.767578125
 20
402.2705078125
 30
0.0
 10
123.068359375
 20
402.2705078125
 30
0.0
 10
123.068359375
 20
402.2705078125
 30
0.0
 10
123.068359375
 20
402.2705078125
 30
0.0
 10
123.068359375
 20
408.3251953125
 30
0.0
 10
123.068359375
 20
408.3251953125
 30
0.0
 10
123.068359375
 20
408.3251953125
 30
0.0
 10
121.87744140625
 20
408.3251953125
 30
0.0
 10
121.87744140625
 20
408.3251953125
 30
0.0
 10
121.87744140625
 20
408.3251953125
 30
0.0
 10
121.87744140625
 20
409.0107421875
 30
0.0
 10
121.87744140625
 20
409.0107421875
 30
0.0
  0
HATCH
  5
6CB
330
6C8
100
AcDbEntity
  8
Layer 1
 62
     7
100
AcDbHatch
 10
0.0
 20
0.0
 30
0.0
210
0.0
220
0.0
230
1.0
  2
SOLID
 70
     1
 71
     1
 91
        1
 92
        1
 93
        1
 72
     4
 94
        3
 73
     0
 74
     0
 95
       41
 96
       37
 40
0.0
 40
0.0
 40
0.0
 40
0.0
 40
1.0
 40
1.0
 40
1.0
 40
2.0
 40
2.0
 40
2.0
 40
3.0
 40
3.0
 40
3.0
 40
4.0
 40
4.0
 40
4.0
 40
5.0
 40
5.0
 40
5.0
 40
6.0
 40
6.0
 40
6.0
 40
7.0
 40
7.0
 40
7.0
 40
8.0
 40
8.0
 40
8.0
 40
9.0
 40
9.0
 40
9.0
 40
10.0
 40
10.0
 40
10.0
 40
11.0
 40
11.0
 40
11.0
 40
12.0
 40
12.0
 40
12.0
 40
12.0
 10
121.87744140625
 20
409.0107421875
 10
121.87744140625
 20
409.0107421875
 10
125.15283203125
 20
409.0107421875
 10
125.15283203125
 20
409.0107421875
 10
125.15283203125
 20
409.0107421875
 10
125.15283203125
 20
408.3251953125
 10
125.15283203125
 20
408.3251953125
 10
125.15283203125
 20
408.3251953125
 10
123.9345703125
 20
408.3251953125
 10
123.9345703125
 20
408.3251953125
 10
123.9345703125
 20
408.3251953125
 10
123.9345703125
 20
403.822265625
 10
123.9345703125
 20
403.822265625
 10
123.9345703125
 20
403.822265625
 10
125.15283203125
 20
403.822265625
 10
125.15283203125
 20
403.822265625
 10
125.15283203125
 20
403.822265625
 10
125.15283203125
 20
403.2089843749999
 10
125.15283203125
 20
403.2089843749999
 10
124.6923828125
 20
403.2089843749999
 10
124.353515625
 20
403.1435546875
 10
124.13525390625
 20
403.0126953125
 10
123.91748046875
 20
402.8818359375
 10
123.794921875
 20
402.6337890625
 10
123.767578125
 20
402.2705078125
 10
123.767578125
 20
402.2705078125
 10
123.068359375
 20
402.2705078125
 10
123.068359375
 20
402.2705078125
 10
123.068359375
 20
402.2705078125
 10
123.068359375
 20
408.3251953125
 10
123.068359375
 20
408.3251953125
 10
123.068359375
 20
408.3251953125
 10
121.87744140625
 20
408.3251953125
 10
121.87744140625
 20
408.3251953125
 10
121.87744140625
 20
408.3251953125
 10
121.87744140625
 20
409.0107421875
 10
121.87744140625
 20
409.0107421875
 97
        0
 97
        1
330
6CA
 75
     2
 76
     1
 98
        1
 10
0.0
 20
0.0
450
        0
451
        0
460
0.0
461
0.0
452
        0
462
0.0
453
        0
470

  0
SPLINE
  5
6CC
330
6C8
100
AcDbEntity
  8
Layer 1
100
AcDbSpline
210
0.0
220
0.0
230
1.0
 70
     9
 71
     3
 72
    53
 73
    49
 74
     0
 42
0.000000001
 43
0.0000000001
 40
0.0
 40
0.0
 40
0.0
 40
0.0
 40
1.0
 40
1.0
 40
1.0
 40
2.0
 40
2.0
 40
2.0
 40
3.0
 40
3.0
 40
3.0
 40
4.0
 40
4.0
 40
4.0
 40
5.0
 40
5.0
 40
5.0
 40
6.0
 40
6.0
 40
6.0
 40
7.0
 40
7.0
 40
7.0
 40
8.0
 40
8.0
 40
8.0
 40
9.0
 40
9.0
 40
9.0
 40
10.0
 40
10.0
 40
10.0
 40
11.0
 40
11.0
 40
11.0
 40
12.0
 40
12.0
 40
12.0
 40
13.0
 40
13.0
 40
13.0
 40
14.0
 40
14.0
 40
14.0
 40
15.0
 40
15.0
 40
15.0
 40
16.0
 40
16.0
 40
16.0
 40
16.0
 10
117.61376953125
 20
407.6982421874999
 30
0.0
 10
117.5263671875
 20
407.4755859375
 30
0.0
 10
117.46484375
 20
407.1943359375
 30
0.0
 10
117.4287109375
 20
406.8544921875
 30
0.0
 10
117.392578125
 20
406.5146484375
 30
0.0
 10
117.37451171875
 20
406.1123046875
 30
0.0
 10
117.37451171875
 20
405.6494140625
 30
0.0
 10
117.37451171875
 20
405.189453125
 30
0.0
 10
117.392578125
 20
404.7890624999999
 30
0.0
 10
117.4287109375
 20
404.44921875
 30
0.0
 10
117.46484375
 20
404.1093749999999
 30
0.0
 10
117.52783203125
 20
403.8271484375
 30
0.0
 10
117.6181640625
 20
403.6015625
 30
0.0
 10
117.70849609375
 20
403.3730468749999
 30
0.0
 10
117.83251953125
 20
403.19921875
 30
0.0
 10
117.99072265625
 20
403.0800781249999
 30
0.0
 10
118.1484375
 20
402.9609374999999
 30
0.0
 10
118.353515625
 20
402.90234375
 30
0.0
 10
118.6064453125
 20
402.90234375
 30
0.0
 10
118.85595703125
 20
402.90234375
 30
0.0
 10
119.0615234375
 20
402.9609374999999
 30
0.0
 10
119.22216796875
 20
403.0800781249999
 30
0.0
 10
119.38330078125
 20
403.19921875
 30
0.0
 10
119.51025390625
 20
403.3759765624999
 30
0.0
 10
119.603515625
 20
403.6103515625
 30
0.0
 10
119.69384765625
 20
403.8388671875
 30
0.0
 10
119.75537109375
 20
404.1279296875
 30
0.0
 10
119.78857421875
 20
404.4765625
 30
0.0
 10
119.82177734375
 20
404.8251953124999
 30
0.0
 10
119.837890625
 20
405.2197265624999
 30
0.0
 10
119.837890625
 20
405.658203125
 30
0.0
 10
119.837890625
 20
406.1279296875
 30
0.0
 10
119.82373046875
 20
406.5205078125
 30
0.0
 10
119.79541015625
 20
406.8359375
 30
0.0
 10
119.7666015625
 20
407.1523437499999
 30
0.0
 10
119.7041015625
 20
407.4345703125
 30
0.0
 10
119.60791015625
 20
407.6845703125
 30
0.0
 10
119.52099609375
 20
407.916015625
 30
0.0
 10
119.396484375
 20
408.09375
 30
0.0
 10
119.23583984375
 20
408.2187499999999
 30
0.0
 10
119.07470703125
 20
408.34375
 30
0.0
 10
118.865234375
 20
408.4062499999999
 30
0.0
 10
118.6064453125
 20
408.4062499999999
 30
0.0
 10
118.35693359375
 20
408.4062499999999
 30
0.0
 10
118.1513671875
 20
408.3466796875
 30
0.0
 10
117.99072265625
 20
408.2275390625
 30
0.0
 10
117.82958984375
 20
408.1093749999999
 30
0.0
 10
117.7041015625
 20
407.9326171875
 30
0.0
 10
117.61376953125
 20
407.6982421874999
 30
0.0
  0
SPLINE
  5
6CD
330
6C8
100
AcDbEntity
  8
Layer 1
100
AcDbSpline
210
0.0
220
0.0
230
1.0
 70
     9
 71
     3
 72
    29
 73
    25
 74
     0
 42
0.000000001
 43
0.0000000001
 40
0.0
 40
0.0
 40
0.0
 40
0.0
 40
1.0
 40
1.0
 40
1.0
 40
2.0
 40
2.0
 40
2.0
 40
3.0
 40
3.0
 40
3.0
 40
4.0
 40
4.0
 40
4.0
 40
5.0
 40
5.0
 40
5.0
 40
6.0
 40
6.0
 40
6.0
 40
7.0
 40
7.0
 40
7.0
 40
8.0
 40
8.0
 40
8.0
 40
8.0
 10
116.458984375
 20
405.6494140625
 30
0.0
 10
116.458984375
 20
406.8554687499999
 30
0.0
 10
116.63427734375
 20
407.740234375
 30
0.0
 10
116.984375
 20
408.3046874999999
 30
0.0
 10
117.3349609375
 20
408.8681640625
 30
0.0
 10
117.87548828125
 20
409.1503906249999
 30
0.0
 10
118.6064453125
 20
409.1503906249999
 30
0.0
 10
119.34619140625
 20
409.1503906249999
 30
0.0
 10
119.88916015625
 20
408.86328125
 30
0.0
 10
120.23486328125
 20
408.2890625
 30
0.0
 10
120.5810546875
 20
407.71484375
 30
0.0
 10
120.75390625
 20
406.837890625
 30
0.0
 10
120.75390625
 20
405.658203125
 30
0.0
 10
120.75390625
 20
404.4462890624999
 30
0.0
 10
120.57861328125
 20
403.5595703124999
 30
0.0
 10
120.228515625
 20
402.9990234375
 30
0.0
 10
119.8779296875
 20
402.4375
 30
0.0
 10
119.33740234375
 20
402.1572265625
 30
0.0
 10
118.6064453125
 20
402.1572265625
 30
0.0
 10
117.8662109375
 20
402.1572265625
 30
0.0
 10
117.32373046875
 20
402.447265625
 30
0.0
 10
116.9775390625
 20
403.0283203125
 30
0.0
 10
116.6318359375
 20
403.6083984374999
 30
0.0
 10
116.458984375
 20
404.4824218749999
 30
0.0
 10
116.458984375
 20
405.6494140625
 30
0.0
  0
HATCH
  5
6CE
330
6C8
100
AcDbEntity
  8
Layer 1
 62
     7
100
AcDbHatch
 10
0.0
 20
0.0
 30
0.0
210
0.0
220
0.0
230
1.0
  2
SOLID
 70
     1
 71
     1
 91
        2
 92
        1
 93
        1
 72
     4
 94
        3
 73
     0
 74
     0
 95
       53
 96
       49
 40
0.0
 40
0.0
 40
0.0
 40
0.0
 40
1.0
 40
1.0
 40
1.0
 40
2.0
 40
2.0
 40
2.0
 40
3.0
 40
3.0
 40
3.0
 40
4.0
 40
4.0
 40
4.0
 40
5.0
 40
5.0
 40
5.0
 40
6.0
 40
6.0
 40
6.0
 40
7.0
 40
7.0
 40
7.0
 40
8.0
 40
8.0
 40
8.0
 40
9.0
 40
9.0
 40
9.0
 40
10.0
 40
10.0
 40
10.0
 40
11.0
 40
11.0
 40
11.0
 40
12.0
 40
12.0
 40
12.0
 40
13.0
 40
13.0
 40
13.0
 40
14.0
 40
14.0
 40
14.0
 40
15.0
 40
15.0
 40
15.0
 40
16.0
 40
16.0
 40
16.0
 40
16.0
 10
117.61376953125
 20
407.6982421874999
 10
117.5263671875
 20
407.4755859375
 10
117.46484375
 20
407.1943359375
 10
117.4287109375
 20
406.8544921875
 10
117.392578125
 20
406.5146484375
 10
117.37451171875
 20
406.1123046875
 10
117.37451171875
 20
405.6494140625
 10
117.37451171875
 20
405.189453125
 10
117.392578125
 20
404.7890624999999
 10
117.4287109375
 20
404.44921875
 10
117.46484375
 20
404.1093749999999
 10
117.52783203125
 20
403.8271484375
 10
117.6181640625
 20
403.6015625
 10
117.70849609375
 20
403.3730468749999
 10
117.83251953125
 20
403.19921875
 10
117.99072265625
 20
403.0800781249999
 10
118.1484375
 20
402.9609374999999
 10
118.353515625
 20
402.90234375
 10
118.6064453125
 20
402.90234375
 10
118.85595703125
 20
402.90234375
 10
119.0615234375
 20
402.9609374999999
 10
119.22216796875
 20
403.0800781249999
 10
119.38330078125
 20
403.19921875
 10
119.51025390625
 20
403.3759765624999
 10
119.603515625
 20
403.6103515625
 10
119.69384765625
 20
403.8388671875
 10
119.75537109375
 20
404.1279296875
 10
119.78857421875
 20
404.4765625
 10
119.82177734375
 20
404.8251953124999
 10
119.837890625
 20
405.2197265624999
 10
119.837890625
 20
405.658203125
 10
119.837890625
 20
406.1279296875
 10
119.82373046875
 20
406.5205078125
 10
119.79541015625
 20
406.8359375
 10
119.7666015625
 20
407.1523437499999
 10
119.7041015625
 20
407.4345703125
 10
119.60791015625
 20
407.6845703125
 10
119.52099609375
 20
407.916015625
 10
119.396484375
 20
408.09375
 10
119.23583984375
 20
408.2187499999999
 10
119.07470703125
 20
408.34375
 10
118.865234375
 20
408.4062499999999
 10
118.6064453125
 20
408.4062499999999
 10
118.35693359375
 20
408.4062499999999
 10
118.1513671875
 20
408.3466796875
 10
117.99072265625
 20
408.2275390625
 10
117.82958984375
 20
408.1093749999999
 10
117.7041015625
 20
407.9326171875
 10
117.61376953125
 20
407.6982421874999
 97
        0
 97
        1
330
6CC
 92
        1
 93
        1
 72
     4
 94
        3
 73
     0
 74
     0
 95
       29
 96
       25
 40
0.0
 40
0.0
 40
0.0
 40
0.0
 40
1.0
 40
1.0
 40
1.0
 40
2.0
 40
2.0
 40
2.0
 40
3.0
 40
3.0
 40
3.0
 40
4.0
 40
4.0
 40
4.0
 40
5.0
 40
5.0
 40
5.0
 40
6.0
 40
6.0
 40
6.0
 40
7.0
 40
7.0
 40
7.0
 40
8.0
 40
8.0
 40
8.0
 40
8.0
 10
116.458984375
 20
405.6494140625
 10
116.458984375
 20
406.8554687499999
 10
116.63427734375
 20
407.740234375
 10
116.984375
 20
408.3046874999999
 10
117.3349609375
 20
408.8681640625
 10
117.87548828125
 20
409.1503906249999
 10
118.6064453125
 20
409.1503906249999
 10
119.34619140625
 20
409.1503906249999
 10
119.88916015625
 20
408.86328125
 10
120.23486328125
 20
408.2890625
 10
120.5810546875
 20
407.71484375
 10
120.75390625
 20
406.837890625
 10
120.75390625
 20
405.658203125
 10
120.75390625
 20
404.4462890624999
 10
120.57861328125
 20
403.5595703124999
 10
120.228515625
 20
402.9990234375
 10
119.8779296875
 20
402.4375
 10
119.33740234375
 20
402.1572265625
 10
118.6064453125
 20
402.1572265625
 10
117.8662109375
 20
402.1572265625
 10
117.32373046875
 20
402.447265625
 10
116.9775390625
 20
403.0283203125
 10
116.6318359375
 20
403.6083984374999
 10
116.458984375
 20
404.4824218749999
 10
116.458984375
 20
405.6494140625
 97
        0
 97
        1
330
6CD
 75
     2
 76
     1
 98
        1
 10
0.0
 20
0.0
450
        0
451
        0
460
0.0
461
0.0
452
        0
462
0.0
453
        0
470

  0
ENDBLK
  5
6CF
330
6C8
100
AcDbEntity
  8
0
100
AcDbBlockEnd
  0
BLOCK
  5
6D1
330
6D0
100
AcDbEntity
  8
0
100
AcDbBlockBegin
  2
Block_4
 70
     0
 10
0.0
 20
0.0
 30
0.0
  3
Block_4
  1

  0
INSERT
  5
6D2
330
6D0
100
AcDbEntity
  8
Layer 1
100
AcDbBlockReference
  2
Block_5
 10
0.0
 20
0.0
 30
0.0
  0
ENDBLK
  5
6D3
330
6D0
100
AcDbEntity
  8
0
100
AcDbBlockEnd
  0
BLOCK
  5
6D5
330
6D4
100
AcDbEntity
  8
0
100
AcDbBlockBegin
  2
Block_5
 70
     0
 10
0.0
 20
0.0
 30
0.0
  3
Block_5
  1

  0
SPLINE
  5
6D6
330
6D4
100
AcDbEntity
  8
Layer 1
100
AcDbSpline
210
0.0
220
0.0
230
1.0
 70
    11
 71
     3
 72
    41
 73
    37
 74
     0
 42
0.000000001
 43
0.0000000001
 40
0.0
 40
0.0
 40
0.0
 40
0.0
 40
1.0
 40
1.0
 40
1.0
 40
2.0
 40
2.0
 40
2.0
 40
3.0
 40
3.0
 40
3.0
 40
4.0
 40
4.0
 40
4.0
 40
5.0
 40
5.0
 40
5.0
 40
6.0
 40
6.0
 40
6.0
 40
7.0
 40
7.0
 40
7.0
 40
8.0
 40
8.0
 40
8.0
 40
9.0
 40
9.0
 40
9.0
 40
10.0
 40
10.0
 40
10.0
 40
11.0
 40
11.0
 40
11.0
 40
12.0
 40
12.0
 40
12.0
 40
12.0
 10
383.8798828125
 20
265.65234375
 30
0.0
 10
383.8798828125
 20
265.65234375
 30
0.0
 10
383.8798828125
 20
262.376953125
 30
0.0
 10
383.8798828125
 20
262.376953125
 30
0.0
 10
383.8798828125
 20
262.376953125
 30
0.0
 10
383.1943359375
 20
262.376953125
 30
0.0
 10
383.1943359375
 20
262.376953125
 30
0.0
 10
383.1943359375
 20
262.376953125
 30
0.0
 10
383.1943359375
 20
263.595703125
 30
0.0
 10
383.1943359375
 20
263.595703125
 30
0.0
 10
383.1943359375
 20
263.595703125
 30
0.0
 10
378.69140625
 20
263.595703125
 30
0.0
 10
378.69140625
 20
263.595703125
 30
0.0
 10
378.69140625
 20
263.595703125
 30
0.0
 10
378.69140625
 20
262.376953125
 30
0.0
 10
378.69140625
 20
262.376953125
 30
0.0
 10
378.69140625
 20
262.376953125
 30
0.0
 10
378.078125
 20
262.376953125
 30
0.0
 10
378.078125
 20
262.376953125
 30
0.0
 10
378.078125
 20
262.8369140625
 30
0.0
 10
378.0126953125
 20
263.1767578125
 30
0.0
 10
377.8818359375
 20
263.39453125
 30
0.0
 10
377.7509765625
 20
263.6123046875
 30
0.0
 10
377.5029296875
 20
263.7353515625
 30
0.0
 10
377.1396484375
 20
263.76171875
 30
0.0
 10
377.1396484375
 20
263.76171875
 30
0.0
 10
377.1396484375
 20
264.4619140625
 30
0.0
 10
377.1396484375
 20
264.4619140625
 30
0.0
 10
377.1396484375
 20
264.4619140625
 30
0.0
 10
383.1943359375
 20
264.4619140625
 30
0.0
 10
383.1943359375
 20
264.4619140625
 30
0.0
 10
383.1943359375
 20
264.4619140625
 30
0.0
 10
383.1943359375
 20
265.65234375
 30
0.0
 10
383.1943359375
 20
265.65234375
 30
0.0
 10
383.1943359375
 20
265.65234375
 30
0.0
 10
383.8798828125
 20
265.65234375
 30
0.0
 10
383.8798828125
 20
265.65234375
 30
0.0
  0
HATCH
  5
6D7
330
6D4
100
AcDbEntity
  8
Layer 1
 62
     7
100
AcDbHatch
 10
0.0
 20
0.0
 30
0.0
210
0.0
220
0.0
230
1.0
  2
SOLID
 70
     1
 71
     1
 91
        1
 92
        1
 93
        1
 72
     4
 94
        3
 73
     0
 74
     0
 95
       41
 96
       37
 40
0.0
 40
0.0
 40
0.0
 40
0.0
 40
1.0
 40
1.0
 40
1.0
 40
2.0
 40
2.0
 40
2.0
 40
3.0
 40
3.0
 40
3.0
 40
4.0
 40
4.0
 40
4.0
 40
5.0
 40
5.0
 40
5.0
 40
6.0
 40
6.0
 40
6.0
 40
7.0
 40
7.0
 40
7.0
 40
8.0
 40
8.0
 40
8.0
 40
9.0
 40
9.0
 40
9.0
 40
10.0
 40
10.0
 40
10.0
 40
11.0
 40
11.0
 40
11.0
 40
12.0
 40
12.0
 40
12.0
 40
12.0
 10
383.8798828125
 20
265.65234375
 10
383.8798828125
 20
265.65234375
 10
383.8798828125
 20
262.376953125
 10
383.8798828125
 20
262.376953125
 10
383.8798828125
 20
262.376953125
 10
383.1943359375
 20
262.376953125
 10
383.1943359375
 20
262.376953125
 10
383.1943359375
 20
262.376953125
 10
383.1943359375
 20
263.595703125
 10
383.1943359375
 20
263.595703125
 10
383.1943359375
 20
263.595703125
 10
378.69140625
 20
263.595703125
 10
378.69140625
 20
263.595703125
 10
378.69140625
 20
263.595703125
 10
378.69140625
 20
262.376953125
 10
378.69140625
 20
262.376953125
 10
378.69140625
 20
262.376953125
 10
378.078125
 20
262.376953125
 10
378.078125
 20
262.376953125
 10
378.078125
 20
262.8369140625
 10
378.0126953125
 20
263.1767578125
 10
377.8818359375
 20
263.39453125
 10
377.7509765625
 20
263.6123046875
 10
377.5029296875
 20
263.7353515625
 10
377.1396484375
 20
263.76171875
 10
377.1396484375
 20
263.76171875
 10
377.1396484375
 20
264.4619140625
 10
377.1396484375
 20
264.4619140625
 10
377.1396484375
 20
264.4619140625
 10
383.1943359375
 20
264.4619140625
 10
383.1943359375
 20
264.4619140625
 10
383.1943359375
 20
264.4619140625
 10
383.1943359375
 20
265.65234375
 10
383.1943359375
 20
265.65234375
 10
383.1943359375
 20
265.65234375
 10
383.8798828125
 20
265.65234375
 10
383.8798828125
 20
265.65234375
 97
        0
 97
        1
330
6D6
 75
     2
 76
     1
 98
        1
 10
0.0
 20
0.0
450
        0
451
        0
460
0.0
461
0.0
452
        0
462
0.0
453
        0
470

  0
SPLINE
  5
6D8
330
6D4
100
AcDbEntity
  8
Layer 1
100
AcDbSpline
210
0.0
220
0.0
230
1.0
 70
     9
 71
     3
 72
   143
 73
   139
 74
     0
 42
0.000000001
 43
0.0000000001
 40
0.0
 40
0.0
 40
0.0
 40
0.0
 40
1.0
 40
1.0
 40
1.0
 40
2.0
 40
2.0
 40
2.0
 40
3.0
 40
3.0
 40
3.0
 40
4.0
 40
4.0
 40
4.0
 40
5.0
 40
5.0
 40
5.0
 40
6.0
 40
6.0
 40
6.0
 40
7.0
 40
7.0
 40
7.0
 40
8.0
 40
8.0
 40
8.0
 40
9.0
 40
9.0
 40
9.0
 40
10.0
 40
10.0
 40
10.0
 40
11.0
 40
11.0
 40
11.0
 40
12.0
 40
12.0
 40
12.0
 40
13.0
 40
13.0
 40
13.0
 40
14.0
 40
14.0
 40
14.0
 40
15.0
 40
15.0
 40
15.0
 40
16.0
 40
16.0
 40
16.0
 40
17.0
 40
17.0
 40
17.0
 40
18.0
 40
18.0
 40
18.0
 40
19.0
 40
19.0
 40
19.0
 40
20.0
 40
20.0
 40
20.0
 40
21.0
 40
21.0
 40
21.0
 40
22.0
 40
22.0
 40
22.0
 40
23.0
 40
23.0
 40
23.0
 40
24.0
 40
24.0
 40
24.0
 40
25.0
 40
25.0
 40
25.0
 40
26.0
 40
26.0
 40
26.0
 40
27.0
 40
27.0
 40
27.0
 40
28.0
 40
28.0
 40
28.0
 40
29.0
 40
29.0
 40
29.0
 40
30.0
 40
30.0
 40
30.0
 40
31.0
 40
31.0
 40
31.0
 40
32.0
 40
32.0
 40
32.0
 40
33.0
 40
33.0
 40
33.0
 40
34.0
 40
34.0
 40
34.0
 40
35.0
 40
35.0
 40
35.0
 40
36.0
 40
36.0
 40
36.0
 40
37.0
 40
37.0
 40
37.0
 40
38.0
 40
38.0
 40
38.0
 40
39.0
 40
39.0
 40
39.0
 40
40.0
 40
40.0
 40
40.0
 40
41.0
 40
41.0
 40
41.0
 40
42.0
 40
42.0
 40
42.0
 40
43.0
 40
43.0
 40
43.0
 40
44.0
 40
44.0
 40
44.0
 40
45.0
 40
45.0
 40
45.0
 40
46.0
 40
46.0
 40
46.0
 40
46.0
 10
377.802734375
 20
268.70703125
 30
0.0
 10
377.802734375
 20
268.5439453125
 30
0.0
 10
377.822265625
 20
268.3818359375
 30
0.0
 10
377.861328125
 20
268.2197265625
 30
0.0
 10
377.900390625
 20
268.0576171875
 30
0.0
 10
377.951171875
 20
267.8974609375
 30
0.0
 10
378.0146484375
 20
267.7412109375
 30
0.0
 10
378.0751953125
 20
267.5966796875
 30
0.0
 10
378.1376953125
 20
267.4716796875
 30
0.0
 10
378.2041015625
 20
267.3642578125
 30
0.0
 10
378.2705078125
 20
267.2578125
 30
0.0
 10
378.33203125
 20
267.162109375
 30
0.0
 10
378.388671875
 20
267.078125
 30
0.0
 10
378.388671875
 20
267.078125
 30
0.0
 10
378.388671875
 20
267.0244140625
 30
0.0
 10
378.388671875
 20
267.0244140625
 30
0.0
 10
378.388671875
 20
267.0244140625
 30
0.0
 10
377.4375
 20
267.0244140625
 30
0.0
 10
377.4375
 20
267.0244140625
 30
0.0
 10
377.33203125
 20
267.2197265625
 30
0.0
 10
377.236328125
 20
267.4853515625
 30
0.0
 10
377.150390625
 20
267.8203125
 30
0.0
 10
377.064453125
 20
268.1552734375
 30
0.0
 10
377.0224609375
 20
268.4755859375
 30
0.0
 10
377.0224609375
 20
268.779296875
 30
0.0
 10
377.0224609375
 20
269.0830078125
 30
0.0
 10
377.052734375
 20
269.3486328125
 30
0.0
 10
377.1142578125
 20
269.5751953125
 30
0.0
 10
377.17578125
 20
269.802734375
 30
0.0
 10
377.271484375
 20
270.0078125
 30
0.0
 10
377.4013671875
 20
270.19140625
 30
0.0
 10
377.5458984375
 20
270.3896484375
 30
0.0
 10
377.7197265625
 20
270.5390625
 30
0.0
 10
377.9248046875
 20
270.6396484375
 30
0.0
 10
378.12890625
 20
270.7412109375
 30
0.0
 10
378.3681640625
 20
270.791015625
 30
0.0
 10
378.6416015625
 20
270.791015625
 30
0.0
 10
379.01171875
 20
270.791015625
 30
0.0
 10
379.3369140625
 20
270.669921875
 30
0.0
 10
379.6162109375
 20
270.42578125
 30
0.0
 10
379.896484375
 20
270.1826171875
 30
0.0
 10
380.0732421875
 20
269.890625
 30
0.0
 10
380.1484375
 20
269.55078125
 30
0.0
 10
380.1484375
 20
269.55078125
 30
0.0
 10
380.2119140625
 20
269.55078125
 30
0.0
 10
380.2119140625
 20
269.55078125
 30
0.0
 10
380.2392578125
 20
269.69140625
 30
0.0
 10
380.28515625
 20
269.8427734375
 30
0.0
 10
380.3515625
 20
270.00390625
 30
0.0
 10
380.41796875
 20
270.1650390625
 30
0.0
 10
380.515625
 20
270.314453125
 30
0.0
 10
380.64453125
 20
270.453125
 30
0.0
 10
380.7744140625
 20
270.5908203125
 30
0.0
 10
380.9404296875
 20
270.7041015625
 30
0.0
 10
381.1435546875
 20
270.791015625
 30
0.0
 10
381.3466796875
 20
270.87890625
 30
0.0
 10
381.59375
 20
270.921875
 30
0.0
 10
381.8857421875
 20
270.921875
 30
0.0
 10
382.189453125
 20
270.921875
 30
0.0
 10
382.46875
 20
270.8701171875
 30
0.0
 10
382.72265625
 20
270.7666015625
 30
0.0
 10
382.9765625
 20
270.6630859375
 30
0.0
 10
383.201171875
 20
270.515625
 30
0.0
 10
383.3974609375
 20
270.326171875
 30
0.0
 10
383.6015625
 20
270.130859375
 30
0.0
 10
383.7568359375
 20
269.89453125
 30
0.0
 10
383.8623046875
 20
269.6181640625
 30
0.0
 10
383.966796875
 20
269.341796875
 30
0.0
 10
384.01953125
 20
269.02734375
 30
0.0
 10
384.01953125
 20
268.6748046875
 30
0.0
 10
384.01953125
 20
268.337890625
 30
0.0
 10
383.9794921875
 20
268.0048828125
 30
0.0
 10
383.8974609375
 20
267.673828125
 30
0.0
 10
383.81640625
 20
267.3427734375
 30
0.0
 10
383.71875
 20
267.064453125
 30
0.0
 10
383.6044921875
 20
266.8388671875
 30
0.0
 10
383.6044921875
 20
266.8388671875
 30
0.0
 10
382.65234375
 20
266.8388671875
 30
0.0
 10
382.65234375
 20
266.8388671875
 30
0.0
 10
382.65234375
 20
266.8388671875
 30
0.0
 10
382.65234375
 20
266.90234375
 30
0.0
 10
382.65234375
 20
266.90234375
 30
0.0
 10
382.791015625
 20
267.091796875
 30
0.0
 10
382.923828125
 20
267.345703125
 30
0.0
 10
383.0498046875
 20
267.6650390625
 30
0.0
 10
383.17578125
 20
267.9833984375
 30
0.0
 10
383.2392578125
 20
268.302734375
 30
0.0
 10
383.2392578125
 20
268.62109375
 30
0.0
 10
383.2392578125
 20
268.8046875
 30
0.0
 10
383.2099609375
 20
268.9892578125
 30
0.0
 10
383.1513671875
 20
269.173828125
 30
0.0
 10
383.0927734375
 20
269.3583984375
 30
0.0
 10
382.9970703125
 20
269.5126953125
 30
0.0
 10
382.8642578125
 20
269.63671875
 30
0.0
 10
382.732421875
 20
269.7568359375
 30
0.0
 10
382.5869140625
 20
269.8486328125
 30
0.0
 10
382.4267578125
 20
269.9111328125
 30
0.0
 10
382.267578125
 20
269.974609375
 30
0.0
 10
382.06640625
 20
270.005859375
 30
0.0
 10
381.822265625
 20
270.005859375
 30
0.0
 10
381.5791015625
 20
270.005859375
 30
0.0
 10
381.37890625
 20
269.970703125
 30
0.0
 10
381.22265625
 20
269.900390625
 30
0.0
 10
381.06640625
 20
269.8291015625
 30
0.0
 10
380.9423828125
 20
269.7314453125
 30
0.0
 10
380.8525390625
 20
269.6044921875
 30
0.0
 10
380.7626953125
 20
269.478515625
 30
0.0
 10
380.7001953125
 20
269.3291015625
 30
0.0
 10
380.6650390625
 20
269.15625
 30
0.0
 10
380.630859375
 20
268.982421875
 30
0.0
 10
380.61328125
 20
268.7958984375
 30
0.0
 10
380.61328125
 20
268.59375
 30
0.0
 10
380.61328125
 20
268.59375
 30
0.0
 10
380.61328125
 20
268.2109375
 30
0.0
 10
380.61328125
 20
268.2109375
 30
0.0
 10
380.61328125
 20
268.2109375
 30
0.0
 10
379.8642578125
 20
268.2109375
 30
0.0
 10
379.8642578125
 20
268.2109375
 30
0.0
 10
379.8642578125
 20
268.2109375
 30
0.0
 10
379.8642578125
 20
268.5087890625
 30
0.0
 10
379.8642578125
 20
268.5087890625
 30
0.0
 10
379.8642578125
 20
268.9140625
 30
0.0
 10
379.7685546875
 20
269.244140625
 30
0.0
 10
379.576171875
 20
269.4990234375
 30
0.0
 10
379.3828125
 20
269.7529296875
 30
0.0
 10
379.103515625
 20
269.8798828125
 30
0.0
 10
378.736328125
 20
269.8798828125
 30
0.0
 10
378.568359375
 20
269.8798828125
 30
0.0
 10
378.4228515625
 20
269.8466796875
 30
0.0
 10
378.30078125
 20
269.7802734375
 30
0.0
 10
378.1796875
 20
269.71484375
 30
0.0
 10
378.08203125
 20
269.6298828125
 30
0.0
 10
378.009765625
 20
269.5283203125
 30
0.0
 10
377.931640625
 20
269.4140625
 30
0.0
 10
377.8779296875
 20
269.287109375
 30
0.0
 10
377.84765625
 20
269.1494140625
 30
0.0
 10
377.8173828125
 20
269.0107421875
 30
0.0
 10
377.802734375
 20
268.86328125
 30
0.0
 10
377.802734375
 20
268.70703125
 30
0.0
  0
HATCH
  5
6D9
330
6D4
100
AcDbEntity
  8
Layer 1
 62
     7
100
AcDbHatch
 10
0.0
 20
0.0
 30
0.0
210
0.0
220
0.0
230
1.0
  2
SOLID
 70
     1
 71
     1
 91
        1
 92
        1
 93
        1
 72
     4
 94
        3
 73
     0
 74
     0
 95
      143
 96
      139
 40
0.0
 40
0.0
 40
0.0
 40
0.0
 40
1.0
 40
1.0
 40
1.0
 40
2.0
 40
2.0
 40
2.0
 40
3.0
 40
3.0
 40
3.0
 40
4.0
 40
4.0
 40
4.0
 40
5.0
 40
5.0
 40
5.0
 40
6.0
 40
6.0
 40
6.0
 40
7.0
 40
7.0
 40
7.0
 40
8.0
 40
8.0
 40
8.0
 40
9.0
 40
9.0
 40
9.0
 40
10.0
 40
10.0
 40
10.0
 40
11.0
 40
11.0
 40
11.0
 40
12.0
 40
12.0
 40
12.0
 40
13.0
 40
13.0
 40
13.0
 40
14.0
 40
14.0
 40
14.0
 40
15.0
 40
15.0
 40
15.0
 40
16.0
 40
16.0
 40
16.0
 40
17.0
 40
17.0
 40
17.0
 40
18.0
 40
18.0
 40
18.0
 40
19.0
 40
19.0
 40
19.0
 40
20.0
 40
20.0
 40
20.0
 40
21.0
 40
21.0
 40
21.0
 40
22.0
 40
22.0
 40
22.0
 40
23.0
 40
23.0
 40
23.0
 40
24.0
 40
24.0
 40
24.0
 40
25.0
 40
25.0
 40
25.0
 40
26.0
 40
26.0
 40
26.0
 40
27.0
 40
27.0
 40
27.0
 40
28.0
 40
28.0
 40
28.0
 40
29.0
 40
29.0
 40
29.0
 40
30.0
 40
30.0
 40
30.0
 40
31.0
 40
31.0
 40
31.0
 40
32.0
 40
32.0
 40
32.0
 40
33.0
 40
33.0
 40
33.0
 40
34.0
 40
34.0
 40
34.0
 40
35.0
 40
35.0
 40
35.0
 40
36.0
 40
36.0
 40
36.0
 40
37.0
 40
37.0
 40
37.0
 40
38.0
 40
38.0
 40
38.0
 40
39.0
 40
39.0
 40
39.0
 40
40.0
 40
40.0
 40
40.0
 40
41.0
 40
41.0
 40
41.0
 40
42.0
 40
42.0
 40
42.0
 40
43.0
 40
43.0
 40
43.0
 40
44.0
 40
44.0
 40
44.0
 40
45.0
 40
45.0
 40
45.0
 40
46.0
 40
46.0
 40
46.0
 40
46.0
 10
377.802734375
 20
268.70703125
 10
377.802734375
 20
268.5439453125
 10
377.822265625
 20
268.3818359375
 10
377.861328125
 20
268.2197265625
 10
377.900390625
 20
268.0576171875
 10
377.951171875
 20
267.8974609375
 10
378.0146484375
 20
267.7412109375
 10
378.0751953125
 20
267.5966796875
 10
378.1376953125
 20
267.4716796875
 10
378.2041015625
 20
267.3642578125
 10
378.2705078125
 20
267.2578125
 10
378.33203125
 20
267.162109375
 10
378.388671875
 20
267.078125
 10
378.388671875
 20
267.078125
 10
378.388671875
 20
267.0244140625
 10
378.388671875
 20
267.0244140625
 10
378.388671875
 20
267.0244140625
 10
377.4375
 20
267.0244140625
 10
377.4375
 20
267.0244140625
 10
377.33203125
 20
267.2197265625
 10
377.236328125
 20
267.4853515625
 10
377.150390625
 20
267.8203125
 10
377.064453125
 20
268.1552734375
 10
377.0224609375
 20
268.4755859375
 10
377.0224609375
 20
268.779296875
 10
377.0224609375
 20
269.0830078125
 10
377.052734375
 20
269.3486328125
 10
377.1142578125
 20
269.5751953125
 10
377.17578125
 20
269.802734375
 10
377.271484375
 20
270.0078125
 10
377.4013671875
 20
270.19140625
 10
377.5458984375
 20
270.3896484375
 10
377.7197265625
 20
270.5390625
 10
377.9248046875
 20
270.6396484375
 10
378.12890625
 20
270.7412109375
 10
378.3681640625
 20
270.791015625
 10
378.6416015625
 20
270.791015625
 10
379.01171875
 20
270.791015625
 10
379.3369140625
 20
270.669921875
 10
379.6162109375
 20
270.42578125
 10
379.896484375
 20
270.1826171875
 10
380.0732421875
 20
269.890625
 10
380.1484375
 20
269.55078125
 10
380.1484375
 20
269.55078125
 10
380.2119140625
 20
269.55078125
 10
380.2119140625
 20
269.55078125
 10
380.2392578125
 20
269.69140625
 10
380.28515625
 20
269.8427734375
 10
380.3515625
 20
270.00390625
 10
380.41796875
 20
270.1650390625
 10
380.515625
 20
270.314453125
 10
380.64453125
 20
270.453125
 10
380.7744140625
 20
270.5908203125
 10
380.9404296875
 20
270.7041015625
 10
381.1435546875
 20
270.791015625
 10
381.3466796875
 20
270.87890625
 10
381.59375
 20
270.921875
 10
381.8857421875
 20
270.921875
 10
382.189453125
 20
270.921875
 10
382.46875
 20
270.8701171875
 10
382.72265625
 20
270.7666015625
 10
382.9765625
 20
270.6630859375
 10
383.201171875
 20
270.515625
 10
383.3974609375
 20
270.326171875
 10
383.6015625
 20
270.130859375
 10
383.7568359375
 20
269.89453125
 10
383.8623046875
 20
269.6181640625
 10
383.966796875
 20
269.341796875
 10
384.01953125
 20
269.02734375
 10
384.01953125
 20
268.6748046875
 10
384.01953125
 20
268.337890625
 10
383.9794921875
 20
268.0048828125
 10
383.8974609375
 20
267.673828125
 10
383.81640625
 20
267.3427734375
 10
383.71875
 20
267.064453125
 10
383.6044921875
 20
266.8388671875
 10
383.6044921875
 20
266.8388671875
 10
382.65234375
 20
266.8388671875
 10
382.65234375
 20
266.8388671875
 10
382.65234375
 20
266.8388671875
 10
382.65234375
 20
266.90234375
 10
382.65234375
 20
266.90234375
 10
382.791015625
 20
267.091796875
 10
382.923828125
 20
267.345703125
 10
383.0498046875
 20
267.6650390625
 10
383.17578125
 20
267.9833984375
 10
383.2392578125
 20
268.302734375
 10
383.2392578125
 20
268.62109375
 10
383.2392578125
 20
268.8046875
 10
383.2099609375
 20
268.9892578125
 10
383.1513671875
 20
269.173828125
 10
383.0927734375
 20
269.3583984375
 10
382.9970703125
 20
269.5126953125
 10
382.8642578125
 20
269.63671875
 10
382.732421875
 20
269.7568359375
 10
382.5869140625
 20
269.8486328125
 10
382.4267578125
 20
269.9111328125
 10
382.267578125
 20
269.974609375
 10
382.06640625
 20
270.005859375
 10
381.822265625
 20
270.005859375
 10
381.5791015625
 20
270.005859375
 10
381.37890625
 20
269.970703125
 10
381.22265625
 20
269.900390625
 10
381.06640625
 20
269.8291015625
 10
380.9423828125
 20
269.7314453125
 10
380.8525390625
 20
269.6044921875
 10
380.7626953125
 20
269.478515625
 10
380.7001953125
 20
269.3291015625
 10
380.6650390625
 20
269.15625
 10
380.630859375
 20
268.982421875
 10
380.61328125
 20
268.7958984375
 10
380.61328125
 20
268.59375
 10
380.61328125
 20
268.59375
 10
380.61328125
 20
268.2109375
 10
380.61328125
 20
268.2109375
 10
380.61328125
 20
268.2109375
 10
379.8642578125
 20
268.2109375
 10
379.8642578125
 20
268.2109375
 10
379.8642578125
 20
268.2109375
 10
379.8642578125
 20
268.5087890625
 10
379.8642578125
 20
268.5087890625
 10
379.8642578125
 20
268.9140625
 10
379.7685546875
 20
269.244140625
 10
379.576171875
 20
269.4990234375
 10
379.3828125
 20
269.7529296875
 10
379.103515625
 20
269.8798828125
 10
378.736328125
 20
269.8798828125
 10
378.568359375
 20
269.8798828125
 10
378.4228515625
 20
269.8466796875
 10
378.30078125
 20
269.7802734375
 10
378.1796875
 20
269.71484375
 10
378.08203125
 20
269.6298828125
 10
378.009765625
 20
269.5283203125
 10
377.931640625
 20
269.4140625
 10
377.8779296875
 20
269.287109375
 10
377.84765625
 20
269.1494140625
 10
377.8173828125
 20
269.0107421875
 10
377.802734375
 20
268.86328125
 10
377.802734375
 20
268.70703125
 97
        0
 97
        1
330
6D8
 75
     2
 76
     1
 98
        1
 10
0.0
 20
0.0
450
        0
451
        0
460
0.0
461
0.0
452
        0
462
0.0
453
        0
470

  0
SPLINE
  5
6DA
330
6D4
100
AcDbEntity
  8
Layer 1
100
AcDbSpline
210
0.0
220
0.0
230
1.0
 70
     9
 71
     3
 72
    47
 73
    43
 74
     0
 42
0.000000001
 43
0.0000000001
 40
0.0
 40
0.0
 40
0.0
 40
0.0
 40
1.0
 40
1.0
 40
1.0
 40
2.0
 40
2.0
 40
2.0
 40
3.0
 40
3.0
 40
3.0
 40
4.0
 40
4.0
 40
4.0
 40
5.0
 40
5.0
 40
5.0
 40
6.0
 40
6.0
 40
6.0
 40
7.0
 40
7.0
 40
7.0
 40
8.0
 40
8.0
 40
8.0
 40
9.0
 40
9.0
 40
9.0
 40
10.0
 40
10.0
 40
10.0
 40
11.0
 40
11.0
 40
11.0
 40
12.0
 40
12.0
 40
12.0
 40
13.0
 40
13.0
 40
13.0
 40
14.0
 40
14.0
 40
14.0
 40
14.0
 10
379.9228515625
 20
275.19921875
 30
0.0
 10
379.4658203125
 20
275.19921875
 30
0.0
 10
379.09375
 20
275.1572265625
 30
0.0
 10
378.806640625
 20
275.072265625
 30
0.0
 10
378.51953125
 20
274.98828125
 30
0.0
 10
378.2978515625
 20
274.873046875
 30
0.0
 10
378.140625
 20
274.7255859375
 30
0.0
 10
377.9970703125
 20
274.5927734375
 30
0.0
 10
377.8974609375
 20
274.458984375
 30
0.0
 10
377.8427734375
 20
274.32421875
 30
0.0
 10
377.7890625
 20
274.1884765625
 30
0.0
 10
377.76171875
 20
274.0390625
 30
0.0
 10
377.76171875
 20
273.876953125
 30
0.0
 10
377.76171875
 20
273.5068359375
 30
0.0
 10
377.89453125
 20
273.2119140625
 30
0.0
 10
378.1591796875
 20
272.9931640625
 30
0.0
 10
378.423828125
 20
272.7734375
 30
0.0
 10
378.8076171875
 20
272.6630859375
 30
0.0
 10
379.3095703125
 20
272.6630859375
 30
0.0
 10
379.591796875
 20
272.6630859375
 30
0.0
 10
379.8251953125
 20
272.69921875
 30
0.0
 10
380.0087890625
 20
272.771484375
 30
0.0
 10
380.1923828125
 20
272.84375
 30
0.0
 10
380.3505859375
 20
272.9609375
 30
0.0
 10
380.482421875
 20
273.1240234375
 30
0.0
 10
380.576171875
 20
273.23828125
 30
0.0
 10
380.638671875
 20
273.3671875
 30
0.0
 10
380.669921875
 20
273.51171875
 30
0.0
 10
380.701171875
 20
273.65625
 30
0.0
 10
380.716796875
 20
273.810546875
 30
0.0
 10
380.716796875
 20
273.9765625
 30
0.0
 10
380.716796875
 20
274.1689453125
 30
0.0
 10
380.68359375
 20
274.3759765625
 30
0.0
 10
380.615234375
 20
274.5986328125
 30
0.0
 10
380.5478515625
 20
274.8212890625
 30
0.0
 10
380.458984375
 20
275.015625
 30
0.0
 10
380.34765625
 20
275.1806640625
 30
0.0
 10
380.3017578125
 20
275.18359375
 30
0.0
 10
380.2431640625
 20
275.1875
 30
0.0
 10
380.1689453125
 20
275.1923828125
 30
0.0
 10
380.095703125
 20
275.197265625
 30
0.0
 10
380.013671875
 20
275.19921875
 30
0.0
 10
379.9228515625
 20
275.19921875
 30
0.0
  0
SPLINE
  5
6DB
330
6D4
100
AcDbEntity
  8
Layer 1
100
AcDbSpline
210
0.0
220
0.0
230
1.0
 70
     9
 71
     3
 72
    83
 73
    79
 74
     0
 42
0.000000001
 43
0.0000000001
 40
0.0
 40
0.0
 40
0.0
 40
0.0
 40
1.0
 40
1.0
 40
1.0
 40
2.0
 40
2.0
 40
2.0
 40
3.0
 40
3.0
 40
3.0
 40
4.0
 40
4.0
 40
4.0
 40
5.0
 40
5.0
 40
5.0
 40
6.0
 40
6.0
 40
6.0
 40
7.0
 40
7.0
 40
7.0
 40
8.0
 40
8.0
 40
8.0
 40
9.0
 40
9.0
 40
9.0
 40
10.0
 40
10.0
 40
10.0
 40
11.0
 40
11.0
 40
11.0
 40
12.0
 40
12.0
 40
12.0
 40
13.0
 40
13.0
 40
13.0
 40
14.0
 40
14.0
 40
14.0
 40
15.0
 40
15.0
 40
15.0
 40
16.0
 40
16.0
 40
16.0
 40
17.0
 40
17.0
 40
17.0
 40
18.0
 40
18.0
 40
18.0
 40
19.0
 40
19.0
 40
19.0
 40
20.0
 40
20.0
 40
20.0
 40
21.0
 40
21.0
 40
21.0
 40
22.0
 40
22.0
 40
22.0
 40
23.0
 40
23.0
 40
23.0
 40
24.0
 40
24.0
 40
24.0
 40
25.0
 40
25.0
 40
25.0
 40
26.0
 40
26.0
 40
26.0
 40
26.0
 10
379.345703125
 20
271.748046875
 30
0.0
 10
379.0
 20
271.748046875
 30
0.0
 10
378.68359375
 20
271.8037109375
 30
0.0
 10
378.3984375
 20
271.9169921875
 30
0.0
 10
378.1123046875
 20
272.029296875
 30
0.0
 10
377.8662109375
 20
272.18359375
 30
0.0
 10
377.658203125
 20
272.37890625
 30
0.0
 10
377.4599609375
 20
272.5654296875
 30
0.0
 10
377.3046875
 20
272.7939453125
 30
0.0
 10
377.193359375
 20
273.0625
 30
0.0
 10
377.08203125
 20
273.33203125
 30
0.0
 10
377.0263671875
 20
273.6044921875
 30
0.0
 10
377.0263671875
 20
273.8818359375
 30
0.0
 10
377.0263671875
 20
274.19140625
 30
0.0
 10
377.078125
 20
274.4716796875
 30
0.0
 10
377.1826171875
 20
274.72265625
 30
0.0
 10
377.2861328125
 20
274.974609375
 30
0.0
 10
377.435546875
 20
275.19140625
 30
0.0
 10
377.630859375
 20
275.375
 30
0.0
 10
377.8779296875
 20
275.6064453125
 30
0.0
 10
378.201171875
 20
275.7861328125
 30
0.0
 10
378.6015625
 20
275.9140625
 30
0.0
 10
379.0009765625
 20
276.0419921875
 30
0.0
 10
379.5068359375
 20
276.10546875
 30
0.0
 10
380.1171875
 20
276.10546875
 30
0.0
 10
380.673828125
 20
276.10546875
 30
0.0
 10
381.201171875
 20
276.0439453125
 30
0.0
 10
381.6982421875
 20
275.9189453125
 30
0.0
 10
382.1962890625
 20
275.7939453125
 30
0.0
 10
382.609375
 20
275.609375
 30
0.0
 10
382.9365234375
 20
275.3662109375
 30
0.0
 10
383.2861328125
 20
275.107421875
 30
0.0
 10
383.5517578125
 20
274.796875
 30
0.0
 10
383.7353515625
 20
274.4345703125
 30
0.0
 10
383.9189453125
 20
274.072265625
 30
0.0
 10
384.0107421875
 20
273.6240234375
 30
0.0
 10
384.0107421875
 20
273.091796875
 30
0.0
 10
384.0107421875
 20
272.9716796875
 30
0.0
 10
384.00390625
 20
272.84375
 30
0.0
 10
383.990234375
 20
272.708984375
 30
0.0
 10
383.9765625
 20
272.5732421875
 30
0.0
 10
383.9521484375
 20
272.447265625
 30
0.0
 10
383.916015625
 20
272.330078125
 30
0.0
 10
383.916015625
 20
272.330078125
 30
0.0
 10
383.0546875
 20
272.330078125
 30
0.0
 10
383.0546875
 20
272.330078125
 30
0.0
 10
383.0546875
 20
272.330078125
 30
0.0
 10
383.0546875
 20
272.375
 30
0.0
 10
383.0546875
 20
272.375
 30
0.0
 10
383.0966796875
 20
272.4501953125
 30
0.0
 10
383.13671875
 20
272.5673828125
 30
0.0
 10
383.17578125
 20
272.7265625
 30
0.0
 10
383.21484375
 20
272.8857421875
 30
0.0
 10
383.234375
 20
273.048828125
 30
0.0
 10
383.234375
 20
273.2138671875
 30
0.0
 10
383.234375
 20
273.8037109375
 30
0.0
 10
383.041015625
 20
274.2666015625
 30
0.0
 10
382.65234375
 20
274.603515625
 30
0.0
 10
382.2646484375
 20
274.9404296875
 30
0.0
 10
381.7099609375
 20
275.1318359375
 30
0.0
 10
380.98828125
 20
275.1767578125
 30
0.0
 10
381.150390625
 20
274.935546875
 30
0.0
 10
381.26953125
 20
274.7060546875
 30
0.0
 10
381.3447265625
 20
274.48828125
 30
0.0
 10
381.419921875
 20
274.2705078125
 30
0.0
 10
381.45703125
 20
274.033203125
 30
0.0
 10
381.45703125
 20
273.7783203125
 30
0.0
 10
381.45703125
 20
273.5283203125
 30
0.0
 10
381.4296875
 20
273.30078125
 30
0.0
 10
381.3759765625
 20
273.0966796875
 30
0.0
 10
381.3212890625
 20
272.8916015625
 30
0.0
 10
381.216796875
 20
272.685546875
 30
0.0
 10
381.0595703125
 20
272.478515625
 30
0.0
 10
380.876953125
 20
272.23828125
 30
0.0
 10
380.64453125
 20
272.0556640625
 30
0.0
 10
380.36328125
 20
271.9326171875
 30
0.0
 10
380.08203125
 20
271.8095703125
 30
0.0
 10
379.7421875
 20
271.748046875
 30
0.0
 10
379.345703125
 20
271.748046875
 30
0.0
  0
HATCH
  5
6DC
330
6D4
100
AcDbEntity
  8
Layer 1
 62
     7
100
AcDbHatch
 10
0.0
 20
0.0
 30
0.0
210
0.0
220
0.0
230
1.0
  2
SOLID
 70
     1
 71
     1
 91
        2
 92
        1
 93
        1
 72
     4
 94
        3
 73
     0
 74
     0
 95
       47
 96
       43
 40
0.0
 40
0.0
 40
0.0
 40
0.0
 40
1.0
 40
1.0
 40
1.0
 40
2.0
 40
2.0
 40
2.0
 40
3.0
 40
3.0
 40
3.0
 40
4.0
 40
4.0
 40
4.0
 40
5.0
 40
5.0
 40
5.0
 40
6.0
 40
6.0
 40
6.0
 40
7.0
 40
7.0
 40
7.0
 40
8.0
 40
8.0
 40
8.0
 40
9.0
 40
9.0
 40
9.0
 40
10.0
 40
10.0
 40
10.0
 40
11.0
 40
11.0
 40
11.0
 40
12.0
 40
12.0
 40
12.0
 40
13.0
 40
13.0
 40
13.0
 40
14.0
 40
14.0
 40
14.0
 40
14.0
 10
379.9228515625
 20
275.19921875
 10
379.4658203125
 20
275.19921875
 10
379.09375
 20
275.1572265625
 10
378.806640625
 20
275.072265625
 10
378.51953125
 20
274.98828125
 10
378.2978515625
 20
274.873046875
 10
378.140625
 20
274.7255859375
 10
377.9970703125
 20
274.5927734375
 10
377.8974609375
 20
274.458984375
 10
377.8427734375
 20
274.32421875
 10
377.7890625
 20
274.1884765625
 10
377.76171875
 20
274.0390625
 10
377.76171875
 20
273.876953125
 10
377.76171875
 20
273.5068359375
 10
377.89453125
 20
273.2119140625
 10
378.1591796875
 20
272.9931640625
 10
378.423828125
 20
272.7734375
 10
378.8076171875
 20
272.6630859375
 10
379.3095703125
 20
272.6630859375
 10
379.591796875
 20
272.6630859375
 10
379.8251953125
 20
272.69921875
 10
380.0087890625
 20
272.771484375
 10
380.1923828125
 20
272.84375
 10
380.3505859375
 20
272.9609375
 10
380.482421875
 20
273.1240234375
 10
380.576171875
 20
273.23828125
 10
380.638671875
 20
273.3671875
 10
380.669921875
 20
273.51171875
 10
380.701171875
 20
273.65625
 10
380.716796875
 20
273.810546875
 10
380.716796875
 20
273.9765625
 10
380.716796875
 20
274.1689453125
 10
380.68359375
 20
274.3759765625
 10
380.615234375
 20
274.5986328125
 10
380.5478515625
 20
274.8212890625
 10
380.458984375
 20
275.015625
 10
380.34765625
 20
275.1806640625
 10
380.3017578125
 20
275.18359375
 10
380.2431640625
 20
275.1875
 10
380.1689453125
 20
275.1923828125
 10
380.095703125
 20
275.197265625
 10
380.013671875
 20
275.19921875
 10
379.9228515625
 20
275.19921875
 97
        0
 97
        1
330
6DA
 92
        1
 93
        1
 72
     4
 94
        3
 73
     0
 74
     0
 95
       83
 96
       79
 40
0.0
 40
0.0
 40
0.0
 40
0.0
 40
1.0
 40
1.0
 40
1.0
 40
2.0
 40
2.0
 40
2.0
 40
3.0
 40
3.0
 40
3.0
 40
4.0
 40
4.0
 40
4.0
 40
5.0
 40
5.0
 40
5.0
 40
6.0
 40
6.0
 40
6.0
 40
7.0
 40
7.0
 40
7.0
 40
8.0
 40
8.0
 40
8.0
 40
9.0
 40
9.0
 40
9.0
 40
10.0
 40
10.0
 40
10.0
 40
11.0
 40
11.0
 40
11.0
 40
12.0
 40
12.0
 40
12.0
 40
13.0
 40
13.0
 40
13.0
 40
14.0
 40
14.0
 40
14.0
 40
15.0
 40
15.0
 40
15.0
 40
16.0
 40
16.0
 40
16.0
 40
17.0
 40
17.0
 40
17.0
 40
18.0
 40
18.0
 40
18.0
 40
19.0
 40
19.0
 40
19.0
 40
20.0
 40
20.0
 40
20.0
 40
21.0
 40
21.0
 40
21.0
 40
22.0
 40
22.0
 40
22.0
 40
23.0
 40
23.0
 40
23.0
 40
24.0
 40
24.0
 40
24.0
 40
25.0
 40
25.0
 40
25.0
 40
26.0
 40
26.0
 40
26.0
 40
26.0
 10
379.345703125
 20
271.748046875
 10
379.0
 20
271.748046875
 10
378.68359375
 20
271.8037109375
 10
378.3984375
 20
271.9169921875
 10
378.1123046875
 20
272.029296875
 10
377.8662109375
 20
272.18359375
 10
377.658203125
 20
272.37890625
 10
377.4599609375
 20
272.5654296875
 10
377.3046875
 20
272.7939453125
 10
377.193359375
 20
273.0625
 10
377.08203125
 20
273.33203125
 10
377.0263671875
 20
273.6044921875
 10
377.0263671875
 20
273.8818359375
 10
377.0263671875
 20
274.19140625
 10
377.078125
 20
274.4716796875
 10
377.1826171875
 20
274.72265625
 10
377.2861328125
 20
274.974609375
 10
377.435546875
 20
275.19140625
 10
377.630859375
 20
275.375
 10
377.8779296875
 20
275.6064453125
 10
378.201171875
 20
275.7861328125
 10
378.6015625
 20
275.9140625
 10
379.0009765625
 20
276.0419921875
 10
379.5068359375
 20
276.10546875
 10
380.1171875
 20
276.10546875
 10
380.673828125
 20
276.10546875
 10
381.201171875
 20
276.0439453125
 10
381.6982421875
 20
275.9189453125
 10
382.1962890625
 20
275.7939453125
 10
382.609375
 20
275.609375
 10
382.9365234375
 20
275.3662109375
 10
383.2861328125
 20
275.107421875
 10
383.5517578125
 20
274.796875
 10
383.7353515625
 20
274.4345703125
 10
383.9189453125
 20
274.072265625
 10
384.0107421875
 20
273.6240234375
 10
384.0107421875
 20
273.091796875
 10
384.0107421875
 20
272.9716796875
 10
384.00390625
 20
272.84375
 10
383.990234375
 20
272.708984375
 10
383.9765625
 20
272.5732421875
 10
383.9521484375
 20
272.447265625
 10
383.916015625
 20
272.330078125
 10
383.916015625
 20
272.330078125
 10
383.0546875
 20
272.330078125
 10
383.0546875
 20
272.330078125
 10
383.0546875
 20
272.330078125
 10
383.0546875
 20
272.375
 10
383.0546875
 20
272.375
 10
383.0966796875
 20
272.4501953125
 10
383.13671875
 20
272.5673828125
 10
383.17578125
 20
272.7265625
 10
383.21484375
 20
272.8857421875
 10
383.234375
 20
273.048828125
 10
383.234375
 20
273.2138671875
 10
383.234375
 20
273.8037109375
 10
383.041015625
 20
274.2666015625
 10
382.65234375
 20
274.603515625
 10
382.2646484375
 20
274.9404296875
 10
381.7099609375
 20
275.1318359375
 10
380.98828125
 20
275.1767578125
 10
381.150390625
 20
274.935546875
 10
381.26953125
 20
274.7060546875
 10
381.3447265625
 20
274.48828125
 10
381.419921875
 20
274.2705078125
 10
381.45703125
 20
274.033203125
 10
381.45703125
 20
273.7783203125
 10
381.45703125
 20
273.5283203125
 10
381.4296875
 20
273.30078125
 10
381.3759765625
 20
273.0966796875
 10
381.3212890625
 20
272.8916015625
 10
381.216796875
 20
272.685546875
 10
381.0595703125
 20
272.478515625
 10
380.876953125
 20
272.23828125
 10
380.64453125
 20
272.0556640625
 10
380.36328125
 20
271.9326171875
 10
380.08203125
 20
271.8095703125
 10
379.7421875
 20
271.748046875
 10
379.345703125
 20
271.748046875
 97
        0
 97
        1
330
6DB
 75
     2
 76
     1
 98
        1
 10
0.0
 20
0.0
450
        0
451
        0
460
0.0
461
0.0
452
        0
462
0.0
453
        0
470

  0
ENDBLK
  5
6DD
330
6D4
100
AcDbEntity
  8
0
100
AcDbBlockEnd
  0
BLOCK
  5
6DF
330
6DE
100
AcDbEntity
  8
0
100
AcDbBlockBegin
  2
Block_6
 70
     0
 10
0.0
 20
0.0
 30
0.0
  3
Block_6
  1

  0
SPLINE
  5
6E0
330
6DE
100
AcDbEntity
  8
Layer 1
100
AcDbSpline
210
0.0
220
0.0
230
1.0
 70
     9
 71
     3
 72
    38
 73
    34
 74
     0
 42
0.000000001
 43
0.0000000001
 40
0.0
 40
0.0
 40
0.0
 40
0.0
 40
1.0
 40
1.0
 40
1.0
 40
2.0
 40
2.0
 40
2.0
 40
3.0
 40
3.0
 40
3.0
 40
4.0
 40
4.0
 40
4.0
 40
5.0
 40
5.0
 40
5.0
 40
6.0
 40
6.0
 40
6.0
 40
7.0
 40
7.0
 40
7.0
 40
8.0
 40
8.0
 40
8.0
 40
9.0
 40
9.0
 40
9.0
 40
10.0
 40
10.0
 40
10.0
 40
11.0
 40
11.0
 40
11.0
 40
11.0
 10
347.9052734375
 20
397.7255859375
 30
0.0
 10
347.728515625
 20
397.8095703125
 30
0.0
 10
347.5576171875
 20
397.8525390625
 30
0.0
 10
347.3896484375
 20
397.85546875
 30
0.0
 10
347.2236328125
 20
397.857421875
 30
0.0
 10
347.0654296875
 20
397.814453125
 30
0.0
 10
346.9169921875
 20
397.724609375
 30
0.0
 10
346.7861328125
 20
397.6455078125
 30
0.0
 10
346.669921875
 20
397.5380859375
 30
0.0
 10
346.56640625
 20
397.400390625
 30
0.0
 10
346.462890625
 20
397.263671875
 30
0.0
 10
346.357421875
 20
397.0810546875
 30
0.0
 10
346.2509765625
 20
396.8564453125
 30
0.0
 10
346.2509765625
 20
396.8564453125
 30
0.0
 10
345.873046875
 20
396.056640625
 30
0.0
 10
345.873046875
 20
396.056640625
 30
0.0
 10
345.873046875
 20
396.056640625
 30
0.0
 10
348.166015625
 20
394.97265625
 30
0.0
 10
348.166015625
 20
394.97265625
 30
0.0
 10
348.166015625
 20
394.97265625
 30
0.0
 10
348.501953125
 20
395.6826171875
 30
0.0
 10
348.501953125
 20
395.6826171875
 30
0.0
 10
348.611328125
 20
395.9140625
 30
0.0
 10
348.6884765625
 20
396.1318359375
 30
0.0
 10
348.7353515625
 20
396.3359375
 30
0.0
 10
348.78125
 20
396.5390625
 30
0.0
 10
348.7724609375
 20
396.7373046875
 30
0.0
 10
348.7060546875
 20
396.9287109375
 30
0.0
 10
348.6474609375
 20
397.0986328125
 30
0.0
 10
348.5517578125
 20
397.25
 30
0.0
 10
348.4208984375
 20
397.3798828125
 30
0.0
 10
348.2890625
 20
397.509765625
 30
0.0
 10
348.1171875
 20
397.6259765625
 30
0.0
 10
347.9052734375
 20
397.7255859375
 30
0.0
  0
SPLINE
  5
6E1
330
6DE
100
AcDbEntity
  8
Layer 1
100
AcDbSpline
210
0.0
220
0.0
230
1.0
 70
    11
 71
     3
 72
    47
 73
    43
 74
     0
 42
0.000000001
 43
0.0000000001
 40
0.0
 40
0.0
 40
0.0
 40
0.0
 40
1.0
 40
1.0
 40
1.0
 40
2.0
 40
2.0
 40
2.0
 40
3.0
 40
3.0
 40
3.0
 40
4.0
 40
4.0
 40
4.0
 40
5.0
 40
5.0
 40
5.0
 40
6.0
 40
6.0
 40
6.0
 40
7.0
 40
7.0
 40
7.0
 40
8.0
 40
8.0
 40
8.0
 40
9.0
 40
9.0
 40
9.0
 40
10.0
 40
10.0
 40
10.0
 40
11.0
 40
11.0
 40
11.0
 40
12.0
 40
12.0
 40
12.0
 40
13.0
 40
13.0
 40
13.0
 40
14.0
 40
14.0
 40
14.0
 40
14.0
 10
353.0947265625
 20
397.408203125
 30
0.0
 10
353.0947265625
 20
397.408203125
 30
0.0
 10
352.599609375
 20
396.3603515625
 30
0.0
 10
352.599609375
 20
396.3603515625
 30
0.0
 10
352.599609375
 20
396.3603515625
 30
0.0
 10
349.2744140625
 20
395.576171875
 30
0.0
 10
349.2744140625
 20
395.576171875
 30
0.0
 10
349.2744140625
 20
395.576171875
 30
0.0
 10
348.8388671875
 20
394.654296875
 30
0.0
 10
348.8388671875
 20
394.654296875
 30
0.0
 10
348.8388671875
 20
394.654296875
 30
0.0
 10
351.25390625
 20
393.5126953125
 30
0.0
 10
351.25390625
 20
393.5126953125
 30
0.0
 10
351.25390625
 20
393.5126953125
 30
0.0
 10
350.8720703125
 20
392.7060546875
 30
0.0
 10
350.8720703125
 20
392.7060546875
 30
0.0
 10
350.8720703125
 20
392.7060546875
 30
0.0
 10
344.7978515625
 20
395.5771484375
 30
0.0
 10
344.7978515625
 20
395.5771484375
 30
0.0
 10
344.7978515625
 20
395.5771484375
 30
0.0
 10
345.5390625
 20
397.1435546875
 30
0.0
 10
345.5390625
 20
397.1435546875
 30
0.0
 10
345.703125
 20
397.4912109375
 30
0.0
 10
345.859375
 20
397.7734375
 30
0.0
 10
346.009765625
 20
397.9912109375
 30
0.0
 10
346.1591796875
 20
398.2080078125
 30
0.0
 10
346.3525390625
 20
398.3896484375
 30
0.0
 10
346.591796875
 20
398.537109375
 30
0.0
 10
346.828125
 20
398.6845703125
 30
0.0
 10
347.0830078125
 20
398.76953125
 30
0.0
 10
347.3564453125
 20
398.791015625
 30
0.0
 10
347.62890625
 20
398.8134765625
 30
0.0
 10
347.9248046875
 20
398.75
 30
0.0
 10
348.2421875
 20
398.599609375
 30
0.0
 10
348.689453125
 20
398.388671875
 30
0.0
 10
349.0087890625
 20
398.099609375
 30
0.0
 10
349.201171875
 20
397.732421875
 30
0.0
 10
349.3935546875
 20
397.365234375
 30
0.0
 10
349.4697265625
 20
396.953125
 30
0.0
 10
349.4296875
 20
396.49609375
 30
0.0
 10
349.4296875
 20
396.49609375
 30
0.0
 10
353.0947265625
 20
397.408203125
 30
0.0
 10
353.0947265625
 20
397.408203125
 30
0.0
  0
HATCH
  5
6E2
330
6DE
100
AcDbEntity
  8
Layer 1
 62
     7
100
AcDbHatch
 10
0.0
 20
0.0
 30
0.0
210
0.0
220
0.0
230
1.0
  2
SOLID
 70
     1
 71
     1
 91
        2
 92
        1
 93
        1
 72
     4
 94
        3
 73
     0
 74
     0
 95
       38
 96
       34
 40
0.0
 40
0.0
 40
0.0
 40
0.0
 40
1.0
 40
1.0
 40
1.0
 40
2.0
 40
2.0
 40
2.0
 40
3.0
 40
3.0
 40
3.0
 40
4.0
 40
4.0
 40
4.0
 40
5.0
 40
5.0
 40
5.0
 40
6.0
 40
6.0
 40
6.0
 40
7.0
 40
7.0
 40
7.0
 40
8.0
 40
8.0
 40
8.0
 40
9.0
 40
9.0
 40
9.0
 40
10.0
 40
10.0
 40
10.0
 40
11.0
 40
11.0
 40
11.0
 40
11.0
 10
347.9052734375
 20
397.7255859375
 10
347.728515625
 20
397.8095703125
 10
347.5576171875
 20
397.8525390625
 10
347.3896484375
 20
397.85546875
 10
347.2236328125
 20
397.857421875
 10
347.0654296875
 20
397.814453125
 10
346.9169921875
 20
397.724609375
 10
346.7861328125
 20
397.6455078125
 10
346.669921875
 20
397.5380859375
 10
346.56640625
 20
397.400390625
 10
346.462890625
 20
397.263671875
 10
346.357421875
 20
397.0810546875
 10
346.2509765625
 20
396.8564453125
 10
346.2509765625
 20
396.8564453125
 10
345.873046875
 20
396.056640625
 10
345.873046875
 20
396.056640625
 10
345.873046875
 20
396.056640625
 10
348.166015625
 20
394.97265625
 10
348.166015625
 20
394.97265625
 10
348.166015625
 20
394.97265625
 10
348.501953125
 20
395.6826171875
 10
348.501953125
 20
395.6826171875
 10
348.611328125
 20
395.9140625
 10
348.6884765625
 20
396.1318359375
 10
348.7353515625
 20
396.3359375
 10
348.78125
 20
396.5390625
 10
348.7724609375
 20
396.7373046875
 10
348.7060546875
 20
396.9287109375
 10
348.6474609375
 20
397.0986328125
 10
348.5517578125
 20
397.25
 10
348.4208984375
 20
397.3798828125
 10
348.2890625
 20
397.509765625
 10
348.1171875
 20
397.6259765625
 10
347.9052734375
 20
397.7255859375
 97
        0
 97
        1
330
6E0
 92
        1
 93
        1
 72
     4
 94
        3
 73
     0
 74
     0
 95
       47
 96
       43
 40
0.0
 40
0.0
 40
0.0
 40
0.0
 40
1.0
 40
1.0
 40
1.0
 40
2.0
 40
2.0
 40
2.0
 40
3.0
 40
3.0
 40
3.0
 40
4.0
 40
4.0
 40
4.0
 40
5.0
 40
5.0
 40
5.0
 40
6.0
 40
6.0
 40
6.0
 40
7.0
 40
7.0
 40
7.0
 40
8.0
 40
8.0
 40
8.0
 40
9.0
 40
9.0
 40
9.0
 40
10.0
 40
10.0
 40
10.0
 40
11.0
 40
11.0
 40
11.0
 40
12.0
 40
12.0
 40
12.0
 40
13.0
 40
13.0
 40
13.0
 40
14.0
 40
14.0
 40
14.0
 40
14.0
 10
353.0947265625
 20
397.408203125
 10
353.0947265625
 20
397.408203125
 10
352.599609375
 20
396.3603515625
 10
352.599609375
 20
396.3603515625
 10
352.599609375
 20
396.3603515625
 10
349.2744140625
 20
395.576171875
 10
349.2744140625
 20
395.576171875
 10
349.2744140625
 20
395.576171875
 10
348.8388671875
 20
394.654296875
 10
348.8388671875
 20
394.654296875
 10
348.8388671875
 20
394.654296875
 10
351.25390625
 20
393.5126953125
 10
351.25390625
 20
393.5126953125
 10
351.25390625
 20
393.5126953125
 10
350.8720703125
 20
392.7060546875
 10
350.8720703125
 20
392.7060546875
 10
350.8720703125
 20
392.7060546875
 10
344.7978515625
 20
395.5771484375
 10
344.7978515625
 20
395.5771484375
 10
344.7978515625
 20
395.5771484375
 10
345.5390625
 20
397.1435546875
 10
345.5390625
 20
397.1435546875
 10
345.703125
 20
397.4912109375
 10
345.859375
 20
397.7734375
 10
346.009765625
 20
397.9912109375
 10
346.1591796875
 20
398.2080078125
 10
346.3525390625
 20
398.3896484375
 10
346.591796875
 20
398.537109375
 10
346.828125
 20
398.6845703125
 10
347.0830078125
 20
398.76953125
 10
347.3564453125
 20
398.791015625
 10
347.62890625
 20
398.8134765625
 10
347.9248046875
 20
398.75
 10
348.2421875
 20
398.599609375
 10
348.689453125
 20
398.388671875
 10
349.0087890625
 20
398.099609375
 10
349.201171875
 20
397.732421875
 10
349.3935546875
 20
397.365234375
 10
349.4697265625
 20
396.953125
 10
349.4296875
 20
396.49609375
 10
349.4296875
 20
396.49609375
 10
353.0947265625
 20
397.408203125
 10
353.0947265625
 20
397.408203125
 97
        0
 97
        1
330
6E1
 75
     2
 76
     1
 98
        1
 10
0.0
 20
0.0
450
        0
451
        0
460
0.0
461
0.0
452
        0
462
0.0
453
        0
470

  0
ENDBLK
  5
6E3
330
6DE
100
AcDbEntity
  8
0
100
AcDbBlockEnd
  0
BLOCK
  5
6E5
330
6E4
100
AcDbEntity
  8
0
100
AcDbBlockBegin
  2
Block_7
 70
     0
 10
0.0
 20
0.0
 30
0.0
  3
Block_7
  1

  0
SPLINE
  5
6E6
330
6E4
100
AcDbEntity
  8
Layer 1
100
AcDbSpline
210
0.0
220
0.0
230
1.0
 70
    11
 71
     3
 72
    41
 73
    37
 74
     0
 42
0.000000001
 43
0.0000000001
 40
0.0
 40
0.0
 40
0.0
 40
0.0
 40
1.0
 40
1.0
 40
1.0
 40
2.0
 40
2.0
 40
2.0
 40
3.0
 40
3.0
 40
3.0
 40
4.0
 40
4.0
 40
4.0
 40
5.0
 40
5.0
 40
5.0
 40
6.0
 40
6.0
 40
6.0
 40
7.0
 40
7.0
 40
7.0
 40
8.0
 40
8.0
 40
8.0
 40
9.0
 40
9.0
 40
9.0
 40
10.0
 40
10.0
 40
10.0
 40
11.0
 40
11.0
 40
11.0
 40
12.0
 40
12.0
 40
12.0
 40
12.0
 10
354.875
 20
401.1914062499999
 30
0.0
 10
354.875
 20
401.1914062499999
 30
0.0
 10
353.4765625
 20
398.23046875
 30
0.0
 10
353.4765625
 20
398.23046875
 30
0.0
 10
353.4765625
 20
398.23046875
 30
0.0
 10
352.857421875
 20
398.5234375
 30
0.0
 10
352.857421875
 20
398.5234375
 30
0.0
 10
352.857421875
 20
398.5234375
 30
0.0
 10
353.376953125
 20
399.625
 30
0.0
 10
353.376953125
 20
399.625
 30
0.0
 10
353.376953125
 20
399.625
 30
0.0
 10
349.306640625
 20
401.5498046874999
 30
0.0
 10
349.306640625
 20
401.5498046874999
 30
0.0
 10
349.306640625
 20
401.5498046874999
 30
0.0
 10
348.78515625
 20
400.4482421875
 30
0.0
 10
348.78515625
 20
400.4482421875
 30
0.0
 10
348.78515625
 20
400.4482421875
 30
0.0
 10
348.23046875
 20
400.7109374999999
 30
0.0
 10
348.23046875
 20
400.7109374999999
 30
0.0
 10
348.427734375
 20
401.1269531249999
 30
0.0
 10
348.513671875
 20
401.4619140625
 30
0.0
 10
348.48828125
 20
401.71484375
 30
0.0
 10
348.462890625
 20
401.966796875
 30
0.0
 10
348.291015625
 20
402.1845703124999
 30
0.0
 10
347.974609375
 20
402.3632812499999
 30
0.0
 10
347.974609375
 20
402.3632812499999
 30
0.0
 10
348.2734375
 20
402.99609375
 30
0.0
 10
348.2734375
 20
402.99609375
 30
0.0
 10
348.2734375
 20
402.99609375
 30
0.0
 10
353.748046875
 20
400.408203125
 30
0.0
 10
353.748046875
 20
400.408203125
 30
0.0
 10
353.748046875
 20
400.408203125
 30
0.0
 10
354.255859375
 20
401.4843749999999
 30
0.0
 10
354.255859375
 20
401.4843749999999
 30
0.0
 10
354.255859375
 20
401.4843749999999
 30
0.0
 10
354.875
 20
401.1914062499999
 30
0.0
 10
354.875
 20
401.1914062499999
 30
0.0
  0
HATCH
  5
6E7
330
6E4
100
AcDbEntity
  8
Layer 1
 62
     7
100
AcDbHatch
 10
0.0
 20
0.0
 30
0.0
210
0.0
220
0.0
230
1.0
  2
SOLID
 70
     1
 71
     1
 91
        1
 92
        1
 93
        1
 72
     4
 94
        3
 73
     0
 74
     0
 95
       41
 96
       37
 40
0.0
 40
0.0
 40
0.0
 40
0.0
 40
1.0
 40
1.0
 40
1.0
 40
2.0
 40
2.0
 40
2.0
 40
3.0
 40
3.0
 40
3.0
 40
4.0
 40
4.0
 40
4.0
 40
5.0
 40
5.0
 40
5.0
 40
6.0
 40
6.0
 40
6.0
 40
7.0
 40
7.0
 40
7.0
 40
8.0
 40
8.0
 40
8.0
 40
9.0
 40
9.0
 40
9.0
 40
10.0
 40
10.0
 40
10.0
 40
11.0
 40
11.0
 40
11.0
 40
12.0
 40
12.0
 40
12.0
 40
12.0
 10
354.875
 20
401.1914062499999
 10
354.875
 20
401.1914062499999
 10
353.4765625
 20
398.23046875
 10
353.4765625
 20
398.23046875
 10
353.4765625
 20
398.23046875
 10
352.857421875
 20
398.5234375
 10
352.857421875
 20
398.5234375
 10
352.857421875
 20
398.5234375
 10
353.376953125
 20
399.625
 10
353.376953125
 20
399.625
 10
353.376953125
 20
399.625
 10
349.306640625
 20
401.5498046874999
 10
349.306640625
 20
401.5498046874999
 10
349.306640625
 20
401.5498046874999
 10
348.78515625
 20
400.4482421875
 10
348.78515625
 20
400.4482421875
 10
348.78515625
 20
400.4482421875
 10
348.23046875
 20
400.7109374999999
 10
348.23046875
 20
400.7109374999999
 10
348.427734375
 20
401.1269531249999
 10
348.513671875
 20
401.4619140625
 10
348.48828125
 20
401.71484375
 10
348.462890625
 20
401.966796875
 10
348.291015625
 20
402.1845703124999
 10
347.974609375
 20
402.3632812499999
 10
347.974609375
 20
402.3632812499999
 10
348.2734375
 20
402.99609375
 10
348.2734375
 20
402.99609375
 10
348.2734375
 20
402.99609375
 10
353.748046875
 20
400.408203125
 10
353.748046875
 20
400.408203125
 10
353.748046875
 20
400.408203125
 10
354.255859375
 20
401.4843749999999
 10
354.255859375
 20
401.4843749999999
 10
354.255859375
 20
401.4843749999999
 10
354.875
 20
401.1914062499999
 10
354.875
 20
401.1914062499999
 97
        0
 97
        1
330
6E6
 75
     2
 76
     1
 98
        1
 10
0.0
 20
0.0
450
        0
451
        0
460
0.0
461
0.0
452
        0
462
0.0
453
        0
470

  0
ENDBLK
  5
6E8
330
6E4
100
AcDbEntity
  8
0
100
AcDbBlockEnd
  0
BLOCK
  5
6EA
330
6E9
100
AcDbEntity
  8
0
100
AcDbBlockBegin
  2
Block_8
 70
     0
 10
0.0
 20
0.0
 30
0.0
  3
Block_8
  1

  0
SPLINE
  5
6EB
330
6E9
100
AcDbEntity
  8
Layer 1
100
AcDbSpline
210
0.0
220
0.0
230
1.0
 70
    11
 71
     3
 72
    41
 73
    37
 74
     0
 42
0.000000001
 43
0.0000000001
 40
0.0
 40
0.0
 40
0.0
 40
0.0
 40
1.0
 40
1.0
 40
1.0
 40
2.0
 40
2.0
 40
2.0
 40
3.0
 40
3.0
 40
3.0
 40
4.0
 40
4.0
 40
4.0
 40
5.0
 40
5.0
 40
5.0
 40
6.0
 40
6.0
 40
6.0
 40
7.0
 40
7.0
 40
7.0
 40
8.0
 40
8.0
 40
8.0
 40
9.0
 40
9.0
 40
9.0
 40
10.0
 40
10.0
 40
10.0
 40
11.0
 40
11.0
 40
11.0
 40
12.0
 40
12.0
 40
12.0
 40
12.0
 10
357.0361328125
 20
405.7529296874999
 30
0.0
 10
357.0361328125
 20
405.7529296874999
 30
0.0
 10
355.6357421875
 20
402.7919921875
 30
0.0
 10
355.6357421875
 20
402.7919921875
 30
0.0
 10
355.6357421875
 20
402.7919921875
 30
0.0
 10
355.0166015625
 20
403.0849609375
 30
0.0
 10
355.0166015625
 20
403.0849609375
 30
0.0
 10
355.0166015625
 20
403.0849609375
 30
0.0
 10
355.537109375
 20
404.1855468749999
 30
0.0
 10
355.537109375
 20
404.1855468749999
 30
0.0
 10
355.537109375
 20
404.1855468749999
 30
0.0
 10
351.4658203125
 20
406.1103515624999
 30
0.0
 10
351.4658203125
 20
406.1103515624999
 30
0.0
 10
351.4658203125
 20
406.1103515624999
 30
0.0
 10
350.9453125
 20
405.009765625
 30
0.0
 10
350.9453125
 20
405.009765625
 30
0.0
 10
350.9453125
 20
405.009765625
 30
0.0
 10
350.390625
 20
405.271484375
 30
0.0
 10
350.390625
 20
405.271484375
 30
0.0
 10
350.587890625
 20
405.6874999999999
 30
0.0
 10
350.673828125
 20
406.0224609375
 30
0.0
 10
350.6484375
 20
406.275390625
 30
0.0
 10
350.623046875
 20
406.5283203125
 30
0.0
 10
350.451171875
 20
406.7460937499999
 30
0.0
 10
350.1337890625
 20
406.9248046874999
 30
0.0
 10
350.1337890625
 20
406.9248046874999
 30
0.0
 10
350.43359375
 20
407.5576171875
 30
0.0
 10
350.43359375
 20
407.5576171875
 30
0.0
 10
350.43359375
 20
407.5576171875
 30
0.0
 10
355.9072265625
 20
404.9697265625
 30
0.0
 10
355.9072265625
 20
404.9697265625
 30
0.0
 10
355.9072265625
 20
404.9697265625
 30
0.0
 10
356.416015625
 20
406.0458984374999
 30
0.0
 10
356.416015625
 20
406.0458984374999
 30
0.0
 10
356.416015625
 20
406.0458984374999
 30
0.0
 10
357.0361328125
 20
405.7529296874999
 30
0.0
 10
357.0361328125
 20
405.7529296874999
 30
0.0
  0
HATCH
  5
6EC
330
6E9
100
AcDbEntity
  8
Layer 1
 62
     7
100
AcDbHatch
 10
0.0
 20
0.0
 30
0.0
210
0.0
220
0.0
230
1.0
  2
SOLID
 70
     1
 71
     1
 91
        1
 92
        1
 93
        1
 72
     4
 94
        3
 73
     0
 74
     0
 95
       41
 96
       37
 40
0.0
 40
0.0
 40
0.0
 40
0.0
 40
1.0
 40
1.0
 40
1.0
 40
2.0
 40
2.0
 40
2.0
 40
3.0
 40
3.0
 40
3.0
 40
4.0
 40
4.0
 40
4.0
 40
5.0
 40
5.0
 40
5.0
 40
6.0
 40
6.0
 40
6.0
 40
7.0
 40
7.0
 40
7.0
 40
8.0
 40
8.0
 40
8.0
 40
9.0
 40
9.0
 40
9.0
 40
10.0
 40
10.0
 40
10.0
 40
11.0
 40
11.0
 40
11.0
 40
12.0
 40
12.0
 40
12.0
 40
12.0
 10
357.0361328125
 20
405.7529296874999
 10
357.0361328125
 20
405.7529296874999
 10
355.6357421875
 20
402.7919921875
 10
355.6357421875
 20
402.7919921875
 10
355.6357421875
 20
402.7919921875
 10
355.0166015625
 20
403.0849609375
 10
355.0166015625
 20
403.0849609375
 10
355.0166015625
 20
403.0849609375
 10
355.537109375
 20
404.1855468749999
 10
355.537109375
 20
404.1855468749999
 10
355.537109375
 20
404.1855468749999
 10
351.4658203125
 20
406.1103515624999
 10
351.4658203125
 20
406.1103515624999
 10
351.4658203125
 20
406.1103515624999
 10
350.9453125
 20
405.009765625
 10
350.9453125
 20
405.009765625
 10
350.9453125
 20
405.009765625
 10
350.390625
 20
405.271484375
 10
350.390625
 20
405.271484375
 10
350.587890625
 20
405.6874999999999
 10
350.673828125
 20
406.0224609375
 10
350.6484375
 20
406.275390625
 10
350.623046875
 20
406.5283203125
 10
350.451171875
 20
406.7460937499999
 10
350.1337890625
 20
406.9248046874999
 10
350.1337890625
 20
406.9248046874999
 10
350.43359375
 20
407.5576171875
 10
350.43359375
 20
407.5576171875
 10
350.43359375
 20
407.5576171875
 10
355.9072265625
 20
404.9697265625
 10
355.9072265625
 20
404.9697265625
 10
355.9072265625
 20
404.9697265625
 10
356.416015625
 20
406.0458984374999
 10
356.416015625
 20
406.0458984374999
 10
356.416015625
 20
406.0458984374999
 10
357.0361328125
 20
405.7529296874999
 10
357.0361328125
 20
405.7529296874999
 97
        0
 97
        1
330
6EB
 75
     2
 76
     1
 98
        1
 10
0.0
 20
0.0
450
        0
451
        0
460
0.0
461
0.0
452
        0
462
0.0
453
        0
470

  0
ENDBLK
  5
6ED
330
6E9
100
AcDbEntity
  8
0
100
AcDbBlockEnd
  0
BLOCK
  5
6EF
330
6EE
100
AcDbEntity
  8
0
100
AcDbBlockBegin
  2
Block_9
 70
     0
 10
0.0
 20
0.0
 30
0.0
  3
Block_9
  1

  0
SPLINE
  5
6F0
330
6EE
100
AcDbEntity
  8
Layer 1
100
AcDbSpline
210
0.0
220
0.0
230
1.0
 70
     9
 71
     3
 72
    38
 73
    34
 74
     0
 42
0.000000001
 43
0.0000000001
 40
0.0
 40
0.0
 40
0.0
 40
0.0
 40
1.0
 40
1.0
 40
1.0
 40
2.0
 40
2.0
 40
2.0
 40
3.0
 40
3.0
 40
3.0
 40
4.0
 40
4.0
 40
4.0
 40
5.0
 40
5.0
 40
5.0
 40
6.0
 40
6.0
 40
6.0
 40
7.0
 40
7.0
 40
7.0
 40
8.0
 40
8.0
 40
8.0
 40
9.0
 40
9.0
 40
9.0
 40
10.0
 40
10.0
 40
10.0
 40
11.0
 40
11.0
 40
11.0
 40
11.0
 10
375.0673828125
 20
401.26171875
 30
0.0
 10
374.9365234375
 20
401.4072265624999
 30
0.0
 10
374.7939453125
 20
401.51171875
 30
0.0
 10
374.6416015625
 20
401.5781249999999
 30
0.0
 10
374.4892578125
 20
401.6464843749999
 30
0.0
 10
374.326171875
 20
401.666015625
 30
0.0
 10
374.154296875
 20
401.6416015625
 30
0.0
 10
374.0048828125
 20
401.6191406249999
 30
0.0
 10
373.8544921875
 20
401.5654296874999
 30
0.0
 10
373.70703125
 20
401.478515625
 30
0.0
 10
373.55859375
 20
401.3906249999999
 30
0.0
 10
373.3916015625
 20
401.263671875
 30
0.0
 10
373.2060546875
 20
401.0976562499999
 30
0.0
 10
373.2060546875
 20
401.0976562499999
 30
0.0
 10
372.548828125
 20
400.505859375
 30
0.0
 10
372.548828125
 20
400.505859375
 30
0.0
 10
372.548828125
 20
400.505859375
 30
0.0
 10
374.2451171875
 20
398.62109375
 30
0.0
 10
374.2451171875
 20
398.62109375
 30
0.0
 10
374.2451171875
 20
398.62109375
 30
0.0
 10
374.8291015625
 20
399.146484375
 30
0.0
 10
374.8291015625
 20
399.146484375
 30
0.0
 10
375.0185546875
 20
399.318359375
 30
0.0
 10
375.1748046875
 20
399.48828125
 30
0.0
 10
375.296875
 20
399.658203125
 30
0.0
 10
375.41796875
 20
399.828125
 30
0.0
 10
375.4853515625
 20
400.0156249999999
 30
0.0
 10
375.498046875
 20
400.216796875
 30
0.0
 10
375.509765625
 20
400.396484375
 30
0.0
 10
375.4794921875
 20
400.5722656249999
 30
0.0
 10
375.4091796875
 20
400.7441406249999
 30
0.0
 10
375.3388671875
 20
400.9140624999999
 30
0.0
 10
375.2236328125
 20
401.087890625
 30
0.0
 10
375.0673828125
 20
401.26171875
 30
0.0
  0
SPLINE
  5
6F1
330
6EE
100
AcDbEntity
  8
Layer 1
100
AcDbSpline
210
0.0
220
0.0
230
1.0
 70
    11
 71
     3
 72
    47
 73
    43
 74
     0
 42
0.000000001
 43
0.0000000001
 40
0.0
 40
0.0
 40
0.0
 40
0.0
 40
1.0
 40
1.0
 40
1.0
 40
2.0
 40
2.0
 40
2.0
 40
3.0
 40
3.0
 40
3.0
 40
4.0
 40
4.0
 40
4.0
 40
5.0
 40
5.0
 40
5.0
 40
6.0
 40
6.0
 40
6.0
 40
7.0
 40
7.0
 40
7.0
 40
8.0
 40
8.0
 40
8.0
 40
9.0
 40
9.0
 40
9.0
 40
10.0
 40
10.0
 40
10.0
 40
11.0
 40
11.0
 40
11.0
 40
12.0
 40
12.0
 40
12.0
 40
13.0
 40
13.0
 40
13.0
 40
14.0
 40
14.0
 40
14.0
 40
14.0
 10
379.7314453125
 20
398.966796875
 30
0.0
 10
379.7314453125
 20
398.966796875
 30
0.0
 10
378.8701171875
 20
398.19140625
 30
0.0
 10
378.8701171875
 20
398.19140625
 30
0.0
 10
378.8701171875
 20
398.19140625
 30
0.0
 10
375.5009765625
 20
398.75
 30
0.0
 10
375.5009765625
 20
398.75
 30
0.0
 10
375.5009765625
 20
398.75
 30
0.0
 10
374.7431640625
 20
398.068359375
 30
0.0
 10
374.7431640625
 20
398.068359375
 30
0.0
 10
374.7431640625
 20
398.068359375
 30
0.0
 10
376.5302734375
 20
396.083984375
 30
0.0
 10
376.5302734375
 20
396.083984375
 30
0.0
 10
376.5302734375
 20
396.083984375
 30
0.0
 10
375.8662109375
 20
395.486328125
 30
0.0
 10
375.8662109375
 20
395.486328125
 30
0.0
 10
375.8662109375
 20
395.486328125
 30
0.0
 10
371.3720703125
 20
400.4785156249999
 30
0.0
 10
371.3720703125
 20
400.4785156249999
 30
0.0
 10
371.3720703125
 20
400.4785156249999
 30
0.0
 10
372.6591796875
 20
401.63671875
 30
0.0
 10
372.6591796875
 20
401.63671875
 30
0.0
 10
372.9462890625
 20
401.8945312499999
 30
0.0
 10
373.19921875
 20
402.0947265624999
 30
0.0
 10
373.4208984375
 20
402.23828125
 30
0.0
 10
373.6416015625
 20
402.380859375
 30
0.0
 10
373.8916015625
 20
402.4736328124999
 30
0.0
 10
374.16796875
 20
402.5166015625
 30
0.0
 10
374.4423828125
 20
402.5615234375
 30
0.0
 10
374.7119140625
 20
402.5419921874999
 30
0.0
 10
374.9716796875
 20
402.4570312499999
 30
0.0
 10
375.2333984375
 20
402.3710937499999
 30
0.0
 10
375.48046875
 20
402.19921875
 30
0.0
 10
375.7158203125
 20
401.9365234374999
 30
0.0
 10
376.0458984375
 20
401.5703124999999
 30
0.0
 10
376.2294921875
 20
401.1796874999999
 30
0.0
 10
376.265625
 20
400.7675781249999
 30
0.0
 10
376.2998046875
 20
400.35546875
 30
0.0
 10
376.2119140625
 20
399.9453125
 30
0.0
 10
376.0
 20
399.5390625
 30
0.0
 10
376.0
 20
399.5390625
 30
0.0
 10
379.7314453125
 20
398.966796875
 30
0.0
 10
379.7314453125
 20
398.966796875
 30
0.0
  0
HATCH
  5
6F2
330
6EE
100
AcDbEntity
  8
Layer 1
 62
     7
100
AcDbHatch
 10
0.0
 20
0.0
 30
0.0
210
0.0
220
0.0
230
1.0
  2
SOLID
 70
     1
 71
     1
 91
        2
 92
        1
 93
        1
 72
     4
 94
        3
 73
     0
 74
     0
 95
       38
 96
       34
 40
0.0
 40
0.0
 40
0.0
 40
0.0
 40
1.0
 40
1.0
 40
1.0
 40
2.0
 40
2.0
 40
2.0
 40
3.0
 40
3.0
 40
3.0
 40
4.0
 40
4.0
 40
4.0
 40
5.0
 40
5.0
 40
5.0
 40
6.0
 40
6.0
 40
6.0
 40
7.0
 40
7.0
 40
7.0
 40
8.0
 40
8.0
 40
8.0
 40
9.0
 40
9.0
 40
9.0
 40
10.0
 40
10.0
 40
10.0
 40
11.0
 40
11.0
 40
11.0
 40
11.0
 10
375.0673828125
 20
401.26171875
 10
374.9365234375
 20
401.4072265624999
 10
374.7939453125
 20
401.51171875
 10
374.6416015625
 20
401.5781249999999
 10
374.4892578125
 20
401.6464843749999
 10
374.326171875
 20
401.666015625
 10
374.154296875
 20
401.6416015625
 10
374.0048828125
 20
401.6191406249999
 10
373.8544921875
 20
401.5654296874999
 10
373.70703125
 20
401.478515625
 10
373.55859375
 20
401.3906249999999
 10
373.3916015625
 20
401.263671875
 10
373.2060546875
 20
401.0976562499999
 10
373.2060546875
 20
401.0976562499999
 10
372.548828125
 20
400.505859375
 10
372.548828125
 20
400.505859375
 10
372.548828125
 20
400.505859375
 10
374.2451171875
 20
398.62109375
 10
374.2451171875
 20
398.62109375
 10
374.2451171875
 20
398.62109375
 10
374.8291015625
 20
399.146484375
 10
374.8291015625
 20
399.146484375
 10
375.0185546875
 20
399.318359375
 10
375.1748046875
 20
399.48828125
 10
375.296875
 20
399.658203125
 10
375.41796875
 20
399.828125
 10
375.4853515625
 20
400.0156249999999
 10
375.498046875
 20
400.216796875
 10
375.509765625
 20
400.396484375
 10
375.4794921875
 20
400.5722656249999
 10
375.4091796875
 20
400.7441406249999
 10
375.3388671875
 20
400.9140624999999
 10
375.2236328125
 20
401.087890625
 10
375.0673828125
 20
401.26171875
 97
        0
 97
        1
330
6F0
 92
        1
 93
        1
 72
     4
 94
        3
 73
     0
 74
     0
 95
       47
 96
       43
 40
0.0
 40
0.0
 40
0.0
 40
0.0
 40
1.0
 40
1.0
 40
1.0
 40
2.0
 40
2.0
 40
2.0
 40
3.0
 40
3.0
 40
3.0
 40
4.0
 40
4.0
 40
4.0
 40
5.0
 40
5.0
 40
5.0
 40
6.0
 40
6.0
 40
6.0
 40
7.0
 40
7.0
 40
7.0
 40
8.0
 40
8.0
 40
8.0
 40
9.0
 40
9.0
 40
9.0
 40
10.0
 40
10.0
 40
10.0
 40
11.0
 40
11.0
 40
11.0
 40
12.0
 40
12.0
 40
12.0
 40
13.0
 40
13.0
 40
13.0
 40
14.0
 40
14.0
 40
14.0
 40
14.0
 10
379.7314453125
 20
398.966796875
 10
379.7314453125
 20
398.966796875
 10
378.8701171875
 20
398.19140625
 10
378.8701171875
 20
398.19140625
 10
378.8701171875
 20
398.19140625
 10
375.5009765625
 20
398.75
 10
375.5009765625
 20
398.75
 10
375.5009765625
 20
398.75
 10
374.7431640625
 20
398.068359375
 10
374.7431640625
 20
398.068359375
 10
374.7431640625
 20
398.068359375
 10
376.5302734375
 20
396.083984375
 10
376.5302734375
 20
396.083984375
 10
376.5302734375
 20
396.083984375
 10
375.8662109375
 20
395.486328125
 10
375.8662109375
 20
395.486328125
 10
375.8662109375
 20
395.486328125
 10
371.3720703125
 20
400.4785156249999
 10
371.3720703125
 20
400.4785156249999
 10
371.3720703125
 20
400.4785156249999
 10
372.6591796875
 20
401.63671875
 10
372.6591796875
 20
401.63671875
 10
372.9462890625
 20
401.8945312499999
 10
373.19921875
 20
402.0947265624999
 10
373.4208984375
 20
402.23828125
 10
373.6416015625
 20
402.380859375
 10
373.8916015625
 20
402.4736328124999
 10
374.16796875
 20
402.5166015625
 10
374.4423828125
 20
402.5615234375
 10
374.7119140625
 20
402.5419921874999
 10
374.9716796875
 20
402.4570312499999
 10
375.2333984375
 20
402.3710937499999
 10
375.48046875
 20
402.19921875
 10
375.7158203125
 20
401.9365234374999
 10
376.0458984375
 20
401.5703124999999
 10
376.2294921875
 20
401.1796874999999
 10
376.265625
 20
400.7675781249999
 10
376.2998046875
 20
400.35546875
 10
376.2119140625
 20
399.9453125
 10
376.0
 20
399.5390625
 10
376.0
 20
399.5390625
 10
379.7314453125
 20
398.966796875
 10
379.7314453125
 20
398.966796875
 97
        0
 97
        1
330
6F1
 75
     2
 76
     1
 98
        1
 10
0.0
 20
0.0
450
        0
451
        0
460
0.0
461
0.0
452
        0
462
0.0
453
        0
470

  0
ENDBLK
  5
6F3
330
6EE
100
AcDbEntity
  8
0
100
AcDbBlockEnd
  0
BLOCK
  5
6F5
330
6F4
100
AcDbEntity
  8
0
100
AcDbBlockBegin
  2
Block_10
 70
     0
 10
0.0
 20
0.0
 30
0.0
  3
Block_10
  1

  0
SPLINE
  5
6F6
330
6F4
100
AcDbEntity
  8
Layer 1
100
AcDbSpline
210
0.0
220
0.0
230
1.0
 70
    11
 71
     3
 72
    41
 73
    37
 74
     0
 42
0.000000001
 43
0.0000000001
 40
0.0
 40
0.0
 40
0.0
 40
0.0
 40
1.0
 40
1.0
 40
1.0
 40
2.0
 40
2.0
 40
2.0
 40
3.0
 40
3.0
 40
3.0
 40
4.0
 40
4.0
 40
4.0
 40
5.0
 40
5.0
 40
5.0
 40
6.0
 40
6.0
 40
6.0
 40
7.0
 40
7.0
 40
7.0
 40
8.0
 40
8.0
 40
8.0
 40
9.0
 40
9.0
 40
9.0
 40
10.0
 40
10.0
 40
10.0
 40
11.0
 40
11.0
 40
11.0
 40
12.0
 40
12.0
 40
12.0
 40
12.0
 10
382.873046875
 20
401.7441406249999
 30
0.0
 10
382.873046875
 20
401.7441406249999
 30
0.0
 10
380.4375
 20
399.552734375
 30
0.0
 10
380.4375
 20
399.552734375
 30
0.0
 10
380.4375
 20
399.552734375
 30
0.0
 10
379.98046875
 20
400.0615234375
 30
0.0
 10
379.98046875
 20
400.0615234375
 30
0.0
 10
379.98046875
 20
400.0615234375
 30
0.0
 10
380.884765625
 20
400.876953125
 30
0.0
 10
380.884765625
 20
400.876953125
 30
0.0
 10
380.884765625
 20
400.876953125
 30
0.0
 10
377.873046875
 20
404.2226562499999
 30
0.0
 10
377.873046875
 20
404.2226562499999
 30
0.0
 10
377.873046875
 20
404.2226562499999
 30
0.0
 10
376.966796875
 20
403.4072265625
 30
0.0
 10
376.966796875
 20
403.4072265625
 30
0.0
 10
376.966796875
 20
403.4072265625
 30
0.0
 10
376.556640625
 20
403.86328125
 30
0.0
 10
376.556640625
 20
403.86328125
 30
0.0
 10
376.8984375
 20
404.171875
 30
0.0
 10
377.10546875
 20
404.4472656249999
 30
0.0
 10
377.181640625
 20
404.6914062499999
 30
0.0
 10
377.255859375
 20
404.93359375
 30
0.0
 10
377.181640625
 20
405.1992187499999
 30
0.0
 10
376.95703125
 20
405.4882812499999
 30
0.0
 10
376.95703125
 20
405.4882812499999
 30
0.0
 10
377.4765625
 20
405.955078125
 30
0.0
 10
377.4765625
 20
405.955078125
 30
0.0
 10
377.4765625
 20
405.955078125
 30
0.0
 10
381.529296875
 20
401.4560546874999
 30
0.0
 10
381.529296875
 20
401.4560546874999
 30
0.0
 10
381.529296875
 20
401.4560546874999
 30
0.0
 10
382.4140625
 20
402.2539062499999
 30
0.0
 10
382.4140625
 20
402.2539062499999
 30
0.0
 10
382.4140625
 20
402.2539062499999
 30
0.0
 10
382.873046875
 20
401.7441406249999
 30
0.0
 10
382.873046875
 20
401.7441406249999
 30
0.0
  0
HATCH
  5
6F7
330
6F4
100
AcDbEntity
  8
Layer 1
 62
     7
100
AcDbHatch
 10
0.0
 20
0.0
 30
0.0
210
0.0
220
0.0
230
1.0
  2
SOLID
 70
     1
 71
     1
 91
        1
 92
        1
 93
        1
 72
     4
 94
        3
 73
     0
 74
     0
 95
       41
 96
       37
 40
0.0
 40
0.0
 40
0.0
 40
0.0
 40
1.0
 40
1.0
 40
1.0
 40
2.0
 40
2.0
 40
2.0
 40
3.0
 40
3.0
 40
3.0
 40
4.0
 40
4.0
 40
4.0
 40
5.0
 40
5.0
 40
5.0
 40
6.0
 40
6.0
 40
6.0
 40
7.0
 40
7.0
 40
7.0
 40
8.0
 40
8.0
 40
8.0
 40
9.0
 40
9.0
 40
9.0
 40
10.0
 40
10.0
 40
10.0
 40
11.0
 40
11.0
 40
11.0
 40
12.0
 40
12.0
 40
12.0
 40
12.0
 10
382.873046875
 20
401.7441406249999
 10
382.873046875
 20
401.7441406249999
 10
380.4375
 20
399.552734375
 10
380.4375
 20
399.552734375
 10
380.4375
 20
399.552734375
 10
379.98046875
 20
400.0615234375
 10
379.98046875
 20
400.0615234375
 10
379.98046875
 20
400.0615234375
 10
380.884765625
 20
400.876953125
 10
380.884765625
 20
400.876953125
 10
380.884765625
 20
400.876953125
 10
377.873046875
 20
404.2226562499999
 10
377.873046875
 20
404.2226562499999
 10
377.873046875
 20
404.2226562499999
 10
376.966796875
 20
403.4072265625
 10
376.966796875
 20
403.4072265625
 10
376.966796875
 20
403.4072265625
 10
376.556640625
 20
403.86328125
 10
376.556640625
 20
403.86328125
 10
376.8984375
 20
404.171875
 10
377.10546875
 20
404.4472656249999
 10
377.181640625
 20
404.6914062499999
 10
377.255859375
 20
404.93359375
 10
377.181640625
 20
405.1992187499999
 10
376.95703125
 20
405.4882812499999
 10
376.95703125
 20
405.4882812499999
 10
377.4765625
 20
405.955078125
 10
377.4765625
 20
405.955078125
 10
377.4765625
 20
405.955078125
 10
381.529296875
 20
401.4560546874999
 10
381.529296875
 20
401.4560546874999
 10
381.529296875
 20
401.4560546874999
 10
382.4140625
 20
402.2539062499999
 10
382.4140625
 20
402.2539062499999
 10
382.4140625
 20
402.2539062499999
 10
382.873046875
 20
401.7441406249999
 10
382.873046875
 20
401.7441406249999
 97
        0
 97
        1
330
6F6
 75
     2
 76
     1
 98
        1
 10
0.0
 20
0.0
450
        0
451
        0
460
0.0
461
0.0
452
        0
462
0.0
453
        0
470

  0
ENDBLK
  5
6F8
330
6F4
100
AcDbEntity
  8
0
100
AcDbBlockEnd
  0
BLOCK
  5
6FA
330
6F9
100
AcDbEntity
  8
0
100
AcDbBlockBegin
  2
Block_11
 70
     0
 10
0.0
 20
0.0
 30
0.0
  3
Block_11
  1

  0
SPLINE
  5
6FB
330
6F9
100
AcDbEntity
  8
Layer 1
100
AcDbSpline
210
0.0
220
0.0
230
1.0
 70
    11
 71
     3
 72
    89
 73
    85
 74
     0
 42
0.000000001
 43
0.0000000001
 40
0.0
 40
0.0
 40
0.0
 40
0.0
 40
1.0
 40
1.0
 40
1.0
 40
2.0
 40
2.0
 40
2.0
 40
3.0
 40
3.0
 40
3.0
 40
4.0
 40
4.0
 40
4.0
 40
5.0
 40
5.0
 40
5.0
 40
6.0
 40
6.0
 40
6.0
 40
7.0
 40
7.0
 40
7.0
 40
8.0
 40
8.0
 40
8.0
 40
9.0
 40
9.0
 40
9.0
 40
10.0
 40
10.0
 40
10.0
 40
11.0
 40
11.0
 40
11.0
 40
12.0
 40
12.0
 40
12.0
 40
13.0
 40
13.0
 40
13.0
 40
14.0
 40
14.0
 40
14.0
 40
15.0
 40
15.0
 40
15.0
 40
16.0
 40
16.0
 40
16.0
 40
17.0
 40
17.0
 40
17.0
 40
18.0
 40
18.0
 40
18.0
 40
19.0
 40
19.0
 40
19.0
 40
20.0
 40
20.0
 40
20.0
 40
21.0
 40
21.0
 40
21.0
 40
22.0
 40
22.0
 40
22.0
 40
23.0
 40
23.0
 40
23.0
 40
24.0
 40
24.0
 40
24.0
 40
25.0
 40
25.0
 40
25.0
 40
26.0
 40
26.0
 40
26.0
 40
27.0
 40
27.0
 40
27.0
 40
28.0
 40
28.0
 40
28.0
 40
28.0
 10
386.845703125
 20
405.3945312499999
 30
0.0
 10
386.845703125
 20
405.3945312499999
 30
0.0
 10
383.765625
 20
402.62109375
 30
0.0
 10
383.765625
 20
402.62109375
 30
0.0
 10
383.765625
 20
402.62109375
 30
0.0
 10
383.134765625
 20
403.3203125
 30
0.0
 10
383.134765625
 20
403.3203125
 30
0.0
 10
383.166015625
 20
403.7304687499999
 30
0.0
 10
383.1943359375
 20
404.119140625
 30
0.0
 10
383.216796875
 20
404.48828125
 30
0.0
 10
383.2412109375
 20
404.8574218749999
 30
0.0
 10
383.25390625
 20
405.23046875
 30
0.0
 10
383.25390625
 20
405.6083984375
 30
0.0
 10
383.2578125
 20
406.3681640625
 30
0.0
 10
383.216796875
 20
406.9365234374999
 30
0.0
 10
383.12890625
 20
407.3125
 30
0.0
 10
383.0400390625
 20
407.6894531249999
 30
0.0
 10
382.875
 20
408.0107421874999
 30
0.0
 10
382.634765625
 20
408.2783203125
 30
0.0
 10
382.509765625
 20
408.4169921875
 30
0.0
 10
382.3779296875
 20
408.5195312499999
 30
0.0
 10
382.240234375
 20
408.5859375
 30
0.0
 10
382.1015625
 20
408.6513671875
 30
0.0
 10
381.962890625
 20
408.685546875
 30
0.0
 10
381.8251953125
 20
408.685546875
 30
0.0
 10
381.685546875
 20
408.6826171874999
 30
0.0
 10
381.55078125
 20
408.6503906249999
 30
0.0
 10
381.41796875
 20
408.591796875
 30
0.0
 10
381.28515625
 20
408.533203125
 30
0.0
 10
381.15625
 20
408.4482421875
 30
0.0
 10
381.033203125
 20
408.337890625
 30
0.0
 10
380.9140625
 20
408.2314453124999
 30
0.0
 10
380.80859375
 20
408.107421875
 30
0.0
 10
380.71484375
 20
407.9677734375
 30
0.0
 10
380.619140625
 20
407.8281249999999
 30
0.0
 10
380.5361328125
 20
407.6855468749999
 30
0.0
 10
380.46484375
 20
407.5400390625
 30
0.0
 10
380.404296875
 20
407.4169921874999
 30
0.0
 10
380.35546875
 20
407.2910156249999
 30
0.0
 10
380.3173828125
 20
407.158203125
 30
0.0
 10
380.27734375
 20
407.025390625
 30
0.0
 10
380.248046875
 20
406.9160156249999
 30
0.0
 10
380.2294921875
 20
406.8310546874999
 30
0.0
 10
380.2294921875
 20
406.8310546874999
 30
0.0
 10
380.1923828125
 20
406.796875
 30
0.0
 10
380.1923828125
 20
406.796875
 30
0.0
 10
380.1923828125
 20
406.796875
 30
0.0
 10
379.552734375
 20
407.5078125
 30
0.0
 10
379.552734375
 20
407.5078125
 30
0.0
 10
379.62890625
 20
407.7011718749999
 30
0.0
 10
379.759765625
 20
407.943359375
 30
0.0
 10
379.94921875
 20
408.2314453124999
 30
0.0
 10
380.13671875
 20
408.5195312499999
 30
0.0
 10
380.33984375
 20
408.7636718749999
 30
0.0
 10
380.560546875
 20
408.9628906249999
 30
0.0
 10
381.0263671875
 20
409.380859375
 30
0.0
 10
381.501953125
 20
409.5859374999999
 30
0.0
 10
381.98828125
 20
409.576171875
 30
0.0
 10
382.474609375
 20
409.56640625
 30
0.0
 10
382.9072265625
 20
409.3505859375
 30
0.0
 10
383.287109375
 20
408.927734375
 30
0.0
 10
383.462890625
 20
408.734375
 30
0.0
 10
383.6015625
 20
408.533203125
 30
0.0
 10
383.705078125
 20
408.326171875
 30
0.0
 10
383.80859375
 20
408.1210937499999
 30
0.0
 10
383.8828125
 20
407.91015625
 30
0.0
 10
383.9296875
 20
407.6972656249999
 30
0.0
 10
383.9775390625
 20
407.4765625
 30
0.0
 10
384.0078125
 20
407.244140625
 30
0.0
 10
384.0205078125
 20
406.99609375
 30
0.0
 10
384.033203125
 20
406.748046875
 30
0.0
 10
384.037109375
 20
406.49609375
 30
0.0
 10
384.03125
 20
406.2412109374999
 30
0.0
 10
384.02734375
 20
405.82421875
 30
0.0
 10
384.005859375
 20
405.3759765625
 30
0.0
 10
383.96875
 20
404.8984374999999
 30
0.0
 10
383.9326171875
 20
404.419921875
 30
0.0
 10
383.9013671875
 20
404.0390624999999
 30
0.0
 10
383.875
 20
403.7578125
 30
0.0
 10
383.875
 20
403.7578125
 30
0.0
 10
386.330078125
 20
405.9677734374999
 30
0.0
 10
386.330078125
 20
405.9677734374999
 30
0.0
 10
386.330078125
 20
405.9677734374999
 30
0.0
 10
386.845703125
 20
405.3945312499999
 30
0.0
 10
386.845703125
 20
405.3945312499999
 30
0.0
  0
HATCH
  5
6FC
330
6F9
100
AcDbEntity
  8
Layer 1
 62
     7
100
AcDbHatch
 10
0.0
 20
0.0
 30
0.0
210
0.0
220
0.0
230
1.0
  2
SOLID
 70
     1
 71
     1
 91
        1
 92
        1
 93
        1
 72
     4
 94
        3
 73
     0
 74
     0
 95
       89
 96
       85
 40
0.0
 40
0.0
 40
0.0
 40
0.0
 40
1.0
 40
1.0
 40
1.0
 40
2.0
 40
2.0
 40
2.0
 40
3.0
 40
3.0
 40
3.0
 40
4.0
 40
4.0
 40
4.0
 40
5.0
 40
5.0
 40
5.0
 40
6.0
 40
6.0
 40
6.0
 40
7.0
 40
7.0
 40
7.0
 40
8.0
 40
8.0
 40
8.0
 40
9.0
 40
9.0
 40
9.0
 40
10.0
 40
10.0
 40
10.0
 40
11.0
 40
11.0
 40
11.0
 40
12.0
 40
12.0
 40
12.0
 40
13.0
 40
13.0
 40
13.0
 40
14.0
 40
14.0
 40
14.0
 40
15.0
 40
15.0
 40
15.0
 40
16.0
 40
16.0
 40
16.0
 40
17.0
 40
17.0
 40
17.0
 40
18.0
 40
18.0
 40
18.0
 40
19.0
 40
19.0
 40
19.0
 40
20.0
 40
20.0
 40
20.0
 40
21.0
 40
21.0
 40
21.0
 40
22.0
 40
22.0
 40
22.0
 40
23.0
 40
23.0
 40
23.0
 40
24.0
 40
24.0
 40
24.0
 40
25.0
 40
25.0
 40
25.0
 40
26.0
 40
26.0
 40
26.0
 40
27.0
 40
27.0
 40
27.0
 40
28.0
 40
28.0
 40
28.0
 40
28.0
 10
386.845703125
 20
405.3945312499999
 10
386.845703125
 20
405.3945312499999
 10
383.765625
 20
402.62109375
 10
383.765625
 20
402.62109375
 10
383.765625
 20
402.62109375
 10
383.134765625
 20
403.3203125
 10
383.134765625
 20
403.3203125
 10
383.166015625
 20
403.7304687499999
 10
383.1943359375
 20
404.119140625
 10
383.216796875
 20
404.48828125
 10
383.2412109375
 20
404.8574218749999
 10
383.25390625
 20
405.23046875
 10
383.25390625
 20
405.6083984375
 10
383.2578125
 20
406.3681640625
 10
383.216796875
 20
406.9365234374999
 10
383.12890625
 20
407.3125
 10
383.0400390625
 20
407.6894531249999
 10
382.875
 20
408.0107421874999
 10
382.634765625
 20
408.2783203125
 10
382.509765625
 20
408.4169921875
 10
382.3779296875
 20
408.5195312499999
 10
382.240234375
 20
408.5859375
 10
382.1015625
 20
408.6513671875
 10
381.962890625
 20
408.685546875
 10
381.8251953125
 20
408.685546875
 10
381.685546875
 20
408.6826171874999
 10
381.55078125
 20
408.6503906249999
 10
381.41796875
 20
408.591796875
 10
381.28515625
 20
408.533203125
 10
381.15625
 20
408.4482421875
 10
381.033203125
 20
408.337890625
 10
380.9140625
 20
408.2314453124999
 10
380.80859375
 20
408.107421875
 10
380.71484375
 20
407.9677734375
 10
380.619140625
 20
407.8281249999999
 10
380.5361328125
 20
407.6855468749999
 10
380.46484375
 20
407.5400390625
 10
380.404296875
 20
407.4169921874999
 10
380.35546875
 20
407.2910156249999
 10
380.3173828125
 20
407.158203125
 10
380.27734375
 20
407.025390625
 10
380.248046875
 20
406.9160156249999
 10
380.2294921875
 20
406.8310546874999
 10
380.2294921875
 20
406.8310546874999
 10
380.1923828125
 20
406.796875
 10
380.1923828125
 20
406.796875
 10
380.1923828125
 20
406.796875
 10
379.552734375
 20
407.5078125
 10
379.552734375
 20
407.5078125
 10
379.62890625
 20
407.7011718749999
 10
379.759765625
 20
407.943359375
 10
379.94921875
 20
408.2314453124999
 10
380.13671875
 20
408.5195312499999
 10
380.33984375
 20
408.7636718749999
 10
380.560546875
 20
408.9628906249999
 10
381.0263671875
 20
409.380859375
 10
381.501953125
 20
409.5859374999999
 10
381.98828125
 20
409.576171875
 10
382.474609375
 20
409.56640625
 10
382.9072265625
 20
409.3505859375
 10
383.287109375
 20
408.927734375
 10
383.462890625
 20
408.734375
 10
383.6015625
 20
408.533203125
 10
383.705078125
 20
408.326171875
 10
383.80859375
 20
408.1210937499999
 10
383.8828125
 20
407.91015625
 10
383.9296875
 20
407.6972656249999
 10
383.9775390625
 20
407.4765625
 10
384.0078125
 20
407.244140625
 10
384.0205078125
 20
406.99609375
 10
384.033203125
 20
406.748046875
 10
384.037109375
 20
406.49609375
 10
384.03125
 20
406.2412109374999
 10
384.02734375
 20
405.82421875
 10
384.005859375
 20
405.3759765625
 10
383.96875
 20
404.8984374999999
 10
383.9326171875
 20
404.419921875
 10
383.9013671875
 20
404.0390624999999
 10
383.875
 20
403.7578125
 10
383.875
 20
403.7578125
 10
386.330078125
 20
405.9677734374999
 10
386.330078125
 20
405.9677734374999
 10
386.330078125
 20
405.9677734374999
 10
386.845703125
 20
405.3945312499999
 10
386.845703125
 20
405.3945312499999
 97
        0
 97
        1
330
6FB
 75
     2
 76
     1
 98
        1
 10
0.0
 20
0.0
450
        0
451
        0
460
0.0
461
0.0
452
        0
462
0.0
453
        0
470

  0
ENDBLK
  5
6FD
330
6F9
100
AcDbEntity
  8
0
100
AcDbBlockEnd
  0
BLOCK
  5
6FF
330
6FE
100
AcDbEntity
  8
0
100
AcDbBlockBegin
  2
Block_12
 70
     0
 10
0.0
 20
0.0
 30
0.0
  3
Block_12
  1

  0
INSERT
  5
700
330
6FE
100
AcDbEntity
  8
Layer 1
100
AcDbBlockReference
  2
Block_13
 10
0.0
 20
0.0
 30
0.0
  0
ENDBLK
  5
701
330
6FE
100
AcDbEntity
  8
0
100
AcDbBlockEnd
  0
BLOCK
  5
703
330
702
100
AcDbEntity
  8
0
100
AcDbBlockBegin
  2
Block_13
 70
     0
 10
0.0
 20
0.0
 30
0.0
  3
Block_13
  1

  0
SPLINE
  5
704
330
702
100
AcDbEntity
  8
Layer 1
100
AcDbSpline
210
0.0
220
0.0
230
1.0
 70
     9
 71
     3
 72
   104
 73
   100
 74
     0
 42
0.000000001
 43
0.0000000001
 40
0.0
 40
0.0
 40
0.0
 40
0.0
 40
1.0
 40
1.0
 40
1.0
 40
2.0
 40
2.0
 40
2.0
 40
3.0
 40
3.0
 40
3.0
 40
4.0
 40
4.0
 40
4.0
 40
5.0
 40
5.0
 40
5.0
 40
6.0
 40
6.0
 40
6.0
 40
7.0
 40
7.0
 40
7.0
 40
8.0
 40
8.0
 40
8.0
 40
9.0
 40
9.0
 40
9.0
 40
10.0
 40
10.0
 40
10.0
 40
11.0
 40
11.0
 40
11.0
 40
12.0
 40
12.0
 40
12.0
 40
13.0
 40
13.0
 40
13.0
 40
14.0
 40
14.0
 40
14.0
 40
15.0
 40
15.0
 40
15.0
 40
16.0
 40
16.0
 40
16.0
 40
17.0
 40
17.0
 40
17.0
 40
18.0
 40
18.0
 40
18.0
 40
19.0
 40
19.0
 40
19.0
 40
20.0
 40
20.0
 40
20.0
 40
21.0
 40
21.0
 40
21.0
 40
22.0
 40
22.0
 40
22.0
 40
23.0
 40
23.0
 40
23.0
 40
24.0
 40
24.0
 40
24.0
 40
25.0
 40
25.0
 40
25.0
 40
26.0
 40
26.0
 40
26.0
 40
27.0
 40
27.0
 40
27.0
 40
28.0
 40
28.0
 40
28.0
 40
29.0
 40
29.0
 40
29.0
 40
30.0
 40
30.0
 40
30.0
 40
31.0
 40
31.0
 40
31.0
 40
32.0
 40
32.0
 40
32.0
 40
33.0
 40
33.0
 40
33.0
 40
33.0
 10
305.87109375
 20
137.4716796875
 30
0.0
 10
305.87109375
 20
137.796875
 30
0.0
 10
305.9228515625
 20
138.09765625
 30
0.0
 10
306.02734375
 20
138.3740234375
 30
0.0
 10
306.130859375
 20
138.6513671875
 30
0.0
 10
306.275390625
 20
138.8896484375
 30
0.0
 10
306.4619140625
 20
139.091796875
 30
0.0
 10
306.6513671875
 20
139.2958984375
 30
0.0
 10
306.88671875
 20
139.45703125
 30
0.0
 10
307.16796875
 20
139.57421875
 30
0.0
 10
307.44921875
 20
139.69140625
 30
0.0
 10
307.7646484375
 20
139.75
 30
0.0
 10
308.11328125
 20
139.75
 30
0.0
 10
308.435546875
 20
139.75
 30
0.0
 10
308.751953125
 20
139.71484375
 30
0.0
 10
309.0634765625
 20
139.64453125
 30
0.0
 10
309.375
 20
139.5732421875
 30
0.0
 10
309.64453125
 20
139.4814453125
 30
0.0
 10
309.873046875
 20
139.3671875
 30
0.0
 10
309.873046875
 20
139.3671875
 30
0.0
 10
309.873046875
 20
138.4150390625
 30
0.0
 10
309.873046875
 20
138.4150390625
 30
0.0
 10
309.873046875
 20
138.4150390625
 30
0.0
 10
309.8095703125
 20
138.4150390625
 30
0.0
 10
309.8095703125
 20
138.4150390625
 30
0.0
 10
309.7412109375
 20
138.4658203125
 30
0.0
 10
309.6416015625
 20
138.5234375
 30
0.0
 10
309.5126953125
 20
138.5888671875
 30
0.0
 10
309.3828125
 20
138.6533203125
 30
0.0
 10
309.240234375
 20
138.7138671875
 30
0.0
 10
309.083984375
 20
138.771484375
 30
0.0
 10
308.90625
 20
138.833984375
 30
0.0
 10
308.744140625
 20
138.8828125
 30
0.0
 10
308.5966796875
 20
138.91796875
 30
0.0
 10
308.44921875
 20
138.9521484375
 30
0.0
 10
308.283203125
 20
138.9697265625
 30
0.0
 10
308.099609375
 20
138.9697265625
 30
0.0
 10
307.919921875
 20
138.9697265625
 30
0.0
 10
307.7431640625
 20
138.9375
 30
0.0
 10
307.572265625
 20
138.873046875
 30
0.0
 10
307.400390625
 20
138.8076171875
 30
0.0
 10
307.2529296875
 20
138.703125
 30
0.0
 10
307.1298828125
 20
138.5595703125
 30
0.0
 10
307.0185546875
 20
138.4267578125
 30
0.0
 10
306.93359375
 20
138.271484375
 30
0.0
 10
306.875
 20
138.0947265625
 30
0.0
 10
306.81640625
 20
137.9169921875
 30
0.0
 10
306.787109375
 20
137.7080078125
 30
0.0
 10
306.787109375
 20
137.4677734375
 30
0.0
 10
306.787109375
 20
137.2294921875
 30
0.0
 10
306.8193359375
 20
137.0341796875
 30
0.0
 10
306.8837890625
 20
136.880859375
 30
0.0
 10
306.94921875
 20
136.7275390625
 30
0.0
 10
307.04296875
 20
136.6005859375
 30
0.0
 10
307.166015625
 20
136.501953125
 30
0.0
 10
307.2958984375
 20
136.3876953125
 30
0.0
 10
307.4541015625
 20
136.306640625
 30
0.0
 10
307.642578125
 20
136.2607421875
 30
0.0
 10
307.830078125
 20
136.2138671875
 30
0.0
 10
308.0400390625
 20
136.1904296875
 30
0.0
 10
308.271484375
 20
136.1904296875
 30
0.0
 10
308.5146484375
 20
136.1904296875
 30
0.0
 10
308.7607421875
 20
136.208984375
 30
0.0
 10
309.0068359375
 20
136.2470703125
 30
0.0
 10
309.25390625
 20
136.2841796875
 30
0.0
 10
309.4501953125
 20
136.3203125
 30
0.0
 10
309.59765625
 20
136.3525390625
 30
0.0
 10
309.59765625
 20
136.3525390625
 30
0.0
 10
309.59765625
 20
132.892578125
 30
0.0
 10
309.59765625
 20
132.892578125
 30
0.0
 10
309.59765625
 20
132.892578125
 30
0.0
 10
305.912109375
 20
132.892578125
 30
0.0
 10
305.912109375
 20
132.892578125
 30
0.0
 10
305.912109375
 20
132.892578125
 30
0.0
 10
305.912109375
 20
133.681640625
 30
0.0
 10
305.912109375
 20
133.681640625
 30
0.0
 10
305.912109375
 20
133.681640625
 30
0.0
 10
308.7275390625
 20
133.681640625
 30
0.0
 10
308.7275390625
 20
133.681640625
 30
0.0
 10
308.7275390625
 20
133.681640625
 30
0.0
 10
308.7275390625
 20
135.46875
 30
0.0
 10
308.7275390625
 20
135.46875
 30
0.0
 10
308.619140625
 20
135.45703125
 30
0.0
 10
308.51171875
 20
135.447265625
 30
0.0
 10
308.4072265625
 20
135.44140625
 30
0.0
 10
308.3017578125
 20
135.435546875
 30
0.0
 10
308.205078125
 20
135.4326171875
 30
0.0
 10
308.1181640625
 20
135.4326171875
 30
0.0
 10
307.775390625
 20
135.4326171875
 30
0.0
 10
307.4853515625
 20
135.4609375
 30
0.0
 10
307.2470703125
 20
135.5185546875
 30
0.0
 10
307.009765625
 20
135.5751953125
 30
0.0
 10
306.78125
 20
135.6865234375
 30
0.0
 10
306.5615234375
 20
135.8525390625
 30
0.0
 10
306.3388671875
 20
136.0205078125
 30
0.0
 10
306.16796875
 20
136.2314453125
 30
0.0
 10
306.0498046875
 20
136.4833984375
 30
0.0
 10
305.9306640625
 20
136.736328125
 30
0.0
 10
305.87109375
 20
137.0654296875
 30
0.0
 10
305.87109375
 20
137.4716796875
 30
0.0
  0
HATCH
  5
705
330
702
100
AcDbEntity
  8
Layer 1
 62
     7
100
AcDbHatch
 10
0.0
 20
0.0
 30
0.0
210
0.0
220
0.0
230
1.0
  2
SOLID
 70
     1
 71
     1
 91
        1
 92
        1
 93
        1
 72
     4
 94
        3
 73
     0
 74
     0
 95
      104
 96
      100
 40
0.0
 40
0.0
 40
0.0
 40
0.0
 40
1.0
 40
1.0
 40
1.0
 40
2.0
 40
2.0
 40
2.0
 40
3.0
 40
3.0
 40
3.0
 40
4.0
 40
4.0
 40
4.0
 40
5.0
 40
5.0
 40
5.0
 40
6.0
 40
6.0
 40
6.0
 40
7.0
 40
7.0
 40
7.0
 40
8.0
 40
8.0
 40
8.0
 40
9.0
 40
9.0
 40
9.0
 40
10.0
 40
10.0
 40
10.0
 40
11.0
 40
11.0
 40
11.0
 40
12.0
 40
12.0
 40
12.0
 40
13.0
 40
13.0
 40
13.0
 40
14.0
 40
14.0
 40
14.0
 40
15.0
 40
15.0
 40
15.0
 40
16.0
 40
16.0
 40
16.0
 40
17.0
 40
17.0
 40
17.0
 40
18.0
 40
18.0
 40
18.0
 40
19.0
 40
19.0
 40
19.0
 40
20.0
 40
20.0
 40
20.0
 40
21.0
 40
21.0
 40
21.0
 40
22.0
 40
22.0
 40
22.0
 40
23.0
 40
23.0
 40
23.0
 40
24.0
 40
24.0
 40
24.0
 40
25.0
 40
25.0
 40
25.0
 40
26.0
 40
26.0
 40
26.0
 40
27.0
 40
27.0
 40
27.0
 40
28.0
 40
28.0
 40
28.0
 40
29.0
 40
29.0
 40
29.0
 40
30.0
 40
30.0
 40
30.0
 40
31.0
 40
31.0
 40
31.0
 40
32.0
 40
32.0
 40
32.0
 40
33.0
 40
33.0
 40
33.0
 40
33.0
 10
305.87109375
 20
137.4716796875
 10
305.87109375
 20
137.796875
 10
305.9228515625
 20
138.09765625
 10
306.02734375
 20
138.3740234375
 10
306.130859375
 20
138.6513671875
 10
306.275390625
 20
138.8896484375
 10
306.4619140625
 20
139.091796875
 10
306.6513671875
 20
139.2958984375
 10
306.88671875
 20
139.45703125
 10
307.16796875
 20
139.57421875
 10
307.44921875
 20
139.69140625
 10
307.7646484375
 20
139.75
 10
308.11328125
 20
139.75
 10
308.435546875
 20
139.75
 10
308.751953125
 20
139.71484375
 10
309.0634765625
 20
139.64453125
 10
309.375
 20
139.5732421875
 10
309.64453125
 20
139.4814453125
 10
309.873046875
 20
139.3671875
 10
309.873046875
 20
139.3671875
 10
309.873046875
 20
138.4150390625
 10
309.873046875
 20
138.4150390625
 10
309.873046875
 20
138.4150390625
 10
309.8095703125
 20
138.4150390625
 10
309.8095703125
 20
138.4150390625
 10
309.7412109375
 20
138.4658203125
 10
309.6416015625
 20
138.5234375
 10
309.5126953125
 20
138.5888671875
 10
309.3828125
 20
138.6533203125
 10
309.240234375
 20
138.7138671875
 10
309.083984375
 20
138.771484375
 10
308.90625
 20
138.833984375
 10
308.744140625
 20
138.8828125
 10
308.5966796875
 20
138.91796875
 10
308.44921875
 20
138.9521484375
 10
308.283203125
 20
138.9697265625
 10
308.099609375
 20
138.9697265625
 10
307.919921875
 20
138.9697265625
 10
307.7431640625
 20
138.9375
 10
307.572265625
 20
138.873046875
 10
307.400390625
 20
138.8076171875
 10
307.2529296875
 20
138.703125
 10
307.1298828125
 20
138.5595703125
 10
307.0185546875
 20
138.4267578125
 10
306.93359375
 20
138.271484375
 10
306.875
 20
138.0947265625
 10
306.81640625
 20
137.9169921875
 10
306.787109375
 20
137.7080078125
 10
306.787109375
 20
137.4677734375
 10
306.787109375
 20
137.2294921875
 10
306.8193359375
 20
137.0341796875
 10
306.8837890625
 20
136.880859375
 10
306.94921875
 20
136.7275390625
 10
307.04296875
 20
136.6005859375
 10
307.166015625
 20
136.501953125
 10
307.2958984375
 20
136.3876953125
 10
307.4541015625
 20
136.306640625
 10
307.642578125
 20
136.2607421875
 10
307.830078125
 20
136.2138671875
 10
308.0400390625
 20
136.1904296875
 10
308.271484375
 20
136.1904296875
 10
308.5146484375
 20
136.1904296875
 10
308.7607421875
 20
136.208984375
 10
309.0068359375
 20
136.2470703125
 10
309.25390625
 20
136.2841796875
 10
309.4501953125
 20
136.3203125
 10
309.59765625
 20
136.3525390625
 10
309.59765625
 20
136.3525390625
 10
309.59765625
 20
132.892578125
 10
309.59765625
 20
132.892578125
 10
309.59765625
 20
132.892578125
 10
305.912109375
 20
132.892578125
 10
305.912109375
 20
132.892578125
 10
305.912109375
 20
132.892578125
 10
305.912109375
 20
133.681640625
 10
305.912109375
 20
133.681640625
 10
305.912109375
 20
133.681640625
 10
308.7275390625
 20
133.681640625
 10
308.7275390625
 20
133.681640625
 10
308.7275390625
 20
133.681640625
 10
308.7275390625
 20
135.46875
 10
308.7275390625
 20
135.46875
 10
308.619140625
 20
135.45703125
 10
308.51171875
 20
135.447265625
 10
308.4072265625
 20
135.44140625
 10
308.3017578125
 20
135.435546875
 10
308.205078125
 20
135.4326171875
 10
308.1181640625
 20
135.4326171875
 10
307.775390625
 20
135.4326171875
 10
307.4853515625
 20
135.4609375
 10
307.2470703125
 20
135.5185546875
 10
307.009765625
 20
135.5751953125
 10
306.78125
 20
135.6865234375
 10
306.5615234375
 20
135.8525390625
 10
306.3388671875
 20
136.0205078125
 10
306.16796875
 20
136.2314453125
 10
306.0498046875
 20
136.4833984375
 10
305.9306640625
 20
136.736328125
 10
305.87109375
 20
137.0654296875
 10
305.87109375
 20
137.4716796875
 97
        0
 97
        1
330
704
 75
     2
 76
     1
 98
        1
 10
0.0
 20
0.0
450
        0
451
        0
460
0.0
461
0.0
452
        0
462
0.0
453
        0
470

  0
SPLINE
  5
706
330
702
100
AcDbEntity
  8
Layer 1
100
AcDbSpline
210
0.0
220
0.0
230
1.0
 70
     9
 71
     3
 72
    47
 73
    43
 74
     0
 42
0.000000001
 43
0.0000000001
 40
0.0
 40
0.0
 40
0.0
 40
0.0
 40
1.0
 40
1.0
 40
1.0
 40
2.0
 40
2.0
 40
2.0
 40
3.0
 40
3.0
 40
3.0
 40
4.0
 40
4.0
 40
4.0
 40
5.0
 40
5.0
 40
5.0
 40
6.0
 40
6.0
 40
6.0
 40
7.0
 40
7.0
 40
7.0
 40
8.0
 40
8.0
 40
8.0
 40
9.0
 40
9.0
 40
9.0
 40
10.0
 40
10.0
 40
10.0
 40
11.0
 40
11.0
 40
11.0
 40
12.0
 40
12.0
 40
12.0
 40
13.0
 40
13.0
 40
13.0
 40
14.0
 40
14.0
 40
14.0
 40
14.0
 10
301.634765625
 20
135.6533203125
 30
0.0
 10
301.634765625
 20
135.1962890625
 30
0.0
 10
301.6767578125
 20
134.82421875
 30
0.0
 10
301.76171875
 20
134.537109375
 30
0.0
 10
301.845703125
 20
134.25
 30
0.0
 10
301.9609375
 20
134.0283203125
 30
0.0
 10
302.1083984375
 20
133.87109375
 30
0.0
 10
302.2412109375
 20
133.7275390625
 30
0.0
 10
302.375
 20
133.6279296875
 30
0.0
 10
302.509765625
 20
133.5732421875
 30
0.0
 10
302.6455078125
 20
133.51953125
 30
0.0
 10
302.794921875
 20
133.4921875
 30
0.0
 10
302.95703125
 20
133.4921875
 30
0.0
 10
303.3271484375
 20
133.4921875
 30
0.0
 10
303.6220703125
 20
133.625
 30
0.0
 10
303.8408203125
 20
133.8896484375
 30
0.0
 10
304.060546875
 20
134.154296875
 30
0.0
 10
304.1708984375
 20
134.5380859375
 30
0.0
 10
304.1708984375
 20
135.0400390625
 30
0.0
 10
304.1708984375
 20
135.322265625
 30
0.0
 10
304.134765625
 20
135.5556640625
 30
0.0
 10
304.0625
 20
135.7392578125
 30
0.0
 10
303.990234375
 20
135.9228515625
 30
0.0
 10
303.873046875
 20
136.0810546875
 30
0.0
 10
303.7099609375
 20
136.212890625
 30
0.0
 10
303.595703125
 20
136.306640625
 30
0.0
 10
303.466796875
 20
136.369140625
 30
0.0
 10
303.322265625
 20
136.400390625
 30
0.0
 10
303.177734375
 20
136.431640625
 30
0.0
 10
303.0234375
 20
136.447265625
 30
0.0
 10
302.857421875
 20
136.447265625
 30
0.0
 10
302.6650390625
 20
136.447265625
 30
0.0
 10
302.4580078125
 20
136.4140625
 30
0.0
 10
302.2353515625
 20
136.345703125
 30
0.0
 10
302.0126953125
 20
136.2783203125
 30
0.0
 10
301.818359375
 20
136.189453125
 30
0.0
 10
301.6533203125
 20
136.078125
 30
0.0
 10
301.650390625
 20
136.0322265625
 30
0.0
 10
301.646484375
 20
135.9736328125
 30
0.0
 10
301.6416015625
 20
135.8994140625
 30
0.0
 10
301.63671875
 20
135.826171875
 30
0.0
 10
301.634765625
 20
135.744140625
 30
0.0
 10
301.634765625
 20
135.6533203125
 30
0.0
  0
SPLINE
  5
707
330
702
100
AcDbEntity
  8
Layer 1
100
AcDbSpline
210
0.0
220
0.0
230
1.0
 70
     9
 71
     3
 72
    83
 73
    79
 74
     0
 42
0.000000001
 43
0.0000000001
 40
0.0
 40
0.0
 40
0.0
 40
0.0
 40
1.0
 40
1.0
 40
1.0
 40
2.0
 40
2.0
 40
2.0
 40
3.0
 40
3.0
 40
3.0
 40
4.0
 40
4.0
 40
4.0
 40
5.0
 40
5.0
 40
5.0
 40
6.0
 40
6.0
 40
6.0
 40
7.0
 40
7.0
 40
7.0
 40
8.0
 40
8.0
 40
8.0
 40
9.0
 40
9.0
 40
9.0
 40
10.0
 40
10.0
 40
10.0
 40
11.0
 40
11.0
 40
11.0
 40
12.0
 40
12.0
 40
12.0
 40
13.0
 40
13.0
 40
13.0
 40
14.0
 40
14.0
 40
14.0
 40
15.0
 40
15.0
 40
15.0
 40
16.0
 40
16.0
 40
16.0
 40
17.0
 40
17.0
 40
17.0
 40
18.0
 40
18.0
 40
18.0
 40
19.0
 40
19.0
 40
19.0
 40
20.0
 40
20.0
 40
20.0
 40
21.0
 40
21.0
 40
21.0
 40
22.0
 40
22.0
 40
22.0
 40
23.0
 40
23.0
 40
23.0
 40
24.0
 40
24.0
 40
24.0
 40
25.0
 40
25.0
 40
25.0
 40
26.0
 40
26.0
 40
26.0
 40
26.0
 10
305.0859375
 20
135.076171875
 30
0.0
 10
305.0859375
 20
134.73046875
 30
0.0
 10
305.0302734375
 20
134.4140625
 30
0.0
 10
304.9169921875
 20
134.12890625
 30
0.0
 10
304.8046875
 20
133.8427734375
 30
0.0
 10
304.650390625
 20
133.5966796875
 30
0.0
 10
304.455078125
 20
133.388671875
 30
0.0
 10
304.2685546875
 20
133.1904296875
 30
0.0
 10
304.0400390625
 20
133.03515625
 30
0.0
 10
303.771484375
 20
132.923828125
 30
0.0
 10
303.501953125
 20
132.8125
 30
0.0
 10
303.2294921875
 20
132.7568359375
 30
0.0
 10
302.9521484375
 20
132.7568359375
 30
0.0
 10
302.642578125
 20
132.7568359375
 30
0.0
 10
302.3623046875
 20
132.80859375
 30
0.0
 10
302.111328125
 20
132.9130859375
 30
0.0
 10
301.859375
 20
133.0166015625
 30
0.0
 10
301.642578125
 20
133.166015625
 30
0.0
 10
301.458984375
 20
133.361328125
 30
0.0
 10
301.2275390625
 20
133.6083984375
 30
0.0
 10
301.0478515625
 20
133.931640625
 30
0.0
 10
300.919921875
 20
134.33203125
 30
0.0
 10
300.7919921875
 20
134.7314453125
 30
0.0
 10
300.728515625
 20
135.2373046875
 30
0.0
 10
300.728515625
 20
135.84765625
 30
0.0
 10
300.728515625
 20
136.404296875
 30
0.0
 10
300.7900390625
 20
136.931640625
 30
0.0
 10
300.9150390625
 20
137.4287109375
 30
0.0
 10
301.0400390625
 20
137.9267578125
 30
0.0
 10
301.224609375
 20
138.33984375
 30
0.0
 10
301.4677734375
 20
138.6669921875
 30
0.0
 10
301.7265625
 20
139.0166015625
 30
0.0
 10
302.037109375
 20
139.2822265625
 30
0.0
 10
302.3994140625
 20
139.4658203125
 30
0.0
 10
302.76171875
 20
139.6494140625
 30
0.0
 10
303.2099609375
 20
139.7412109375
 30
0.0
 10
303.7421875
 20
139.7412109375
 30
0.0
 10
303.8623046875
 20
139.7412109375
 30
0.0
 10
303.990234375
 20
139.734375
 30
0.0
 10
304.125
 20
139.720703125
 30
0.0
 10
304.2607421875
 20
139.70703125
 30
0.0
 10
304.38671875
 20
139.6826171875
 30
0.0
 10
304.50390625
 20
139.646484375
 30
0.0
 10
304.50390625
 20
139.646484375
 30
0.0
 10
304.50390625
 20
138.78515625
 30
0.0
 10
304.50390625
 20
138.78515625
 30
0.0
 10
304.50390625
 20
138.78515625
 30
0.0
 10
304.458984375
 20
138.78515625
 30
0.0
 10
304.458984375
 20
138.78515625
 30
0.0
 10
304.3837890625
 20
138.8271484375
 30
0.0
 10
304.2666015625
 20
138.8671875
 30
0.0
 10
304.107421875
 20
138.90625
 30
0.0
 10
303.9482421875
 20
138.9453125
 30
0.0
 10
303.78515625
 20
138.96484375
 30
0.0
 10
303.6201171875
 20
138.96484375
 30
0.0
 10
303.0302734375
 20
138.96484375
 30
0.0
 10
302.5673828125
 20
138.771484375
 30
0.0
 10
302.23046875
 20
138.3828125
 30
0.0
 10
301.8935546875
 20
137.9951171875
 30
0.0
 10
301.7021484375
 20
137.4404296875
 30
0.0
 10
301.6572265625
 20
136.71875
 30
0.0
 10
301.8984375
 20
136.880859375
 30
0.0
 10
302.1279296875
 20
137.0
 30
0.0
 10
302.345703125
 20
137.0751953125
 30
0.0
 10
302.5634765625
 20
137.150390625
 30
0.0
 10
302.80078125
 20
137.1875
 30
0.0
 10
303.0556640625
 20
137.1875
 30
0.0
 10
303.3056640625
 20
137.1875
 30
0.0
 10
303.533203125
 20
137.16015625
 30
0.0
 10
303.7373046875
 20
137.1064453125
 30
0.0
 10
303.9423828125
 20
137.0517578125
 30
0.0
 10
304.1484375
 20
136.947265625
 30
0.0
 10
304.35546875
 20
136.7900390625
 30
0.0
 10
304.595703125
 20
136.607421875
 30
0.0
 10
304.7783203125
 20
136.375
 30
0.0
 10
304.9013671875
 20
136.09375
 30
0.0
 10
305.0244140625
 20
135.8125
 30
0.0
 10
305.0859375
 20
135.47265625
 30
0.0
 10
305.0859375
 20
135.076171875
 30
0.0
  0
HATCH
  5
708
330
702
100
AcDbEntity
  8
Layer 1
 62
     7
100
AcDbHatch
 10
0.0
 20
0.0
 30
0.0
210
0.0
220
0.0
230
1.0
  2
SOLID
 70
     1
 71
     1
 91
        2
 92
        1
 93
        1
 72
     4
 94
        3
 73
     0
 74
     0
 95
       47
 96
       43
 40
0.0
 40
0.0
 40
0.0
 40
0.0
 40
1.0
 40
1.0
 40
1.0
 40
2.0
 40
2.0
 40
2.0
 40
3.0
 40
3.0
 40
3.0
 40
4.0
 40
4.0
 40
4.0
 40
5.0
 40
5.0
 40
5.0
 40
6.0
 40
6.0
 40
6.0
 40
7.0
 40
7.0
 40
7.0
 40
8.0
 40
8.0
 40
8.0
 40
9.0
 40
9.0
 40
9.0
 40
10.0
 40
10.0
 40
10.0
 40
11.0
 40
11.0
 40
11.0
 40
12.0
 40
12.0
 40
12.0
 40
13.0
 40
13.0
 40
13.0
 40
14.0
 40
14.0
 40
14.0
 40
14.0
 10
301.634765625
 20
135.6533203125
 10
301.634765625
 20
135.1962890625
 10
301.6767578125
 20
134.82421875
 10
301.76171875
 20
134.537109375
 10
301.845703125
 20
134.25
 10
301.9609375
 20
134.0283203125
 10
302.1083984375
 20
133.87109375
 10
302.2412109375
 20
133.7275390625
 10
302.375
 20
133.6279296875
 10
302.509765625
 20
133.5732421875
 10
302.6455078125
 20
133.51953125
 10
302.794921875
 20
133.4921875
 10
302.95703125
 20
133.4921875
 10
303.3271484375
 20
133.4921875
 10
303.6220703125
 20
133.625
 10
303.8408203125
 20
133.8896484375
 10
304.060546875
 20
134.154296875
 10
304.1708984375
 20
134.5380859375
 10
304.1708984375
 20
135.0400390625
 10
304.1708984375
 20
135.322265625
 10
304.134765625
 20
135.5556640625
 10
304.0625
 20
135.7392578125
 10
303.990234375
 20
135.9228515625
 10
303.873046875
 20
136.0810546875
 10
303.7099609375
 20
136.212890625
 10
303.595703125
 20
136.306640625
 10
303.466796875
 20
136.369140625
 10
303.322265625
 20
136.400390625
 10
303.177734375
 20
136.431640625
 10
303.0234375
 20
136.447265625
 10
302.857421875
 20
136.447265625
 10
302.6650390625
 20
136.447265625
 10
302.4580078125
 20
136.4140625
 10
302.2353515625
 20
136.345703125
 10
302.0126953125
 20
136.2783203125
 10
301.818359375
 20
136.189453125
 10
301.6533203125
 20
136.078125
 10
301.650390625
 20
136.0322265625
 10
301.646484375
 20
135.9736328125
 10
301.6416015625
 20
135.8994140625
 10
301.63671875
 20
135.826171875
 10
301.634765625
 20
135.744140625
 10
301.634765625
 20
135.6533203125
 97
        0
 97
        1
330
706
 92
        1
 93
        1
 72
     4
 94
        3
 73
     0
 74
     0
 95
       83
 96
       79
 40
0.0
 40
0.0
 40
0.0
 40
0.0
 40
1.0
 40
1.0
 40
1.0
 40
2.0
 40
2.0
 40
2.0
 40
3.0
 40
3.0
 40
3.0
 40
4.0
 40
4.0
 40
4.0
 40
5.0
 40
5.0
 40
5.0
 40
6.0
 40
6.0
 40
6.0
 40
7.0
 40
7.0
 40
7.0
 40
8.0
 40
8.0
 40
8.0
 40
9.0
 40
9.0
 40
9.0
 40
10.0
 40
10.0
 40
10.0
 40
11.0
 40
11.0
 40
11.0
 40
12.0
 40
12.0
 40
12.0
 40
13.0
 40
13.0
 40
13.0
 40
14.0
 40
14.0
 40
14.0
 40
15.0
 40
15.0
 40
15.0
 40
16.0
 40
16.0
 40
16.0
 40
17.0
 40
17.0
 40
17.0
 40
18.0
 40
18.0
 40
18.0
 40
19.0
 40
19.0
 40
19.0
 40
20.0
 40
20.0
 40
20.0
 40
21.0
 40
21.0
 40
21.0
 40
22.0
 40
22.0
 40
22.0
 40
23.0
 40
23.0
 40
23.0
 40
24.0
 40
24.0
 40
24.0
 40
25.0
 40
25.0
 40
25.0
 40
26.0
 40
26.0
 40
26.0
 40
26.0
 10
305.0859375
 20
135.076171875
 10
305.0859375
 20
134.73046875
 10
305.0302734375
 20
134.4140625
 10
304.9169921875
 20
134.12890625
 10
304.8046875
 20
133.8427734375
 10
304.650390625
 20
133.5966796875
 10
304.455078125
 20
133.388671875
 10
304.2685546875
 20
133.1904296875
 10
304.0400390625
 20
133.03515625
 10
303.771484375
 20
132.923828125
 10
303.501953125
 20
132.8125
 10
303.2294921875
 20
132.7568359375
 10
302.9521484375
 20
132.7568359375
 10
302.642578125
 20
132.7568359375
 10
302.3623046875
 20
132.80859375
 10
302.111328125
 20
132.9130859375
 10
301.859375
 20
133.0166015625
 10
301.642578125
 20
133.166015625
 10
301.458984375
 20
133.361328125
 10
301.2275390625
 20
133.6083984375
 10
301.0478515625
 20
133.931640625
 10
300.919921875
 20
134.33203125
 10
300.7919921875
 20
134.7314453125
 10
300.728515625
 20
135.2373046875
 10
300.728515625
 20
135.84765625
 10
300.728515625
 20
136.404296875
 10
300.7900390625
 20
136.931640625
 10
300.9150390625
 20
137.4287109375
 10
301.0400390625
 20
137.9267578125
 10
301.224609375
 20
138.33984375
 10
301.4677734375
 20
138.6669921875
 10
301.7265625
 20
139.0166015625
 10
302.037109375
 20
139.2822265625
 10
302.3994140625
 20
139.4658203125
 10
302.76171875
 20
139.6494140625
 10
303.2099609375
 20
139.7412109375
 10
303.7421875
 20
139.7412109375
 10
303.8623046875
 20
139.7412109375
 10
303.990234375
 20
139.734375
 10
304.125
 20
139.720703125
 10
304.2607421875
 20
139.70703125
 10
304.38671875
 20
139.6826171875
 10
304.50390625
 20
139.646484375
 10
304.50390625
 20
139.646484375
 10
304.50390625
 20
138.78515625
 10
304.50390625
 20
138.78515625
 10
304.50390625
 20
138.78515625
 10
304.458984375
 20
138.78515625
 10
304.458984375
 20
138.78515625
 10
304.3837890625
 20
138.8271484375
 10
304.2666015625
 20
138.8671875
 10
304.107421875
 20
138.90625
 10
303.9482421875
 20
138.9453125
 10
303.78515625
 20
138.96484375
 10
303.6201171875
 20
138.96484375
 10
303.0302734375
 20
138.96484375
 10
302.5673828125
 20
138.771484375
 10
302.23046875
 20
138.3828125
 10
301.8935546875
 20
137.9951171875
 10
301.7021484375
 20
137.4404296875
 10
301.6572265625
 20
136.71875
 10
301.8984375
 20
136.880859375
 10
302.1279296875
 20
137.0
 10
302.345703125
 20
137.0751953125
 10
302.5634765625
 20
137.150390625
 10
302.80078125
 20
137.1875
 10
303.0556640625
 20
137.1875
 10
303.3056640625
 20
137.1875
 10
303.533203125
 20
137.16015625
 10
303.7373046875
 20
137.1064453125
 10
303.9423828125
 20
137.0517578125
 10
304.1484375
 20
136.947265625
 10
304.35546875
 20
136.7900390625
 10
304.595703125
 20
136.607421875
 10
304.7783203125
 20
136.375
 10
304.9013671875
 20
136.09375
 10
305.0244140625
 20
135.8125
 10
305.0859375
 20
135.47265625
 10
305.0859375
 20
135.076171875
 97
        0
 97
        1
330
707
 75
     2
 76
     1
 98
        1
 10
0.0
 20
0.0
450
        0
451
        0
460
0.0
461
0.0
452
        0
462
0.0
453
        0
470

  0
ENDBLK
  5
709
330
702
100
AcDbEntity
  8
0
100
AcDbBlockEnd
  0
BLOCK
  5
70B
330
70A
100
AcDbEntity
  8
0
100
AcDbBlockBegin
  2
Block_14
 70
     0
 10
0.0
 20
0.0
 30
0.0
  3
Block_14
  1

  0
INSERT
  5
70C
330
70A
100
AcDbEntity
  8
Layer 1
100
AcDbBlockReference
  2
Block_15
 10
0.0
 20
0.0
 30
0.0
  0
ENDBLK
  5
70D
330
70A
100
AcDbEntity
  8
0
100
AcDbBlockEnd
  0
BLOCK
  5
70F
330
70E
100
AcDbEntity
  8
0
100
AcDbBlockBegin
  2
Block_15
 70
     0
 10
0.0
 20
0.0
 30
0.0
  3
Block_15
  1

  0
SPLINE
  5
710
330
70E
100
AcDbEntity
  8
Layer 1
100
AcDbSpline
210
0.0
220
0.0
230
1.0
 70
     9
 71
     3
 72
    35
 73
    31
 74
     0
 42
0.000000001
 43
0.0000000001
 40
0.0
 40
0.0
 40
0.0
 40
0.0
 40
1.0
 40
1.0
 40
1.0
 40
2.0
 40
2.0
 40
2.0
 40
3.0
 40
3.0
 40
3.0
 40
4.0
 40
4.0
 40
4.0
 40
5.0
 40
5.0
 40
5.0
 40
6.0
 40
6.0
 40
6.0
 40
7.0
 40
7.0
 40
7.0
 40
8.0
 40
8.0
 40
8.0
 40
9.0
 40
9.0
 40
9.0
 40
10.0
 40
10.0
 40
10.0
 40
10.0
 10
159.9130859375
 20
578.1035156249999
 30
0.0
 10
159.63623046875
 20
578.1035156249999
 30
0.0
 10
159.4169921875
 20
578.04931640625
 30
0.0
 10
159.25439453125
 20
577.9414062499999
 30
0.0
 10
159.091796875
 20
577.8330078125
 30
0.0
 10
158.9267578125
 20
577.6240234374999
 30
0.0
 10
158.75830078125
 20
577.3139648437499
 30
0.0
 10
158.701171875
 20
577.2119140625
 30
0.0
 10
158.63916015625
 20
577.07568359375
 30
0.0
 10
158.5732421875
 20
576.90576171875
 30
0.0
 10
158.5068359375
 20
576.73583984375
 30
0.0
 10
158.4287109375
 20
576.5439453125
 30
0.0
 10
158.33837890625
 20
576.33056640625
 30
0.0
 10
158.50390625
 20
576.0810546874999
 30
0.0
 10
158.70751953125
 20
575.8901367187499
 30
0.0
 10
158.94970703125
 20
575.7578125
 30
0.0
 10
159.19189453125
 20
575.625
 30
0.0
 10
159.4677734375
 20
575.55908203125
 30
0.0
 10
159.77783203125
 20
575.55908203125
 30
0.0
 10
160.18359375
 20
575.55908203125
 30
0.0
 10
160.51904296875
 20
575.681640625
 30
0.0
 10
160.78369140625
 20
575.9267578124999
 30
0.0
 10
161.04833984375
 20
576.171875
 30
0.0
 10
161.1806640625
 20
576.4794921875
 30
0.0
 10
161.1806640625
 20
576.849609375
 30
0.0
 10
161.1806640625
 20
577.2285156249999
 30
0.0
 10
161.0673828125
 20
577.5322265625
 30
0.0
 10
160.84033203125
 20
577.7607421875
 30
0.0
 10
160.61328125
 20
577.9892578124999
 30
0.0
 10
160.30419921875
 20
578.1035156249999
 30
0.0
 10
159.9130859375
 20
578.1035156249999
 30
0.0
  0
SPLINE
  5
711
330
70E
100
AcDbEntity
  8
Layer 1
100
AcDbSpline
210
0.0
220
0.0
230
1.0
 70
     9
 71
     3
 72
    35
 73
    31
 74
     0
 42
0.000000001
 43
0.0000000001
 40
0.0
 40
0.0
 40
0.0
 40
0.0
 40
1.0
 40
1.0
 40
1.0
 40
2.0
 40
2.0
 40
2.0
 40
3.0
 40
3.0
 40
3.0
 40
4.0
 40
4.0
 40
4.0
 40
5.0
 40
5.0
 40
5.0
 40
6.0
 40
6.0
 40
6.0
 40
7.0
 40
7.0
 40
7.0
 40
8.0
 40
8.0
 40
8.0
 40
9.0
 40
9.0
 40
9.0
 40
10.0
 40
10.0
 40
10.0
 40
10.0
 10
156.54736328125
 20
577.9775390624999
 30
0.0
 10
156.24658203125
 20
577.9775390624999
 30
0.0
 10
155.99560546875
 20
577.8764648437499
 30
0.0
 10
155.7939453125
 20
577.67529296875
 30
0.0
 10
155.59228515625
 20
577.4736328124999
 30
0.0
 10
155.49169921875
 20
577.19384765625
 30
0.0
 10
155.49169921875
 20
576.8359375
 30
0.0
 10
155.49169921875
 20
576.5078125
 30
0.0
 10
155.58203125
 20
576.2397460937499
 30
0.0
 10
155.76220703125
 20
576.03076171875
 30
0.0
 10
155.94287109375
 20
575.8212890624999
 30
0.0
 10
156.1865234375
 20
575.716796875
 30
0.0
 10
156.4931640625
 20
575.716796875
 30
0.0
 10
156.7158203125
 20
575.716796875
 30
0.0
 10
156.90380859375
 20
575.7705078125
 30
0.0
 10
157.05712890625
 20
575.876953125
 30
0.0
 10
157.21044921875
 20
575.9838867187499
 30
0.0
 10
157.34912109375
 20
576.14404296875
 30
0.0
 10
157.47216796875
 20
576.357421875
 30
0.0
 10
157.5234375
 20
576.45068359375
 30
0.0
 10
157.59423828125
 20
576.5927734375
 30
0.0
 10
157.68408203125
 20
576.7841796875
 30
0.0
 10
157.7744140625
 20
576.97509765625
 30
0.0
 10
157.84521484375
 20
577.14892578125
 30
0.0
 10
157.896484375
 20
577.30517578125
 30
0.0
 10
157.69482421875
 20
577.5668945312499
 30
0.0
 10
157.48779296875
 20
577.744140625
 30
0.0
 10
157.27587890625
 20
577.83740234375
 30
0.0
 10
157.06396484375
 20
577.9306640625
 30
0.0
 10
156.8212890625
 20
577.9775390624999
 30
0.0
 10
156.54736328125
 20
577.9775390624999
 30
0.0
  0
SPLINE
  5
712
330
70E
100
AcDbEntity
  8
Layer 1
100
AcDbSpline
210
0.0
220
0.0
230
1.0
 70
     9
 71
     3
 72
    65
 73
    61
 74
     0
 42
0.000000001
 43
0.0000000001
 40
0.0
 40
0.0
 40
0.0
 40
0.0
 40
1.0
 40
1.0
 40
1.0
 40
2.0
 40
2.0
 40
2.0
 40
3.0
 40
3.0
 40
3.0
 40
4.0
 40
4.0
 40
4.0
 40
5.0
 40
5.0
 40
5.0
 40
6.0
 40
6.0
 40
6.0
 40
7.0
 40
7.0
 40
7.0
 40
8.0
 40
8.0
 40
8.0
 40
9.0
 40
9.0
 40
9.0
 40
10.0
 40
10.0
 40
10.0
 40
11.0
 40
11.0
 40
11.0
 40
12.0
 40
12.0
 40
12.0
 40
13.0
 40
13.0
 40
13.0
 40
14.0
 40
14.0
 40
14.0
 40
15.0
 40
15.0
 40
15.0
 40
16.0
 40
16.0
 40
16.0
 40
17.0
 40
17.0
 40
17.0
 40
18.0
 40
18.0
 40
18.0
 40
19.0
 40
19.0
 40
19.0
 40
20.0
 40
20.0
 40
20.0
 40
20.0
 10
161.85302734375
 20
576.84033203125
 30
0.0
 10
161.85302734375
 20
576.50634765625
 30
0.0
 10
161.8037109375
 20
576.20263671875
 30
0.0
 10
161.7041015625
 20
575.92919921875
 30
0.0
 10
161.60498046875
 20
575.6552734375
 30
0.0
 10
161.4619140625
 20
575.4223632812499
 30
0.0
 10
161.275390625
 20
575.2294921875
 30
0.0
 10
161.09521484375
 20
575.0400390624999
 30
0.0
 10
160.880859375
 20
574.896484375
 30
0.0
 10
160.6328125
 20
574.798828125
 30
0.0
 10
160.384765625
 20
574.701171875
 30
0.0
 10
160.1220703125
 20
574.65234375
 30
0.0
 10
159.84521484375
 20
574.65234375
 30
0.0
 10
159.4814453125
 20
574.65234375
 30
0.0
 10
159.14697265625
 20
574.7490234375
 30
0.0
 10
158.84130859375
 20
574.943359375
 30
0.0
 10
158.5361328125
 20
575.1372070312499
 30
0.0
 10
158.29345703125
 20
575.41943359375
 30
0.0
 10
158.11279296875
 20
575.7890624999999
 30
0.0
 10
158.11279296875
 20
575.7890624999999
 30
0.0
 10
158.0859375
 20
575.7890624999999
 30
0.0
 10
158.0859375
 20
575.7890624999999
 30
0.0
 10
157.8935546875
 20
575.4584960937499
 30
0.0
 10
157.6826171875
 20
575.21337890625
 30
0.0
 10
157.4541015625
 20
575.0537109375
 30
0.0
 10
157.2255859375
 20
574.89453125
 30
0.0
 10
156.93994140625
 20
574.814453125
 30
0.0
 10
156.59716796875
 20
574.814453125
 30
0.0
 10
156.091796875
 20
574.814453125
 30
0.0
 10
155.67041015625
 20
575.005859375
 30
0.0
 10
155.33349609375
 20
575.3876953125
 30
0.0
 10
154.9970703125
 20
575.76953125
 30
0.0
 10
154.828125
 20
576.25390625
 30
0.0
 10
154.828125
 20
576.84033203125
 30
0.0
 10
154.828125
 20
577.451171875
 30
0.0
 10
154.98876953125
 20
577.9404296874999
 30
0.0
 10
155.30908203125
 20
578.30908203125
 30
0.0
 10
155.62939453125
 20
578.6772460937499
 30
0.0
 10
156.0390625
 20
578.86181640625
 30
0.0
 10
156.5380859375
 20
578.86181640625
 30
0.0
 10
156.8388671875
 20
578.86181640625
 30
0.0
 10
157.13671875
 20
578.7734375
 30
0.0
 10
157.431640625
 20
578.59765625
 30
0.0
 10
157.7265625
 20
578.4218749999999
 30
0.0
 10
157.95654296875
 20
578.1684570312499
 30
0.0
 10
158.1220703125
 20
577.83740234375
 30
0.0
 10
158.1220703125
 20
577.83740234375
 30
0.0
 10
158.14892578125
 20
577.83740234375
 30
0.0
 10
158.14892578125
 20
577.83740234375
 30
0.0
 10
158.33251953125
 20
578.228515625
 30
0.0
 10
158.55517578125
 20
578.52490234375
 30
0.0
 10
158.81689453125
 20
578.7260742187499
 30
0.0
 10
159.07861328125
 20
578.927734375
 30
0.0
 10
159.41552734375
 20
579.02880859375
 30
0.0
 10
159.8271484375
 20
579.02880859375
 30
0.0
 10
160.40185546875
 20
579.02880859375
 30
0.0
 10
160.88330078125
 20
578.8203124999999
 30
0.0
 10
161.27099609375
 20
578.40380859375
 30
0.0
 10
161.6591796875
 20
577.9873046875
 30
0.0
 10
161.85302734375
 20
577.4658203125
 30
0.0
 10
161.85302734375
 20
576.84033203125
 30
0.0
  0
HATCH
  5
713
330
70E
100
AcDbEntity
  8
Layer 1
 62
     7
100
AcDbHatch
 10
0.0
 20
0.0
 30
0.0
210
0.0
220
0.0
230
1.0
  2
SOLID
 70
     1
 71
     1
 91
        3
 92
        1
 93
        1
 72
     4
 94
        3
 73
     0
 74
     0
 95
       35
 96
       31
 40
0.0
 40
0.0
 40
0.0
 40
0.0
 40
1.0
 40
1.0
 40
1.0
 40
2.0
 40
2.0
 40
2.0
 40
3.0
 40
3.0
 40
3.0
 40
4.0
 40
4.0
 40
4.0
 40
5.0
 40
5.0
 40
5.0
 40
6.0
 40
6.0
 40
6.0
 40
7.0
 40
7.0
 40
7.0
 40
8.0
 40
8.0
 40
8.0
 40
9.0
 40
9.0
 40
9.0
 40
10.0
 40
10.0
 40
10.0
 40
10.0
 10
159.9130859375
 20
578.1035156249999
 10
159.63623046875
 20
578.1035156249999
 10
159.4169921875
 20
578.04931640625
 10
159.25439453125
 20
577.9414062499999
 10
159.091796875
 20
577.8330078125
 10
158.9267578125
 20
577.6240234374999
 10
158.75830078125
 20
577.3139648437499
 10
158.701171875
 20
577.2119140625
 10
158.63916015625
 20
577.07568359375
 10
158.5732421875
 20
576.90576171875
 10
158.5068359375
 20
576.73583984375
 10
158.4287109375
 20
576.5439453125
 10
158.33837890625
 20
576.33056640625
 10
158.50390625
 20
576.0810546874999
 10
158.70751953125
 20
575.8901367187499
 10
158.94970703125
 20
575.7578125
 10
159.19189453125
 20
575.625
 10
159.4677734375
 20
575.55908203125
 10
159.77783203125
 20
575.55908203125
 10
160.18359375
 20
575.55908203125
 10
160.51904296875
 20
575.681640625
 10
160.78369140625
 20
575.9267578124999
 10
161.04833984375
 20
576.171875
 10
161.1806640625
 20
576.4794921875
 10
161.1806640625
 20
576.849609375
 10
161.1806640625
 20
577.2285156249999
 10
161.0673828125
 20
577.5322265625
 10
160.84033203125
 20
577.7607421875
 10
160.61328125
 20
577.9892578124999
 10
160.30419921875
 20
578.1035156249999
 10
159.9130859375
 20
578.1035156249999
 97
        0
 97
        1
330
710
 92
        1
 93
        1
 72
     4
 94
        3
 73
     0
 74
     0
 95
       35
 96
       31
 40
0.0
 40
0.0
 40
0.0
 40
0.0
 40
1.0
 40
1.0
 40
1.0
 40
2.0
 40
2.0
 40
2.0
 40
3.0
 40
3.0
 40
3.0
 40
4.0
 40
4.0
 40
4.0
 40
5.0
 40
5.0
 40
5.0
 40
6.0
 40
6.0
 40
6.0
 40
7.0
 40
7.0
 40
7.0
 40
8.0
 40
8.0
 40
8.0
 40
9.0
 40
9.0
 40
9.0
 40
10.0
 40
10.0
 40
10.0
 40
10.0
 10
156.54736328125
 20
577.9775390624999
 10
156.24658203125
 20
577.9775390624999
 10
155.99560546875
 20
577.8764648437499
 10
155.7939453125
 20
577.67529296875
 10
155.59228515625
 20
577.4736328124999
 10
155.49169921875
 20
577.19384765625
 10
155.49169921875
 20
576.8359375
 10
155.49169921875
 20
576.5078125
 10
155.58203125
 20
576.2397460937499
 10
155.76220703125
 20
576.03076171875
 10
155.94287109375
 20
575.8212890624999
 10
156.1865234375
 20
575.716796875
 10
156.4931640625
 20
575.716796875
 10
156.7158203125
 20
575.716796875
 10
156.90380859375
 20
575.7705078125
 10
157.05712890625
 20
575.876953125
 10
157.21044921875
 20
575.9838867187499
 10
157.34912109375
 20
576.14404296875
 10
157.47216796875
 20
576.357421875
 10
157.5234375
 20
576.45068359375
 10
157.59423828125
 20
576.5927734375
 10
157.68408203125
 20
576.7841796875
 10
157.7744140625
 20
576.97509765625
 10
157.84521484375
 20
577.14892578125
 10
157.896484375
 20
577.30517578125
 10
157.69482421875
 20
577.5668945312499
 10
157.48779296875
 20
577.744140625
 10
157.27587890625
 20
577.83740234375
 10
157.06396484375
 20
577.9306640625
 10
156.8212890625
 20
577.9775390624999
 10
156.54736328125
 20
577.9775390624999
 97
        0
 97
        1
330
711
 92
        1
 93
        1
 72
     4
 94
        3
 73
     0
 74
     0
 95
       65
 96
       61
 40
0.0
 40
0.0
 40
0.0
 40
0.0
 40
1.0
 40
1.0
 40
1.0
 40
2.0
 40
2.0
 40
2.0
 40
3.0
 40
3.0
 40
3.0
 40
4.0
 40
4.0
 40
4.0
 40
5.0
 40
5.0
 40
5.0
 40
6.0
 40
6.0
 40
6.0
 40
7.0
 40
7.0
 40
7.0
 40
8.0
 40
8.0
 40
8.0
 40
9.0
 40
9.0
 40
9.0
 40
10.0
 40
10.0
 40
10.0
 40
11.0
 40
11.0
 40
11.0
 40
12.0
 40
12.0
 40
12.0
 40
13.0
 40
13.0
 40
13.0
 40
14.0
 40
14.0
 40
14.0
 40
15.0
 40
15.0
 40
15.0
 40
16.0
 40
16.0
 40
16.0
 40
17.0
 40
17.0
 40
17.0
 40
18.0
 40
18.0
 40
18.0
 40
19.0
 40
19.0
 40
19.0
 40
20.0
 40
20.0
 40
20.0
 40
20.0
 10
161.85302734375
 20
576.84033203125
 10
161.85302734375
 20
576.50634765625
 10
161.8037109375
 20
576.20263671875
 10
161.7041015625
 20
575.92919921875
 10
161.60498046875
 20
575.6552734375
 10
161.4619140625
 20
575.4223632812499
 10
161.275390625
 20
575.2294921875
 10
161.09521484375
 20
575.0400390624999
 10
160.880859375
 20
574.896484375
 10
160.6328125
 20
574.798828125
 10
160.384765625
 20
574.701171875
 10
160.1220703125
 20
574.65234375
 10
159.84521484375
 20
574.65234375
 10
159.4814453125
 20
574.65234375
 10
159.14697265625
 20
574.7490234375
 10
158.84130859375
 20
574.943359375
 10
158.5361328125
 20
575.1372070312499
 10
158.29345703125
 20
575.41943359375
 10
158.11279296875
 20
575.7890624999999
 10
158.11279296875
 20
575.7890624999999
 10
158.0859375
 20
575.7890624999999
 10
158.0859375
 20
575.7890624999999
 10
157.8935546875
 20
575.4584960937499
 10
157.6826171875
 20
575.21337890625
 10
157.4541015625
 20
575.0537109375
 10
157.2255859375
 20
574.89453125
 10
156.93994140625
 20
574.814453125
 10
156.59716796875
 20
574.814453125
 10
156.091796875
 20
574.814453125
 10
155.67041015625
 20
575.005859375
 10
155.33349609375
 20
575.3876953125
 10
154.9970703125
 20
575.76953125
 10
154.828125
 20
576.25390625
 10
154.828125
 20
576.84033203125
 10
154.828125
 20
577.451171875
 10
154.98876953125
 20
577.9404296874999
 10
155.30908203125
 20
578.30908203125
 10
155.62939453125
 20
578.6772460937499
 10
156.0390625
 20
578.86181640625
 10
156.5380859375
 20
578.86181640625
 10
156.8388671875
 20
578.86181640625
 10
157.13671875
 20
578.7734375
 10
157.431640625
 20
578.59765625
 10
157.7265625
 20
578.4218749999999
 10
157.95654296875
 20
578.1684570312499
 10
158.1220703125
 20
577.83740234375
 10
158.1220703125
 20
577.83740234375
 10
158.14892578125
 20
577.83740234375
 10
158.14892578125
 20
577.83740234375
 10
158.33251953125
 20
578.228515625
 10
158.55517578125
 20
578.52490234375
 10
158.81689453125
 20
578.7260742187499
 10
159.07861328125
 20
578.927734375
 10
159.41552734375
 20
579.02880859375
 10
159.8271484375
 20
579.02880859375
 10
160.40185546875
 20
579.02880859375
 10
160.88330078125
 20
578.8203124999999
 10
161.27099609375
 20
578.40380859375
 10
161.6591796875
 20
577.9873046875
 10
161.85302734375
 20
577.4658203125
 10
161.85302734375
 20
576.84033203125
 97
        0
 97
        1
330
712
 75
     2
 76
     1
 98
        1
 10
0.0
 20
0.0
450
        0
451
        0
460
0.0
461
0.0
452
        0
462
0.0
453
        0
470

  0
SPLINE
  5
714
330
70E
100
AcDbEntity
  8
Layer 1
100
AcDbSpline
210
0.0
220
0.0
230
1.0
 70
     9
 71
     3
 72
    53
 73
    49
 74
     0
 42
0.000000001
 43
0.0000000001
 40
0.0
 40
0.0
 40
0.0
 40
0.0
 40
1.0
 40
1.0
 40
1.0
 40
2.0
 40
2.0
 40
2.0
 40
3.0
 40
3.0
 40
3.0
 40
4.0
 40
4.0
 40
4.0
 40
5.0
 40
5.0
 40
5.0
 40
6.0
 40
6.0
 40
6.0
 40
7.0
 40
7.0
 40
7.0
 40
8.0
 40
8.0
 40
8.0
 40
9.0
 40
9.0
 40
9.0
 40
10.0
 40
10.0
 40
10.0
 40
11.0
 40
11.0
 40
11.0
 40
12.0
 40
12.0
 40
12.0
 40
13.0
 40
13.0
 40
13.0
 40
14.0
 40
14.0
 40
14.0
 40
15.0
 40
15.0
 40
15.0
 40
16.0
 40
16.0
 40
16.0
 40
16.0
 10
160.38671875
 20
582.8769531249999
 30
0.0
 10
160.1640625
 20
582.96435546875
 30
0.0
 10
159.8828125
 20
583.02587890625
 30
0.0
 10
159.54296875
 20
583.06201171875
 30
0.0
 10
159.203125
 20
583.09814453125
 30
0.0
 10
158.8017578125
 20
583.1162109374999
 30
0.0
 10
158.33837890625
 20
583.1162109374999
 30
0.0
 10
157.87841796875
 20
583.1162109374999
 30
0.0
 10
157.478515625
 20
583.09814453125
 30
0.0
 10
157.13818359375
 20
583.06201171875
 30
0.0
 10
156.79833984375
 20
583.02587890625
 30
0.0
 10
156.515625
 20
582.9628906249999
 30
0.0
 10
156.2900390625
 20
582.8725585937499
 30
0.0
 10
156.0615234375
 20
582.7822265625
 30
0.0
 10
155.8876953125
 20
582.658203125
 30
0.0
 10
155.76904296875
 20
582.5
 30
0.0
 10
155.650390625
 20
582.34228515625
 30
0.0
 10
155.5908203125
 20
582.13720703125
 30
0.0
 10
155.5908203125
 20
581.8842773437499
 30
0.0
 10
155.5908203125
 20
581.634765625
 30
0.0
 10
155.650390625
 20
581.42919921875
 30
0.0
 10
155.76904296875
 20
581.2685546875
 30
0.0
 10
155.8876953125
 20
581.1074218749999
 30
0.0
 10
156.064453125
 20
580.9804687499999
 30
0.0
 10
156.29931640625
 20
580.8872070312499
 30
0.0
 10
156.52783203125
 20
580.7968749999999
 30
0.0
 10
156.81640625
 20
580.7353515625
 30
0.0
 10
157.16552734375
 20
580.7021484375
 30
0.0
 10
157.51416015625
 20
580.6689453125
 30
0.0
 10
157.908203125
 20
580.65283203125
 30
0.0
 10
158.34765625
 20
580.65283203125
 30
0.0
 10
158.81689453125
 20
580.65283203125
 30
0.0
 10
159.20947265625
 20
580.6669921874999
 30
0.0
 10
159.52490234375
 20
580.6953124999999
 30
0.0
 10
159.8408203125
 20
580.7241210937499
 30
0.0
 10
160.12353515625
 20
580.78662109375
 30
0.0
 10
160.373046875
 20
580.8828124999999
 30
0.0
 10
160.60498046875
 20
580.9697265625
 30
0.0
 10
160.783203125
 20
581.0942382812499
 30
0.0
 10
160.90771484375
 20
581.2548828125
 30
0.0
 10
161.03271484375
 20
581.4160156249999
 30
0.0
 10
161.09521484375
 20
581.62548828125
 30
0.0
 10
161.09521484375
 20
581.8842773437499
 30
0.0
 10
161.09521484375
 20
582.1337890625
 30
0.0
 10
161.03564453125
 20
582.3393554687499
 30
0.0
 10
160.9169921875
 20
582.5
 30
0.0
 10
160.79833984375
 20
582.6611328124999
 30
0.0
 10
160.62158203125
 20
582.7866210937499
 30
0.0
 10
160.38671875
 20
582.8769531249999
 30
0.0
  0
SPLINE
  5
715
330
70E
100
AcDbEntity
  8
Layer 1
100
AcDbSpline
210
0.0
220
0.0
230
1.0
 70
     9
 71
     3
 72
    29
 73
    25
 74
     0
 42
0.000000001
 43
0.0000000001
 40
0.0
 40
0.0
 40
0.0
 40
0.0
 40
1.0
 40
1.0
 40
1.0
 40
2.0
 40
2.0
 40
2.0
 40
3.0
 40
3.0
 40
3.0
 40
4.0
 40
4.0
 40
4.0
 40
5.0
 40
5.0
 40
5.0
 40
6.0
 40
6.0
 40
6.0
 40
7.0
 40
7.0
 40
7.0
 40
8.0
 40
8.0
 40
8.0
 40
8.0
 10
158.33837890625
 20
584.0317382812499
 30
0.0
 10
159.54443359375
 20
584.0317382812499
 30
0.0
 10
160.4296875
 20
583.8564453125
 30
0.0
 10
160.99365234375
 20
583.50634765625
 30
0.0
 10
161.5576171875
 20
583.15576171875
 30
0.0
 10
161.83935546875
 20
582.615234375
 30
0.0
 10
161.83935546875
 20
581.8842773437499
 30
0.0
 10
161.83935546875
 20
581.14453125
 30
0.0
 10
161.55224609375
 20
580.6015624999999
 30
0.0
 10
160.97802734375
 20
580.2558593749999
 30
0.0
 10
160.4033203125
 20
579.90966796875
 30
0.0
 10
159.5263671875
 20
579.73681640625
 30
0.0
 10
158.34765625
 20
579.73681640625
 30
0.0
 10
157.13525390625
 20
579.73681640625
 30
0.0
 10
156.2490234375
 20
579.912109375
 30
0.0
 10
155.68798828125
 20
580.26220703125
 30
0.0
 10
155.126953125
 20
580.61279296875
 30
0.0
 10
154.84619140625
 20
581.1533203125
 30
0.0
 10
154.84619140625
 20
581.8842773437499
 30
0.0
 10
154.84619140625
 20
582.6245117187499
 30
0.0
 10
155.13671875
 20
583.1669921875
 30
0.0
 10
155.71728515625
 20
583.51318359375
 30
0.0
 10
156.2978515625
 20
583.85888671875
 30
0.0
 10
157.17138671875
 20
584.0317382812499
 30
0.0
 10
158.33837890625
 20
584.0317382812499
 30
0.0
  0
HATCH
  5
716
330
70E
100
AcDbEntity
  8
Layer 1
 62
     7
100
AcDbHatch
 10
0.0
 20
0.0
 30
0.0
210
0.0
220
0.0
230
1.0
  2
SOLID
 70
     1
 71
     1
 91
        2
 92
        1
 93
        1
 72
     4
 94
        3
 73
     0
 74
     0
 95
       53
 96
       49
 40
0.0
 40
0.0
 40
0.0
 40
0.0
 40
1.0
 40
1.0
 40
1.0
 40
2.0
 40
2.0
 40
2.0
 40
3.0
 40
3.0
 40
3.0
 40
4.0
 40
4.0
 40
4.0
 40
5.0
 40
5.0
 40
5.0
 40
6.0
 40
6.0
 40
6.0
 40
7.0
 40
7.0
 40
7.0
 40
8.0
 40
8.0
 40
8.0
 40
9.0
 40
9.0
 40
9.0
 40
10.0
 40
10.0
 40
10.0
 40
11.0
 40
11.0
 40
11.0
 40
12.0
 40
12.0
 40
12.0
 40
13.0
 40
13.0
 40
13.0
 40
14.0
 40
14.0
 40
14.0
 40
15.0
 40
15.0
 40
15.0
 40
16.0
 40
16.0
 40
16.0
 40
16.0
 10
160.38671875
 20
582.8769531249999
 10
160.1640625
 20
582.96435546875
 10
159.8828125
 20
583.02587890625
 10
159.54296875
 20
583.06201171875
 10
159.203125
 20
583.09814453125
 10
158.8017578125
 20
583.1162109374999
 10
158.33837890625
 20
583.1162109374999
 10
157.87841796875
 20
583.1162109374999
 10
157.478515625
 20
583.09814453125
 10
157.13818359375
 20
583.06201171875
 10
156.79833984375
 20
583.02587890625
 10
156.515625
 20
582.9628906249999
 10
156.2900390625
 20
582.8725585937499
 10
156.0615234375
 20
582.7822265625
 10
155.8876953125
 20
582.658203125
 10
155.76904296875
 20
582.5
 10
155.650390625
 20
582.34228515625
 10
155.5908203125
 20
582.13720703125
 10
155.5908203125
 20
581.8842773437499
 10
155.5908203125
 20
581.634765625
 10
155.650390625
 20
581.42919921875
 10
155.76904296875
 20
581.2685546875
 10
155.8876953125
 20
581.1074218749999
 10
156.064453125
 20
580.9804687499999
 10
156.29931640625
 20
580.8872070312499
 10
156.52783203125
 20
580.7968749999999
 10
156.81640625
 20
580.7353515625
 10
157.16552734375
 20
580.7021484375
 10
157.51416015625
 20
580.6689453125
 10
157.908203125
 20
580.65283203125
 10
158.34765625
 20
580.65283203125
 10
158.81689453125
 20
580.65283203125
 10
159.20947265625
 20
580.6669921874999
 10
159.52490234375
 20
580.6953124999999
 10
159.8408203125
 20
580.7241210937499
 10
160.12353515625
 20
580.78662109375
 10
160.373046875
 20
580.8828124999999
 10
160.60498046875
 20
580.9697265625
 10
160.783203125
 20
581.0942382812499
 10
160.90771484375
 20
581.2548828125
 10
161.03271484375
 20
581.4160156249999
 10
161.09521484375
 20
581.62548828125
 10
161.09521484375
 20
581.8842773437499
 10
161.09521484375
 20
582.1337890625
 10
161.03564453125
 20
582.3393554687499
 10
160.9169921875
 20
582.5
 10
160.79833984375
 20
582.6611328124999
 10
160.62158203125
 20
582.7866210937499
 10
160.38671875
 20
582.8769531249999
 97
        0
 97
        1
330
714
 92
        1
 93
        1
 72
     4
 94
        3
 73
     0
 74
     0
 95
       29
 96
       25
 40
0.0
 40
0.0
 40
0.0
 40
0.0
 40
1.0
 40
1.0
 40
1.0
 40
2.0
 40
2.0
 40
2.0
 40
3.0
 40
3.0
 40
3.0
 40
4.0
 40
4.0
 40
4.0
 40
5.0
 40
5.0
 40
5.0
 40
6.0
 40
6.0
 40
6.0
 40
7.0
 40
7.0
 40
7.0
 40
8.0
 40
8.0
 40
8.0
 40
8.0
 10
158.33837890625
 20
584.0317382812499
 10
159.54443359375
 20
584.0317382812499
 10
160.4296875
 20
583.8564453125
 10
160.99365234375
 20
583.50634765625
 10
161.5576171875
 20
583.15576171875
 10
161.83935546875
 20
582.615234375
 10
161.83935546875
 20
581.8842773437499
 10
161.83935546875
 20
581.14453125
 10
161.55224609375
 20
580.6015624999999
 10
160.97802734375
 20
580.2558593749999
 10
160.4033203125
 20
579.90966796875
 10
159.5263671875
 20
579.73681640625
 10
158.34765625
 20
579.73681640625
 10
157.13525390625
 20
579.73681640625
 10
156.2490234375
 20
579.912109375
 10
155.68798828125
 20
580.26220703125
 10
155.126953125
 20
580.61279296875
 10
154.84619140625
 20
581.1533203125
 10
154.84619140625
 20
581.8842773437499
 10
154.84619140625
 20
582.6245117187499
 10
155.13671875
 20
583.1669921875
 10
155.71728515625
 20
583.51318359375
 10
156.2978515625
 20
583.85888671875
 10
157.17138671875
 20
584.0317382812499
 10
158.33837890625
 20
584.0317382812499
 97
        0
 97
        1
330
715
 75
     2
 76
     1
 98
        1
 10
0.0
 20
0.0
450
        0
451
        0
460
0.0
461
0.0
452
        0
462
0.0
453
        0
470

  0
ENDBLK
  5
717
330
70E
100
AcDbEntity
  8
0
100
AcDbBlockEnd
  0
BLOCK
  5
91B
330
91A
100
AcDbEntity
  8
0
100
AcDbBlockBegin
  2
SW_CENTERMARKSYMBOL_0
 70
     0
 10
0.0
 20
0.0
 30
0.0
  3
SW_CENTERMARKSYMBOL_0
  1

  0
LINE
  5
91C
330
91A
100
AcDbEntity
  8
0
  6
Continuous
 62
     0
100
AcDbLine
 10
0.0
 20
0.0
 30
0.0
 11
0.0
 21
0.508
 31
0.0
  0
LINE
  5
91D
330
91A
100
AcDbEntity
  8
0
  6
Continuous
 62
     0
100
AcDbLine
 10
0.0
 20
0.0
 30
0.0
 11
-0.508
 21
0.0
 31
0.0
  0
LINE
  5
91E
330
91A
100
AcDbEntity
  8
0
  6
Continuous
 62
     0
100
AcDbLine
 10
0.0
 20
0.0
 30
0.0
 11
0.0
 21
-0.508
 31
0.0
  0
LINE
  5
91F
330
91A
100
AcDbEntity
  8
0
  6
Continuous
 62
     0
100
AcDbLine
 10
0.0
 20
0.0
 30
0.0
 11
0.508
 21
0.0
 31
0.0
  0
LINE
  5
920
330
91A
100
AcDbEntity
  8
0
  6
Continuous
 62
     0
100
AcDbLine
 10
0.0
 20
1.016
 30
0.0
 11
0.0
 21
4.008
 31
0.0
  0
LINE
  5
921
330
91A
100
AcDbEntity
  8
0
  6
Continuous
 62
     0
100
AcDbLine
 10
-1.016
 20
0.0
 30
0.0
 11
-4.008
 21
0.0
 31
0.0
  0
LINE
  5
922
330
91A
100
AcDbEntity
  8
0
  6
Continuous
 62
     0
100
AcDbLine
 10
0.0
 20
-1.016
 30
0.0
 11
0.0
 21
-4.008
 31
0.0
  0
LINE
  5
923
330
91A
100
AcDbEntity
  8
0
  6
Continuous
 62
     0
100
AcDbLine
 10
1.016
 20
0.0
 30
0.0
 11
4.008
 21
0.0
 31
0.0
  0
ENDBLK
  5
924
330
91A
100
AcDbEntity
  8
0
100
AcDbBlockEnd
  0
BLOCK
  5
926
330
925
100
AcDbEntity
  8
0
100
AcDbBlockBegin
  2
SW_CENTERMARKSYMBOL_1
 70
     0
 10
0.0
 20
0.0
 30
0.0
  3
SW_CENTERMARKSYMBOL_1
  1

  0
LINE
  5
927
330
925
100
AcDbEntity
  8
0
  6
Continuous
 62
     0
100
AcDbLine
 10
0.0
 20
0.0
 30
0.0
 11
0.0
 21
0.508
 31
0.0
  0
LINE
  5
928
330
925
100
AcDbEntity
  8
0
  6
Continuous
 62
     0
100
AcDbLine
 10
0.0
 20
0.0
 30
0.0
 11
-0.508
 21
0.0
 31
0.0
  0
LINE
  5
929
330
925
100
AcDbEntity
  8
0
  6
Continuous
 62
     0
100
AcDbLine
 10
0.0
 20
0.0
 30
0.0
 11
0.0
 21
-0.508
 31
0.0
  0
LINE
  5
92A
330
925
100
AcDbEntity
  8
0
  6
Continuous
 62
     0
100
AcDbLine
 10
0.0
 20
0.0
 30
0.0
 11
0.508
 21
0.0
 31
0.0
  0
LINE
  5
92B
330
925
100
AcDbEntity
  8
0
  6
Continuous
 62
     0
100
AcDbLine
 10
0.0
 20
1.016
 30
0.0
 11
0.0
 21
4.508
 31
0.0
  0
LINE
  5
92C
330
925
100
AcDbEntity
  8
0
  6
Continuous
 62
     0
100
AcDbLine
 10
-1.016
 20
0.0
 30
0.0
 11
-4.508
 21
0.0
 31
0.0
  0
LINE
  5
92D
330
925
100
AcDbEntity
  8
0
  6
Continuous
 62
     0
100
AcDbLine
 10
0.0
 20
-1.016
 30
0.0
 11
0.0
 21
-4.508
 31
0.0
  0
LINE
  5
92E
330
925
100
AcDbEntity
  8
0
  6
Continuous
 62
     0
100
AcDbLine
 10
1.016
 20
0.0
 30
0.0
 11
4.508
 21
0.0
 31
0.0
  0
ENDBLK
  5
92F
330
925
100
AcDbEntity
  8
0
100
AcDbBlockEnd
  0
BLOCK
  5
931
330
930
100
AcDbEntity
  8
0
100
AcDbBlockBegin
  2
SW_CENTERMARKSYMBOL_2
 70
     0
 10
0.0
 20
0.0
 30
0.0
  3
SW_CENTERMARKSYMBOL_2
  1

  0
LINE
  5
932
330
930
100
AcDbEntity
  8
0
  6
Continuous
 62
     0
100
AcDbLine
 10
0.0
 20
0.0
 30
0.0
 11
0.0
 21
0.508
 31
0.0
  0
LINE
  5
933
330
930
100
AcDbEntity
  8
0
  6
Continuous
 62
     0
100
AcDbLine
 10
0.0
 20
0.0
 30
0.0
 11
-0.508
 21
0.0
 31
0.0
  0
LINE
  5
934
330
930
100
AcDbEntity
  8
0
  6
Continuous
 62
     0
100
AcDbLine
 10
0.0
 20
0.0
 30
0.0
 11
0.0
 21
-0.508
 31
0.0
  0
LINE
  5
935
330
930
100
AcDbEntity
  8
0
  6
Continuous
 62
     0
100
AcDbLine
 10
0.0
 20
0.0
 30
0.0
 11
0.508
 21
0.0
 31
0.0
  0
LINE
  5
936
330
930
100
AcDbEntity
  8
0
  6
Continuous
 62
     0
100
AcDbLine
 10
0.0
 20
1.016
 30
0.0
 11
0.0
 21
3.008
 31
0.0
  0
LINE
  5
937
330
930
100
AcDbEntity
  8
0
  6
Continuous
 62
     0
100
AcDbLine
 10
-1.016
 20
0.0
 30
0.0
 11
-3.008
 21
0.0
 31
0.0
  0
LINE
  5
938
330
930
100
AcDbEntity
  8
0
  6
Continuous
 62
     0
100
AcDbLine
 10
0.0
 20
-1.016
 30
0.0
 11
0.0
 21
-3.008
 31
0.0
  0
LINE
  5
939
330
930
100
AcDbEntity
  8
0
  6
Continuous
 62
     0
100
AcDbLine
 10
1.016
 20
0.0
 30
0.0
 11
3.008
 21
0.0
 31
0.0
  0
ENDBLK
  5
93A
330
930
100
AcDbEntity
  8
0
100
AcDbBlockEnd
  0
BLOCK
  5
BF0
330
BEF
100
AcDbEntity
  8
0
100
AcDbBlockBegin
  2
SEANNOT_GROUP
 70
     0
 10
0.0
 20
0.0
 30
0.0
  3
SEANNOT_GROUP
  1

  0
LINE
  5
BF1
330
BEF
100
AcDbEntity
  8
Default
 62
   136
100
AcDbLine
 10
195.6813580219819
 20
357.0137898017866
 30
0.0
 11
155.6813589160515
 21
357.0137898017866
 31
0.0
  0
LINE
  5
BF2
330
BEF
100
AcDbEntity
  8
Default
 62
   136
100
AcDbLine
 10
175.6813584690167
 20
377.0137893547517
 30
0.0
 11
175.6813584690167
 21
337.0137902488214
 31
0.0
  0
ENDBLK
  5
BF3
330
BEF
100
AcDbEntity
  8
0
100
AcDbBlockEnd
  0
BLOCK
  5
BF5
330
BF4
100
AcDbEntity
  8
0
100
AcDbBlockBegin
  2
SEANNOT_GROUP1
 70
     0
 10
0.0
 20
0.0
 30
0.0
  3
SEANNOT_GROUP1
  1

  0
LINE
  5
BF6
330
BF4
100
AcDbEntity
  8
Default
 62
   136
100
AcDbLine
 10
79.04999955296519
 20
357.0137898017865
 30
0.0
 11
39.05000044703486
 21
357.0137898017865
 31
0.0
  0
LINE
  5
BF7
330
BF4
100
AcDbEntity
  8
Default
 62
   136
100
AcDbLine
 10
59.05000000000001
 20
377.0137893547517
 30
0.0
 11
59.05000000000001
 21
337.0137902488214
 31
0.0
  0
LINE
  5
BF8
330
BF4
100
AcDbEntity
  8
Default
 62
   136
100
AcDbLine
 10
84.0499985098839
 20
357.0137898017865
 30
0.0
 11
115.25
 21
357.0137898017865
 31
0.0
  0
LINE
  5
BF9
330
BF4
100
AcDbEntity
  8
Default
 62
   136
100
AcDbLine
 10
59.05000000000001
 20
382.0137883116704
 30
0.0
 11
59.05000000000001
 21
413.2137898017865
 31
0.0
  0
LINE
  5
BFA
330
BF4
100
AcDbEntity
  8
Default
 62
   136
100
AcDbLine
 10
34.05000149011613
 20
357.0137898017865
 30
0.0
 11
2.849999999999997
 21
357.0137898017865
 31
0.0
  0
LINE
  5
BFB
330
BF4
100
AcDbEntity
  8
Default
 62
   136
100
AcDbLine
 10
59.05000000000001
 20
332.0137912919026
 30
0.0
 11
59.05000000000001
 21
300.8137898017865
 31
0.0
  0
ENDBLK
  5
BFC
330
BF4
100
AcDbEntity
  8
0
100
AcDbBlockEnd
  0
BLOCK
  5
BFE
330
BFD
100
AcDbEntity
  8
0
100
AcDbBlockBegin
  2
SEANNOT_GROUP2
 70
     0
 10
0.0
 20
0.0
 30
0.0
  3
SEANNOT_GROUP2
  1

  0
LINE
  5
BFF
330
BFD
100
AcDbEntity
  8
Default
 62
   136
100
AcDbLine
 10
79.04999955296517
 20
193.5777309416984
 30
0.0
 11
39.05000044703485
 21
193.5777309416984
 31
0.0
  0
LINE
  5
C00
330
BFD
100
AcDbEntity
  8
Default
 62
   136
100
AcDbLine
 10
59.05000000000001
 20
213.5777304946636
 30
0.0
 11
59.05000000000001
 21
173.5777313887332
 31
0.0
  0
ENDBLK
  5
C01
330
BFD
100
AcDbEntity
  8
0
100
AcDbBlockEnd
  0
BLOCK
  5
C03
330
C02
100
AcDbEntity
  8
0
100
AcDbBlockBegin
  2
SE
 70
     0
 10
0.0
 20
0.0
 30
0.0
  3
SE
  1

  0
ARC
  5
C04
330
C02
100
AcDbEntity
  8
DV1_Default
 62
     7
100
AcDbCircle
 10
59.02915505892448
 20
357.0296407178112
 30
0.0
 40
26.30073372837034
100
AcDbArc
 50
89.95458964474723
 51
176.805090919553
  0
ARC
  5
C05
330
C02
100
AcDbEntity
  8
DV1_Default
 62
     7
100
AcDbCircle
 10
59.07251200865687
 20
357.0314048953998
 30
0.0
 40
26.29897092556086
100
AcDbArc
 50
3.191273810324977
 51
90.0490454495889
  0
LINE
  5
C06
330
C02
100
AcDbEntity
  8
DV1_Default
 62
     7
100
AcDbLine
 10
32.76929993512907
 20
358.495453993486
 30
0.0
 11
32.76929993512986
 21
358.4630623531237
 31
0.0
  0
LINE
  5
C07
330
C02
100
AcDbEntity
  8
DV1_Default
 62
     7
100
AcDbLine
 10
59.04999997188632
 20
383.2924700630211
 30
0.0
 11
59.04999997188539
 21
383.3303661857568
 31
0.0
  0
ARC
  5
C08
330
C02
100
AcDbEntity
  8
DV1_Default
 62
     7
100
AcDbCircle
 10
55.53258890402403
 20
356.8696300902711
 30
0.0
 40
29.84243158709776
100
AcDbArc
 50
357.0700310361075
 51
3.123035920171606
  0
LINE
  5
C09
330
C02
100
AcDbEntity
  8
DV1_Default
 62
     7
100
AcDbLine
 10
85.33070000860917
 20
358.4630636916133
 30
0.0
 11
85.33070000860837
 21
358.495453992098
 31
0.0
  0
ARC
  5
C0A
330
C02
100
AcDbEntity
  8
DV1_Default
 62
     7
100
AcDbCircle
 10
59.0463320471382
 20
287.1532136521318
 30
0.0
 40
28.84185563529824
100
AcDbArc
 50
246.864664671417
 51
297.062948577391
  0
SPLINE
  5
C0B
330
C02
100
AcDbEntity
  8
DV1_Default
 62
     7
100
AcDbSpline
210
0.0
220
0.0
230
1.0
 70
     8
 71
     3
 72
    18
 73
    14
 74
     0
 42
0.000000001
 43
0.0000000001
 40
0.0
 40
0.0
 40
0.0
 40
0.0
 40
0.124999999999996
 40
0.124999999999996
 40
0.249999999999992
 40
0.249999999999992
 40
0.4999999999999924
 40
0.4999999999999924
 40
0.6249999999999929
 40
0.6249999999999929
 40
0.7499999999999935
 40
0.7499999999999935
 40
1.0
 40
1.0
 40
1.0
 40
1.0
 10
74.84188031110507
 20
264.8261049272745
 30
0.0
 10
74.8349039923997
 20
264.6346611535025
 30
0.0
 10
74.80892853459599
 20
264.4475795182125
 30
0.0
 10
74.72070202445731
 20
264.0817422131794
 30
0.0
 10
74.65777427998877
 20
263.9015749798915
 30
0.0
 10
74.42088850588516
 20
263.3828249929637
 30
0.0
 10
74.20667596724301
 20
263.076505042098
 30
0.0
 10
73.8281242676731
 20
262.657282164208
 30
0.0
 10
73.69272907254131
 20
262.5252507847934
 30
0.0
 10
73.41269044870803
 20
262.2788643047408
 30
0.0
 10
73.26716974876671
 20
262.1635738123325
 30
0.0
 10
72.81700677412395
 20
261.8371156625252
 30
0.0
 10
72.49893955342104
 20
261.645072696399
 30
0.0
 10
72.16848626453201
 20
261.469333392671
 30
0.0
  0
SPLINE
  5
C0C
330
C02
100
AcDbEntity
  8
DV1_Default
 62
     7
100
AcDbSpline
210
0.0
220
0.0
230
1.0
 70
     8
 71
     3
 72
    22
 73
    18
 74
     0
 42
0.000000001
 43
0.0000000001
 40
0.0
 40
0.0
 40
0.0
 40
0.0
 40
0.125
 40
0.125
 40
0.25
 40
0.25
 40
0.375
 40
0.375
 40
0.5
 40
0.5
 40
0.625
 40
0.625
 40
0.75
 40
0.75
 40
0.875
 40
0.875
 40
1.0
 40
1.0
 40
1.0
 40
1.0
 10
47.7142425941359
 20
260.6308384734918
 30
0.0
 10
47.47081439708195
 20
260.7445522619726
 30
0.0
 10
47.2277725657903
 20
260.8580889871066
 30
0.0
 10
46.74210415610756
 20
261.0849684524374
 30
0.0
 10
46.49890217408524
 20
261.1967715775871
 30
0.0
 10
46.01544352104844
 20
261.427244465087
 30
0.0
 10
45.77768113898564
 20
261.5503097938645
 30
0.0
 10
45.31588653626545
 20
261.8225553798674
 30
0.0
 10
45.09001702305964
 20
261.9718055047031
 30
0.0
 10
44.66178937956555
 20
262.2962966043389
 30
0.0
 10
44.45969902822701
 20
262.4709655502042
 30
0.0
 10
44.08633446076847
 20
262.8523472921903
 30
0.0
 10
43.91484389927276
 20
263.0588299913792
 30
0.0
 10
43.61535071271456
 20
263.5170638336668
 30
0.0
 10
43.49333536280238
 20
263.760403588436
 30
0.0
 10
43.31921720273502
 20
264.2766181748128
 30
0.0
 10
43.26816788564786
 20
264.5503531520953
 30
0.0
 10
43.25811996739779
 20
264.8260957735512
 30
0.0
  0
SPLINE
  5
C0D
330
C02
100
AcDbEntity
  8
DV1_Default
 62
     7
100
AcDbSpline
210
0.0
220
0.0
230
1.0
 70
     8
 71
     3
 72
     8
 73
     4
 74
     0
 42
0.000000001
 43
0.0000000001
 40
0.0
 40
0.0
 40
0.0
 40
0.0
 40
1.0
 40
1.0
 40
1.0
 40
1.0
 10
75.96491049149662
 20
295.7710838177997
 30
0.0
 10
75.59251212894612
 20
285.4664421173246
 30
0.0
 10
75.21793307887536
 20
275.1449064106372
 30
0.0
 10
74.84188031110507
 20
264.8261049272745
 30
0.0
  0
ARC
  5
C0E
330
C02
100
AcDbEntity
  8
DV1_Default
 62
     7
100
AcDbCircle
 10
62.55215479036992
 20
356.8700183743303
 30
0.0
 40
29.82717684553082
100
AcDbArc
 50
176.8761120777541
 51
182.9164590764156
  0
SPLINE
  5
C0F
330
C02
100
AcDbEntity
  8
DV1_Default
 62
     7
100
AcDbSpline
210
0.0
220
0.0
230
1.0
 70
     8
 71
     3
 72
     8
 73
     4
 74
     0
 42
0.000000001
 43
0.0000000001
 40
0.0
 40
0.0
 40
0.0
 40
0.0
 40
1.0
 40
1.0
 40
1.0
 40
1.0
 10
42.13508946567738
 20
295.7710834392943
 30
0.0
 10
42.50748794153988
 20
285.466438615864
 30
0.0
 10
42.88206710602304
 20
275.1448997920305
 30
0.0
 10
43.25811996739779
 20
264.8260957735512
 30
0.0
  0
SPLINE
  5
C10
330
C02
100
AcDbEntity
  8
DV1_Default
 62
     7
100
AcDbSpline
210
0.0
220
0.0
230
1.0
 70
     8
 71
     3
 72
    16
 73
    12
 74
     0
 42
0.000000001
 43
0.0000000001
 40
0.0
 40
0.0
 40
0.0
 40
0.0
 40
0.25
 40
0.25
 40
0.5
 40
0.5
 40
0.75
 40
0.75
 40
0.875
 40
0.875
 40
1.0
 40
1.0
 40
1.0
 40
1.0
 10
75.96481582462459
 20
295.7684512705361
 30
0.0
 10
76.14709637209575
 20
300.8423468001268
 30
0.0
 10
76.33463967936105
 20
305.9122256525088
 30
0.0
 10
77.22071391122181
 20
315.9951811440795
 30
0.0
 10
77.92131905095783
 20
321.0049535640024
 30
0.0
 10
79.81702119235342
 20
330.9121639165013
 30
0.0
 10
81.0297446191679
 20
335.8035168855975
 30
0.0
 10
82.96704997551785
 20
343.0871996633563
 30
0.0
 10
83.63136070129069
 20
345.5077635273665
 30
0.0
 10
84.75801391181169
 20
350.3853212338487
 30
0.0
 10
85.20820298789836
 20
352.8535418047795
 30
0.0
 10
85.33600919833794
 20
355.344224638895
 30
0.0
  0
SPLINE
  5
C11
330
C02
100
AcDbEntity
  8
DV1_Default
 62
     7
100
AcDbSpline
210
0.0
220
0.0
230
1.0
 70
     8
 71
     3
 72
    10
 73
     6
 74
     0
 42
0.000000001
 43
0.0000000001
 40
0.0
 40
0.0
 40
0.0
 40
0.0
 40
0.4531237248391781
 40
0.4531237248391781
 40
1.0
 40
1.0
 40
1.0
 40
1.0
 10
34.82981983516844
 20
344.2517575255572
 30
0.0
 10
34.505879623219
 20
345.478534176319
 30
0.0
 10
34.19345520045022
 20
346.7070464245957
 30
0.0
 10
33.56220810403701
 20
349.4298760613612
 30
0.0
 10
33.26033211753586
 20
350.9279957295145
 30
0.0
 10
33.04835833976969
 20
352.4360304444495
 30
0.0
  0
SPLINE
  5
C12
330
C02
100
AcDbEntity
  8
DV1_Default
 62
     7
100
AcDbSpline
210
0.0
220
0.0
230
1.0
 70
     8
 71
     3
 72
     8
 73
     4
 74
     0
 42
0.000000001
 43
0.0000000001
 40
0.0
 40
0.0
 40
0.0
 40
0.0
 40
0.9999999999999998
 40
0.9999999999999998
 40
0.9999999999999998
 40
0.9999999999999998
 10
32.85115177098251
 20
354.1271384818709
 30
0.0
 10
32.81390754580209
 20
354.5348187166891
 30
0.0
 10
32.78442504395588
 20
354.9432392425253
 30
0.0
 10
32.76361062949008
 20
355.3524165326464
 30
0.0
  0
LINE
  5
C13
330
C02
100
AcDbEntity
  8
DV1_Default
 62
     7
100
AcDbLine
 10
72.17019603944544
 20
261.4657210466544
 30
0.0
 11
72.17014554334273
 21
261.4659506578332
 31
0.0
  0
SPLINE
  5
C14
330
C02
100
AcDbEntity
  8
DV1_Default
 62
     7
100
AcDbSpline
210
0.0
220
0.0
230
1.0
 70
     8
 71
     3
 72
    16
 73
    12
 74
     0
 42
0.000000001
 43
0.0000000001
 40
0.0
 40
0.0
 40
0.0
 40
0.0
 40
0.0254228777748764
 40
0.0254228777748764
 40
0.1652947034556651
 40
0.1652947034556651
 40
0.4450383548172427
 40
0.4450383548172427
 40
0.7247820061788201
 40
0.7247820061788201
 40
1.0
 40
1.0
 40
1.0
 40
1.0
 10
33.60947151784247
 20
349.2844694923038
 30
0.0
 10
33.70315301228839
 20
348.8390694069305
 30
0.0
 10
33.80184901921744
 20
348.3945377288993
 30
0.0
 10
34.46799731750846
 20
345.5099358514444
 30
0.0
 10
35.13243323858433
 20
343.0892448597936
 30
0.0
 10
37.07028269319618
 20
335.8031754708497
 30
0.0
 10
38.28337384952839
 20
330.9104072402419
 30
0.0
 10
40.17903051002455
 20
321.0028007978837
 30
0.0
 10
40.87986727561523
 20
315.9903701592075
 30
0.0
 10
41.75847252205138
 20
305.9888204398228
 30
0.0
 10
41.94677518400833
 20
301.0062854424677
 30
0.0
 10
42.12633269203632
 20
296.0147032522048
 30
0.0
  0
ARC
  5
C15
330
C02
100
AcDbEntity
  8
DV1_Default
 62
     7
100
AcDbCircle
 10
66.9126341602606
 20
271.249912498774
 30
0.0
 40
11.1034312397204
100
AcDbArc
 50
295.8610555537427
 51
298.2519071255429
  0
ARC
  5
C16
330
C02
100
AcDbEntity
  8
DV1_Default
 62
     7
100
AcDbCircle
 10
50.37361589345686
 20
269.6560097550075
 30
0.0
 40
9.314268040395461
100
AcDbArc
 50
241.515973821367
 51
244.3619142792096
  0
ARC
  5
C17
330
C02
100
AcDbEntity
  8
DV1_Default
 62
     7
100
AcDbCircle
 10
59.05000737687974
 20
357.010667962415
 30
0.0
 40
26.99123541832809
100
AcDbArc
 50
0.0
 51
203.3794265309103
  0
ARC
  5
C18
330
C02
100
AcDbEntity
  8
DV1_Default
 62
     7
100
AcDbCircle
 10
59.05000737687974
 20
357.010667962415
 30
0.0
 40
26.99123541832809
100
AcDbArc
 50
336.4837194288134
 51
0.0
  0
ARC
  5
C19
330
C02
100
AcDbEntity
  8
DV1_Default
 62
     7
100
AcDbCircle
 10
59.05000000000001
 20
357.0137898017865
 30
0.0
 40
52.70000000000001
100
AcDbArc
 50
289.3689917389384
 51
0.0
  0
ARC
  5
C1A
330
C02
100
AcDbEntity
  8
DV1_Default
 62
     7
100
AcDbCircle
 10
59.05000000000001
 20
357.0137898017865
 30
0.0
 40
52.70000000000001
100
AcDbArc
 50
0.0
 51
250.6447207932562
  0
ARC
  5
C1B
330
C02
100
AcDbEntity
  8
DV1_Default
 62
     7
100
AcDbCircle
 10
66.78394166778715
 20
357.2271182208454
 30
0.0
 40
34.07409726702586
100
AcDbArc
 50
185.2198504349869
 51
188.083025191992
  0
ENDBLK
  5
C1C
330
C02
100
AcDbEntity
  8
0
100
AcDbBlockEnd
  0
BLOCK
  5
C1E
330
C1D
100
AcDbEntity
  8
0
100
AcDbBlockBegin
  2
SE1
 70
     0
 10
0.0
 20
0.0
 30
0.0
  3
SE1
  1

  0
LINE
  5
C1F
330
C1D
100
AcDbEntity
  8
DV2_Default
 62
     7
100
AcDbLine
 10
245.5916840158943
 20
383.2924700630211
 30
0.0
 11
244.4809078356416
 21
383.3303661857568
 31
0.0
  0
ARC
  5
C20
330
C1D
100
AcDbEntity
  8
DV2_Default
 62
     7
100
AcDbCircle
 10
245.5712258419038
 20
382.6928189451893
 30
0.0
 40
0.5999999999997936
100
AcDbArc
 50
22.07446945692603
 51
88.04600954587009
  0
ARC
  5
C21
330
C1D
100
AcDbEntity
  8
DV2_Default
 62
     7
100
AcDbCircle
 10
242.4029964770542
 20
265.0614982170725
 30
0.0
 40
16.78842581073215
100
AcDbArc
 50
358.362866819827
 51
359.2767487727543
  0
ARC
  5
C22
330
C1D
100
AcDbEntity
  8
DV2_Default
 62
     7
100
AcDbCircle
 10
-191.4729980483116
 20
270.7025948284356
 30
0.0
 40
450.7010893680356
100
AcDbArc
 50
359.2559095384791
 51
3.185728292694709
  0
ARC
  5
C23
330
C1D
100
AcDbEntity
  8
DV2_Default
 62
     7
100
AcDbCircle
 10
-234.8018531714398
 20
264.5760935698866
 30
0.0
 40
494.3173685416675
100
AcDbArc
 50
3.615653210845752
 51
10.58183777478063
  0
ARC
  5
C24
330
C1D
100
AcDbEntity
  8
DV2_Default
 62
     7
100
AcDbCircle
 10
267.4609617653804
 20
264.3226590261382
 30
0.0
 40
8.280450258883064
100
AcDbArc
 50
178.2061791045771
 51
198.9472995217009
  0
ARC
  5
C25
330
C1D
100
AcDbEntity
  8
DV2_Default
 62
     7
100
AcDbCircle
 10
324.3796445671326
 20
285.0165986314902
 30
0.0
 40
68.84007918038164
100
AcDbArc
 50
200.0597042790776
 51
202.6784443230052
  0
ARC
  5
C26
330
C1D
100
AcDbEntity
  8
DV2_Default
 62
     7
100
AcDbCircle
 10
265.4877999700701
 20
263.7119577884786
 30
0.0
 40
6.216225335403194
100
AcDbArc
 50
199.5286372916884
 51
201.7894949602719
  0
ARC
  5
C27
330
C1D
100
AcDbEntity
  8
DV2_Default
 62
     7
100
AcDbCircle
 10
235.7630612468291
 20
310.7871907933454
 30
0.0
 40
19.70106411040325
100
AcDbArc
 50
78.41201860109518
 51
99.09960714782634
  0
LINE
  5
C28
330
C1D
100
AcDbEntity
  8
DV2_Default
 62
     7
100
AcDbLine
 10
224.5140788453962
 20
330.3240292600608
 30
0.0
 11
224.5140788453962
 21
383.6992805523802
 31
0.0
  0
LINE
  5
C29
330
C1D
100
AcDbEntity
  8
DV2_Default
 62
     7
100
AcDbLine
 10
244.4809078356414
 20
383.3303661857568
 30
0.0
 11
224.8244731264387
 21
384.0009807303692
 31
0.0
  0
LINE
  5
C2A
330
C1D
100
AcDbEntity
  8
DV2_Default
 62
     7
100
AcDbLine
 10
224.8228393712982
 20
330.0202884560828
 30
0.0
 11
231.0414386350463
 21
330.1958749233772
 31
0.0
  0
SPLINE
  5
C2B
330
C1D
100
AcDbEntity
  8
DV2_Default
 62
     7
100
AcDbSpline
210
0.0
220
0.0
230
1.0
 70
     8
 71
     3
 72
    41
 73
    37
 74
     0
 42
0.000000001
 43
0.0000000001
 40
0.0
 40
0.0
 40
0.0
 40
0.0
 40
0.0212983612245968
 40
0.0429402352280486
 40
0.0625359482527657
 40
0.0800766737063704
 40
0.0955516872958244
 40
0.1090873267687535
 40
0.1218790134153697
 40
0.1342044320466729
 40
0.1518107146608372
 40
0.1683580760113016
 40
0.1838373658254064
 40
0.1982395608668175
 40
0.211557545252542
 40
0.2257951445441343
 40
0.2426870851963956
 40
0.2622675184662034
 40
0.2821322851763815
 40
0.3042303861829176
 40
0.3286074979797522
 40
0.3553180180712204
 40
0.3844254891184661
 40
0.4154178363798931
 40
0.4488745034011505
 40
0.484888677156195
 40
0.5235669136127451
 40
0.5658120272539748
 40
0.6110701556365247
 40
0.6593958290242855
 40
0.7107962995512253
 40
0.7652569749317536
 40
0.8216826329733979
 40
0.8809488338931744
 40
0.942952626851933
 40
1.0
 40
1.0
 40
1.0
 40
1.0
 10
239.7134139551825
 20
330.0812660158882
 30
0.0
 10
240.2859015834791
 20
330.009848597174
 30
0.0
 10
241.2585091338803
 20
329.8808216950855
 30
0.0
 10
242.7893757750581
 20
329.5162865681239
 30
0.0
 10
244.1522444039853
 20
329.0431865826612
 30
0.0
 10
245.3268655709047
 20
328.486570535792
 30
0.0
 10
246.30628774155
 20
327.8877746408161
 30
0.0
 10
247.1299493447333
 20
327.2679099437831
 30
0.0
 10
247.8387932330831
 20
326.631040473334
 30
0.0
 10
248.5637189980262
 20
325.8672723531609
 30
0.0
 10
249.2763678888252
 20
324.9691170293508
 30
0.0
 10
249.9487350309215
 20
323.9469592643378
 30
0.0
 10
250.5074744291627
 20
322.9485646775284
 30
0.0
 10
250.9730741358822
 20
321.9915611651803
 30
0.0
 10
251.3823505213228
 20
321.0425500750723
 30
0.0
 10
251.7755883558343
 20
320.0208141136211
 30
0.0
 10
252.1790047534929
 20
318.8387008067011
 30
0.0
 10
252.577262849972
 20
317.5094459905392
 30
0.0
 10
252.9634381481809
 20
316.0437163176636
 30
0.0
 10
253.3332138575724
 20
314.4522597422823
 30
0.0
 10
253.695101630655
 20
312.6865675199702
 30
0.0
 10
254.0471814877119
 20
310.7432307781419
 30
0.0
 10
254.3868762887639
 20
308.6325499671255
 30
0.0
 10
254.7156970392461
 20
306.3522015876852
 30
0.0
 10
255.035971010044
 20
303.8990297877199
 30
0.0
 10
255.352175923538
 20
301.2546301308108
 30
0.0
 10
255.6697147985931
 20
298.3925486841048
 30
0.0
 10
255.992312191134
 20
295.3020805053711
 30
0.0
 10
256.3233895349553
 20
291.9736506398709
 30
0.0
 10
256.6560983701381
 20
288.4189764558612
 30
0.0
 10
256.9809906473117
 20
284.6356022207973
 30
0.0
 10
257.2861083149937
 20
280.6523299092083
 30
0.0
 10
257.562540528146
 20
276.46544705015
 30
0.0
 10
257.804351730177
 20
272.1198016567939
 30
0.0
 10
258.0001709196618
 20
267.6427729635726
 30
0.0
 10
258.0805483521705
 20
264.9239568756704
 30
0.0
 10
258.1248888015687
 20
263.3793071537164
 30
0.0
  0
LINE
  5
C2C
330
C1D
100
AcDbEntity
  8
DV2_Default
 62
     7
100
AcDbLine
 10
231.0414386350506
 20
330.1958749234035
 30
0.0
 11
232.6473536949272
 21
330.2388577504878
 31
0.0
  0
LINE
  5
C2D
330
C1D
100
AcDbEntity
  8
DV2_Default
 62
     7
100
AcDbLine
 10
259.0685230570497
 20
260.6040627579303
 30
0.0
 11
260.8743068094308
 21
258.4612589144446
 31
0.0
  0
LINE
  5
C2E
330
C1D
100
AcDbEntity
  8
DV2_Default
 62
     7
100
AcDbLine
 10
261.2317529002236
 20
258.3115195364614
 30
0.0
 11
261.9266265413461
 21
258.3117720945751
 31
0.0
  0
SPLINE
  5
C2F
330
C1D
100
AcDbEntity
  8
DV2_Default
 62
     7
100
AcDbSpline
210
0.0
220
0.0
230
1.0
 70
     8
 71
     3
 72
    56
 73
    52
 74
     0
 42
0.000000001
 43
0.0000000001
 40
0.0
 40
0.0
 40
0.0
 40
0.0
 40
0.0127794654678372
 40
0.0285725145287123
 40
0.0427508217373884
 40
0.0553779697570607
 40
0.0664167855137395
 40
0.0744009546249783
 40
0.0812806220659642
 40
0.0870557487622924
 40
0.0917264063143257
 40
0.0952925837665178
 40
0.0977542733031612
 40
0.1001636880619022
 40
0.1029006353428963
 40
0.1066012012231287
 40
0.1112653976299756
 40
0.1168933593059897
 40
0.1234293696680725
 40
0.1303144474150209
 40
0.1503016654418641
 40
0.1719882561737571
 40
0.1925537524656887
 40
0.2141972073482853
 40
0.2372241963443963
 40
0.2614934654335512
 40
0.2980734087595066
 40
0.3343645830996904
 40
0.3696629749673344
 40
0.4039684997647589
 40
0.437281058654098
 40
0.4636817969425329
 40
0.4894235672178124
 40
0.5145062876234531
 40
0.5389298616323842
 40
0.5628870110039325
 40
0.5830963936760822
 40
0.6050749254683909
 40
0.6288046162671205
 40
0.6543368052113917
 40
0.6815136298949195
 40
0.7105473310950435
 40
0.7413433515998705
 40
0.7739331549258712
 40
0.808239919322181
 40
0.8443858663565547
 40
0.8740262923850858
 40
0.9047570066811541
 40
0.9365750169075186
 40
0.9694744300430924
 40
1.0
 40
1.0
 40
1.0
 40
1.0
 10
262.5335132987717
 20
258.9054090341663
 30
0.0
 10
262.5603027336516
 20
259.4945649162229
 30
0.0
 10
262.610540773748
 20
260.6074140884795
 30
0.0
 10
262.6797839954079
 20
262.438920729752
 30
0.0
 10
262.7383824637949
 20
264.2152158638589
 30
0.0
 10
262.7831833493058
 20
265.8045421897582
 30
0.0
 10
262.8151158661828
 20
267.1315336606314
 30
0.0
 10
262.8376627372152
 20
268.2181067881094
 30
0.0
 10
262.8533939848065
 20
269.0838347027935
 30
0.0
 10
262.865008593124
 20
269.8106178626339
 30
0.0
 10
262.8733418802942
 20
270.3984161784377
 30
0.0
 10
262.8790674578609
 20
270.8472257730342
 30
0.0
 10
262.8832156303071
 20
271.2011791888598
 30
0.0
 10
262.8866887635864
 20
271.5203485152692
 30
0.0
 10
262.8903992982033
 20
271.8914940164436
 30
0.0
 10
262.8945409612813
 20
272.35723682979
 30
0.0
 10
262.8989195224917
 20
272.9442714677758
 30
0.0
 10
262.9029414650317
 20
273.6502693805515
 30
0.0
 10
262.9058340021134
 20
274.4494486756335
 30
0.0
 10
262.9077038931082
 20
275.8510603134173
 30
0.0
 10
262.9011167079663
 20
277.8883062254745
 30
0.0
 10
262.8742896113323
 20
280.4993792128783
 30
0.0
 10
262.8277583529243
 20
283.1796696709401
 30
0.0
 10
262.760999524653
 20
285.9157873539409
 30
0.0
 10
262.6690464090337
 20
288.8066504871771
 30
0.0
 10
262.5297731804038
 20
292.3228694629091
 30
0.0
 10
262.3278790988556
 20
296.3933962061141
 30
0.0
 10
262.0493331683227
 20
300.9230866479498
 30
0.0
 10
261.7252568428711
 20
305.3540706853502
 30
0.0
 10
261.3619104162812
 20
309.6566007543329
 30
0.0
 10
260.9870909891421
 20
313.5832964679509
 30
0.0
 10
260.6119512240438
 20
317.1488397090293
 30
0.0
 10
260.245667754436
 20
320.3680139901683
 30
0.0
 10
259.8627414146918
 20
323.5016971651317
 30
0.0
 10
259.4639904091078
 20
326.5579123751357
 30
0.0
 10
259.0687696253477
 20
329.4083039783182
 30
0.0
 10
258.6672399632492
 20
332.1541718572464
 30
0.0
 10
258.2474434557686
 20
334.8876580535133
 30
0.0
 10
257.7704102539531
 20
337.8381982715619
 30
0.0
 10
257.231034043803
 20
340.9994687479551
 30
0.0
 10
256.6213932765018
 20
344.3743408364513
 30
0.0
 10
255.9334681259631
 20
347.9592887641969
 30
0.0
 10
255.1562565142263
 20
351.7580658701371
 30
0.0
 10
254.2794036818979
 20
355.7619480158395
 30
0.0
 10
253.2885984397552
 20
359.9699927275247
 30
0.0
 10
252.2528344413363
 20
364.0403235213165
 30
0.0
 10
251.1818766958304
 20
367.9440886732144
 30
0.0
 10
250.0874003627145
 20
371.6597160150154
 30
0.0
 10
248.8770491963763
 20
375.454521406142
 30
0.0
 10
247.5448864232951
 20
379.3090354622866
 30
0.0
 10
246.6394704246253
 20
381.6060442084814
 30
0.0
 10
246.1206357580565
 20
382.9157577678013
 30
0.0
  0
ARC
  5
C30
330
C1D
100
AcDbEntity
  8
DV2_Default
 62
     7
100
AcDbCircle
 10
261.9455330749473
 20
258.9048716738595
 30
0.0
 40
0.5868919667209499
100
AcDbArc
 50
268.1304534331381
 51
0.0832377954500022
  0
ARC
  5
C31
330
C1D
100
AcDbEntity
  8
DV2_Default
 62
     7
100
AcDbCircle
 10
262.8912371218981
 20
263.4326870282639
 30
0.0
 40
4.764555660367939
100
AcDbArc
 50
180.4291114726068
 51
216.5066230270147
  0
ARC
  5
C32
330
C1D
100
AcDbEntity
  8
DV2_Default
 62
     7
100
AcDbCircle
 10
261.2315766635587
 20
258.8115136016596
 30
0.0
 40
0.4999940962228176
100
AcDbArc
 50
222.3497979110751
 51
270.0029455199951
  0
ARC
  5
C33
330
C1D
100
AcDbEntity
  8
DV2_Default
 62
     7
100
AcDbCircle
 10
224.8140788458649
 20
330.3201612804611
 30
0.0
 40
0.2999999930280518
100
AcDbArc
 50
179.9966301244561
 51
271.928652538311
  0
ARC
  5
C34
330
C1D
100
AcDbEntity
  8
DV2_Default
 62
     7
100
AcDbCircle
 10
224.8140788454147
 20
383.7011607847206
 30
0.0
 40
0.2999999997454106
100
AcDbArc
 50
87.91661478068636
 51
179.9993875678548
  0
LINE
  5
C35
330
C1D
100
AcDbEntity
  8
DV2_Default
 62
     7
100
AcDbLine
 10
221.88834941935
 20
382.436954396142
 30
0.0
 11
221.88834941935
 21
331.590625207431
 31
0.0
  0
ARC
  5
C36
330
C1D
100
AcDbEntity
  8
DV2_Default
 62
     7
100
AcDbCircle
 10
213.7883494193497
 20
357.0137898017866
 30
0.0
 40
26.3
100
AcDbArc
 50
65.91918720367679
 51
72.06217347826203
  0
ARC
  5
C37
330
C1D
100
AcDbEntity
  8
DV2_Default
 62
     7
100
AcDbCircle
 10
213.7883494193497
 20
357.0137898017866
 30
0.0
 40
26.3
100
AcDbArc
 50
287.9378265217379
 51
294.0725978604013
  0
LINE
  5
C38
330
C1D
100
AcDbEntity
  8
DV2_Default
 62
     7
100
AcDbLine
 10
182.6813584690167
 20
330.7528327064721
 30
0.0
 11
221.3927124632776
 21
331.0906442439458
 31
0.0
  0
LINE
  5
C39
330
C1D
100
AcDbEntity
  8
DV2_Default
 62
     7
100
AcDbLine
 10
221.3927124632776
 20
382.9369353596273
 30
0.0
 11
182.6813584690167
 21
383.2747468971009
 31
0.0
  0
ARC
  5
C3A
330
C1D
100
AcDbEntity
  8
DV2_Default
 62
     7
100
AcDbCircle
 10
221.3883494193499
 20
382.436954396142
 30
0.0
 40
0.5000000000000005
100
AcDbArc
 50
0.0
 51
89.50002564903657
  0
ARC
  5
C3B
330
C1D
100
AcDbEntity
  8
DV2_Default
 62
     7
100
AcDbCircle
 10
221.38834941935
 20
331.5906252074311
 30
0.0
 40
0.4999999999999991
100
AcDbArc
 50
270.4999743509634
 51
0.0
  0
LINE
  5
C3C
330
C1D
100
AcDbEntity
  8
DV2_Default
 62
     7
100
AcDbLine
 10
182.6813584690167
 20
305.777177448645
 30
0.0
 11
182.6813584690167
 21
408.250402154928
 31
0.0
  0
LINE
  5
C3D
330
C1D
100
AcDbEntity
  8
DV2_Default
 62
     7
100
AcDbLine
 10
175.6813584690167
 20
304.313789801787
 30
0.0
 11
175.6813584690167
 21
409.713789801786
 31
0.0
  0
LINE
  5
C3E
330
C1D
100
AcDbEntity
  8
DV2_Default
 62
     7
100
AcDbLine
 10
175.6813584690167
 20
304.3137898017865
 30
0.0
 11
181.4184861750852
 21
304.4777077362456
 31
0.0
  0
LINE
  5
C3F
330
C1D
100
AcDbEntity
  8
DV2_Default
 62
     7
100
AcDbLine
 10
181.4184861750852
 20
409.5498718673273
 30
0.0
 11
175.6813584690167
 21
409.7137898017865
 31
0.0
  0
ARC
  5
C40
330
C1D
100
AcDbEntity
  8
DV2_Default
 62
     7
100
AcDbCircle
 10
181.3813584690167
 20
408.2504021549284
 30
0.0
 40
1.299999999999995
100
AcDbArc
 50
0.0
 51
88.3634229583837
  0
ARC
  5
C41
330
C1D
100
AcDbEntity
  8
DV2_Default
 62
     7
100
AcDbCircle
 10
181.3813584690167
 20
305.7771774486445
 30
0.0
 40
1.299999999999998
100
AcDbArc
 50
271.6365770416164
 51
0.0
  0
ENDBLK
  5
C42
330
C1D
100
AcDbEntity
  8
0
100
AcDbBlockEnd
  0
BLOCK
  5
C44
330
C43
100
AcDbEntity
  8
0
100
AcDbBlockBegin
  2
SE2
 70
     0
 10
0.0
 20
0.0
 30
0.0
  3
SE2
  1

  0
SPLINE
  5
C45
330
C43
100
AcDbEntity
  8
DV3_Default
 62
     7
100
AcDbSpline
210
0.0
220
0.0
230
1.0
 70
     8
 71
     3
 72
    21
 73
    17
 74
     0
 42
0.000000001
 43
0.0000000001
 40
0.0
 40
0.0
 40
0.0
 40
0.0
 40
0.0400377720332305
 40
0.0817863415827722
 40
0.1252381711824982
 40
0.1839849293682952
 40
0.2504558002913846
 40
0.375541602314879
 40
0.5005915954644037
 40
0.6251298779348731
 40
0.6892736702429561
 40
0.7499208965885966
 40
0.8142698135970039
 40
0.8775542179012942
 40
0.939533459963547
 40
1.0
 40
1.0
 40
1.0
 40
1.0
 10
32.76930003060602
 20
118.8004501861756
 30
0.0
 10
32.80697451843576
 20
118.9112519864211
 30
0.0
 10
32.88393272439699
 20
119.1375900866368
 30
0.0
 10
33.12966328881959
 20
119.4895346482752
 30
0.0
 10
33.52360967516597
 20
119.896438670336
 30
0.0
 10
34.15412254225834
 20
120.375534997848
 30
0.0
 10
35.38259621903601
 20
121.0808847515554
 30
0.0
 10
37.49055535752781
 20
121.9506071265022
 30
0.0
 10
40.75609654473796
 20
122.8902844275673
 30
0.0
 10
44.05264490714201
 20
123.5611015362362
 30
0.0
 10
46.93738975624627
 20
123.9991753193633
 30
0.0
 10
49.24156472750832
 20
124.2797915220455
 30
0.0
 10
51.63061420982606
 20
124.501027924846
 30
0.0
 10
54.11069258311672
 20
124.6602391376988
 30
0.0
 10
56.58767565523984
 20
124.7595217175237
 30
0.0
 10
58.2360130838661
 20
124.7720130621464
 30
0.0
 10
59.0499999718854
 20
124.7781815750736
 30
0.0
  0
SPLINE
  5
C46
330
C43
100
AcDbEntity
  8
DV3_Default
 62
     7
100
AcDbSpline
210
0.0
220
0.0
230
1.0
 70
     8
 71
     3
 72
    22
 73
    18
 74
     0
 42
0.000000001
 43
0.0000000001
 40
0.0
 40
0.0
 40
0.0
 40
0.0
 40
0.0401407050995886
 40
0.0809821075926516
 40
0.1224680765145807
 40
0.164535249010096
 40
0.2071136753841605
 40
0.250127645017125
 40
0.3107717458470525
 40
0.374914728685844
 40
0.4994490844230498
 40
0.6244951346770828
 40
0.7495769926448864
 40
0.8160445990954892
 40
0.8747906738453711
 40
0.9393143759136568
 40
1.0
 40
1.0
 40
1.0
 40
1.0
 10
59.0499999718854
 20
124.7781815750736
 30
0.0
 10
59.59026873597525
 20
124.7754631998813
 30
0.0
 10
60.68023721246126
 20
124.7699789974553
 30
0.0
 10
62.32182518081962
 20
124.7261416248974
 30
0.0
 10
63.97525714400727
 20
124.655897919358
 30
0.0
 10
65.63018560943703
 20
124.5562255155437
 30
0.0
 10
67.27574850972111
 20
124.4275798731099
 30
0.0
 10
69.11815184658633
 20
124.248181892234
 30
0.0
 10
71.16264718934023
 20
123.9991644931415
 30
0.0
 10
74.0473194230239
 20
123.5611109041547
 30
0.0
 10
77.34386630625472
 20
122.890285064528
 30
0.0
 10
80.609616681425
 20
121.9505958880114
 30
0.0
 10
82.71687469826954
 20
121.0809231381369
 30
0.0
 10
83.94679396055952
 20
120.3754758614531
 30
0.0
 10
84.65198499280829
 20
119.8367982968373
 30
0.0
 10
85.13354917100722
 20
119.3162116975311
 30
0.0
 10
85.26633962970093
 20
118.9688211403679
 30
0.0
 10
85.3306999170582
 20
118.8004501481705
 30
0.0
  0
LINE
  5
C47
330
C43
100
AcDbEntity
  8
DV3_Default
 62
     7
100
AcDbLine
 10
32.76929993512907
 20
118.80045018598
 30
0.0
 11
32.76929993512986
 21
117.8510163136888
 31
0.0
  0
ARC
  5
C48
330
C43
100
AcDbEntity
  8
DV3_Default
 62
     7
100
AcDbCircle
 10
84.0815251963348
 20
118.4650904460414
 30
0.0
 40
1.293407751912163
100
AcDbArc
 50
358.9989534520486
 51
15.02757078283456
  0
LINE
  5
C49
330
C43
100
AcDbEntity
  8
DV3_Default
 62
     7
100
AcDbLine
 10
85.33070000860917
 20
117.8510555462612
 30
0.0
 11
85.33070000860837
 21
118.800450145293
 31
0.0
  0
SPLINE
  5
C4A
330
C43
100
AcDbEntity
  8
DV3_Default
 62
     7
100
AcDbSpline
210
0.0
220
0.0
230
1.0
 70
     8
 71
     3
 72
     8
 73
     4
 74
     0
 42
0.000000001
 43
0.0000000001
 40
0.0
 40
0.0
 40
0.0
 40
0.0
 40
1.0
 40
1.0
 40
1.0
 40
1.0
 10
32.73891417392486
 20
117.5282583519241
 30
0.0
 10
32.73876948021118
 20
117.5327816133739
 30
0.0
 10
32.7386486548598
 20
117.5373069963511
 30
0.0
 10
32.73855178044144
 20
117.5418344966929
 30
0.0
  0
ARC
  5
C4B
330
C43
100
AcDbEntity
  8
DV3_Default
 62
     7
100
AcDbCircle
 10
33.36853344673296
 20
117.8644605164479
 30
0.0
 40
0.5993928575860526
100
AcDbArc
 50
181.3351636401796
 51
263.9657293420182
  0
ARC
  5
C4C
330
C43
100
AcDbEntity
  8
DV3_Default
 62
     7
100
AcDbCircle
 10
34.02540943903173
 20
118.4642748709852
 30
0.0
 40
1.300317149190534
100
AcDbArc
 50
165.0169474184128
 51
181.0543739274324
  0
ARC
  5
C4D
330
C43
100
AcDbEntity
  8
DV3_Default
 62
     7
100
AcDbCircle
 10
84.73146558721639
 20
117.8645001505091
 30
0.0
 40
0.5993937761266711
100
AcDbArc
 50
276.0309612697847
 51
358.6648023471826
  0
SPLINE
  5
C4E
330
C43
100
AcDbEntity
  8
DV3_Default
 62
     7
100
AcDbSpline
210
0.0
220
0.0
230
1.0
 70
     8
 71
     3
 72
     8
 73
     4
 74
     0
 42
0.000000001
 43
0.0000000001
 40
0.0
 40
0.0
 40
0.0
 40
0.0
 40
1.0
 40
1.0
 40
1.0
 40
1.0
 10
43.20240386447438
 20
108.3924097538846
 30
0.0
 10
43.23245466939385
 20
108.3795488683292
 30
0.0
 10
43.26257532411271
 20
108.3690087460575
 30
0.0
 10
43.29276934742111
 20
108.3607795278862
 30
0.0
  0
SPLINE
  5
C4F
330
C43
100
AcDbEntity
  8
DV3_Default
 62
     7
100
AcDbSpline
210
0.0
220
0.0
230
1.0
 70
     8
 71
     3
 72
     8
 73
     4
 74
     0
 42
0.000000001
 43
0.0000000001
 40
0.0
 40
0.0
 40
0.0
 40
0.0
 40
1.0
 40
1.0
 40
1.0
 40
1.0
 10
74.38713678903879
 20
108.3922990495604
 30
0.0
 10
74.48954065012831
 20
108.350114432061
 30
0.0
 10
74.5909690719142
 20
108.3327502774651
 30
0.0
 10
74.69154696821665
 20
108.3405627240743
 30
0.0
  0
SPLINE
  5
C50
330
C43
100
AcDbEntity
  8
DV3_Default
 62
     7
100
AcDbSpline
210
0.0
220
0.0
230
1.0
 70
     8
 71
     3
 72
     8
 73
     4
 74
     0
 42
0.000000001
 43
0.0000000001
 40
0.0
 40
0.0
 40
0.0
 40
0.0
 40
1.0
 40
1.0
 40
1.0
 40
1.0
 10
74.80710285961449
 20
108.3607363004539
 30
0.0
 10
74.8364727260261
 20
108.3687325941699
 30
0.0
 10
74.86577328747556
 20
108.3789148968648
 30
0.0
 10
74.89500771398244
 20
108.3912922464927
 30
0.0
  0
LINE
  5
C51
330
C43
100
AcDbEntity
  8
DV3_Default
 62
     7
100
AcDbLine
 10
85.74217633333161
 20
144.745010565319
 30
0.0
 11
32.35760630169594
 21
144.745010565319
 31
0.0
  0
SPLINE
  5
C52
330
C43
100
AcDbEntity
  8
DV3_Default
 62
     7
100
AcDbSpline
210
0.0
220
0.0
230
1.0
 70
     8
 71
     3
 72
     8
 73
     4
 74
     0
 42
0.000000001
 43
0.0000000001
 40
0.0
 40
0.0
 40
0.0
 40
0.0
 40
1.0
 40
1.0
 40
1.0
 40
1.0
 10
85.44801027869917
 20
121.5496432339477
 30
0.0
 10
85.59972278202238
 20
127.3961564266125
 30
0.0
 10
85.79771816204155
 20
135.0251572284152
 30
0.0
 10
86.04199641875664
 20
144.4366456393556
 30
0.0
  0
SPLINE
  5
C53
330
C43
100
AcDbEntity
  8
DV3_Default
 62
     7
100
AcDbSpline
210
0.0
220
0.0
230
1.0
 70
     8
 71
     3
 72
     8
 73
     4
 74
     0
 42
0.000000001
 43
0.0000000001
 40
0.0
 40
0.0
 40
0.0
 40
0.0
 40
1.0
 40
1.0
 40
1.0
 40
1.0
 10
32.05800597966099
 20
144.4365530337615
 30
0.0
 10
32.25933484478462
 20
136.6799785503327
 30
0.0
 10
32.45733242869205
 20
129.0508808556021
 30
0.0
 10
32.65199873138326
 20
121.5492599495697
 30
0.0
  0
ARC
  5
C54
330
C43
100
AcDbEntity
  8
DV3_Default
 62
     7
100
AcDbCircle
 10
464.2850046700337
 20
111.241306528634
 30
0.0
 40
378.9770821283308
100
AcDbArc
 50
178.4365663907252
 51
178.9112043204075
  0
ARC
  5
C55
330
C43
100
AcDbEntity
  8
DV3_Default
 62
     7
100
AcDbCircle
 10
-362.580983609914
 20
110.8580394657878
 30
0.0
 40
395.3774207842935
100
AcDbArc
 50
1.098871544819327
 51
1.554327118175416
  0
ARC
  5
C56
330
C43
100
AcDbEntity
  8
DV3_Default
 62
     7
100
AcDbCircle
 10
-335.4688504342143
 20
113.439741177582
 30
0.0
 40
368.2279020808843
100
AcDbArc
 50
0.6386121460888698
 51
0.7787012764049797
  0
ARC
  5
C57
330
C43
100
AcDbEntity
  8
DV3_Default
 62
     7
100
AcDbCircle
 10
456.3943562723475
 20
113.4053556483507
 30
0.0
 40
371.0536159300505
100
AcDbArc
 50
179.2210109539232
 51
179.3611269429537
  0
SPLINE
  5
C58
330
C43
100
AcDbEntity
  8
DV3_Default
 62
     7
100
AcDbSpline
210
0.0
220
0.0
230
1.0
 70
     8
 71
     3
 72
    32
 73
    28
 74
     0
 42
0.000000001
 43
0.0000000001
 40
0.0
 40
0.0
 40
0.0
 40
0.0
 40
0.0129545593950042
 40
0.0299179148967356
 40
0.0479465469296963
 40
0.066028414395064
 40
0.0879985139124109
 40
0.1128010214585286
 40
0.1412236274621522
 40
0.1752305683552868
 40
0.2159562124571441
 40
0.2660597512597529
 40
0.3233823496303201
 40
0.3768476355188274
 40
0.4255663354664739
 40
0.4718678949540564
 40
0.5205431925797618
 40
0.5699050563368428
 40
0.6187806255815977
 40
0.667074797018919
 40
0.7146636202007241
 40
0.7613766931151684
 40
0.8069978730150303
 40
0.8607250685327596
 40
0.9190043657273074
 40
0.9879273322443268
 40
1.0
 40
1.0
 40
1.0
 40
1.0
 10
32.75526167996491
 20
117.5287957215426
 30
0.0
 10
32.75534047407401
 20
117.4468912183423
 30
0.0
 10
32.75755623682583
 20
117.2871015792589
 30
0.0
 10
32.81770486885649
 20
116.9875727118799
 30
0.0
 10
32.94620994963898
 20
116.6721055592892
 30
0.0
 10
33.12343049344
 20
116.3741301552174
 30
0.0
 10
33.36373190205115
 20
116.0627088326369
 30
0.0
 10
33.68460090404898
 20
115.7318397359311
 30
0.0
 10
34.09500876707517
 20
115.3787128126006
 30
0.0
 10
34.61524895964449
 20
114.9881967940348
 30
0.0
 10
35.28200633948792
 20
114.5448578638689
 30
0.0
 10
36.09232723692359
 20
114.0536188018011
 30
0.0
 10
36.93710650039963
 20
113.5546475873029
 30
0.0
 10
37.73344763645735
 20
113.0821417681749
 30
0.0
 10
38.42695433573139
 20
112.6623320199866
 30
0.0
 10
39.04379194981687
 20
112.2737002307136
 30
0.0
 10
39.604891047179
 20
111.89779793056
 30
0.0
 10
40.11619319518697
 20
111.5314303350168
 30
0.0
 10
40.56474982035266
 20
111.184647199522
 30
0.0
 10
40.94682238694553
 20
110.8628377440793
 30
0.0
 10
41.26282931837637
 20
110.5684001962607
 30
0.0
 10
41.51205427816845
 20
110.3070628275201
 30
0.0
 10
41.7128988343723
 20
110.0596951571923
 30
0.0
 10
41.8964977143543
 20
109.8069357626713
 30
0.0
 10
42.06133765591606
 20
109.5554138135078
 30
0.0
 10
42.16737984670744
 20
109.3719714749346
 30
0.0
 10
42.23001096574626
 20
109.2773259758385
 30
0.0
 10
42.24084265780186
 20
109.2609124043113
 30
0.0
  0
ARC
  5
C59
330
C43
100
AcDbEntity
  8
DV3_Default
 62
     7
100
AcDbCircle
 10
59.05002142993706
 20
169.0703581706567
 30
0.0
 40
62.72035817065678
100
AcDbArc
 50
255.4464087266784
 51
284.5534015820138
  0
ARC
  5
C5A
330
C43
100
AcDbEntity
  8
DV3_Default
 62
     7
100
AcDbCircle
 10
74.09215824913886
 20
110.2713641202238
 30
0.0
 40
2.049210882946851
100
AcDbArc
 50
295.1978271415216
 51
330.0207032631823
  0
SPLINE
  5
C5B
330
C43
100
AcDbEntity
  8
DV3_Default
 62
     7
100
AcDbSpline
210
0.0
220
0.0
230
1.0
 70
     8
 71
     3
 72
    32
 73
    28
 74
     0
 42
0.000000001
 43
0.0000000001
 40
0.0
 40
0.0
 40
0.0
 40
0.0
 40
0.0397590621059888
 40
0.1122129017855093
 40
0.1677918432939159
 40
0.2218182891799862
 40
0.2650918401972981
 40
0.3106405918122421
 40
0.3567872001688058
 40
0.4038206396048403
 40
0.4515542471713764
 40
0.4998528399029912
 40
0.5430943704866295
 40
0.5887246123564008
 40
0.6358182821280564
 40
0.6889300933625279
 40
0.750389673975036
 40
0.8064911089384141
 40
0.8435888702130879
 40
0.8752249614370345
 40
0.9025739596768117
 40
0.926383796995897
 40
0.944873616416787
 40
0.9625566129318627
 40
0.9811974809838101
 40
0.999638147550358
 40
1.0
 40
1.0
 40
1.0
 40
1.0
 10
75.86791929053809
 20
109.2591893195476
 30
0.0
 10
75.90326906878027
 20
109.3160053373848
 30
0.0
 10
75.98929210119682
 20
109.4529917452345
 30
0.0
 10
76.12312552859465
 20
109.6814749920221
 30
0.0
 10
76.30319242310237
 20
109.9478127992197
 30
0.0
 10
76.50055207526571
 20
110.2047904319478
 30
0.0
 10
76.72647293449678
 20
110.4576924509745
 30
0.0
 10
77.00050855675549
 20
110.7270435467743
 30
0.0
 10
77.33814022088793
 20
111.0254278215615
 30
0.0
 10
77.73972145836561
 20
111.3494904243581
 30
0.0
 10
78.20620572226324
 20
111.6967240801335
 30
0.0
 10
78.71852396814063
 20
112.0517143845138
 30
0.0
 10
79.27385024097275
 20
112.4115437997089
 30
0.0
 10
79.88606971314347
 20
112.7843262210367
 30
0.0
 10
80.59298358911663
 20
113.2024928961303
 30
0.0
 10
81.42012700822681
 20
113.68914715403
 30
0.0
 10
82.32340090763841
 20
114.2356705358587
 30
0.0
 10
83.14275607058329
 20
114.7593360507738
 30
0.0
 10
83.80032354725186
 20
115.2190450933963
 30
0.0
 10
84.27230721241022
 20
115.600068037763
 30
0.0
 10
84.63990262618388
 20
115.9538694535833
 30
0.0
 10
84.91084796815563
 20
116.2804907534177
 30
0.0
 10
85.10450565785909
 20
116.5796816558891
 30
0.0
 10
85.25360099000977
 20
116.9013051134243
 30
0.0
 10
85.33006758019681
 20
117.2246755188995
 30
0.0
 10
85.35525233904991
 20
117.4538111705389
 30
0.0
 10
85.34979128215949
 20
117.5514898793616
 30
0.0
 10
85.34966876929619
 20
117.5536683608467
 30
0.0
  0
ARC
  5
C5C
330
C43
100
AcDbEntity
  8
DV3_Default
 62
     7
100
AcDbCircle
 10
43.95698610419788
 20
110.2186805613171
 30
0.0
 40
1.97741396681193
100
AcDbArc
 50
209.3469867804889
 51
245.3848340290533
  0
ARC
  5
C5D
330
C43
100
AcDbEntity
  8
DV3_Default
 62
     7
100
AcDbCircle
 10
32.35788798397145
 20
144.4450105650933
 30
0.0
 40
0.2999999971749059
100
AcDbArc
 50
89.99990416054403
 51
182.2924612104467
  0
ARC
  5
C5E
330
C43
100
AcDbEntity
  8
DV3_Default
 62
     7
100
AcDbCircle
 10
85.74211205331065
 20
144.4450105651844
 30
0.0
 40
0.2999999982286002
100
AcDbArc
 50
357.8206732522837
 51
90.00006010799069
  0
LINE
  5
C5F
330
C43
100
AcDbEntity
  8
DV3_Default
 62
     7
100
AcDbLine
 10
33.62683540564474
 20
147.3707399913652
 30
0.0
 11
84.47316459435525
 21
147.3707399913652
 31
0.0
  0
ARC
  5
C60
330
C43
100
AcDbEntity
  8
DV3_Default
 62
     7
100
AcDbCircle
 10
59.05000000000001
 20
155.4707399913656
 30
0.0
 40
26.3
100
AcDbArc
 50
197.937826521738
 51
204.0950188444827
  0
ARC
  5
C61
330
C43
100
AcDbEntity
  8
DV3_Default
 62
     7
100
AcDbCircle
 10
59.05000000000001
 20
155.4707399913656
 30
0.0
 40
26.29999999999999
100
AcDbArc
 50
335.9269688109243
 51
342.062173478262
  0
LINE
  5
C62
330
C43
100
AcDbEntity
  8
DV3_Default
 62
     7
100
AcDbLine
 10
32.78904290468554
 20
186.5777309416984
 30
0.0
 11
33.12685444215921
 21
147.8663769474376
 31
0.0
  0
LINE
  5
C63
330
C43
100
AcDbEntity
  8
DV3_Default
 62
     7
100
AcDbLine
 10
84.97314555784079
 20
147.8663769474376
 30
0.0
 11
85.31095709531447
 21
186.5777309416984
 31
0.0
  0
ARC
  5
C64
330
C43
100
AcDbEntity
  8
DV3_Default
 62
     7
100
AcDbCircle
 10
84.47316459435549
 20
147.8707399913652
 30
0.0
 40
0.5000000000000005
100
AcDbArc
 50
270.0
 51
359.5000256490366
  0
ARC
  5
C65
330
C43
100
AcDbEntity
  8
DV3_Default
 62
     7
100
AcDbCircle
 10
33.6268354056445
 20
147.8707399913652
 30
0.0
 40
0.4999999999999991
100
AcDbArc
 50
180.4999743509634
 51
270.0
  0
LINE
  5
C66
330
C43
100
AcDbEntity
  8
DV3_Default
 62
     7
100
AcDbLine
 10
7.813387646858016
 20
186.5777309416984
 30
0.0
 11
110.286612353142
 21
186.5777309416984
 31
0.0
  0
LINE
  5
C67
330
C43
100
AcDbEntity
  8
DV3_Default
 62
     7
100
AcDbLine
 10
111.75
 20
193.5777309416984
 30
0.0
 11
6.349999999999994
 21
193.5777309416984
 31
0.0
  0
LINE
  5
C68
330
C43
100
AcDbEntity
  8
DV3_Default
 62
     7
100
AcDbLine
 10
6.350000000000008
 20
193.5777309416984
 30
0.0
 11
6.513917934459115
 21
187.8406032356299
 31
0.0
  0
LINE
  5
C69
330
C43
100
AcDbEntity
  8
DV3_Default
 62
     7
100
AcDbLine
 10
111.5860820655409
 20
187.8406032356299
 30
0.0
 11
111.75
 21
193.5777309416984
 31
0.0
  0
ARC
  5
C6A
330
C43
100
AcDbEntity
  8
DV3_Default
 62
     7
100
AcDbCircle
 10
110.286612353142
 20
187.8777309416985
 30
0.0
 40
1.299999999999995
100
AcDbArc
 50
270.0
 51
358.3634229583812
  0
ARC
  5
C6B
330
C43
100
AcDbEntity
  8
DV3_Default
 62
     7
100
AcDbCircle
 10
7.813387646858016
 20
187.8777309416985
 30
0.0
 40
1.299999999999998
100
AcDbArc
 50
181.6365770416176
 51
270.0
  0
ENDBLK
  5
C6C
330
C43
100
AcDbEntity
  8
0
100
AcDbBlockEnd
  0
BLOCK
  5
C8A
330
C89
100
AcDbEntity
  8
0
100
AcDbBlockBegin
  2
*D27
 70
     1
 10
0.0
 20
0.0
 30
0.0
  3
*D27
  1

  0
LINE
  5
CEF
330
C89
100
AcDbEntity
  8
DIMENSION
440
 16777216
370
     0
100
AcDbLine
 10
3.500000000000007
 20
315.0902546792058
 30
0.0
 11
3.500000000000007
 21
325.0902546792058
 31
0.0
  0
LINE
  5
CF0
330
C89
100
AcDbEntity
  8
DIMENSION
440
 16777216
370
     0
100
AcDbLine
 10
108.9
 20
315.0902546792058
 30
0.0
 11
108.9
 21
325.0902546792058
 31
0.0
  0
LINE
  5
CF1
330
C89
100
AcDbEntity
  8
DIMENSION
440
 16777216
370
     0
100
AcDbLine
 10
3.500000000000007
 20
320.0902546792058
 30
0.0
 11
108.9
 21
320.0902546792058
 31
0.0
  0
MTEXT
  5
CF2
330
C89
100
AcDbEntity
  8
DIMENSION
 62
     7
440
 16777216
100
AcDbMText
 10
56.20000000000002
 20
328.3019538435512
 30
0.0
 40
8.0
 41
0.0
 46
0.0
 71
     5
 72
     1
  1
\A1;%%C105
 73
     1
 44
1.0
  0
POINT
  5
CF3
330
C89
100
AcDbEntity
  8
Defpoints
 62
     0
440
 16777216
100
AcDbPoint
 10
3.500000000000003
 20
250.6637898017865
 30
0.0
  0
POINT
  5
CF4
330
C89
100
AcDbEntity
  8
Defpoints
 62
     0
440
 16777216
100
AcDbPoint
 10
108.9
 20
250.6637898017865
 30
0.0
  0
POINT
  5
CF5
330
C89
100
AcDbEntity
  8
Defpoints
 62
     0
440
 16777216
100
AcDbPoint
 10
108.9
 20
320.0902546792058
 30
0.0
  0
ENDBLK
  5
C8B
330
C89
100
AcDbEntity
  8
0
100
AcDbBlockEnd
  0
BLOCK
  5
C9A
330
C99
100
AcDbEntity
  8
0
100
AcDbBlockBegin
  2
*D28
 70
     1
 10
0.0
 20
0.0
 30
0.0
  3
*D28
  1

  0
LINE
  5
CC1
330
C99
100
AcDbEntity
  8
DIMENSION
440
 16777216
370
     0
100
AcDbLine
 10
172.8313584690167
 20
315.0902546792058
 30
0.0
 11
172.8313584690167
 21
325.0902546792058
 31
0.0
  0
LINE
  5
CC2
330
C99
100
AcDbEntity
  8
DIMENSION
440
 16777216
370
     0
100
AcDbLine
 10
259.6835132987717
 20
315.0902546792058
 30
0.0
 11
259.6835132987717
 21
325.0902546792058
 31
0.0
  0
LINE
  5
CC3
330
C99
100
AcDbEntity
  8
DIMENSION
440
 16777216
370
     0
100
AcDbLine
 10
172.8313584690167
 20
320.0902546792058
 30
0.0
 11
259.6835132987717
 21
320.0902546792058
 31
0.0
  0
MTEXT
  5
CC4
330
C99
100
AcDbEntity
  8
DIMENSION
 62
     7
440
 16777216
100
AcDbMText
 10
216.2574358838942
 20
328.1961042613785
 30
0.0
 40
8.0
 41
0.0
 46
0.0
 71
     5
 72
     1
  1
\A1;87
 73
     1
 44
1.0
  0
POINT
  5
CC5
330
C99
100
AcDbEntity
  8
Defpoints
 62
     0
440
 16777216
100
AcDbPoint
 10
172.8313584690167
 20
303.3637898017861
 30
0.0
  0
POINT
  5
CC6
330
C99
100
AcDbEntity
  8
Defpoints
 62
     0
440
 16777216
100
AcDbPoint
 10
259.6835132987717
 20
152.5554090341662
 30
0.0
  0
POINT
  5
CC7
330
C99
100
AcDbEntity
  8
Defpoints
 62
     0
440
 16777216
100
AcDbPoint
 10
259.6835132987717
 20
320.0902546792058
 30
0.0
  0
ENDBLK
  5
C9B
330
C99
100
AcDbEntity
  8
0
100
AcDbBlockEnd
  0
BLOCK
  5
CCE
330
CCD
100
AcDbEntity
  8
0
100
AcDbBlockBegin
  2
*D30
 70
     1
 10
0.0
 20
0.0
 30
0.0
  3
*D30
  1

  0
LINE
  5
CE8
330
CCD
100
AcDbEntity
  8
DIMENSION
440
 16777216
370
     0
100
AcDbLine
 10
29.93904290468554
 20
95.7101916360907
 30
0.0
 11
29.93904290468554
 21
105.7101916360907
 31
0.0
  0
LINE
  5
CE9
330
CCD
100
AcDbEntity
  8
DIMENSION
440
 16777216
370
     0
100
AcDbLine
 10
82.46095709531447
 20
95.7101916360907
 30
0.0
 11
82.46095709531447
 21
105.7101916360907
 31
0.0
  0
LINE
  5
CEA
330
CCD
100
AcDbEntity
  8
DIMENSION
440
 16777216
370
     0
100
AcDbLine
 10
29.93904290468554
 20
100.7101916360907
 30
0.0
 11
82.46095709531447
 21
100.7101916360907
 31
0.0
  0
MTEXT
  5
CEB
330
CCD
100
AcDbEntity
  8
DIMENSION
 62
     7
440
 16777216
100
AcDbMText
 10
56.2
 20
108.9218908004361
 30
0.0
 40
8.0
 41
0.0
 46
0.0
 71
     5
 72
     1
  1
\A1;%%C53
 73
     1
 44
1.0
  0
POINT
  5
CEC
330
CCD
100
AcDbEntity
  8
Defpoints
 62
     0
440
 16777216
100
AcDbPoint
 10
29.93904290468554
 20
80.22773094169847
 30
0.0
  0
POINT
  5
CED
330
CCD
100
AcDbEntity
  8
Defpoints
 62
     0
440
 16777216
100
AcDbPoint
 10
82.46095709531447
 20
80.22773094169847
 30
0.0
  0
POINT
  5
CEE
330
CCD
100
AcDbEntity
  8
Defpoints
 62
     0
440
 16777216
100
AcDbPoint
 10
82.46095709531447
 20
100.7101916360907
 30
0.0
  0
ENDBLK
  5
CCF
330
CCD
100
AcDbEntity
  8
0
100
AcDbBlockEnd
  0
BLOCK
  5
CDE
330
CDD
100
AcDbEntity
  8
0
100
AcDbBlockBegin
  2
*D31
 70
     1
 10
0.0
 20
0.0
 30
0.0
  3
*D31
  1

  0
LINE
  5
CE0
330
CDD
100
AcDbEntity
  8
DIMENSION
440
 16777216
370
     0
100
AcDbLine
 10
275.3604205364637
 20
303.3637898017862
 30
0.0
 11
285.3604205364637
 21
303.3637898017862
 31
0.0
  0
LINE
  5
CE1
330
CDD
100
AcDbEntity
  8
DIMENSION
440
 16777216
370
     0
100
AcDbLine
 10
275.3604205364637
 20
151.9679797071386
 30
0.0
 11
285.3604205364637
 21
151.9679797071386
 31
0.0
  0
LINE
  5
CE2
330
CDD
100
AcDbEntity
  8
DIMENSION
440
 16777216
370
     0
100
AcDbLine
 10
280.3604205364637
 20
303.3637898017862
 30
0.0
 11
280.3604205364637
 21
151.9679797071386
 31
0.0
  0
MTEXT
  5
CE3
330
CDD
100
AcDbEntity
  8
DIMENSION
 62
     7
440
 16777216
100
AcDbMText
 10
291.9927325141796
 20
227.6658847544623
 30
0.0
 40
8.0
 41
0.0
 46
0.0
 71
     5
 72
     1
  1
\A1;151
 73
     1
 44
1.0
  0
POINT
  5
CE4
330
CDD
100
AcDbEntity
  8
Defpoints
 62
     0
440
 16777216
100
AcDbPoint
 10
172.8313584690168
 20
303.3637898017862
 30
0.0
  0
POINT
  5
CE5
330
CDD
100
AcDbEntity
  8
Defpoints
 62
     0
440
 16777216
100
AcDbPoint
 10
259.0955330749474
 20
151.9679797071386
 30
0.0
  0
POINT
  5
CE6
330
CDD
100
AcDbEntity
  8
Defpoints
 62
     0
440
 16777216
100
AcDbPoint
 10
280.3604205364637
 20
151.9679797071386
 30
0.0
  0
ENDBLK
  5
CDF
330
CDD
100
AcDbEntity
  8
0
100
AcDbBlockEnd
  0
BLOCK
  5
D0C
330
D0B
100
AcDbEntity
  8
0
100
AcDbBlockBegin
  2
*D32
 70
     1
 10
0.0
 20
0.0
 30
0.0
  3
*D32
  1

  0
LINE
  5
D28
330
D0B
100
AcDbEntity
  8
DIMENSION
440
 16777216
370
     0
100
AcDbLine
 10
165.8096995020251
 20
276.924746897101
 30
0.0
 11
155.8096995020252
 21
276.924746897101
 31
0.0
  0
LINE
  5
D29
330
D0B
100
AcDbEntity
  8
DIMENSION
440
 16777216
370
     0
100
AcDbLine
 10
165.8096995020251
 20
224.4028327064722
 30
0.0
 11
155.8096995020252
 21
224.4028327064722
 31
0.0
  0
LINE
  5
D2A
330
D0B
100
AcDbEntity
  8
DIMENSION
440
 16777216
370
     0
100
AcDbLine
 10
160.8096995020252
 20
276.924746897101
 30
0.0
 11
160.8096995020252
 21
224.4028327064722
 31
0.0
  0
MTEXT
  5
D2B
330
D0B
100
AcDbEntity
  8
DIMENSION
 62
     7
440
 16777216
100
AcDbMText
 10
146.6871368279305
 20
250.6637898017865
 30
0.0
 40
8.0
 41
0.0
 46
0.0
 71
     5
 72
     1
  1
\A1;%%C53
 73
     1
 44
1.0
  0
POINT
  5
D2C
330
D0B
100
AcDbEntity
  8
Defpoints
 62
     0
440
 16777216
100
AcDbPoint
 10
179.8313584690168
 20
276.924746897101
 30
0.0
  0
POINT
  5
D2D
330
D0B
100
AcDbEntity
  8
Defpoints
 62
     0
440
 16777216
100
AcDbPoint
 10
179.8313584690168
 20
224.4028327064722
 30
0.0
  0
POINT
  5
D2E
330
D0B
100
AcDbEntity
  8
Defpoints
 62
     0
440
 16777216
100
AcDbPoint
 10
160.8096995020252
 20
224.4028327064722
 30
0.0
  0
ENDBLK
  5
D0D
330
D0B
100
AcDbEntity
  8
0
100
AcDbBlockEnd
  0
BLOCK
  5
D1C
330
D1B
100
AcDbEntity
  8
0
100
AcDbBlockBegin
  2
*D33
 70
     1
 10
0.0
 20
0.0
 30
0.0
  3
*D33
  1

  0
LINE
  5
D1E
330
D1B
100
AcDbEntity
  8
DIMENSION
440
 16777216
370
     0
100
AcDbLine
 10
172.8313584690167
 20
192.2965760134457
 30
0.0
 11
172.8313584690167
 21
182.2965760134457
 31
0.0
  0
LINE
  5
D1F
330
D1B
100
AcDbEntity
  8
DIMENSION
440
 16777216
370
     0
100
AcDbLine
 10
179.8313584690167
 20
192.2965760134457
 30
0.0
 11
179.8313584690167
 21
182.2965760134457
 31
0.0
  0
LINE
  5
D20
330
D1B
100
AcDbEntity
  8
DIMENSION
440
 16777216
370
     0
100
AcDbLine
 10
172.8313584690167
 20
187.2965760134457
 30
0.0
 11
169.3313584690167
 21
187.2965760134457
 31
0.0
  0
LINE
  5
D21
330
D1B
100
AcDbEntity
  8
DIMENSION
440
 16777216
370
     0
100
AcDbLine
 10
179.8313584690167
 20
187.2965760134457
 30
0.0
 11
200.2464002517466
 21
187.2965760134457
 31
0.0
  0
LINE
  5
D22
330
D1B
100
AcDbEntity
  8
DIMENSION
440
 16777216
370
     0
100
AcDbLine
 10
172.8313584690167
 20
187.2965760134457
 30
0.0
 11
179.8313584690167
 21
187.2965760134457
 31
0.0
  0
MTEXT
  5
D23
330
D1B
100
AcDbEntity
  8
DIMENSION
 62
     7
440
 16777216
100
AcDbMText
 10
193.5388793603816
 20
179.2965760134457
 30
0.0
 40
8.0
 41
0.0
 46
0.0
 71
     5
 72
     1
  1
\A1;7
 73
     1
 44
1.0
  0
POINT
  5
D24
330
D1B
100
AcDbEntity
  8
Defpoints
 62
     0
440
 16777216
100
AcDbPoint
 10
172.8313584690167
 20
197.9637898017865
 30
0.0
  0
POINT
  5
D25
330
D1B
100
AcDbEntity
  8
Defpoints
 62
     0
440
 16777216
100
AcDbPoint
 10
179.8313584690167
 20
199.4271774486445
 30
0.0
  0
POINT
  5
D26
330
D1B
100
AcDbEntity
  8
Defpoints
 62
     0
440
 16777216
100
AcDbPoint
 10
179.8313584690167
 20
187.2965760134457
 30
0.0
  0
ENDBLK
  5
D1D
330
D1B
100
AcDbEntity
  8
0
100
AcDbBlockEnd
  0
ENDSEC
  0
SECTION
  2
ENTITIES
  0
INSERT
  5
C7C
330
1F
100
AcDbEntity
  8
Default
100
AcDbBlockReference
  2
SEANNOT_GROUP
 10
-2.849999999999997
 20
-106.35
 30
0.0
  0
INSERT
  5
C7D
330
1F
100
AcDbEntity
  8
Default
100
AcDbBlockReference
  2
SEANNOT_GROUP1
 10
-2.849999999999997
 20
-106.35
 30
0.0
  0
INSERT
  5
C7E
330
1F
100
AcDbEntity
  8
Default
100
AcDbBlockReference
  2
SEANNOT_GROUP2
 10
-2.849999999999997
 20
-106.35
 30
0.0
  0
INSERT
  5
C7F
102
{ACAD_REACTORS
330
C93
102
}
330
1F
100
AcDbEntity
  8
Default
100
AcDbBlockReference
  2
SE
 10
-2.849999999999997
 20
-106.35
 30
0.0
  0
INSERT
  5
C80
102
{ACAD_REACTORS
330
CA3
330
CE7
330
D15
330
D27
102
}
330
1F
100
AcDbEntity
  8
Default
100
AcDbBlockReference
  2
SE1
 10
-2.849999999999997
 20
-106.35
 30
0.0
  0
INSERT
  5
C81
330
1F
100
AcDbEntity
  8
Default
100
AcDbBlockReference
  2
SE2
 10
-2.849999999999997
 20
-106.35
 30
0.0
  0
DIMENSION
  5
C84
102
{ACAD_XDICTIONARY
360
C85
102
}
102
{ACAD_REACTORS
330
C93
102
}
330
1F
100
AcDbEntity
  8
DIMENSION
100
AcDbDimension
280
     0
  2
*D27
 10
108.9
 20
320.0902546792058
 30
0.0
 11
56.20000000000002
 21
328.3019538435512
 31
0.0
 70
    32
 71
     5
 42
105.4
 73
     0
 74
     0
 75
     0
  3
RG Dimension Lines
100
AcDbAlignedDimension
 13
3.500000000000003
 23
250.6637898017865
 33
0.0
 14
108.9
 24
250.6637898017865
 34
0.0
100
AcDbRotatedDimension
1001
AcadAnnotative
1000
AnnotativeData
1002
{
1070
     1
1070
     1
1002
}
1001
ACAD
1000
DSTYLE
1002
{
1070
     3
1000
%%C<>
1002
}
  0
DIMENSION
  5
C94
102
{ACAD_XDICTIONARY
360
C95
102
}
102
{ACAD_REACTORS
330
CA3
102
}
330
1F
100
AcDbEntity
  8
DIMENSION
100
AcDbDimension
280
     0
  2
*D28
 10
259.6835132987717
 20
320.0902546792058
 30
0.0
 11
216.2574358838942
 21
328.1961042613785
 31
0.0
 70
    32
 71
     5
 42
86.85215482975497
 73
     0
 74
     0
 75
     0
  3
RG Dimension Lines
100
AcDbAlignedDimension
 13
172.8313584690167
 23
303.3637898017861
 33
0.0
 14
259.6835132987717
 24
152.5554090341662
 34
0.0
100
AcDbRotatedDimension
1001
AcadAnnotative
1000
AnnotativeData
1002
{
1070
     1
1070
     1
1002
}
  0
DIMENSION
  5
CD8
102
{ACAD_XDICTIONARY
360
CD9
102
}
102
{ACAD_REACTORS
330
CE7
102
}
330
1F
100
AcDbEntity
  8
DIMENSION
100
AcDbDimension
280
     0
  2
*D31
 10
280.3604205364637
 20
151.9679797071386
 30
0.0
 11
291.9927325141796
 21
227.6658847544623
 31
0.0
 70
    32
 71
     5
 42
151.3958100946475
 73
     0
 74
     0
 75
     0
  3
RG Dimension Lines
100
AcDbAlignedDimension
 13
172.8313584690167
 23
303.3637898017861
 33
0.0
 14
259.0955330749472
 24
151.9679797071385
 34
0.0
 50
90.0
100
AcDbRotatedDimension
1001
AcadAnnotative
1000
AnnotativeData
1002
{
1070
     1
1070
     1
1002
}
  0
DIMENSION
  5
D06
102
{ACAD_XDICTIONARY
360
D07
102
}
102
{ACAD_REACTORS
330
D15
102
}
330
1F
100
AcDbEntity
  8
DIMENSION
100
AcDbDimension
280
     0
  2
*D32
 10
160.8096995020252
 20
224.4028327064722
 30
0.0
 11
146.6871368279305
 21
250.6637898017865
 31
0.0
 70
    32
 71
     5
 42
52.52191419062882
 73
     0
 74
     0
 75
     0
  3
RG Dimension Lines
100
AcDbAlignedDimension
 13
179.8313584690167
 23
276.9247468971009
 33
0.0
 14
179.8313584690167
 24
224.4028327064721
 34
0.0
 50
90.0
100
AcDbRotatedDimension
1001
AcadAnnotative
1000
AnnotativeData
1002
{
1070
     1
1070
     1
1002
}
1001
ACAD
1000
DSTYLE
1002
{
1070
     3
1000
%%C<>
1002
}
  0
DIMENSION
  5
D16
102
{ACAD_XDICTIONARY
360
D17
102
}
102
{ACAD_REACTORS
330
D27
102
}
330
1F
100
AcDbEntity
  8
DIMENSION
100
AcDbDimension
280
     0
  2
*D33
 10
179.8313584690167
 20
187.2965760134457
 30
0.0
 11
193.5388793603816
 21
179.2965760134457
 31
0.0
 70
    32
 71
     5
 42
7.000000000000028
 73
     0
 74
     0
 75
     0
  3
RG Dimension Lines
100
AcDbAlignedDimension
 13
172.8313584690167
 23
197.9637898017865
 33
0.0
 14
179.8313584690167
 24
199.4271774486445
 34
0.0
100
AcDbRotatedDimension
1001
AcadAnnotative
1000
AnnotativeData
1002
{
1070
     1
1070
     1
1002
}
  0
VIEWPORT
  5
4F4
102
{ACAD_XDICTIONARY
360
4F5
102
}
330
4ED
100
AcDbEntity
 67
     1
  8
0
100
AcDbViewport
 10
60.0
 20
45.0
 30
0.0
 40
182.90175
 41
95.22
 68
     1
 69
     1
 12
60.0
 22
45.0
 13
0.0
 23
0.0
 14
10.0
 24
10.0
 15
10.0
 25
10.0
 16
0.0
 26
0.0
 36
1.0
 17
0.0
 27
0.0
 37
0.0
 42
50.0
 43
0.0
 44
0.0
 45
95.22
 50
0.0
 51
0.0
 72
  1000
 90
   819232
  1

281
     0
 71
     1
 74
     0
110
0.0
120
0.0
130
0.0
111
1.0
121
0.0
131
0.0
112
0.0
122
1.0
132
0.0
 79
     0
146
0.0
170
     0
 61
     5
348
F5
292
     1
282
     1
141
0.0
142
0.0
 63
   250
421
  3355443
  0
VIEWPORT
  5
4F8
102
{ACAD_XDICTIONARY
360
4F9
102
}
330
4ED
100
AcDbEntity
 67
     1
  8
0
100
AcDbViewport
 10
59.80176845453446
 20
44.86793340353162
 30
0.0
 40
115.0
 41
85.16367
 68
     2
 69
     2
 12
210.0
 22
148.5
 13
0.0
 23
0.0
 14
10.0
 24
10.0
 15
10.0
 25
10.0
 16
0.0
 26
0.0
 36
1.0
 17
0.0
 27
0.0
 37
0.0
 42
50.0
 43
0.0
 44
0.0
 45
299.261421319797
 50
0.0
 51
0.0
 72
  1000
 90
   819296
  1

281
     0
 71
     1
 74
     0
110
0.0
120
0.0
130
0.0
111
1.0
121
0.0
131
0.0
112
0.0
122
1.0
132
0.0
 79
     0
146
0.0
170
     0
 61
     5
348
F5
292
     1
282
     1
141
0.0
142
0.0
 63
   250
421
  3355443
  0
ENDSEC
  0
SECTION
  2
OBJECTS
  0
DICTIONARY
  5
C
330
0
100
AcDbDictionary
281
     1
  3
ACAD_ASSOCPERSSUBENTMANAGER
350
50A
  3
ACAD_CIP_PREVIOUS_PRODUCT_INFO
350
216
  3
ACAD_COLOR
350
6B
  3
ACAD_DETAILVIEWSTYLE
350
21B
  3
ACAD_FLATSHOT
350
3BA
  3
ACAD_GROUP
350
D
  3
ACAD_LAYOUT
350
1A
  3
ACAD_MATERIAL
350
6A
  3
ACAD_MLEADERSTYLE
350
12D
  3
ACAD_MLINESTYLE
350
17
  3
ACAD_PLOTSETTINGS
350
19
  3
ACAD_PLOTSTYLENAME
350
E
  3
ACAD_RENDER_ACTIVE_RAPIDRT_SETTINGS
350
2A7
  3
ACAD_RENDER_RAPIDRT_SETTINGS
350
2A0
  3
ACAD_SCALELIST
350
10C
  3
ACAD_SECTIONVIEWSTYLE
350
219
  3
ACAD_TABLESTYLE
350
7E
  3
ACAD_VISUALSTYLE
350
EF
  3
ACDB_RECOMPOSE_DATA
350
D30
  3
AcDbVariableDictionary
350
5E
  0
DICTIONARY
  5
1FF
330
2
100
AcDbDictionary
280
     1
281
     1
  3
ACAD_LAYERSTATES
360
200
  0
DICTIONARY
  5
13C
330
10
100
AcDbDictionary
280
     1
281
     1
  0
DICTIONARY
  5
1CE
330
1F
100
AcDbDictionary
280
     1
281
     1
  0
DICTIONARY
  5
C85
330
C84
100
AcDbDictionary
280
     1
281
     1
  3
ACAD_DIMASSOC
360
C93
  3
AcDbContextDataManager
360
C86
  0
DICTIONARY
  5
C95
330
C94
100
AcDbDictionary
280
     1
281
     1
  3
ACAD_DIMASSOC
360
CA3
  3
AcDbContextDataManager
360
C96
  0
DICTIONARY
  5
CD9
330
CD8
100
AcDbDictionary
280
     1
281
     1
  3
ACAD_DIMASSOC
360
CE7
  3
AcDbContextDataManager
360
CDA
  0
DICTIONARY
  5
D07
330
D06
100
AcDbDictionary
280
     1
281
     1
  3
ACAD_DIMASSOC
360
D15
  3
AcDbContextDataManager
360
D08
  0
DICTIONARY
  5
D17
330
D16
100
AcDbDictionary
280
     1
281
     1
  3
ACAD_DIMASSOC
360
D27
  3
AcDbContextDataManager
360
D18
  0
DICTIONARY
  5
4F5
330
4F4
100
AcDbDictionary
280
     1
281
     1
  3
ASDK_XREC_ANNOTATION_SCALE_INFO
360
4F6
  0
DICTIONARY
  5
4F9
330
4F8
100
AcDbDictionary
280
     1
281
     1
  3
ASDK_XREC_ANNOTATION_SCALE_INFO
360
4FA
  0
ACDBASSOCPERSSUBENTMANAGER
  5
50A
102
{ACAD_REACTORS
330
C
102
}
330
C
100
AcDbAssocPersSubentManager
 90
        2
 90
        3
 90
        0
 90
        2
 90
       13
 90
        0
 90
       13
 90
        1
 90
        2
 90
        3
 90
        4
 90
        5
 90
        6
 90
        7
 90
        8
 90
        9
 90
       10
 90
       11
 90
       12
 90
       13
 90
        0
 90
        0
290
     0
  0
XRECORD
  5
216
102
{ACAD_REACTORS
330
C
102
}
330
C
100
AcDbXrecord
280
     1
300
ACD
300
2021
300

  0
DICTIONARY
  5
6B
102
{ACAD_REACTORS
330
C
102
}
330
C
100
AcDbDictionary
281
     1
  0
DICTIONARY
  5
21B
102
{ACAD_REACTORS
330
C
102
}
330
C
100
AcDbDictionary
281
     1
  3
Imperial24
350
2BC
  3
Metric50
350
21C
  0
XRECORD
  5
3BA
102
{ACAD_REACTORS
330
C
102
}
330
C
100
AcDbXrecord
280
     1
 71
     0
  0
DICTIONARY
  5
D
102
{ACAD_REACTORS
330
C
102
}
330
C
100
AcDbDictionary
281
     1
  0
DICTIONARY
  5
1A
102
{ACAD_REACTORS
330
C
102
}
330
C
100
AcDbDictionary
281
     1
  3
Layout1
350
4EE
  3
Model
350
22
  0
DICTIONARY
  5
6A
102
{ACAD_REACTORS
330
C
102
}
330
C
100
AcDbDictionary
281
     1
  3
ByBlock
350
ED
  3
ByLayer
350
EC
  3
Global
350
EE
  0
DICTIONARY
  5
12D
102
{ACAD_REACTORS
330
C
102
}
330
C
100
AcDbDictionary
281
     1
  3
Annotative
350
13B
  3
Standard
350
12E
  0
DICTIONARY
  5
17
102
{ACAD_REACTORS
330
C
102
}
330
C
100
AcDbDictionary
281
     1
  3
Standard
350
18
  0
DICTIONARY
  5
19
102
{ACAD_REACTORS
330
C
102
}
330
C
100
AcDbDictionary
281
     1
  0
ACDBDICTIONARYWDFLT
  5
E
102
{ACAD_REACTORS
330
C
102
}
330
C
100
AcDbDictionary
281
     1
  3
Normal
350
F
100
AcDbDictionaryWithDefault
340
F
  0
RAPIDRTRENDERSETTINGS
  5
2A7
102
{ACAD_REACTORS
330
C
102
}
330
C
100
AcDbRenderSettings
 90
        2
  1
Medium
290
     1
290
     0
290
     1
290
     1
  1

  1
Applies 5 rendering levels
 90
        0
100
AcDbRapidRTRenderSettings
 90
        3
 70
     0
 90
        5
 90
        1
 70
     1
 70
     2
 40
3.0
 40
3.0
290
     1
  0
DICTIONARY
  5
2A0
102
{ACAD_REACTORS
330
C
102
}
330
C
100
AcDbDictionary
281
     1
  3
Coffee-Break Quality
350
2A4
  3
High
350
2A3
  3
Low
350
2A1
  3
Lunch Quality
350
2A5
  3
Medium
350
2A2
  3
Overnight Quality
350
2A6
  0
DICTIONARY
  5
10C
102
{ACAD_REACTORS
330
C
102
}
330
C
100
AcDbDictionary
281
     1
  3
A0
350
10D
  3
A1
350
1BE
  3
A2
350
1BF
  3
A3
350
1C0
  3
A4
350
1C1
  3
A5
350
1C2
  3
A6
350
1C3
  3
A7
350
1C4
  3
A8
350
1C5
  3
A9
350
1C6
  3
B0
350
1C7
  3
B1
350
1C8
  3
B2
350
1C9
  3
B3
350
1CA
  3
B4
350
1CB
  3
B5
350
1CC
  3
B6
350
1CD
  0
DICTIONARY
  5
219
102
{ACAD_REACTORS
330
C
102
}
330
C
100
AcDbDictionary
281
     1
  3
Imperial24
350
2BB
  3
Metric50
350
21A
  0
DICTIONARY
  5
7E
102
{ACAD_REACTORS
330
C
102
}
330
C
100
AcDbDictionary
281
     1
  3
Standard
350
7F
  0
DICTIONARY
  5
EF
102
{ACAD_REACTORS
330
C
102
}
330
C
100
AcDbDictionary
281
     1
  3
2dWireframe
350
F5
  3
Basic
350
F4
  3
Brighten
350
FB
  3
ColorChange
350
FF
  3
Conceptual
350
F8
  3
Dim
350
FA
  3
EdgeColorOff
350
1E6
  3
Facepattern
350
FE
  3
Flat
350
F0
  3
FlatWithEdges
350
F1
  3
Gouraud
350
F2
  3
GouraudWithEdges
350
F3
  3
Hidden
350
F7
  3
JitterOff
350
1E4
  3
Linepattern
350
FD
  3
OverhangOff
350
1E5
  3
Realistic
350
F9
  3
Shaded
350
1F3
  3
Shaded with edges
350
1F2
  3
Shades of Gray
350
1EF
  3
Sketchy
350
1F0
  3
Thicken
350
FC
  3
Wireframe
350
F6
  3
X-Ray
350
1F1
  0
XRECORD
  5
D30
102
{ACAD_REACTORS
330
C
102
}
330
C
100
AcDbXrecord
280
     1
 90
        1
330
7F
  0
DICTIONARY
  5
5E
102
{ACAD_REACTORS
330
C
102
}
330
C
100
AcDbDictionary
281
     1
  3
CANNOSCALE
350
146
  3
CENTEREXE
350
259
  3
CENTERLTYPEFILE
350
25A
  3
CMLEADERSTYLE
350
145
  3
CTABLESTYLE
350
84
  3
CVIEWDETAILSTYLE
350
227
  3
CVIEWSECTIONSTYLE
350
228
  3
DIMASSOC
350
5F
  3
HIDETEXT
350
63
  3
LAYEREVAL
350
1AE
  3
LAYERNOTIFY
350
1AF
  0
DICTIONARY
  5
200
102
{ACAD_REACTORS
330
1FF
102
}
330
1FF
100
AcDbDictionary
281
     1
  0
DIMASSOC
  5
C93
102
{ACAD_REACTORS
330
C85
102
}
330
C85
100
AcDbDimAssoc
330
C84
 90
        3
 70
     0
 71
     0
  1
AcDbOsnapPointRef
 72
     5
331
C7F
331
C1A
 73
     2
 91
        0
 40
3.141592653589793
 10
3.500000000000003
 20
250.6637898017865
 30
0.0
 75
     0
  1
AcDbOsnapPointRef
 72
     1
331
C7F
331
C19
 73
     2
 91
        0
 40
6.283185307179586
 10
108.9
 20
250.6637898017865
 30
0.0
 75
     0
  0
DICTIONARY
  5
C86
102
{ACAD_REACTORS
330
C85
102
}
330
C85
100
AcDbDictionary
281
     1
  3
ACDB_ANNOTATIONSCALES
350
C87
  0
DIMASSOC
  5
CA3
102
{ACAD_REACTORS
330
C95
102
}
330
C95
100
AcDbDimAssoc
330
C94
 90
        3
 70
     0
 71
     0
  1
AcDbOsnapPointRef
 72
     1
331
C80
331
C3D
 73
     2
 91
        0
 40
1.0
 10
172.8313584690167
 20
303.3637898017861
 30
0.0
 75
     0
  1
AcDbOsnapPointRef
 72
    13
331
C80
331
C2F
 73
     2
 91
        0
 40
0.0
 10
259.6835132987717
 20
152.5554090341662
 30
0.0
 75
     0
  0
DICTIONARY
  5
C96
102
{ACAD_REACTORS
330
C95
102
}
330
C95
100
AcDbDictionary
281
     1
  3
ACDB_ANNOTATIONSCALES
350
C97
  0
DIMASSOC
  5
CE7
102
{ACAD_REACTORS
330
CD9
102
}
330
CD9
100
AcDbDimAssoc
330
CD8
 90
        2
 70
     0
 71
     0
  1
AcDbOsnapPointRef
 72
     5
331
C80
331
C30
 73
     2
 91
        0
 40
4.712388980384689
 10
259.0955330749472
 20
151.9679797071385
 30
0.0
 75
     0
  0
DICTIONARY
  5
CDA
102
{ACAD_REACTORS
330
CD9
102
}
330
CD9
100
AcDbDictionary
281
     1
  3
ACDB_ANNOTATIONSCALES
350
CDB
  0
DIMASSOC
  5
D15
102
{ACAD_REACTORS
330
D07
102
}
330
D07
100
AcDbDimAssoc
330
D06
 90
        3
 70
     0
 71
     0
  1
AcDbOsnapPointRef
 72
     1
331
C80
331
C39
 73
     2
 91
        0
 40
1.0
 10
179.8313584690167
 20
276.9247468971009
 30
0.0
 75
     0
  1
AcDbOsnapPointRef
 72
    13
331
C80
331
C38
 73
     2
 91
        0
 40
0.0
 10
179.8313584690167
 20
224.4028327064721
 30
0.0
 75
     0
  0
DICTIONARY
  5
D08
102
{ACAD_REACTORS
330
D07
102
}
330
D07
100
AcDbDictionary
281
     1
  3
ACDB_ANNOTATIONSCALES
350
D09
  0
DIMASSOC
  5
D27
102
{ACAD_REACTORS
330
D17
102
}
330
D17
100
AcDbDimAssoc
330
D16
 90
        3
 70
     0
 71
     0
  1
AcDbOsnapPointRef
 72
    13
331
C80
331
C3E
 73
     2
 91
        0
 40
0.0
 10
172.8313584690167
 20
197.9637898017865
 30
0.0
 75
     0
  1
AcDbOsnapPointRef
 72
     1
331
C80
331
C41
 73
     2
 91
        0
 40
6.283185307179586
 10
179.8313584690167
 20
199.4271774486445
 30
0.0
 75
     0
  0
DICTIONARY
  5
D18
102
{ACAD_REACTORS
330
D17
102
}
330
D17
100
AcDbDictionary
281
     1
  3
ACDB_ANNOTATIONSCALES
350
D19
  0
XRECORD
  5
4F6
102
{ACAD_REACTORS
330
4F5
102
}
330
4F5
100
AcDbXrecord
280
     1
 90
        1
340
10D
  0
XRECORD
  5
4FA
102
{ACAD_REACTORS
330
4F9
102
}
330
4F9
100
AcDbXrecord
280
     1
 90
        1
340
10D
  0
ACDBDETAILVIEWSTYLE
  5
2BC
102
{ACAD_REACTORS
330
21B
102
}
330
21B
100
AcDbModelDocViewStyle
 70
     0
  3
Imperial24
290
     0
300
Imperial24
 90
        0
100
AcDbDetailViewStyle
 70
     0
 71
     0
 90
        3
 71
     1
340
11
 62
   256
 40
0.24
340
0
 62
   256
 40
0.24
300

 40
0.36
280
     3
 71
     2
340
16
 90
       25
 62
   256
 71
     3
340
11
 62
   256
 40
0.24
 90
        1
 40
0.75
 90
        1
300
%<\AcVar ViewType \f "%tc1">% %<\AcVar ViewDetailId>%\PSCALE %<\AcVar ViewScale \f "%sn">%
 71
     4
340
16
 90
       25
 62
   256
340
16
 90
       25
 62
   256
280
     0
  0
ACDBDETAILVIEWSTYLE
  5
21C
102
{ACAD_REACTORS
330
21B
102
}
330
21B
100
AcDbModelDocViewStyle
 70
     0
  3
Metric50
290
     0
300
Metric50
 90
        0
100
AcDbDetailViewStyle
 70
     0
 71
     0
 90
        3
 71
     1
340
11
 62
   256
 40
5.0
340
0
 62
   256
 40
5.0
300

 40
0.0
280
     1
 71
     2
340
16
 90
       25
 62
   256
 71
     3
340
11
 62
   256
 40
5.0
 90
        0
 40
15.0
 90
        1
300
%<\AcVar ViewDetailId>% (%<\AcVar ViewScale \f "%sn">%)
 71
     4
340
16
 90
       25
 62
   256
340
16
 90
       25
 62
   256
280
     0
  0
LAYOUT
  5
4EE
102
{ACAD_REACTORS
330
1A
102
}
330
1A
100
AcDbPlotSettings
  1

  2
DWG To PDF.pc3
  4
User-1
  6

 40
0.0
 41
0.0
 42
0.0
 43
0.0
 44
90.0
 45
120.0
 46
0.0
 47
0.0
 48
0.0
 49
0.0
140
0.0
141
0.0
142
1.0
143
1.0
 70
   688
 72
     1
 73
     1
 74
     5
  7
monochrome.ctb
 75
    16
147
1.0
 76
     0
 77
     2
 78
   300
148
0.0
149
0.0
100
AcDbLayout
  1
Layout1
 70
     1
 71
     1
 10
0.0
 20
0.0
 11
120.0
 21
90.0
 12
0.0
 22
0.0
 32
0.0
 14
-0.1982315454655463
 24
-0.1320665964683769
 34
-0.0015258207003583
 15
135.0013736228009
 25
94.99053977778009
 35
0.0000000349246037
146
0.0
 13
0.0
 23
0.0
 33
0.0
 16
1.0
 26
0.0
 36
0.0
 17
0.0
 27
1.0
 37
0.0
 76
     0
330
4ED
331
4F4
1001
ACAD_PSEXT
1000
DWG To PDF.pc3
1000
DWG To PDF
1000
File
1000

1070
     0
  0
LAYOUT
  5
22
102
{ACAD_XDICTIONARY
360
205
102
}
102
{ACAD_REACTORS
330
1A
102
}
330
1A
100
AcDbPlotSettings
  1

  2
none_device
  4
ISO_A4_(210.00_x_297.00_MM)
  6

 40
7.5
 41
20.0
 42
7.5
 43
20.0
 44
210.0
 45
297.0
 46
11.54999923706054
 47
-13.65000009536743
 48
0.0
 49
0.0
140
0.0
141
0.0
142
1.0
143
8.704084754739808
 70
 11952
 72
     1
 73
     0
 74
     0
  7

 75
     0
147
0.1148885871608098
 76
     0
 77
     2
 78
   300
148
0.0
149
0.0
100
AcDbLayout
  1
Model
 70
     1
 71
     0
 10
0.0
 20
0.0
 11
12.0
 21
9.0
 12
0.0
 22
0.0
 32
0.0
 14
0.0
 24
0.0
 34
0.0
 15
0.0
 25
0.0
 35
0.0
146
0.0
 13
0.0
 23
0.0
 33
0.0
 16
1.0
 26
0.0
 36
0.0
 17
0.0
 27
1.0
 37
0.0
 76
     0
330
1F
331
EA
1001
ACAD_PSEXT
1000
None
1000
None
1000
Not applicable
1000
The layout will not be plotted unless a new plotter configuration name is selected.
1070
     0
  0
MATERIAL
  5
ED
102
{ACAD_XDICTIONARY
360
1F9
102
}
102
{ACAD_REACTORS
330
6A
102
}
330
6A
100
AcDbMaterial
  1
ByBlock
 94
       63
  0
MATERIAL
  5
EC
102
{ACAD_XDICTIONARY
360
1F7
102
}
102
{ACAD_REACTORS
330
6A
102
}
330
6A
100
AcDbMaterial
  1
ByLayer
 94
       63
  0
MATERIAL
  5
EE
102
{ACAD_XDICTIONARY
360
173
102
}
102
{ACAD_REACTORS
330
6A
102
}
330
6A
100
AcDbMaterial
  1
Global
 43
0.0007999999797903
 43
0.0
 43
0.0
 43
0.0
 43
0.0
 43
0.0007999999797903
 43
0.0
 43
0.0
 43
0.0
 43
0.0
 43
1.0
 43
0.0
 43
0.0
 43
0.0
 43
0.0
 43
1.0
 49
0.0007999999797903
 49
0.0
 49
0.0
 49
0.0
 49
0.0
 49
0.0007999999797903
 49
0.0
 49
0.0
 49
0.0
 49
0.0
 49
1.0
 49
0.0
 49
0.0
 49
0.0
 49
0.0
 49
1.0
142
0.0007999999797903
142
0.0
142
0.0
142
0.0
142
0.0
142
0.0007999999797903
142
0.0
142
0.0
142
0.0
142
0.0
142
1.0
142
0.0
142
0.0
142
0.0
142
0.0
142
1.0
144
0.0007999999797903
144
0.0
144
0.0
144
0.0
144
0.0
144
0.0007999999797903
144
0.0
144
0.0
144
0.0
144
0.0
144
1.0
144
0.0
144
0.0
144
0.0
144
0.0
144
1.0
 94
       63
1001
ACAD
1070
    -1
1070
     3
1070
     0
1000

1071
        0
1070
     0
  0
MLEADERSTYLE
  5
13B
102
{ACAD_REACTORS
330
12D
102
}
330
12D
100
AcDbMLeaderStyle
179
     2
170
     2
171
     1
172
     0
 90
        2
 40
0.0
 41
0.0
173
     1
 91
-1056964608
340
14
 92
       -2
290
     1
 42
2.0
291
     1
 43
8.0
  3
Standard
 44
4.0
300

342
11
174
     1
178
     1
175
     1
176
     0
 93
-1056964608
 45
4.0
292
     0
297
     0
 46
4.0
 94
-1056964608
 47
1.0
 49
1.0
140
1.0
293
     1
141
0.0
294
     1
177
     0
142
1.0
295
     0
296
     1
143
3.75
271
     0
272
     9
273
     9
298
     0
  0
MLEADERSTYLE
  5
12E
102
{ACAD_REACTORS
330
12D
102
}
330
12D
100
AcDbMLeaderStyle
179
     2
170
     2
171
     1
172
     0
 90
        2
 40
0.0
 41
0.0
173
     1
 91
-1056964608
340
14
 92
       -2
290
     1
 42
2.0
291
     1
 43
8.0
  3
Standard
 44
4.0
300

342
11
174
     1
178
     1
175
     1
176
     0
 93
-1056964608
 45
4.0
292
     0
297
     0
 46
4.0
 94
-1056964608
 47
1.0
 49
1.0
140
1.0
293
     1
141
0.0
294
     1
177
     0
142
1.0
295
     0
296
     0
143
3.75
271
     0
272
     9
273
     9
298
     0
  0
MLINESTYLE
  5
18
102
{ACAD_REACTORS
330
17
102
}
330
17
100
AcDbMlineStyle
  2
STANDARD
 70
     0
  3

 62
   256
 51
90.0
 52
90.0
 71
     2
 49
0.5
 62
   256
  6
BYLAYER
 49
-0.5
 62
   256
  6
BYLAYER
  0
ACDBPLACEHOLDER
  5
F
102
{ACAD_REACTORS
330
E
102
}
330
E
  0
RAPIDRTRENDERSETTINGS
  5
2A4
102
{ACAD_REACTORS
330
2A0
102
}
330
2A0
100
AcDbRenderSettings
 90
        2
  1
Coffee-Break Quality
290
     1
290
     0
290
     1
290
     1
  1

  1
Renders for 10 minutes
 90
        3
100
AcDbRapidRTRenderSettings
 90
        3
 70
     1
 90
        1
 90
       10
 70
     1
 70
     2
 40
3.0
 40
3.0
290
     1
  0
RAPIDRTRENDERSETTINGS
  5
2A3
102
{ACAD_REACTORS
330
2A0
102
}
330
2A0
100
AcDbRenderSettings
 90
        2
  1
High
290
     1
290
     0
290
     1
290
     1
  1

  1
Applies 10 rendering levels
 90
        2
100
AcDbRapidRTRenderSettings
 90
        3
 70
     0
 90
       10
 90
        1
 70
     2
 70
     2
 40
3.0
 40
3.0
290
     1
  0
RAPIDRTRENDERSETTINGS
  5
2A1
102
{ACAD_REACTORS
330
2A0
102
}
330
2A0
100
AcDbRenderSettings
 90
        2
  1
Low
290
     1
290
     0
290
     1
290
     1
  1

  1
Applies 1 rendering level
 90
        0
100
AcDbRapidRTRenderSettings
 90
        3
 70
     0
 90
        1
 90
        1
 70
     0
 70
     2
 40
3.0
 40
3.0
290
     1
  0
RAPIDRTRENDERSETTINGS
  5
2A5
102
{ACAD_REACTORS
330
2A0
102
}
330
2A0
100
AcDbRenderSettings
 90
        2
  1
Lunch Quality
290
     1
290
     0
290
     1
290
     1
  1

  1
Renders for 60 minutes
 90
        4
100
AcDbRapidRTRenderSettings
 90
        3
 70
     1
 90
        1
 90
       60
 70
     2
 70
     2
 40
3.0
 40
3.0
290
     1
  0
RAPIDRTRENDERSETTINGS
  5
2A2
102
{ACAD_REACTORS
330
2A0
102
}
330
2A0
100
AcDbRenderSettings
 90
        2
  1
Medium
290
     1
290
     0
290
     1
290
     1
  1

  1
Applies 5 rendering levels
 90
        1
100
AcDbRapidRTRenderSettings
 90
        3
 70
     0
 90
        5
 90
        1
 70
     1
 70
     2
 40
3.0
 40
3.0
290
     1
  0
RAPIDRTRENDERSETTINGS
  5
2A6
102
{ACAD_REACTORS
330
2A0
102
}
330
2A0
100
AcDbRenderSettings
 90
        2
  1
Overnight Quality
290
     1
290
     0
290
     1
290
     1
  1

  1
Renders for 12 hours
 90
        5
100
AcDbRapidRTRenderSettings
 90
        3
 70
     1
 90
        1
 90
      720
 70
     2
 70
     2
 40
3.0
 40
3.0
290
     1
  0
SCALE
  5
10D
102
{ACAD_REACTORS
330
10C
102
}
330
10C
100
AcDbScale
 70
     0
300
1:1
140
1.0
141
1.0
290
     1
  0
SCALE
  5
1BE
102
{ACAD_REACTORS
330
10C
102
}
330
10C
100
AcDbScale
 70
     0
300
1:2
140
1.0
141
2.0
290
     0
  0
SCALE
  5
1BF
102
{ACAD_REACTORS
330
10C
102
}
330
10C
100
AcDbScale
 70
     0
300
1:4
140
1.0
141
4.0
290
     0
  0
SCALE
  5
1C0
102
{ACAD_REACTORS
330
10C
102
}
330
10C
100
AcDbScale
 70
     0
300
1:5
140
1.0
141
5.0
290
     0
  0
SCALE
  5
1C1
102
{ACAD_REACTORS
330
10C
102
}
330
10C
100
AcDbScale
 70
     0
300
1:8
140
1.0
141
8.0
290
     0
  0
SCALE
  5
1C2
102
{ACAD_REACTORS
330
10C
102
}
330
10C
100
AcDbScale
 70
     0
300
1:10
140
1.0
141
10.0
290
     0
  0
SCALE
  5
1C3
102
{ACAD_REACTORS
330
10C
102
}
330
10C
100
AcDbScale
 70
     0
300
1:16
140
1.0
141
16.0
290
     0
  0
SCALE
  5
1C4
102
{ACAD_REACTORS
330
10C
102
}
330
10C
100
AcDbScale
 70
     0
300
1:20
140
1.0
141
20.0
290
     0
  0
SCALE
  5
1C5
102
{ACAD_REACTORS
330
10C
102
}
330
10C
100
AcDbScale
 70
     0
300
1:30
140
1.0
141
30.0
290
     0
  0
SCALE
  5
1C6
102
{ACAD_REACTORS
330
10C
102
}
330
10C
100
AcDbScale
 70
     0
300
1:40
140
1.0
141
40.0
290
     0
  0
SCALE
  5
1C7
102
{ACAD_REACTORS
330
10C
102
}
330
10C
100
AcDbScale
 70
     0
300
1:50
140
1.0
141
50.0
290
     0
  0
SCALE
  5
1C8
102
{ACAD_REACTORS
330
10C
102
}
330
10C
100
AcDbScale
 70
     0
300
1:100
140
1.0
141
100.0
290
     0
  0
SCALE
  5
1C9
102
{ACAD_REACTORS
330
10C
102
}
330
10C
100
AcDbScale
 70
     0
300
2:1
140
2.0
141
1.0
290
     0
  0
SCALE
  5
1CA
102
{ACAD_REACTORS
330
10C
102
}
330
10C
100
AcDbScale
 70
     0
300
4:1
140
4.0
141
1.0
290
     0
  0
SCALE
  5
1CB
102
{ACAD_REACTORS
330
10C
102
}
330
10C
100
AcDbScale
 70
     0
300
8:1
140
8.0
141
1.0
290
     0
  0
SCALE
  5
1CC
102
{ACAD_REACTORS
330
10C
102
}
330
10C
100
AcDbScale
 70
     0
300
10:1
140
10.0
141
1.0
290
     0
  0
SCALE
  5
1CD
102
{ACAD_REACTORS
330
10C
102
}
330
10C
100
AcDbScale
 70
     0
300
100:1
140
100.0
141
1.0
290
     0
  0
ACDBSECTIONVIEWSTYLE
  5
2BB
102
{ACAD_REACTORS
330
219
102
}
330
219
100
AcDbModelDocViewStyle
 70
     0
  3
Imperial24
290
     0
300
Imperial24
 90
        0
100
AcDbSectionViewStyle
 70
     0
 71
     0
 90
       78
 71
     1
340
11
 62
   256
 40
0.24
340
0
340
0
 62
   256
 40
0.24
300
I, O, Q, S, X, Z
 40
0.48
 90
        3
 40
0.18
 90
        1
 71
     2
340
16
 90
       25
 62
   256
340
16
 90
       50
 62
   256
 40
0.24
 40
0.0
 40
0.24
 71
     3
340
11
 62
   256
 40
0.24
 90
        1
 40
0.75
 90
        1
300
%<\AcVar ViewType \f "%tc1">% %<\AcVar ViewSectionStartId>%-%<\AcVar ViewSectionEndId>%\PSCALE %<\AcVar ViewScale \f "%sn">%
 71
     4
 62
   256
 62
   257
300
ANSI31
 40
1.0
 90
        0
290
     0
290
     0
 90
        6
 40
0.0
 40
1.570796326794896
 40
0.2617993877991494
 40
1.308996938995747
 40
-0.2617993877991494
 40
1.832595714594046
  0
ACDBSECTIONVIEWSTYLE
  5
21A
102
{ACAD_REACTORS
330
219
102
}
330
219
100
AcDbModelDocViewStyle
 70
     0
  3
Metric50
290
     0
300
Metric50
 90
        0
100
AcDbSectionViewStyle
 70
     0
 71
     0
 90
      102
 71
     1
340
11
 62
   256
 40
5.0
340
0
340
0
 62
   256
 40
5.0
300
I, O, Q, S, X, Z
 40
10.0
 90
        0
 40
2.5
 90
        0
 71
     2
340
16
 90
       25
 62
   256
340
16
 90
       50
 62
   256
 40
5.0
 40
2.5
 40
5.0
 71
     3
340
11
 62
   256
 40
5.0
 90
        0
 40
15.0
 90
        1
300
%<\AcVar ViewSectionStartId>%-%<\AcVar ViewSectionEndId>% (%<\AcVar ViewScale \f "%sn">%)
 71
     4
 62
   256
 62
   257
300
ANSI31
 40
1.0
 90
        0
290
     0
290
     0
 90
        6
 40
0.0
 40
1.570796326794896
 40
0.2617993877991494
 40
1.308996938995747
 40
-0.2617993877991494
 40
1.832595714594046
  0
TABLESTYLE
  5
7F
102
{ACAD_XDICTIONARY
360
162
102
}
102
{ACAD_REACTORS
330
7E
102
}
330
7E
100
AcDbTableStyle
280
     0
  3
Standard
 70
     0
 71
     0
 40
1.5
 41
1.5
280
     0
281
     0
  7
Standard
140
4.5
170
     2
 62
     0
 63
     7
283
     0
 90
      512
 91
        0
  1

274
    -2
284
     1
 64
     0
275
    -2
285
     1
 65
     0
276
    -2
286
     1
 66
     0
277
    -2
287
     1
 67
     0
278
    -2
288
     1
 68
     0
279
    -2
289
     1
 69
     0
  7
Standard
140
6.0
170
     5
 62
     0
 63
     7
283
     0
 90
      512
 91
        0
  1

274
    -2
284
     1
 64
     0
275
    -2
285
     1
 65
     0
276
    -2
286
     1
 66
     0
277
    -2
287
     1
 67
     0
278
    -2
288
     1
 68
     0
279
    -2
289
     1
 69
     0
  7
Standard
140
4.5
170
     5
 62
     0
 63
     7
283
     0
 90
      512
 91
        0
  1

274
    -2
284
     1
 64
     0
275
    -2
285
     1
 65
     0
276
    -2
286
     1
 66
     0
277
    -2
287
     1
 67
     0
278
    -2
288
     1
 68
     0
279
    -2
289
     1
 69
     0
  0
VISUALSTYLE
  5
F5
102
{ACAD_REACTORS
330
EF
102
}
330
EF
100
AcDbVisualStyle
  2
2dWireframe
 70
     4
177
     3
291
     0
 70
    58
 90
        0
176
     1
 90
        2
176
     1
 90
        1
176
     1
 90
        0
176
     1
 40
0.6
176
     1
 40
30.0
176
     1
 62
     7
420
 16777215
176
     1
 90
        1
176
     1
 90
        4
176
     1
 62
     7
176
     1
 62
   257
176
     1
 90
        1
176
     1
 90
        1
176
     1
 40
1.0
176
     1
 90
        0
176
     1
 62
   257
176
     1
 40
1.0
176
     1
 90
        1
176
     1
 90
        6
176
     1
 90
        2
176
     1
 62
     7
176
     1
 90
        5
176
     1
 90
        0
176
     1
 90
        0
176
     1
290
     0
176
     1
 90
        1
176
     1
 40
0.0
176
     1
 90
        0
176
     1
290
     1
176
     1
290
     1
176
     1
290
     0
176
     1
290
     0
176
     1
290
     0
176
     1
290
     0
176
     1
290
     0
176
     1
290
     0
176
     1
290
     0
176
     1
 90
       50
176
     1
 40
0.0
176
     1
 40
1.0
176
     1
 90
        0
176
     1
 62
    18
420
        0
176
     1
 90
       50
176
     1
 90
        3
176
     1
 62
     5
420
      255
176
     1
290
     0
176
     1
 90
       50
176
     1
 90
       50
176
     1
 90
       50
176
     1
290
     0
176
     1
 90
       50
176
     1
 62
   256
176
     0
 40
1.0
176
     0
 90
        2
176
     1
  1
strokes_ogs.tif
176
     1
290
     0
176
     1
 40
1.0
176
     1
 40
1.0
176
     1
  0
VISUALSTYLE
  5
F4
102
{ACAD_REACTORS
330
EF
102
}
330
EF
100
AcDbVisualStyle
  2
Basic
 70
     7
177
     3
291
     1
 70
    58
 90
        1
176
     1
 90
        0
176
     1
 90
        1
176
     1
 90
        0
176
     1
 40
0.6
176
     1
 40
30.0
176
     1
 62
     7
420
 16777215
176
     1
 90
        0
176
     1
 90
        4
176
     1
 62
     7
176
     1
 62
   257
176
     1
 90
        1
176
     1
 90
        1
176
     1
 40
1.0
176
     1
 90
        8
176
     1
 62
     7
176
     1
 40
1.0
176
     1
 90
        1
176
     1
 90
        6
176
     1
 90
        2
176
     1
 62
     7
176
     1
 90
        5
176
     1
 90
        0
176
     1
 90
        0
176
     1
290
     0
176
     1
 90
        1
176
     1
 40
0.0
176
     1
 90
        0
176
     1
290
     0
176
     1
290
     1
176
     1
290
     1
176
     1
290
     0
176
     1
290
     0
176
     1
290
     0
176
     1
290
     0
176
     1
290
     0
176
     1
290
     0
176
     1
 90
       50
176
     1
 40
0.0
176
     1
 40
1.0
176
     1
 90
        0
176
     1
 62
    18
420
        0
176
     1
 90
       50
176
     1
 90
        3
176
     1
 62
     5
420
      255
176
     1
290
     0
176
     1
 90
       50
176
     1
 90
       50
176
     1
 90
       50
176
     1
290
     0
176
     1
 90
       50
176
     1
 62
   256
176
     0
 40
1.0
176
     0
 90
        2
176
     1
  1
strokes_ogs.tif
176
     1
290
     0
176
     1
 40
1.0
176
     1
 40
1.0
176
     1
  0
VISUALSTYLE
  5
FB
102
{ACAD_REACTORS
330
EF
102
}
330
EF
100
AcDbVisualStyle
  2
Brighten
 70
    12
177
     3
291
     1
 70
    58
 90
        2
176
     1
 90
        2
176
     1
 90
        1
176
     1
 90
        0
176
     1
 40
0.6
176
     1
 40
30.0
176
     1
 62
     7
420
 16777215
176
     1
 90
        1
176
     1
 90
        4
176
     1
 62
     7
176
     1
 62
   257
176
     1
 90
        1
176
     1
 90
        1
176
     1
 40
1.0
176
     1
 90
        8
176
     1
 62
     7
176
     1
 40
1.0
176
     1
 90
        1
176
     1
 90
        6
176
     1
 90
        2
176
     1
 62
     7
176
     1
 90
        5
176
     1
 90
        0
176
     1
 90
        0
176
     1
290
     0
176
     1
 90
        1
176
     1
 40
50.0
176
     1
 90
        0
176
     1
290
     0
176
     1
290
     1
176
     1
290
     1
176
     1
290
     0
176
     1
290
     0
176
     1
290
     0
176
     1
290
     0
176
     1
290
     0
176
     1
290
     0
176
     1
 90
       50
176
     1
 40
0.0
176
     1
 40
1.0
176
     1
 90
        0
176
     1
 62
    18
420
        0
176
     1
 90
       50
176
     1
 90
        3
176
     1
 62
     5
420
      255
176
     1
290
     0
176
     1
 90
       50
176
     1
 90
       50
176
     1
 90
       50
176
     1
290
     0
176
     1
 90
       50
176
     1
 62
   256
176
     0
 40
1.0
176
     0
 90
        2
176
     1
  1
strokes_ogs.tif
176
     1
290
     0
176
     1
 40
1.0
176
     1
 40
1.0
176
     1
  0
VISUALSTYLE
  5
FF
102
{ACAD_REACTORS
330
EF
102
}
330
EF
100
AcDbVisualStyle
  2
ColorChange
 70
    16
177
     3
291
     1
 70
    58
 90
        2
176
     1
 90
        2
176
     1
 90
        3
176
     1
 90
        0
176
     1
 40
0.6
176
     1
 40
30.0
176
     1
 62
     8
420
  8421504
176
     1
 90
        1
176
     1
 90
        4
176
     1
 62
     7
176
     1
 62
   257
176
     1
 90
        1
176
     1
 90
        1
176
     1
 40
1.0
176
     1
 90
        8
176
     1
 62
     8
420
  8421504
176
     1
 40
1.0
176
     1
 90
        1
176
     1
 90
        6
176
     1
 90
        2
176
     1
 62
     7
176
     1
 90
        5
176
     1
 90
        0
176
     1
 90
        0
176
     1
290
     0
176
     1
 90
        1
176
     1
 40
0.0
176
     1
 90
        0
176
     1
290
     0
176
     1
290
     1
176
     1
290
     1
176
     1
290
     0
176
     1
290
     0
176
     1
290
     0
176
     1
290
     0
176
     1
290
     0
176
     1
290
     0
176
     1
 90
       50
176
     1
 40
0.0
176
     1
 40
1.0
176
     1
 90
        0
176
     1
 62
    18
420
        0
176
     1
 90
       50
176
     1
 90
        3
176
     1
 62
     5
420
      255
176
     1
290
     0
176
     1
 90
       50
176
     1
 90
       50
176
     1
 90
       50
176
     1
290
     0
176
     1
 90
       50
176
     1
 62
   256
176
     0
 40
1.0
176
     0
 90
        2
176
     1
  1
strokes_ogs.tif
176
     1
290
     0
176
     1
 40
1.0
176
     1
 40
1.0
176
     1
  0
VISUALSTYLE
  5
F8
102
{ACAD_REACTORS
330
EF
102
}
330
EF
100
AcDbVisualStyle
  2
Conceptual
 70
     9
177
     3
291
     0
 70
    58
 90
        3
176
     1
 90
        2
176
     1
 90
        1
176
     1
 90
        0
176
     1
 40
0.6
176
     1
 40
30.0
176
     1
 62
     7
420
 16777215
176
     1
 90
        2
176
     1
 90
        2
176
     1
 62
     7
176
     1
 62
   257
176
     1
 90
        1
176
     1
 90
        1
176
     1
 40
40.0
176
     1
 90
        8
176
     1
 62
     7
176
     1
 40
1.0
176
     1
 90
        1
176
     1
 90
        6
176
     1
 90
        2
176
     1
 62
     7
176
     1
 90
        3
176
     1
 90
        0
176
     1
 90
        0
176
     1
290
     0
176
     1
 90
        1
176
     1
 40
0.0
176
     1
 90
        0
176
     1
290
     0
176
     1
290
     1
176
     1
290
     1
176
     1
290
     0
176
     1
290
     0
176
     1
290
     0
176
     1
290
     0
176
     1
290
     0
176
     1
290
     0
176
     1
 90
       50
176
     1
 40
0.0
176
     1
 40
1.0
176
     1
 90
        0
176
     1
 62
    18
420
        0
176
     1
 90
       50
176
     1
 90
        3
176
     1
 62
     5
420
      255
176
     1
290
     0
176
     1
 90
       50
176
     1
 90
       50
176
     1
 90
       50
176
     1
290
     0
176
     1
 90
       50
176
     1
 62
   256
176
     0
 40
1.0
176
     0
 90
        2
176
     1
  1
strokes_ogs.tif
176
     1
290
     0
176
     1
 40
1.0
176
     1
 40
1.0
176
     1
  0
VISUALSTYLE
  5
FA
102
{ACAD_REACTORS
330
EF
102
}
330
EF
100
AcDbVisualStyle
  2
Dim
 70
    11
177
     3
291
     1
 70
    58
 90
        2
176
     1
 90
        2
176
     1
 90
        1
176
     1
 90
        0
176
     1
 40
0.6
176
     1
 40
30.0
176
     1
 62
     7
420
 16777215
176
     1
 90
        1
176
     1
 90
        4
176
     1
 62
     7
176
     1
 62
   257
176
     1
 90
        1
176
     1
 90
        1
176
     1
 40
1.0
176
     1
 90
        8
176
     1
 62
     7
176
     1
 40
1.0
176
     1
 90
        1
176
     1
 90
        6
176
     1
 90
        2
176
     1
 62
     7
176
     1
 90
        5
176
     1
 90
        0
176
     1
 90
        0
176
     1
290
     0
176
     1
 90
        1
176
     1
 40
-50.0
176
     1
 90
        0
176
     1
290
     0
176
     1
290
     1
176
     1
290
     1
176
     1
290
     0
176
     1
290
     0
176
     1
290
     0
176
     1
290
     0
176
     1
290
     0
176
     1
290
     0
176
     1
 90
       50
176
     1
 40
0.0
176
     1
 40
1.0
176
     1
 90
        0
176
     1
 62
    18
420
        0
176
     1
 90
       50
176
     1
 90
        3
176
     1
 62
     5
420
      255
176
     1
290
     0
176
     1
 90
       50
176
     1
 90
       50
176
     1
 90
       50
176
     1
290
     0
176
     1
 90
       50
176
     1
 62
   256
176
     0
 40
1.0
176
     0
 90
        2
176
     1
  1
strokes_ogs.tif
176
     1
290
     0
176
     1
 40
1.0
176
     1
 40
1.0
176
     1
  0
VISUALSTYLE
  5
1E6
102
{ACAD_REACTORS
330
EF
102
}
330
EF
100
AcDbVisualStyle
  2
EdgeColorOff
 70
    22
177
     3
291
     1
 70
    58
 90
        2
176
     0
 90
        2
176
     0
 90
        0
176
     0
 90
        0
176
     0
 40
0.6
176
     0
 40
30.0
176
     0
 62
     7
420
 16777215
176
     0
 90
        1
176
     0
 90
        4
176
     0
 62
     7
176
     0
 62
   257
176
     0
 90
        1
176
     0
 90
        1
176
     0
 40
1.0
176
     0
 90
        8
176
     2
 62
     7
176
     0
 40
1.0
176
     0
 90
        1
176
     0
 90
        6
176
     0
 90
        2
176
     0
 62
     7
176
     0
 90
        5
176
     0
 90
        0
176
     0
 90
        0
176
     0
290
     0
176
     0
 90
        1
176
     0
 40
0.0
176
     0
 90
        0
176
     0
290
     0
176
     1
290
     1
176
     1
290
     1
176
     1
290
     0
176
     1
290
     0
176
     1
290
     0
176
     1
290
     0
176
     1
290
     0
176
     1
290
     0
176
     1
 90
       50
176
     1
 40
0.0
176
     1
 40
1.0
176
     1
 90
        0
176
     1
 62
    18
420
        0
176
     1
 90
       50
176
     1
 90
        3
176
     1
 62
     5
420
      255
176
     1
290
     0
176
     1
 90
       50
176
     1
 90
       50
176
     1
 90
       50
176
     1
290
     0
176
     1
 90
       50
176
     1
 62
   256
176
     0
 40
1.0
176
     0
 90
        2
176
     1
  1
strokes_ogs.tif
176
     1
290
     0
176
     1
 40
1.0
176
     1
 40
1.0
176
     1
  0
VISUALSTYLE
  5
FE
102
{ACAD_REACTORS
330
EF
102
}
330
EF
100
AcDbVisualStyle
  2
Facepattern
 70
    15
177
     3
291
     1
 70
    58
 90
        2
176
     1
 90
        2
176
     1
 90
        1
176
     1
 90
        0
176
     1
 40
0.6
176
     1
 40
30.0
176
     1
 62
     7
420
 16777215
176
     1
 90
        1
176
     1
 90
        4
176
     1
 62
     7
176
     1
 62
   257
176
     1
 90
        1
176
     1
 90
        1
176
     1
 40
1.0
176
     1
 90
        8
176
     1
 62
     7
176
     1
 40
1.0
176
     1
 90
        1
176
     1
 90
        6
176
     1
 90
        2
176
     1
 62
     7
176
     1
 90
        5
176
     1
 90
        0
176
     1
 90
        0
176
     1
290
     0
176
     1
 90
        1
176
     1
 40
0.0
176
     1
 90
        0
176
     1
290
     0
176
     1
290
     1
176
     1
290
     1
176
     1
290
     0
176
     1
290
     0
176
     1
290
     0
176
     1
290
     0
176
     1
290
     0
176
     1
290
     0
176
     1
 90
       50
176
     1
 40
0.0
176
     1
 40
1.0
176
     1
 90
        0
176
     1
 62
    18
420
        0
176
     1
 90
       50
176
     1
 90
        3
176
     1
 62
     5
420
      255
176
     1
290
     0
176
     1
 90
       50
176
     1
 90
       50
176
     1
 90
       50
176
     1
290
     0
176
     1
 90
       50
176
     1
 62
   256
176
     0
 40
1.0
176
     0
 90
        2
176
     1
  1
strokes_ogs.tif
176
     1
290
     0
176
     1
 40
1.0
176
     1
 40
1.0
176
     1
  0
VISUALSTYLE
  5
F0
102
{ACAD_REACTORS
330
EF
102
}
330
EF
100
AcDbVisualStyle
  2
Flat
 70
     0
177
     3
291
     1
 70
    58
 90
        2
176
     1
 90
        1
176
     1
 90
        1
176
     1
 90
        2
176
     1
 40
0.6
176
     1
 40
30.0
176
     1
 62
     7
420
 16777215
176
     1
 90
        0
176
     1
 90
        0
176
     1
 62
     7
176
     1
 62
   257
176
     1
 90
        1
176
     1
 90
        1
176
     1
 40
1.0
176
     1
 90
        8
176
     1
 62
     7
176
     1
 40
1.0
176
     1
 90
        1
176
     1
 90
        6
176
     1
 90
        2
176
     1
 62
     7
176
     1
 90
        5
176
     1
 90
        0
176
     1
 90
        0
176
     1
290
     0
176
     1
 90
       13
176
     1
 40
0.0
176
     1
 90
        0
176
     1
290
     0
176
     1
290
     1
176
     1
290
     1
176
     1
290
     0
176
     1
290
     0
176
     1
290
     0
176
     1
290
     0
176
     1
290
     0
176
     1
290
     0
176
     1
 90
       50
176
     1
 40
0.0
176
     1
 40
1.0
176
     1
 90
        0
176
     1
 62
    18
420
        0
176
     1
 90
       50
176
     1
 90
        3
176
     1
 62
     5
420
      255
176
     1
290
     0
176
     1
 90
       50
176
     1
 90
       50
176
     1
 90
       50
176
     1
290
     0
176
     1
 90
       50
176
     1
 62
   256
176
     0
 40
1.0
176
     0
 90
        2
176
     1
  1
strokes_ogs.tif
176
     1
290
     0
176
     1
 40
1.0
176
     1
 40
1.0
176
     1
  0
VISUALSTYLE
  5
F1
102
{ACAD_REACTORS
330
EF
102
}
330
EF
100
AcDbVisualStyle
  2
FlatWithEdges
 70
     1
177
     3
291
     1
 70
    58
 90
        2
176
     1
 90
        1
176
     1
 90
        1
176
     1
 90
        2
176
     1
 40
0.6
176
     1
 40
30.0
176
     1
 62
     7
420
 16777215
176
     1
 90
        1
176
     1
 90
        0
176
     1
 62
     7
176
     1
 62
   257
176
     1
 90
        1
176
     1
 90
        1
176
     1
 40
1.0
176
     1
 90
        0
176
     1
 62
   257
176
     1
 40
1.0
176
     1
 90
        1
176
     1
 90
        6
176
     1
 90
        2
176
     1
 62
     7
176
     1
 90
        5
176
     1
 90
        0
176
     1
 90
        0
176
     1
290
     0
176
     1
 90
       13
176
     1
 40
0.0
176
     1
 90
        0
176
     1
290
     0
176
     1
290
     1
176
     1
290
     1
176
     1
290
     0
176
     1
290
     0
176
     1
290
     0
176
     1
290
     0
176
     1
290
     0
176
     1
290
     0
176
     1
 90
       50
176
     1
 40
0.0
176
     1
 40
1.0
176
     1
 90
        0
176
     1
 62
    18
420
        0
176
     1
 90
       50
176
     1
 90
        3
176
     1
 62
     5
420
      255
176
     1
290
     0
176
     1
 90
       50
176
     1
 90
       50
176
     1
 90
       50
176
     1
290
     0
176
     1
 90
       50
176
     1
 62
   256
176
     0
 40
1.0
176
     0
 90
        2
176
     1
  1
strokes_ogs.tif
176
     1
290
     0
176
     1
 40
1.0
176
     1
 40
1.0
176
     1
  0
VISUALSTYLE
  5
F2
102
{ACAD_REACTORS
330
EF
102
}
330
EF
100
AcDbVisualStyle
  2
Gouraud
 70
     2
177
     3
291
     1
 70
    58
 90
        2
176
     1
 90
        2
176
     1
 90
        1
176
     1
 90
        2
176
     1
 40
0.6
176
     1
 40
30.0
176
     1
 62
     7
420
 16777215
176
     1
 90
        0
176
     1
 90
        0
176
     1
 62
     7
176
     1
 62
   257
176
     1
 90
        1
176
     1
 90
        1
176
     1
 40
1.0
176
     1
 90
        0
176
     1
 62
     7
176
     1
 40
1.0
176
     1
 90
        1
176
     1
 90
        6
176
     1
 90
        2
176
     1
 62
     7
176
     1
 90
        5
176
     1
 90
        0
176
     1
 90
        0
176
     1
290
     0
176
     1
 90
       13
176
     1
 40
0.0
176
     1
 90
        0
176
     1
290
     0
176
     1
290
     1
176
     1
290
     1
176
     1
290
     0
176
     1
290
     0
176
     1
290
     0
176
     1
290
     0
176
     1
290
     0
176
     1
290
     0
176
     1
 90
       50
176
     1
 40
0.0
176
     1
 40
1.0
176
     1
 90
        0
176
     1
 62
    18
420
        0
176
     1
 90
       50
176
     1
 90
        3
176
     1
 62
     5
420
      255
176
     1
290
     0
176
     1
 90
       50
176
     1
 90
       50
176
     1
 90
       50
176
     1
290
     0
176
     1
 90
       50
176
     1
 62
   256
176
     0
 40
1.0
176
     0
 90
        2
176
     1
  1
strokes_ogs.tif
176
     1
290
     0
176
     1
 40
1.0
176
     1
 40
1.0
176
     1
  0
VISUALSTYLE
  5
F3
102
{ACAD_REACTORS
330
EF
102
}
330
EF
100
AcDbVisualStyle
  2
GouraudWithEdges
 70
     3
177
     3
291
     1
 70
    58
 90
        2
176
     1
 90
        2
176
     1
 90
        1
176
     1
 90
        2
176
     1
 40
0.6
176
     1
 40
30.0
176
     1
 62
     7
420
 16777215
176
     1
 90
        1
176
     1
 90
        0
176
     1
 62
     7
176
     1
 62
   257
176
     1
 90
        1
176
     1
 90
        1
176
     1
 40
1.0
176
     1
 90
        0
176
     1
 62
   257
176
     1
 40
1.0
176
     1
 90
        1
176
     1
 90
        6
176
     1
 90
        2
176
     1
 62
     7
176
     1
 90
        5
176
     1
 90
        0
176
     1
 90
        0
176
     1
290
     0
176
     1
 90
       13
176
     1
 40
0.0
176
     1
 90
        0
176
     1
290
     0
176
     1
290
     1
176
     1
290
     1
176
     1
290
     0
176
     1
290
     0
176
     1
290
     0
176
     1
290
     0
176
     1
290
     0
176
     1
290
     0
176
     1
 90
       50
176
     1
 40
0.0
176
     1
 40
1.0
176
     1
 90
        0
176
     1
 62
    18
420
        0
176
     1
 90
       50
176
     1
 90
        3
176
     1
 62
     5
420
      255
176
     1
290
     0
176
     1
 90
       50
176
     1
 90
       50
176
     1
 90
       50
176
     1
290
     0
176
     1
 90
       50
176
     1
 62
   256
176
     0
 40
1.0
176
     0
 90
        2
176
     1
  1
strokes_ogs.tif
176
     1
290
     0
176
     1
 40
1.0
176
     1
 40
1.0
176
     1
  0
VISUALSTYLE
  5
F7
102
{ACAD_REACTORS
330
EF
102
}
330
EF
100
AcDbVisualStyle
  2
Hidden
 70
     6
177
     3
291
     0
 70
    58
 90
        1
176
     1
 90
        2
176
     1
 90
        2
176
     1
 90
        0
176
     1
 40
0.6
176
     1
 40
30.0
176
     1
 62
     7
420
 16777215
176
     1
 90
        2
176
     1
 90
        2
176
     1
 62
     7
176
     1
 62
   257
176
     1
 90
        2
176
     1
 90
        1
176
     1
 40
40.0
176
     1
 90
        0
176
     1
 62
   257
176
     1
 40
1.0
176
     1
 90
        1
176
     1
 90
        6
176
     1
 90
        2
176
     1
 62
     7
176
     1
 90
        3
176
     1
 90
        0
176
     1
 90
        0
176
     1
290
     0
176
     1
 90
        1
176
     1
 40
0.0
176
     1
 90
        0
176
     1
290
     0
176
     1
290
     1
176
     1
290
     1
176
     1
290
     0
176
     1
290
     0
176
     1
290
     0
176
     1
290
     0
176
     1
290
     0
176
     1
290
     0
176
     1
 90
       50
176
     1
 40
0.0
176
     1
 40
1.0
176
     1
 90
        0
176
     1
 62
    18
420
        0
176
     1
 90
       50
176
     1
 90
        3
176
     1
 62
     5
420
      255
176
     1
290
     0
176
     1
 90
       50
176
     1
 90
       50
176
     1
 90
       50
176
     1
290
     0
176
     1
 90
       50
176
     1
 62
   256
176
     0
 40
1.0
176
     0
 90
        2
176
     1
  1
strokes_ogs.tif
176
     1
290
     0
176
     1
 40
1.0
176
     1
 40
1.0
176
     1
  0
VISUALSTYLE
  5
1E4
102
{ACAD_REACTORS
330
EF
102
}
330
EF
100
AcDbVisualStyle
  2
JitterOff
 70
    20
177
     3
291
     1
 70
    58
 90
        2
176
     0
 90
        2
176
     0
 90
        0
176
     0
 90
        0
176
     0
 40
0.6
176
     0
 40
30.0
176
     0
 62
     7
420
 16777215
176
     0
 90
        1
176
     0
 90
        4
176
     0
 62
     7
176
     0
 62
   257
176
     0
 90
        1
176
     0
 90
        1
176
     0
 40
1.0
176
     0
 90
       10
176
     2
 62
     7
176
     0
 40
1.0
176
     0
 90
        1
176
     0
 90
        6
176
     0
 90
        2
176
     0
 62
     7
176
     0
 90
        5
176
     0
 90
        0
176
     0
 90
        0
176
     0
290
     0
176
     0
 90
        1
176
     0
 40
0.0
176
     0
 90
        0
176
     0
290
     0
176
     1
290
     1
176
     1
290
     1
176
     1
290
     0
176
     1
290
     0
176
     1
290
     0
176
     1
290
     0
176
     1
290
     0
176
     1
290
     0
176
     1
 90
       50
176
     1
 40
0.0
176
     1
 40
1.0
176
     1
 90
        0
176
     1
 62
    18
420
        0
176
     1
 90
       50
176
     1
 90
        3
176
     1
 62
     5
420
      255
176
     1
290
     0
176
     1
 90
       50
176
     1
 90
       50
176
     1
 90
       50
176
     1
290
     0
176
     1
 90
       50
176
     1
 62
   256
176
     0
 40
1.0
176
     0
 90
        2
176
     1
  1
strokes_ogs.tif
176
     1
290
     0
176
     1
 40
1.0
176
     1
 40
1.0
176
     1
  0
VISUALSTYLE
  5
FD
102
{ACAD_REACTORS
330
EF
102
}
330
EF
100
AcDbVisualStyle
  2
Linepattern
 70
    14
177
     3
291
     1
 70
    58
 90
        2
176
     1
 90
        2
176
     1
 90
        1
176
     1
 90
        0
176
     1
 40
0.6
176
     1
 40
30.0
176
     1
 62
     7
420
 16777215
176
     1
 90
        1
176
     1
 90
        4
176
     1
 62
     7
176
     1
 62
   257
176
     1
 90
        7
176
     1
 90
        7
176
     1
 40
1.0
176
     1
 90
        8
176
     1
 62
     7
176
     1
 40
1.0
176
     1
 90
        1
176
     1
 90
        6
176
     1
 90
        2
176
     1
 62
     7
176
     1
 90
        5
176
     1
 90
        0
176
     1
 90
        0
176
     1
290
     0
176
     1
 90
        1
176
     1
 40
0.0
176
     1
 90
        0
176
     1
290
     0
176
     1
290
     1
176
     1
290
     1
176
     1
290
     0
176
     1
290
     0
176
     1
290
     0
176
     1
290
     0
176
     1
290
     0
176
     1
290
     0
176
     1
 90
       50
176
     1
 40
0.0
176
     1
 40
1.0
176
     1
 90
        0
176
     1
 62
    18
420
        0
176
     1
 90
       50
176
     1
 90
        3
176
     1
 62
     5
420
      255
176
     1
290
     0
176
     1
 90
       50
176
     1
 90
       50
176
     1
 90
       50
176
     1
290
     0
176
     1
 90
       50
176
     1
 62
   256
176
     0
 40
1.0
176
     0
 90
        2
176
     1
  1
strokes_ogs.tif
176
     1
290
     0
176
     1
 40
1.0
176
     1
 40
1.0
176
     1
  0
VISUALSTYLE
  5
1E5
102
{ACAD_REACTORS
330
EF
102
}
330
EF
100
AcDbVisualStyle
  2
OverhangOff
 70
    21
177
     3
291
     1
 70
    58
 90
        2
176
     0
 90
        2
176
     0
 90
        0
176
     0
 90
        0
176
     0
 40
0.6
176
     0
 40
30.0
176
     0
 62
     7
420
 16777215
176
     0
 90
        1
176
     0
 90
        4
176
     0
 62
     7
176
     0
 62
   257
176
     0
 90
        1
176
     0
 90
        1
176
     0
 40
1.0
176
     0
 90
        9
176
     2
 62
     7
176
     0
 40
1.0
176
     0
 90
        1
176
     0
 90
        6
176
     0
 90
        2
176
     0
 62
     7
176
     0
 90
        5
176
     0
 90
        0
176
     0
 90
        0
176
     0
290
     0
176
     0
 90
        1
176
     0
 40
0.0
176
     0
 90
        0
176
     0
290
     0
176
     1
290
     1
176
     1
290
     1
176
     1
290
     0
176
     1
290
     0
176
     1
290
     0
176
     1
290
     0
176
     1
290
     0
176
     1
290
     0
176
     1
 90
       50
176
     1
 40
0.0
176
     1
 40
1.0
176
     1
 90
        0
176
     1
 62
    18
420
        0
176
     1
 90
       50
176
     1
 90
        3
176
     1
 62
     5
420
      255
176
     1
290
     0
176
     1
 90
       50
176
     1
 90
       50
176
     1
 90
       50
176
     1
290
     0
176
     1
 90
       50
176
     1
 62
   256
176
     0
 40
1.0
176
     0
 90
        2
176
     1
  1
strokes_ogs.tif
176
     1
290
     0
176
     1
 40
1.0
176
     1
 40
1.0
176
     1
  0
VISUALSTYLE
  5
F9
102
{ACAD_REACTORS
330
EF
102
}
330
EF
100
AcDbVisualStyle
  2
Realistic
 70
     8
177
     3
291
     0
 70
    58
 90
        2
176
     1
 90
        3
176
     1
 90
        0
176
     1
 90
        2
176
     1
 40
0.6
176
     1
 40
30.0
176
     1
 62
     7
420
 16777215
176
     1
 90
        0
176
     1
 90
        0
176
     1
 62
     7
176
     1
 62
   257
176
     1
 90
        1
176
     1
 90
        1
176
     1
 40
1.0
176
     1
 90
        8
176
     1
 62
   257
176
     1
 40
1.0
176
     1
 90
        1
176
     1
 90
        6
176
     1
 90
        2
176
     1
 62
     7
176
     1
 90
        3
176
     1
 90
        0
176
     1
 90
        0
176
     1
290
     0
176
     1
 90
       13
176
     1
 40
0.0
176
     1
 90
        0
176
     1
290
     0
176
     1
290
     1
176
     1
290
     1
176
     1
290
     0
176
     1
290
     0
176
     1
290
     0
176
     1
290
     0
176
     1
290
     0
176
     1
290
     0
176
     1
 90
       50
176
     1
 40
0.0
176
     1
 40
1.0
176
     1
 90
        0
176
     1
 62
    18
420
        0
176
     1
 90
       50
176
     1
 90
        3
176
     1
 62
     5
420
      255
176
     1
290
     0
176
     1
 90
       50
176
     1
 90
       50
176
     1
 90
       50
176
     1
290
     0
176
     1
 90
       50
176
     1
 62
   256
176
     0
 40
1.0
176
     0
 90
        2
176
     1
  1
strokes_ogs.tif
176
     1
290
     0
176
     1
 40
1.0
176
     1
 40
1.0
176
     1
  0
VISUALSTYLE
  5
1F3
102
{ACAD_REACTORS
330
EF
102
}
330
EF
100
AcDbVisualStyle
  2
Shaded
 70
    27
177
     3
291
     0
 70
    58
 90
        2
176
     1
 90
        2
176
     1
 90
        1
176
     1
 90
        2
176
     1
 40
0.6
176
     1
 40
30.0
176
     1
 62
     7
420
 16777215
176
     1
 90
        0
176
     1
 90
        4
176
     1
 62
     7
176
     1
 62
   257
176
     1
 90
        1
176
     1
 90
        1
176
     1
 40
1.0
176
     1
 90
        8
176
     1
 62
   257
176
     1
 40
1.0
176
     1
 90
        1
176
     1
 90
        6
176
     1
 90
        2
176
     1
 62
     8
420
  7895160
176
     1
 90
        3
176
     1
 90
        0
176
     1
 90
        0
176
     1
290
     0
176
     1
 90
        5
176
     1
 40
0.0
176
     1
 90
        0
176
     1
290
     0
176
     1
290
     1
176
     1
290
     1
176
     1
290
     0
176
     1
290
     0
176
     1
290
     0
176
     1
290
     0
176
     1
290
     0
176
     1
290
     0
176
     1
 90
       50
176
     1
 40
0.0
176
     1
 40
1.0
176
     1
 90
        0
176
     1
 62
    18
420
        0
176
     1
 90
       50
176
     1
 90
        3
176
     1
 62
     5
420
      255
176
     1
290
     0
176
     1
 90
       50
176
     1
 90
       50
176
     1
 90
       50
176
     1
290
     0
176
     1
 90
       50
176
     1
 62
   256
176
     0
 40
1.0
176
     0
 90
        2
176
     1
  1
strokes_ogs.tif
176
     1
290
     0
176
     1
 40
1.0
176
     1
 40
1.0
176
     1
  0
VISUALSTYLE
  5
1F2
102
{ACAD_REACTORS
330
EF
102
}
330
EF
100
AcDbVisualStyle
  2
Shaded with edges
 70
    26
177
     3
291
     0
 70
    58
 90
        2
176
     1
 90
        2
176
     1
 90
        1
176
     1
 90
        2
176
     1
 40
0.6
176
     1
 40
30.0
176
     1
 62
     7
420
 16777215
176
     1
 90
        1
176
     1
 90
        2
176
     1
 62
     7
176
     1
 62
   257
176
     1
 90
        2
176
     1
 90
        1
176
     1
 40
1.0
176
     1
 90
        8
176
     1
 62
   257
176
     1
 40
1.0
176
     1
 90
        1
176
     1
 90
        6
176
     1
 90
        2
176
     1
 62
     7
176
     1
 90
        3
176
     1
 90
        0
176
     1
 90
        0
176
     1
290
     0
176
     1
 90
        5
176
     1
 40
0.0
176
     1
 90
        0
176
     1
290
     0
176
     1
290
     1
176
     1
290
     1
176
     1
290
     0
176
     1
290
     0
176
     1
290
     0
176
     1
290
     0
176
     1
290
     0
176
     1
290
     0
176
     1
 90
       50
176
     1
 40
0.0
176
     1
 40
1.0
176
     1
 90
        0
176
     1
 62
    18
420
        0
176
     1
 90
       50
176
     1
 90
        3
176
     1
 62
     5
420
      255
176
     1
290
     0
176
     1
 90
       50
176
     1
 90
       50
176
     1
 90
       50
176
     1
290
     0
176
     1
 90
       50
176
     1
 62
   256
176
     0
 40
1.0
176
     0
 90
        2
176
     1
  1
strokes_ogs.tif
176
     1
290
     0
176
     1
 40
1.0
176
     1
 40
1.0
176
     1
  0
VISUALSTYLE
  5
1EF
102
{ACAD_REACTORS
330
EF
102
}
330
EF
100
AcDbVisualStyle
  2
Shades of Gray
 70
    23
177
     3
291
     0
 70
    58
 90
        2
176
     1
 90
        2
176
     1
 90
        3
176
     1
 90
        0
176
     1
 40
0.6
176
     1
 40
30.0
176
     1
 62
     7
420
 16777215
176
     1
 90
        2
176
     1
 90
        2
176
     1
 62
     7
176
     1
 62
     7
176
     1
 90
        1
176
     1
 90
        1
176
     1
 40
40.0
176
     1
 90
        8
176
     1
 62
     7
176
     1
 40
1.0
176
     1
 90
        1
176
     1
 90
        6
176
     1
 90
        2
176
     1
 62
     7
176
     1
 90
        3
176
     1
 90
        0
176
     1
 90
        0
176
     1
290
     0
176
     1
 90
        1
176
     1
 40
0.0
176
     1
 90
        0
176
     1
290
     0
176
     1
290
     1
176
     1
290
     1
176
     1
290
     0
176
     1
290
     0
176
     1
290
     0
176
     1
290
     0
176
     1
290
     0
176
     1
290
     0
176
     1
 90
       50
176
     1
 40
0.0
176
     1
 40
1.0
176
     1
 90
        0
176
     1
 62
    18
420
        0
176
     1
 90
       50
176
     1
 90
        3
176
     1
 62
     5
420
      255
176
     1
290
     0
176
     1
 90
       50
176
     1
 90
       50
176
     1
 90
       50
176
     1
290
     0
176
     1
 90
       50
176
     1
 62
   256
176
     0
 40
1.0
176
     0
 90
        2
176
     1
  1
strokes_ogs.tif
176
     1
290
     0
176
     1
 40
1.0
176
     1
 40
1.0
176
     1
  0
VISUALSTYLE
  5
1F0
102
{ACAD_REACTORS
330
EF
102
}
330
EF
100
AcDbVisualStyle
  2
Sketchy
 70
    24
177
     3
291
     0
 70
    58
 90
        1
176
     1
 90
        2
176
     1
 90
        2
176
     1
 90
        0
176
     1
 40
0.6
176
     1
 40
30.0
176
     1
 62
     7
420
 16777215
176
     1
 90
        2
176
     1
 90
        2
176
     1
 62
     7
176
     1
 62
     7
176
     1
 90
        1
176
     1
 90
        1
176
     1
 40
40.0
176
     1
 90
       11
176
     1
 62
     7
176
     1
 40
1.0
176
     1
 90
        1
176
     1
 90
        6
176
     1
 90
        2
176
     1
 62
     7
176
     1
 90
        6
176
     1
 90
        0
176
     1
 90
        0
176
     1
290
     0
176
     1
 90
        1
176
     1
 40
0.0
176
     1
 90
        0
176
     1
290
     0
176
     1
290
     1
176
     1
290
     1
176
     1
290
     0
176
     1
290
     0
176
     1
290
     0
176
     1
290
     0
176
     1
290
     0
176
     1
290
     0
176
     1
 90
       50
176
     1
 40
0.0
176
     1
 40
1.0
176
     1
 90
        0
176
     1
 62
    18
420
        0
176
     1
 90
       50
176
     1
 90
        3
176
     1
 62
     5
420
      255
176
     1
290
     0
176
     1
 90
       50
176
     1
 90
       50
176
     1
 90
       50
176
     1
290
     0
176
     1
 90
       50
176
     1
 62
   256
176
     0
 40
1.0
176
     0
 90
        2
176
     1
  1
strokes_ogs.tif
176
     1
290
     0
176
     1
 40
1.0
176
     1
 40
1.0
176
     1
  0
VISUALSTYLE
  5
FC
102
{ACAD_REACTORS
330
EF
102
}
330
EF
100
AcDbVisualStyle
  2
Thicken
 70
    13
177
     3
291
     1
 70
    58
 90
        2
176
     1
 90
        2
176
     1
 90
        1
176
     1
 90
        0
176
     1
 40
0.6
176
     1
 40
30.0
176
     1
 62
     7
420
 16777215
176
     1
 90
        1
176
     1
 90
        4
176
     1
 62
     7
176
     1
 62
   257
176
     1
 90
        1
176
     1
 90
        1
176
     1
 40
1.0
176
     1
 90
       12
176
     1
 62
     7
176
     1
 40
1.0
176
     1
 90
        1
176
     1
 90
        6
176
     1
 90
        2
176
     1
 62
     7
176
     1
 90
        5
176
     1
 90
        0
176
     1
 90
        0
176
     1
290
     0
176
     1
 90
        1
176
     1
 40
0.0
176
     1
 90
        0
176
     1
290
     0
176
     1
290
     1
176
     1
290
     1
176
     1
290
     0
176
     1
290
     0
176
     1
290
     0
176
     1
290
     0
176
     1
290
     0
176
     1
290
     0
176
     1
 90
       50
176
     1
 40
0.0
176
     1
 40
1.0
176
     1
 90
        0
176
     1
 62
    18
420
        0
176
     1
 90
       50
176
     1
 90
        3
176
     1
 62
     5
420
      255
176
     1
290
     0
176
     1
 90
       50
176
     1
 90
       50
176
     1
 90
       50
176
     1
290
     0
176
     1
 90
       50
176
     1
 62
   256
176
     0
 40
1.0
176
     0
 90
        2
176
     1
  1
strokes_ogs.tif
176
     1
290
     0
176
     1
 40
1.0
176
     1
 40
1.0
176
     1
  0
VISUALSTYLE
  5
F6
102
{ACAD_REACTORS
330
EF
102
}
330
EF
100
AcDbVisualStyle
  2
Wireframe
 70
     5
177
     3
291
     0
 70
    58
 90
        0
176
     1
 90
        2
176
     1
 90
        0
176
     1
 90
        0
176
     1
 40
0.6
176
     1
 40
30.0
176
     1
 62
     7
420
 16777215
176
     1
 90
        1
176
     1
 90
        4
176
     1
 62
     7
176
     1
 62
   257
176
     1
 90
        1
176
     1
 90
        1
176
     1
 40
1.0
176
     1
 90
        0
176
     1
 62
   257
176
     1
 40
1.0
176
     1
 90
        1
176
     1
 90
        6
176
     1
 90
        2
176
     1
 62
     7
176
     1
 90
        3
176
     1
 90
        0
176
     1
 90
        0
176
     1
290
     0
176
     1
 90
        1
176
     1
 40
0.0
176
     1
 90
        0
176
     1
290
     0
176
     1
290
     1
176
     1
290
     1
176
     1
290
     0
176
     1
290
     0
176
     1
290
     0
176
     1
290
     0
176
     1
290
     0
176
     1
290
     0
176
     1
 90
       50
176
     1
 40
0.0
176
     1
 40
1.0
176
     1
 90
        0
176
     1
 62
    18
420
        0
176
     1
 90
       50
176
     1
 90
        3
176
     1
 62
     5
420
      255
176
     1
290
     0
176
     1
 90
       50
176
     1
 90
       50
176
     1
 90
       50
176
     1
290
     0
176
     1
 90
       50
176
     1
 62
   256
176
     0
 40
1.0
176
     0
 90
        2
176
     1
  1
strokes_ogs.tif
176
     1
290
     0
176
     1
 40
1.0
176
     1
 40
1.0
176
     1
  0
VISUALSTYLE
  5
1F1
102
{ACAD_REACTORS
330
EF
102
}
330
EF
100
AcDbVisualStyle
  2
X-Ray
 70
    25
177
     3
291
     0
 70
    58
 90
        2
176
     1
 90
        2
176
     1
 90
        1
176
     1
 90
        1
176
     1
 40
0.5
176
     1
 40
30.0
176
     1
 62
     7
420
 16777215
176
     1
 90
        1
176
     1
 90
        0
176
     1
 62
     7
176
     1
 62
   257
176
     1
 90
        1
176
     1
 90
        1
176
     1
 40
1.0
176
     1
 90
        8
176
     1
 62
     7
176
     1
 40
1.0
176
     1
 90
        1
176
     1
 90
        6
176
     1
 90
        2
176
     1
 62
     7
176
     1
 90
        3
176
     1
 90
        0
176
     1
 90
        0
176
     1
290
     0
176
     1
 90
       13
176
     1
 40
0.0
176
     1
 90
        0
176
     1
290
     0
176
     1
290
     1
176
     1
290
     1
176
     1
290
     0
176
     1
290
     0
176
     1
290
     0
176
     1
290
     0
176
     1
290
     0
176
     1
290
     0
176
     1
 90
       50
176
     1
 40
0.0
176
     1
 40
1.0
176
     1
 90
        0
176
     1
 62
    18
420
        0
176
     1
 90
       50
176
     1
 90
        3
176
     1
 62
     5
420
      255
176
     1
290
     0
176
     1
 90
       50
176
     1
 90
       50
176
     1
 90
       50
176
     1
290
     0
176
     1
 90
       50
176
     1
 62
   256
176
     0
 40
1.0
176
     0
 90
        2
176
     1
  1
strokes_ogs.tif
176
     1
290
     0
176
     1
 40
1.0
176
     1
 40
1.0
176
     1
  0
DICTIONARYVAR
  5
146
102
{ACAD_REACTORS
330
5E
102
}
330
5E
100
DictionaryVariables
280
     0
  1
1:1
  0
DICTIONARYVAR
  5
259
102
{ACAD_REACTORS
330
5E
102
}
330
5E
100
DictionaryVariables
280
     0
  1
3.500000
  0
DICTIONARYVAR
  5
25A
102
{ACAD_REACTORS
330
5E
102
}
330
5E
100
DictionaryVariables
280
     0
  1
acadiso.lin
  0
DICTIONARYVAR
  5
145
102
{ACAD_REACTORS
330
5E
102
}
330
5E
100
DictionaryVariables
280
     0
  1
STANDARD
  0
DICTIONARYVAR
  5
84
102
{ACAD_REACTORS
330
5E
102
}
330
5E
100
DictionaryVariables
280
     0
  1
STANDARD
  0
DICTIONARYVAR
  5
227
102
{ACAD_REACTORS
330
5E
102
}
330
5E
100
DictionaryVariables
280
     0
  1
Metric50
  0
DICTIONARYVAR
  5
228
102
{ACAD_REACTORS
330
5E
102
}
330
5E
100
DictionaryVariables
280
     0
  1
Metric50
  0
DICTIONARYVAR
  5
5F
102
{ACAD_REACTORS
330
5E
102
}
330
5E
100
DictionaryVariables
280
     0
  1
2
  0
DICTIONARYVAR
  5
63
102
{ACAD_REACTORS
330
5E
102
}
330
5E
100
DictionaryVariables
280
     0
  1
1
  0
DICTIONARYVAR
  5
1AE
102
{ACAD_REACTORS
330
5E
102
}
330
5E
100
DictionaryVariables
280
     0
  1
0
  0
DICTIONARYVAR
  5
1AF
102
{ACAD_REACTORS
330
5E
102
}
330
5E
100
DictionaryVariables
280
     0
  1
0
  0
DICTIONARY
  5
C87
102
{ACAD_REACTORS
330
C86
102
}
330
C86
100
AcDbDictionary
281
     1
  3
*A1
350
C88
  0
DICTIONARY
  5
C97
102
{ACAD_REACTORS
330
C96
102
}
330
C96
100
AcDbDictionary
281
     1
  3
*A1
350
C98
  0
DICTIONARY
  5
CDB
102
{ACAD_REACTORS
330
CDA
102
}
330
CDA
100
AcDbDictionary
281
     1
  3
*A1
350
CDC
  0
DICTIONARY
  5
D09
102
{ACAD_REACTORS
330
D08
102
}
330
D08
100
AcDbDictionary
281
     1
  3
*A1
350
D0A
  0
DICTIONARY
  5
D19
102
{ACAD_REACTORS
330
D18
102
}
330
D18
100
AcDbDictionary
281
     1
  3
*A1
350
D1A
  0
DICTIONARY
  5
205
330
22
100
AcDbDictionary
280
     1
281
     1
  0
DICTIONARY
  5
1F9
330
ED
100
AcDbDictionary
280
     1
281
     1
  3
FBXASSET
360
1FA
  0
DICTIONARY
  5
1F7
330
EC
100
AcDbDictionary
280
     1
281
     1
  3
FBXASSET
360
1F8
  0
DICTIONARY
  5
173
330
EE
100
AcDbDictionary
280
     1
281
     1
  3
BUMPTILE
360
175
  3
DIFFUSETILE
360
174
  3
FBXASSET
360
1FB
  3
OPACITYTILE
360
176
  3
REFLECTIONTILE
360
177
  0
DICTIONARY
  5
162
330
7F
100
AcDbDictionary
280
     1
281
     1
  3
ACAD_ROUNDTRIP_2008_TABLESTYLE_CELLSTYLEMAP
360
D2F
  0
ACDB_ALDIMOBJECTCONTEXTDATA_CLASS
  5
C88
102
{ACAD_REACTORS
330
C87
102
}
330
C87
100
AcDbObjectContextData
 70
     4
290
     1
100
AcDbAnnotScaleObjectContextData
340
10D
100
AcDbDimensionObjectContextData
  2
*D27
293
     0
 10
56.20000000000002
 20
328.3019538435512
294
     1
140
0.0
298
     0
291
     0
 70
     0
292
     0
 71
     0
280
     0
295
     0
296
     0
297
     0
100
AcDbAlignedDimensionObjectContextData
 11
108.9
 21
320.0902546792058
 31
0.0
  0
ACDB_ALDIMOBJECTCONTEXTDATA_CLASS
  5
C98
102
{ACAD_REACTORS
330
C97
102
}
330
C97
100
AcDbObjectContextData
 70
     4
290
     1
100
AcDbAnnotScaleObjectContextData
340
10D
100
AcDbDimensionObjectContextData
  2
*D28
293
     0
 10
216.2574358838942
 20
328.1961042613785
294
     1
140
0.0
298
     0
291
     0
 70
     0
292
     0
 71
     0
280
    16
295
     0
296
     0
297
     0
100
AcDbAlignedDimensionObjectContextData
 11
259.6835132987717
 21
320.0902546792058
 31
0.0
  0
ACDB_ALDIMOBJECTCONTEXTDATA_CLASS
  5
CDC
102
{ACAD_REACTORS
330
CDB
102
}
330
CDB
100
AcDbObjectContextData
 70
     4
290
     1
100
AcDbAnnotScaleObjectContextData
340
10D
100
AcDbDimensionObjectContextData
  2
*D31
293
     0
 10
291.9927325141796
 20
227.6658847544623
294
     1
140
0.0
298
     0
291
     0
 70
     0
292
     0
 71
     0
280
     0
295
     0
296
     0
297
     0
100
AcDbAlignedDimensionObjectContextData
 11
280.3604205364637
 21
151.9679797071386
 31
0.0
  0
ACDB_ALDIMOBJECTCONTEXTDATA_CLASS
  5
D0A
102
{ACAD_REACTORS
330
D09
102
}
330
D09
100
AcDbObjectContextData
 70
     4
290
     1
100
AcDbAnnotScaleObjectContextData
340
10D
100
AcDbDimensionObjectContextData
  2
*D32
293
     0
 10
146.6871368279305
 20
250.6637898017865
294
     1
140
0.0
298
     0
291
     0
 70
     0
292
     0
 71
     0
280
     0
295
     0
296
     0
297
     0
100
AcDbAlignedDimensionObjectContextData
 11
160.8096995020252
 21
224.4028327064722
 31
0.0
  0
ACDB_ALDIMOBJECTCONTEXTDATA_CLASS
  5
D1A
102
{ACAD_REACTORS
330
D19
102
}
330
D19
100
AcDbObjectContextData
 70
     4
290
     1
100
AcDbAnnotScaleObjectContextData
340
10D
100
AcDbDimensionObjectContextData
  2
*D33
293
     0
 10
193.5388793603816
 20
179.2965760134457
294
     1
140
0.0
298
     0
291
     0
 70
     0
292
     0
 71
     0
280
     0
295
     0
296
     0
297
     0
100
AcDbAlignedDimensionObjectContextData
 11
179.8313584690167
 21
187.2965760134457
 31
0.0
  0
XRECORD
  5
1FA
102
{ACAD_REACTORS
330
1F9
102
}
330
1F9
100
AcDbXrecord
280
     1
 70
     1
 90
429727718
  1
D62C5603-E3A1-4AEA-B7FB-FE5D8D0755AF
310
504B03040A0000080000CC70623B3DEE336E79000000790000001B0000006175746F6465736B2D64657369676E2D7061636B6167652E786D6C3C3F786D6C2076657273696F6E3D22312E302220656E636F64696E673D227574662D3822203F3E3C666F726D6174733E3C666F726D61743E687474703A2F2F736368656D612E
310
6175746F6465736B2E636F6D2F64657369676E2D7061636B6167652F323030393C2F666F726D61743E3C2F666F726D6174733E504B0304140006080800CC70623BD486FD9CA0000000F4000000130000005B436F6E74656E745F54797065735D2E786D6C7D8EC10E82300C865F65E91D8A1E8C310C0EEA1BF002731658846E
310
D98AC1B77784ABF1D8FE5FBFBF75BBCE937A534CCEB38643598122B6FEE978D0B0485F9C41B54DDD7D022595594E1A469170414C76A4D9A4D207E29CF43ECE46F218070CC6BECC4078ACAA135ACF422C856C0E68EA1BF5669944DDD7BCDE7B1F8E415D77AECB980613C2E4AC91FC167A2B244592486606FC29C8FD7F045B9A
310
EF7053A7E60B504B0304140006080800CC70623B853B8169EB0000007C01000008000000636F72652E786D6C8D90416EC3201045AF62CDB6C206821CC7C244919D9CA01740401C94182C03558F5F9C3852BBEB6A467FFE9B197D7EFC9E1EC5975982F5AE035262288C535E5B377690E21535501C055FBC8FBF6C503839990E
310
5619041F179FE64D52DE45E362569DD7661365082642A11EB9E920A89B99642953CC8E702F67A9EE7234257977194EC9EAE275C4EABCCF5EAD5940D4AC6F0E35A568B8F43562CD7046CD199FD07E60174276A7BE677B5EADB0E0D14EEFFB6A31321A0D82627C4084204C3F096B71DD52F6819B16635EADF63F509AF53FA164
310
5DDCD1EDDD17164090FCC8732078B56691CB33A85CD7DCC40F504B0304140006080800CC70623B55019EA25F0000007C00000007000000636E782E786D6C4DCB3B0E80201045D1AD90E915ED2CF8AC45050C11660C8261F98AB1B07AC9C97D42D718D865D3E909258CFD00CCE24AC6E326A164D74DC0B4128928FF32603847
310
2BA13128B1252AC747C6BAB984FC68F0B87FE8960A5C09FE86CFB69FBA01504B0304140006080800CC70623BDBABAAF470010000D40300000C0000006662782F636F72652E786D6CC553D16E823014FD95A6AF4B694182CC941A83FA05FB810A9511A125A5257EFE2E82712ECEB8A7F100CD39F7F69E734AF9FADC366850B6
310
AF8DCE7018308C942E4C59EB2AC3DE1D498AD15A706B8CFB56869196ADCAF00863C12B6B7C374385D14E6907A836A59A41D9F7CA615434B0C8705F7CAA5606D23BA8E84F41278B93AC54100640439DE0BDB320004D43C63716C7C399D30917DCFBBA9CD9BA8469F5B156168B24CED3F7248AC8769F27244EB73B92EED8862C
310
B7F13E0C179B3C8F979C8ECD82BBBABDAA2BAC924E9558448CBD9330242CFA08E3154B5651FCC6D215639C8EE5774DBE2B5F6CF2B5768B68963BB5F5588420E442FC700B1139D4CB01F450C1E918227C2E09DF070D8140C84E1E9AAB8F1340832A9CB13130A5F1376A908D57309505ECF2A0DF179C4E9D30F5B239B87E3823
310
7A79C6F31DE1A8A5AEC08474B03C7837EAE4938639B44E5932B833D2C6B6B279CDC613877FA26EE21F4A2A4C63EC7F29A2F301D1F9F7A0E37D145F504B0304140006080800CC70623B9C113CC27E0000009D0000000B0000006662782F636E782E786D6C4DCCDF0A83201C86E15B91DFB94BFB330DD428C8FB886521330DA7
310
6397BF1A1DECE883878F57749FCDA1B7892F1BBC047A23808C7F84D9FA55424E0BE6803A256208E9EF06C84F9B91703228B1C690F78B66B34CD9A5439DF5CF0BFBF65E35BCA1B8D6A5C6F540381E886698B5741C695F9503EBA150A2F8958E3DC3EA0B504B0304140006080800CC70623B7DF2F77C2A010000120200003100
310
00006662782F41393633353835312D344632462D344230382D423046372D3739314545314133324237412F636F72652E786D6C8D51DB8EC22014FC15C2939B0D2DB4B45643319AE817EC0F6041255A68B86CFCFC856D4D76DF7CE190393373060EDB3DC707F856CE6B6B7A480A0C81328395DA5C7B18C3057510EC3873D686
310
3F34088C18550F330C39BB3A1BA7051AAC09CA84841A2BD5020AEF55806078A44B0FFD7053A328440C89E1EFC52486BBB8AA8214A99D789CF9E05200300FC927E4FB4D5B375D43103D5527440FB843077C5AA3F5861C8F645F5787F59E95B390B318B55CE45AA638FAA2957BD7248B390B7A7CC51F9C124149C82B8C378810
310
84AB2F42B7B8DD56F413775B8C5999E9FF4471926F8AA236A1AE96B8B3CC434E5839373893369E1FAF30EA395917409EB7F26AF8801C171837A4A6AC9C89E9F9C9B1A58BA30FD6A5EF5DDDCF894B9AD9B6A59C957943A9FCAE2FD5BC4DFE03504B0304140006080800CC70623BAD7543B64E01000033030000300000006662
310
782F41393633353835312D344632462D344230382D423046372D3739314545314133324237412F636E782E786D6CD593CD6EC32010845F0571AD6CE3D48AD20813A9873E410FBD12D82434182C7EAAE6EDBB2424CD25871E7B41D6EC30B3FA84F9E67BB2E40B4234DE8DB46F1925E094D7C6ED479AD3AE5951B2113C789FEE
310
6C943839C1488B4C05DF079FE72A69D8C96C13AAD6B8631503449F83828872B949AC57D26200B826A308D316B4064D6E46FCDA41C05550DC9E483A00797BFD207EFB092A45DE9514C1BBD22178396BD39D891265658C238DEA00936C654E5E433CB65A26D9F6EDB5EBC14EBF49A45CB856E66048291F6939A9A81BB5C89177
310
38143CA680F4AA299D66A042CEB3354A2684DC9D8D178FE0D9B8B41CAAD720F880EE7EF93C0C18769E099ECC04D5A102C8049A8A05632F4DDF376CF1DE0F6BB65C2F8627B65A33C6BB62177CEBBDAD973006829F89F22E814B54F4BC2BE347F8AA8F681390B50FA73F804400B5F542E796F19FF974E7F78DB802FE05E20750
310
4B0304140006080800CC70623BE75B7789680500003C100000340000006662782F41393633353835312D344632462D344230382D423046372D3739314545314133324237412F6F626A656374732E786D6CAD575B8F9B3818FD2B887D06C22499CB8AA1CA655245D5B455A356FB305264C061D8018C6C3393D95FBFC7600890
310
A4CD5EF210B0B1BFEBF98E3F7B1FF6596ABC522E1296DF9BAE3D320D9A872C4AF2F8DE2CE5CEBA358D0FBEC719939D65A691938CDE9B6ADAF4BD98B3B2D05311DD91329583D9D5FC0F438434A7A611A644887B5384CF34233629258BA878B12322891DEFF6B66BD70BFB62634E8AE781D082709A4B588AF91C528CDA28B73F
310
1C998EEF39EABBEFA97FBD6A7C7E9553F9D3D79FE442923C3C523610337627CB87ABE99D359D4CC6D6E4FACAB5E6ABF9D2726FC6A3C5F56271377BB88362213924694B38DD99FE47C48627A1E7D49F5A8BB5E1A74C0A599ED3B0F21F1E56366B89112D681E218F0915D0D6F17AD41FBA2A369DCF6335D62ABBD39779D5DDD1
310
11D4D8DE3CBB96B2E04FB8202E41051754A1AA8E8F76B4C6DFE810B580B1547F4B84911149794252234D024EF8BBE963A95AE27B3D310A9D5C215C7960FAEE415ED75694C6AFB17BCACA5D99A60A9AA65F217B0BFC53292ACB92BF283FAD0D3621576592CB5BED907C2FA8E9DF794E35E97BEA31BED21FEB401ABB94C44839
310
DCACBF0E1C5DA8DA5B2F4DFFD32AD86F543D9E565E7056502E157C00AD2671CD534549AB752FCA9CDA00677A313F04E51B22FF19E57B300579E3C97EB29F682D92935CEC18CF901B7B54FD8C51F362B56FC72FE0B3C1EAE335EDCCBF5AEC39ADB17DC238973F804BA5E6F6BFE7AF1FB32E523BE9F3BD571418E3631DCA4D48
310
5250CF639223210A9446CA30052EDF057BD35F8329C1ECD84552BF0DC8D18BE7BCE23BFE6BD960AB4A7DE79923A103BEBD80F911CBAA2C60DB19B01CF164A5583B772EE6D3FFA56666CBCDA74DC97724A48F9A58967497E489C4D979006FD7A05E227A1EBDD0F737C623387A9C844D3709995625106D157315F8B8392CD4E0
310
A0B9A720C4BE9829CEF37EA1E13111214D53925356365ADA634861B52519DD27A00AEB808EAF0628E6F435519D446F45CF2C9CF5214F0A15B2F6D06B79DA3EE3CBF7F56780D2F4E7EF73A0F5E5B02A38D07DC852C6B7C1FBB6664213E0C39E3EBA7FF4E1AD23EA2829407C85E586727488B751B2DB9502BC7B228A3FD68B6E
310
A65A22397E690AA8D158D7E404EC8CDA235CC3B7D1898680131CEC2CDF2638C65196279577750F15884AEE19F94199155B92B13297978469D4F8D358DF0AEF7631E28DC8F0D9F437D5D39A83B2231A1D52D543813A824EF8D44BCFF2FA6A31BD1E8DAD87F1CCB526B3879935BF59CDADD5C37479BB1CDD4CA7B3556B516589
310
EF352754B706114D9C885EC9131DE6EFEB43D99AFE2391C2F958179413D7CFEF6B1B6DB1E7600F00DE6E5C67454A339A4BA2E0FBA85ED26F045D454F463DBFCE484C2F90F2E5E3666003662ED8F755951A7D1BECD5B30B550B2785C8E7320B7292A4838DDA71BBC863ED7613CAF659337A3354231D4FF4A182A54904C2898C
310
98B28C4AD0CE056CCF332A80986E571EE9DBC305BB5FEB7E509220A58D25CF042D712A806AC0AD0C657FDEF80D2D9CEAA2EE4D1C76F60BFE74219A06527D6F82DF6412526107381E55E353090704D085B52408A8913C4ED159D79BDA71BB4BC506F4831350EB6F975CD22D69BF7AC49B91A2C0A9DDA3D5CA36AD20FC478E37
310
E61844E2352865EBCB61A275A65283CAAA9DD27703B4102F5AF51EF5F573B75CBB5AD38BC845F7A49F82A0966A49C2E3EA5EA0ECD326CD965F1DB402C6FA8B51A4658C5C5E2EC9E214602E55810345408596591009A82E7E7FFACA19EEA299B14A0081A705CB3296EBC14CDF658DCD336EA6D1136881AAEB87B81AB9EE53D5
310
F5EB8BC8362082DA24122F98680A4E7930C01A0079749CEA14382A0783E5EBA5A10F8C098456A03D6A4AEB6BB881E2513747552A5DB22C7EDAF83BD5528081A365F7FF06504B0304140006080000CC70623B000000000000000000000000350000006662782F41393633353835312D344632462D344230382D423046372D37
310
39314545314133324237412F76657274696365732E62696E504B0304140006080800CC70623BF270F1330600000004000000360000006662782F41393633353835312D344632462D344230382D423046372D3739314545314133324237412F747269616E676C65732E62696E636660600000504B0304140006080000CC7062
310
3B000000000000000000000000370000006662782F41393633353835312D344632462D344230382D423046372D3739314545314133324237412F617474726962757465732E62696E504B0304140006080800CC70623B08DA0BD19000000041010000360000006662782F41393633353835312D344632462D344230382D4230
310
46372D3739314545314133324237412F6469726563746F72792E786D6C858F410AC3201045AF22B36F53E9A60B35CBEEBAE80D244E44489C6234F4F835464A48035D0DF398FF9F8AF63D0E6CC63039F212F8F9020C7D47C6792B21C5FE7403D62A1188E2E60C98D7234A5830286103A55745067B9D86B8A3CF9C7F90C11DE6
310
07FB144396D7B6A82D282E9A152AD114D5EF2CB866EEE831B8EEA07A7BB5A8D7D61A2BAAEB7FD5F70921FF497D00504B0304140006080800CC70623BEDD1DC58FD000000A00100003B0000006662782F41393633353835312D344632462D344230382D423046372D3739314545314133324237412F7265736F75726365732F
310
636F72652E786D6C8D504B6E833010BD0A9A6D65B00922041947112427E8052C33A156828DFCA97AFC9A40A576D7CDCCE87D344F8F9FBFE667F689CE6B6B3A6039850C8DB2A336530731DC4903D95970676DF82583CCC8193B5861107C72362E3BA4AC096842428D1D7107A5F7182053CF7474E0D507CE32973124857FE48B
310
540F3961CEF244279DE03EB81420DB9EAC1384436FA353E879B1B182C7A8C75DA3C7F453DF353A1075D537A7BA6464B8F535A99AE14A9A2BBD90E350DD183B5CFABE3AF262350B1EF4FC9351399401471025A527C218A1E53BAB5A5AB765F5469B96525EACF23FA6B88CFF34456DC2A1DCE36E360F82A5202F42F062ED2BAD
310
579969AFDD8A6F504B010214000A0000080000CC70623B3DEE336E79000000790000001B00000000000000000000000000000000006175746F6465736B2D64657369676E2D7061636B6167652E786D6C504B01021400140006080800CC70623BD486FD9CA0000000F40000001300000000000000000000000000B20000005B
310
436F6E74656E745F54797065735D2E786D6C504B01021400140006080800CC70623B853B8169EB0000007C010000080000000000000000000000000083010000636F72652E786D6C504B01021400140006080800CC70623B55019EA25F0000007C000000070000000000000000000000000094020000636E782E786D6C504B
310
01021400140006080800CC70623BDBABAAF470010000D40300000C00000000000000000000000000180300006662782F636F72652E786D6C504B01021400140006080800CC70623B9C113CC27E0000009D0000000B00000000000000000000000000B20400006662782F636E782E786D6C504B01021400140006080800CC70
310
623B7DF2F77C2A010000120200003100000000000000000000000000590500006662782F41393633353835312D344632462D344230382D423046372D3739314545314133324237412F636F72652E786D6C504B01021400140006080800CC70623BAD7543B64E010000330300003000000000000000000000000000D2060000
310
6662782F41393633353835312D344632462D344230382D423046372D3739314545314133324237412F636E782E786D6C504B01021400140006080800CC70623BE75B7789680500003C10000034000000000000000000000000006E0800006662782F41393633353835312D344632462D344230382D423046372D3739314545
310
314133324237412F6F626A656374732E786D6C504B01021400140006080000CC70623B0000000000000000000000003500000000000000000000000000280E00006662782F41393633353835312D344632462D344230382D423046372D3739314545314133324237412F76657274696365732E62696E504B01021400140006
310
080800CC70623BF270F133060000000400000036000000000000000000000000007B0E00006662782F41393633353835312D344632462D344230382D423046372D3739314545314133324237412F747269616E676C65732E62696E504B01021400140006080000CC70623B0000000000000000000000003700000000000000
310
000000000000D50E00006662782F41393633353835312D344632462D344230382D423046372D3739314545314133324237412F617474726962757465732E62696E504B01021400140006080800CC70623B08DA0BD1900000004101000036000000000000000000000000002A0F00006662782F41393633353835312D344632
310
462D344230382D423046372D3739314545314133324237412F6469726563746F72792E786D6C504B01021400140006080800CC70623BEDD1DC58FD000000A00100003B000000000000000000000000000E1000006662782F41393633353835312D344632462D344230382D423046372D3739314545314133324237412F7265
310
736F75726365732F636F72652E786D6C504B0506000000000E000E0080040000641100000000
  0
XRECORD
  5
1F8
102
{ACAD_REACTORS
330
1F7
102
}
330
1F7
100
AcDbXrecord
280
     1
 70
     1
 90
429727718
  1
30362254-06B7-45E0-A893-8CFA70E3D6BC
310
504B03040A0000080000CC70623B3DEE336E79000000790000001B0000006175746F6465736B2D64657369676E2D7061636B6167652E786D6C3C3F786D6C2076657273696F6E3D22312E302220656E636F64696E673D227574662D3822203F3E3C666F726D6174733E3C666F726D61743E687474703A2F2F736368656D612E
310
6175746F6465736B2E636F6D2F64657369676E2D7061636B6167652F323030393C2F666F726D61743E3C2F666F726D6174733E504B0304140006080800CC70623BD486FD9CA0000000F4000000130000005B436F6E74656E745F54797065735D2E786D6C7D8EC10E82300C865F65E91D8A1E8C310C0EEA1BF002731658846E
310
D98AC1B77784ABF1D8FE5FBFBF75BBCE937A534CCEB38643598122B6FEE978D0B0485F9C41B54DDD7D022595594E1A469170414C76A4D9A4D207E29CF43ECE46F218070CC6BECC4078ACAA135ACF422C856C0E68EA1BF5669944DDD7BCDE7B1F8E415D77AECB980613C2E4AC91FC167A2B244592486606FC29C8FD7F045B9A
310
EF7053A7E60B504B0304140006080800CC70623B1EC5D7A3EB0000007C01000008000000636F72652E786D6C8D90416EC3201045AF82665B6103C6756C6122AB4D4ED00B204C5C94182C03558F5F9C3852BBEB6A467FFE9B197D71FC9E6FE8CBACC17AD7032D0820E3B41FAD9B7A48F1820F808E52ACDEC75F36404ECDA687
310
4D0629A6D5A76597B477D1B89855E747B38B2A041301E95B6E7A08FAD3CCAA50296647B8168BD2573599823EBB0CA76447F43862C7BCCF5EAC59410E4DDD9C7973C2755553CCCFA4C603E3040F1565ED3B1FDE4E432BCA0D9622DAF9795FAF464533826484B498524CD807E51D79ED187F21878E10516EF63F505AC67F42C9
310
BA58B1FDDD071640D2FCC87D2045B96591CB3DA85CB7DCE40F504B0304140006080800CC70623B55019EA25F0000007C00000007000000636E782E786D6C4DCB3B0E80201045D1AD90E915ED2CF8AC45050C11660C8261F98AB1B07AC9C97D42D718D865D3E909258CFD00CCE24AC6E326A164D74DC0B4128928FF32603847
310
2BA13128B1252AC747C6BAB984FC68F0B87FE8960A5C09FE86CFB69FBA01504B0304140006080800CC70623B8C9102E971010000D40300000C0000006662782F636F72652E786D6CC5535B6E833010BC8AE5DF0A6C08340F1947A84D4ED00B38C6A128602363A31CBFCB234A53A551FA553EC09AD9F5CE8C31DB9E9B1AF5CA
310
7695D1198E428A91D2D214952E33ECDD315861B4E5CC1AE3BE9561A445A3323CC098B3D21ADFCE9034DA29ED00D5A6503328BA4E398C640D8B0C77F253352214DE4145770A5B214FA2546114020D759C75CE8200340D19DE981F0F6746269C33EFAB6266AB02A655C74A59CCF365BADC27CB5D902ED22848F6340DF238A141
310
BE88E2F57B92BFEDF23523433367AE6A2EEAA455C2A902F398D2751045018D3FA264435F3771F242571B4A1919CA6F9A7C5B3CD9E42BED16F12C776AEB308F40C848FC700B1139D4891EF410CEC810227CC6846F8386402064270EF5C5C709A05E49676C024C61FC95EA45ED154CA5211D1FF4FB8291A913A68E9B83EBBB33
310
E2A7673CDE118E5AE8124C0807CB8377834E366998436B950D7A7746DAD846D4CFD978E0F04FD455FC5D49D2D4C6FE9722321F10997F0F32DC47FE05504B0304140006080800CC70623BFFEA85907E0000009D0000000B0000006662782F636E782E786D6C4DCCD10A83201886E15B91FFDC95D95A811AB6F23E625948A6C3
310
E9D8E5AF46073BFAE0E1E365ED67B3E8ADC3CB78C7815C7240DA3DFC64DCC221C519D7805AC182F7F1EF06C88D9BE6703008B6049F9E274D7A1E938DBB5AE3D6131B2589BA0D3D965551E0B2EA732C9B9A624AAEB41E3A557677029960D9AFB4EF11165F504B0304140006080800CC70623B4FEEA4082C0100001202000031
310
0000006662782F39464131463745442D413632322D343644302D413938332D3331353338454246344243312F636F72652E786D6C8D515B6EC32010BC0AE2AB55850DD871ED0813254D72825EC00192A2C460F1A872FC42ED48ED5F7E00CDCECCCEB26C731F6FE05B39AFADE921293004CA082BB5B9F43086336A21D870E6AC
310
0D7F68109861543DCC30E4ECE26C9C164858139409093556AA051CBC570102714B8F1E7AF1A5C6A11862480C7F2DA6415C878B2A4891CA89C7990F2E050073937C42DE1DB7E4F87ED8A36D4329AA9B3D46DBAEAD504556557BD81DEBDD0761E52CE42C462D17B996298E3E6BE59E35C962CE821E1FF18553435012728A7187
310
0841987E927A8D9B35ADDF70BBC6989599FE4F1427F9A4286A132ABAC49D651EF234CD5CE04CDA78BA3DC2A8FB645D00B9DF8B57E215725C60BCA2A463E54C4CE327C7A65E1C7DB02E7DEFCBF594B864C5CA6CDBD49C957943E9FA5D5FBAF336F90F504B0304140006080800CC70623BAD7543B64E01000033030000300000
310
006662782F39464131463745442D413632322D343644302D413938332D3331353338454246344243312F636E782E786D6CD593CD6EC32010845F0571AD6CE3D48AD20813A9873E410FBD12D82434182C7EAAE6EDBB2424CD25871E7B41D6EC30B3FA84F9E67BB2E40B4234DE8DB46F1925E094D7C6ED479AD3AE5951B2113C
310
789FEE6C943839C1488B4C05DF079FE72A69D8C96C13AAD6B8631503449F83828872B949AC57D26200B826A308D316B4064D6E46FCDA41C05550DC9E483A00797BFD207EFB092A45DE9514C1BBD22178396BD39D891265658C238DEA00936C654E5E433CB65A26D9F6EDB5EBC14EBF49A45CB856E66048291F6939A9A81BB5
310
C8917738143CA680F4AA299D66A042CEB3354A2684DC9D8D178FE0D9B8B41CAAD720F880EE7EF93C0C18769E099ECC04D5A102C8049A8A05632F4DDF376CF1DE0F6BB65C2F8627B65A33C6BB62177CEBBDAD973006829F89F22E814B54F4BC2BE347F8AA8F681390B50FA73F804400B5F542E796F19FF974E7F78DB802FE05
310
E207504B0304140006080800CC70623B16AB87BA640500003C100000340000006662782F39464131463745442D413632322D343644302D413938332D3331353338454246344243312F6F626A656374732E786D6CAD575B6FA33818FD2B887DE6924B3BED8A326A92B68A663B534DD4D13E548A0C38942D60649B369D5FBFC7
310
600890A493BDE42160637FD7F31D7FF63E6FB3D478A55C242CBF3247B66B1A340F5994E4F19559CA8D75611A9F7D8F33263BCB4C232719BD32D5B4E97B316765A1A722BA21652A07B3B7B33F0D11D29C9A46981221AE4C113ED38CD8A4942CA2E2C58E882476BCD9DA23BB5ED8171B73523C0F841684D35CC252CCE79062D4
310
468DFA43D7747CCF51DF7D4FFDEB5593E3AB9CCA9FBEFE241792E4E19EB28198C968BAB8199F5D5A67D3E9C49A9E8F47D6EC76B6B0469F26EEFC7C3EBFBCBEB98462213924694B38DD98FE1D62C393D073EA4FADC5DAF04326852CCF6958F90F0F2B9BB5C48816348F90C7840A68EB78EDF68723159BCEE7891A6B95DDE9D3
310
BCEAEEE8086A6C6F9E5D4B59F0175C10A7A0820BAA5055C7473B5AE3CFDD452D602CD5DF12616444529E90D448938013FE6EFA58AA96F85E4F8C42275708571E98FE6827AF6B2B4AE3D7D83D64E5A64C53054DD3AF90BD06FEA9149565C94FCA0F6B834DC85599E4F2423B24DF0B6AFA979E534DFA9E7A4CC6FA631D486393
310
921829879BF5D781A373557BCB85E97FB90DB62B558F8795179C15944B051F40AB495CF35451D26A4727654E6D8033BD98EF82F21D91FF8AF2DD9982BCF1643BDD4EB516C9492E368C67C88DED563FC36D5EACF66DFF057C3658BDBFA69DF9578B3DA735B64F18C7F20770A9D45CFCF7FCF563D6456A277DBEF78A02637CA2
310
43B90A490AEAB94F72244481D24819A6C0E59B606BFA4B3025981DBB48EAB701D97BF19C577CC77F2D1B6C55A9EF3C732474C0B727303F625995056C3B02963D9EAC146BE78EC5FCEC7FA999EBC5EACBAAE41B12D27B4D2C0BBA49F244E2ECDC81B76B502F113D8F5EE8FB1BE3111CDD4FC2AA9B844CAB1288B68AB90A7CDC
310
1C166AB0D3DC5310625FCC14E779BFD0709F8890A629C9292B1B2DED31A4B0DA928CEE135085754027E3018A397D4D5427D15BD1330B677DC8934285AC3DF45A9EB68FF8F2B8FC0A509AFEECFD0FF2DE25CC6047F7214B195F07EFEB9A094D800F7BFAE8FED187B78EA8A3A400F115961BCAD1215E47C966530AF0EE8128FE
310
58CEBB996A8964FFA529A046635D9353B0336A8F700DDF46271A024E70B0B37C9DE01847591E54DED53D54202AB947E4076556AC49C6CA5C9E1226B7F1A7B1BE15DEED62C41B91E1B3E9AFAAA735036547343A925075041DF0A9979E893B391F8FCFA6967B3EFB644DCF6E5CEBFAE272625DCC6FAF3FB93793C5F90CE1EF57
310
407342756B10D1C489E8953CD1617E5CEECAD6F4EF8914CE5D5D504E5C3F1F9736DA62CFC11E00BCDDB8CC8A9466349744C1F75EBDA4DF09BA8A9E8C7A7E9991989E20E5DBDD6A6003664ED8F7A04A8DBE0DF6EAD9B9AA858342E47399053949D2C146EDB85DE4B176BB0965FBAC19BD19AA918E27FA50C1D22402E144464C
310
59462568E704B6E71915404CB72B8FF4EDE184DDAF753F284990D2C6926782963815403548A70C657FDEF80D2D9CEAA2AE4C1C76F60BFE74219A06527D6582DF6412526107381E55E353090704D085B52408D0933C4ED159D79BDA71BB4BC506F4831350EB6F979CD22D69BF7AC49B91A2C0A9DDA3D5CA36AD20FC478E37E6
310
1844E2352865EBCB6EA275A652E3836BE04EFB400BF1A2556F515F1FBB35B2AB35BD889C744FFA1004B5544B121E57F70215746DD2F5E2C1412B602CBF19455AC6C8E5E9922C4E01E65215385004546899059180EAFCF7A707CE7017CD8CDB0410789AB32C63B91E5CEBBBACB17AC6CD347A022D5075FD106377347AAABA7E
310
7D11590744509B44E205134DC1290F06580320F78E537D3D73540E06CB970B431F185308AD40BBD794D6D77003C5A36E8EAA54BA64597CD8F83BD552A080A365F7FF06504B0304140006080000CC70623B000000000000000000000000350000006662782F39464131463745442D413632322D343644302D413938332D3331
310
353338454246344243312F76657274696365732E62696E504B0304140006080800CC70623BF270F1330600000004000000360000006662782F39464131463745442D413632322D343644302D413938332D3331353338454246344243312F747269616E676C65732E62696E636660600000504B0304140006080000CC70623B
310
000000000000000000000000370000006662782F39464131463745442D413632322D343644302D413938332D3331353338454246344243312F617474726962757465732E62696E504B0304140006080800CC70623B08DA0BD19000000041010000360000006662782F39464131463745442D413632322D343644302D413938
310
332D3331353338454246344243312F6469726563746F72792E786D6C858F410AC3201045AF22B36F53E9A60B35CBEEBAE80D244E44489C6234F4F835464A48035D0DF398FF9F8AF63D0E6CC63039F212F8F9020C7D47C6792B21C5FE7403D62A1188E2E60C98D7234A5830286103A55745067B9D86B8A3CF9C7F90C11DE607
310
FB144396D7B6A82D282E9A152AD114D5EF2CB866EEE831B8EEA07A7BB5A8D7D61A2BAAEB7FD5F70921FF497D00504B0304140006080800CC70623B0D6EF93BFE000000A00100003B0000006662782F39464131463745442D413632322D343644302D413938332D3331353338454246344243312F7265736F75726365732F63
310
6F72652E786D6C8D50596E833010BD0A9ADFCA60B334011947A8694ED00B586642AC041B79A97AFC9A40A5F6AF3F33A3B7689E1E3F7DCD8FEC139DD7D6F4C0720A191A65476DA61E62B892236427C19DB5E1970C322367EC618541F0C9D9B8EC90B226A009093576C41D94DE63804C3DD2D18357379C652E63480A7FCF17A9
310
EE72C29CE5894E3AC17D702940B63D59270887DE46A7D0F36263058F518FBB468FE9A7BE6A7420864373B8D4873369AA8691FA421B3294352543C5CAF65C0F6FEF43CB8BD52C78D0F34F46E550061C419494B6843142CB0F5677F4B52BEB177AEC28E5C52AFF638ACBF84F53D42654E51E77B379102C05791282176B5F693D
310
CB4C7BED567C03504B010214000A0000080000CC70623B3DEE336E79000000790000001B00000000000000000000000000000000006175746F6465736B2D64657369676E2D7061636B6167652E786D6C504B01021400140006080800CC70623BD486FD9CA0000000F40000001300000000000000000000000000B20000005B
310
436F6E74656E745F54797065735D2E786D6C504B01021400140006080800CC70623B1EC5D7A3EB0000007C010000080000000000000000000000000083010000636F72652E786D6C504B01021400140006080800CC70623B55019EA25F0000007C000000070000000000000000000000000094020000636E782E786D6C504B
310
01021400140006080800CC70623B8C9102E971010000D40300000C00000000000000000000000000180300006662782F636F72652E786D6C504B01021400140006080800CC70623BFFEA85907E0000009D0000000B00000000000000000000000000B30400006662782F636E782E786D6C504B01021400140006080800CC70
310
623B4FEEA4082C0100001202000031000000000000000000000000005A0500006662782F39464131463745442D413632322D343644302D413938332D3331353338454246344243312F636F72652E786D6C504B01021400140006080800CC70623BAD7543B64E010000330300003000000000000000000000000000D5060000
310
6662782F39464131463745442D413632322D343644302D413938332D3331353338454246344243312F636E782E786D6C504B01021400140006080800CC70623B16AB87BA640500003C1000003400000000000000000000000000710800006662782F39464131463745442D413632322D343644302D413938332D3331353338
310
454246344243312F6F626A656374732E786D6C504B01021400140006080000CC70623B0000000000000000000000003500000000000000000000000000270E00006662782F39464131463745442D413632322D343644302D413938332D3331353338454246344243312F76657274696365732E62696E504B01021400140006
310
080800CC70623BF270F133060000000400000036000000000000000000000000007A0E00006662782F39464131463745442D413632322D343644302D413938332D3331353338454246344243312F747269616E676C65732E62696E504B01021400140006080000CC70623B0000000000000000000000003700000000000000
310
000000000000D40E00006662782F39464131463745442D413632322D343644302D413938332D3331353338454246344243312F617474726962757465732E62696E504B01021400140006080800CC70623B08DA0BD190000000410100003600000000000000000000000000290F00006662782F39464131463745442D413632
310
322D343644302D413938332D3331353338454246344243312F6469726563746F72792E786D6C504B01021400140006080800CC70623B0D6EF93BFE000000A00100003B000000000000000000000000000D1000006662782F39464131463745442D413632322D343644302D413938332D3331353338454246344243312F7265
310
736F75726365732F636F72652E786D6C504B0506000000000E000E0080040000641100000000
  0
XRECORD
  5
175
102
{ACAD_REACTORS
330
173
102
}
330
173
100
AcDbXrecord
280
     1
270
     1
271
     1
  0
XRECORD
  5
174
102
{ACAD_REACTORS
330
173
102
}
330
173
100
AcDbXrecord
280
     1
270
     1
271
     1
  0
XRECORD
  5
1FB
102
{ACAD_REACTORS
330
173
102
}
330
173
100
AcDbXrecord
280
     1
 70
     0
 90
1673772943
  1
ECE7A1D2-D628-4531-984C-D00F80459256
310
504B03040A0000080000CC70623B3DEE336E79000000790000001B0000006175746F6465736B2D64657369676E2D7061636B6167652E786D6C3C3F786D6C2076657273696F6E3D22312E302220656E636F64696E673D227574662D3822203F3E3C666F726D6174733E3C666F726D61743E687474703A2F2F736368656D612E
310
6175746F6465736B2E636F6D2F64657369676E2D7061636B6167652F323030393C2F666F726D61743E3C2F666F726D6174733E504B0304140006080800CC70623BD486FD9CA0000000F4000000130000005B436F6E74656E745F54797065735D2E786D6C7D8EC10E82300C865F65E91D8A1E8C310C0EEA1BF002731658846E
310
D98AC1B77784ABF1D8FE5FBFBF75BBCE937A534CCEB38643598122B6FEE978D0B0485F9C41B54DDD7D022595594E1A469170414C76A4D9A4D207E29CF43ECE46F218070CC6BECC4078ACAA135ACF422C856C0E68EA1BF5669944DDD7BCDE7B1F8E415D77AECB980613C2E4AC91FC167A2B244592486606FC29C8FD7F045B9A
310
EF7053A7E60B504B0304140006080800CC70623BD9DDAED0EC0000007C01000008000000636F72652E786D6C8D90416EC3201045AF82665B61836D9CD8C2444DD39CA01740405C94182C03558F5F9C3852BBEB6A467FFE9B197D7EF89E6EE8CB2CC17A37002D0820E394D7D68D03A478C17B4007C117EFE32F1B20272733C0
310
2A83E0E3E2D3BC49CABB685CCCAAF3DA6CA20CC14440EA969B0182FA34932C648AD911AEC52CD5558EA6A0CF2EC329598D1E47ACCEFBECC59A050463A7EA5833865FEBDD0E37353BE3EE8DBDE3F6786A48D375FBF6CC78B9C282473B3DEFABC5C86834888A900E538A49F5419B9EB47DD5BC907D4F082F57FB1F28CDFA9F50
310
B22ED6D5F6EE030B20687EE43E10BC5CB3C8E51E54AE6B6EE207504B0304140006080800CC70623B55019EA25F0000007C00000007000000636E782E786D6C4DCB3B0E80201045D1AD90E915ED2CF8AC45050C11660C8261F98AB1B07AC9C97D42D718D865D3E909258CFD00CCE24AC6E326A164D74DC0B4128928FF326038
310
472BA13128B1252AC747C6BAB984FC68F0B87FE8960A5C09FE86CFB69FBA01504B0304140006080800CC70623BA24EB22D72010000D40300000C0000006662782F636F72652E786D6CC5535B6E833010BC8AE5DF0A6C5E49888CA3A6694ED00B38E05014B091B1518EDFE511A5A9D228FD2A1F60CDEC7A67C6986DCE4D8D7A
310
69BA4AAB0C073EC548AA5C17952A33ECECD15B61B4E1CC686DBF9561A44423333CC098B3D268D7CE50AE9595CA02AA74216750749DB418E5352C32DCE59FB211BE70162ABA93DF8AFC244AE9073ED050C759670D0840D390E18DF9F1706664C23973AE2A66B62A605A75ACA4C13C4976E1364A12EF355A2EBD384AF65EFA96
310
BC7B8BED2EA6719AAE16FB8491A199335B351775B991C2CA02F390D2D40B028F861F41BCA68B7518BFD0D59A524686F29B26D7164F36B94AD9289CE54E6D1DE6010819891F6E21228B3AD1831EC219194284CF98F06DD01008846CC5A1BEF83801D4CBDC6A1303536877A57A513B0953A94FC707FDBE6064EA84A9E3E6E0FA
310
EE8CF0E9198F7784A316AA0413C2C2F2E0ECA0934D1AE6D05A69BCDE9E91D2A611F573361E38FC1375157F5752AE6B6DFE4B11990F88CCBF0719EE23FF02504B0304140006080800CC70623B408A7D3B7C0000009D0000000B0000006662782F636E782E786D6C4DCCD10A83201886E15B91FFDC552A92A0064DBC8F581632
310
D3703A76F9ABD1C18E3E78F878E5F0D9027ABBFCF2292AE86E2D20171F69F6715550CB827B40839639A5F2770314A7CD293819B45C73AAFB45B35BA61ACAA1C1C7E7855C58C15BC331339661262CC762340413D68D77DA5B42298546CBE6573AF60CEB2F504B0304140006080800CC70623B449FB9BD290100001202000031
310
0000006662782F36394639363044362D344446342D343946362D394244322D3234314243333846323333332F636F72652E786D6C8D515B6EC32010BC0AE22B55850D98B871848994463E412FE002495162B07854397EA176A4F62F3F2C9A9D991D587EB84F37F0AD7D30CEF6905418026DA553C65E7A98E219ED203808EE9D
310
8B7F6810D871D23D2C3014FCE25D9A57483A1BB58D19B54EE9151C43D0110279CB971E06F9A5A7B11A53CC8C70ADE6515EC78BAE4895DB992778883E0700CB907242D17643D7E2538BD869608875438BBAE38922CAC8F1BDD90DB4691A5E2F42C153326A951B95E398B3D1FE599322163C9AE9115F7A3D46ADA0A018778810
310
84E907617BDCEE297BC5BB3DC6BC2EF47FA234AB2745C9D8D8D035EE220B50105E2F0DC1954B9FB747187D9F9D8FA0CCDB042D5FA0C015C65B42DF78BD10F3F3B363CB56C7109DCFDFBBB97E662ED92EB62D13BC2E1BCAE5777DB9966D8A1F504B0304140006080800CC70623BAD7543B64E01000033030000300000006662
310
782F36394639363044362D344446342D343946362D394244322D3234314243333846323333332F636E782E786D6CD593CD6EC32010845F0571AD6CE3D48AD20813A9873E410FBD12D82434182C7EAAE6EDBB2424CD25871E7B41D6EC30B3FA84F9E67BB2E40B4234DE8DB46F1925E094D7C6ED479AD3AE5951B2113C789FEE
310
6C943839C1488B4C05DF079FE72A69D8C96C13AAD6B8631503449F83828872B949AC57D26200B826A308D316B4064D6E46FCDA41C05550DC9E483A00797BFD207EFB092A45DE9514C1BBD22178396BD39D891265658C238DEA00936C654E5E433CB65A26D9F6EDB5EBC14EBF49A45CB856E66048291F6939A9A81BB5C89177
310
38143CA680F4AA299D66A042CEB3354A2684DC9D8D178FE0D9B8B41CAAD720F880EE7EF93C0C18769E099ECC04D5A102C8049A8A05632F4DDF376CF1DE0F6BB65C2F8627B65A33C6BB62177CEBBDAD973006829F89F22E814B54F4BC2BE347F8AA8F681390B50FA73F804400B5F542E796F19FF974E7F78DB802FE05E20750
310
4B0304140006080800CC70623B8D05915C650500003B100000340000006662782F36394639363044362D344446342D343946362D394244322D3234314243333846323333332F6F626A656374732E786D6CAD575B6FA33814FE2B887D06429276DA1565D4266D158D3A339A6846FB502932E050B66023DB74D2FDF5FB190C01
310
9276B2973C046C8ECFF53B17071F77456EBD502133CEAE6CDF9DD81665314F32965ED995DA3A17B6F5310C04E7AA47665B8C14F4CAD6DB7618A48257A5D94AE89654B91AEDDEDDFC61C998326A5B714EA4BCB265FC440BE2924AF184CA6737218AB8E976E7FA6E4338649B0A523E8D98964450A6A029F619B8588D52FE7039
310
B1BD30F0F4F730D0FF866AF6369557DB33949F31A9088B0F848DD8CCFCF9F2767A76E99CCDE733677E3EF59D9BBB9BA5E37F984D16E78BC5E5F5ED25044B25C0C96822E8D60EEFE11B91C581D77CEA34368A1F5329E68CD1B8B61F16D63A1B8E092D294B10C78C4A48EB593D192E7DED9BDEE7995E1B91FDEDD3ACEA9FE831
310
6A756F9F7D4D79F4274C90A7A04248AA51D5F8C718DAE06FB2F75AC4796EBE65D22A88A22223B995679120E2D50E41AA49C260C046A35368846B0BECD0DFF3EBEB8AD4F835768F69B9ADF25C43D30E6B646F807FAA64AD59F61715C7A54127C4AACA98BA3006A9D792DAE165E0D59B61A01FB3A9F9D838D2DAE62445C86166
310
F37564E842E7DE6A69879FEEA2DD5AE7E371E1A5E025154AC307D06A03D73EB5978C58FFA4C8E9033066E0F3BD53BEC1F39F91BE7B55103791EDE6BBB991A2046172CB4581D8B893FA674DDA17A77B3B7C413D1B511FD2743BFF8A38F03A658705E3ADF8015C3A3417FF3D7E439FF591DA0B5F18BC20C1B8981957AE6392A3
310
F43C640C01D1A0B4728E2DD4F26DB4B3C3152A252A3B4E913CEC1C72F012782FF88EFF8637AA552DBEF76408E8A8DE9E50F9E1CB3A2DA0DB1B6039A893B56063DC5B3E3FFB5F72E67AB9FEB4AEC496C4F4C1149625DD662C53E89D7BF0F6151A046260D1337DFDC94502430F83B0EE07A130A224BCAD7DAE1D9FB6CD422FF6
310
920702629C4BB9AE79C12F243C6432A6794E18E5552BA56B431AAB5D91317302B2B071E86C3A42B1A02F999E24061403B5D0EB639195DA655DD3EBEAB4FB862DDF579F014AD0E73C22F99E28DA57FB98E75C6CA2D74D53086D600F4786E0FE3144B771A8A7B900F03594DB8A633CBC49B2EDB69228BB479CF863B5E807AAAB
310
23872F6DFEB4129B949CA33823F58830E86D65621E10047D9DB34D862E8EAC3C2ABC2F7B2C40D67CDFE01F5545B92105AF983AC54D93D69E56FB8E797F88913F898A9FEC705D3F9D1B54EC8426FB500D40A03BD0119B06E1B95DDC7EB8F6975367793EBD70E66733DFB9BC982F9CE564727731999F5D4ECFCE3B8D6A4DC2A0
310
6D50FD148437D110834A64C6CDDF57FBACB5C307A2A477DFE4939736CFEF2B175371E0E10CF0DD1D5C15654E0BCA14D1E87DD02FF93782A162C0A3D95F1524A52770F972BF1EE9809D13CE7DD599467F8ECE9ADD85CE85A34CD45355448C64F9E8A031DC2D596ACC6E5DD93D9B82DE2EF5CAF81363A8E47996A0DE24564A79
310
4115AACE09C55E14540231FDA13C319787134EBF34E3A022514E5B4D9E0826E25C02D5805B15ABE1BEF51B26383D445DD9E875EE33FE4C22DA16427D65A3BCA92CA6D28DD01DF5DC53330704308475351050232CCD31583787BA75774AFB06E5070DD0C8EF484E19968C5D83BA5B90B244D31E54D55A372320FE4786B7EA58
310
44E135AA5467CB7EA333A61683CC6A8C3257034C10CF46F40EF9F5BE59BE5BD30C3C72D235E95D10345C1D45445A5F0BB47E46A5EBE5570F9380B5FA629579952296A773720405982B9DE04011506178964401AA8BDF1FBF0A8EAB6861DD6580C0E38217056766716DAEB2D6FA0917D3E4116581EADB879C4E7CFFB11EFACD
310
3D641311495D92C8676CB409A72D18610D803CE8A626049E8EC1887CB5B44CC39883690DDA8399B4B9855B481E7D71D4A9D22F96E5BB73BF5793020C02137BF837504B0304140006080000CC70623B000000000000000000000000350000006662782F36394639363044362D344446342D343946362D394244322D32343142
310
43333846323333332F76657274696365732E62696E504B0304140006080800CC70623BF270F1330600000004000000360000006662782F36394639363044362D344446342D343946362D394244322D3234314243333846323333332F747269616E676C65732E62696E636660600000504B0304140006080000CC70623B0000
310
00000000000000000000370000006662782F36394639363044362D344446342D343946362D394244322D3234314243333846323333332F617474726962757465732E62696E504B0304140006080800CC70623B08DA0BD19000000041010000360000006662782F36394639363044362D344446342D343946362D394244322D
310
3234314243333846323333332F6469726563746F72792E786D6C858F410AC3201045AF22B36F53E9A60B35CBEEBAE80D244E44489C6234F4F835464A48035D0DF398FF9F8AF63D0E6CC63039F212F8F9020C7D47C6792B21C5FE7403D62A1188E2E60C98D7234A5830286103A55745067B9D86B8A3CF9C7F90C11DE607FB14
310
4396D7B6A82D282E9A152AD114D5EF2CB866EEE831B8EEA07A7BB5A8D7D61A2BAAEB7FD5F70921FF497D00504B0304140006080800CC70623BCA768048FE000000A00100003B0000006662782F36394639363044362D344446342D343946362D394244322D3234314243333846323333332F7265736F75726365732F636F72
310
652E786D6C8D50596E833010BD0A9ADFCA60D600328E9AA639412F609909B1126CE4A5EAF16B0295DABFFECC8CDEA2797AECF8353F924FB44E193D409E5248504B332A3D0D10FC95B4901C39B3C6F85F3248B49871801506CE266BC2B243D2688FDA47549B11775038871E12F988C7004EDE7016A9083E2ADC3D5D84BC8B09
310
D33C8D74D471E6BC8D0192EDC93A815B742658898E651BCB59086ADC356A8C3FD555A1055ED7E7E254D615792D0F075295F585746FF53B694EE78A565DD736979A65AB9933AFE69F8CD2A2F038022F28ED489E135A7CE4554F9BBEA85E68DB53CAB255FEC71496F19FA6A0B42F8B3DEE6673C0F318E4497096AD7DC5F52C33
310
EEB55BFE0D504B010214000A0000080000CC70623B3DEE336E79000000790000001B00000000000000000000000000000000006175746F6465736B2D64657369676E2D7061636B6167652E786D6C504B01021400140006080800CC70623BD486FD9CA0000000F40000001300000000000000000000000000B20000005B436F
310
6E74656E745F54797065735D2E786D6C504B01021400140006080800CC70623BD9DDAED0EC0000007C010000080000000000000000000000000083010000636F72652E786D6C504B01021400140006080800CC70623B55019EA25F0000007C000000070000000000000000000000000095020000636E782E786D6C504B0102
310
1400140006080800CC70623BA24EB22D72010000D40300000C00000000000000000000000000190300006662782F636F72652E786D6C504B01021400140006080800CC70623B408A7D3B7C0000009D0000000B00000000000000000000000000B50400006662782F636E782E786D6C504B01021400140006080800CC70623B
310
449FB9BD290100001202000031000000000000000000000000005A0500006662782F36394639363044362D344446342D343946362D394244322D3234314243333846323333332F636F72652E786D6C504B01021400140006080800CC70623BAD7543B64E010000330300003000000000000000000000000000D20600006662
310
782F36394639363044362D344446342D343946362D394244322D3234314243333846323333332F636E782E786D6C504B01021400140006080800CC70623B8D05915C650500003B10000034000000000000000000000000006E0800006662782F36394639363044362D344446342D343946362D394244322D32343142433338
310
46323333332F6F626A656374732E786D6C504B01021400140006080000CC70623B0000000000000000000000003500000000000000000000000000250E00006662782F36394639363044362D344446342D343946362D394244322D3234314243333846323333332F76657274696365732E62696E504B010214001400060808
310
00CC70623BF270F13306000000040000003600000000000000000000000000780E00006662782F36394639363044362D344446342D343946362D394244322D3234314243333846323333332F747269616E676C65732E62696E504B01021400140006080000CC70623B00000000000000000000000037000000000000000000
310
00000000D20E00006662782F36394639363044362D344446342D343946362D394244322D3234314243333846323333332F617474726962757465732E62696E504B01021400140006080800CC70623B08DA0BD190000000410100003600000000000000000000000000270F00006662782F36394639363044362D344446342D
310
343946362D394244322D3234314243333846323333332F6469726563746F72792E786D6C504B01021400140006080800CC70623BCA768048FE000000A00100003B000000000000000000000000000B1000006662782F36394639363044362D344446342D343946362D394244322D3234314243333846323333332F7265736F
310
75726365732F636F72652E786D6C504B0506000000000E000E0080040000621100000000
  0
XRECORD
  5
176
102
{ACAD_REACTORS
330
173
102
}
330
173
100
AcDbXrecord
280
     1
270
     1
271
     1
  0
XRECORD
  5
177
102
{ACAD_REACTORS
330
173
102
}
330
173
100
AcDbXrecord
280
     1
270
     1
271
     1
  0
CELLSTYLEMAP
  5
D2F
102
{ACAD_REACTORS
330
162
102
}
330
162
100
AcDbCellStyleMap
 90
        3
300
CELLSTYLE
  1
TABLEFORMAT_BEGIN
 90
        5
170
     1
 91
        0
 92
    32768
 62
   257
 93
        1
300
CONTENTFORMAT
  1
CONTENTFORMAT_BEGIN
 90
        0
 91
        0
 92
      512
 93
        0
300

 40
0.0
140
1.0
 94
        5
 62
     0
340
11
144
6.0
309
CONTENTFORMAT_END
171
     1
301
MARGIN
  1
CELLMARGIN_BEGIN
 40
1.5
 40
1.5
 40
1.5
 40
1.5
 40
4.5
 40
4.5
309
CELLMARGIN_END
 94
        6
 95
        1
302
GRIDFORMAT
  1
GRIDFORMAT_BEGIN
 90
        0
 91
        1
 62
     0
 92
       -2
340
14
 93
        0
 40
1.125
309
GRIDFORMAT_END
 95
        2
302
GRIDFORMAT
  1
GRIDFORMAT_BEGIN
 90
        0
 91
        1
 62
     0
 92
       -2
340
14
 93
        0
 40
1.125
309
GRIDFORMAT_END
 95
        4
302
GRIDFORMAT
  1
GRIDFORMAT_BEGIN
 90
        0
 91
        1
 62
     0
 92
       -2
340
14
 93
        0
 40
1.125
309
GRIDFORMAT_END
 95
        8
302
GRIDFORMAT
  1
GRIDFORMAT_BEGIN
 90
        0
 91
        1
 62
     0
 92
       -2
340
14
 93
        0
 40
1.125
309
GRIDFORMAT_END
 95
       16
302
GRIDFORMAT
  1
GRIDFORMAT_BEGIN
 90
        0
 91
        1
 62
     0
 92
       -2
340
14
 93
        0
 40
1.125
309
GRIDFORMAT_END
 95
       32
302
GRIDFORMAT
  1
GRIDFORMAT_BEGIN
 90
        0
 91
        1
 62
     0
 92
       -2
340
14
 93
        0
 40
1.125
309
GRIDFORMAT_END
309
TABLEFORMAT_END
  1
CELLSTYLE_BEGIN
 90
        1
 91
        1
300
_TITLE
309
CELLSTYLE_END
300
CELLSTYLE
  1
TABLEFORMAT_BEGIN
 90
        5
170
     1
 91
        0
 92
        0
 62
   257
 93
        1
300
CONTENTFORMAT
  1
CONTENTFORMAT_BEGIN
 90
        0
 91
        0
 92
      512
 93
        0
300

 40
0.0
140
1.0
 94
        5
 62
     0
340
11
144
4.5
309
CONTENTFORMAT_END
171
     1
301
MARGIN
  1
CELLMARGIN_BEGIN
 40
1.5
 40
1.5
 40
1.5
 40
1.5
 40
4.5
 40
4.5
309
CELLMARGIN_END
 94
        6
 95
        1
302
GRIDFORMAT
  1
GRIDFORMAT_BEGIN
 90
        0
 91
        1
 62
     0
 92
       -2
340
14
 93
        0
 40
1.125
309
GRIDFORMAT_END
 95
        2
302
GRIDFORMAT
  1
GRIDFORMAT_BEGIN
 90
        0
 91
        1
 62
     0
 92
       -2
340
14
 93
        0
 40
1.125
309
GRIDFORMAT_END
 95
        4
302
GRIDFORMAT
  1
GRIDFORMAT_BEGIN
 90
        0
 91
        1
 62
     0
 92
       -2
340
14
 93
        0
 40
1.125
309
GRIDFORMAT_END
 95
        8
302
GRIDFORMAT
  1
GRIDFORMAT_BEGIN
 90
        0
 91
        1
 62
     0
 92
       -2
340
14
 93
        0
 40
1.125
309
GRIDFORMAT_END
 95
       16
302
GRIDFORMAT
  1
GRIDFORMAT_BEGIN
 90
        0
 91
        1
 62
     0
 92
       -2
340
14
 93
        0
 40
1.125
309
GRIDFORMAT_END
 95
       32
302
GRIDFORMAT
  1
GRIDFORMAT_BEGIN
 90
        0
 91
        1
 62
     0
 92
       -2
340
14
 93
        0
 40
1.125
309
GRIDFORMAT_END
309
TABLEFORMAT_END
  1
CELLSTYLE_BEGIN
 90
        2
 91
        1
300
_HEADER
309
CELLSTYLE_END
300
CELLSTYLE
  1
TABLEFORMAT_BEGIN
 90
        5
170
     1
 91
        0
 92
        0
 62
   257
 93
        1
300
CONTENTFORMAT
  1
CONTENTFORMAT_BEGIN
 90
        0
 91
        0
 92
      512
 93
        0
300

 40
0.0
140
1.0
 94
        2
 62
     0
340
11
144
4.5
309
CONTENTFORMAT_END
171
     1
301
MARGIN
  1
CELLMARGIN_BEGIN
 40
1.5
 40
1.5
 40
1.5
 40
1.5
 40
4.5
 40
4.5
309
CELLMARGIN_END
 94
        6
 95
        1
302
GRIDFORMAT
  1
GRIDFORMAT_BEGIN
 90
        0
 91
        1
 62
     0
 92
       -2
340
14
 93
        0
 40
1.125
309
GRIDFORMAT_END
 95
        2
302
GRIDFORMAT
  1
GRIDFORMAT_BEGIN
 90
        0
 91
        1
 62
     0
 92
       -2
340
14
 93
        0
 40
1.125
309
GRIDFORMAT_END
 95
        4
302
GRIDFORMAT
  1
GRIDFORMAT_BEGIN
 90
        0
 91
        1
 62
     0
 92
       -2
340
14
 93
        0
 40
1.125
309
GRIDFORMAT_END
 95
        8
302
GRIDFORMAT
  1
GRIDFORMAT_BEGIN
 90
        0
 91
        1
 62
     0
 92
       -2
340
14
 93
        0
 40
1.125
309
GRIDFORMAT_END
 95
       16
302
GRIDFORMAT
  1
GRIDFORMAT_BEGIN
 90
        0
 91
        1
 62
     0
 92
       -2
340
14
 93
        0
 40
1.125
309
GRIDFORMAT_END
 95
       32
302
GRIDFORMAT
  1
GRIDFORMAT_BEGIN
 90
        0
 91
        1
 62
     0
 92
       -2
340
14
 93
        0
 40
1.125
309
GRIDFORMAT_END
309
TABLEFORMAT_END
  1
CELLSTYLE_BEGIN
 90
        3
 91
        2
300
_DATA
309
CELLSTYLE_END
  0
ENDSEC
  0
SECTION
  2
ACDSDATA
 70
     2
 71
     8
  0
ACDSSCHEMA
 90
        0
  1
AcDb_Thumbnail_Schema
  2
AcDbDs::ID
280
    10
 91
        8
  2
Thumbnail_Data
280
    15
 91
        0
101
ACDSRECORD
 95
        0
 90
        1
  2
AcDbDs::TreatedAsObjectData
280
     1
291
     1
101
ACDSRECORD
 95
        0
 90
        2
  2
AcDbDs::Legacy
280
     1
291
     1
101
ACDSRECORD
  1
AcDbDs::ID
 90
        3
  2
AcDs:Indexable
280
     1
291
     1
101
ACDSRECORD
  1
AcDbDs::ID
 90
        4
  2
AcDbDs::HandleAttribute
280
     7
282
     1
  0
ACDSSCHEMA
 90
        1
  1
AcDbDs::TreatedAsObjectDataSchema
  2
AcDbDs::TreatedAsObjectData
280
     1
 91
        0
  0
ACDSSCHEMA
 90
        2
  1
AcDbDs::LegacySchema
  2
AcDbDs::Legacy
280
     1
 91
        0
  0
ACDSSCHEMA
 90
        3
  1
AcDbDs::IndexedPropertySchema
  2
AcDs:Indexable
280
     1
 91
        0
  0
ACDSSCHEMA
 90
        4
  1
AcDbDs::HandleAttributeSchema
  2
AcDbDs::HandleAttribute
280
     7
 91
        1
284
     1
  0
ACDSSCHEMA
 90
        5
  1
AcDb3DSolid_ASM_Data
  2
AcDbDs::ID
280
    10
 91
        8
  2
ASM_Data
280
    15
 91
        0
101
ACDSRECORD
 95
        5
 90
        1
  2
AcDbDs::TreatedAsObjectData
280
     1
291
     1
101
ACDSRECORD
 95
        5
 90
        2
  2
AcDbDs::Legacy
280
     1
291
     1
101
ACDSRECORD
  1
AcDbDs::ID
 90
        3
  2
AcDs:Indexable
280
     1
291
     1
101
ACDSRECORD
  1
AcDbDs::ID
 90
        4
  2
AcDbDs::HandleAttribute
280
     7
282
     1
  0
ACDSRECORD
 90
        0
  2
AcDbDs::ID
280
    10
320
4EE
  2
Thumbnail_Data
280
    15
 94
     1094
310
89504E470D0A1A0A0000000D4948445200000100000000C00803000000DC334D5400000300504C5445FFFFFFFFFFFFFFFFFF0000000000000000000000000000000000000000000000000000330000660000990000CC0000FF0033000033330033660033990033CC0033FF0066000066330066660066990066CC0066FF0099
310
000099330099660099990099CC0099FF00CC0000CC3300CC6600CC9900CCCC00CCFF00FF0000FF3300FF6600FF9900FFCC00FFFF3300003300333300663300993300CC3300FF3333003333333333663333993333CC3333FF3366003366333366663366993366CC3366FF3399003399333399663399993399CC3399FF33CC00
310
33CC3333CC6633CC9933CCCC33CCFF33FF0033FF3333FF6633FF9933FFCC33FFFF6600006600336600666600996600CC6600FF6633006633336633666633996633CC6633FF6666006666336666666666996666CC6666FF6699006699336699666699996699CC6699FF66CC0066CC3366CC6666CC9966CCCC66CCFF66FF0066
310
FF3366FF6666FF9966FFCC66FFFF9900009900339900669900999900CC9900FF9933009933339933669933999933CC9933FF9966009966339966669966999966CC9966FF9999009999339999669999999999CC9999FF99CC0099CC3399CC6699CC9999CCCC99CCFF99FF0099FF3399FF6699FF9999FFCC99FFFFCC0000CC00
310
33CC0066CC0099CC00CCCC00FFCC3300CC3333CC3366CC3399CC33CCCC33FFCC6600CC6633CC6666CC6699CC66CCCC66FFCC9900CC9933CC9966CC9999CC99CCCC99FFCCCC00CCCC33CCCC66CCCC99CCCCCCCCCCFFCCFF00CCFF33CCFF66CCFF99CCFFCCCCFFFFFF0000FF0033FF0066FF0099FF00CCFF00FFFF3300FF3333
310
FF3366FF3399FF33CCFF33FFFF6600FF6633FF6666FF6699FF66CCFF66FFFF9900FF9933FF9966FF9999FF99CCFF99FFFFCC00FFCC33FFCC66FFCC99FFCCCCFFCCFFFFFF00FFFF33FFFF66FFFF99FFFFCCFFFFFF0000000D0D0D1A1A1A2828283535354343435050505D5D5D6B6B6B787878868686939393A1A1A1AEAEAEBB
310
BBBBC9C9C9D6D6D6E4E4E4F1F1F1FFFFFF000000000000000000000000000000000000000000000000000000000000AD4AB4E4000001014944415478DAEDD1310DC03010C0C0E78FF5A550A8D42D0032F90CE13C1B6F76CA010000E00738C16E80DE7B00000000000000000000000000000000000000000000000000000000
310
00000000000000000000000000000000000000000000000000000000000000000000000000000000000000000000000000000000000000000000000000000000000000000000000000000000000000000000000000000000000000000000000000000000000000000000000000000000000000000000000000000000000000
310
00000000000000000000000000000000000000000000000000000000000000000000000000000000000000008F01825D00D9000000B0F1F2001FFB75E4F07A95D3FE0000000049454E44AE426082
  0
ACDSRECORD
 90
        0
  2
AcDbDs::ID
280
    10
320
22
  2
Thumbnail_Data
280
    15
 94
     1151
310
89504E470D0A1A0A0000000D494844520000010000000085080300000083A6D68B00000300504C5445212830FFFFFF2128300000000000000000000000000000000000000000000000000000330000660000990000CC0000FF0033000033330033660033990033CC0033FF0066000066330066660066990066CC0066FF0099
310
000099330099660099990099CC0099FF00CC0000CC3300CC6600CC9900CCCC00CCFF00FF0000FF3300FF6600FF9900FFCC00FFFF3300003300333300663300993300CC3300FF3333003333333333663333993333CC3333FF3366003366333366663366993366CC3366FF3399003399333399663399993399CC3399FF33CC00
310
33CC3333CC6633CC9933CCCC33CCFF33FF0033FF3333FF6633FF9933FFCC33FFFF6600006600336600666600996600CC6600FF6633006633336633666633996633CC6633FF6666006666336666666666996666CC6666FF6699006699336699666699996699CC6699FF66CC0066CC3366CC6666CC9966CCCC66CCFF66FF0066
310
FF3366FF6666FF9966FFCC66FFFF9900009900339900669900999900CC9900FF9933009933339933669933999933CC9933FF9966009966339966669966999966CC9966FF9999009999339999669999999999CC9999FF99CC0099CC3399CC6699CC9999CCCC99CCFF99FF0099FF3399FF6699FF9999FFCC99FFFFCC0000CC00
310
33CC0066CC0099CC00CCCC00FFCC3300CC3333CC3366CC3399CC33CCCC33FFCC6600CC6633CC6666CC6699CC66CCCC66FFCC9900CC9933CC9966CC9999CC99CCCC99FFCCCC00CCCC33CCCC66CCCC99CCCCCCCCCCFFCCFF00CCFF33CCFF66CCFF99CCFFCCCCFFFFFF0000FF0033FF0066FF0099FF00CCFF00FFFF3300FF3333
310
FF3366FF3399FF33CCFF33FFFF6600FF6633FF6666FF6699FF66CCFF66FFFF9900FF9933FF9966FF9999FF99CCFF99FFFFCC00FFCC33FFCC66FFCC99FFCCCCFFCCFFFFFF00FFFF33FFFF66FFFF99FFFFCCFFFFFF0000000D0D0D1A1A1A2828283535354343435050505D5D5D6B6B6B787878868686939393A1A1A1AEAEAEBB
310
BBBBC9C9C9D6D6D6E4E4E4F1F1F1FFFFFF0000000000000000000000000000000000000000000000000000000000002E4550F1000000384944415478DAEDC13101000000C2A0F54F6D0C1FA00000000000000000000000000000000000000000000000000000000000000000008E0685850001EE3FE3560000000049454E44
310
AE4260820000000000000000000000000000000000000000000000000000000000000000000000000000000000000000000000000000000000009A7BAFBFD19124499224499276F600B11C0C70C88905780000000049454E44AE42608245EF0DFBCF01870132AF7FFA3D090A20800002C4EF9B001B60036C80008E800D10C0
310
11B00136C0060820C0540146F157219D7E1921C0BA40D880D2FCFD024C7902A2F618F488D0E92EB8F72FB0C3251040000104E85660E2BB8000D30758DE0A1508208000020820800002082080008DBE0E5502640AE008D8805EE357DF0AB64AF05180983AC0FD1A908E000000000000009FFA010A3B81A09F534F1200000000
310
49454E44AE426082
  0
ENDSEC
  0
EOF
