  0
SECTION
  2
HEADER
  9
$ACADVER
  1
AC1032
  9
$ACADMAINTVER
 90
      174
  9
$DWGCODEPAGE
  3
ANSI_1252
  9
$LASTSAVEDBY
  1
pengb
  9
$REQUIREDVERSIONS
160
                 0
  9
$INSBASE
 10
0.0
 20
0.0
 30
0.0
  9
$EXTMIN
 10
-66.40685945098153
 20
-60.37344298229254
 30
-0.0015258207003583
  9
$EXTMAX
 10
441.8984995385383
 20
367.3888557539192
 30
0.0000000349246037
  9
$LIMMIN
 10
0.0
 20
0.0
  9
$LIMMAX
 10
420.0
 20
297.0
  9
$ORTHOMODE
 70
     0
  9
$REGENMODE
 70
     1
  9
$FILLMODE
 70
     1
  9
$QTEXTMODE
 70
     0
  9
$MIRRTEXT
 70
     1
  9
$LTSCALE
 40
1.0
  9
$ATTMODE
 70
     1
  9
$TEXTSIZE
 40
3.5
  9
$TRACEWID
 40
1.0
  9
$TEXTSTYLE
  7
Standard
  9
$CLAYER
  8
0
  9
$CELTYPE
  6
ByLayer
  9
$CECOLOR
 62
   256
  9
$CELTSCALE
 40
1.0
  9
$DISPSILH
 70
     0
  9
$DIMSCALE
 40
1.0
  9
$DIMASZ
 40
3.302
  9
$DIMEXO
 40
1.0
  9
$DIMDLI
 40
3.75
  9
$DIMRND
 40
0.0
  9
$DIMDLE
 40
0.0
  9
$DIMEXE
 40
1.0
  9
$DIMTP
 40
0.0
  9
$DIMTM
 40
0.0
  9
$DIMTXT
 40
3.5
  9
$DIMCEN
 40
2.5
  9
$DIMTSZ
 40
0.0
  9
$DIMTOL
 70
     0
  9
$DIMLIM
 70
     0
  9
$DIMTIH
 70
     1
  9
$DIMTOH
 70
     1
  9
$DIMSE1
 70
     0
  9
$DIMSE2
 70
     0
  9
$DIMTAD
 70
     1
  9
$DIMZIN
 70
     1
  9
$DIMBLK
  1

  9
$DIMASO
 70
     1
  9
$DIMSHO
 70
     1
  9
$DIMPOST
  1

  9
$DIMAPOST
  1

  9
$DIMALT
 70
     0
  9
$DIMALTD
 70
     3
  9
$DIMALTF
 40
0.0393700787
  9
$DIMLFAC
 40
2.0
  9
$DIMTOFL
 70
     1
  9
$DIMTVP
 40
0.0
  9
$DIMTIX
 70
     0
  9
$DIMSOXD
 70
     0
  9
$DIMSAH
 70
     0
  9
$DIMBLK1
  1

  9
$DIMBLK2
  1

  9
$DIMSTYLE
  2
ISO-25
  9
$DIMCLRD
 70
     0
  9
$DIMCLRE
 70
     0
  9
$DIMCLRT
 70
     0
  9
$DIMTFAC
 40
1.0
  9
$DIMGAP
 40
1.524
  9
$DIMJUST
 70
     0
  9
$DIMSD1
 70
     0
  9
$DIMSD2
 70
     0
  9
$DIMTOLJ
 70
     0
  9
$DIMTZIN
 70
     1
  9
$DIMALTZ
 70
     0
  9
$DIMALTTZ
 70
     0
  9
$DIMUPT
 70
     0
  9
$DIMDEC
 70
     2
  9
$DIMTDEC
 70
     2
  9
$DIMALTU
 70
     2
  9
$DIMALTTD
 70
     3
  9
$DIMTXSTY
  7
Standard
  9
$DIMAUNIT
 70
     0
  9
$DIMADEC
 70
     2
  9
$DIMALTRND
 40
0.0
  9
$DIMAZIN
 70
     0
  9
$DIMDSEP
 70
    44
  9
$DIMATFIT
 70
     3
  9
$DIMFRAC
 70
     0
  9
$DIMLDRBLK
  1

  9
$DIMLUNIT
 70
     2
  9
$DIMLWD
 70
    -2
  9
$DIMLWE
 70
    -2
  9
$DIMTMOVE
 70
     0
  9
$DIMFXL
 40
1.0
  9
$DIMFXLON
 70
     0
  9
$DIMJOGANG
 40
0.7853981633974483
  9
$DIMTFILL
 70
     0
  9
$DIMTFILLCLR
 70
     0
  9
$DIMARCSYM
 70
     0
  9
$DIMLTYPE
  6

  9
$DIMLTEX1
  6

  9
$DIMLTEX2
  6

  9
$DIMTXTDIRECTION
 70
     0
  9
$LUNITS
 70
     2
  9
$LUPREC
 70
     2
  9
$SKETCHINC
 40
1.0
  9
$FILLETRAD
 40
10.0
  9
$AUNITS
 70
     0
  9
$AUPREC
 70
     2
  9
$MENU
  1
.
  9
$ELEVATION
 40
0.0
  9
$PELEVATION
 40
0.0
  9
$THICKNESS
 40
0.0
  9
$LIMCHECK
 70
     0
  9
$CHAMFERA
 40
0.0
  9
$CHAMFERB
 40
0.0
  9
$CHAMFERC
 40
0.0
  9
$CHAMFERD
 40
0.0
  9
$SKPOLY
 70
     0
  9
$TDCREATE
 40
2459979.618599537
  9
$TDUCREATE
 40
2459979.160273808
  9
$TDUPDATE
 40
2460007.504328704
  9
$TDUUPDATE
 40
2460007.045995371
  9
$TDINDWG
 40
0.0006481597
  9
$TDUSRTIMER
 40
0.0006481597
  9
$USRTIMER
 70
     1
  9
$ANGBASE
 50
0.0
  9
$ANGDIR
 70
     0
  9
$PDMODE
 70
     0
  9
$PDSIZE
 40
-1.0
  9
$PLINEWID
 40
0.0
  9
$SPLFRAME
 70
     0
  9
$SPLINETYPE
 70
     6
  9
$SPLINESEGS
 70
     8
  9
$HANDSEED
  5
23C
  9
$SURFTAB1
 70
     6
  9
$SURFTAB2
 70
     6
  9
$SURFTYPE
 70
     6
  9
$SURFU
 70
     6
  9
$SURFV
 70
     6
  9
$UCSBASE
  2

  9
$UCSNAME
  2

  9
$UCSORG
 10
0.0
 20
0.0
 30
0.0
  9
$UCSXDIR
 10
1.0
 20
0.0
 30
0.0
  9
$UCSYDIR
 10
0.0
 20
1.0
 30
0.0
  9
$UCSORTHOREF
  2

  9
$UCSORTHOVIEW
 70
     0
  9
$UCSORGTOP
 10
0.0
 20
0.0
 30
0.0
  9
$UCSORGBOTTOM
 10
0.0
 20
0.0
 30
0.0
  9
$UCSORGLEFT
 10
0.0
 20
0.0
 30
0.0
  9
$UCSORGRIGHT
 10
0.0
 20
0.0
 30
0.0
  9
$UCSORGFRONT
 10
0.0
 20
0.0
 30
0.0
  9
$UCSORGBACK
 10
0.0
 20
0.0
 30
0.0
  9
$PUCSBASE
  2

  9
$PUCSNAME
  2

  9
$PUCSORG
 10
0.0
 20
0.0
 30
0.0
  9
$PUCSXDIR
 10
1.0
 20
0.0
 30
0.0
  9
$PUCSYDIR
 10
0.0
 20
1.0
 30
0.0
  9
$PUCSORTHOREF
  2

  9
$PUCSORTHOVIEW
 70
     0
  9
$PUCSORGTOP
 10
0.0
 20
0.0
 30
0.0
  9
$PUCSORGBOTTOM
 10
0.0
 20
0.0
 30
0.0
  9
$PUCSORGLEFT
 10
0.0
 20
0.0
 30
0.0
  9
$PUCSORGRIGHT
 10
0.0
 20
0.0
 30
0.0
  9
$PUCSORGFRONT
 10
0.0
 20
0.0
 30
0.0
  9
$PUCSORGBACK
 10
0.0
 20
0.0
 30
0.0
  9
$USERI1
 70
     0
  9
$USERI2
 70
     0
  9
$USERI3
 70
     0
  9
$USERI4
 70
     0
  9
$USERI5
 70
     0
  9
$USERR1
 40
0.0
  9
$USERR2
 40
0.0
  9
$USERR3
 40
0.0
  9
$USERR4
 40
0.0
  9
$USERR5
 40
0.0
  9
$WORLDVIEW
 70
     1
  9
$SHADEDGE
 70
     3
  9
$SHADEDIF
 70
    70
  9
$TILEMODE
 70
     1
  9
$MAXACTVP
 70
    64
  9
$PINSBASE
 10
0.0
 20
0.0
 30
0.0
  9
$PLIMCHECK
 70
     0
  9
$PEXTMIN
 10
1.000000000000000E+20
 20
1.000000000000000E+20
 30
1.000000000000000E+20
  9
$PEXTMAX
 10
-1.000000000000000E+20
 20
-1.000000000000000E+20
 30
-1.000000000000000E+20
  9
$PLIMMIN
 10
0.0
 20
0.0
  9
$PLIMMAX
 10
420.0
 20
297.0
  9
$UNITMODE
 70
     0
  9
$VISRETAIN
 70
     1
  9
$PLINEGEN
 70
     0
  9
$PSLTSCALE
 70
     1
  9
$TREEDEPTH
 70
  3020
  9
$CMLSTYLE
  2
Standard
  9
$CMLJUST
 70
     0
  9
$CMLSCALE
 40
20.0
  9
$PROXYGRAPHICS
 70
     1
  9
$MEASUREMENT
 70
     1
  9
$CELWEIGHT
370
    -1
  9
$ENDCAPS
280
     0
  9
$JOINSTYLE
280
     0
  9
$LWDISPLAY
290
     1
  9
$INSUNITS
 70
     4
  9
$HYPERLINKBASE
  1

  9
$STYLESHEET
  1

  9
$XEDIT
290
     1
  9
$CEPSNTYPE
380
     0
  9
$PSTYLEMODE
290
     1
  9
$FINGERPRINTGUID
  2
{13402E25-6DA3-43A0-AE39-3FECDF4D90BD}
  9
$VERSIONGUID
  2
{392D4A71-8846-3F42-8F37-8C5E63311B5B}
  9
$EXTNAMES
290
     1
  9
$PSVPSCALE
 40
0.0
  9
$OLESTARTUP
290
     0
  9
$SORTENTS
280
   127
  9
$INDEXCTL
280
     0
  9
$HIDETEXT
280
     0
  9
$XCLIPFRAME
280
     2
  9
$HALOGAP
280
     0
  9
$OBSCOLOR
 70
   257
  9
$OBSLTYPE
280
     0
  9
$INTERSECTIONDISPLAY
280
     0
  9
$INTERSECTIONCOLOR
 70
   257
  9
$DIMASSOC
280
     1
  9
$PROJECTNAME
  1

  9
$CAMERADISPLAY
290
     0
  9
$LENSLENGTH
 40
50.0
  9
$CAMERAHEIGHT
 40
0.0
  9
$STEPSPERSEC
 40
2.0
  9
$STEPSIZE
 40
6.0
  9
$3DDWFPREC
 40
2.0
  9
$PSOLWIDTH
 40
0.25
  9
$PSOLHEIGHT
 40
4.0
  9
$LOFTANG1
 40
1.570796326794896
  9
$LOFTANG2
 40
1.570796326794896
  9
$LOFTMAG1
 40
0.0
  9
$LOFTMAG2
 40
0.0
  9
$LOFTPARAM
 70
     7
  9
$LOFTNORMALS
280
     1
  9
$LATITUDE
 40
37.795
  9
$LONGITUDE
 40
-122.394
  9
$NORTHDIRECTION
 40
0.0
  9
$TIMEZONE
 70
 -8000
  9
$LIGHTGLYPHDISPLAY
280
     1
  9
$TILEMODELIGHTSYNCH
280
     1
  9
$CMATERIAL
347
162
  9
$SOLIDHIST
280
     0
  9
$SHOWHIST
280
     1
  9
$DWFFRAME
280
     2
  9
$DGNFRAME
280
     0
  9
$REALWORLDSCALE
290
     1
  9
$INTERFERECOLOR
 62
     1
  9
$INTERFEREOBJVS
345
184
  9
$INTERFEREVPVS
346
181
  9
$CSHADOW
280
     0
  9
$SHADOWPLANELOCATION
 40
0.0
  0
ENDSEC
  0
SECTION
  2
CLASSES
  0
CLASS
  1
ACDBDICTIONARYWDFLT
  2
AcDbDictionaryWithDefault
  3
ObjectDBX Classes
 90
        0
 91
        1
280
     0
281
     0
  0
CLASS
  1
VISUALSTYLE
  2
AcDbVisualStyle
  3
ObjectDBX Classes
 90
     4095
 91
       24
280
     0
281
     0
  0
CLASS
  1
MATERIAL
  2
AcDbMaterial
  3
ObjectDBX Classes
 90
     1153
 91
        3
280
     0
281
     0
  0
CLASS
  1
SCALE
  2
AcDbScale
  3
ObjectDBX Classes
 90
     1153
 91
       33
280
     0
281
     0
  0
CLASS
  1
TABLESTYLE
  2
AcDbTableStyle
  3
ObjectDBX Classes
 90
     4095
 91
        1
280
     0
281
     0
  0
CLASS
  1
MLEADERSTYLE
  2
AcDbMLeaderStyle
  3
ACDB_MLEADERSTYLE_CLASS
 90
     4095
 91
        1
280
     0
281
     0
  0
CLASS
  1
SUN
  2
AcDbSun
  3
SCENEOE
 90
     1153
 91
        0
280
     0
281
     0
  0
CLASS
  1
ACDBSECTIONVIEWSTYLE
  2
AcDbSectionViewStyle
  3
ObjectDBX Classes
 90
     1025
 91
        1
280
     0
281
     0
  0
CLASS
  1
ACDBDETAILVIEWSTYLE
  2
AcDbDetailViewStyle
  3
ObjectDBX Classes
 90
     1025
 91
        1
280
     0
281
     0
  0
CLASS
  1
ACDB_ALDIMOBJECTCONTEXTDATA_CLASS
  2
AcDbAlignedDimensionObjectContextData
  3
ObjectDBX Classes
 90
     1153
 91
        8
280
     0
281
     0
  0
CLASS
  1
DICTIONARYVAR
  2
AcDbDictionaryVar
  3
ObjectDBX Classes
 90
        0
 91
       18
280
     0
281
     0
  0
CLASS
  1
CELLSTYLEMAP
  2
AcDbCellStyleMap
  3
ObjectDBX Classes
 90
     1152
 91
        1
280
     0
281
     0
  0
ENDSEC
  0
SECTION
  2
TABLES
  0
TABLE
  2
VPORT
  5
8
330
0
100
AcDbSymbolTable
 70
     1
  0
VPORT
  5
29
330
8
100
AcDbSymbolTableRecord
100
AcDbViewportTableRecord
  2
*Active
 70
     0
 10
0.0
 20
0.0
 11
1.0
 21
1.0
 12
187.7458200437784
 22
153.5077063858133
 13
0.0
 23
0.0
 14
10.0
 24
10.0
 15
10.0
 25
10.0
 16
0.0
 26
0.0
 36
1.0
 17
0.0
 27
0.0
 37
0.0
 40
429.3574347165828
 41
1.907960199004975
 42
50.0
 43
0.0
 44
0.0
 50
0.0
 51
0.0
 71
     0
 72
  2000
 73
     1
 74
     3
 75
     0
 76
     0
 77
     0
 78
     0
281
     0
 65
     1
110
0.0
120
0.0
130
0.0
111
1.0
121
0.0
131
0.0
112
0.0
122
1.0
132
0.0
 79
     0
146
0.0
348
180
 60
     3
 61
     5
292
     1
282
     1
141
0.0
142
0.0
 63
   250
421
  3355443
1001
ACAD_NAV_VCDISPLAY
1070
     3
  0
ENDTAB
  0
TABLE
  2
LTYPE
  5
5
330
0
100
AcDbSymbolTable
 70
     6
  0
LTYPE
  5
14
330
5
100
AcDbSymbolTableRecord
100
AcDbLinetypeTableRecord
  2
ByBlock
 70
     0
  3

 72
    65
 73
     0
 40
0.0
  0
LTYPE
  5
15
330
5
100
AcDbSymbolTableRecord
100
AcDbLinetypeTableRecord
  2
ByLayer
 70
     0
  3

 72
    65
 73
     0
 40
0.0
  0
LTYPE
  5
16
330
5
100
AcDbSymbolTableRecord
100
AcDbLinetypeTableRecord
  2
Continuous
 70
     0
  3
Solid line
 72
    65
 73
     0
 40
0.0
  0
LTYPE
  5
6E
330
5
100
AcDbSymbolTableRecord
100
AcDbLinetypeTableRecord
  2
HIDDEN
 70
     0
  3
Hidden __ __ __ __ __ __ __ __ __ __ __ __ __ __
 72
    65
 73
     2
 40
1.905
 49
1.27
 74
     0
 49
-0.635
 74
     0
  0
LTYPE
  5
6F
330
5
100
AcDbSymbolTableRecord
100
AcDbLinetypeTableRecord
  2
PHANTOM
 70
     0
  3
Phantom ______  __  __  ______  __  __  ______
 72
    65
 73
     6
 40
12.7
 49
6.349999999999999
 74
     0
 49
-1.27
 74
     0
 49
1.27
 74
     0
 49
-1.27
 74
     0
 49
1.27
 74
     0
 49
-1.27
 74
     0
  0
LTYPE
  5
70
330
5
100
AcDbSymbolTableRecord
100
AcDbLinetypeTableRecord
  2
CENTER
 70
     0
  3
Center ____ _ ____ _ ____ _ ____ _ ____ _ ____
 72
    65
 73
     4
 40
10.16
 49
6.349999999999999
 74
     0
 49
-1.27
 74
     0
 49
1.27
 74
     0
 49
-1.27
 74
     0
  0
LTYPE
  5
71
330
5
100
AcDbSymbolTableRecord
100
AcDbLinetypeTableRecord
  2
CENTERX2
 70
     0
  3
Center (2x) ________  __  ________  __  _____
 72
    65
 73
     4
 40
20.32
 49
12.7
 74
     0
 49
-2.54
 74
     0
 49
2.54
 74
     0
 49
-2.54
 74
     0
  0
LTYPE
  5
72
330
5
100
AcDbSymbolTableRecord
100
AcDbLinetypeTableRecord
  2
DOT2
 70
     0
  3
Dot (.5x) ........................................
 72
    65
 73
     2
 40
0.635
 49
0.0
 74
     0
 49
-0.635
 74
     0
  0
ENDTAB
  0
TABLE
  2
LAYER
  5
2
102
{ACAD_XDICTIONARY
360
1B1
102
}
330
0
100
AcDbSymbolTable
 70
     4
  0
LAYER
  5
10
102
{ACAD_XDICTIONARY
360
21F
102
}
330
2
100
AcDbSymbolTableRecord
100
AcDbLayerTableRecord
  2
0
 70
     0
 62
     7
  6
Continuous
370
    -3
390
F
347
172
348
0
  0
LAYER
  5
73
102
{ACAD_XDICTIONARY
360
221
102
}
330
2
100
AcDbSymbolTableRecord
100
AcDbLayerTableRecord
  2
FORMAT
 70
     0
 62
     7
  6
Continuous
370
    -3
390
F
347
172
348
0
  0
LAYER
  5
1A9
330
2
100
AcDbSymbolTableRecord
100
AcDbLayerTableRecord
  2
Defpoints
 70
     0
 62
     7
  6
Continuous
290
     0
370
    -3
390
F
347
172
348
0
  0
LAYER
  5
1AA
102
{ACAD_XDICTIONARY
360
223
102
}
330
2
100
AcDbSymbolTableRecord
100
AcDbLayerTableRecord
  2
DIMENSION
 70
     0
 62
   255
  6
Continuous
370
    -3
390
F
347
172
348
0
  0
ENDTAB
  0
TABLE
  2
STYLE
  5
3
330
0
100
AcDbSymbolTable
 70
     2
  0
STYLE
  5
11
330
3
100
AcDbSymbolTableRecord
100
AcDbTextStyleTableRecord
  2
Standard
 70
     0
 40
0.0
 41
1.0
 50
0.0
 71
     0
 42
3.5
  3
txt
  4

  0
STYLE
  5
D9
330
3
100
AcDbSymbolTableRecord
100
AcDbTextStyleTableRecord
  2
SLDTEXTSTYLE0
 70
     0
 40
0.0
 41
0.75
 50
0.0
 71
     0
 42
3.5
  3
TXT
  4

  0
ENDTAB
  0
TABLE
  2
VIEW
  5
6
330
0
100
AcDbSymbolTable
 70
     0
  0
ENDTAB
  0
TABLE
  2
UCS
  5
7
330
0
100
AcDbSymbolTable
 70
     0
  0
ENDTAB
  0
TABLE
  2
APPID
  5
9
330
0
100
AcDbSymbolTable
 70
     6
  0
APPID
  5
12
330
9
100
AcDbSymbolTableRecord
100
AcDbRegAppTableRecord
  2
ACAD
 70
     0
  0
APPID
  5
1AC
330
9
100
AcDbSymbolTableRecord
100
AcDbRegAppTableRecord
  2
AcadAnnotative
 70
     0
  0
APPID
  5
1AD
330
9
100
AcDbSymbolTableRecord
100
AcDbRegAppTableRecord
  2
ACAD_DSTYLE_DIMJAG
 70
     0
  0
APPID
  5
1AE
330
9
100
AcDbSymbolTableRecord
100
AcDbRegAppTableRecord
  2
ACAD_DSTYLE_DIMTALN
 70
     0
  0
APPID
  5
1AF
330
9
100
AcDbSymbolTableRecord
100
AcDbRegAppTableRecord
  2
ACAD_NAV_VCDISPLAY
 70
     0
  0
APPID
  5
1B0
330
9
100
AcDbSymbolTableRecord
100
AcDbRegAppTableRecord
  2
ACAD_DSTYLE_DIMBREAK
 70
     0
  0
ENDTAB
  0
TABLE
  2
DIMSTYLE
  5
A
330
0
100
AcDbSymbolTable
 70
     3
100
AcDbDimStyleTable
 71
     1
340
1AB
  0
DIMSTYLE
105
27
330
A
100
AcDbSymbolTableRecord
100
AcDbDimStyleTableRecord
  2
ISO-25
 70
     0
 41
2.5
 42
0.625
 43
3.75
 44
1.25
 73
     0
 74
     0
 77
     1
 78
     8
140
2.5
141
2.5
143
0.0393700787
147
0.625
171
     3
172
     1
271
     2
272
     2
274
     3
278
    44
283
     0
284
     8
340
11
  0
DIMSTYLE
105
DA
330
A
100
AcDbSymbolTableRecord
100
AcDbDimStyleTableRecord
  2
SLDDIMSTYLE0
 70
     0
 41
3.302
 44
0.0
 45
0.000000001
 73
     0
 74
     0
 77
     1
 78
     4
 79
     1
140
4.2333333333
147
1.0583333333
173
     1
271
     2
272
     2
276
     2
284
    12
340
D9
341
DB
343
DB
344
DB
  0
DIMSTYLE
105
1AB
102
{ACAD_REACTORS
330
1B4
330
127
330
11F
330
ED
330
E5
330
D8
330
156
102
}
330
A
100
AcDbSymbolTableRecord
100
AcDbDimStyleTableRecord
  2
RG Dimension Lines
 70
     0
 40
12.0
 41
3.5
 42
1.0
 43
10.0
 44
5.0
 49
5.0
 77
     2
140
8.0
141
0.0
147
4.0
172
     1
176
   256
177
   256
178
     7
271
     0
272
     0
290
     1
340
11
341
DB
342
DB
371
     0
372
     0
1001
ACAD_DSTYLE_DIMBREAK
1070
   391
1040
0.125
1001
AcadAnnotative
1000
AnnotativeData
1002
{
1070
     1
1070
     1
1002
}
1001
ACAD_DSTYLE_DIMJAG
1070
   388
1040
1.5
1001
ACAD_DSTYLE_DIMTALN
1070
   392
1070
     0
  0
ENDTAB
  0
TABLE
  2
BLOCK_RECORD
  5
1
330
0
100
AcDbSymbolTable
 70
    17
  0
BLOCK_RECORD
  5
1F
330
1
100
AcDbSymbolTableRecord
100
AcDbBlockTableRecord
  2
*Model_Space
340
22
 70
     0
280
     1
281
     0
  0
BLOCK_RECORD
  5
1B
330
1
100
AcDbSymbolTableRecord
100
AcDbBlockTableRecord
  2
*Paper_Space
340
1E
 70
     0
280
     1
281
     0
  0
BLOCK_RECORD
  5
23
330
1
100
AcDbSymbolTableRecord
100
AcDbBlockTableRecord
  2
*Paper_Space0
340
26
 70
     0
280
     1
281
     0
  0
BLOCK_RECORD
  5
DB
330
1
100
AcDbSymbolTableRecord
100
AcDbBlockTableRecord
  2
_None
340
0
 70
     0
280
     1
281
     0
  0
BLOCK_RECORD
  5
DE
330
1
100
AcDbSymbolTableRecord
100
AcDbBlockTableRecord
  2
_D
340
0
 70
     0
280
     1
281
     0
  0
BLOCK_RECORD
  5
E6
330
1
100
AcDbSymbolTableRecord
100
AcDbBlockTableRecord
  2
_D_1
340
0
 70
     0
280
     1
281
     0
  0
BLOCK_RECORD
  5
EE
330
1
100
AcDbSymbolTableRecord
100
AcDbBlockTableRecord
  2
_D_2
340
0
 70
     0
280
     1
281
     0
  0
BLOCK_RECORD
  5
120
330
1
100
AcDbSymbolTableRecord
100
AcDbBlockTableRecord
  2
_D_3
340
0
 70
     0
280
     1
281
     0
  0
BLOCK_RECORD
  5
128
330
1
100
AcDbSymbolTableRecord
100
AcDbBlockTableRecord
  2
_D_4
340
0
 70
     0
280
     1
281
     0
  0
BLOCK_RECORD
  5
157
330
1
100
AcDbSymbolTableRecord
100
AcDbBlockTableRecord
  2
_D_5
340
0
 70
     0
280
     1
281
     0
  0
BLOCK_RECORD
  5
19F
330
1
100
AcDbSymbolTableRecord
100
AcDbBlockTableRecord
  2
*D8
340
0
 70
     0
280
     1
281
     0
  0
BLOCK_RECORD
  5
1C1
330
1
100
AcDbSymbolTableRecord
100
AcDbBlockTableRecord
  2
*D10
340
0
 70
     0
280
     1
281
     0
  0
BLOCK_RECORD
  5
1CB
330
1
100
AcDbSymbolTableRecord
100
AcDbBlockTableRecord
  2
*D11
340
0
 70
     0
280
     1
281
     0
  0
BLOCK_RECORD
  5
1D9
330
1
100
AcDbSymbolTableRecord
100
AcDbBlockTableRecord
  2
*D12
340
0
 70
     0
280
     1
281
     0
  0
BLOCK_RECORD
  5
1E7
330
1
100
AcDbSymbolTableRecord
100
AcDbBlockTableRecord
  2
*D13
340
0
 70
     0
280
     1
281
     0
  0
BLOCK_RECORD
  5
1F5
330
1
100
AcDbSymbolTableRecord
100
AcDbBlockTableRecord
  2
*D14
340
0
 70
     0
280
     1
281
     0
  0
BLOCK_RECORD
  5
203
330
1
100
AcDbSymbolTableRecord
100
AcDbBlockTableRecord
  2
*D15
340
0
 70
     0
280
     1
281
     0
  0
BLOCK_RECORD
  5
211
330
1
100
AcDbSymbolTableRecord
100
AcDbBlockTableRecord
  2
*D16
340
0
 70
     0
280
     1
281
     0
  0
ENDTAB
  0
ENDSEC
  0
SECTION
  2
BLOCKS
  0
BLOCK
  5
20
330
1F
100
AcDbEntity
  8
0
100
AcDbBlockBegin
  2
*Model_Space
 70
     0
 10
0.0
 20
0.0
 30
0.0
  3
*Model_Space
  1

  0
ENDBLK
  5
21
330
1F
100
AcDbEntity
  8
0
100
AcDbBlockEnd
  0
BLOCK
  5
1C
330
1B
100
AcDbEntity
 67
     1
  8
0
100
AcDbBlockBegin
  2
*Paper_Space
 70
     0
 10
0.0
 20
0.0
 30
0.0
  3
*Paper_Space
  1

  0
ENDBLK
  5
1D
330
1B
100
AcDbEntity
 67
     1
  8
0
100
AcDbBlockEnd
  0
BLOCK
  5
24
330
23
100
AcDbEntity
 67
     1
  8
0
100
AcDbBlockBegin
  2
*Paper_Space0
 70
     0
 10
0.0
 20
0.0
 30
0.0
  3
*Paper_Space0
  1

  0
ENDBLK
  5
25
330
23
100
AcDbEntity
 67
     1
  8
0
100
AcDbBlockEnd
  0
BLOCK
  5
DC
330
DB
100
AcDbEntity
  8
0
100
AcDbBlockBegin
  2
_None
 70
     0
 10
0.0
 20
0.0
 30
0.0
  3
_None
  1

  0
ENDBLK
  5
DD
330
DB
100
AcDbEntity
  8
0
100
AcDbBlockEnd
  0
BLOCK
  5
DF
330
DE
100
AcDbEntity
  8
0
100
AcDbBlockBegin
  2
_D
 70
     0
 10
0.0
 20
0.0
 30
0.0
  3
_D
  1

  0
LINE
  5
E1
330
DE
100
AcDbEntity
  8
0
  6
Continuous
 62
     7
440
 16777216
370
     0
100
AcDbLine
 10
-28.5498353474
 20
2.0876679556
 30
0.0
 11
-51.3838822057
 21
2.0876679556
 31
0.0
  0
LINE
  5
E2
330
DE
100
AcDbEntity
  8
0
  6
Continuous
 62
     7
440
 16777216
370
     0
100
AcDbLine
 10
-28.0236331605
 20
82.0876679556
 30
0.0
 11
-51.3838822057
 21
82.0876679556
 31
0.0
  0
LINE
  5
E3
330
DE
100
AcDbEntity
  8
0
  6
Continuous
 62
     7
440
 16777216
370
     0
100
AcDbLine
 10
-50.38388220569999
 20
2.0876679556
 30
0.0
 11
-50.38388220569999
 21
82.0876679556
 31
0.0
  0
MTEXT
  5
E4
330
DE
100
AcDbEntity
  8
0
  6
Continuous
 62
     7
440
 16777216
370
    18
100
AcDbMText
 10
-55.8409354046
 20
35.5185169127
 30
0.0
 40
4.2333333333
 41
0.0
 46
0.0
 71
     1
 72
     1
  1
80.00
  7
SLDTEXTSTYLE0
 11
0.0000000000000001
 21
1.0
 31
0.0
 73
     1
 44
1.0
  0
ENDBLK
  5
E0
330
DE
100
AcDbEntity
  8
0
100
AcDbBlockEnd
  0
BLOCK
  5
E7
330
E6
100
AcDbEntity
  8
0
100
AcDbBlockBegin
  2
_D_1
 70
     0
 10
0.0
 20
0.0
 30
0.0
  3
_D_1
  1

  0
LINE
  5
E9
330
E6
100
AcDbEntity
  8
0
  6
Continuous
 62
     7
440
 16777216
370
     0
100
AcDbLine
 10
-4.782703008399999
 20
64.09116240430001
 30
0.0
 11
-4.782703008399999
 21
126.6254733711
 31
0.0
  0
LINE
  5
EA
330
E6
100
AcDbEntity
  8
0
  6
Continuous
 62
     7
440
 16777216
370
     0
100
AcDbLine
 10
40.014938597
 20
63.03875803060001
 30
0.0
 11
40.014938597
 21
126.6254733711
 31
0.0
  0
LINE
  5
EB
330
E6
100
AcDbEntity
  8
0
  6
Continuous
 62
     7
440
 16777216
370
     0
100
AcDbLine
 10
-4.782703008399999
 20
125.6254733711
 30
0.0
 11
40.014938597
 21
125.6254733711
 31
0.0
  0
MTEXT
  5
EC
330
E6
100
AcDbEntity
  8
0
  6
Continuous
 62
     7
440
 16777216
370
    18
100
AcDbMText
 10
9.226028581299999
 20
131.0825265699
 30
0.0
 40
4.2333333333
 41
0.0
 46
0.0
 71
     1
 72
     1
  1
45.00
  7
SLDTEXTSTYLE0
 73
     1
 44
1.0
  0
ENDBLK
  5
E8
330
E6
100
AcDbEntity
  8
0
100
AcDbBlockEnd
  0
BLOCK
  5
EF
330
EE
100
AcDbEntity
  8
0
100
AcDbBlockBegin
  2
_D_2
 70
     0
 10
0.0
 20
0.0
 30
0.0
  3
_D_2
  1

  0
LINE
  5
F1
330
EE
100
AcDbEntity
  8
0
  6
Continuous
 62
     7
440
 16777216
370
     0
100
AcDbLine
 10
104.9161177943
 20
-30.3312655559
 30
0.0
 11
104.9161177943
 21
-49.3678548731
 31
0.0
  0
LINE
  5
F2
330
EE
100
AcDbEntity
  8
0
  6
Continuous
 62
     7
440
 16777216
370
     0
100
AcDbLine
 10
130.3161177943
 20
-30.8128173997
 30
0.0
 11
130.3161177943
 21
-49.3678548731
 31
0.0
  0
LINE
  5
F3
330
EE
100
AcDbEntity
  8
0
  6
Continuous
 62
     7
440
 16777216
370
     0
100
AcDbLine
 10
104.9161177943
 20
-48.3678548731
 30
0.0
 11
130.3161177943
 21
-48.3678548731
 31
0.0
  0
MTEXT
  5
F4
330
EE
100
AcDbEntity
  8
0
  6
Continuous
 62
     7
440
 16777216
370
    18
100
AcDbMText
 10
107.670013048
 20
-42.9108012085
 30
0.0
 40
4.2333333333
 41
0.0
 46
0.0
 71
     1
 72
     1
  1
%%c
  7
SLDTEXTSTYLE0
 73
     1
 44
1.0
  0
MTEXT
  5
F5
330
EE
100
AcDbEntity
  8
0
  6
Continuous
 62
     7
440
 16777216
370
    18
100
AcDbMText
 10
114.0599946493
 20
-42.9108012085
 30
0.0
 40
4.2333333333
 41
0.0
 46
0.0
 71
     1
 72
     1
  1
25.00
  7
SLDTEXTSTYLE0
 73
     1
 44
1.0
  0
ENDBLK
  5
F0
330
EE
100
AcDbEntity
  8
0
100
AcDbBlockEnd
  0
BLOCK
  5
121
330
120
100
AcDbEntity
  8
0
100
AcDbBlockBegin
  2
_D_3
 70
     0
 10
0.0
 20
0.0
 30
0.0
  3
_D_3
  1

  0
LINE
  5
123
330
120
100
AcDbEntity
  8
0
  6
Continuous
 62
     7
440
 16777216
370
     0
100
AcDbLine
 10
403.3065050534999
 20
42.08766795559999
 30
0.0
 11
425.5399651826
 21
42.08766795559999
 31
0.0
  0
LINE
  5
124
330
120
100
AcDbEntity
  8
0
  6
Continuous
 62
     7
440
 16777216
370
     0
100
AcDbLine
 10
259.2118573073
 20
-24.9123320443
 30
0.0
 11
425.5399651826
 21
-24.9123320443
 31
0.0
  0
LINE
  5
125
330
120
100
AcDbEntity
  8
0
  6
Continuous
 62
     7
440
 16777216
370
     0
100
AcDbLine
 10
424.5399651826
 20
42.08766795559999
 30
0.0
 11
424.5399651826
 21
-24.9123320443
 31
0.0
  0
MTEXT
  5
126
330
120
100
AcDbEntity
  8
0
  6
Continuous
 62
     7
440
 16777216
370
    18
100
AcDbMText
 10
419.0829119837999
 20
3.321296530899999
 30
0.0
 40
4.2333333333
 41
0.0
 46
0.0
 71
     1
 72
     1
  1
67.00
  7
SLDTEXTSTYLE0
 11
-0.0000000000000213
 21
1.0
 31
0.0
 73
     1
 44
1.0
  0
ENDBLK
  5
122
330
120
100
AcDbEntity
  8
0
100
AcDbBlockEnd
  0
BLOCK
  5
129
330
128
100
AcDbEntity
  8
0
100
AcDbBlockBegin
  2
_D_4
 70
     0
 10
0.0
 20
0.0
 30
0.0
  3
_D_4
  1

  0
LINE
  5
12B
330
128
100
AcDbEntity
  8
0
  6
Continuous
 62
     7
440
 16777216
370
     0
100
AcDbLine
 10
239.3059933417
 20
-28.9413903895
 30
0.0
 11
239.3059933417
 21
-47.9123320443
 31
0.0
  0
LINE
  5
12C
330
128
100
AcDbEntity
  8
0
  6
Continuous
 62
     7
440
 16777216
370
     0
100
AcDbLine
 10
399.3059933417
 20
-2.9347852848
 30
0.0
 11
399.3059933417
 21
-47.9123320443
 31
0.0
  0
LINE
  5
12D
330
128
100
AcDbEntity
  8
0
  6
Continuous
 62
     7
440
 16777216
370
     0
100
AcDbLine
 10
239.3059933417
 20
-46.9123320443
 30
0.0
 11
399.3059933417
 21
-46.9123320443
 31
0.0
  0
MTEXT
  5
12E
330
128
100
AcDbEntity
  8
0
  6
Continuous
 62
     7
440
 16777216
370
    18
100
AcDbMText
 10
304.3119418551
 20
-41.4552788455
 30
0.0
 40
4.2333333333
 41
0.0
 46
0.0
 71
     1
 72
     1
  1
160.00
  7
SLDTEXTSTYLE0
 73
     1
 44
1.0
  0
ENDBLK
  5
12A
330
128
100
AcDbEntity
  8
0
100
AcDbBlockEnd
  0
BLOCK
  5
158
330
157
100
AcDbEntity
  8
0
100
AcDbBlockBegin
  2
_D_5
 70
     0
 10
0.0
 20
0.0
 30
0.0
  3
_D_5
  1

  0
LINE
  5
15A
330
157
100
AcDbEntity
  8
0
  6
Continuous
 62
     7
440
 16777216
370
     0
100
AcDbLine
 10
-22.3838822057
 20
337.2318767384
 30
0.0
 11
-22.3838822057
 21
356.3829867233
 31
0.0
  0
LINE
  5
15B
330
157
100
AcDbEntity
  8
0
  6
Continuous
 62
     7
440
 16777216
370
     0
100
AcDbLine
 10
157.6161177943
 20
336.3852206952
 30
0.0
 11
157.6161177943
 21
356.3829867233
 31
0.0
  0
LINE
  5
15C
330
157
100
AcDbEntity
  8
0
  6
Continuous
 62
     7
440
 16777216
370
     0
100
AcDbLine
 10
-22.3838822057
 20
355.3829867233
 30
0.0
 11
157.6161177943
 21
355.3829867233
 31
0.0
  0
MTEXT
  5
15D
330
157
100
AcDbEntity
  8
0
  6
Continuous
 62
     7
440
 16777216
370
    18
100
AcDbMText
 10
58.43385280079999
 20
360.8400399221
 30
0.0
 40
4.2333333333
 41
0.0
 46
0.0
 71
     1
 72
     1
  1
180.00
  7
SLDTEXTSTYLE0
 73
     1
 44
1.0
  0
ENDBLK
  5
159
330
157
100
AcDbEntity
  8
0
100
AcDbBlockEnd
  0
BLOCK
  5
1A0
330
19F
100
AcDbEntity
  8
0
100
AcDbBlockBegin
  2
*D8
 70
     1
 10
0.0
 20
0.0
 30
0.0
  3
*D8
  1

  0
LINE
  5
1A1
330
19F
100
AcDbEntity
  8
DIMENSION
440
 16777216
370
     0
100
AcDbLine
 10
367.5736599364455
 20
279.4898363440105
 30
0.0
 11
367.5182101921386
 21
289.4896826091216
 31
0.0
  0
LINE
  5
1A2
330
19F
100
AcDbEntity
  8
DIMENSION
440
 16777216
370
     0
100
AcDbLine
 10
729.6056831832821
 20
281.4973255181187
 30
0.0
 11
729.5502334389752
 21
291.4971717832298
 31
0.0
  0
LINE
  5
1A3
330
19F
100
AcDbEntity
  8
DIMENSION
440
 16777216
370
     0
100
AcDbLine
 10
367.545935064292
 20
284.489759476566
 30
0.0
 11
729.5779583111286
 21
286.4972486506742
 31
0.0
  0
MTEXT
  5
1A4
330
19F
100
AcDbEntity
  8
DIMENSION
 62
     7
440
 16777216
100
AcDbMText
 10
548.5171366220218
 20
293.57458313107
 30
0.0
 40
8.0
 41
0.0
 46
0.0
 71
     5
 72
     1
  1
\A1;362
 73
     1
 44
1.0
  0
POINT
  5
1A5
330
19F
100
AcDbEntity
  8
Defpoints
 62
     0
440
 16777216
100
AcDbPoint
 10
367.7204209429531
 20
253.0228522103199
 30
0.0
  0
POINT
  5
1A6
330
19F
100
AcDbEntity
  8
Defpoints
 62
     0
440
 16777216
100
AcDbPoint
 10
729.7524441897897
 20
255.0303413844282
 30
0.0
  0
POINT
  5
1A7
330
19F
100
AcDbEntity
  8
Defpoints
 62
     0
440
 16777216
100
AcDbPoint
 10
729.5779583111286
 20
286.4972486506742
 30
0.0
  0
ENDBLK
  5
1A8
330
19F
100
AcDbEntity
  8
0
100
AcDbBlockEnd
  0
BLOCK
  5
1C2
330
1C1
100
AcDbEntity
  8
0
100
AcDbBlockBegin
  2
*D10
 70
     1
 10
0.0
 20
0.0
 30
0.0
  3
*D10
  1

  0
LINE
  5
1C4
330
1C1
100
AcDbEntity
  8
DIMENSION
440
 16777216
370
     0
100
AcDbLine
 10
282.0425750467068
 20
176.4912443433701
 30
0.0
 11
281.9871253023998
 21
186.4910906084812
 31
0.0
  0
LINE
  5
1C5
330
1C1
100
AcDbEntity
  8
DIMENSION
440
 16777216
370
     0
100
AcDbLine
 10
644.0745982935433
 20
178.4987335174783
 30
0.0
 11
644.0191485492363
 21
188.4985797825894
 31
0.0
  0
LINE
  5
1C6
330
1C1
100
AcDbEntity
  8
DIMENSION
440
 16777216
370
     0
100
AcDbLine
 10
282.0148501745533
 20
181.4911674759256
 30
0.0
 11
644.0468734213898
 21
183.4986566500339
 31
0.0
  0
MTEXT
  5
1C7
330
1C1
100
AcDbEntity
  8
DIMENSION
 62
     7
440
 16777216
100
AcDbMText
 10
462.986051732283
 20
190.5759911304295
 30
0.0
 40
8.0
 41
0.0
 46
0.0
 71
     5
 72
     1
  1
\A1;362
 73
     1
 44
1.0
  0
POINT
  5
1C8
330
1C1
100
AcDbEntity
  8
Defpoints
 62
     0
440
 16777216
100
AcDbPoint
 10
282.1893360532143
 20
150.0242602096795
 30
0.0
  0
POINT
  5
1C9
330
1C1
100
AcDbEntity
  8
Defpoints
 62
     0
440
 16777216
100
AcDbPoint
 10
644.2213593000508
 20
152.0317493837878
 30
0.0
  0
POINT
  5
1CA
330
1C1
100
AcDbEntity
  8
Defpoints
 62
     0
440
 16777216
100
AcDbPoint
 10
644.0468734213898
 20
183.4986566500339
 30
0.0
  0
ENDBLK
  5
1C3
330
1C1
100
AcDbEntity
  8
0
100
AcDbBlockEnd
  0
BLOCK
  5
1CC
330
1CB
100
AcDbEntity
  8
0
100
AcDbBlockBegin
  2
*D11
 70
     1
 10
0.0
 20
0.0
 30
0.0
  3
*D11
  1

  0
LINE
  5
1CE
330
1CB
100
AcDbEntity
  8
DIMENSION
440
 16777216
370
     0
100
AcDbLine
 10
239.3059933417
 20
-41.9123320443
 30
0.0
 11
239.3059933417
 21
-51.9123320443
 31
0.0
  0
LINE
  5
1CF
330
1CB
100
AcDbEntity
  8
DIMENSION
440
 16777216
370
     0
100
AcDbLine
 10
399.3059933417
 20
-41.9123320443
 30
0.0
 11
399.3059933417
 21
-51.9123320443
 31
0.0
  0
LINE
  5
1D0
330
1CB
100
AcDbEntity
  8
DIMENSION
440
 16777216
370
     0
100
AcDbLine
 10
239.3059933417
 20
-46.9123320443
 30
0.0
 11
399.3059933417
 21
-46.9123320443
 31
0.0
  0
MTEXT
  5
1D1
330
1CB
100
AcDbEntity
  8
DIMENSION
 62
     7
440
 16777216
100
AcDbMText
 10
312.9118806799001
 20
-50.9123320443
 30
0.0
 40
8.0
 41
0.0
 46
0.0
 71
     2
 72
     1
  1
\A1;160
 73
     1
 44
1.0
  0
POINT
  5
1D2
330
1CB
100
AcDbEntity
  8
Defpoints
 62
     0
440
 16777216
100
AcDbPoint
 10
239.3059933417
 20
-24.9123320444
 30
0.0
  0
POINT
  5
1D3
330
1CB
100
AcDbEntity
  8
Defpoints
 62
     0
440
 16777216
100
AcDbPoint
 10
399.3059933417
 20
2.0876679556
 30
0.0
  0
POINT
  5
1D4
330
1CB
100
AcDbEntity
  8
Defpoints
 62
     0
440
 16777216
100
AcDbPoint
 10
399.3059933417
 20
-46.9123320443
 30
0.0
  0
ENDBLK
  5
1CD
330
1CB
100
AcDbEntity
  8
0
100
AcDbBlockEnd
  0
BLOCK
  5
1DA
330
1D9
100
AcDbEntity
  8
0
100
AcDbBlockBegin
  2
*D12
 70
     1
 10
0.0
 20
0.0
 30
0.0
  3
*D12
  1

  0
LINE
  5
1DC
330
1D9
100
AcDbEntity
  8
DIMENSION
440
 16777216
370
     0
100
AcDbLine
 10
419.5399651826001
 20
42.08766795560001
 30
0.0
 11
429.5399651826001
 21
42.08766795560001
 31
0.0
  0
LINE
  5
1DD
330
1D9
100
AcDbEntity
  8
DIMENSION
440
 16777216
370
     0
100
AcDbLine
 10
419.5399651826001
 20
-24.91233204429998
 30
0.0
 11
429.5399651826001
 21
-24.91233204429998
 31
0.0
  0
LINE
  5
1DE
330
1D9
100
AcDbEntity
  8
DIMENSION
440
 16777216
370
     0
100
AcDbLine
 10
424.5399651826001
 20
42.08766795560001
 30
0.0
 11
424.5399651826001
 21
-24.91233204429998
 31
0.0
  0
MTEXT
  5
1DF
330
1D9
100
AcDbEntity
  8
DIMENSION
 62
     7
440
 16777216
100
AcDbMText
 10
435.2066318492667
 20
14.3572537145
 30
0.0
 40
8.0
 41
0.0
 46
0.0
 71
     2
 72
     1
  1
\A1;67
 73
     1
 44
1.0
  0
POINT
  5
1E0
330
1D9
100
AcDbEntity
  8
Defpoints
 62
     0
440
 16777216
100
AcDbPoint
 10
390.5399651826003
 20
42.08766795560001
 30
0.0
  0
POINT
  5
1E1
330
1D9
100
AcDbEntity
  8
Defpoints
 62
     0
440
 16777216
100
AcDbPoint
 10
235.2399651826001
 20
-24.91233204430001
 30
0.0
  0
POINT
  5
1E2
330
1D9
100
AcDbEntity
  8
Defpoints
 62
     0
440
 16777216
100
AcDbPoint
 10
424.5399651826001
 20
-24.91233204429998
 30
0.0
  0
ENDBLK
  5
1DB
330
1D9
100
AcDbEntity
  8
0
100
AcDbBlockEnd
  0
BLOCK
  5
1E8
330
1E7
100
AcDbEntity
  8
0
100
AcDbBlockBegin
  2
*D13
 70
     1
 10
0.0
 20
0.0
 30
0.0
  3
*D13
  1

  0
LINE
  5
1EA
330
1E7
100
AcDbEntity
  8
DIMENSION
440
 16777216
370
     0
100
AcDbLine
 10
104.9161177943
 20
-43.3678548731
 30
0.0
 11
104.9161177943
 21
-53.3678548731
 31
0.0
  0
LINE
  5
1EB
330
1E7
100
AcDbEntity
  8
DIMENSION
440
 16777216
370
     0
100
AcDbLine
 10
130.3161177943
 20
-43.3678548731
 30
0.0
 11
130.3161177943
 21
-53.3678548731
 31
0.0
  0
LINE
  5
1EC
330
1E7
100
AcDbEntity
  8
DIMENSION
440
 16777216
370
     0
100
AcDbLine
 10
104.9161177943
 20
-48.3678548731
 30
0.0
 11
130.3161177943
 21
-48.3678548731
 31
0.0
  0
MTEXT
  5
1ED
330
1E7
100
AcDbEntity
  8
DIMENSION
 62
     7
440
 16777216
100
AcDbMText
 10
117.6161177943
 20
-52.3678548731
 30
0.0
 40
8.0
 41
0.0
 46
0.0
 71
     2
 72
     1
  1
\A1;%%c25
 73
     1
 44
1.0
  0
POINT
  5
1EE
330
1E7
100
AcDbEntity
  8
Defpoints
 62
     0
440
 16777216
100
AcDbPoint
 10
104.9161177943
 20
-24.9123320443
 30
0.0
  0
POINT
  5
1EF
330
1E7
100
AcDbEntity
  8
Defpoints
 62
     0
440
 16777216
100
AcDbPoint
 10
130.3161177943
 20
-24.9123320443
 30
0.0
  0
POINT
  5
1F0
330
1E7
100
AcDbEntity
  8
Defpoints
 62
     0
440
 16777216
100
AcDbPoint
 10
130.3161177943
 20
-48.3678548731
 30
0.0
  0
ENDBLK
  5
1E9
330
1E7
100
AcDbEntity
  8
0
100
AcDbBlockEnd
  0
BLOCK
  5
1F6
330
1F5
100
AcDbEntity
  8
0
100
AcDbBlockBegin
  2
*D14
 70
     1
 10
0.0
 20
0.0
 30
0.0
  3
*D14
  1

  0
LINE
  5
1F8
330
1F5
100
AcDbEntity
  8
DIMENSION
440
 16777216
370
     0
100
AcDbLine
 10
-4.782703008399995
 20
120.6254733711
 30
0.0
 11
-4.782703008399994
 21
130.6254733711
 31
0.0
  0
LINE
  5
1F9
330
1F5
100
AcDbEntity
  8
DIMENSION
440
 16777216
370
     0
100
AcDbLine
 10
40.014938597
 20
120.6254733711
 30
0.0
 11
40.014938597
 21
130.6254733711
 31
0.0
  0
LINE
  5
1FA
330
1F5
100
AcDbEntity
  8
DIMENSION
440
 16777216
370
     0
100
AcDbLine
 10
-4.782703008399994
 20
125.6254733711
 30
0.0
 11
40.014938597
 21
125.6254733711
 31
0.0
  0
MTEXT
  5
1FB
330
1F5
100
AcDbEntity
  8
DIMENSION
 62
     7
440
 16777216
100
AcDbMText
 10
16.2619857649
 20
137.6254733711
 30
0.0
 40
8.0
 41
0.0
 46
0.0
 71
     2
 72
     1
  1
\A1;45
 73
     1
 44
1.0
  0
POINT
  5
1FC
330
1F5
100
AcDbEntity
  8
Defpoints
 62
     0
440
 16777216
100
AcDbPoint
 10
-4.782703008399999
 20
42.317508441
 30
0.0
  0
POINT
  5
1FD
330
1F5
100
AcDbEntity
  8
Defpoints
 62
     0
440
 16777216
100
AcDbPoint
 10
40.014938597
 20
41.85782747010001
 30
0.0
  0
POINT
  5
1FE
330
1F5
100
AcDbEntity
  8
Defpoints
 62
     0
440
 16777216
100
AcDbPoint
 10
40.014938597
 20
125.6254733711
 30
0.0
  0
ENDBLK
  5
1F7
330
1F5
100
AcDbEntity
  8
0
100
AcDbBlockEnd
  0
BLOCK
  5
204
330
203
100
AcDbEntity
  8
0
100
AcDbBlockBegin
  2
*D15
 70
     1
 10
0.0
 20
0.0
 30
0.0
  3
*D15
  1

  0
LINE
  5
206
330
203
100
AcDbEntity
  8
DIMENSION
440
 16777216
370
     0
100
AcDbLine
 10
-45.3838822057
 20
2.087667955599997
 30
0.0
 11
-55.38388220570001
 21
2.087667955599995
 31
0.0
  0
LINE
  5
207
330
203
100
AcDbEntity
  8
DIMENSION
440
 16777216
370
     0
100
AcDbLine
 10
-45.38388220570003
 20
82.08766795560002
 30
0.0
 11
-55.38388220570004
 21
82.08766795560002
 31
0.0
  0
LINE
  5
208
330
203
100
AcDbEntity
  8
DIMENSION
440
 16777216
370
     0
100
AcDbLine
 10
-50.38388220570001
 20
2.087667955599996
 30
0.0
 11
-50.38388220570003
 21
82.08766795560002
 31
0.0
  0
MTEXT
  5
209
330
203
100
AcDbEntity
  8
DIMENSION
 62
     7
440
 16777216
100
AcDbMText
 10
-60.38388220569999
 20
46.55447409639999
 30
0.0
 40
8.0
 41
0.0
 46
0.0
 71
     2
 72
     1
  1
\A1;80
 73
     1
 44
1.0
  0
POINT
  5
20A
330
203
100
AcDbEntity
  8
Defpoints
 62
     0
440
 16777216
100
AcDbPoint
 10
-22.38388220570001
 20
2.087667955600001
 30
0.0
  0
POINT
  5
20B
330
203
100
AcDbEntity
  8
Defpoints
 62
     0
440
 16777216
100
AcDbPoint
 10
-22.38388220570001
 20
82.08766795560004
 30
0.0
  0
POINT
  5
20C
330
203
100
AcDbEntity
  8
Defpoints
 62
     0
440
 16777216
100
AcDbPoint
 10
-50.38388220570003
 20
82.08766795560002
 30
0.0
  0
ENDBLK
  5
205
330
203
100
AcDbEntity
  8
0
100
AcDbBlockEnd
  0
BLOCK
  5
212
330
211
100
AcDbEntity
  8
0
100
AcDbBlockBegin
  2
*D16
 70
     1
 10
0.0
 20
0.0
 30
0.0
  3
*D16
  1

  0
LINE
  5
214
330
211
100
AcDbEntity
  8
DIMENSION
440
 16777216
370
     0
100
AcDbLine
 10
-22.3838822057
 20
350.3829867233
 30
0.0
 11
-22.3838822057
 21
360.3829867233
 31
0.0
  0
LINE
  5
215
330
211
100
AcDbEntity
  8
DIMENSION
440
 16777216
370
     0
100
AcDbLine
 10
157.6161177943
 20
350.3829867233
 30
0.0
 11
157.6161177943
 21
360.3829867233
 31
0.0
  0
LINE
  5
216
330
211
100
AcDbEntity
  8
DIMENSION
440
 16777216
370
     0
100
AcDbLine
 10
-22.3838822057
 20
355.3829867233
 30
0.0
 11
157.6161177943
 21
355.3829867233
 31
0.0
  0
MTEXT
  5
217
330
211
100
AcDbEntity
  8
DIMENSION
 62
     7
440
 16777216
100
AcDbMText
 10
67.0337916255
 20
367.3829867233
 30
0.0
 40
8.0
 41
0.0
 46
0.0
 71
     2
 72
     1
  1
\A1;180
 73
     1
 44
1.0
  0
POINT
  5
218
330
211
100
AcDbEntity
  8
Defpoints
 62
     0
440
 16777216
100
AcDbPoint
 10
-22.3838822057
 20
323.7053875449
 30
0.0
  0
POINT
  5
219
330
211
100
AcDbEntity
  8
Defpoints
 62
     0
440
 16777216
100
AcDbPoint
 10
157.6161177943
 20
323.7053875449
 30
0.0
  0
POINT
  5
21A
330
211
100
AcDbEntity
  8
Defpoints
 62
     0
440
 16777216
100
AcDbPoint
 10
157.6161177943
 20
355.3829867233
 30
0.0
  0
ENDBLK
  5
213
330
211
100
AcDbEntity
  8
0
100
AcDbBlockEnd
  0
ENDSEC
  0
SECTION
  2
ENTITIES
  0
LINE
  5
74
330
1F
100
AcDbEntity
  8
DIMENSION
100
AcDbLine
 10
130.3161177943
 20
-24.9123320444
 30
0.0
 11
130.3161177943
 21
-2.912332044399999
 31
0.0
  0
LINE
  5
75
330
1F
100
AcDbEntity
  8
DIMENSION
100
AcDbLine
 10
104.9161177943
 20
-2.912332044399999
 30
0.0
 11
104.9161177943
 21
-24.9123320444
 31
0.0
  0
LINE
  5
76
330
1F
100
AcDbEntity
  8
DIMENSION
100
AcDbLine
 10
104.9161177943
 20
42.08766795559999
 30
0.0
 11
104.9161177943
 21
-2.912332044399999
 31
0.0
  0
LINE
  5
77
330
1F
100
AcDbEntity
  8
DIMENSION
100
AcDbLine
 10
130.3161177943
 20
-2.912332044399999
 30
0.0
 11
130.3161177943
 21
42.08766795559999
 31
0.0
  0
LINE
  5
78
330
1F
100
AcDbEntity
  8
DIMENSION
100
AcDbLine
 10
13.613402827
 20
103.5950780611
 30
0.0
 11
13.5415476975
 21
64.23673347819999
 31
0.0
  0
LINE
  5
79
330
1F
100
AcDbEntity
  8
DIMENSION
100
AcDbLine
 10
21.5415343653
 20
64.2221281871
 30
0.0
 11
21.6133894949
 21
103.58047277
 31
0.0
  0
LINE
  5
7A
330
1F
100
AcDbEntity
  8
DIMENSION
100
AcDbLine
 10
104.9161177943
 20
-24.9123320444
 30
0.0
 11
130.3161177943
 21
-24.9123320444
 31
0.0
  0
ARC
  5
7B
330
1F
100
AcDbEntity
  8
DIMENSION
100
AcDbCircle
 10
117.6161177943
 20
42.08766795559999
 30
0.0
 40
12.7
100
AcDbArc
 50
0.0
 51
180.0
  0
LINE
  5
7C
330
1F
100
AcDbEntity
  8
DIMENSION
100
AcDbLine
 10
-22.3838822057
 20
82.0876679556
 30
0.0
 11
13.5741375135
 21
82.0876679556
 31
0.0
  0
LINE
  5
7D
330
1F
100
AcDbEntity
  8
DIMENSION
100
AcDbLine
 10
21.5741508457
 20
82.0876679556
 30
0.0
 11
157.6161177943
 21
82.0876679556
 31
0.0
  0
LINE
  5
7E
330
1F
100
AcDbEntity
  8
0
  6
Continuous
 62
     7
370
    25
100
AcDbLine
 10
157.6161177943
 20
82.0876679556
 30
0.0
 11
157.6161177943
 21
2.0876679556
 31
0.0
  0
LINE
  5
7F
330
1F
100
AcDbEntity
  8
DIMENSION
100
AcDbLine
 10
157.6161177943
 20
2.0876679556
 30
0.0
 11
130.3161177943
 21
2.0876679556
 31
0.0
  0
LINE
  5
80
330
1F
100
AcDbEntity
  8
DIMENSION
100
AcDbLine
 10
104.9161177943
 20
2.0876679556
 30
0.0
 11
-22.3838822057
 21
2.0876679556
 31
0.0
  0
LINE
  5
81
330
1F
100
AcDbEntity
  8
DIMENSION
100
AcDbLine
 10
-22.3838822057
 20
2.0876679556
 30
0.0
 11
-22.3838822057
 21
82.0876679556
 31
0.0
  0
ARC
  5
82
330
1F
100
AcDbEntity
  8
DIMENSION
100
AcDbCircle
 10
17.6161177943
 20
42.08766795559999
 30
0.0
 40
22.5
100
AcDbArc
 50
269.7489745389
 51
79.95249621810001
  0
ARC
  5
83
330
1F
100
AcDbEntity
  8
DIMENSION
100
AcDbCircle
 10
117.6161177943
 20
42.08766795559999
 30
0.0
 40
13.375
100
AcDbArc
 50
341.7195773916
 51
70.1984889552
  0
ARC
  5
84
330
1F
100
AcDbEntity
  8
DIMENSION
100
AcDbCircle
 10
117.6161177943
 20
42.08766795559999
 30
0.0
 40
13.375
100
AcDbArc
 50
70.1984889552
 51
198.2804226084
  0
ARC
  5
85
330
1F
100
AcDbEntity
  8
DIMENSION
100
AcDbCircle
 10
117.6161177943
 20
42.08766795559999
 30
0.0
 40
27.00000000000001
100
AcDbArc
 50
298.058340761
 51
70.1984889552
  0
ARC
  5
86
330
1F
100
AcDbEntity
  8
DIMENSION
100
AcDbCircle
 10
117.6161177943
 20
42.08766795559999
 30
0.0
 40
27.00000000000001
100
AcDbArc
 50
70.1984889552
 51
241.9416592390001
  0
ARC
  5
87
330
1F
100
AcDbEntity
  8
DIMENSION
100
AcDbCircle
 10
117.6161177943
 20
42.08766795559999
 30
0.0
 40
12.87500000000001
100
AcDbArc
 50
350.542503582
 51
70.1984889552
  0
ARC
  5
88
330
1F
100
AcDbEntity
  8
DIMENSION
100
AcDbCircle
 10
117.6161177943
 20
42.08766795559999
 30
0.0
 40
12.87500000000001
100
AcDbArc
 50
70.1984889552
 51
189.457496418
  0
SPLINE
  5
89
330
1F
100
AcDbEntity
  8
DIMENSION
100
AcDbSpline
210
0.0
220
0.0
230
1.0
 70
     8
 71
     3
 72
    23
 73
    19
 74
     0
 42
0.00000001
 43
0.0000000001
 40
0.0
 40
0.0
 40
0.0
 40
0.0
 40
0.0808923518212693
 40
0.1575857770419909
 40
0.2309366542120927
 40
0.3004974080027412
 40
0.3668867659924509
 40
0.430010589139412
 40
0.49069323398227
 40
0.549426033859519
 40
0.6066729786242373
 40
0.6623472242969218
 40
0.7175498594884202
 40
0.7727048137077821
 40
0.8280829176755144
 40
0.8840135311461626
 40
0.9414354250239611
 40
1.0
 40
1.0
 40
1.0
 40
1.0
 10
33.70829399312996
 20
41.03664352502943
 30
0.0
 10
33.70782669959208
 20
41.08841383245705
 30
0.0
 10
33.70691636859521
 20
41.18926717569659
 30
0.0
 10
33.69047566966211
 20
41.33621067481688
 30
0.0
 10
33.66812153878863
 20
41.47503723231072
 30
0.0
 10
33.63207161697367
 20
41.604185382017
 30
0.0
 10
33.58985184852909
 20
41.72437726100989
 30
0.0
 10
33.53975342530038
 20
41.83550323430735
 30
0.0
 10
33.47968765326186
 20
41.93582424415557
 30
0.0
 10
33.41419564528848
 20
42.02809003574415
 30
0.0
 10
33.34053118316607
 20
42.10987449661107
 30
0.0
 10
33.25955304650674
 20
42.18093934661498
 30
0.0
 10
33.17251106001008
 20
42.24217597610116
 30
0.0
 10
33.07861387740771
 20
42.29200253282171
 30
0.0
 10
32.97909278154008
 20
42.33032486750228
 30
0.0
 10
32.87511976593634
 20
42.35993769618399
 30
0.0
 10
32.76605642541787
 20
42.37648137260759
 30
0.0
 10
32.69186680233593
 20
42.37875235346467
 30
0.0
 10
32.65440653833822
 20
42.37989903057271
 30
0.0
  0
SPLINE
  5
8A
330
1F
100
AcDbEntity
  8
DIMENSION
100
AcDbSpline
210
0.0
220
0.0
230
1.0
 70
     8
 71
     3
 72
    23
 73
    19
 74
     0
 42
0.00000001
 43
0.0000000001
 40
0.0
 40
0.0
 40
0.0
 40
0.0
 40
0.0585618637700423
 40
0.1159810993414657
 40
0.1719091235435209
 40
0.227284663820701
 40
0.2824370646800712
 40
0.3376371443042224
 40
0.3933088125766818
 40
0.4505531071341716
 40
0.5092831880175699
 40
0.5699630235998697
 40
0.633083924473632
 40
0.6996655832323857
 40
0.7690740368386324
 40
0.8424215182812295
 40
0.9191113930335244
 40
1.0
 40
1.0
 40
1.0
 40
1.0
 10
32.65440653833822
 20
42.37989903057271
 30
0.0
 10
32.61694233739169
 20
42.37888914031959
 30
0.0
 10
32.54274491722777
 20
42.37688906425931
 30
0.0
 10
32.4336218943507
 20
42.36074372400957
 30
0.0
 10
32.32954145772521
 20
42.33151072709727
 30
0.0
 10
32.22988105527645
 20
42.29355204575894
 30
0.0
 10
32.1358027257445
 20
42.24406861442846
 30
0.0
 10
32.04853712744887
 20
42.18315041727588
 30
0.0
 10
31.9673023211712
 20
42.11238093414135
 30
0.0
 10
31.89333093061848
 20
42.03086902712782
 30
0.0
 10
31.82753669754761
 20
41.93883116980122
 30
0.0
 10
31.76697070634055
 20
41.83877650060554
 30
0.0
 10
31.71694886265168
 20
41.72753598063509
 30
0.0
 10
31.67215082952072
 20
41.60820553746367
 30
0.0
 10
31.63788286485988
 20
41.47850362032842
 30
0.0
 10
31.61438920004202
 20
41.3400426833501
 30
0.0
 10
31.5975954381513
 20
41.19310677106567
 30
0.0
 10
31.59629103653276
 20
41.09226494930835
 30
0.0
 10
31.59562145761122
 20
41.04050055611874
 30
0.0
  0
SPLINE
  5
8B
330
1F
100
AcDbEntity
  8
DIMENSION
100
AcDbSpline
210
0.0
220
0.0
230
1.0
 70
     8
 71
     3
 72
    23
 73
    19
 74
     0
 42
0.00000001
 43
0.0000000001
 40
0.0
 40
0.0
 40
0.0
 40
0.0
 40
0.0804721983558894
 40
0.1573118011949995
 40
0.2296707469488858
 40
0.2992147125115781
 40
0.3659263642376579
 40
0.4286489723694882
 40
0.48944727829379
 40
0.5481684700902795
 40
0.6054899825861209
 40
0.6617036583269247
 40
0.71701150970505
 40
0.7722715892311367
 40
0.8277552438288687
 40
0.8837924610122682
 40
0.9413238009823004
 40
1.0
 40
1.0
 40
1.0
 40
1.0
 10
31.59562145761122
 20
41.04050055611874
 30
0.0
 10
31.59612889449061
 20
40.98910373027034
 30
0.0
 10
31.59712086204114
 20
40.88863018269605
 30
0.0
 10
31.61306313443353
 20
40.7426859541595
 30
0.0
 10
31.63656674341487
 20
40.60495765998807
 30
0.0
 10
31.67011324868304
 20
40.4758446634583
 30
0.0
 10
31.71413507784033
 20
40.356542158925
 30
0.0
 10
31.76447226716173
 20
40.24585227419108
 30
0.0
 10
31.8238218956731
 20
40.14553181270113
 30
0.0
 10
31.89092618117131
 20
40.05449429248614
 30
0.0
 10
31.96592243530169
 20
39.9737408807546
 30
0.0
 10
32.04754911887274
 20
39.90308766227726
 30
0.0
 10
32.13469082280628
 20
39.84153033233896
 30
0.0
 10
32.22862185068636
 20
39.79174672657413
 30
0.0
 10
32.32813382895987
 20
39.75341282131689
 30
0.0
 10
32.43210932468842
 20
39.72380314000868
 30
0.0
 10
32.5411719908152
 20
39.70725860775616
 30
0.0
 10
32.61536170597278
 20
39.70498774374658
 30
0.0
 10
32.65282201646185
 20
39.70384112563789
 30
0.0
  0
SPLINE
  5
8C
330
1F
100
AcDbEntity
  8
DIMENSION
100
AcDbSpline
210
0.0
220
0.0
230
1.0
 70
     8
 71
     3
 72
    23
 73
    19
 74
     0
 42
0.00000001
 43
0.0000000001
 40
0.0
 40
0.0
 40
0.0
 40
0.0
 40
0.0594091818808761
 40
0.1165254615343495
 40
0.1727131498450052
 40
0.2278092478265176
 40
0.2827092146031998
 40
0.3381655786156302
 40
0.3936638213273869
 40
0.4507481315558307
 40
0.509284967183524
 40
0.5702465287098627
 40
0.6331375595797316
 40
0.6998320641166434
 40
0.7697125411955226
 40
0.8422657851797989
 40
0.9193117177090387
 40
1.0
 40
1.0
 40
1.0
 40
1.0
 10
32.65282201646185
 20
39.70384112563789
 30
0.0
 10
32.6906579975754
 20
39.7048082825301
 30
0.0
 10
32.76486967702085
 20
39.70670526881526
 30
0.0
 10
32.87394293759752
 20
39.72316431976013
 30
0.0
 10
32.97738685259878
 20
39.7520302284689
 30
0.0
 10
33.07630825863093
 20
39.79016575423365
 30
0.0
 10
33.16936404179786
 20
39.84004803312105
 30
0.0
 10
33.25650019861829
 20
39.90016150523623
 30
0.0
 10
33.33629055325061
 20
39.97173274728416
 30
0.0
 10
33.41062317834056
 20
40.05166043623327
 30
0.0
 10
33.4767336064892
 20
40.14286428559707
 30
0.0
 10
33.53650140054071
 20
40.2426054453977
 30
0.0
 10
33.58763547259453
 20
40.3528767982085
 30
0.0
 10
33.62998015582573
 20
40.47270502741436
 30
0.0
 10
33.6662368090604
 20
40.60101567015606
 30
0.0
 10
33.68962199081735
 20
40.7389360604389
 30
0.0
 10
33.70627874230378
 20
40.88476842722906
 30
0.0
 10
33.70761198061218
 20
40.98524510033057
 30
0.0
 10
33.70829399312996
 20
41.03664352502943
 30
0.0
  0
SPLINE
  5
8D
330
1F
100
AcDbEntity
  8
DIMENSION
100
AcDbSpline
210
0.0
220
0.0
230
1.0
 70
     8
 71
     3
 72
    15
 73
    11
 74
     0
 42
0.00000001
 43
0.0000000001
 40
0.0
 40
0.0
 40
0.0
 40
0.0
 40
0.0973027423296664
 40
0.2016960988753753
 40
0.3110824337272729
 40
0.4272984343340169
 40
0.5504145854288717
 40
0.6839713750721107
 40
0.8313107294017184
 40
1.0
 40
1.0
 40
1.0
 40
1.0
 10
38.01741753565964
 20
39.66543797183775
 30
0.0
 10
37.99349562946391
 20
39.63657685156618
 30
0.0
 10
37.94390858760035
 20
39.57675145272773
 30
0.0
 10
37.86070840860776
 20
39.49036979410478
 30
0.0
 10
37.76473748379621
 20
39.40658190962954
 30
0.0
 10
37.65179919683115
 20
39.33316741660787
 30
0.0
 10
37.52156421045746
 20
39.27103883686018
 30
0.0
 10
37.3704622379292
 20
39.23133346633733
 30
0.0
 10
37.19883870505791
 20
39.20544263061093
 30
0.0
 10
37.07699013107156
 20
39.20380068693086
 30
0.0
 10
37.01194998771781
 20
39.20292425277298
 30
0.0
  0
LINE
  5
8E
330
1F
100
AcDbEntity
  8
DIMENSION
100
AcDbLine
 10
38.0317220893
 20
39.6654118565
 30
0.0
 11
38.01741753570001
 21
39.6654379718
 31
0.0
  0
LINE
  5
8F
330
1F
100
AcDbEntity
  8
DIMENSION
100
AcDbLine
 10
38.1619445969
 20
39.2712474011
 30
0.0
 11
38.0317220893
 21
39.6654118565
 31
0.0
  0
LINE
  5
90
330
1F
100
AcDbEntity
  8
DIMENSION
100
AcDbLine
 10
38.6416973185
 20
39.2703715336
 30
0.0
 11
38.1619445969
 21
39.2712474011
 31
0.0
  0
LINE
  5
91
330
1F
100
AcDbEntity
  8
DIMENSION
100
AcDbLine
 10
38.6514684639
 20
44.62247529029999
 30
0.0
 11
38.6416973185
 21
39.2703715336
 31
0.0
  0
LINE
  5
92
330
1F
100
AcDbEntity
  8
DIMENSION
100
AcDbLine
 10
38.0187670535
 20
44.62363039069999
 30
0.0
 11
38.6514684639
 21
44.62247529029999
 31
0.0
  0
SPLINE
  5
93
330
1F
100
AcDbEntity
  8
DIMENSION
100
AcDbSpline
210
0.0
220
0.0
230
1.0
 70
     8
 71
     3
 72
    15
 73
    11
 74
     0
 42
0.00000001
 43
0.0000000001
 40
0.0
 40
0.0
 40
0.0
 40
0.0
 40
0.1219221137340528
 40
0.2376444387388081
 40
0.3494820411665363
 40
0.4587494149878979
 40
0.5732259643910427
 40
0.6973932157486651
 40
0.8378742972905545
 40
1.0
 40
1.0
 40
1.0
 40
1.0
 10
4.979330518931651
 20
40.69226625155518
 30
0.0
 10
4.980885405486441
 20
40.65323501945684
 30
0.0
 10
4.983916111986646
 20
40.57715730917754
 30
0.0
 10
5.010303649889802
 20
40.46773784687895
 30
0.0
 10
5.055968332284262
 20
40.36919990363016
 30
0.0
 10
5.124321532319981
 20
40.28507001076218
 30
0.0
 10
5.213322498661964
 20
40.21671051117357
 30
0.0
 10
5.324143085916861
 20
40.16551336928007
 30
0.0
 10
5.45779122798333
 20
40.13322454868281
 30
0.0
 10
5.554688144771017
 20
40.12965322762989
 30
0.0
 10
5.606601986568877
 20
40.1277398437752
 30
0.0
  0
LINE
  5
94
330
1F
100
AcDbEntity
  8
DIMENSION
100
AcDbLine
 10
4.9830589823
 20
42.73451636919999
 30
0.0
 11
4.979330518899999
 21
40.69226625159999
 31
0.0
  0
LINE
  5
95
330
1F
100
AcDbEntity
  8
DIMENSION
100
AcDbLine
 10
6.0382948998
 20
42.7325898625
 30
0.0
 11
4.9830589823
 21
42.73451636919999
 31
0.0
  0
LINE
  5
96
330
1F
100
AcDbEntity
  8
DIMENSION
100
AcDbLine
 10
6.039194873699999
 20
43.2255467875
 30
0.0
 11
6.0382948998
 21
42.7325898625
 31
0.0
  0
LINE
  5
97
330
1F
100
AcDbEntity
  8
DIMENSION
100
AcDbLine
 10
4.9839589562
 20
43.2274732942
 30
0.0
 11
6.039194873699999
 21
43.2255467875
 31
0.0
  0
LINE
  5
98
330
1F
100
AcDbEntity
  8
DIMENSION
100
AcDbLine
 10
4.985758904099999
 20
44.2133871441
 30
0.0
 11
4.9839589562
 21
43.2274732942
 31
0.0
  0
LINE
  5
99
330
1F
100
AcDbEntity
  8
DIMENSION
100
AcDbLine
 10
4.351957143399999
 20
44.2145442534
 30
0.0
 11
4.985758904099999
 21
44.2133871441
 31
0.0
  0
LINE
  5
9A
330
1F
100
AcDbEntity
  8
DIMENSION
100
AcDbLine
 10
4.350157195599999
 20
43.2286304035
 30
0.0
 11
4.351957143399999
 21
44.2145442534
 31
0.0
  0
LINE
  5
9B
330
1F
100
AcDbEntity
  8
DIMENSION
100
AcDbLine
 10
3.6712410735
 20
43.2298698765
 30
0.0
 11
4.350157195599999
 21
43.2286304035
 31
0.0
  0
LINE
  5
9C
330
1F
100
AcDbEntity
  8
DIMENSION
100
AcDbLine
 10
3.670341099599999
 20
42.73691295159999
 30
0.0
 11
3.6712410735
 21
43.2298698765
 31
0.0
  0
LINE
  5
9D
330
1F
100
AcDbEntity
  8
DIMENSION
100
AcDbLine
 10
4.3492572217
 20
42.7356734786
 30
0.0
 11
3.670341099599999
 21
42.73691295159999
 31
0.0
  0
LINE
  5
9E
330
1F
100
AcDbEntity
  8
DIMENSION
100
AcDbLine
 10
4.345374075299999
 20
40.6086963894
 30
0.0
 11
4.3492572217
 21
42.7356734786
 31
0.0
  0
SPLINE
  5
9F
330
1F
100
AcDbEntity
  8
DIMENSION
100
AcDbSpline
210
0.0
220
0.0
230
1.0
 70
     8
 71
     3
 72
    23
 73
    19
 74
     0
 42
0.00000001
 43
0.0000000001
 40
0.0
 40
0.0
 40
0.0
 40
0.0
 40
0.079380523592186
 40
0.1545395644724404
 40
0.2253871386532717
 40
0.292822765885339
 40
0.3566936781704224
 40
0.4181477251472136
 40
0.4772233781990683
 40
0.5356652945315962
 40
0.5922296040748778
 40
0.6476458271684336
 40
0.7033017862925509
 40
0.7598477039284875
 40
0.8171682592709995
 40
0.8755246820802474
 40
0.9367345128694783
 40
1.0
 40
1.0
 40
1.0
 40
1.0
 10
5.494566634477518
 20
39.63498581472708
 30
0.0
 10
5.449436006963306
 20
39.63601231088979
 30
0.0
 10
5.361574813753683
 20
39.638010713807
 30
0.0
 10
5.233748432896
 20
39.64959818083137
 30
0.0
 10
5.114405776395659
 20
39.67244019714346
 30
0.0
 10
5.003142137789032
 20
39.70181452674325
 30
0.0
 10
4.900132633487957
 20
39.73970318282616
 30
0.0
 10
4.80515330492244
 20
39.78460463158499
 30
0.0
 10
4.718647652513896
 20
39.83852027160368
 30
0.0
 10
4.639488025507315
 20
39.89832357297594
 30
0.0
 10
4.570269486307982
 20
39.96640814882157
 30
0.0
 10
4.508483139796487
 20
40.03931658778906
 30
0.0
 10
4.458336860232837
 20
40.12070444427052
 30
0.0
 10
4.416326965404865
 20
40.20767124122088
 30
0.0
 10
4.384978162138426
 20
40.30068736345974
 30
0.0
 10
4.361861433884019
 20
40.39867656578345
 30
0.0
 10
4.347339799611826
 20
40.50187910528633
 30
0.0
 10
4.346036491235299
 20
40.57270076494892
 30
0.0
 10
4.345374075258382
 20
40.60869638940544
 30
0.0
  0
SPLINE
  5
A0
330
1F
100
AcDbEntity
  8
DIMENSION
100
AcDbSpline
210
0.0
220
0.0
230
1.0
 70
     8
 71
     3
 72
    15
 73
    11
 74
     0
 42
0.00000001
 43
0.0000000001
 40
0.0
 40
0.0
 40
0.0
 40
0.0
 40
0.0738991566691371
 40
0.1631543021465415
 40
0.2685345511545115
 40
0.3901568816381015
 40
0.5241754556757185
 40
0.6702803767696474
 40
0.8287892265012045
 40
1.0
 40
1.0
 40
1.0
 40
1.0
 10
6.084507058123786
 20
39.71753568141227
 30
0.0
 10
6.070634719533202
 20
39.71254817091126
 30
0.0
 10
6.040007418439352
 20
39.70153676250124
 30
0.0
 10
5.987813826332829
 20
39.68930433813787
 30
0.0
 10
5.926182961357024
 20
39.67612501951153
 30
0.0
 10
5.855350565077847
 20
39.66332449120861
 30
0.0
 10
5.776206907637436
 20
39.65094303925056
 30
0.0
 10
5.689121002235412
 20
39.64260753192696
 30
0.0
 10
5.594391131060659
 20
39.63754266672451
 30
0.0
 10
5.528685205412172
 20
39.63585970980524
 30
0.0
 10
5.494566634477518
 20
39.63498581472708
 30
0.0
  0
LINE
  5
A1
330
1F
100
AcDbEntity
  8
DIMENSION
100
AcDbLine
 10
-3.541495923699999
 20
44.7219136179
 30
0.0
 11
-2.9076941631
 21
44.7207565085
 31
0.0
  0
LINE
  5
A2
330
1F
100
AcDbEntity
  8
DIMENSION
100
AcDbLine
 10
-3.550624230599999
 20
39.72192195050001
 30
0.0
 11
-3.541495923699999
 21
44.7219136179
 31
0.0
  0
LINE
  5
A3
330
1F
100
AcDbEntity
  8
DIMENSION
100
AcDbLine
 10
-2.916822469999999
 20
39.7207648412
 30
0.0
 11
-3.550624230599999
 21
39.72192195050001
 31
0.0
  0
LINE
  5
A4
330
1F
100
AcDbEntity
  8
DIMENSION
100
AcDbLine
 10
-0.3775012607999999
 20
41.96965377509999
 30
0.0
 11
-2.9127083035
 21
41.9742822124
 31
0.0
  0
LINE
  5
A5
330
1F
100
AcDbEntity
  8
DIMENSION
100
AcDbLine
 10
-0.3816154273
 20
39.7161364038
 30
0.0
 11
-0.3775012607999999
 21
41.96965377509999
 31
0.0
  0
LINE
  5
A6
330
1F
100
AcDbEntity
  8
DIMENSION
100
AcDbLine
 10
0.2521863333
 20
39.7149792945
 30
0.0
 11
-0.3816154273
 21
39.7161364038
 31
0.0
  0
LINE
  5
A7
330
1F
100
AcDbEntity
  8
DIMENSION
100
AcDbLine
 10
0.2613146402
 20
44.71497096189999
 30
0.0
 11
0.2521863333
 21
39.7149792945
 31
0.0
  0
LINE
  5
A8
330
1F
100
AcDbEntity
  8
DIMENSION
100
AcDbLine
 10
-0.3724871204
 20
44.71612807119999
 30
0.0
 11
0.2613146402
 21
44.71497096189999
 31
0.0
  0
LINE
  5
A9
330
1F
100
AcDbEntity
  8
DIMENSION
100
AcDbLine
 10
-0.3764727192
 20
42.53303311789999
 30
0.0
 11
-0.3724871204
 21
44.71612807119999
 31
0.0
  0
LINE
  5
AA
330
1F
100
AcDbEntity
  8
DIMENSION
100
AcDbLine
 10
-2.911679761799999
 20
42.5376615552
 30
0.0
 11
-0.3764727192
 21
42.53303311789999
 31
0.0
  0
LINE
  5
AB
330
1F
100
AcDbEntity
  8
DIMENSION
100
AcDbLine
 10
-2.9076941631
 20
44.7207565085
 30
0.0
 11
-2.911679761799999
 21
42.5376615552
 31
0.0
  0
SPLINE
  5
AC
330
1F
100
AcDbEntity
  8
DIMENSION
100
AcDbSpline
210
0.0
220
0.0
230
1.0
 70
     8
 71
     3
 72
    23
 73
    19
 74
     0
 42
0.00000001
 43
0.0000000001
 40
0.0
 40
0.0
 40
0.0
 40
0.0
 40
0.072128015492425
 40
0.140735496411964
 40
0.2074941853965444
 40
0.2718037641159937
 40
0.3343608138689076
 40
0.394639386237785
 40
0.453856020407334
 40
0.5120374926085995
 40
0.5696531500155272
 40
0.6270981097936412
 40
0.6853533795884034
 40
0.7449213742099495
 40
0.8060002990983894
 40
0.8685144095390919
 40
0.9329431772901472
 40
1.0
 40
1.0
 40
1.0
 40
1.0
 10
0.5758165004967479
 20
41.47165370689651
 30
0.0
 10
0.5774207017174293
 20
41.53920362706428
 30
0.0
 10
0.5805508038503465
 20
41.67100638751036
 30
0.0
 10
0.6034614283898787
 20
41.86421145455932
 30
0.0
 10
0.6403216627076103
 20
42.04779325294238
 30
0.0
 10
0.6943936991923028
 20
42.22108653764538
 30
0.0
 10
0.7595248405661837
 20
42.38409423049428
 30
0.0
 10
0.8407423451134709
 20
42.53424347362162
 30
0.0
 10
0.9300896909964771
 20
42.67487417693939
 30
0.0
 10
1.03459246139391
 20
42.80164455029946
 30
0.0
 10
1.150831971226424
 20
42.91518869066425
 30
0.0
 10
1.278453720692254
 20
43.01594781504052
 30
0.0
 10
1.417953828065573
 20
43.10302236622852
 30
0.0
 10
1.569351933715656
 20
43.17556375202336
 30
0.0
 10
1.73161669916165
 20
43.23199921231306
 30
0.0
 10
1.902860550843127
 20
43.2740702550896
 30
0.0
 10
2.083388519859092
 20
43.29775863061423
 30
0.0
 10
2.206511415009535
 20
43.30113173499575
 30
0.0
 10
2.26930331580022
 20
43.30285199697806
 30
0.0
  0
SPLINE
  5
AD
330
1F
100
AcDbEntity
  8
DIMENSION
100
AcDbSpline
210
0.0
220
0.0
230
1.0
 70
     8
 71
     3
 72
    23
 73
    19
 74
     0
 42
0.00000001
 43
0.0000000001
 40
0.0
 40
0.0
 40
0.0
 40
0.0
 40
0.0689259380248138
 40
0.1345048193840208
 40
0.1972435307564535
 40
0.2583914713274603
 40
0.3178984171544494
 40
0.3758870617734711
 40
0.4335805227698304
 40
0.4911371322525401
 40
0.5489565283686983
 40
0.6077841119696016
 40
0.6676387207414979
 40
0.7299856938908686
 40
0.7940049191260396
 40
0.8602343775033272
 40
0.9287279641338358
 40
1.0
 40
1.0
 40
1.0
 40
1.0
 10
2.265918846082167
 20
39.64088024213449
 30
0.0
 10
2.201266443886518
 20
39.64217452455578
 30
0.0
 10
2.075101172447801
 20
39.64470023879769
 30
0.0
 10
1.891816140515686
 20
39.67170861157948
 30
0.0
 10
1.718485477903375
 20
39.71167322533496
 30
0.0
 10
1.556763635880892
 20
39.77110999491657
 30
0.0
 10
1.405672022784757
 20
39.84385783792854
 30
0.0
 10
1.265818580771238
 20
39.93054619463939
 30
0.0
 10
1.137940853582514
 20
40.03119563056842
 30
0.0
 10
1.022373663932347
 20
40.14544880906429
 30
0.0
 10
0.9181488344525423
 20
40.27157386914179
 30
0.0
 10
0.8284842648284135
 20
40.41102393712222
 30
0.0
 10
0.7511582935726402
 20
40.56233180015227
 30
0.0
 10
0.6867941600606775
 20
40.7248768250889
 30
0.0
 10
0.6366125062508138
 20
40.8985444905445
 30
0.0
 10
0.6006202597402672
 20
41.08154974265185
 30
0.0
 10
0.5802718186673772
 20
41.27383947419533
 30
0.0
 10
0.5773211589492484
 20
41.40484751127584
 30
0.0
 10
0.5758165004967479
 20
41.47165370689651
 30
0.0
  0
SPLINE
  5
AE
330
1F
100
AcDbEntity
  8
DIMENSION
100
AcDbSpline
210
0.0
220
0.0
230
1.0
 70
     8
 71
     3
 72
    23
 73
    19
 74
     0
 42
0.00000001
 43
0.0000000001
 40
0.0
 40
0.0
 40
0.0
 40
0.0
 40
0.0715597532156475
 40
0.1403735981310598
 40
0.2069481393777236
 40
0.2714511544609573
 40
0.3341963691571694
 40
0.3944734224866243
 40
0.4537537080618528
 40
0.5118065147042722
 40
0.5695954738725821
 40
0.6272132219717899
 40
0.6854359603546156
 40
0.7448294123432057
 40
0.805854740128416
 40
0.8680824061965628
 40
0.9327586931201979
 40
1.0
 40
1.0
 40
1.0
 40
1.0
 10
3.956092557326734
 20
41.46548245715363
 30
0.0
 10
3.954455970236401
 20
41.39866960192209
 30
0.0
 10
3.951245595574665
 20
41.26760765063229
 30
0.0
 10
3.928595726077871
 20
41.07545885405477
 30
0.0
 10
3.891386302120075
 20
40.89233284216334
 30
0.0
 10
3.837662264121701
 20
40.71927819412234
 30
0.0
 10
3.772007056148634
 20
40.55674898394769
 30
0.0
 10
3.692965399004058
 20
40.40571020578961
 30
0.0
 10
3.601585241403886
 20
40.26699194260289
 30
0.0
 10
3.497089940566051
 20
40.14083891090024
 30
0.0
 10
3.3810497622766
 20
40.02750966151433
 30
0.0
 10
3.253800965369368
 20
39.92652470461825
 30
0.0
 10
3.113872868418298
 20
39.84109262519759
 30
0.0
 10
2.963503924052382
 20
39.76847310379264
 30
0.0
 10
2.802933295211293
 20
39.70988865479259
 30
0.0
 10
2.631710493483305
 20
39.67044005838785
 30
0.0
 10
2.451990825950836
 20
39.64410262732545
 30
0.0
 10
2.328741662723344
 20
39.64196820451411
 30
0.0
 10
2.265918846082167
 20
39.64088024213449
 30
0.0
  0
LINE
  5
AF
330
1F
100
AcDbEntity
  8
DIMENSION
100
AcDbLine
 10
38.01477944590001
 20
42.4394350871
 30
0.0
 11
38.0187670535
 21
44.62363039069999
 31
0.0
  0
LINE
  5
B0
330
1F
100
AcDbEntity
  8
DIMENSION
100
AcDbLine
 10
38.0026755928
 20
42.4394571847
 30
0.0
 11
38.01477944590001
 21
42.4394350871
 31
0.0
  0
SPLINE
  5
B1
330
1F
100
AcDbEntity
  8
DIMENSION
100
AcDbSpline
210
0.0
220
0.0
230
1.0
 70
     8
 71
     3
 72
    15
 73
    11
 74
     0
 42
0.00000001
 43
0.0000000001
 40
0.0
 40
0.0
 40
0.0
 40
0.0
 40
0.1406620814067743
 40
0.2735825955707143
 40
0.3978349303110008
 40
0.5174100269364488
 40
0.6355517334823169
 40
0.7541424502103339
 40
0.8752529519779423
 40
1.0
 40
1.0
 40
1.0
 40
1.0
 10
37.02193655910935
 20
42.86488395439438
 30
0.0
 10
37.07373736838265
 20
42.86372914136745
 30
0.0
 10
37.17448804484018
 20
42.86148307233343
 30
0.0
 10
37.31953815336721
 20
42.8393986558457
 30
0.0
 10
37.45461538467441
 20
42.80701957519672
 30
0.0
 10
37.57908734408326
 20
42.75850672050091
 30
0.0
 10
37.69531348211437
 20
42.6972375861859
 30
0.0
 10
37.80461280112198
 20
42.62349374049149
 30
0.0
 10
37.90911025752156
 20
42.53887204362873
 30
0.0
 10
37.97118111205529
 20
42.47292063939588
 30
0.0
 10
38.00267559281421
 20
42.43945718465147
 30
0.0
  0
SPLINE
  5
B2
330
1F
100
AcDbEntity
  8
DIMENSION
100
AcDbSpline
210
0.0
220
0.0
230
1.0
 70
     8
 71
     3
 72
    25
 73
    21
 74
     0
 42
0.00000001
 43
0.0000000001
 40
0.0
 40
0.0
 40
0.0
 40
0.0
 40
0.064628528560828
 40
0.1257948893253271
 40
0.1837584318739094
 40
0.2382462895949316
 40
0.2899975939082829
 40
0.3391637167501469
 40
0.3861940991462239
 40
0.4311632279934151
 40
0.4743096325651692
 40
0.5156653589767194
 40
0.5557415765883961
 40
0.5951490239620406
 40
0.6707636019224054
 40
0.7425086853335503
 40
0.811019522028728
 40
0.8774692092245985
 40
0.9409329808871049
 40
1.0
 40
1.0
 40
1.0
 40
1.0
 10
35.47582235297735
 20
40.99270351536483
 30
0.0
 10
35.47676514207987
 20
41.05140739125149
 30
0.0
 10
35.47860021481711
 20
41.16567036047842
 30
0.0
 10
35.49176529748277
 20
41.33223113171179
 30
0.0
 10
35.51558082485444
 20
41.48819669071063
 30
0.0
 10
35.54573168428776
 20
41.63443419413293
 30
0.0
 10
35.58698033548698
 20
41.76953639273296
 30
0.0
 10
35.63022722603803
 20
41.89684412878321
 30
0.0
 10
35.68145462850836
 20
42.01453309503277
 30
0.0
 10
35.73754359139085
 20
42.12384233159682
 30
0.0
 10
35.79958615600059
 20
42.22387505216246
 30
0.0
 10
35.8656797966705
 20
42.31586727974198
 30
0.0
 10
35.93786997263368
 20
42.39877922762838
 30
0.0
 10
36.03948365939793
 20
42.49653436504963
 30
0.0
 10
36.17339995791957
 20
42.60150755751688
 30
0.0
 10
36.3415792665942
 20
42.70311835058801
 30
0.0
 10
36.51343912791777
 20
42.78027473387703
 30
0.0
 10
36.68731548407777
 20
42.82942786601539
 30
0.0
 10
36.85696867165257
 20
42.8584983017314
 30
0.0
 10
36.96827863577086
 20
42.86280693888342
 30
0.0
 10
37.02193655910935
 20
42.86488395439438
 30
0.0
  0
SPLINE
  5
B3
330
1F
100
AcDbEntity
  8
DIMENSION
100
AcDbSpline
210
0.0
220
0.0
230
1.0
 70
     8
 71
     3
 72
    23
 73
    19
 74
     0
 42
0.00000001
 43
0.0000000001
 40
0.0
 40
0.0
 40
0.0
 40
0.0
 40
0.0537704746945282
 40
0.1075488912655764
 40
0.1616171778429942
 40
0.2165272338525129
 40
0.2711800254600051
 40
0.3255759061681832
 40
0.3807342847831364
 40
0.4369236356369328
 40
0.4948966477099068
 40
0.5547629278731555
 40
0.6178714380704698
 40
0.6843031370296387
 40
0.7547521680229547
 40
0.8303840110303521
 40
0.9119021642990121
 40
1.0
 40
1.0
 40
1.0
 40
1.0
 10
37.01194998771781
 20
39.20292425277298
 30
0.0
 10
36.96419901958403
 20
39.20386315072273
 30
0.0
 10
36.86869003051854
 20
39.20574108529705
 30
0.0
 10
36.72647264495044
 20
39.22627519600214
 30
0.0
 10
36.58492598553492
 20
39.25553524219367
 30
0.0
 10
36.44600315086133
 20
39.29858532674336
 30
0.0
 10
36.31134206740493
 20
39.35443951049686
 30
0.0
 10
36.18412290467708
 20
39.42610642828793
 30
0.0
 10
36.0635748841511
 20
39.51090376883732
 30
0.0
 10
35.95211547785615
 20
39.61224032798102
 30
0.0
 10
35.84994755549587
 20
39.72842551260251
 30
0.0
 10
35.75690107039739
 20
39.85967810944741
 30
0.0
 10
35.67494892959082
 20
40.00676342140163
 30
0.0
 10
35.60337078910254
 20
40.16943614962084
 30
0.0
 10
35.5447739610491
 20
40.3490800264495
 30
0.0
 10
35.50386908540918
 20
40.54725239438525
 30
0.0
 10
35.480572920001
 20
40.76397763503554
 30
0.0
 10
35.47744630417078
 20
40.91451502450072
 30
0.0
 10
35.47582235297735
 20
40.99270351536483
 30
0.0
  0
LINE
  5
B4
330
1F
100
AcDbEntity
  8
DIMENSION
100
AcDbLine
 10
6.085376898999999
 20
40.1939873522
 30
0.0
 11
6.084507058099999
 21
39.7175356814
 31
0.0
  0
LINE
  5
B5
330
1F
100
AcDbEntity
  8
DIMENSION
100
AcDbLine
 10
35.2324600773
 20
44.6287172522
 30
0.0
 11
35.2226889318
 21
39.2766134956
 31
0.0
  0
LINE
  5
B6
330
1F
100
AcDbEntity
  8
DIMENSION
100
AcDbLine
 10
34.5986583166
 20
44.62987436159999
 30
0.0
 11
35.2324600773
 21
44.6287172522
 31
0.0
  0
LINE
  5
B7
330
1F
100
AcDbEntity
  8
DIMENSION
100
AcDbLine
 10
34.5888871712
 20
39.2777706049
 30
0.0
 11
34.5986583166
 21
44.62987436159999
 31
0.0
  0
LINE
  5
B8
330
1F
100
AcDbEntity
  8
DIMENSION
100
AcDbLine
 10
35.2226889318
 20
39.2766134956
 30
0.0
 11
34.5888871712
 21
39.2777706049
 31
0.0
  0
SPLINE
  5
B9
330
1F
100
AcDbEntity
  8
DIMENSION
100
AcDbSpline
210
0.0
220
0.0
230
1.0
 70
     8
 71
     3
 72
    23
 73
    19
 74
     0
 42
0.00000001
 43
0.0000000001
 40
0.0
 40
0.0
 40
0.0
 40
0.0
 40
0.068485864322071
 40
0.133561736711421
 40
0.1967114785785981
 40
0.2576692172236431
 40
0.3171190234273666
 40
0.3755902985068539
 40
0.4329212821648861
 40
0.4901441985270311
 40
0.547963611280081
 40
0.6070627541634844
 40
0.6668598894799979
 40
0.7290032888898498
 40
0.7929610417311539
 40
0.8595872752943785
 40
0.9280150931699667
 40
1.0
 40
1.0
 40
1.0
 40
1.0
 10
2.26930331580022
 20
43.30285199697806
 30
0.0
 10
2.333557900764699
 20
43.3009317213068
 30
0.0
 10
2.458867759149065
 20
43.29718678275407
 30
0.0
 10
2.642201668179883
 20
43.27266210125888
 30
0.0
 10
2.814883921616163
 20
43.23038206504345
 30
0.0
 10
2.977609871983185
 20
43.17300784991149
 30
0.0
 10
3.128891600120226
 20
43.09958943914447
 30
0.0
 10
3.268826757583997
 20
43.01263268120256
 30
0.0
 10
3.39615202582881
 20
42.91135713571327
 30
0.0
 10
3.511072173199834
 20
42.79711630285962
 30
0.0
 10
3.613720490343461
 20
42.66956270482491
 30
0.0
 10
3.703123966502825
 20
42.52961729323275
 30
0.0
 10
3.781035530717443
 20
42.37836445032992
 30
0.0
 10
3.843773188459228
 20
42.21530516404466
 30
0.0
 10
3.894118408698201
 20
42.04145832474154
 30
0.0
 10
3.931524152116617
 20
41.85826746844914
 30
0.0
 10
3.951649443647508
 20
41.66475389461081
 30
0.0
 10
3.954586716033103
 20
41.53301868981087
 30
0.0
 10
3.956092557326734
 20
41.46548245715363
 30
0.0
  0
SPLINE
  5
BA
330
1F
100
AcDbEntity
  8
DIMENSION
100
AcDbSpline
210
0.0
220
0.0
230
1.0
 70
     8
 71
     3
 72
    23
 73
    19
 74
     0
 42
0.00000001
 43
0.0000000001
 40
0.0
 40
0.0
 40
0.0
 40
0.0
 40
0.072128015492425
 40
0.1407354964119639
 40
0.2074941853965443
 40
0.2718037641159934
 40
0.3343608138689076
 40
0.3946393862377851
 40
0.4538560204073341
 40
0.5120374926085998
 40
0.5696531500155276
 40
0.6270981097936406
 40
0.6853533795884039
 40
0.7449213742099488
 40
0.8060002990983893
 40
0.8685144095390917
 40
0.9329431772901472
 40
1.0
 40
1.0
 40
1.0
 40
1.0
 10
30.96181969695559
 20
41.04165766544553
 30
0.0
 10
30.96342389817627
 20
41.10920758561331
 30
0.0
 10
30.9665540003092
 20
41.24101034605939
 30
0.0
 10
30.98946462484872
 20
41.43421541310835
 30
0.0
 10
31.02632485916645
 20
41.61779721149142
 30
0.0
 10
31.08039689565116
 20
41.7910904961944
 30
0.0
 10
31.14552803702502
 20
41.95409818904331
 30
0.0
 10
31.22674554157231
 20
42.10424743217063
 30
0.0
 10
31.31609288745532
 20
42.24487813548843
 30
0.0
 10
31.42059565785276
 20
42.37164850884847
 30
0.0
 10
31.53683516768526
 20
42.48519264921328
 30
0.0
 10
31.66445691715111
 20
42.58595177358954
 30
0.0
 10
31.80395702452442
 20
42.67302632477753
 30
0.0
 10
31.9553551301745
 20
42.7455677105724
 30
0.0
 10
32.11761989562049
 20
42.80200317086209
 30
0.0
 10
32.28886374730197
 20
42.84407421363863
 30
0.0
 10
32.46939171631795
 20
42.86776258916328
 30
0.0
 10
32.59251461146837
 20
42.87113569354477
 30
0.0
 10
32.65530651225906
 20
42.87285595552708
 30
0.0
  0
SPLINE
  5
BB
330
1F
100
AcDbEntity
  8
DIMENSION
100
AcDbSpline
210
0.0
220
0.0
230
1.0
 70
     8
 71
     3
 72
    23
 73
    19
 74
     0
 42
0.00000001
 43
0.0000000001
 40
0.0
 40
0.0
 40
0.0
 40
0.0
 40
0.0689259380248137
 40
0.1345048193840207
 40
0.197243530756454
 40
0.2583914713274602
 40
0.3178984171544497
 40
0.3758870617734711
 40
0.4335805227698308
 40
0.4911371322525401
 40
0.5489565283686977
 40
0.6077841119696018
 40
0.6676387207414978
 40
0.7299856938908686
 40
0.7940049191260396
 40
0.8602343775033272
 40
0.9287279641338358
 40
1.0
 40
1.0
 40
1.0
 40
1.0
 10
32.65192204254102
 20
39.21088420068353
 30
0.0
 10
32.58726964034538
 20
39.21217848310481
 30
0.0
 10
32.46110436890666
 20
39.21470419734672
 30
0.0
 10
32.27781933697452
 20
39.24171257012851
 30
0.0
 10
32.10448867436222
 20
39.28167718388398
 30
0.0
 10
31.94276683233974
 20
39.3411139534656
 30
0.0
 10
31.79167521924359
 20
39.41386179647756
 30
0.0
 10
31.65182177723008
 20
39.50055015318841
 30
0.0
 10
31.52394405004136
 20
39.60119958911746
 30
0.0
 10
31.4083768603912
 20
39.71545276761332
 30
0.0
 10
31.30415203091139
 20
39.84157782769083
 30
0.0
 10
31.21448746128725
 20
39.98102789567125
 30
0.0
 10
31.13716149003149
 20
40.13233575870129
 30
0.0
 10
31.07279735651952
 20
40.29488078363793
 30
0.0
 10
31.02261570270965
 20
40.46854844909353
 30
0.0
 10
30.98662345619912
 20
40.65155370120087
 30
0.0
 10
30.96627501512622
 20
40.84384343274435
 30
0.0
 10
30.9633243554081
 20
40.97485146982485
 30
0.0
 10
30.96181969695559
 20
41.04165766544553
 30
0.0
  0
SPLINE
  5
BC
330
1F
100
AcDbEntity
  8
DIMENSION
100
AcDbSpline
210
0.0
220
0.0
230
1.0
 70
     8
 71
     3
 72
    23
 73
    19
 74
     0
 42
0.00000001
 43
0.0000000001
 40
0.0
 40
0.0
 40
0.0
 40
0.0
 40
0.0715597532156475
 40
0.1403735981310598
 40
0.2069481393777236
 40
0.2714511544609573
 40
0.3341963691571694
 40
0.3944734224866243
 40
0.4537537080618528
 40
0.5118065147042726
 40
0.5695954738725819
 40
0.6272132219717892
 40
0.6854359603546155
 40
0.7448294123432061
 40
0.8058547401284153
 40
0.8680824061965626
 40
0.9327586931201979
 40
1.0
 40
1.0
 40
1.0
 40
1.0
 10
34.34209575378558
 20
41.03548641570265
 30
0.0
 10
34.34045916669526
 20
40.96867356047112
 30
0.0
 10
34.33724879203352
 20
40.83761160918132
 30
0.0
 10
34.31459892253672
 20
40.64546281260379
 30
0.0
 10
34.27738949857893
 20
40.46233680071236
 30
0.0
 10
34.22366546058053
 20
40.28928215267137
 30
0.0
 10
34.15801025260748
 20
40.12675294249672
 30
0.0
 10
34.07896859546291
 20
39.97571416433865
 30
0.0
 10
33.98758843786272
 20
39.83699590115192
 30
0.0
 10
33.88309313702489
 20
39.71084286944928
 30
0.0
 10
33.76705295873544
 20
39.59751362006336
 30
0.0
 10
33.63980416182822
 20
39.49652866316725
 30
0.0
 10
33.49987606487714
 20
39.41109658374662
 30
0.0
 10
33.34950712051123
 20
39.33847706234168
 30
0.0
 10
33.18893649167013
 20
39.27989261334161
 30
0.0
 10
33.01771368994216
 20
39.24044401693686
 30
0.0
 10
32.83799402240968
 20
39.21410658587447
 30
0.0
 10
32.7147448591822
 20
39.21197216306314
 30
0.0
 10
32.65192204254102
 20
39.21088420068353
 30
0.0
  0
SPLINE
  5
BD
330
1F
100
AcDbEntity
  8
DIMENSION
100
AcDbSpline
210
0.0
220
0.0
230
1.0
 70
     8
 71
     3
 72
    23
 73
    19
 74
     0
 42
0.00000001
 43
0.0000000001
 40
0.0
 40
0.0
 40
0.0
 40
0.0
 40
0.068485864322071
 40
0.133561736711421
 40
0.1967114785785975
 40
0.2576692172236431
 40
0.3171190234273666
 40
0.3755902985068539
 40
0.4329212821648855
 40
0.490144198527031
 40
0.5479636112800814
 40
0.6070627541634847
 40
0.6668598894799979
 40
0.7290032888898498
 40
0.7929610417311539
 40
0.8595872752943785
 40
0.9280150931699667
 40
1.0
 40
1.0
 40
1.0
 40
1.0
 10
32.65530651225906
 20
42.87285595552708
 30
0.0
 10
32.71956109722355
 20
42.87093567985582
 30
0.0
 10
32.84487095560792
 20
42.86719074130309
 30
0.0
 10
33.02820486463873
 20
42.8426660598079
 30
0.0
 10
33.20088711807499
 20
42.80038602359247
 30
0.0
 10
33.36361306844203
 20
42.74301180846051
 30
0.0
 10
33.51489479657907
 20
42.66959339769349
 30
0.0
 10
33.65482995404285
 20
42.58263663975157
 30
0.0
 10
33.78215522228766
 20
42.48136109426229
 30
0.0
 10
33.89707536965868
 20
42.36712026140866
 30
0.0
 10
33.99972368680231
 20
42.23956666337393
 30
0.0
 10
34.08912716296168
 20
42.09962125178178
 30
0.0
 10
34.16703872717629
 20
41.94836840887893
 30
0.0
 10
34.22977638491808
 20
41.78530912259367
 30
0.0
 10
34.28012160515705
 20
41.61146228329056
 30
0.0
 10
34.31752734857546
 20
41.42827142699817
 30
0.0
 10
34.33765264010636
 20
41.23475785315982
 30
0.0
 10
34.34058991249195
 20
41.1030226483599
 30
0.0
 10
34.34209575378558
 20
41.03548641570265
 30
0.0
  0
LINE
  5
BE
330
1F
100
AcDbEntity
  8
DIMENSION
100
AcDbLine
 10
-2.9127083035
 20
41.9742822124
 30
0.0
 11
-2.916822469999999
 21
39.7207648412
 31
0.0
  0
LINE
  5
BF
330
1F
100
AcDbEntity
  8
DIMENSION
100
AcDbLine
 10
30.7879698208
 20
44.1790841583
 30
0.0
 11
30.7870055631
 21
43.65091602439999
 31
0.0
  0
SPLINE
  5
C0
330
1F
100
AcDbEntity
  8
DIMENSION
100
AcDbSpline
210
0.0
220
0.0
230
1.0
 70
     8
 71
     3
 72
    15
 73
    11
 74
     0
 42
0.00000001
 43
0.0000000001
 40
0.0
 40
0.0
 40
0.0
 40
0.0
 40
0.1423315775171936
 40
0.2838434742916131
 40
0.422897485454295
 40
0.555370650247617
 40
0.6816550941453659
 40
0.7998415822546904
 40
0.9070207609353133
 40
1.0
 40
1.0
 40
1.0
 40
1.0
 10
29.73415567288595
 20
44.35706470070815
 30
0.0
 10
29.78514359138538
 20
44.35620050483352
 30
0.0
 10
29.88682579140198
 20
44.35447708994692
 30
0.0
 10
30.03819679162923
 20
44.34605696790015
 30
0.0
 10
30.18519445295568
 20
44.32855315584379
 30
0.0
 10
30.32627686543083
 20
44.30808404761942
 30
0.0
 10
30.4587512361732
 20
44.2814552010184
 30
0.0
 10
30.5809960460839
 20
44.25084278230488
 30
0.0
 10
30.69016844474413
 20
44.21744541982663
 30
0.0
 10
30.75694856744724
 20
44.1912518236237
 30
0.0
 10
30.78796982083004
 20
44.17908415827767
 30
0.0
  0
SPLINE
  5
C1
330
1F
100
AcDbEntity
  8
DIMENSION
100
AcDbSpline
210
0.0
220
0.0
230
1.0
 70
     8
 71
     3
 72
    23
 73
    19
 74
     0
 42
0.00000001
 43
0.0000000001
 40
0.0
 40
0.0
 40
0.0
 40
0.0
 40
0.0687097108412403
 40
0.1351808885939084
 40
0.1995730988927699
 40
0.2627789683321881
 40
0.3243472305287308
 40
0.3841108409489421
 40
0.4429447017408952
 40
0.5011302441377984
 40
0.5591487310744463
 40
0.6174953465347758
 40
0.6765991027182301
 40
0.7374279965145526
 40
0.7999492749265916
 40
0.8639060915258539
 40
0.9304786558206107
 40
1.0
 40
1.0
 40
1.0
 40
1.0
 10
27.19194070293651
 20
41.72855893831003
 30
0.0
 10
27.19411914073308
 20
41.82292544644573
 30
0.0
 10
27.19840504375146
 20
42.00858404211007
 30
0.0
 10
27.233216431897
 20
42.28079599106357
 30
0.0
 10
27.28654231762495
 20
42.54218709574957
 30
0.0
 10
27.36465955068493
 20
42.79030547476921
 30
0.0
 10
27.46104469826879
 20
43.02500112408679
 30
0.0
 10
27.57883856314751
 20
43.24306099824553
 30
0.0
 10
27.71603500651985
 20
43.44379256164626
 30
0.0
 10
27.87199325680728
 20
43.62726214425022
 30
0.0
 10
28.04715865280941
 20
43.79155303086635
 30
0.0
 10
28.23990083100093
 20
43.93676334682532
 30
0.0
 10
28.44945900955113
 20
44.06410087259653
 30
0.0
 10
28.67687397780886
 20
44.1702704056595
 30
0.0
 10
28.92033447002163
 20
44.25458679281089
 30
0.0
 10
29.17893753416263
 20
44.31447921349878
 30
0.0
 10
29.45174441326365
 20
44.35100897084674
 30
0.0
 10
29.63866854278758
 20
44.35501717517433
 30
0.0
 10
29.73415567288595
 20
44.35706470070815
 30
0.0
  0
SPLINE
  5
C2
330
1F
100
AcDbEntity
  8
DIMENSION
100
AcDbSpline
210
0.0
220
0.0
230
1.0
 70
     8
 71
     3
 72
    23
 73
    19
 74
     0
 42
0.00000001
 43
0.0000000001
 40
0.0
 40
0.0
 40
0.0
 40
0.0
 40
0.0740327257760206
 40
0.144134690401747
 40
0.2105391435802379
 40
0.274342741734466
 40
0.3352202689339304
 40
0.3938136390510125
 40
0.4510391269193443
 40
0.5074795246104486
 40
0.5636953570653255
 40
0.6198813526872505
 40
0.6777630246256303
 40
0.7371866715393594
 40
0.7986879461420696
 40
0.862603428442984
 40
0.9297546604265216
 40
1.0
 40
1.0
 40
1.0
 40
1.0
 10
29.74787758642588
 20
39.21618601133504
 30
0.0
 10
29.6472986165796
 20
39.21847172280365
 30
0.0
 10
29.45148090856249
 20
39.22292178608883
 30
0.0
 10
29.16689301611947
 20
39.25542698285479
 30
0.0
 10
28.89988510369587
 20
39.30955827406347
 30
0.0
 10
28.65118445713674
 20
39.38550786858336
 30
0.0
 10
28.42144550499765
 20
39.48236054987162
 30
0.0
 10
28.20942326261244
 20
39.59583591428611
 30
0.0
 10
28.01727102864593
 20
39.73029679994782
 30
0.0
 10
27.8435254404718
 20
39.88293988078157
 30
0.0
 10
27.6905092571712
 20
40.05453255094792
 30
0.0
 10
27.55720206546196
 20
40.24419879454895
 30
0.0
 10
27.44471581159265
 20
40.45182894555496
 30
0.0
 10
27.35118075824407
 20
40.67643192089742
 30
0.0
 10
27.27919814442575
 20
40.91746461167692
 30
0.0
 10
27.22877374903727
 20
41.17440282028102
 30
0.0
 10
27.19617540885448
 20
41.44636372909297
 30
0.0
 10
27.19337330560127
 20
41.63309218889736
 30
0.0
 10
27.19194070293651
 20
41.72855893831003
 30
0.0
  0
SPLINE
  5
C3
330
1F
100
AcDbEntity
  8
DIMENSION
100
AcDbSpline
210
0.0
220
0.0
230
1.0
 70
     8
 71
     3
 72
    13
 73
     9
 74
     0
 42
0.00000001
 43
0.0000000001
 40
0.0
 40
0.0
 40
0.0
 40
0.0
 40
0.1071000510768192
 40
0.2214360250168713
 40
0.3412127204404861
 40
0.4688669775369002
 40
0.7318493900194238
 40
1.0
 40
1.0
 40
1.0
 40
1.0
 10
30.84964963487825
 20
39.39023117673221
 30
0.0
 10
30.81199609995263
 20
39.37664145560193
 30
0.0
 10
30.73414507170445
 20
39.34854386089567
 30
0.0
 10
30.61123407857414
 20
39.31422932077097
 30
0.0
 10
30.47925922504505
 20
39.28473321896296
 30
0.0
 10
30.29137398891661
 20
39.25186201771825
 30
0.0
 10
30.04669119179715
 20
39.22113179044619
 30
0.0
 10
29.84812616815379
 20
39.21784526423556
 30
0.0
 10
29.74787758642588
 20
39.21618601133504
 30
0.0
  0
LINE
  5
C4
330
1F
100
AcDbEntity
  8
DIMENSION
100
AcDbLine
 10
30.8506138927
 20
39.9183993106
 30
0.0
 11
30.8496496349
 21
39.3902311767
 31
0.0
  0
SPLINE
  5
C5
330
1F
100
AcDbEntity
  8
DIMENSION
100
AcDbSpline
210
0.0
220
0.0
230
1.0
 70
     8
 71
     3
 72
    15
 73
    11
 74
     0
 42
0.00000001
 43
0.0000000001
 40
0.0
 40
0.0
 40
0.0
 40
0.0
 40
0.1198117906657701
 40
0.2461307575915146
 40
0.3778821832116048
 40
0.5101883714326533
 40
0.6418944912170625
 40
0.7700047010318417
 40
0.8913597853353479
 40
1.0
 40
1.0
 40
1.0
 40
1.0
 10
29.80612434255333
 20
39.77946089288135
 30
0.0
 10
29.84832527967431
 20
39.77961675980182
 30
0.0
 10
29.93501915652017
 20
39.77993695903265
 30
0.0
 10
30.06774032165858
 20
39.79016087299854
 30
0.0
 10
30.20481687923622
 20
39.8005738858618
 30
0.0
 10
30.34300995075904
 20
39.81884842390824
 30
0.0
 10
30.47963660891408
 20
39.83883190344939
 30
0.0
 10
30.61165991487746
 20
39.86301825257024
 30
0.0
 10
30.73535933948111
 20
39.88773768186752
 30
0.0
 10
30.8136382096719
 20
39.90856252210433
 30
0.0
 10
30.85061389265058
 20
39.91839931061189
 30
0.0
  0
SPLINE
  5
C6
330
1F
100
AcDbEntity
  8
DIMENSION
100
AcDbSpline
210
0.0
220
0.0
230
1.0
 70
     8
 71
     3
 72
    23
 73
    19
 74
     0
 42
0.00000001
 43
0.0000000001
 40
0.0
 40
0.0
 40
0.0
 40
0.0
 40
0.0764027299364397
 40
0.1483977005062266
 40
0.2158173386337584
 40
0.2796269113447105
 40
0.3404189556625125
 40
0.3990847144190867
 40
0.4558835196114522
 40
0.5118535488145956
 40
0.5675456502575761
 40
0.6236987833624735
 40
0.6813299797492844
 40
0.7403668968589903
 40
0.8016361476632559
 40
0.8652002007165874
 40
0.9312054806362487
 40
1.0
 40
1.0
 40
1.0
 40
1.0
 10
27.82578264099932
 20
41.74940883456156
 30
0.0
 10
27.82722649570076
 20
41.66827184450252
 30
0.0
 10
27.83003090750302
 20
41.51067874853892
 30
0.0
 10
27.85620509023845
 20
41.28268163407245
 30
0.0
 10
27.89929506227822
 20
41.07097584013508
 30
0.0
 10
27.96054308913533
 20
40.87610881624685
 30
0.0
 10
28.0387676236559
 20
40.69756581119346
 30
0.0
 10
28.13198414289092
 20
40.53485375305558
 30
0.0
 10
28.24045017759881
 20
40.38822082606499
 30
0.0
 10
28.36270399181478
 20
40.25706796317813
 30
0.0
 10
28.50023097749285
 20
40.14312441834167
 30
0.0
 10
28.65085740186985
 20
40.04407643892188
 30
0.0
 10
28.81505195292545
 20
39.96125078815968
 30
0.0
 10
28.99240658313197
 20
39.89537986277869
 30
0.0
 10
29.18074046274757
 20
39.84305699311244
 30
0.0
 10
29.38037028645109
 20
39.80726265640682
 30
0.0
 10
29.58994403807092
 20
39.78425042711535
 30
0.0
 10
29.73307701863192
 20
39.78107927647768
 30
0.0
 10
29.80612434255333
 20
39.77946089288135
 30
0.0
  0
SPLINE
  5
C7
330
1F
100
AcDbEntity
  8
DIMENSION
100
AcDbSpline
210
0.0
220
0.0
230
1.0
 70
     8
 71
     3
 72
    23
 73
    19
 74
     0
 42
0.00000001
 43
0.0000000001
 40
0.0
 40
0.0
 40
0.0
 40
0.0
 40
0.0631622263931592
 40
0.1247221544676837
 40
0.1849922714354699
 40
0.2446593745348377
 40
0.3030804114304682
 40
0.3606657424055575
 40
0.417599795638228
 40
0.4747694548805271
 40
0.5326309266588233
 40
0.5914092324333231
 40
0.652284206235294
 40
0.7151093635930809
 40
0.7808761708778409
 40
0.8500835975887857
 40
0.9226808394839219
 40
1.0
 40
1.0
 40
1.0
 40
1.0
 10
29.77714114241877
 20
43.7936050030888
 30
0.0
 10
29.70991907975109
 20
43.79253261025988
 30
0.0
 10
29.57718024259409
 20
43.79041502904565
 30
0.0
 10
29.38196310595187
 20
43.76346018967665
 30
0.0
 10
29.1924926341313
 20
43.72561006290135
 30
0.0
 10
29.011360146431
 20
43.66818154448025
 30
0.0
 10
28.8385807414078
 20
43.59635964671086
 30
0.0
 10
28.67739044836829
 20
43.50704570252127
 30
0.0
 10
28.52730266159432
 20
43.4024146405004
 30
0.0
 10
28.39036627240986
 20
43.28064609849685
 30
0.0
 10
28.26504924381137
 20
43.1442944229174
 30
0.0
 10
28.15411562431874
 20
42.99103075149601
 30
0.0
 10
28.05733213581867
 20
42.82248921963546
 30
0.0
 10
27.9736087954072
 20
42.63885601124557
 30
0.0
 10
27.90714164592277
 20
42.43883550378312
 30
0.0
 10
27.85990242715975
 20
42.22284254049497
 30
0.0
 10
27.83202990774911
 20
41.99108083937437
 30
0.0
 10
27.82790833565024
 20
41.83164013802325
 30
0.0
 10
27.82578264099932
 20
41.74940883456156
 30
0.0
  0
SPLINE
  5
C8
330
1F
100
AcDbEntity
  8
DIMENSION
100
AcDbSpline
210
0.0
220
0.0
230
1.0
 70
     8
 71
     3
 72
    11
 73
     7
 74
     0
 42
0.00000001
 43
0.0000000001
 40
0.0
 40
0.0
 40
0.0
 40
0.0
 40
0.2322897423956956
 40
0.482626136622104
 40
0.741563729840583
 40
1.0
 40
1.0
 40
1.0
 40
1.0
 10
30.78700556305772
 20
43.65091602439797
 30
0.0
 10
30.71021281233557
 20
43.67031243260506
 30
0.0
 10
30.55066126167571
 20
43.71061216112853
 30
0.0
 10
30.30156180964402
 20
43.75429412815889
 30
0.0
 10
30.04170518503814
 20
43.7879265806436
 30
0.0
 10
29.86527217014987
 20
43.79171341872597
 30
0.0
 10
29.77714114241877
 20
43.7936050030888
 30
0.0
  0
SPLINE
  5
C9
330
1F
100
AcDbEntity
  8
DIMENSION
100
AcDbSpline
210
0.0
220
0.0
230
1.0
 70
     8
 71
     3
 72
    11
 73
     7
 74
     0
 42
0.00000001
 43
0.0000000001
 40
0.0
 40
0.0
 40
0.0
 40
0.0
 40
0.2431246859882109
 40
0.5013956607332304
 40
0.7593370488412802
 40
1.0
 40
1.0
 40
1.0
 40
1.0
 10
5.60660198656887
 20
40.1277398437752
 30
0.0
 10
5.645898493104532
 20
40.12844481763488
 30
0.0
 10
5.7269396172457
 20
40.12989868412621
 30
0.0
 10
5.848744547968187
 20
40.14544333002969
 30
0.0
 10
5.969661297602117
 20
40.164181207928
 30
0.0
 10
6.047706548243838
 20
40.18428418428686
 30
0.0
 10
6.085376898989241
 20
40.1939873521829
 30
0.0
  0
CIRCLE
  5
CA
330
1F
100
AcDbEntity
  8
DIMENSION
100
AcDbCircle
 10
17.5011179859
 20
42.08787790659999
 30
0.0
 40
22.50000000000001
  0
SPLINE
  5
CB
330
1F
100
AcDbEntity
  8
DIMENSION
100
AcDbSpline
210
0.0
220
0.0
230
1.0
 70
     8
 71
     3
 72
    23
 73
    19
 74
     0
 42
0.00000001
 43
0.0000000001
 40
0.0
 40
0.0
 40
0.0
 40
0.0
 40
0.0808923518212694
 40
0.1575857770419908
 40
0.2309366542120925
 40
0.3004974080027413
 40
0.366886765992451
 40
0.430010589139412
 40
0.49069323398227
 40
0.549426033859519
 40
0.6066729786242373
 40
0.6623472242969216
 40
0.7175498594884202
 40
0.7727048137077821
 40
0.8280829176755142
 40
0.8840135311461624
 40
0.9414354250239609
 40
1.0
 40
1.0
 40
1.0
 40
1.0
 10
3.322290796671109
 20
41.46663956648042
 30
0.0
 10
3.321823503133231
 20
41.51840987390803
 30
0.0
 10
3.320913172136354
 20
41.61926321714756
 30
0.0
 10
3.304472473203256
 20
41.76620671626785
 30
0.0
 10
3.282118342329789
 20
41.90503327376171
 30
0.0
 10
3.246068420514821
 20
42.03418142346799
 30
0.0
 10
3.20384865207024
 20
42.15437330246086
 30
0.0
 10
3.15375022884154
 20
42.26549927575831
 30
0.0
 10
3.093684456803011
 20
42.36582028560653
 30
0.0
 10
3.028192448829653
 20
42.45808607719514
 30
0.0
 10
2.954527986707227
 20
42.53987053806206
 30
0.0
 10
2.873549850047881
 20
42.61093538806596
 30
0.0
 10
2.786507863551223
 20
42.67217201755213
 30
0.0
 10
2.692610680948851
 20
42.72199857427269
 30
0.0
 10
2.59308958508124
 20
42.76032090895323
 30
0.0
 10
2.489116569477491
 20
42.78993373763497
 30
0.0
 10
2.380053228959011
 20
42.80647741405856
 30
0.0
 10
2.305863605877076
 20
42.80874839491565
 30
0.0
 10
2.268403341879373
 20
42.80989507202368
 30
0.0
  0
SPLINE
  5
CC
330
1F
100
AcDbEntity
  8
DIMENSION
100
AcDbSpline
210
0.0
220
0.0
230
1.0
 70
     8
 71
     3
 72
    23
 73
    19
 74
     0
 42
0.00000001
 43
0.0000000001
 40
0.0
 40
0.0
 40
0.0
 40
0.0
 40
0.0585618637700423
 40
0.1159810993414657
 40
0.1719091235435209
 40
0.2272846638207011
 40
0.2824370646800721
 40
0.3376371443042225
 40
0.3933088125766819
 40
0.4505531071341717
 40
0.50928318801757
 40
0.5699630235998699
 40
0.6330839244736321
 40
0.6996655832323859
 40
0.7690740368386323
 40
0.8424215182812293
 40
0.9191113930335244
 40
1.0
 40
1.0
 40
1.0
 40
1.0
 10
2.268403341879373
 20
42.80989507202368
 30
0.0
 10
2.23093914093285
 20
42.80888518177056
 30
0.0
 10
2.156741720768919
 20
42.80688510571028
 30
0.0
 10
2.047618697891842
 20
42.79073976546056
 30
0.0
 10
1.943538261266364
 20
42.76150676854824
 30
0.0
 10
1.843877858817594
 20
42.72354808720993
 30
0.0
 10
1.749799529285639
 20
42.67406465587943
 30
0.0
 10
1.662533930990028
 20
42.61314645872686
 30
0.0
 10
1.581299124712345
 20
42.54237697559232
 30
0.0
 10
1.507327734159624
 20
42.4608650685788
 30
0.0
 10
1.441533501088763
 20
42.3688272112522
 30
0.0
 10
1.380967509881702
 20
42.26877254205652
 30
0.0
 10
1.330945666192836
 20
42.15753202208605
 30
0.0
 10
1.286147633061882
 20
42.03820157891464
 30
0.0
 10
1.25187966840104
 20
41.90849966177938
 30
0.0
 10
1.228386003583187
 20
41.77003872480107
 30
0.0
 10
1.211592241692455
 20
41.62310281251666
 30
0.0
 10
1.210287840073917
 20
41.52226099075932
 30
0.0
 10
1.209618261152373
 20
41.47049659756972
 30
0.0
  0
SPLINE
  5
CD
330
1F
100
AcDbEntity
  8
DIMENSION
100
AcDbSpline
210
0.0
220
0.0
230
1.0
 70
     8
 71
     3
 72
    23
 73
    19
 74
     0
 42
0.00000001
 43
0.0000000001
 40
0.0
 40
0.0
 40
0.0
 40
0.0
 40
0.0804721983558893
 40
0.1573118011949997
 40
0.229670746948886
 40
0.2992147125115781
 40
0.3659263642376579
 40
0.4286489723694882
 40
0.4894472782937899
 40
0.5481684700902795
 40
0.6054899825861208
 40
0.6617036583269246
 40
0.71701150970505
 40
0.7722715892311367
 40
0.8277552438288687
 40
0.8837924610122682
 40
0.9413238009823004
 40
1.0
 40
1.0
 40
1.0
 40
1.0
 10
1.209618261152373
 20
41.47049659756972
 30
0.0
 10
1.210125698031764
 20
41.41909977172131
 30
0.0
 10
1.211117665582309
 20
41.31862622414702
 30
0.0
 10
1.227059937974686
 20
41.17268199561047
 30
0.0
 10
1.250563546956018
 20
41.03495370143903
 30
0.0
 10
1.284110052224202
 20
40.90584070490927
 30
0.0
 10
1.328131881381477
 20
40.78653820037597
 30
0.0
 10
1.37846907070288
 20
40.67584831564205
 30
0.0
 10
1.437818699214263
 20
40.5755278541521
 30
0.0
 10
1.504922984712469
 20
40.48449033393711
 30
0.0
 10
1.579919238842847
 20
40.40373692220557
 30
0.0
 10
1.661545922413909
 20
40.33308370372824
 30
0.0
 10
1.748687626347416
 20
40.27152637378992
 30
0.0
 10
1.842618654227523
 20
40.2217427680251
 30
0.0
 10
1.94213063250101
 20
40.18340886276785
 30
0.0
 10
2.046106128229571
 20
40.15379918145964
 30
0.0
 10
2.155168794356344
 20
40.13725464920713
 30
0.0
 10
2.229358509513931
 20
40.13498378519756
 30
0.0
 10
2.266818820003014
 20
40.13383716708886
 30
0.0
  0
SPLINE
  5
CE
330
1F
100
AcDbEntity
  8
DIMENSION
100
AcDbSpline
210
0.0
220
0.0
230
1.0
 70
     8
 71
     3
 72
    23
 73
    19
 74
     0
 42
0.00000001
 43
0.0000000001
 40
0.0
 40
0.0
 40
0.0
 40
0.0
 40
0.0594091818808761
 40
0.1165254615343495
 40
0.1727131498450052
 40
0.2278092478265176
 40
0.282709214603199
 40
0.3381655786156301
 40
0.3936638213273869
 40
0.4507481315558307
 40
0.509284967183524
 40
0.5702465287098627
 40
0.6331375595797316
 40
0.6998320641166434
 40
0.7697125411955228
 40
0.8422657851797991
 40
0.9193117177090387
 40
1.0
 40
1.0
 40
1.0
 40
1.0
 10
2.266818820003014
 20
40.13383716708886
 30
0.0
 10
2.304654801116551
 20
40.13480432398107
 30
0.0
 10
2.378866480561999
 20
40.13670131026622
 30
0.0
 10
2.487939741138673
 20
40.15316036121109
 30
0.0
 10
2.591383656139923
 20
40.18202626991986
 30
0.0
 10
2.690305062172076
 20
40.22016179568462
 30
0.0
 10
2.783360845339019
 20
40.27004407457202
 30
0.0
 10
2.870497002159424
 20
40.33015754668721
 30
0.0
 10
2.950287356791758
 20
40.40172878873514
 30
0.0
 10
3.024619981881707
 20
40.48165647768423
 30
0.0
 10
3.09073041003037
 20
40.57286032704804
 30
0.0
 10
3.150498204081863
 20
40.67260148684868
 30
0.0
 10
3.201632276135693
 20
40.78287283965948
 30
0.0
 10
3.243976959366886
 20
40.90270106886532
 30
0.0
 10
3.280233612601546
 20
41.03101171160704
 30
0.0
 10
3.303618794358518
 20
41.16893210188986
 30
0.0
 10
3.320275545844922
 20
41.31476446868003
 30
0.0
 10
3.321608784153328
 20
41.41524114178154
 30
0.0
 10
3.322290796671109
 20
41.46663956648042
 30
0.0
  0
SPLINE
  5
CF
330
1F
100
AcDbEntity
  8
DIMENSION
100
AcDbSpline
210
0.0
220
0.0
230
1.0
 70
     8
 71
     3
 72
    23
 73
    19
 74
     0
 42
0.00000001
 43
0.0000000001
 40
0.0
 40
0.0
 40
0.0
 40
0.0
 40
0.07911606421984
 40
0.1543192054066129
 40
0.2265586833678063
 40
0.2956385389034754
 40
0.3618277814480375
 40
0.4249914710220415
 40
0.4848355836265735
 40
0.5427187325193841
 40
0.5992828477553456
 40
0.6539656231925015
 40
0.7087872244969784
 40
0.7638822198588514
 40
0.8198652084046203
 40
0.8772822919404024
 40
0.9374974339414547
 40
1.0
 40
1.0
 40
1.0
 40
1.0
 10
36.10964219346621
 20
41.00144955854829
 30
0.0
 10
36.11045078646019
 20
40.95264100126918
 30
0.0
 10
36.11202798104844
 20
40.85743786078658
 30
0.0
 10
36.1238861965129
 20
40.71806534464378
 30
0.0
 10
36.14417093899245
 20
40.58591970652615
 30
0.0
 10
36.17387105949415
 20
40.46128224431814
 30
0.0
 10
36.21065549468837
 20
40.34439461040273
 30
0.0
 10
36.25554731655305
 20
40.23650490995884
 30
0.0
 10
36.30715022572117
 20
40.13737089175386
 30
0.0
 10
36.36672333840846
 20
40.04764462770785
 30
0.0
 10
36.43326370731783
 20
39.96695662862918
 30
0.0
 10
36.50816381815216
 20
39.89675385080716
 30
0.0
 10
36.58936917146137
 20
39.83532654754833
 30
0.0
 10
36.67933602230085
 20
39.78596658715153
 30
0.0
 10
36.77537235458586
 20
39.74562662822027
 30
0.0
 10
36.87881066483482
 20
39.71701146122614
 30
0.0
 10
36.98873934173911
 20
39.6986533409809
 30
0.0
 10
37.06449488282479
 20
39.69670750385377
 30
0.0
 10
37.10307868450978
 20
39.69571645035791
 30
0.0
  0
SPLINE
  5
D0
330
1F
100
AcDbEntity
  8
DIMENSION
100
AcDbSpline
210
0.0
220
0.0
230
1.0
 70
     8
 71
     3
 72
    15
 73
    11
 74
     0
 42
0.00000001
 43
0.0000000001
 40
0.0
 40
0.0
 40
0.0
 40
0.0
 40
0.1600853383608775
 40
0.3079807182048597
 40
0.4471923241116202
 40
0.57711219677558
 40
0.6999412269085812
 40
0.8130032330888884
 40
0.9135158021360524
 40
1.0
 40
1.0
 40
1.0
 40
1.0
 10
37.10307868450978
 20
39.69571645035791
 30
0.0
 10
37.15979002993706
 20
39.69773295511235
 30
0.0
 10
37.26889434313586
 20
39.70161241458622
 30
0.0
 10
37.42377912841202
 20
39.73812014271372
 30
0.0
 10
37.56154313645744
 20
39.79194715258126
 30
0.0
 10
37.68339118227821
 20
39.85866431589798
 30
0.0
 10
37.79039169824762
 20
39.93209245020013
 30
0.0
 10
37.87822347769807
 20
40.0126884338945
 30
0.0
 10
37.95162569535666
 20
40.0896191233653
 30
0.0
 10
37.99121917605568
 20
40.14267564252625
 30
0.0
 10
38.00953077831201
 20
40.16721376998632
 30
0.0
  0
SPLINE
  5
D1
330
1F
100
AcDbEntity
  8
DIMENSION
100
AcDbSpline
210
0.0
220
0.0
230
1.0
 70
     8
 71
     3
 72
    15
 73
    11
 74
     0
 42
0.00000001
 43
0.0000000001
 40
0.0
 40
0.0
 40
0.0
 40
0.0
 40
0.1233156637054267
 40
0.2459080048176661
 40
0.3696760260907684
 40
0.4947192432861347
 40
0.6197143946649283
 40
0.7439476380183736
 40
0.870471838927658
 40
1.0
 40
1.0
 40
1.0
 40
1.0
 10
38.01283537005259
 20
41.97728997880315
 30
0.0
 10
37.98331965532951
 20
42.00615084904501
 30
0.0
 10
37.92446135379483
 20
42.06370330268486
 30
0.0
 10
37.82685125030651
 20
42.14011418923386
 30
0.0
 10
37.72213324404093
 20
42.20721070190713
 30
0.0
 10
37.61167162072702
 20
42.26632920860017
 30
0.0
 10
37.49492015539289
 20
42.31223124549628
 30
0.0
 10
37.37407577481086
 20
42.34764125464032
 30
0.0
 10
37.24799381366553
 20
42.36771329316421
 30
0.0
 10
37.16231151432771
 20
42.37039277929066
 30
0.0
 10
37.11896776001204
 20
42.37174823997806
 30
0.0
  0
SPLINE
  5
D2
330
1F
100
AcDbEntity
  8
DIMENSION
100
AcDbSpline
210
0.0
220
0.0
230
1.0
 70
     8
 71
     3
 72
    21
 73
    17
 74
     0
 42
0.00000001
 43
0.0000000001
 40
0.0
 40
0.0
 40
0.0
 40
0.0
 40
0.0860700789647129
 40
0.1786909317110175
 40
0.2273997610387887
 40
0.2774086142379024
 40
0.3296305067345596
 40
0.384961561527187
 40
0.4433552012767603
 40
0.5047664311110217
 40
0.5711421730842829
 40
0.6420591948477349
 40
0.7190155409364874
 40
0.8039482843874496
 40
0.8975707799622226
 40
1.0
 40
1.0
 40
1.0
 40
1.0
 10
37.11896776001204
 20
42.37174823997806
 30
0.0
 10
37.06409526958565
 20
42.36838559404318
 30
0.0
 10
36.95017395619153
 20
42.36140437196989
 30
0.0
 10
36.80869406150077
 20
42.32499765204827
 30
0.0
 10
36.69557274319423
 20
42.27852341189302
 30
0.0
 10
36.61272595115033
 20
42.22897436219846
 30
0.0
 10
36.53141981675155
 20
42.1696614674883
 30
0.0
 10
36.45420260438068
 20
42.09684028488182
 30
0.0
 10
36.38263288686326
 20
42.01077089272728
 30
0.0
 10
36.31706535857932
 20
41.911535310453
 30
0.0
 10
36.25759322969928
 20
41.79940909005597
 30
0.0
 10
36.20547173049385
 20
41.67289820775718
 30
0.0
 10
36.16159416757253
 20
41.53078287394601
 30
0.0
 10
36.13115366202733
 20
41.37038568745349
 30
0.0
 10
36.11398120008666
 20
41.19179861966558
 30
0.0
 10
36.11113120335188
 20
41.06677133805386
 30
0.0
 10
36.10964219346621
 20
41.00144955854829
 30
0.0
  0
LINE
  5
D3
330
1F
100
AcDbEntity
  8
DIMENSION
100
AcDbLine
 10
38.0095307783
 20
40.16721376999999
 30
0.0
 11
38.0128353701
 21
41.9772899788
 31
0.0
  0
ARC
  5
D4
330
1F
100
AcDbEntity
  8
DIMENSION
100
AcDbCircle
 10
17.6161177943
 20
42.08766795559999
 30
0.0
 40
22.65
100
AcDbArc
 50
233.0987722017
 51
80.0190055448
  0
ARC
  5
D5
330
1F
100
AcDbEntity
  8
DIMENSION
100
AcDbCircle
 10
17.6161177943
 20
42.08766795559999
 30
0.0
 40
22.65000000000001
100
AcDbArc
 50
100.3628938497
 51
127.1994652507
  0
ARC
  5
D6
330
1F
100
AcDbEntity
  8
DIMENSION
100
AcDbCircle
 10
17.6161177943
 20
42.08766795559999
 30
0.0
 40
28.00000000000001
100
AcDbArc
 50
98.3464404681
 51
81.91987665399999
  0
LINE
  5
D7
330
1F
100
AcDbEntity
  8
DIMENSION
100
AcDbLine
 10
21.6133894949
 20
103.58047277
 30
0.0
 11
13.613402827
 21
103.5950780611
 31
0.0
  0
DIMENSION
  5
D8
102
{ACAD_XDICTIONARY
360
20D
102
}
330
1F
100
AcDbEntity
  8
DIMENSION
100
AcDbDimension
280
     0
  2
*D15
 10
-50.38388220570003
 20
82.08766795560002
 30
0.0
 11
-50.38388220569999
 21
42.5544740964
 31
0.0
 70
   160
  1
<>
 71
     2
 42
80.00000000000001
 73
     0
 74
     0
 75
     0
  3
RG Dimension Lines
100
AcDbAlignedDimension
 13
-22.3838822057
 23
2.0876679556
 33
0.0
 14
-22.3838822057
 24
82.0876679556
 34
0.0
 50
90.0
100
AcDbRotatedDimension
1001
AcadAnnotative
1000
AnnotativeData
1002
{
1070
     1
1070
     1
1002
}
  0
DIMENSION
  5
E5
102
{ACAD_XDICTIONARY
360
1FF
102
}
330
1F
100
AcDbEntity
  8
DIMENSION
100
AcDbDimension
280
     0
  2
*D14
 10
40.014938597
 20
125.6254733711
 30
0.0
 11
16.2619857649
 21
125.6254733711
 31
0.0
 70
   160
  1
<>
 71
     2
 42
44.79764160539999
 73
     0
 74
     0
 75
     0
  3
RG Dimension Lines
100
AcDbAlignedDimension
 13
-4.782703008399999
 23
42.317508441
 33
0.0
 14
40.014938597
 24
41.85782747010001
 34
0.0
100
AcDbRotatedDimension
1001
AcadAnnotative
1000
AnnotativeData
1002
{
1070
     1
1070
     1
1002
}
  0
DIMENSION
  5
ED
102
{ACAD_XDICTIONARY
360
1F1
102
}
330
1F
100
AcDbEntity
  8
DIMENSION
100
AcDbDimension
280
     0
  2
*D13
 10
130.3161177943
 20
-48.3678548731
 30
0.0
 11
117.6161177943
 21
-48.3678548731
 31
0.0
 70
   160
  1
%%c<>
 71
     2
 42
25.39999999999999
 73
     0
 74
     0
 75
     0
  3
RG Dimension Lines
100
AcDbAlignedDimension
 13
104.9161177943
 23
-24.9123320443
 33
0.0
 14
130.3161177943
 24
-24.9123320443
 34
0.0
100
AcDbRotatedDimension
1001
AcadAnnotative
1000
AnnotativeData
1002
{
1070
     1
1070
     1
1002
}
  0
LINE
  5
F6
330
1F
100
AcDbEntity
  8
0
  6
Continuous
 62
     7
370
    25
100
AcDbLine
 10
387.3059933417
 20
54.78766795560001
 30
0.0
 11
284.3059933417
 21
54.78766795560001
 31
0.0
  0
LINE
  5
F7
330
1F
100
AcDbEntity
  8
0
  6
Continuous
 62
     7
370
    25
100
AcDbLine
 10
284.3059933417
 20
29.3876679556
 30
0.0
 11
387.3059933417
 21
29.3876679556
 31
0.0
  0
ARC
  5
F8
330
1F
100
AcDbEntity
  8
0
  6
Continuous
 62
     7
370
    25
100
AcDbCircle
 10
284.3059933417
 20
-2.912332044399999
 30
0.0
 40
32.30000000000001
100
AcDbArc
 50
90.0
 51
180.0
  0
ARC
  5
F9
330
1F
100
AcDbEntity
  8
0
  6
Continuous
 62
     7
370
    25
100
AcDbCircle
 10
284.3059933417
 20
-2.912332044399999
 30
0.0
 40
57.70000000000002
100
AcDbArc
 50
90.0
 51
180.0
  0
LINE
  5
FA
330
1F
100
AcDbEntity
  8
0
  6
Continuous
 62
     7
370
    25
100
AcDbLine
 10
252.0059933417
 20
-24.9123320444
 30
0.0
 11
252.0059933417
 21
-2.912332044399999
 31
0.0
  0
LINE
  5
FB
330
1F
100
AcDbEntity
  8
0
  6
Continuous
 62
     7
370
    25
100
AcDbLine
 10
226.6059933417
 20
-2.912332044399999
 30
0.0
 11
226.6059933417
 21
-24.9123320444
 31
0.0
  0
LINE
  5
FC
330
1F
100
AcDbEntity
  8
0
  6
Continuous
 62
     7
370
    25
100
AcDbLine
 10
387.3059933417
 20
64.58766795560001
 30
0.0
 11
375.5399651826
 21
64.58766795560001
 31
0.0
  0
LINE
  5
FD
330
1F
100
AcDbEntity
  8
DIMENSION
100
AcDbLine
 10
375.5399651826
 20
19.5876679556
 30
0.0
 11
387.3059933417
 21
19.5876679556
 31
0.0
  0
LINE
  5
FE
330
1F
100
AcDbEntity
  8
0
  6
Continuous
 62
     7
370
    25
100
AcDbLine
 10
397.3059933417
 20
69.08766795560001
 30
0.0
 11
387.3059933417
 21
69.08766795560001
 31
0.0
  0
LINE
  5
FF
330
1F
100
AcDbEntity
  8
DIMENSION
100
AcDbLine
 10
387.3059933417
 20
15.0876679556
 30
0.0
 11
397.3059933417
 21
15.0876679556
 31
0.0
  0
LINE
  5
100
330
1F
100
AcDbEntity
  8
DIMENSION
100
AcDbLine
 10
345.8399651826
 20
19.5878779066
 30
0.0
 11
363.7399795763
 21
19.5878779066
 31
0.0
  0
LINE
  5
101
330
1F
100
AcDbEntity
  8
0
  6
Continuous
 62
     7
370
    25
100
AcDbLine
 10
352.0437083966001
 20
64.5878779066
 30
0.0
 11
345.8399651826
 21
64.5878779066
 31
0.0
  0
LINE
  5
102
330
1F
100
AcDbEntity
  8
0
  6
Continuous
 62
     7
370
    25
100
AcDbLine
 10
372.7399651826
 20
64.5878779066
 30
0.0
 11
360.1919431919
 21
64.5878779066
 31
0.0
  0
ARC
  5
103
330
1F
100
AcDbEntity
  8
0
  6
Continuous
 62
     7
370
    25
100
AcDbCircle
 10
345.8399651826
 20
64.4878779066
 30
0.0
 40
0.1000000000000796
100
AcDbArc
 50
90.0
 51
180.0
  0
ARC
  5
104
330
1F
100
AcDbEntity
  8
DIMENSION
100
AcDbCircle
 10
345.8399651826
 20
19.6878779066
 30
0.0
 40
0.1000000000000796
100
AcDbArc
 50
180.0
 51
270.0
  0
LWPOLYLINE
  5
105
330
1F
100
AcDbEntity
  8
0
  6
Continuous
 62
     7
370
    25
100
AcDbPolyline
 90
        3
 70
   128
 43
0.0
 10
375.5399651826
 20
62.57799673920001
 10
374.1914056658999
 20
62.46129275819999
 10
372.7399651826
 20
62.2316494859
  0
ARC
  5
106
330
1F
100
AcDbEntity
  8
0
  6
Continuous
 62
     7
370
    25
100
AcDbCircle
 10
376.5890476013
 20
41.5698058719
 30
0.0
 40
19.99999999999999
100
AcDbArc
 50
237.1452524226
 51
266.9932203497
  0
LINE
  5
107
330
1F
100
AcDbEntity
  8
0
  6
Continuous
 62
     7
370
    25
100
AcDbLine
 10
397.3059933417
 20
70.08766795560001
 30
0.0
 11
392.5059933417
 21
70.08766795560001
 31
0.0
  0
LINE
  5
108
330
1F
100
AcDbEntity
  8
DIMENSION
100
AcDbLine
 10
392.5059933417
 20
14.0876679556
 30
0.0
 11
397.3059933417
 21
14.0876679556
 31
0.0
  0
LINE
  5
109
330
1F
100
AcDbEntity
  8
0
  6
Continuous
 62
     7
370
    25
100
AcDbLine
 10
352.1399651826
 20
103.5877754156
 30
0.0
 11
352.1399651826
 21
64.5689812409
 31
0.0
  0
LINE
  5
10A
330
1F
100
AcDbEntity
  8
0
  6
Continuous
 62
     7
370
    25
100
AcDbLine
 10
360.1399651826
 20
64.5683394597
 30
0.0
 11
360.1399651826
 21
103.5877754156
 31
0.0
  0
LINE
  5
10B
330
1F
100
AcDbEntity
  8
0
  6
Continuous
 62
     7
370
    25
100
AcDbLine
 10
226.6059933417
 20
-24.9123320444
 30
0.0
 11
252.0059933417
 21
-24.9123320444
 31
0.0
  0
LINE
  5
10C
330
1F
100
AcDbEntity
  8
0
  6
Continuous
 62
     7
370
    25
100
AcDbLine
 10
399.3059933417
 20
82.0876679556
 30
0.0
 11
397.3059933417
 21
82.0876679556
 31
0.0
  0
LINE
  5
10D
330
1F
100
AcDbEntity
  8
DIMENSION
100
AcDbLine
 10
399.3059933417
 20
82.0876679556
 30
0.0
 11
399.3059933417
 21
2.0876679556
 31
0.0
  0
LINE
  5
10E
330
1F
100
AcDbEntity
  8
DIMENSION
100
AcDbLine
 10
399.3059933417
 20
2.0876679556
 30
0.0
 11
397.3059933417
 21
2.0876679556
 31
0.0
  0
LINE
  5
10F
330
1F
100
AcDbEntity
  8
DIMENSION
100
AcDbLine
 10
397.3059933417
 20
82.0876679556
 30
0.0
 11
397.3059933417
 21
2.0876679556
 31
0.0
  0
LINE
  5
110
330
1F
100
AcDbEntity
  8
0
  6
Continuous
 62
     7
370
    25
100
AcDbLine
 10
375.5399651826
 20
64.58766795560001
 30
0.0
 11
375.5399651826
 21
54.78766795560001
 31
0.0
  0
LINE
  5
111
330
1F
100
AcDbEntity
  8
DIMENSION
100
AcDbLine
 10
375.5399651826
 20
29.3876679556
 30
0.0
 11
375.5399651826
 21
19.5876679556
 31
0.0
  0
LINE
  5
112
330
1F
100
AcDbEntity
  8
DIMENSION
100
AcDbLine
 10
387.3059933417
 20
67.4912075057
 30
0.0
 11
387.3059933417
 21
15.0876679556
 31
0.0
  0
LINE
  5
113
330
1F
100
AcDbEntity
  8
0
  6
Continuous
 62
     7
370
    25
100
AcDbLine
 10
387.3059933417
 20
69.08766795560001
 30
0.0
 11
387.3059933417
 21
67.4912075057
 31
0.0
  0
SPLINE
  5
114
330
1F
100
AcDbEntity
  8
0
  6
Continuous
 62
     7
370
    25
100
AcDbSpline
210
0.0
220
0.0
230
1.0
 70
     8
 71
     3
 72
    12
 73
     8
 74
     0
 42
0.00000001
 43
0.0000000001
 40
0.0
 40
0.0
 40
0.0
 40
0.0
 40
0.2110506629260121
 40
0.4220157275705548
 40
0.6351953366673308
 40
0.8498752556773421
 40
1.0
 40
1.0
 40
1.0
 40
1.0
 10
356.1399651826467
 20
64.20364672046003
 30
0.0
 10
356.5964890967601
 20
64.21218458892939
 30
0.0
 10
357.5093517672528
 20
64.2292568630651
 30
0.0
 10
358.7312515590676
 20
64.34886613524614
 30
0.0
 10
359.6546315175786
 20
64.47996746608966
 30
0.0
 10
360.1907704539678
 20
64.57677874775254
 30
0.0
 10
360.1916012867984
 20
64.57852573269829
 30
0.0
 10
360.1919431918745
 20
64.57924465351997
 30
0.0
  0
SPLINE
  5
115
330
1F
100
AcDbEntity
  8
0
  6
Continuous
 62
     7
370
    25
100
AcDbSpline
210
0.0
220
0.0
230
1.0
 70
     8
 71
     3
 72
    12
 73
     8
 74
     0
 42
0.00000001
 43
0.0000000001
 40
0.0
 40
0.0
 40
0.0
 40
0.0
 40
0.2069326370942706
 40
0.4169150277262138
 40
0.6297694668826182
 40
0.844359783628019
 40
1.0
 40
1.0
 40
1.0
 40
1.0
 10
352.0437083965905
 20
64.58724780985218
 30
0.0
 10
352.0806649691181
 20
64.57950288966054
 30
0.0
 10
352.1551227766266
 20
64.56389890537962
 30
0.0
 10
352.8237665351626
 20
64.44824355567779
 30
0.0
 10
353.8322660277793
 20
64.31565590940147
 30
0.0
 10
355.0043661162543
 20
64.21927674804713
 30
0.0
 10
355.8038657046348
 20
64.20827268773035
 30
0.0
 10
356.1399651826467
 20
64.20364672046003
 30
0.0
  0
LINE
  5
116
330
1F
100
AcDbEntity
  8
0
  6
Continuous
 62
     7
370
    25
100
AcDbLine
 10
372.7399651826
 20
54.78766795560001
 30
0.0
 11
372.7399651826
 21
64.5878779066
 31
0.0
  0
ELLIPSE
  5
117
330
1F
100
AcDbEntity
  8
DIMENSION
100
AcDbEllipse
 10
372.3769059708999
 20
42.08787790659999
 30
0.0
 11
8.63692985429941
 21
22.49999938147603
 31
0.0
210
0.0
220
0.0
230
1.0
 40
0.0006108032
 41
3.141827118682811
 42
4.112852059179036
  0
LINE
  5
118
330
1F
100
AcDbEntity
  8
0
  6
Continuous
 62
     7
370
    25
100
AcDbLine
 10
345.7399651826
 20
54.78766795560001
 30
0.0
 11
345.7399651826
 21
64.4878779066
 31
0.0
  0
LINE
  5
119
330
1F
100
AcDbEntity
  8
0
  6
Continuous
 62
     7
370
    25
100
AcDbLine
 10
345.7399651826
 20
19.6878779066
 30
0.0
 11
345.7399651826
 21
29.3876679556
 31
0.0
  0
LINE
  5
11A
330
1F
100
AcDbEntity
  8
0
  6
Continuous
 62
     7
370
    25
100
AcDbLine
 10
392.5059933417
 20
70.08766795560001
 30
0.0
 11
392.5059933417
 21
69.08766795560001
 31
0.0
  0
LINE
  5
11B
330
1F
100
AcDbEntity
  8
DIMENSION
100
AcDbLine
 10
392.5059933417
 20
15.0876679556
 30
0.0
 11
392.5059933417
 21
14.0876679556
 31
0.0
  0
LWPOLYLINE
  5
11C
330
1F
100
AcDbEntity
  8
0
  6
Continuous
 62
     7
370
    25
100
AcDbPolyline
 90
       29
 70
   128
 43
0.0
 10
360.1135964157
 20
103.586938285
 10
359.9119354322001
 20
103.5853449943
 10
359.5211321101
 20
103.5838735752
 10
358.9607829596
 20
103.5825978106
 10
358.2589862271
 20
103.5815816727
 10
357.4509329312001
 20
103.580876115
 10
356.5771422382
 20
103.580516517
 10
355.6814296622
 20
103.5805209105
 10
354.8087099719
 20
103.5808890752
 10
354.0027449766
 20
103.5816025497
 10
353.3039491268
 20
103.5826255575
 10
352.7473629641
 20
103.5839068007
 10
352.360896043
 20
103.5853820324
 10
352.1639274285
 20
103.5869772783
 10
352.1663339496
 20
103.5886125462
 10
352.3679949331
 20
103.5902058368
 10
352.7587982552
 20
103.591677256
 10
353.3191474057
 20
103.5929530206
 10
354.0209441382
 20
103.5939691584
 10
354.8289974341
 20
103.5946747162
 10
355.702788127
 20
103.5950343142
 10
356.5985007031
 20
103.5950299207
 10
357.4712203934
 20
103.594661756
 10
358.2771853887
 20
103.5939482815
 10
358.9759812385
 20
103.5929252737
 10
359.5325674012
 20
103.5916440305
 10
359.9190343223
 20
103.5901687988
 10
360.1160029368
 20
103.5885735528
 10
360.1135964157
 20
103.586938285
  0
POINT
  5
11D
330
1F
100
AcDbEntity
  8
0
  6
Continuous
 62
     7
370
     0
100
AcDbPoint
 10
390.5399651826
 20
42.08766795559999
 30
0.0
  0
POINT
  5
11E
330
1F
100
AcDbEntity
  8
0
  6
Continuous
 62
     7
370
     0
100
AcDbPoint
 10
239.3059933417
 20
-24.9123320444
 30
0.0
  0
DIMENSION
  5
11F
102
{ACAD_XDICTIONARY
360
1E3
102
}
330
1F
100
AcDbEntity
  8
DIMENSION
100
AcDbDimension
280
     0
  2
*D12
 10
424.5399651826001
 20
-24.91233204429998
 30
0.0
 11
424.5399651826
 21
10.3572537145
 31
0.0
 70
   160
  1
<>
 71
     2
 42
66.99999999989998
 73
     0
 74
     0
 75
     0
  3
RG Dimension Lines
100
AcDbAlignedDimension
 13
390.5399651826
 23
42.08766795559999
 33
0.0
 14
235.2399651826
 24
-24.9123320443
 34
0.0
 50
90.0
100
AcDbRotatedDimension
1001
AcadAnnotative
1000
AnnotativeData
1002
{
1070
     1
1070
     1
1002
}
  0
DIMENSION
  5
127
102
{ACAD_XDICTIONARY
360
1D5
102
}
330
1F
100
AcDbEntity
  8
DIMENSION
100
AcDbDimension
280
     0
  2
*D11
 10
399.3059933417
 20
-46.9123320443
 30
0.0
 11
312.9118806799001
 21
-46.9123320443
 31
0.0
 70
   160
  1
<>
 71
     2
 42
160.0
 73
     0
 74
     0
 75
     0
  3
RG Dimension Lines
100
AcDbAlignedDimension
 13
239.3059933417
 23
-24.9123320444
 33
0.0
 14
399.3059933417
 24
2.0876679556
 34
0.0
100
AcDbRotatedDimension
1001
AcadAnnotative
1000
AnnotativeData
1002
{
1070
     1
1070
     1
1002
}
  0
LINE
  5
12F
330
1F
100
AcDbEntity
  8
0
  6
Continuous
 62
     7
370
    25
100
AcDbLine
 10
104.9161177943
 20
320.4714157039
 30
0.0
 11
104.9161177943
 21
217.4714157039
 31
0.0
  0
LINE
  5
130
330
1F
100
AcDbEntity
  8
0
  6
Continuous
 62
     7
370
    25
100
AcDbLine
 10
130.3161177943
 20
217.4714157039
 30
0.0
 11
130.3161177943
 21
320.4714157039
 31
0.0
  0
LINE
  5
131
330
1F
100
AcDbEntity
  8
0
  6
Continuous
 62
     7
370
    25
100
AcDbLine
 10
104.9161177943
 20
217.4714157039
 30
0.0
 11
104.9161177943
 21
172.4714157039
 31
0.0
  0
LINE
  5
132
330
1F
100
AcDbEntity
  8
0
  6
Continuous
 62
     7
370
    25
100
AcDbLine
 10
130.3161177943
 20
172.4714157039
 30
0.0
 11
130.3161177943
 21
217.4714157039
 31
0.0
  0
LINE
  5
133
330
1F
100
AcDbEntity
  8
0
  6
Continuous
 62
     7
370
    25
100
AcDbLine
 10
-4.883882205699999
 20
325.6714157039
 30
0.0
 11
-4.883882205699999
 21
308.7053875449
 31
0.0
  0
LINE
  5
134
330
1F
100
AcDbEntity
  8
0
  6
Continuous
 62
     7
370
    25
100
AcDbLine
 10
40.11611779429999
 20
308.7053875449
 30
0.0
 11
40.11611779429999
 21
325.6714157039
 31
0.0
  0
LINE
  5
135
330
1F
100
AcDbEntity
  8
0
  6
Continuous
 62
     7
370
    25
100
AcDbLine
 10
90.6161177943
 20
330.4714157039
 30
0.0
 11
90.6161177943
 21
320.4714157039
 31
0.0
  0
LINE
  5
136
330
1F
100
AcDbEntity
  8
0
  6
Continuous
 62
     7
370
    25
100
AcDbLine
 10
144.6161177943
 20
320.4714157039
 30
0.0
 11
144.6161177943
 21
330.4714157039
 31
0.0
  0
LINE
  5
137
330
1F
100
AcDbEntity
  8
0
  6
Continuous
 62
     7
370
    25
100
AcDbLine
 10
40.0011179859
 20
279.0053875449
 30
0.0
 11
40.0011179859
 21
305.5580964625
 31
0.0
  0
LINE
  5
138
330
1F
100
AcDbEntity
  8
0
  6
Continuous
 62
     7
370
    25
100
AcDbLine
 10
-4.9988820141
 20
305.5265602039
 30
0.0
 11
-4.9988820141
 21
279.0053875449
 31
0.0
  0
ARC
  5
139
330
1F
100
AcDbEntity
  8
0
  6
Continuous
 62
     7
370
    25
100
AcDbCircle
 10
-4.8988820141
 20
279.0053875449
 30
0.0
 40
0.1000000000000227
100
AcDbArc
 50
180.0
 51
270.0
  0
ARC
  5
13A
330
1F
100
AcDbEntity
  8
0
  6
Continuous
 62
     7
370
    25
100
AcDbCircle
 10
39.9011179859
 20
279.0053875449
 30
0.0
 40
0.1000000000000227
100
AcDbArc
 50
270.0
 51
0.0
  0
LWPOLYLINE
  5
13B
330
1F
100
AcDbEntity
  8
0
  6
Continuous
 62
     7
370
    25
100
AcDbPolyline
 90
        3
 70
   128
 43
0.0
 10
-2.874210989299999
 20
308.7053875449
 10
-2.757507008299999
 20
307.3568280282
 10
-2.5278637361
 20
305.9053875449
  0
LWPOLYLINE
  5
13C
330
1F
100
AcDbEntity
  8
0
  6
Continuous
 62
     7
370
    25
100
AcDbPolyline
 90
        3
 70
   128
 43
0.0
 10
37.7600993247
 20
305.9053875449
 10
37.9897425969
 20
307.3568280282
 10
38.1064465779
 20
308.7053875449
  0
LINE
  5
13D
330
1F
100
AcDbEntity
  8
0
  6
Continuous
 62
     7
370
    25
100
AcDbLine
 10
-10.3838822057
 20
330.4714157039
 30
0.0
 11
-10.3838822057
 21
325.6714157039
 31
0.0
  0
LINE
  5
13E
330
1F
100
AcDbEntity
  8
0
  6
Continuous
 62
     7
370
    25
100
AcDbLine
 10
45.6161177943
 20
325.6714157039
 30
0.0
 11
45.6161177943
 21
330.4714157039
 31
0.0
  0
LINE
  5
13F
330
1F
100
AcDbEntity
  8
0
  6
Continuous
 62
     7
370
    25
100
AcDbLine
 10
17.613396161
 20
293.3053875449001
 30
0.0
 11
17.5403697057
 21
293.3053875449001
 31
0.0
  0
LINE
  5
140
330
1F
100
AcDbEntity
  8
0
  6
Continuous
 62
     7
370
    25
100
AcDbLine
 10
17.5403697056
 20
285.3053875449
 30
0.0
 11
17.6133961609
 21
285.3053875449
 31
0.0
  0
ARC
  5
141
330
1F
100
AcDbEntity
  8
0
  6
Continuous
 62
     7
370
    25
100
AcDbCircle
 10
117.6161177943
 20
172.4714157039
 30
0.0
 40
12.69999999999999
100
AcDbArc
 50
180.0
 51
0.0
  0
LINE
  5
142
330
1F
100
AcDbEntity
  8
0
  6
Continuous
 62
     7
370
    25
100
AcDbLine
 10
157.6161177943
 20
332.4714157039
 30
0.0
 11
157.6161177943
 21
330.4714157039
 31
0.0
  0
LINE
  5
143
330
1F
100
AcDbEntity
  8
0
  6
Continuous
 62
     7
370
    25
100
AcDbLine
 10
-22.3838822057
 20
330.4714157039
 30
0.0
 11
157.6161177943
 21
330.4714157039
 31
0.0
  0
LINE
  5
144
330
1F
100
AcDbEntity
  8
0
  6
Continuous
 62
     7
370
    25
100
AcDbLine
 10
-22.3838822057
 20
332.4714157039
 30
0.0
 11
-22.3838822057
 21
330.4714157039
 31
0.0
  0
LINE
  5
145
330
1F
100
AcDbEntity
  8
0
  6
Continuous
 62
     7
370
    25
100
AcDbLine
 10
-22.3838822057
 20
332.4714157039
 30
0.0
 11
157.6161177943
 21
332.4714157039
 31
0.0
  0
LINE
  5
146
330
1F
100
AcDbEntity
  8
0
  6
Continuous
 62
     7
370
    25
100
AcDbLine
 10
17.6161177943
 20
308.7053875449
 30
0.0
 11
40.11611779429999
 21
308.7053875449
 31
0.0
  0
LINE
  5
147
330
1F
100
AcDbEntity
  8
0
  6
Continuous
 62
     7
370
    25
100
AcDbLine
 10
-4.883882205699999
 20
308.7053875449
 30
0.0
 11
17.6161177943
 21
308.7053875449
 31
0.0
  0
LINE
  5
148
330
1F
100
AcDbEntity
  8
0
  6
Continuous
 62
     7
370
    25
100
AcDbLine
 10
126.7627116042
 20
320.4714157039
 30
0.0
 11
144.6161177943
 21
320.4714157039
 31
0.0
  0
LINE
  5
149
330
1F
100
AcDbEntity
  8
0
  6
Continuous
 62
     7
370
    25
100
AcDbLine
 10
90.6161177943
 20
320.4714157039
 30
0.0
 11
126.7627116042
 21
320.4714157039
 31
0.0
  0
LINE
  5
14A
330
1F
100
AcDbEntity
  8
0
  6
Continuous
 62
     7
370
    25
100
AcDbLine
 10
21.641500791
 20
289.3053875449
 30
0.0
 11
21.4912093213
 21
290.1970957136
 31
0.0
  0
LWPOLYLINE
  5
14B
330
1F
100
AcDbEntity
  8
0
  6
Continuous
 62
     7
370
    25
100
AcDbPolyline
 90
       21
 70
   128
 43
0.0
 10
21.465314235
 20
290.3507362365001
 10
21.414928067
 20
290.6496870528
 10
20.7627008308
 20
291.8422329863
 10
19.7455653245
 20
292.7628829385
 10
18.4693434544
 20
293.2991738258
 10
17.0999491908
 20
293.381467118
 10
15.795964312
 20
293.0149831531
 10
14.6794635964
 20
292.2408006901
 10
13.8684088991
 20
291.1267323651
 10
13.4716658862
 20
289.8016237087
 10
13.5343579101
 20
288.4379494042
 10
14.0345871409
 20
287.1816725325
 10
14.9257678461
 20
286.1485311804
 10
16.1240288004
 20
285.4584369975
 10
17.4796735249
 20
285.2058642768
 10
18.8233222216
 20
285.4107068473
 10
20.0218408614
 20
286.0404072199001
 10
20.9592309042
 20
287.0403109791
 10
21.5180905346
 20
288.3068572887
 10
21.641500791
 20
289.3053875449
 10
21.641500791
 20
289.3053875449
  0
ELLIPSE
  5
14C
330
1F
100
AcDbEntity
  8
0
  6
Continuous
 62
     7
370
    25
100
AcDbEllipse
 10
17.5011179859
 20
305.5423283332
 30
0.0
 11
22.49999888014926
 21
0.0184931066228842
 31
0.0
210
0.0
220
0.0
230
0.9999999999999998
 40
0.3838631742
 41
3.097403472780992
 42
3.141277150357483
  0
ELLIPSE
  5
14D
330
1F
100
AcDbEntity
  8
0
  6
Continuous
 62
     7
370
    25
100
AcDbEllipse
 10
17.5011179859
 20
305.5423283332
 30
0.0
 11
22.49999888014926
 21
0.0184931066228842
 31
0.0
210
0.0
220
0.0
230
0.9999999999999998
 40
0.3838631742
 41
6.282869803947307
 42
6.323092156730887
  0
LINE
  5
14E
330
1F
100
AcDbEntity
  8
0
  6
Continuous
 62
     7
370
    25
100
AcDbLine
 10
39.9829197659
 20
305.9053875449
 30
0.0
 11
-4.9772303672
 21
305.9053875449
 31
0.0
  0
ARC
  5
14F
330
1F
100
AcDbEntity
  8
0
  6
Continuous
 62
     7
370
    25
100
AcDbCircle
 10
17.5403666572
 20
289.3053913292
 30
0.0
 40
4.099996215680388
100
AcDbArc
 50
359.9999471157
 51
89.9999573995
  0
ARC
  5
150
330
1F
100
AcDbEntity
  8
0
  6
Continuous
 62
     7
370
    25
100
AcDbCircle
 10
17.5403666572
 20
289.3053837606
 30
0.0
 40
4.099996215680558
100
AcDbArc
 50
270.0000426003
 51
0.0000528843
  0
LINE
  5
151
330
1F
100
AcDbEntity
  8
0
  6
Continuous
 62
     7
370
    25
100
AcDbLine
 10
39.9010806559
 20
278.9053875449
 30
0.0
 11
-4.8988820141
 21
278.9053875449
 31
0.0
  0
LINE
  5
152
330
1F
100
AcDbEntity
  8
0
  6
Continuous
 62
     7
370
    25
100
AcDbLine
 10
17.6161177943
 20
325.6714157039
 30
0.0
 11
45.6161177943
 21
325.6714157039
 31
0.0
  0
LINE
  5
153
330
1F
100
AcDbEntity
  8
0
  6
Continuous
 62
     7
370
    25
100
AcDbLine
 10
-10.3838822057
 20
325.6714157039
 30
0.0
 11
17.6161177943
 21
325.6714157039
 31
0.0
  0
CIRCLE
  5
154
330
1F
100
AcDbEntity
  8
0
  6
Continuous
 62
     7
370
    25
100
AcDbCircle
 10
17.6133961372
 20
289.3053919624
 30
0.0
 40
3.999995526779978
  0
ARC
  5
155
330
1F
100
AcDbEntity
  8
0
  6
Continuous
 62
     7
370
    25
100
AcDbCircle
 10
17.54037466559999
 20
289.3053875449
 30
0.0
 40
4.000000000003074
100
AcDbArc
 50
90.00007104579999
 51
269.999928954
  0
DIMENSION
  5
156
102
{ACAD_XDICTIONARY
360
21B
102
}
330
1F
100
AcDbEntity
  8
DIMENSION
100
AcDbDimension
280
     0
  2
*D16
 10
157.6161177943
 20
355.3829867233
 30
0.0
 11
67.0337916255
 21
355.3829867233
 31
0.0
 70
   160
  1
<>
 71
     2
 42
180.0
 73
     0
 74
     0
 75
     0
  3
RG Dimension Lines
100
AcDbAlignedDimension
 13
-22.3838822057
 23
323.7053875449
 33
0.0
 14
157.6161177943
 24
323.7053875449
 34
0.0
100
AcDbRotatedDimension
1001
AcadAnnotative
1000
AnnotativeData
1002
{
1070
     1
1070
     1
1002
}
  0
ENDSEC
  0
SECTION
  2
OBJECTS
  0
DICTIONARY
  5
C
330
0
100
AcDbDictionary
281
     1
  3
ACAD_CIP_PREVIOUS_PRODUCT_INFO
350
19E
  3
ACAD_COLOR
350
193
  3
ACAD_DETAILVIEWSTYLE
350
19A
  3
ACAD_GROUP
350
D
  3
ACAD_LAYOUT
350
1A
  3
ACAD_MATERIAL
350
161
  3
ACAD_MLEADERSTYLE
350
196
  3
ACAD_MLINESTYLE
350
17
  3
ACAD_PLOTSETTINGS
350
19
  3
ACAD_PLOTSTYLENAME
350
E
  3
ACAD_SCALELIST
350
47
  3
ACAD_SECTIONVIEWSTYLE
350
198
  3
ACAD_TABLESTYLE
350
194
  3
ACAD_VISUALSTYLE
350
17A
  3
ACDB_RECOMPOSE_DATA
350
23B
  3
AcDbVariableDictionary
350
22F
  0
DICTIONARY
  5
1B1
330
2
100
AcDbDictionary
280
     1
281
     1
  3
ACAD_LAYERSTATES
360
1B2
  0
DICTIONARY
  5
21F
330
10
100
AcDbDictionary
280
     1
281
     1
  3
ADSK_XREC_LAYER_RECONCILED
360
220
  0
DICTIONARY
  5
221
330
73
100
AcDbDictionary
280
     1
281
     1
  3
ADSK_XREC_LAYER_RECONCILED
360
222
  0
DICTIONARY
  5
223
330
1AA
100
AcDbDictionary
280
     1
281
     1
  3
ADSK_XREC_LAYER_RECONCILED
360
224
  0
DICTIONARY
  5
20D
330
D8
100
AcDbDictionary
280
     1
281
     1
  3
AcDbContextDataManager
360
20E
  0
DICTIONARY
  5
1FF
330
E5
100
AcDbDictionary
280
     1
281
     1
  3
AcDbContextDataManager
360
200
  0
DICTIONARY
  5
1F1
330
ED
100
AcDbDictionary
280
     1
281
     1
  3
AcDbContextDataManager
360
1F2
  0
DICTIONARY
  5
1E3
330
11F
100
AcDbDictionary
280
     1
281
     1
  3
AcDbContextDataManager
360
1E4
  0
DICTIONARY
  5
1D5
330
127
100
AcDbDictionary
280
     1
281
     1
  3
AcDbContextDataManager
360
1D6
  0
DICTIONARY
  5
21B
330
156
100
AcDbDictionary
280
     1
281
     1
  3
AcDbContextDataManager
360
21C
  0
XRECORD
  5
19E
102
{ACAD_REACTORS
330
C
102
}
330
C
100
AcDbXrecord
280
     1
300
ACD
300
2021
300

  0
DICTIONARY
  5
193
102
{ACAD_REACTORS
330
C
102
}
330
C
100
AcDbDictionary
281
     1
  0
DICTIONARY
  5
19A
102
{ACAD_REACTORS
330
C
102
}
330
C
100
AcDbDictionary
281
     1
  3
Metric50
350
19B
  0
DICTIONARY
  5
D
102
{ACAD_REACTORS
330
C
102
}
330
C
100
AcDbDictionary
281
     1
  0
DICTIONARY
  5
1A
102
{ACAD_REACTORS
330
C
102
}
330
C
100
AcDbDictionary
281
     1
  3
Layout1
350
1E
  3
Layout2
350
26
  3
Model
350
22
  0
DICTIONARY
  5
161
102
{ACAD_REACTORS
330
C
102
}
330
C
100
AcDbDictionary
281
     1
  3
ByBlock
350
16A
  3
ByLayer
350
162
  3
Global
350
172
  0
DICTIONARY
  5
196
102
{ACAD_REACTORS
330
C
102
}
330
C
100
AcDbDictionary
281
     1
  3
Standard
350
197
  0
DICTIONARY
  5
17
102
{ACAD_REACTORS
330
C
102
}
330
C
100
AcDbDictionary
281
     1
  3
Standard
350
18
  0
DICTIONARY
  5
19
102
{ACAD_REACTORS
330
C
102
}
330
C
100
AcDbDictionary
281
     1
  0
ACDBDICTIONARYWDFLT
  5
E
102
{ACAD_REACTORS
330
C
102
}
330
C
100
AcDbDictionary
281
     1
  3
Normal
350
F
100
AcDbDictionaryWithDefault
340
F
  0
DICTIONARY
  5
47
102
{ACAD_REACTORS
330
C
102
}
330
C
100
AcDbDictionary
281
     1
  3
A0
350
48
  3
A1
350
49
  3
A2
350
4A
  3
A3
350
4B
  3
A4
350
4C
  3
A5
350
4D
  3
A6
350
4E
  3
A7
350
4F
  3
A8
350
50
  3
A9
350
51
  3
B0
350
52
  3
B1
350
53
  3
B2
350
54
  3
B3
350
55
  3
B4
350
56
  3
B5
350
57
  3
B6
350
58
  3
B7
350
59
  3
B8
350
5A
  3
B9
350
5B
  3
C0
350
5C
  3
C1
350
5D
  3
C2
350
5E
  3
C3
350
5F
  3
C4
350
60
  3
C5
350
61
  3
C6
350
62
  3
C7
350
63
  3
C8
350
64
  3
C9
350
65
  3
D0
350
66
  3
D1
350
67
  3
D2
350
68
  0
DICTIONARY
  5
198
102
{ACAD_REACTORS
330
C
102
}
330
C
100
AcDbDictionary
281
     1
  3
Metric50
350
199
  0
DICTIONARY
  5
194
102
{ACAD_REACTORS
330
C
102
}
330
C
100
AcDbDictionary
281
     1
  3
Standard
350
195
  0
DICTIONARY
  5
17A
102
{ACAD_REACTORS
330
C
102
}
330
C
100
AcDbDictionary
281
     1
  3
2dWireframe
350
180
  3
Basic
350
17F
  3
Brighten
350
186
  3
ColorChange
350
18A
  3
Conceptual
350
183
  3
Dim
350
185
  3
EdgeColorOff
350
192
  3
Facepattern
350
189
  3
Flat
350
17B
  3
FlatWithEdges
350
17C
  3
Gouraud
350
17D
  3
GouraudWithEdges
350
17E
  3
Hidden
350
182
  3
JitterOff
350
190
  3
Linepattern
350
188
  3
OverhangOff
350
191
  3
Realistic
350
184
  3
Shaded
350
18F
  3
Shaded with edges
350
18E
  3
Shades of Gray
350
18B
  3
Sketchy
350
18C
  3
Thicken
350
187
  3
Wireframe
350
181
  3
X-Ray
350
18D
  0
XRECORD
  5
23B
102
{ACAD_REACTORS
330
C
102
}
330
C
100
AcDbXrecord
280
     1
 90
        1
330
195
  0
DICTIONARY
  5
22F
102
{ACAD_REACTORS
330
C
102
}
330
C
100
AcDbDictionary
281
     1
  3
CANNOSCALE
350
235
  3
CMLEADERSTYLE
350
231
  3
CTABLESTYLE
350
230
  3
CVIEWDETAILSTYLE
350
232
  3
CVIEWSECTIONSTYLE
350
233
  3
LAYEREVAL
350
237
  3
LAYERNOTIFY
350
238
  3
LIGHTINGUNITS
350
236
  3
MSLTSCALE
350
234
  0
DICTIONARY
  5
1B2
102
{ACAD_REACTORS
330
1B1
102
}
330
1B1
100
AcDbDictionary
281
     1
  0
XRECORD
  5
220
102
{ACAD_REACTORS
330
21F
102
}
330
21F
100
AcDbXrecord
280
     1
290
     1
  0
XRECORD
  5
222
102
{ACAD_REACTORS
330
221
102
}
330
221
100
AcDbXrecord
280
     1
290
     1
  0
XRECORD
  5
224
102
{ACAD_REACTORS
330
223
102
}
330
223
100
AcDbXrecord
280
     1
290
     1
  0
DICTIONARY
  5
20E
102
{ACAD_REACTORS
330
20D
102
}
330
20D
100
AcDbDictionary
281
     1
  3
ACDB_ANNOTATIONSCALES
350
20F
  0
DICTIONARY
  5
200
102
{ACAD_REACTORS
330
1FF
102
}
330
1FF
100
AcDbDictionary
281
     1
  3
ACDB_ANNOTATIONSCALES
350
201
  0
DICTIONARY
  5
1F2
102
{ACAD_REACTORS
330
1F1
102
}
330
1F1
100
AcDbDictionary
281
     1
  3
ACDB_ANNOTATIONSCALES
350
1F3
  0
DICTIONARY
  5
1E4
102
{ACAD_REACTORS
330
1E3
102
}
330
1E3
100
AcDbDictionary
281
     1
  3
ACDB_ANNOTATIONSCALES
350
1E5
  0
DICTIONARY
  5
1D6
102
{ACAD_REACTORS
330
1D5
102
}
330
1D5
100
AcDbDictionary
281
     1
  3
ACDB_ANNOTATIONSCALES
350
1D7
  0
DICTIONARY
  5
21C
102
{ACAD_REACTORS
330
21B
102
}
330
21B
100
AcDbDictionary
281
     1
  3
ACDB_ANNOTATIONSCALES
350
21D
  0
ACDBDETAILVIEWSTYLE
  5
19B
102
{ACAD_REACTORS
330
19A
102
}
330
19A
100
AcDbModelDocViewStyle
 70
     0
  3
Metric50
290
     0
300
Metric50
 90
        0
100
AcDbDetailViewStyle
 70
     0
 71
     0
 90
        3
 71
     1
340
11
 62
   256
 40
5.0
340
0
 62
   256
 40
5.0
300

 40
0.0
280
     1
 71
     2
340
16
 90
       25
 62
   256
 71
     3
340
11
 62
   256
 40
5.0
 90
        0
 40
15.0
 90
        1
300
%<\AcVar ViewDetailId>% (%<\AcVar ViewScale \f "%sn">%)
 71
     4
340
16
 90
       25
 62
   256
340
16
 90
       25
 62
   256
280
     0
  0
LAYOUT
  5
1E
102
{ACAD_REACTORS
330
1A
102
}
330
1A
100
AcDbPlotSettings
  1

  2
none_device
  4

  6

 40
0.0
 41
0.0
 42
0.0
 43
0.0
 44
0.0
 45
0.0
 46
0.0
 47
0.0
 48
0.0
 49
0.0
140
0.0
141
0.0
142
1.0
143
1.0
 70
   688
 72
     1
 73
     0
 74
     5
  7

 75
    16
147
1.0
 76
     0
 77
     2
 78
   300
148
0.0
149
0.0
100
AcDbLayout
  1
Layout1
 70
     1
 71
     1
 10
0.0
 20
0.0
 11
420.0
 21
297.0
 12
0.0
 22
0.0
 32
0.0
 14
1.000000000000000E+20
 24
1.000000000000000E+20
 34
1.000000000000000E+20
 15
-1.000000000000000E+20
 25
-1.000000000000000E+20
 35
-1.000000000000000E+20
146
0.0
 13
0.0
 23
0.0
 33
0.0
 16
1.0
 26
0.0
 36
0.0
 17
0.0
 27
1.0
 37
0.0
 76
     0
330
1B
  0
LAYOUT
  5
26
102
{ACAD_REACTORS
330
1A
102
}
330
1A
100
AcDbPlotSettings
  1

  2
none_device
  4

  6

 40
0.0
 41
0.0
 42
0.0
 43
0.0
 44
0.0
 45
0.0
 46
0.0
 47
0.0
 48
0.0
 49
0.0
140
0.0
141
0.0
142
1.0
143
1.0
 70
   688
 72
     1
 73
     0
 74
     5
  7

 75
    16
147
1.0
 76
     0
 77
     2
 78
   300
148
0.0
149
0.0
100
AcDbLayout
  1
Layout2
 70
     1
 71
     2
 10
0.0
 20
0.0
 11
0.0
 21
0.0
 12
0.0
 22
0.0
 32
0.0
 14
0.0
 24
0.0
 34
0.0
 15
0.0
 25
0.0
 35
0.0
146
0.0
 13
0.0
 23
0.0
 33
0.0
 16
1.0
 26
0.0
 36
0.0
 17
0.0
 27
1.0
 37
0.0
 76
     0
330
23
  0
LAYOUT
  5
22
102
{ACAD_REACTORS
330
1A
102
}
330
1A
100
AcDbPlotSettings
  1

  2
none_device
  4
Letter_(8.50_x_11.00_Inches)
  6

 40
6.349999999999999
 41
6.349999999999999
 42
6.350005079999999
 43
6.350005079999999
 44
215.9
 45
279.4
 46
0.0
 47
0.0
 48
0.0
 49
0.0
140
0.0
141
0.0
142
1.0
143
1.0
 70
  1712
 72
     1
 73
     0
 74
     0
  7

 75
     0
147
1.0
 76
     0
 77
     2
 78
   300
148
0.0
149
0.0
100
AcDbLayout
  1
Model
 70
     1
 71
     0
 10
0.0
 20
0.0
 11
420.0
 21
297.0
 12
0.0
 22
0.0
 32
0.0
 14
0.0
 24
0.0
 34
0.0
 15
420.0
 25
297.0
 35
0.0
146
0.0
 13
0.0
 23
0.0
 33
0.0
 16
1.0
 26
0.0
 36
0.0
 17
0.0
 27
1.0
 37
0.0
 76
     0
330
1F
331
29
  0
MATERIAL
  5
16A
102
{ACAD_XDICTIONARY
360
16B
102
}
102
{ACAD_REACTORS
330
161
102
}
330
161
100
AcDbMaterial
  1
ByBlock
 72
     0
 43
0.0008202099737533
 43
0.0
 43
0.0
 43
0.0
 43
0.0
 43
0.0008202099737533
 43
0.0
 43
0.0
 43
0.0
 43
0.0
 43
1.0
 43
0.0
 43
0.0
 43
0.0
 43
0.0
 43
1.0
 77
     0
 47
0.0008202099737533
 47
0.0
 47
0.0
 47
0.0
 47
0.0
 47
0.0008202099737533
 47
0.0
 47
0.0
 47
0.0
 47
0.0
 47
1.0
 47
0.0
 47
0.0
 47
0.0
 47
0.0
 47
1.0
171
     0
 49
0.0008202099737533
 49
0.0
 49
0.0
 49
0.0
 49
0.0
 49
0.0008202099737533
 49
0.0
 49
0.0
 49
0.0
 49
0.0
 49
1.0
 49
0.0
 49
0.0
 49
0.0
 49
0.0
 49
1.0
175
     0
142
0.0008202099737533
142
0.0
142
0.0
142
0.0
142
0.0
142
0.0008202099737533
142
0.0
142
0.0
142
0.0
142
0.0
142
1.0
142
0.0
142
0.0
142
0.0
142
0.0
142
1.0
179
     0
144
0.0008202099737533
144
0.0
144
0.0
144
0.0
144
0.0
144
0.0008202099737533
144
0.0
144
0.0
144
0.0
144
0.0
144
1.0
144
0.0
144
0.0
144
0.0
144
0.0
144
1.0
147
0.0008202099737533
147
0.0
147
0.0
147
0.0
147
0.0
147
0.0008202099737533
147
0.0
147
0.0
147
0.0
147
0.0
147
1.0
147
0.0
147
0.0
147
0.0
147
0.0
147
1.0
  0
MATERIAL
  5
162
102
{ACAD_XDICTIONARY
360
163
102
}
102
{ACAD_REACTORS
330
161
102
}
330
161
100
AcDbMaterial
  1
ByLayer
 72
     0
 43
0.0008202099737533
 43
0.0
 43
0.0
 43
0.0
 43
0.0
 43
0.0008202099737533
 43
0.0
 43
0.0
 43
0.0
 43
0.0
 43
1.0
 43
0.0
 43
0.0
 43
0.0
 43
0.0
 43
1.0
 77
     0
 47
0.0008202099737533
 47
0.0
 47
0.0
 47
0.0
 47
0.0
 47
0.0008202099737533
 47
0.0
 47
0.0
 47
0.0
 47
0.0
 47
1.0
 47
0.0
 47
0.0
 47
0.0
 47
0.0
 47
1.0
171
     0
 49
0.0008202099737533
 49
0.0
 49
0.0
 49
0.0
 49
0.0
 49
0.0008202099737533
 49
0.0
 49
0.0
 49
0.0
 49
0.0
 49
1.0
 49
0.0
 49
0.0
 49
0.0
 49
0.0
 49
1.0
175
     0
142
0.0008202099737533
142
0.0
142
0.0
142
0.0
142
0.0
142
0.0008202099737533
142
0.0
142
0.0
142
0.0
142
0.0
142
1.0
142
0.0
142
0.0
142
0.0
142
0.0
142
1.0
179
     0
144
0.0008202099737533
144
0.0
144
0.0
144
0.0
144
0.0
144
0.0008202099737533
144
0.0
144
0.0
144
0.0
144
0.0
144
1.0
144
0.0
144
0.0
144
0.0
144
0.0
144
1.0
147
0.0008202099737533
147
0.0
147
0.0
147
0.0
147
0.0
147
0.0008202099737533
147
0.0
147
0.0
147
0.0
147
0.0
147
1.0
147
0.0
147
0.0
147
0.0
147
0.0
147
1.0
  0
MATERIAL
  5
172
102
{ACAD_XDICTIONARY
360
173
102
}
102
{ACAD_REACTORS
330
161
102
}
330
161
100
AcDbMaterial
  1
Global
 72
     0
 43
0.0008202099737533
 43
0.0
 43
0.0
 43
0.0
 43
0.0
 43
0.0008202099737533
 43
0.0
 43
0.0
 43
0.0
 43
0.0
 43
1.0
 43
0.0
 43
0.0
 43
0.0
 43
0.0
 43
1.0
 77
     0
 47
0.0008202099737533
 47
0.0
 47
0.0
 47
0.0
 47
0.0
 47
0.0008202099737533
 47
0.0
 47
0.0
 47
0.0
 47
0.0
 47
1.0
 47
0.0
 47
0.0
 47
0.0
 47
0.0
 47
1.0
171
     0
 49
0.0008202099737533
 49
0.0
 49
0.0
 49
0.0
 49
0.0
 49
0.0008202099737533
 49
0.0
 49
0.0
 49
0.0
 49
0.0
 49
1.0
 49
0.0
 49
0.0
 49
0.0
 49
0.0
 49
1.0
175
     0
142
0.0008202099737533
142
0.0
142
0.0
142
0.0
142
0.0
142
0.0008202099737533
142
0.0
142
0.0
142
0.0
142
0.0
142
1.0
142
0.0
142
0.0
142
0.0
142
0.0
142
1.0
179
     0
144
0.0008202099737533
144
0.0
144
0.0
144
0.0
144
0.0
144
0.0008202099737533
144
0.0
144
0.0
144
0.0
144
0.0
144
1.0
144
0.0
144
0.0
144
0.0
144
0.0
144
1.0
147
0.0008202099737533
147
0.0
147
0.0
147
0.0
147
0.0
147
0.0008202099737533
147
0.0
147
0.0
147
0.0
147
0.0
147
1.0
147
0.0
147
0.0
147
0.0
147
0.0
147
1.0
  0
MLEADERSTYLE
  5
197
102
{ACAD_REACTORS
330
196
102
}
330
196
100
AcDbMLeaderStyle
179
     2
170
     2
171
     1
172
     0
 90
        2
 40
0.0
 41
0.0
173
     1
 91
-1056964608
340
14
 92
       -2
290
     1
 42
2.0
291
     1
 43
0.36
  3
Standard
 44
4.0
300

342
11
174
     1
178
     6
175
     1
176
     0
 93
-1056964608
 45
4.0
292
     0
297
     0
 46
4.0
 94
-1056964608
 47
1.0
 49
1.0
140
1.0
293
     1
141
0.0
294
     1
177
     0
142
1.0
295
     0
296
     0
143
0.125
271
     0
272
     9
273
     9
298
     0
  0
MLINESTYLE
  5
18
102
{ACAD_REACTORS
330
17
102
}
330
17
100
AcDbMlineStyle
  2
STANDARD
 70
     0
  3

 62
   256
 51
90.0
 52
90.0
 71
     2
 49
0.5
 62
   256
  6
BYLAYER
 49
-0.5
 62
   256
  6
BYLAYER
  0
ACDBPLACEHOLDER
  5
F
102
{ACAD_REACTORS
330
E
102
}
330
E
  0
SCALE
  5
48
102
{ACAD_REACTORS
330
47
102
}
330
47
100
AcDbScale
 70
     0
300
1:1
140
1.0
141
1.0
290
     1
  0
SCALE
  5
49
102
{ACAD_REACTORS
330
47
102
}
330
47
100
AcDbScale
 70
     0
300
1:2
140
1.0
141
2.0
290
     0
  0
SCALE
  5
4A
102
{ACAD_REACTORS
330
47
102
}
330
47
100
AcDbScale
 70
     0
300
1:4
140
1.0
141
4.0
290
     0
  0
SCALE
  5
4B
102
{ACAD_REACTORS
330
47
102
}
330
47
100
AcDbScale
 70
     0
300
1:5
140
1.0
141
5.0
290
     0
  0
SCALE
  5
4C
102
{ACAD_REACTORS
330
47
102
}
330
47
100
AcDbScale
 70
     0
300
1:8
140
1.0
141
8.0
290
     0
  0
SCALE
  5
4D
102
{ACAD_REACTORS
330
47
102
}
330
47
100
AcDbScale
 70
     0
300
1:10
140
1.0
141
10.0
290
     0
  0
SCALE
  5
4E
102
{ACAD_REACTORS
330
47
102
}
330
47
100
AcDbScale
 70
     0
300
1:16
140
1.0
141
16.0
290
     0
  0
SCALE
  5
4F
102
{ACAD_REACTORS
330
47
102
}
330
47
100
AcDbScale
 70
     0
300
1:20
140
1.0
141
20.0
290
     0
  0
SCALE
  5
50
102
{ACAD_REACTORS
330
47
102
}
330
47
100
AcDbScale
 70
     0
300
1:30
140
1.0
141
30.0
290
     0
  0
SCALE
  5
51
102
{ACAD_REACTORS
330
47
102
}
330
47
100
AcDbScale
 70
     0
300
1:40
140
1.0
141
40.0
290
     0
  0
SCALE
  5
52
102
{ACAD_REACTORS
330
47
102
}
330
47
100
AcDbScale
 70
     0
300
1:50
140
1.0
141
50.0
290
     0
  0
SCALE
  5
53
102
{ACAD_REACTORS
330
47
102
}
330
47
100
AcDbScale
 70
     0
300
1:100
140
1.0
141
100.0
290
     0
  0
SCALE
  5
54
102
{ACAD_REACTORS
330
47
102
}
330
47
100
AcDbScale
 70
     0
300
2:1
140
2.0
141
1.0
290
     0
  0
SCALE
  5
55
102
{ACAD_REACTORS
330
47
102
}
330
47
100
AcDbScale
 70
     0
300
4:1
140
4.0
141
1.0
290
     0
  0
SCALE
  5
56
102
{ACAD_REACTORS
330
47
102
}
330
47
100
AcDbScale
 70
     0
300
8:1
140
8.0
141
1.0
290
     0
  0
SCALE
  5
57
102
{ACAD_REACTORS
330
47
102
}
330
47
100
AcDbScale
 70
     0
300
10:1
140
10.0
141
1.0
290
     0
  0
SCALE
  5
58
102
{ACAD_REACTORS
330
47
102
}
330
47
100
AcDbScale
 70
     0
300
100:1
140
100.0
141
1.0
290
     0
  0
SCALE
  5
59
102
{ACAD_REACTORS
330
47
102
}
330
47
100
AcDbScale
 70
     0
300
1/128" = 1'-0"
140
0.0078125
141
12.0
290
     0
  0
SCALE
  5
5A
102
{ACAD_REACTORS
330
47
102
}
330
47
100
AcDbScale
 70
     0
300
1/64" = 1'-0"
140
0.015625
141
12.0
290
     0
  0
SCALE
  5
5B
102
{ACAD_REACTORS
330
47
102
}
330
47
100
AcDbScale
 70
     0
300
1/32" = 1'-0"
140
0.03125
141
12.0
290
     0
  0
SCALE
  5
5C
102
{ACAD_REACTORS
330
47
102
}
330
47
100
AcDbScale
 70
     0
300
1/16" = 1'-0"
140
0.0625
141
12.0
290
     0
  0
SCALE
  5
5D
102
{ACAD_REACTORS
330
47
102
}
330
47
100
AcDbScale
 70
     0
300
3/32" = 1'-0"
140
0.09375
141
12.0
290
     0
  0
SCALE
  5
5E
102
{ACAD_REACTORS
330
47
102
}
330
47
100
AcDbScale
 70
     0
300
1/8" = 1'-0"
140
0.125
141
12.0
290
     0
  0
SCALE
  5
5F
102
{ACAD_REACTORS
330
47
102
}
330
47
100
AcDbScale
 70
     0
300
3/16" = 1'-0"
140
0.1875
141
12.0
290
     0
  0
SCALE
  5
60
102
{ACAD_REACTORS
330
47
102
}
330
47
100
AcDbScale
 70
     0
300
1/4" = 1'-0"
140
0.25
141
12.0
290
     0
  0
SCALE
  5
61
102
{ACAD_REACTORS
330
47
102
}
330
47
100
AcDbScale
 70
     0
300
3/8" = 1'-0"
140
0.375
141
12.0
290
     0
  0
SCALE
  5
62
102
{ACAD_REACTORS
330
47
102
}
330
47
100
AcDbScale
 70
     0
300
1/2" = 1'-0"
140
0.5
141
12.0
290
     0
  0
SCALE
  5
63
102
{ACAD_REACTORS
330
47
102
}
330
47
100
AcDbScale
 70
     0
300
3/4" = 1'-0"
140
0.75
141
12.0
290
     0
  0
SCALE
  5
64
102
{ACAD_REACTORS
330
47
102
}
330
47
100
AcDbScale
 70
     0
300
1" = 1'-0"
140
1.0
141
12.0
290
     0
  0
SCALE
  5
65
102
{ACAD_REACTORS
330
47
102
}
330
47
100
AcDbScale
 70
     0
300
1-1/2" = 1'-0"
140
1.5
141
12.0
290
     0
  0
SCALE
  5
66
102
{ACAD_REACTORS
330
47
102
}
330
47
100
AcDbScale
 70
     0
300
3" = 1'-0"
140
3.0
141
12.0
290
     0
  0
SCALE
  5
67
102
{ACAD_REACTORS
330
47
102
}
330
47
100
AcDbScale
 70
     0
300
6" = 1'-0"
140
6.0
141
12.0
290
     0
  0
SCALE
  5
68
102
{ACAD_REACTORS
330
47
102
}
330
47
100
AcDbScale
 70
     0
300
1'-0" = 1'-0"
140
12.0
141
12.0
290
     0
  0
ACDBSECTIONVIEWSTYLE
  5
199
102
{ACAD_REACTORS
330
198
102
}
330
198
100
AcDbModelDocViewStyle
 70
     0
  3
Metric50
290
     0
300
Metric50
 90
        0
100
AcDbSectionViewStyle
 70
     0
 71
     0
 90
      102
 71
     1
340
11
 62
   256
 40
5.0
340
0
340
0
 62
   256
 40
5.0
300
I, O, Q, S, X, Z
 40
10.0
 90
        0
 40
2.5
 90
        0
 71
     2
340
16
 90
       25
 62
   256
340
16
 90
       50
 62
   256
 40
5.0
 40
2.5
 40
5.0
 71
     3
340
11
 62
   256
 40
5.0
 90
        0
 40
15.0
 90
        1
300
%<\AcVar ViewSectionStartId>%-%<\AcVar ViewSectionEndId>% (%<\AcVar ViewScale \f "%sn">%)
 71
     4
 62
   256
 62
   257
300
ANSI31
 40
1.0
 90
        0
290
     0
290
     0
 90
        6
 40
0.0
 40
1.570796326794896
 40
0.2617993877991494
 40
1.308996938995747
 40
-0.2617993877991494
 40
1.832595714594046
  0
TABLESTYLE
  5
195
102
{ACAD_XDICTIONARY
360
239
102
}
102
{ACAD_REACTORS
330
194
102
}
330
194
100
AcDbTableStyle
280
     0
  3
Standard
 70
     0
 71
     0
 40
1.5
 41
1.5
280
     0
281
     0
  7
Standard
140
4.5
170
     2
 62
     0
 63
     7
283
     0
 90
      512
 91
        0
  1

274
    -2
284
     1
 64
     0
275
    -2
285
     1
 65
     0
276
    -2
286
     1
 66
     0
277
    -2
287
     1
 67
     0
278
    -2
288
     1
 68
     0
279
    -2
289
     1
 69
     0
  7
Standard
140
6.0
170
     5
 62
     0
 63
     7
283
     0
 90
      512
 91
        0
  1

274
    -2
284
     1
 64
     0
275
    -2
285
     1
 65
     0
276
    -2
286
     1
 66
     0
277
    -2
287
     1
 67
     0
278
    -2
288
     1
 68
     0
279
    -2
289
     1
 69
     0
  7
Standard
140
4.5
170
     5
 62
     0
 63
     7
283
     0
 90
      512
 91
        0
  1

274
    -2
284
     1
 64
     0
275
    -2
285
     1
 65
     0
276
    -2
286
     1
 66
     0
277
    -2
287
     1
 67
     0
278
    -2
288
     1
 68
     0
279
    -2
289
     1
 69
     0
  0
VISUALSTYLE
  5
180
102
{ACAD_REACTORS
330
17A
102
}
330
17A
100
AcDbVisualStyle
  2
2dWireframe
 70
     4
177
     3
291
     0
 70
    58
 90
        0
176
     1
 90
        2
176
     1
 90
        0
176
     1
 90
        0
176
     1
 40
0.6
176
     1
 40
30.0
176
     1
 62
     7
420
 16777215
176
     1
 90
        1
176
     1
 90
        4
176
     1
 62
     7
176
     1
 62
   257
176
     1
 90
        1
176
     1
 90
        1
176
     1
 40
1.0
176
     1
 90
        0
176
     1
 62
   257
176
     1
 40
1.0
176
     1
 90
        1
176
     1
 90
        6
176
     1
 90
        2
176
     1
 62
     7
176
     1
 90
        5
176
     1
 90
        0
176
     1
 90
        0
176
     1
290
     0
176
     1
 90
        1
176
     1
 40
0.0
176
     1
 90
        0
176
     1
290
     1
176
     1
290
     1
176
     1
290
     0
176
     1
290
     0
176
     1
290
     0
176
     1
290
     0
176
     1
290
     0
176
     1
290
     0
176
     1
290
     0
176
     1
 90
       50
176
     1
 40
0.0
176
     1
 40
1.0
176
     1
 90
        0
176
     1
 62
    18
420
        0
176
     1
 90
       50
176
     1
 90
        3
176
     1
 62
     5
420
      255
176
     1
290
     0
176
     1
 90
       50
176
     1
 90
       50
176
     1
 90
       50
176
     1
290
     0
176
     1
 90
       50
176
     1
 62
   256
176
     0
 40
1.0
176
     0
 90
        2
176
     1
  1
strokes_ogs.tif
176
     1
290
     0
176
     1
 40
1.0
176
     1
 40
1.0
176
     1
  0
VISUALSTYLE
  5
17F
102
{ACAD_REACTORS
330
17A
102
}
330
17A
100
AcDbVisualStyle
  2
Basic
 70
     7
177
     3
291
     1
 70
    58
 90
        1
176
     1
 90
        0
176
     1
 90
        1
176
     1
 90
        0
176
     1
 40
0.6
176
     1
 40
30.0
176
     1
 62
     7
420
 16777215
176
     1
 90
        0
176
     1
 90
        4
176
     1
 62
     7
176
     1
 62
   257
176
     1
 90
        1
176
     1
 90
        1
176
     1
 40
1.0
176
     1
 90
        8
176
     1
 62
     7
176
     1
 40
1.0
176
     1
 90
        1
176
     1
 90
        6
176
     1
 90
        2
176
     1
 62
     7
176
     1
 90
        5
176
     1
 90
        0
176
     1
 90
        0
176
     1
290
     0
176
     1
 90
        1
176
     1
 40
0.0
176
     1
 90
        0
176
     1
290
     0
176
     1
290
     1
176
     1
290
     1
176
     1
290
     0
176
     1
290
     0
176
     1
290
     0
176
     1
290
     0
176
     1
290
     0
176
     1
290
     0
176
     1
 90
       50
176
     1
 40
0.0
176
     1
 40
1.0
176
     1
 90
        0
176
     1
 62
    18
420
        0
176
     1
 90
       50
176
     1
 90
        3
176
     1
 62
     5
420
      255
176
     1
290
     0
176
     1
 90
       50
176
     1
 90
       50
176
     1
 90
       50
176
     1
290
     0
176
     1
 90
       50
176
     1
 62
   256
176
     0
 40
1.0
176
     0
 90
        2
176
     1
  1
strokes_ogs.tif
176
     1
290
     0
176
     1
 40
1.0
176
     1
 40
1.0
176
     1
  0
VISUALSTYLE
  5
186
102
{ACAD_REACTORS
330
17A
102
}
330
17A
100
AcDbVisualStyle
  2
Brighten
 70
    12
177
     3
291
     1
 70
    58
 90
        2
176
     1
 90
        2
176
     1
 90
        0
176
     1
 90
        0
176
     1
 40
0.6
176
     1
 40
30.0
176
     1
 62
     7
420
 16777215
176
     1
 90
        1
176
     1
 90
        4
176
     1
 62
     7
176
     1
 62
   257
176
     1
 90
        1
176
     1
 90
        1
176
     1
 40
1.0
176
     1
 90
        8
176
     1
 62
     7
176
     1
 40
1.0
176
     1
 90
        1
176
     1
 90
        6
176
     1
 90
        2
176
     1
 62
     7
176
     1
 90
        5
176
     1
 90
        0
176
     1
 90
        0
176
     1
290
     0
176
     1
 90
        1
176
     1
 40
50.0
176
     1
 90
        0
176
     1
290
     0
176
     1
290
     1
176
     1
290
     1
176
     1
290
     0
176
     1
290
     0
176
     1
290
     0
176
     1
290
     0
176
     1
290
     0
176
     1
290
     0
176
     1
 90
       50
176
     1
 40
0.0
176
     1
 40
1.0
176
     1
 90
        0
176
     1
 62
    18
420
        0
176
     1
 90
       50
176
     1
 90
        3
176
     1
 62
     5
420
      255
176
     1
290
     0
176
     1
 90
       50
176
     1
 90
       50
176
     1
 90
       50
176
     1
290
     0
176
     1
 90
       50
176
     1
 62
   256
176
     0
 40
1.0
176
     0
 90
        2
176
     1
  1
strokes_ogs.tif
176
     1
290
     0
176
     1
 40
1.0
176
     1
 40
1.0
176
     1
  0
VISUALSTYLE
  5
18A
102
{ACAD_REACTORS
330
17A
102
}
330
17A
100
AcDbVisualStyle
  2
ColorChange
 70
    16
177
     3
291
     1
 70
    58
 90
        2
176
     1
 90
        2
176
     1
 90
        3
176
     1
 90
        0
176
     1
 40
0.6
176
     1
 40
30.0
176
     1
 62
     8
420
  8421504
176
     1
 90
        1
176
     1
 90
        4
176
     1
 62
     7
176
     1
 62
   257
176
     1
 90
        1
176
     1
 90
        1
176
     1
 40
1.0
176
     1
 90
        8
176
     1
 62
     8
420
  8421504
176
     1
 40
1.0
176
     1
 90
        1
176
     1
 90
        6
176
     1
 90
        2
176
     1
 62
     7
176
     1
 90
        5
176
     1
 90
        0
176
     1
 90
        0
176
     1
290
     0
176
     1
 90
        1
176
     1
 40
0.0
176
     1
 90
        0
176
     1
290
     0
176
     1
290
     1
176
     1
290
     1
176
     1
290
     0
176
     1
290
     0
176
     1
290
     0
176
     1
290
     0
176
     1
290
     0
176
     1
290
     0
176
     1
 90
       50
176
     1
 40
0.0
176
     1
 40
1.0
176
     1
 90
        0
176
     1
 62
    18
420
        0
176
     1
 90
       50
176
     1
 90
        3
176
     1
 62
     5
420
      255
176
     1
290
     0
176
     1
 90
       50
176
     1
 90
       50
176
     1
 90
       50
176
     1
290
     0
176
     1
 90
       50
176
     1
 62
   256
176
     0
 40
1.0
176
     0
 90
        2
176
     1
  1
strokes_ogs.tif
176
     1
290
     0
176
     1
 40
1.0
176
     1
 40
1.0
176
     1
  0
VISUALSTYLE
  5
183
102
{ACAD_REACTORS
330
17A
102
}
330
17A
100
AcDbVisualStyle
  2
Conceptual
 70
     9
177
     3
291
     0
 70
    58
 90
        3
176
     1
 90
        2
176
     1
 90
        0
176
     1
 90
        0
176
     1
 40
0.6
176
     1
 40
30.0
176
     1
 62
     7
420
 16777215
176
     1
 90
        2
176
     1
 90
        2
176
     1
 62
     7
176
     1
 62
   257
176
     1
 90
        1
176
     1
 90
        1
176
     1
 40
179.0
176
     1
 90
        8
176
     1
 62
     7
176
     1
 40
1.0
176
     1
 90
        1
176
     1
 90
        6
176
     1
 90
        2
176
     1
 62
     7
176
     1
 90
        3
176
     1
 90
        0
176
     1
 90
        0
176
     1
290
     0
176
     1
 90
        1
176
     1
 40
0.0
176
     1
 90
        0
176
     1
290
     0
176
     1
290
     1
176
     1
290
     1
176
     1
290
     0
176
     1
290
     0
176
     1
290
     0
176
     1
290
     0
176
     1
290
     0
176
     1
290
     0
176
     1
 90
       50
176
     1
 40
0.0
176
     1
 40
1.0
176
     1
 90
        0
176
     1
 62
    18
420
        0
176
     1
 90
       50
176
     1
 90
        3
176
     1
 62
     5
420
      255
176
     1
290
     0
176
     1
 90
       50
176
     1
 90
       50
176
     1
 90
       50
176
     1
290
     0
176
     1
 90
       50
176
     1
 62
   256
176
     0
 40
1.0
176
     0
 90
        2
176
     1
  1
strokes_ogs.tif
176
     1
290
     0
176
     1
 40
1.0
176
     1
 40
1.0
176
     1
  0
VISUALSTYLE
  5
185
102
{ACAD_REACTORS
330
17A
102
}
330
17A
100
AcDbVisualStyle
  2
Dim
 70
    11
177
     3
291
     1
 70
    58
 90
        2
176
     1
 90
        2
176
     1
 90
        0
176
     1
 90
        0
176
     1
 40
0.6
176
     1
 40
30.0
176
     1
 62
     7
420
 16777215
176
     1
 90
        1
176
     1
 90
        4
176
     1
 62
     7
176
     1
 62
   257
176
     1
 90
        1
176
     1
 90
        1
176
     1
 40
1.0
176
     1
 90
        8
176
     1
 62
     7
176
     1
 40
1.0
176
     1
 90
        1
176
     1
 90
        6
176
     1
 90
        2
176
     1
 62
     7
176
     1
 90
        5
176
     1
 90
        0
176
     1
 90
        0
176
     1
290
     0
176
     1
 90
        1
176
     1
 40
-50.0
176
     1
 90
        0
176
     1
290
     0
176
     1
290
     1
176
     1
290
     1
176
     1
290
     0
176
     1
290
     0
176
     1
290
     0
176
     1
290
     0
176
     1
290
     0
176
     1
290
     0
176
     1
 90
       50
176
     1
 40
0.0
176
     1
 40
1.0
176
     1
 90
        0
176
     1
 62
    18
420
        0
176
     1
 90
       50
176
     1
 90
        3
176
     1
 62
     5
420
      255
176
     1
290
     0
176
     1
 90
       50
176
     1
 90
       50
176
     1
 90
       50
176
     1
290
     0
176
     1
 90
       50
176
     1
 62
   256
176
     0
 40
1.0
176
     0
 90
        2
176
     1
  1
strokes_ogs.tif
176
     1
290
     0
176
     1
 40
1.0
176
     1
 40
1.0
176
     1
  0
VISUALSTYLE
  5
192
102
{ACAD_REACTORS
330
17A
102
}
330
17A
100
AcDbVisualStyle
  2
EdgeColorOff
 70
    22
177
     3
291
     1
 70
    58
 90
        2
176
     0
 90
        2
176
     0
 90
        0
176
     0
 90
        0
176
     0
 40
0.6
176
     0
 40
30.0
176
     0
 62
     7
420
 16777215
176
     0
 90
        1
176
     0
 90
        4
176
     0
 62
     7
176
     0
 62
   257
176
     0
 90
        1
176
     0
 90
        1
176
     0
 40
1.0
176
     0
 90
        8
176
     2
 62
     7
176
     0
 40
1.0
176
     0
 90
        1
176
     0
 90
        6
176
     0
 90
        2
176
     0
 62
     7
176
     0
 90
        5
176
     0
 90
        0
176
     0
 90
        0
176
     0
290
     0
176
     0
 90
        1
176
     0
 40
0.0
176
     0
 90
        0
176
     0
290
     0
176
     1
290
     1
176
     1
290
     1
176
     1
290
     0
176
     1
290
     0
176
     1
290
     0
176
     1
290
     0
176
     1
290
     0
176
     1
290
     0
176
     1
 90
       50
176
     0
 40
0.0
176
     0
 40
1.0
176
     0
 90
        0
176
     0
 62
    18
420
        0
176
     0
 90
       50
176
     0
 90
        3
176
     0
 62
     5
420
      255
176
     0
290
     0
176
     1
 90
       50
176
     0
 90
       50
176
     0
 90
       50
176
     0
290
     0
176
     1
 90
       50
176
     0
 62
   256
176
     0
 40
1.0
176
     0
 90
        2
176
     0
  1
strokes_ogs.tif
176
     0
290
     0
176
     1
 40
1.0
176
     0
 40
1.0
176
     0
  0
VISUALSTYLE
  5
189
102
{ACAD_REACTORS
330
17A
102
}
330
17A
100
AcDbVisualStyle
  2
Facepattern
 70
    15
177
     3
291
     1
 70
    58
 90
        2
176
     1
 90
        2
176
     1
 90
        0
176
     1
 90
        0
176
     1
 40
0.6
176
     1
 40
30.0
176
     1
 62
     7
420
 16777215
176
     1
 90
        1
176
     1
 90
        4
176
     1
 62
     7
176
     1
 62
   257
176
     1
 90
        1
176
     1
 90
        1
176
     1
 40
1.0
176
     1
 90
        8
176
     1
 62
     7
176
     1
 40
1.0
176
     1
 90
        1
176
     1
 90
        6
176
     1
 90
        2
176
     1
 62
     7
176
     1
 90
        5
176
     1
 90
        0
176
     1
 90
        0
176
     1
290
     0
176
     1
 90
        1
176
     1
 40
0.0
176
     1
 90
        0
176
     1
290
     0
176
     1
290
     1
176
     1
290
     1
176
     1
290
     0
176
     1
290
     0
176
     1
290
     0
176
     1
290
     0
176
     1
290
     0
176
     1
290
     0
176
     1
 90
       50
176
     1
 40
0.0
176
     1
 40
1.0
176
     1
 90
        0
176
     1
 62
    18
420
        0
176
     1
 90
       50
176
     1
 90
        3
176
     1
 62
     5
420
      255
176
     1
290
     0
176
     1
 90
       50
176
     1
 90
       50
176
     1
 90
       50
176
     1
290
     0
176
     1
 90
       50
176
     1
 62
   256
176
     0
 40
1.0
176
     0
 90
        2
176
     1
  1
strokes_ogs.tif
176
     1
290
     0
176
     1
 40
1.0
176
     1
 40
1.0
176
     1
  0
VISUALSTYLE
  5
17B
102
{ACAD_REACTORS
330
17A
102
}
330
17A
100
AcDbVisualStyle
  2
Flat
 70
     0
177
     3
291
     1
 70
    58
 90
        2
176
     1
 90
        1
176
     1
 90
        1
176
     1
 90
        2
176
     1
 40
0.6
176
     1
 40
30.0
176
     1
 62
     7
420
 16777215
176
     1
 90
        0
176
     1
 90
        0
176
     1
 62
     7
176
     1
 62
   257
176
     1
 90
        1
176
     1
 90
        1
176
     1
 40
1.0
176
     1
 90
        8
176
     1
 62
     7
176
     1
 40
1.0
176
     1
 90
        1
176
     1
 90
        6
176
     1
 90
        2
176
     1
 62
     7
176
     1
 90
        5
176
     1
 90
        0
176
     1
 90
        0
176
     1
290
     0
176
     1
 90
       13
176
     1
 40
0.0
176
     1
 90
        0
176
     1
290
     0
176
     1
290
     1
176
     1
290
     1
176
     1
290
     0
176
     1
290
     0
176
     1
290
     0
176
     1
290
     0
176
     1
290
     0
176
     1
290
     0
176
     1
 90
       50
176
     1
 40
0.0
176
     1
 40
1.0
176
     1
 90
        0
176
     1
 62
    18
420
        0
176
     1
 90
       50
176
     1
 90
        3
176
     1
 62
     5
420
      255
176
     1
290
     0
176
     1
 90
       50
176
     1
 90
       50
176
     1
 90
       50
176
     1
290
     0
176
     1
 90
       50
176
     1
 62
   256
176
     0
 40
1.0
176
     0
 90
        2
176
     1
  1
strokes_ogs.tif
176
     1
290
     0
176
     1
 40
1.0
176
     1
 40
1.0
176
     1
  0
VISUALSTYLE
  5
17C
102
{ACAD_REACTORS
330
17A
102
}
330
17A
100
AcDbVisualStyle
  2
FlatWithEdges
 70
     1
177
     3
291
     1
 70
    58
 90
        2
176
     1
 90
        1
176
     1
 90
        1
176
     1
 90
        2
176
     1
 40
0.6
176
     1
 40
30.0
176
     1
 62
     7
420
 16777215
176
     1
 90
        1
176
     1
 90
        0
176
     1
 62
     7
176
     1
 62
   257
176
     1
 90
        1
176
     1
 90
        1
176
     1
 40
1.0
176
     1
 90
        0
176
     1
 62
   257
176
     1
 40
1.0
176
     1
 90
        1
176
     1
 90
        6
176
     1
 90
        2
176
     1
 62
     7
176
     1
 90
        5
176
     1
 90
        0
176
     1
 90
        0
176
     1
290
     0
176
     1
 90
       13
176
     1
 40
0.0
176
     1
 90
        0
176
     1
290
     0
176
     1
290
     1
176
     1
290
     1
176
     1
290
     0
176
     1
290
     0
176
     1
290
     0
176
     1
290
     0
176
     1
290
     0
176
     1
290
     0
176
     1
 90
       50
176
     1
 40
0.0
176
     1
 40
1.0
176
     1
 90
        0
176
     1
 62
    18
420
        0
176
     1
 90
       50
176
     1
 90
        3
176
     1
 62
     5
420
      255
176
     1
290
     0
176
     1
 90
       50
176
     1
 90
       50
176
     1
 90
       50
176
     1
290
     0
176
     1
 90
       50
176
     1
 62
   256
176
     0
 40
1.0
176
     0
 90
        2
176
     1
  1
strokes_ogs.tif
176
     1
290
     0
176
     1
 40
1.0
176
     1
 40
1.0
176
     1
  0
VISUALSTYLE
  5
17D
102
{ACAD_REACTORS
330
17A
102
}
330
17A
100
AcDbVisualStyle
  2
Gouraud
 70
     2
177
     3
291
     1
 70
    58
 90
        2
176
     1
 90
        2
176
     1
 90
        1
176
     1
 90
        2
176
     1
 40
0.6
176
     1
 40
30.0
176
     1
 62
     7
420
 16777215
176
     1
 90
        0
176
     1
 90
        0
176
     1
 62
     7
176
     1
 62
   257
176
     1
 90
        1
176
     1
 90
        1
176
     1
 40
1.0
176
     1
 90
        0
176
     1
 62
     7
176
     1
 40
1.0
176
     1
 90
        1
176
     1
 90
        6
176
     1
 90
        2
176
     1
 62
     7
176
     1
 90
        5
176
     1
 90
        0
176
     1
 90
        0
176
     1
290
     0
176
     1
 90
       13
176
     1
 40
0.0
176
     1
 90
        0
176
     1
290
     0
176
     1
290
     1
176
     1
290
     1
176
     1
290
     0
176
     1
290
     0
176
     1
290
     0
176
     1
290
     0
176
     1
290
     0
176
     1
290
     0
176
     1
 90
       50
176
     1
 40
0.0
176
     1
 40
1.0
176
     1
 90
        0
176
     1
 62
    18
420
        0
176
     1
 90
       50
176
     1
 90
        3
176
     1
 62
     5
420
      255
176
     1
290
     0
176
     1
 90
       50
176
     1
 90
       50
176
     1
 90
       50
176
     1
290
     0
176
     1
 90
       50
176
     1
 62
   256
176
     0
 40
1.0
176
     0
 90
        2
176
     1
  1
strokes_ogs.tif
176
     1
290
     0
176
     1
 40
1.0
176
     1
 40
1.0
176
     1
  0
VISUALSTYLE
  5
17E
102
{ACAD_REACTORS
330
17A
102
}
330
17A
100
AcDbVisualStyle
  2
GouraudWithEdges
 70
     3
177
     3
291
     1
 70
    58
 90
        2
176
     1
 90
        2
176
     1
 90
        1
176
     1
 90
        2
176
     1
 40
0.6
176
     1
 40
30.0
176
     1
 62
     7
420
 16777215
176
     1
 90
        1
176
     1
 90
        0
176
     1
 62
     7
176
     1
 62
   257
176
     1
 90
        1
176
     1
 90
        1
176
     1
 40
1.0
176
     1
 90
        0
176
     1
 62
   257
176
     1
 40
1.0
176
     1
 90
        1
176
     1
 90
        6
176
     1
 90
        2
176
     1
 62
     7
176
     1
 90
        5
176
     1
 90
        0
176
     1
 90
        0
176
     1
290
     0
176
     1
 90
       13
176
     1
 40
0.0
176
     1
 90
        0
176
     1
290
     0
176
     1
290
     1
176
     1
290
     1
176
     1
290
     0
176
     1
290
     0
176
     1
290
     0
176
     1
290
     0
176
     1
290
     0
176
     1
290
     0
176
     1
 90
       50
176
     1
 40
0.0
176
     1
 40
1.0
176
     1
 90
        0
176
     1
 62
    18
420
        0
176
     1
 90
       50
176
     1
 90
        3
176
     1
 62
     5
420
      255
176
     1
290
     0
176
     1
 90
       50
176
     1
 90
       50
176
     1
 90
       50
176
     1
290
     0
176
     1
 90
       50
176
     1
 62
   256
176
     0
 40
1.0
176
     0
 90
        2
176
     1
  1
strokes_ogs.tif
176
     1
290
     0
176
     1
 40
1.0
176
     1
 40
1.0
176
     1
  0
VISUALSTYLE
  5
182
102
{ACAD_REACTORS
330
17A
102
}
330
17A
100
AcDbVisualStyle
  2
Hidden
 70
     6
177
     3
291
     0
 70
    58
 90
        1
176
     1
 90
        2
176
     1
 90
        2
176
     1
 90
        0
176
     1
 40
0.6
176
     1
 40
30.0
176
     1
 62
     7
420
 16777215
176
     1
 90
        2
176
     1
 90
        2
176
     1
 62
     7
176
     1
 62
   257
176
     1
 90
        2
176
     1
 90
        1
176
     1
 40
40.0
176
     1
 90
        0
176
     1
 62
   257
176
     1
 40
1.0
176
     1
 90
        1
176
     1
 90
        6
176
     1
 90
        2
176
     1
 62
     7
176
     1
 90
        3
176
     1
 90
        0
176
     1
 90
        0
176
     1
290
     0
176
     1
 90
        1
176
     1
 40
0.0
176
     1
 90
        0
176
     1
290
     0
176
     1
290
     1
176
     1
290
     1
176
     1
290
     0
176
     1
290
     0
176
     1
290
     0
176
     1
290
     0
176
     1
290
     0
176
     1
290
     0
176
     1
 90
       50
176
     1
 40
0.0
176
     1
 40
1.0
176
     1
 90
        0
176
     1
 62
    18
420
        0
176
     1
 90
       50
176
     1
 90
        3
176
     1
 62
     5
420
      255
176
     1
290
     0
176
     1
 90
       50
176
     1
 90
       50
176
     1
 90
       50
176
     1
290
     0
176
     1
 90
       50
176
     1
 62
   256
176
     0
 40
1.0
176
     0
 90
        2
176
     1
  1
strokes_ogs.tif
176
     1
290
     0
176
     1
 40
1.0
176
     1
 40
1.0
176
     1
  0
VISUALSTYLE
  5
190
102
{ACAD_REACTORS
330
17A
102
}
330
17A
100
AcDbVisualStyle
  2
JitterOff
 70
    20
177
     3
291
     1
 70
    58
 90
        2
176
     0
 90
        2
176
     0
 90
        0
176
     0
 90
        0
176
     0
 40
0.6
176
     0
 40
30.0
176
     0
 62
     7
420
 16777215
176
     0
 90
        1
176
     0
 90
        4
176
     0
 62
     7
176
     0
 62
   257
176
     0
 90
        1
176
     0
 90
        1
176
     0
 40
1.0
176
     0
 90
       10
176
     2
 62
     7
176
     0
 40
1.0
176
     0
 90
        1
176
     0
 90
        6
176
     0
 90
        2
176
     0
 62
     7
176
     0
 90
        5
176
     0
 90
        0
176
     0
 90
        0
176
     0
290
     0
176
     0
 90
        1
176
     0
 40
0.0
176
     0
 90
        0
176
     0
290
     0
176
     1
290
     1
176
     1
290
     1
176
     1
290
     0
176
     1
290
     0
176
     1
290
     0
176
     1
290
     0
176
     1
290
     0
176
     1
290
     0
176
     1
 90
       50
176
     0
 40
0.0
176
     0
 40
1.0
176
     0
 90
        0
176
     0
 62
    18
420
        0
176
     0
 90
       50
176
     0
 90
        3
176
     0
 62
     5
420
      255
176
     0
290
     0
176
     1
 90
       50
176
     0
 90
       50
176
     0
 90
       50
176
     0
290
     0
176
     1
 90
       50
176
     0
 62
   256
176
     0
 40
1.0
176
     0
 90
        2
176
     0
  1
strokes_ogs.tif
176
     0
290
     0
176
     1
 40
1.0
176
     0
 40
1.0
176
     0
  0
VISUALSTYLE
  5
188
102
{ACAD_REACTORS
330
17A
102
}
330
17A
100
AcDbVisualStyle
  2
Linepattern
 70
    14
177
     3
291
     1
 70
    58
 90
        2
176
     1
 90
        2
176
     1
 90
        0
176
     1
 90
        0
176
     1
 40
0.6
176
     1
 40
30.0
176
     1
 62
     7
420
 16777215
176
     1
 90
        1
176
     1
 90
        4
176
     1
 62
     7
176
     1
 62
   257
176
     1
 90
        7
176
     1
 90
        7
176
     1
 40
1.0
176
     1
 90
        8
176
     1
 62
     7
176
     1
 40
1.0
176
     1
 90
        1
176
     1
 90
        6
176
     1
 90
        2
176
     1
 62
     7
176
     1
 90
        5
176
     1
 90
        0
176
     1
 90
        0
176
     1
290
     0
176
     1
 90
        1
176
     1
 40
0.0
176
     1
 90
        0
176
     1
290
     0
176
     1
290
     1
176
     1
290
     1
176
     1
290
     0
176
     1
290
     0
176
     1
290
     0
176
     1
290
     0
176
     1
290
     0
176
     1
290
     0
176
     1
 90
       50
176
     1
 40
0.0
176
     1
 40
1.0
176
     1
 90
        0
176
     1
 62
    18
420
        0
176
     1
 90
       50
176
     1
 90
        3
176
     1
 62
     5
420
      255
176
     1
290
     0
176
     1
 90
       50
176
     1
 90
       50
176
     1
 90
       50
176
     1
290
     0
176
     1
 90
       50
176
     1
 62
   256
176
     0
 40
1.0
176
     0
 90
        2
176
     1
  1
strokes_ogs.tif
176
     1
290
     0
176
     1
 40
1.0
176
     1
 40
1.0
176
     1
  0
VISUALSTYLE
  5
191
102
{ACAD_REACTORS
330
17A
102
}
330
17A
100
AcDbVisualStyle
  2
OverhangOff
 70
    21
177
     3
291
     1
 70
    58
 90
        2
176
     0
 90
        2
176
     0
 90
        0
176
     0
 90
        0
176
     0
 40
0.6
176
     0
 40
30.0
176
     0
 62
     7
420
 16777215
176
     0
 90
        1
176
     0
 90
        4
176
     0
 62
     7
176
     0
 62
   257
176
     0
 90
        1
176
     0
 90
        1
176
     0
 40
1.0
176
     0
 90
        9
176
     2
 62
     7
176
     0
 40
1.0
176
     0
 90
        1
176
     0
 90
        6
176
     0
 90
        2
176
     0
 62
     7
176
     0
 90
        5
176
     0
 90
        0
176
     0
 90
        0
176
     0
290
     0
176
     0
 90
        1
176
     0
 40
0.0
176
     0
 90
        0
176
     0
290
     0
176
     1
290
     1
176
     1
290
     1
176
     1
290
     0
176
     1
290
     0
176
     1
290
     0
176
     1
290
     0
176
     1
290
     0
176
     1
290
     0
176
     1
 90
       50
176
     0
 40
0.0
176
     0
 40
1.0
176
     0
 90
        0
176
     0
 62
    18
420
        0
176
     0
 90
       50
176
     0
 90
        3
176
     0
 62
     5
420
      255
176
     0
290
     0
176
     1
 90
       50
176
     0
 90
       50
176
     0
 90
       50
176
     0
290
     0
176
     1
 90
       50
176
     0
 62
   256
176
     0
 40
1.0
176
     0
 90
        2
176
     0
  1
strokes_ogs.tif
176
     0
290
     0
176
     1
 40
1.0
176
     0
 40
1.0
176
     0
  0
VISUALSTYLE
  5
184
102
{ACAD_REACTORS
330
17A
102
}
330
17A
100
AcDbVisualStyle
  2
Realistic
 70
     8
177
     3
291
     0
 70
    58
 90
        2
176
     1
 90
        3
176
     1
 90
        0
176
     1
 90
        2
176
     1
 40
0.6
176
     1
 40
30.0
176
     1
 62
     7
420
 16777215
176
     1
 90
        0
176
     1
 90
        0
176
     1
 62
     7
176
     1
 62
   257
176
     1
 90
        1
176
     1
 90
        1
176
     1
 40
1.0
176
     1
 90
        8
176
     1
 62
   257
176
     1
 40
1.0
176
     1
 90
        1
176
     1
 90
        6
176
     1
 90
        2
176
     1
 62
     7
176
     1
 90
        3
176
     1
 90
        0
176
     1
 90
        0
176
     1
290
     0
176
     1
 90
       13
176
     1
 40
0.0
176
     1
 90
        0
176
     1
290
     0
176
     1
290
     1
176
     1
290
     1
176
     1
290
     0
176
     1
290
     0
176
     1
290
     0
176
     1
290
     0
176
     1
290
     0
176
     1
290
     0
176
     1
 90
       50
176
     1
 40
0.0
176
     1
 40
1.0
176
     1
 90
        0
176
     1
 62
    18
420
        0
176
     1
 90
       50
176
     1
 90
        3
176
     1
 62
     5
420
      255
176
     1
290
     0
176
     1
 90
       50
176
     1
 90
       50
176
     1
 90
       50
176
     1
290
     0
176
     1
 90
       50
176
     1
 62
   256
176
     0
 40
1.0
176
     0
 90
        2
176
     1
  1
strokes_ogs.tif
176
     1
290
     0
176
     1
 40
1.0
176
     1
 40
1.0
176
     1
  0
VISUALSTYLE
  5
18F
102
{ACAD_REACTORS
330
17A
102
}
330
17A
100
AcDbVisualStyle
  2
Shaded
 70
    27
177
     3
291
     0
 70
    58
 90
        2
176
     1
 90
        2
176
     1
 90
        1
176
     1
 90
        2
176
     1
 40
0.6
176
     1
 40
30.0
176
     1
 62
     7
420
 16777215
176
     1
 90
        0
176
     1
 90
        4
176
     1
 62
     7
176
     1
 62
   257
176
     1
 90
        1
176
     1
 90
        1
176
     1
 40
1.0
176
     1
 90
        8
176
     1
 62
   257
176
     1
 40
1.0
176
     1
 90
        1
176
     1
 90
        6
176
     1
 90
        2
176
     1
 62
     8
420
  7895160
176
     1
 90
        3
176
     1
 90
        0
176
     1
 90
        0
176
     1
290
     0
176
     1
 90
        5
176
     1
 40
0.0
176
     1
 90
        0
176
     1
290
     0
176
     1
290
     1
176
     1
290
     1
176
     1
290
     0
176
     1
290
     0
176
     1
290
     0
176
     1
290
     0
176
     1
290
     0
176
     1
290
     0
176
     1
 90
       50
176
     1
 40
0.0
176
     1
 40
1.0
176
     1
 90
        0
176
     1
 62
    18
420
        0
176
     1
 90
       50
176
     1
 90
        3
176
     1
 62
     5
420
      255
176
     1
290
     0
176
     1
 90
       50
176
     1
 90
       50
176
     1
 90
       50
176
     1
290
     0
176
     1
 90
       50
176
     1
 62
   256
176
     0
 40
1.0
176
     0
 90
        2
176
     1
  1
strokes_ogs.tif
176
     1
290
     0
176
     1
 40
1.0
176
     1
 40
1.0
176
     1
  0
VISUALSTYLE
  5
18E
102
{ACAD_REACTORS
330
17A
102
}
330
17A
100
AcDbVisualStyle
  2
Shaded with edges
 70
    26
177
     3
291
     0
 70
    58
 90
        2
176
     1
 90
        2
176
     1
 90
        1
176
     1
 90
        2
176
     1
 40
0.6
176
     1
 40
30.0
176
     1
 62
     7
420
 16777215
176
     1
 90
        1
176
     1
 90
        2
176
     1
 62
     7
176
     1
 62
   257
176
     1
 90
        2
176
     1
 90
        1
176
     1
 40
1.0
176
     1
 90
        8
176
     1
 62
   257
176
     1
 40
1.0
176
     1
 90
        1
176
     1
 90
        6
176
     1
 90
        2
176
     1
 62
     7
176
     1
 90
        3
176
     1
 90
        0
176
     1
 90
        0
176
     1
290
     0
176
     1
 90
        5
176
     1
 40
0.0
176
     1
 90
        0
176
     1
290
     0
176
     1
290
     1
176
     1
290
     1
176
     1
290
     0
176
     1
290
     0
176
     1
290
     0
176
     1
290
     0
176
     1
290
     0
176
     1
290
     0
176
     1
 90
       50
176
     1
 40
0.0
176
     1
 40
1.0
176
     1
 90
        0
176
     1
 62
    18
420
        0
176
     1
 90
       50
176
     1
 90
        3
176
     1
 62
     5
420
      255
176
     1
290
     0
176
     1
 90
       50
176
     1
 90
       50
176
     1
 90
       50
176
     1
290
     0
176
     1
 90
       50
176
     1
 62
   256
176
     0
 40
1.0
176
     0
 90
        2
176
     1
  1
strokes_ogs.tif
176
     1
290
     0
176
     1
 40
1.0
176
     1
 40
1.0
176
     1
  0
VISUALSTYLE
  5
18B
102
{ACAD_REACTORS
330
17A
102
}
330
17A
100
AcDbVisualStyle
  2
Shades of Gray
 70
    23
177
     3
291
     0
 70
    58
 90
        2
176
     1
 90
        2
176
     1
 90
        3
176
     1
 90
        0
176
     1
 40
0.6
176
     1
 40
30.0
176
     1
 62
     7
420
 16777215
176
     1
 90
        2
176
     1
 90
        2
176
     1
 62
     7
176
     1
 62
     7
176
     1
 90
        1
176
     1
 90
        1
176
     1
 40
40.0
176
     1
 90
        8
176
     1
 62
     7
176
     1
 40
1.0
176
     1
 90
        1
176
     1
 90
        6
176
     1
 90
        2
176
     1
 62
     7
176
     1
 90
        3
176
     1
 90
        0
176
     1
 90
        0
176
     1
290
     0
176
     1
 90
        1
176
     1
 40
0.0
176
     1
 90
        0
176
     1
290
     0
176
     1
290
     1
176
     1
290
     1
176
     1
290
     0
176
     1
290
     0
176
     1
290
     0
176
     1
290
     0
176
     1
290
     0
176
     1
290
     0
176
     1
 90
       50
176
     1
 40
0.0
176
     1
 40
1.0
176
     1
 90
        0
176
     1
 62
    18
420
        0
176
     1
 90
       50
176
     1
 90
        3
176
     1
 62
     5
420
      255
176
     1
290
     0
176
     1
 90
       50
176
     1
 90
       50
176
     1
 90
       50
176
     1
290
     0
176
     1
 90
       50
176
     1
 62
   256
176
     0
 40
1.0
176
     0
 90
        2
176
     1
  1
strokes_ogs.tif
176
     1
290
     0
176
     1
 40
1.0
176
     1
 40
1.0
176
     1
  0
VISUALSTYLE
  5
18C
102
{ACAD_REACTORS
330
17A
102
}
330
17A
100
AcDbVisualStyle
  2
Sketchy
 70
    24
177
     3
291
     0
 70
    58
 90
        1
176
     1
 90
        2
176
     1
 90
        2
176
     1
 90
        0
176
     1
 40
0.6
176
     1
 40
30.0
176
     1
 62
     7
420
 16777215
176
     1
 90
        2
176
     1
 90
        2
176
     1
 62
     7
176
     1
 62
     7
176
     1
 90
        1
176
     1
 90
        1
176
     1
 40
40.0
176
     1
 90
       11
176
     1
 62
     7
176
     1
 40
1.0
176
     1
 90
        1
176
     1
 90
        6
176
     1
 90
        2
176
     1
 62
     7
176
     1
 90
        6
176
     1
 90
        0
176
     1
 90
        0
176
     1
290
     0
176
     1
 90
        1
176
     1
 40
0.0
176
     1
 90
        0
176
     1
290
     0
176
     1
290
     1
176
     1
290
     1
176
     1
290
     0
176
     1
290
     0
176
     1
290
     0
176
     1
290
     0
176
     1
290
     0
176
     1
290
     0
176
     1
 90
       50
176
     1
 40
0.0
176
     1
 40
1.0
176
     1
 90
        0
176
     1
 62
    18
420
        0
176
     1
 90
       50
176
     1
 90
        3
176
     1
 62
     5
420
      255
176
     1
290
     0
176
     1
 90
       50
176
     1
 90
       50
176
     1
 90
       50
176
     1
290
     0
176
     1
 90
       50
176
     1
 62
   256
176
     0
 40
1.0
176
     0
 90
        2
176
     1
  1
strokes_ogs.tif
176
     1
290
     0
176
     1
 40
1.0
176
     1
 40
1.0
176
     1
  0
VISUALSTYLE
  5
187
102
{ACAD_REACTORS
330
17A
102
}
330
17A
100
AcDbVisualStyle
  2
Thicken
 70
    13
177
     3
291
     1
 70
    58
 90
        2
176
     1
 90
        2
176
     1
 90
        0
176
     1
 90
        0
176
     1
 40
0.6
176
     1
 40
30.0
176
     1
 62
     7
420
 16777215
176
     1
 90
        1
176
     1
 90
        4
176
     1
 62
     7
176
     1
 62
   257
176
     1
 90
        1
176
     1
 90
        1
176
     1
 40
1.0
176
     1
 90
       12
176
     1
 62
     7
176
     1
 40
1.0
176
     1
 90
        1
176
     1
 90
        6
176
     1
 90
        2
176
     1
 62
     7
176
     1
 90
        5
176
     1
 90
        0
176
     1
 90
        0
176
     1
290
     0
176
     1
 90
        1
176
     1
 40
0.0
176
     1
 90
        0
176
     1
290
     0
176
     1
290
     1
176
     1
290
     1
176
     1
290
     0
176
     1
290
     0
176
     1
290
     0
176
     1
290
     0
176
     1
290
     0
176
     1
290
     0
176
     1
 90
       50
176
     1
 40
0.0
176
     1
 40
1.0
176
     1
 90
        0
176
     1
 62
    18
420
        0
176
     1
 90
       50
176
     1
 90
        3
176
     1
 62
     5
420
      255
176
     1
290
     0
176
     1
 90
       50
176
     1
 90
       50
176
     1
 90
       50
176
     1
290
     0
176
     1
 90
       50
176
     1
 62
   256
176
     0
 40
1.0
176
     0
 90
        2
176
     1
  1
strokes_ogs.tif
176
     1
290
     0
176
     1
 40
1.0
176
     1
 40
1.0
176
     1
  0
VISUALSTYLE
  5
181
102
{ACAD_REACTORS
330
17A
102
}
330
17A
100
AcDbVisualStyle
  2
Wireframe
 70
     5
177
     3
291
     0
 70
    58
 90
        0
176
     1
 90
        2
176
     1
 90
        0
176
     1
 90
        0
176
     1
 40
0.6
176
     1
 40
30.0
176
     1
 62
     7
420
 16777215
176
     1
 90
        1
176
     1
 90
        4
176
     1
 62
     7
176
     1
 62
   257
176
     1
 90
        1
176
     1
 90
        1
176
     1
 40
1.0
176
     1
 90
        0
176
     1
 62
   257
176
     1
 40
1.0
176
     1
 90
        1
176
     1
 90
        6
176
     1
 90
        2
176
     1
 62
     7
176
     1
 90
        3
176
     1
 90
        0
176
     1
 90
        0
176
     1
290
     0
176
     1
 90
        1
176
     1
 40
0.0
176
     1
 90
        0
176
     1
290
     0
176
     1
290
     1
176
     1
290
     1
176
     1
290
     0
176
     1
290
     0
176
     1
290
     0
176
     1
290
     0
176
     1
290
     0
176
     1
290
     0
176
     1
 90
       50
176
     1
 40
0.0
176
     1
 40
1.0
176
     1
 90
        0
176
     1
 62
    18
420
        0
176
     1
 90
       50
176
     1
 90
        3
176
     1
 62
     5
420
      255
176
     1
290
     0
176
     1
 90
       50
176
     1
 90
       50
176
     1
 90
       50
176
     1
290
     0
176
     1
 90
       50
176
     1
 62
   256
176
     0
 40
1.0
176
     0
 90
        2
176
     1
  1
strokes_ogs.tif
176
     1
290
     0
176
     1
 40
1.0
176
     1
 40
1.0
176
     1
  0
VISUALSTYLE
  5
18D
102
{ACAD_REACTORS
330
17A
102
}
330
17A
100
AcDbVisualStyle
  2
X-Ray
 70
    25
177
     3
291
     0
 70
    58
 90
        2
176
     1
 90
        2
176
     1
 90
        1
176
     1
 90
        1
176
     1
 40
0.5
176
     1
 40
30.0
176
     1
 62
     7
420
 16777215
176
     1
 90
        1
176
     1
 90
        0
176
     1
 62
     7
176
     1
 62
   257
176
     1
 90
        1
176
     1
 90
        1
176
     1
 40
1.0
176
     1
 90
        8
176
     1
 62
     7
176
     1
 40
1.0
176
     1
 90
        1
176
     1
 90
        6
176
     1
 90
        2
176
     1
 62
     7
176
     1
 90
        3
176
     1
 90
        0
176
     1
 90
        0
176
     1
290
     0
176
     1
 90
       13
176
     1
 40
0.0
176
     1
 90
        0
176
     1
290
     0
176
     1
290
     1
176
     1
290
     1
176
     1
290
     0
176
     1
290
     0
176
     1
290
     0
176
     1
290
     0
176
     1
290
     0
176
     1
290
     0
176
     1
 90
       50
176
     1
 40
0.0
176
     1
 40
1.0
176
     1
 90
        0
176
     1
 62
    18
420
        0
176
     1
 90
       50
176
     1
 90
        3
176
     1
 62
     5
420
      255
176
     1
290
     0
176
     1
 90
       50
176
     1
 90
       50
176
     1
 90
       50
176
     1
290
     0
176
     1
 90
       50
176
     1
 62
   256
176
     0
 40
1.0
176
     0
 90
        2
176
     1
  1
strokes_ogs.tif
176
     1
290
     0
176
     1
 40
1.0
176
     1
 40
1.0
176
     1
  0
DICTIONARYVAR
  5
235
102
{ACAD_REACTORS
330
22F
102
}
330
22F
100
DictionaryVariables
280
     0
  1
1:1
  0
DICTIONARYVAR
  5
231
102
{ACAD_REACTORS
330
22F
102
}
330
22F
100
DictionaryVariables
280
     0
  1
STANDARD
  0
DICTIONARYVAR
  5
230
102
{ACAD_REACTORS
330
22F
102
}
330
22F
100
DictionaryVariables
280
     0
  1
STANDARD
  0
DICTIONARYVAR
  5
232
102
{ACAD_REACTORS
330
22F
102
}
330
22F
100
DictionaryVariables
280
     0
  1
Metric50
  0
DICTIONARYVAR
  5
233
102
{ACAD_REACTORS
330
22F
102
}
330
22F
100
DictionaryVariables
280
     0
  1
Metric50
  0
DICTIONARYVAR
  5
237
102
{ACAD_REACTORS
330
22F
102
}
330
22F
100
DictionaryVariables
280
     0
  1
1
  0
DICTIONARYVAR
  5
238
102
{ACAD_REACTORS
330
22F
102
}
330
22F
100
DictionaryVariables
280
     0
  1
15
  0
DICTIONARYVAR
  5
236
102
{ACAD_REACTORS
330
22F
102
}
330
22F
100
DictionaryVariables
280
     0
  1
0
  0
DICTIONARYVAR
  5
234
102
{ACAD_REACTORS
330
22F
102
}
330
22F
100
DictionaryVariables
280
     0
  1
0
  0
DICTIONARY
  5
20F
102
{ACAD_REACTORS
330
20E
102
}
330
20E
100
AcDbDictionary
281
     1
  3
*A1
350
210
  0
DICTIONARY
  5
201
102
{ACAD_REACTORS
330
200
102
}
330
200
100
AcDbDictionary
281
     1
  3
*A1
350
202
  0
DICTIONARY
  5
1F3
102
{ACAD_REACTORS
330
1F2
102
}
330
1F2
100
AcDbDictionary
281
     1
  3
*A1
350
1F4
  0
DICTIONARY
  5
1E5
102
{ACAD_REACTORS
330
1E4
102
}
330
1E4
100
AcDbDictionary
281
     1
  3
*A1
350
1E6
  0
DICTIONARY
  5
1D7
102
{ACAD_REACTORS
330
1D6
102
}
330
1D6
100
AcDbDictionary
281
     1
  3
*A1
350
1D8
  0
DICTIONARY
  5
21D
102
{ACAD_REACTORS
330
21C
102
}
330
21C
100
AcDbDictionary
281
     1
  3
*A1
350
21E
  0
DICTIONARY
  5
16B
330
16A
100
AcDbDictionary
280
     1
281
     1
  3
BUMPTILE
360
16D
  3
DIFFUSETILE
360
16C
  3
OPACITYTILE
360
170
  3
REFLECTIONTILE
360
16F
  3
REFRACTIONTILE
360
171
  3
SPECULARTILE
360
16E
  0
DICTIONARY
  5
163
330
162
100
AcDbDictionary
280
     1
281
     1
  3
BUMPTILE
360
165
  3
DIFFUSETILE
360
164
  3
OPACITYTILE
360
168
  3
REFLECTIONTILE
360
167
  3
REFRACTIONTILE
360
169
  3
SPECULARTILE
360
166
  0
DICTIONARY
  5
173
330
172
100
AcDbDictionary
280
     1
281
     1
  3
BUMPTILE
360
175
  3
DIFFUSETILE
360
174
  3
OPACITYTILE
360
178
  3
REFLECTIONTILE
360
177
  3
REFRACTIONTILE
360
179
  3
SPECULARTILE
360
176
  0
DICTIONARY
  5
239
330
195
100
AcDbDictionary
280
     1
281
     1
  3
ACAD_ROUNDTRIP_2008_TABLESTYLE_CELLSTYLEMAP
360
23A
  0
ACDB_ALDIMOBJECTCONTEXTDATA_CLASS
  5
210
102
{ACAD_REACTORS
330
20F
102
}
330
20F
100
AcDbObjectContextData
 70
     4
290
     1
100
AcDbAnnotScaleObjectContextData
340
48
100
AcDbDimensionObjectContextData
  2
*D15
293
     0
 10
-50.38388220569999
 20
42.5544740964
294
     0
140
0.0
298
     0
291
     0
 70
     0
292
     0
 71
     0
280
     0
295
     0
296
     0
297
     0
100
AcDbAlignedDimensionObjectContextData
 11
-50.38388220570003
 21
82.08766795560002
 31
0.0
  0
ACDB_ALDIMOBJECTCONTEXTDATA_CLASS
  5
202
102
{ACAD_REACTORS
330
201
102
}
330
201
100
AcDbObjectContextData
 70
     4
290
     1
100
AcDbAnnotScaleObjectContextData
340
48
100
AcDbDimensionObjectContextData
  2
*D14
293
     0
 10
16.2619857649
 20
125.6254733711
294
     0
140
0.0
298
     0
291
     0
 70
     0
292
     0
 71
     0
280
     0
295
     0
296
     0
297
     0
100
AcDbAlignedDimensionObjectContextData
 11
40.014938597
 21
125.6254733711
 31
0.0
  0
ACDB_ALDIMOBJECTCONTEXTDATA_CLASS
  5
1F4
102
{ACAD_REACTORS
330
1F3
102
}
330
1F3
100
AcDbObjectContextData
 70
     4
290
     1
100
AcDbAnnotScaleObjectContextData
340
48
100
AcDbDimensionObjectContextData
  2
*D13
293
     0
 10
117.6161177943
 20
-48.3678548731
294
     0
140
0.0
298
     0
291
     0
 70
     0
292
     0
 71
     0
280
     0
295
     0
296
     0
297
     0
100
AcDbAlignedDimensionObjectContextData
 11
130.3161177943
 21
-48.3678548731
 31
0.0
  0
ACDB_ALDIMOBJECTCONTEXTDATA_CLASS
  5
1E6
102
{ACAD_REACTORS
330
1E5
102
}
330
1E5
100
AcDbObjectContextData
 70
     4
290
     1
100
AcDbAnnotScaleObjectContextData
340
48
100
AcDbDimensionObjectContextData
  2
*D12
293
     0
 10
424.5399651826
 20
10.3572537145
294
     0
140
0.0
298
     0
291
     0
 70
     0
292
     0
 71
     0
280
     0
295
     0
296
     0
297
     0
100
AcDbAlignedDimensionObjectContextData
 11
424.5399651826001
 21
-24.91233204429998
 31
0.0
  0
ACDB_ALDIMOBJECTCONTEXTDATA_CLASS
  5
1D8
102
{ACAD_REACTORS
330
1D7
102
}
330
1D7
100
AcDbObjectContextData
 70
     4
290
     1
100
AcDbAnnotScaleObjectContextData
340
48
100
AcDbDimensionObjectContextData
  2
*D11
293
     0
 10
312.9118806799001
 20
-46.9123320443
294
     0
140
0.0
298
     0
291
     0
 70
     0
292
     0
 71
     0
280
     0
295
     0
296
     0
297
     0
100
AcDbAlignedDimensionObjectContextData
 11
399.3059933417
 21
-46.9123320443
 31
0.0
  0
ACDB_ALDIMOBJECTCONTEXTDATA_CLASS
  5
21E
102
{ACAD_REACTORS
330
21D
102
}
330
21D
100
AcDbObjectContextData
 70
     4
290
     1
100
AcDbAnnotScaleObjectContextData
340
48
100
AcDbDimensionObjectContextData
  2
*D16
293
     0
 10
67.0337916255
 20
355.3829867233
294
     0
140
0.0
298
     0
291
     0
 70
     0
292
     0
 71
     0
280
     0
295
     0
296
     0
297
     0
100
AcDbAlignedDimensionObjectContextData
 11
157.6161177943
 21
355.3829867233
 31
0.0
  0
XRECORD
  5
16D
102
{ACAD_REACTORS
330
16B
102
}
330
16B
100
AcDbXrecord
280
     1
270
     1
271
     1
  0
XRECORD
  5
16C
102
{ACAD_REACTORS
330
16B
102
}
330
16B
100
AcDbXrecord
280
     1
270
     1
271
     1
  0
XRECORD
  5
170
102
{ACAD_REACTORS
330
16B
102
}
330
16B
100
AcDbXrecord
280
     1
270
     1
271
     1
  0
XRECORD
  5
16F
102
{ACAD_REACTORS
330
16B
102
}
330
16B
100
AcDbXrecord
280
     1
270
     1
271
     1
  0
XRECORD
  5
171
102
{ACAD_REACTORS
330
16B
102
}
330
16B
100
AcDbXrecord
280
     1
270
     1
271
     1
  0
XRECORD
  5
16E
102
{ACAD_REACTORS
330
16B
102
}
330
16B
100
AcDbXrecord
280
     1
270
     1
271
     1
  0
XRECORD
  5
165
102
{ACAD_REACTORS
330
163
102
}
330
163
100
AcDbXrecord
280
     1
270
     1
271
     1
  0
XRECORD
  5
164
102
{ACAD_REACTORS
330
163
102
}
330
163
100
AcDbXrecord
280
     1
270
     1
271
     1
  0
XRECORD
  5
168
102
{ACAD_REACTORS
330
163
102
}
330
163
100
AcDbXrecord
280
     1
270
     1
271
     1
  0
XRECORD
  5
167
102
{ACAD_REACTORS
330
163
102
}
330
163
100
AcDbXrecord
280
     1
270
     1
271
     1
  0
XRECORD
  5
169
102
{ACAD_REACTORS
330
163
102
}
330
163
100
AcDbXrecord
280
     1
270
     1
271
     1
  0
XRECORD
  5
166
102
{ACAD_REACTORS
330
163
102
}
330
163
100
AcDbXrecord
280
     1
270
     1
271
     1
  0
XRECORD
  5
175
102
{ACAD_REACTORS
330
173
102
}
330
173
100
AcDbXrecord
280
     1
270
     1
271
     1
  0
XRECORD
  5
174
102
{ACAD_REACTORS
330
173
102
}
330
173
100
AcDbXrecord
280
     1
270
     1
271
     1
  0
XRECORD
  5
178
102
{ACAD_REACTORS
330
173
102
}
330
173
100
AcDbXrecord
280
     1
270
     1
271
     1
  0
XRECORD
  5
177
102
{ACAD_REACTORS
330
173
102
}
330
173
100
AcDbXrecord
280
     1
270
     1
271
     1
  0
XRECORD
  5
179
102
{ACAD_REACTORS
330
173
102
}
330
173
100
AcDbXrecord
280
     1
270
     1
271
     1
  0
XRECORD
  5
176
102
{ACAD_REACTORS
330
173
102
}
330
173
100
AcDbXrecord
280
     1
270
     1
271
     1
  0
CELLSTYLEMAP
  5
23A
102
{ACAD_REACTORS
330
239
102
}
330
239
100
AcDbCellStyleMap
 90
        3
300
CELLSTYLE
  1
TABLEFORMAT_BEGIN
 90
        5
170
     1
 91
        0
 92
    32768
 62
   257
 93
        1
300
CONTENTFORMAT
  1
CONTENTFORMAT_BEGIN
 90
        0
 91
        0
 92
      512
 93
        0
300

 40
0.0
140
1.0
 94
        5
 62
     0
340
11
144
6.0
309
CONTENTFORMAT_END
171
     1
301
MARGIN
  1
CELLMARGIN_BEGIN
 40
1.5
 40
1.5
 40
1.5
 40
1.5
 40
4.5
 40
4.5
309
CELLMARGIN_END
 94
        6
 95
        1
302
GRIDFORMAT
  1
GRIDFORMAT_BEGIN
 90
        0
 91
        1
 62
     0
 92
       -2
340
0
 93
        0
 40
1.125
309
GRIDFORMAT_END
 95
        2
302
GRIDFORMAT
  1
GRIDFORMAT_BEGIN
 90
        0
 91
        1
 62
     0
 92
       -2
340
0
 93
        0
 40
1.125
309
GRIDFORMAT_END
 95
        4
302
GRIDFORMAT
  1
GRIDFORMAT_BEGIN
 90
        0
 91
        1
 62
     0
 92
       -2
340
0
 93
        0
 40
1.125
309
GRIDFORMAT_END
 95
        8
302
GRIDFORMAT
  1
GRIDFORMAT_BEGIN
 90
        0
 91
        1
 62
     0
 92
       -2
340
0
 93
        0
 40
1.125
309
GRIDFORMAT_END
 95
       16
302
GRIDFORMAT
  1
GRIDFORMAT_BEGIN
 90
        0
 91
        1
 62
     0
 92
       -2
340
0
 93
        0
 40
1.125
309
GRIDFORMAT_END
 95
       32
302
GRIDFORMAT
  1
GRIDFORMAT_BEGIN
 90
        0
 91
        1
 62
     0
 92
       -2
340
0
 93
        0
 40
1.125
309
GRIDFORMAT_END
309
TABLEFORMAT_END
  1
CELLSTYLE_BEGIN
 90
        1
 91
        1
300
_TITLE
309
CELLSTYLE_END
300
CELLSTYLE
  1
TABLEFORMAT_BEGIN
 90
        5
170
     1
 91
        0
 92
        0
 62
   257
 93
        1
300
CONTENTFORMAT
  1
CONTENTFORMAT_BEGIN
 90
        0
 91
        0
 92
      512
 93
        0
300

 40
0.0
140
1.0
 94
        5
 62
     0
340
11
144
4.5
309
CONTENTFORMAT_END
171
     1
301
MARGIN
  1
CELLMARGIN_BEGIN
 40
1.5
 40
1.5
 40
1.5
 40
1.5
 40
4.5
 40
4.5
309
CELLMARGIN_END
 94
        6
 95
        1
302
GRIDFORMAT
  1
GRIDFORMAT_BEGIN
 90
        0
 91
        1
 62
     0
 92
       -2
340
0
 93
        0
 40
1.125
309
GRIDFORMAT_END
 95
        2
302
GRIDFORMAT
  1
GRIDFORMAT_BEGIN
 90
        0
 91
        1
 62
     0
 92
       -2
340
0
 93
        0
 40
1.125
309
GRIDFORMAT_END
 95
        4
302
GRIDFORMAT
  1
GRIDFORMAT_BEGIN
 90
        0
 91
        1
 62
     0
 92
       -2
340
0
 93
        0
 40
1.125
309
GRIDFORMAT_END
 95
        8
302
GRIDFORMAT
  1
GRIDFORMAT_BEGIN
 90
        0
 91
        1
 62
     0
 92
       -2
340
0
 93
        0
 40
1.125
309
GRIDFORMAT_END
 95
       16
302
GRIDFORMAT
  1
GRIDFORMAT_BEGIN
 90
        0
 91
        1
 62
     0
 92
       -2
340
0
 93
        0
 40
1.125
309
GRIDFORMAT_END
 95
       32
302
GRIDFORMAT
  1
GRIDFORMAT_BEGIN
 90
        0
 91
        1
 62
     0
 92
       -2
340
0
 93
        0
 40
1.125
309
GRIDFORMAT_END
309
TABLEFORMAT_END
  1
CELLSTYLE_BEGIN
 90
        2
 91
        1
300
_HEADER
309
CELLSTYLE_END
300
CELLSTYLE
  1
TABLEFORMAT_BEGIN
 90
        5
170
     1
 91
        0
 92
        0
 62
   257
 93
        1
300
CONTENTFORMAT
  1
CONTENTFORMAT_BEGIN
 90
        0
 91
        0
 92
      512
 93
        0
300

 40
0.0
140
1.0
 94
        2
 62
     0
340
11
144
4.5
309
CONTENTFORMAT_END
171
     1
301
MARGIN
  1
CELLMARGIN_BEGIN
 40
1.5
 40
1.5
 40
1.5
 40
1.5
 40
4.5
 40
4.5
309
CELLMARGIN_END
 94
        6
 95
        1
302
GRIDFORMAT
  1
GRIDFORMAT_BEGIN
 90
        0
 91
        1
 62
     0
 92
       -2
340
0
 93
        0
 40
1.125
309
GRIDFORMAT_END
 95
        2
302
GRIDFORMAT
  1
GRIDFORMAT_BEGIN
 90
        0
 91
        1
 62
     0
 92
       -2
340
0
 93
        0
 40
1.125
309
GRIDFORMAT_END
 95
        4
302
GRIDFORMAT
  1
GRIDFORMAT_BEGIN
 90
        0
 91
        1
 62
     0
 92
       -2
340
0
 93
        0
 40
1.125
309
GRIDFORMAT_END
 95
        8
302
GRIDFORMAT
  1
GRIDFORMAT_BEGIN
 90
        0
 91
        1
 62
     0
 92
       -2
340
0
 93
        0
 40
1.125
309
GRIDFORMAT_END
 95
       16
302
GRIDFORMAT
  1
GRIDFORMAT_BEGIN
 90
        0
 91
        1
 62
     0
 92
       -2
340
0
 93
        0
 40
1.125
309
GRIDFORMAT_END
 95
       32
302
GRIDFORMAT
  1
GRIDFORMAT_BEGIN
 90
        0
 91
        1
 62
     0
 92
       -2
340
0
 93
        0
 40
1.125
309
GRIDFORMAT_END
309
TABLEFORMAT_END
  1
CELLSTYLE_BEGIN
 90
        3
 91
        2
300
_DATA
309
CELLSTYLE_END
  0
ENDSEC
  0
EOF
