  0
SECTION
  2
HEADER
  9
$ACADVER
  1
AC1009
  9
$INSBASE
 10
0.0
 20
0.0
 30
0.0
  9
$EXTMIN
 10
111.78743647595221
 20
-158.87808541636261
 30
-0.0015258207003583
  9
$EXTMAX
 10
1046.1694788886041
 20
792.9618207943422
 30
0.0000000349246037
  9
$LIMMIN
 10
0.0
 20
0.0
  9
$LIMMAX
 10
0.0
 20
0.0
  9
$ORTHOMODE
 70
     0
  9
$REGENMODE
 70
     1
  9
$FILLMODE
 70
     1
  9
$QTEXTMODE
 70
     0
  9
$MIRRTEXT
 70
     1
  9
$DRAGMODE
 70
     2
  9
$LTSCALE
 40
1.0
  9
$OSMODE
 70
    39
  9
$ATTMODE
 70
     1
  9
$TEXTSIZE
 40
0.0
  9
$TRACEWID
 40
0.05
  9
$TEXTSTYLE
  7
STANDARD
  9
$CLAYER
  8
0
  9
$CELTYPE
  6
CONTINUOUS
  9
$CECOLOR
 62
   256
  9
$DIMSCALE
 40
1.0
  9
$DIMASZ
 40
2.5
  9
$DIMEXO
 40
0.005
  9
$DIMDLI
 40
0.38
  9
$DIMRND
 40
0.0
  9
$DIMDLE
 40
1.0
  9
$DIMEXE
 40
0.18
  9
$DIMTP
 40
0.0
  9
$DIMTM
 40
0.0
  9
$DIMTXT
 40
3.5
  9
$DIMCEN
 40
0.09
  9
$DIMTSZ
 40
0.0
  9
$DIMTOL
 70
     0
  9
$DIMLIM
 70
     0
  9
$DIMTIH
 70
     1
  9
$DIMTOH
 70
     1
  9
$DIMSE1
 70
     0
  9
$DIMSE2
 70
     0
  9
$DIMTAD
 70
     1
  9
$DIMZIN
 70
     0
  9
$DIMBLK
  1

  9
$DIMASO
 70
     1
  9
$DIMSHO
 70
     1
  9
$DIMPOST
  1

  9
$DIMAPOST
  1

  9
$DIMALT
 70
     0
  9
$DIMALTD
 70
     2
  9
$DIMALTF
 40
0.0394
  9
$DIMLFAC
 40
1.0
  9
$DIMTOFL
 70
     0
  9
$DIMTVP
 40
0.0
  9
$DIMTIX
 70
     0
  9
$DIMSOXD
 70
     0
  9
$DIMSAH
 70
     0
  9
$DIMBLK1
  1

  9
$DIMBLK2
  1

  9
$DIMSTYLE
  2
STANDARD
  9
$DIMCLRD
 70
     0
  9
$DIMCLRE
 70
     0
  9
$DIMCLRT
 70
     0
  9
$DIMTFAC
 40
1.0
  9
$DIMGAP
 40
0.005
  9
$LUNITS
 70
     2
  9
$LUPREC
 70
     2
  9
$SKETCHINC
 40
0.1
  9
$FILLETRAD
 40
0.0
  9
$AUNITS
 70
     0
  9
$AUPREC
 70
     2
  9
$MENU
  1
acad
  9
$ELEVATION
 40
0.0
  9
$PELEVATION
 40
0.0
  9
$THICKNESS
 40
0.0
  9
$LIMCHECK
 70
     0
  9
$BLIPMODE
 70
     0
  9
$CHAMFERA
 40
0.0
  9
$CHAMFERB
 40
0.0
  9
$SKPOLY
 70
     0
  9
$TDCREATE
 40
2311942.56044243
  9
$TDUPDATE
 40
2453013.4539429508
  9
$TDINDWG
 40
0.0014896181
  9
$TDUSRTIMER
 40
0.0014896181
  9
$USRTIMER
 70
     1
  9
$ANGBASE
 50
0.0
  9
$ANGDIR
 70
     0
  9
$PDMODE
 70
     0
  9
$PDSIZE
 40
-1.0
  9
$PLINEWID
 40
0.0
  9
$COORDS
 70
     1
  9
$SPLFRAME
 70
     0
  9
$SPLINETYPE
 70
     6
  9
$SPLINESEGS
 70
     8
  9
$ATTDIA
 70
     0
  9
$ATTREQ
 70
     1
  9
$HANDLING
 70
 22529
  9
$HANDSEED
  5
2DC
  9
$SURFTAB1
 70
     6
  9
$SURFTAB2
 70
     6
  9
$SURFTYPE
 70
     6
  9
$SURFU
 70
     6
  9
$SURFV
 70
     6
  9
$UCSNAME
  2

  9
$UCSORG
 10
0.0
 20
0.0
 30
0.0
  9
$UCSXDIR
 10
1.0
 20
0.0
 30
0.0
  9
$UCSYDIR
 10
0.0
 20
1.0
 30
0.0
  9
$PUCSNAME
  2

  9
$PUCSORG
 10
0.0
 20
0.0
 30
0.0
  9
$PUCSXDIR
 10
1.0
 20
0.0
 30
0.0
  9
$PUCSYDIR
 10
0.0
 20
1.0
 30
0.0
  9
$USERI1
 70
     0
  9
$USERI2
 70
     0
  9
$USERI3
 70
     0
  9
$USERI4
 70
     0
  9
$USERI5
 70
     0
  9
$USERR1
 40
0.0
  9
$USERR2
 40
0.0
  9
$USERR3
 40
0.0
  9
$USERR4
 40
0.0
  9
$USERR5
 40
0.0
  9
$WORLDVIEW
 70
     1
  9
$SHADEDGE
 70
     3
  9
$SHADEDIF
 70
    70
  9
$TILEMODE
 70
     1
  9
$MAXACTVP
 70
    16
  9
$PLIMCHECK
 70
     0
  9
$PEXTMIN
 10
-0.3166112066066944
 20
0.683987163387542
 30
0.0
  9
$PEXTMAX
 10
407.59391253087432
 20
284.5236744550192
 30
0.0
  9
$PLIMMIN
 10
-5.53509521484375
 20
-6.0854167938232422
  9
$PLIMMAX
 10
414.45388793945313
 20
290.88290596008289
  9
$UNITMODE
 70
     0
  9
$VISRETAIN
 70
     0
  9
$PLINEGEN
 70
     1
  9
$PSLTSCALE
 70
     1
  0
ENDSEC
  0
SECTION
  2
TABLES
  0
TABLE
  2
VPORT
 70
     4
  0
VPORT
  2
*ACTIVE
 70
     0
 10
0.0
 20
0.0
 11
1.0
 21
1.0
 12
578.97845768227796
 22
317.04186768898978
 13
0.0
 23
0.0
 14
1.0
 24
1.0
 15
0.0
 25
0.0
 16
0.0
 26
0.0
 36
1.0
 17
0.0
 27
0.0
 37
0.0
 40
959.29557127240753
 41
1.594771241830065
 42
50.0
 43
0.0
 44
0.0
 50
0.0
 51
0.0
 71
     0
 72
  2000
 73
     1
 74
     1
 75
     0
 76
     0
 77
     0
 78
     0
  0
ENDTAB
  0
TABLE
  2
LTYPE
 70
     6
  0
LTYPE
  2
CONTINUOUS
 70
     0
  3
Solid line
 72
    65
 73
     0
 40
0.0
  0
LTYPE
  2
HIDDEN
 70
     0
  3
Hidden __ __ __ __ __ __ __ __ __ __ __ __ __ __
 72
    65
 73
     2
 40
1.905
 49
1.27
 49
-0.635
  0
LTYPE
  2
PHANTOM
 70
     0
  3
Phantom ______  __  __  ______  __  __  ______
 72
    65
 73
     6
 40
12.699999999999999
 49
6.3499999999999988
 49
-1.27
 49
1.27
 49
-1.27
 49
1.27
 49
-1.27
  0
LTYPE
  2
CENTER
 70
     0
  3
Center ____ _ ____ _ ____ _ ____ _ ____ _ ____
 72
    65
 73
     4
 40
10.16
 49
6.3499999999999988
 49
-1.27
 49
1.27
 49
-1.27
  0
LTYPE
  2
CENTERX2
 70
     0
  3
Center (2x) ________  __  ________  __  _____
 72
    65
 73
     4
 40
20.32
 49
12.699999999999999
 49
-2.54
 49
2.54
 49
-2.54
  0
LTYPE
  2
DOT2
 70
     0
  3
Dot (.5x) ........................................
 72
    65
 73
     2
 40
0.635
 49
0.0
 49
-0.635
  0
ENDTAB
  0
TABLE
  2
LAYER
 70
     2
  0
LAYER
  2
0
 70
     0
 62
     7
  6
CONTINUOUS
  0
LAYER
  2
DEFPOINTS
 70
     0
 62
     7
  6
CONTINUOUS
  0
ENDTAB
  0
TABLE
  2
STYLE
 70
     1
  0
STYLE
  2
STANDARD
 70
     0
 40
0.0
 41
1.0
 50
0.0
 71
     0
 42
0.0
  3
txt
  4

  0
ENDTAB
  0
TABLE
  2
VIEW
 70
     0
  0
ENDTAB
  0
TABLE
  2
UCS
 70
     0
  0
ENDTAB
  0
TABLE
  2
APPID
 70
     1
  0
APPID
  2
ACAD
 70
     0
  0
ENDTAB
  0
TABLE
  2
DIMSTYLE
 70
     6
  0
DIMSTYLE
  2
STANDARD
 70
     0
  3

  4

  5

  6

  7

 40
1.0
 41
0.18
 42
0.0625
 43
0.38
 44
0.18
 45
0.0
 46
0.0
 47
0.0
 48
0.0
140
0.18
141
0.09
142
0.0
143
25.399999999999999
144
1.0
145
0.0
146
1.0
147
0.09
 71
     0
 72
     0
 73
     1
 74
     1
 75
     0
 76
     0
 77
     0
 78
     0
170
     0
171
     2
172
     0
173
     0
174
     0
175
     0
176
     0
177
     0
178
     0
  0
DIMSTYLE
  2
SLDDIMSTYLE0
 70
     0
  3

  4

  5

  6

  7

 40
1.0
 41
2.5
 42
0.0625
 43
0.38
 44
1.0
 45
0.0
 46
0.0
 47
0.0
 48
0.0
140
3.5
141
0.09
142
0.0
143
25.399999999999999
144
1.0
145
0.0
146
1.0
147
0.875
 71
     0
 72
     0
 73
     0
 74
     0
 75
     0
 76
     0
 77
     2
 78
    12
170
     0
171
     2
172
     0
173
     1
174
     0
175
     0
176
     7
177
     7
178
     7
  0
DIMSTYLE
  2
SLDDIMSTYLE1
 70
     0
  3

  4

  5

  6

  7

 40
1.0
 41
2.5
 42
0.0625
 43
0.38
 44
1.0
 45
0.0
 46
0.0
 47
0.0
 48
0.0
140
3.5
141
0.09
142
0.0
143
25.399999999999999
144
1.0
145
0.0
146
1.0
147
0.875
 71
     0
 72
     0
 73
     0
 74
     0
 75
     0
 76
     0
 77
     2
 78
    12
170
     0
171
     2
172
     0
173
     1
174
     0
175
     0
176
     7
177
     7
178
     7
  0
DIMSTYLE
  2
SLDDIMSTYLE2
 70
     0
  3

  4

  5

  6

  7

 40
1.0
 41
2.5
 42
0.0625
 43
0.38
 44
1.0
 45
0.0
 46
0.0
 47
0.0
 48
0.0
140
3.5
141
0.09
142
0.0
143
25.399999999999999
144
1.0
145
0.0
146
1.0
147
0.875
 71
     0
 72
     0
 73
     0
 74
     0
 75
     0
 76
     0
 77
     2
 78
    12
170
     0
171
     3
172
     0
173
     1
174
     0
175
     0
176
     7
177
     7
178
     7
  0
DIMSTYLE
  2
SLDDIMSTYLE3
 70
     0
  3

  4

  5

  6

  7

 40
1.0
 41
2.5
 42
0.0625
 43
0.38
 44
1.0
 45
0.0
 46
0.0
 47
0.0
 48
0.0
140
3.5
141
0.09
142
0.0
143
25.399999999999999
144
1.0
145
0.0
146
1.0
147
0.875
 71
     0
 72
     0
 73
     0
 74
     0
 75
     0
 76
     0
 77
     2
 78
    12
170
     0
171
     3
172
     0
173
     1
174
     0
175
     0
176
     7
177
     7
178
     7
  0
DIMSTYLE
  2
SLDDIMSTYLE4
 70
     0
  3

  4

  5

  6

  7

 40
1.0
 41
2.5
 42
0.0625
 43
0.38
 44
1.0
 45
0.0
 46
0.0
 47
0.0
 48
0.0
140
3.5
141
0.09
142
0.0
143
25.399999999999999
144
1.0
145
0.0
146
1.0
147
0.875
 71
     0
 72
     0
 73
     0
 74
     0
 75
     0
 76
     0
 77
     2
 78
    12
170
     0
171
     3
172
     0
173
     1
174
     0
175
     0
176
     7
177
     7
178
     7
  0
ENDTAB
  0
ENDSEC
  0
SECTION
  2
BLOCKS
  0
BLOCK
  8
0
  2
$MODEL_SPACE
 70
     0
 10
0.0
 20
0.0
 30
0.0
  3
$MODEL_SPACE
  1

  0
ENDBLK
  5
154
  8
0
  0
BLOCK
 67
     1
  8
0
  2
$PAPER_SPACE
 70
     0
 10
0.0
 20
0.0
 30
0.0
  3
$PAPER_SPACE
  1

  0
ENDBLK
  5
150
 67
     1
  8
0
  0
BLOCK
  8
0
 62
     7
  2
*D0
 70
     1
 10
0.0
 20
0.0
 30
0.0
  3
*D0
  1

  0
TEXT
  5
166
  8
0
 62
     7
 10
827.29969978250006
 20
378.49256728620003
 30
0.0
 40
3.5
  1
%%c
 41
0.75
  0
TEXT
  5
167
  8
0
 62
     7
 10
832.17453733880006
 20
378.49256728620003
 30
0.0
 40
3.5
  1
275
 41
0.75
  0
LINE
  5
168
  8
0
 62
     7
 10
694.72021835989995
 20
556.42096235389988
 30
0.0
 11
694.72021835989995
 21
375.99256728620003
 31
0.0
  0
LINE
  5
169
  8
0
 62
     7
 10
969.72021835990006
 20
556.42096235389988
 30
0.0
 11
969.72021835990006
 21
375.99256728620003
 31
0.0
  0
LINE
  5
16A
  8
0
 62
     7
 10
694.72021835989995
 20
376.99256728620003
 30
0.0
 11
969.72021835990006
 21
376.99256728620003
 31
0.0
  0
SOLID
  5
16B
  8
0
 62
     7
 10
694.72021835989995
 20
376.99256728620003
 30
0.0
 11
697.22021835990006
 21
376.68256728620003
 31
0.0
 12
697.22021835990006
 22
377.30256728619997
 32
0.0
 13
697.22021835990006
 23
377.30256728619997
 33
0.0
  0
SOLID
  5
16C
  8
0
 62
     7
 10
969.72021835990006
 20
376.99256728620003
 30
0.0
 11
967.22021835990006
 21
377.30256728619997
 31
0.0
 12
967.22021835990006
 22
376.68256728620003
 32
0.0
 13
967.22021835990006
 23
376.68256728620003
 33
0.0
  0
POINT
  5
16D
  8
DEFPOINTS
 62
     7
 10
694.72021835989995
 20
556.42596235389988
 30
0.0
  0
POINT
  5
16E
  8
DEFPOINTS
 62
     7
 10
969.72021835990006
 20
556.42596235389988
 30
0.0
  0
ENDBLK
  5
16F
  8
0
 62
     7
  0
BLOCK
  8
0
 62
     7
  2
*D1
 70
     1
 10
0.0
 20
0.0
 30
0.0
  3
*D1
  1

  0
TEXT
  5
172
  8
0
 62
     7
 10
828.35847929500005
 20
780.57988602670002
 30
0.0
 40
3.5
  1
150
 41
0.75
  0
LINE
  5
173
  8
0
 62
     7
 10
757.22021835989995
 20
757.43096235389999
 30
0.0
 11
757.22021835989995
 21
780.07988602670002
 31
0.0
  0
LINE
  5
174
  8
0
 62
     7
 10
907.22021835990006
 20
757.43096235389999
 30
0.0
 11
907.22021835990006
 21
780.07988602670002
 31
0.0
  0
LINE
  5
175
  8
0
 62
     7
 10
757.22021835989995
 20
779.07988602670002
 30
0.0
 11
907.22021835990006
 21
779.07988602670002
 31
0.0
  0
SOLID
  5
176
  8
0
 62
     7
 10
757.22021835989995
 20
779.07988602670002
 30
0.0
 11
759.72021835990006
 21
778.76988602669985
 31
0.0
 12
759.72021835990006
 22
779.38988602669997
 32
0.0
 13
759.72021835990006
 23
779.38988602669997
 33
0.0
  0
SOLID
  5
177
  8
0
 62
     7
 10
907.22021835990006
 20
779.07988602670002
 30
0.0
 11
904.72021835990006
 21
779.38988602669997
 31
0.0
 12
904.72021835990006
 22
778.76988602669985
 32
0.0
 13
904.72021835990006
 23
778.76988602669985
 33
0.0
  0
POINT
  5
178
  8
DEFPOINTS
 62
     7
 10
757.22021835989995
 20
757.42596235389988
 30
0.0
  0
POINT
  5
179
  8
DEFPOINTS
 62
     7
 10
907.22021835990006
 20
757.42596235389988
 30
0.0
  0
ENDBLK
  5
17A
  8
0
 62
     7
  0
BLOCK
  8
0
 62
     7
  2
*D2
 70
     1
 10
0.0
 20
0.0
 30
0.0
  3
*D2
  1

  0
TEXT
  5
17D
  8
0
 62
     7
 10
828.39476764890014
 20
362.36322882370001
 30
0.0
 40
3.5
  1
%%c
 41
0.75
  0
TEXT
  5
17E
  8
0
 62
     7
 10
833.26960520520004
 20
362.36322882370001
 30
0.0
 40
3.5
  1
325
 41
0.75
  0
LINE
  5
17F
  8
0
 62
     7
 10
669.77626751939999
 20
556.42096235389988
 30
0.0
 11
669.77626751939999
 21
359.86322882370001
 31
0.0
  0
LINE
  5
180
  8
0
 62
     7
 10
994.66416920039978
 20
556.42096235389988
 30
0.0
 11
994.66416920039978
 21
359.86322882370001
 31
0.0
  0
LINE
  5
181
  8
0
 62
     7
 10
669.77626751939999
 20
360.86322882370001
 30
0.0
 11
994.66416920039978
 21
360.86322882370001
 31
0.0
  0
SOLID
  5
182
  8
0
 62
     7
 10
669.77626751939999
 20
360.86322882370001
 30
0.0
 11
672.27626751939988
 21
360.55322882370001
 31
0.0
 12
672.27626751939988
 22
361.17322882370001
 32
0.0
 13
672.27626751939988
 23
361.17322882370001
 33
0.0
  0
SOLID
  5
183
  8
0
 62
     7
 10
994.66416920039978
 20
360.86322882370001
 30
0.0
 11
992.16416920040001
 21
361.17322882370001
 31
0.0
 12
992.16416920040001
 22
360.55322882370001
 32
0.0
 13
992.16416920040001
 23
360.55322882370001
 33
0.0
  0
POINT
  5
184
  8
DEFPOINTS
 62
     7
 10
669.77626751939999
 20
556.42596235389988
 30
0.0
  0
POINT
  5
185
  8
DEFPOINTS
 62
     7
 10
994.66416920039978
 20
556.42596235389988
 30
0.0
  0
ENDBLK
  5
186
  8
0
 62
     7
  0
BLOCK
  8
0
 62
     7
  2
*D3
 70
     1
 10
0.0
 20
0.0
 30
0.0
  3
*D3
  1

  0
TEXT
  5
189
  8
0
 62
     7
 10
1018.9808553326
 20
642.96669328379994
 30
0.0
 40
3.5
  1
202,5
 50
90.0
 41
0.75
  0
LINE
  5
18A
  8
0
 62
     7
 10
832.22521835990005
 20
556.42596235389988
 30
0.0
 11
1021.4808553326
 21
556.42596235389988
 31
0.0
  0
LINE
  5
18B
  8
0
 62
     7
 10
897.22521834229997
 20
758.97165635210001
 30
0.0
 11
1021.4808553326
 21
758.97165635210001
 31
0.0
  0
LINE
  5
18C
  8
0
 62
     7
 10
1020.4808553326
 20
556.42596235389988
 30
0.0
 11
1020.4808553326
 21
758.97165635210001
 31
0.0
  0
SOLID
  5
18D
  8
0
 62
     7
 10
1020.4808553326
 20
556.42596235389988
 30
0.0
 11
1020.790855332599
 21
558.92596235389999
 31
0.0
 12
1020.170855332599
 22
558.92596235389999
 32
0.0
 13
1020.170855332599
 23
558.92596235389999
 33
0.0
  0
SOLID
  5
18E
  8
0
 62
     7
 10
1020.4808553326
 20
758.97165635210001
 30
0.0
 11
1020.170855332599
 21
756.47165635210001
 31
0.0
 12
1020.790855332599
 22
756.47165635210001
 32
0.0
 13
1020.790855332599
 23
756.47165635210001
 33
0.0
  0
POINT
  5
18F
  8
DEFPOINTS
 62
     7
 10
832.22021835989995
 20
556.42596235389988
 30
0.0
  0
POINT
  5
190
  8
DEFPOINTS
 62
     7
 10
897.22021834229997
 20
758.97165635210001
 30
0.0
  0
ENDBLK
  5
191
  8
0
 62
     7
  0
BLOCK
  8
0
 62
     7
  2
*D4
 70
     1
 10
0.0
 20
0.0
 30
0.0
  3
*D4
  1

  0
TEXT
  5
194
  8
0
 62
     7
 10
1043.6375508683991
 20
560.36088934019995
 30
0.0
 40
3.5
  1
365
 50
90.0
 41
0.75
  0
LINE
  5
195
  8
0
 62
     7
 10
897.22521834229997
 20
758.97165635210001
 30
0.0
 11
1046.1375508684
 21
758.97165635210001
 31
0.0
  0
LINE
  5
196
  8
0
 62
     7
 10
832.22521835990005
 20
393.98201151339993
 30
0.0
 11
1046.1375508684
 21
393.98201151339993
 31
0.0
  0
LINE
  5
197
  8
0
 62
     7
 10
1045.1375508683991
 20
758.97165635210001
 30
0.0
 11
1045.1375508683991
 21
393.98201151339993
 31
0.0
  0
SOLID
  5
198
  8
0
 62
     7
 10
1045.1375508683991
 20
758.97165635210001
 30
0.0
 11
1044.8275508684001
 21
756.47165635210001
 31
0.0
 12
1045.4475508684
 22
756.47165635210001
 32
0.0
 13
1045.4475508684
 23
756.47165635210001
 33
0.0
  0
SOLID
  5
199
  8
0
 62
     7
 10
1045.1375508683991
 20
393.98201151339993
 30
0.0
 11
1045.4475508684
 21
396.48201151339998
 31
0.0
 12
1044.8275508684001
 22
396.48201151339998
 32
0.0
 13
1044.8275508684001
 23
396.48201151339998
 33
0.0
  0
POINT
  5
19A
  8
DEFPOINTS
 62
     7
 10
897.22021834229997
 20
758.97165635210001
 30
0.0
  0
POINT
  5
19B
  8
DEFPOINTS
 62
     7
 10
832.22021835989995
 20
393.98201151339993
 30
0.0
  0
ENDBLK
  5
19C
  8
0
 62
     7
  0
BLOCK
  8
0
 62
     0
  2
NOTE0
 70
     0
 10
0.0
 20
0.0
 30
0.0
  3
NOTE0
  1

  0
TEXT
  5
19F
  8
0
 62
     7
 10
0.0
 20
-3.5
 30
0.0
 40
3.5
  1
WT.RX325K-2D.dxf
 41
0.75
  0
ENDBLK
  5
1A0
  8
0
  0
BLOCK
  8
0
 62
     7
  2
*D6
 70
     1
 10
0.0
 20
0.0
 30
0.0
  3
*D6
  1

  0
TEXT
  5
1A3
  8
0
 62
     7
 10
318.69544440329997
 20
789.4327725024001
 30
0.0
 40
3.5
  1
325
 41
0.75
  0
LINE
  5
1A4
  8
0
 62
     7
 10
501.62772305239992
 20
709.6829294716
 30
0.0
 11
501.62772305239992
 21
788.9327725024001
 31
0.0
  0
LINE
  5
1A5
  8
0
 62
     7
 10
176.62849228499991
 20
709.6829294716
 30
0.0
 11
176.62849228499991
 21
788.9327725024001
 31
0.0
  0
LINE
  5
1A6
  8
0
 62
     7
 10
501.62772305239992
 20
787.93277250239998
 30
0.0
 11
176.62849228499991
 21
787.93277250239998
 31
0.0
  0
SOLID
  5
1A7
  8
0
 62
     7
 10
501.62772305239992
 20
787.93277250239998
 30
0.0
 11
499.12772305239997
 21
788.24277250240004
 31
0.0
 12
499.12772305239997
 22
787.62277250240004
 32
0.0
 13
499.12772305239997
 23
787.62277250240004
 33
0.0
  0
SOLID
  5
1A8
  8
0
 62
     7
 10
176.62849228499991
 20
787.93277250239998
 30
0.0
 11
179.12849228499999
 21
787.62277250240004
 31
0.0
 12
179.12849228499999
 22
788.24277250240004
 32
0.0
 13
179.12849228499999
 23
788.24277250240004
 33
0.0
  0
POINT
  5
1A9
  8
DEFPOINTS
 62
     7
 10
501.62772305239992
 20
709.67792947160001
 30
0.0
  0
POINT
  5
1AA
  8
DEFPOINTS
 62
     7
 10
176.62849228499991
 20
709.67792947160001
 30
0.0
  0
ENDBLK
  5
1AB
  8
0
 62
     7
  0
BLOCK
  8
0
 62
     7
  2
*D7
 70
     1
 10
0.0
 20
0.0
 30
0.0
  3
*D7
  1

  0
TEXT
  5
1AE
  8
0
 62
     7
 10
115.2898968638
 20
680.15331440419993
 30
0.0
 40
3.5
  1
150
 50
90.0
 41
0.75
  0
LINE
  5
1AF
  8
0
 62
     7
 10
138.1227230524
 20
610.67792947149985
 30
0.0
 11
115.7898968637999
 21
610.67792947149985
 31
0.0
  0
LINE
  5
1B0
  8
0
 62
     7
 10
180.1787722119
 20
760.67792947160001
 30
0.0
 11
115.7898968637999
 21
760.67792947160001
 31
0.0
  0
LINE
  5
1B1
  8
0
 62
     7
 10
116.7898968637999
 20
610.67792947149985
 30
0.0
 11
116.7898968637999
 21
760.67792947160001
 31
0.0
  0
SOLID
  5
1B2
  8
0
 62
     7
 10
116.7898968637999
 20
610.67792947149985
 30
0.0
 11
117.0998968638
 21
613.17792947149985
 31
0.0
 12
116.47989686379999
 22
613.17792947149985
 32
0.0
 13
116.47989686379999
 23
613.17792947149985
 33
0.0
  0
SOLID
  5
1B3
  8
0
 62
     7
 10
116.7898968637999
 20
760.67792947160001
 30
0.0
 11
116.47989686379999
 21
758.17792947160001
 31
0.0
 12
117.0998968638
 22
758.17792947160001
 32
0.0
 13
117.0998968638
 23
758.17792947160001
 33
0.0
  0
POINT
  5
1B4
  8
DEFPOINTS
 62
     7
 10
138.12772305239989
 20
610.67792947149985
 30
0.0
  0
POINT
  5
1B5
  8
DEFPOINTS
 62
     7
 10
180.18377221189999
 20
760.67792947160001
 30
0.0
  0
ENDBLK
  5
1B6
  8
0
 62
     7
  0
BLOCK
  8
0
 62
     7
  2
*D8
 70
     1
 10
0.0
 20
0.0
 30
0.0
  3
*D8
  1

  0
TEXT
  5
1B9
  8
0
 62
     7
 10
115.693542435
 20
403.65609814499999
 30
0.0
 40
3.5
  1
400
 50
90.0
 41
0.75
  0
LINE
  5
1BA
  8
0
 62
     7
 10
138.1227230524
 20
610.67792947149985
 30
0.0
 11
116.1935424349999
 21
610.67792947149985
 31
0.0
  0
LINE
  5
1BB
  8
0
 62
     7
 10
138.1227230524
 20
210.67792947149999
 30
0.0
 11
116.1935424349999
 21
210.67792947149999
 31
0.0
  0
LINE
  5
1BC
  8
0
 62
     7
 10
117.1935424349999
 20
610.67792947149985
 30
0.0
 11
117.1935424349999
 21
210.67792947149999
 31
0.0
  0
SOLID
  5
1BD
  8
0
 62
     7
 10
117.1935424349999
 20
610.67792947149985
 30
0.0
 11
116.8835424349999
 21
608.17792947149997
 31
0.0
 12
117.503542435
 22
608.17792947149997
 32
0.0
 13
117.503542435
 23
608.17792947149997
 33
0.0
  0
SOLID
  5
1BE
  8
0
 62
     7
 10
117.1935424349999
 20
210.67792947149999
 30
0.0
 11
117.503542435
 21
213.17792947149999
 31
0.0
 12
116.8835424349999
 22
213.17792947149999
 32
0.0
 13
116.8835424349999
 23
213.17792947149999
 33
0.0
  0
POINT
  5
1BF
  8
DEFPOINTS
 62
     7
 10
138.12772305239989
 20
610.67792947149985
 30
0.0
  0
POINT
  5
1C0
  8
DEFPOINTS
 62
     7
 10
138.12772305239989
 20
210.67792947149999
 30
0.0
  0
ENDBLK
  5
1C1
  8
0
 62
     7
  0
BLOCK
  8
0
 62
     7
  2
*D9
 70
     1
 10
0.0
 20
0.0
 30
0.0
  3
*D9
  1

  0
TEXT
  5
1C4
  8
0
 62
     7
 10
523.93010703580001
 20
332.0309218612
 30
0.0
 40
3.5
  1
900
 50
90.0
 41
0.75
  0
LINE
  5
1C5
  8
0
 62
     7
 10
498.07667389289998
 20
760.67792947160001
 30
0.0
 11
526.43010703579989
 21
760.67792947160001
 31
0.0
  0
LINE
  5
1C6
  8
0
 62
     7
 10
498.13272305240002
 20
-139.32207052839991
 30
0.0
 11
526.43010703579989
 21
-139.32207052839991
 31
0.0
  0
LINE
  5
1C7
  8
0
 62
     7
 10
525.43010703580001
 20
760.67792947160001
 30
0.0
 11
525.43010703580001
 21
-139.32207052839991
 31
0.0
  0
SOLID
  5
1C8
  8
0
 62
     7
 10
525.43010703580001
 20
760.67792947160001
 30
0.0
 11
525.12010703579995
 21
758.17792947160001
 31
0.0
 12
525.74010703579995
 22
758.17792947160001
 32
0.0
 13
525.74010703579995
 23
758.17792947160001
 33
0.0
  0
SOLID
  5
1C9
  8
0
 62
     7
 10
525.43010703580001
 20
-139.32207052839991
 30
0.0
 11
525.74010703579995
 21
-136.82207052839991
 31
0.0
 12
525.12010703579995
 22
-136.82207052839991
 32
0.0
 13
525.12010703579995
 23
-136.82207052839991
 33
0.0
  0
POINT
  5
1CA
  8
DEFPOINTS
 62
     7
 10
498.07167389289998
 20
760.67792947160001
 30
0.0
  0
POINT
  5
1CB
  8
DEFPOINTS
 62
     7
 10
498.12772305239992
 20
-139.32207052839991
 30
0.0
  0
ENDBLK
  5
1CC
  8
0
 62
     7
  0
BLOCK
  8
0
 62
     0
  2
NOTE1
 70
     0
 10
0.0
 20
0.0
 30
0.0
  3
NOTE1
  1

  0
TEXT
  5
1CF
  8
0
 62
     7
 10
0.0
 20
-4.7625000000000002
 30
0.0
 40
4.7625000000000002
  1
Alape
 41
0.75
  0
TEXT
  5
1D0
  8
0
 62
     7
 10
0.0
 20
-10.52499999999999
 30
0.0
 40
4.7625000000000002
  1
Waschtisch / washstand WT.RX325K
 41
0.75
  0
TEXT
  5
1D1
  8
0
 62
     7
 10
0.0
 20
-22.050000000000001
 30
0.0
 40
4.7625000000000002
  1
Datum / date 01.2004
 41
0.75
  0
TEXT
  5
1D2
  8
0
 62
     7
 10
0.0
 20
-33.575000000000003
 30
0.0
 40
4.7625000000000002
  1
Maßstab / scale 1:1
 41
0.75
  0
ENDBLK
  5
1D3
  8
0
  0
ENDSEC
  0
SECTION
  2
ENTITIES
  0
LINE
  5
1D4
  8
0
  6
CENTERX2
 62
     5
 10
646.70430405800005
 20
556.42596235389988
 30
0.0
 11
1005.4088336197
 21
556.42596235389988
 31
0.0
  0
LINE
  5
1D5
  8
0
  6
CENTERX2
 62
     5
 10
832.22021835989995
 20
387.32897608589991
 30
0.0
 11
832.22021835989995
 21
773.03277131360005
 31
0.0
  0
CIRCLE
  5
1D6
  8
0
  6
CENTERX2
 62
     5
 10
832.22021835989995
 20
556.42596235389988
 30
0.0
 40
137.5
  0
ARC
  5
1D7
  8
0
  6
CONTINUOUS
 62
     7
 10
785.22021834300006
 20
752.97165635210001
 30
0.0
 40
6.0
 50
47.934922245599999
 51
90.0
  0
ARC
  5
1D8
  8
0
  6
CONTINUOUS
 62
     7
 10
879.22021834300006
 20
752.97165635210001
 30
0.0
 40
6.0
 50
90.0
 51
132.06507775450001
  0
ARC
  5
1D9
  8
0
  6
CONTINUOUS
 62
     7
 10
897.22021834300006
 20
752.97165635210001
 30
0.0
 40
6.0
 50
47.934922245499997
 51
90.0
  0
LINE
  5
1DA
  8
0
  6
CONTINUOUS
 62
     7
 10
767.22021834300006
 20
758.97165635210001
 30
0.0
 11
785.22021834300006
 21
758.97165635210001
 31
0.0
  0
ARC
  5
1DB
  8
0
  6
CONTINUOUS
 62
     7
 10
767.22021834300006
 20
752.97165635210001
 30
0.0
 40
6.0
 50
90.0
 51
132.06507775439991
  0
LINE
  5
1DC
  8
0
  6
CONTINUOUS
 62
     7
 10
879.22021834300006
 20
758.97165635210001
 30
0.0
 11
897.22021834300006
 21
758.97165635210001
 31
0.0
  0
LINE
  5
1DD
  8
0
  6
CONTINUOUS
 62
     7
 10
761.22021835989995
 20
757.42596235389988
 30
0.0
 11
761.22021834300006
 21
758.97165635210001
 31
0.0
  0
LINE
  5
1DE
  8
0
  6
CONTINUOUS
 62
     7
 10
767.22021834300006
 20
758.97165635210001
 30
0.0
 11
761.22021834300006
 21
758.97165635210001
 31
0.0
  0
LINE
  5
1DF
  8
0
  6
CONTINUOUS
 62
     7
 10
903.22021834299994
 20
758.97165635210001
 30
0.0
 11
897.22021834300006
 21
758.97165635210001
 31
0.0
  0
LINE
  5
1E0
  8
0
  6
CONTINUOUS
 62
     7
 10
832.22021835989995
 20
757.42596235389988
 30
0.0
 11
761.22021835989995
 21
757.42596235389988
 31
0.0
  0
LINE
  5
1E1
  8
0
  6
CONTINUOUS
 62
     7
 10
832.22021835989995
 20
718.86991319440006
 30
0.0
 11
832.22021835989995
 21
757.42596235389988
 31
0.0
  0
LINE
  5
1E2
  8
0
  6
CONTINUOUS
 62
     7
 10
757.22021835989995
 20
701.54328442350004
 30
0.0
 11
757.22021835989995
 21
757.42596235389988
 31
0.0
  0
LINE
  5
1E3
  8
0
  6
CONTINUOUS
 62
     7
 10
761.22021835989995
 20
757.42596235389988
 30
0.0
 11
757.22021835989995
 21
757.42596235389988
 31
0.0
  0
POLYLINE
  5
1E4
  8
0
  6
CONTINUOUS
 62
     7
 66
     1
 10
0.0
 20
0.0
 30
0.0
 70
   128
  0
VERTEX
  5
2B6
  8
0
  6
CONTINUOUS
 62
     7
 10
757.22021835989995
 20
701.54328442350004
 30
0.0
  0
VERTEX
  5
2B7
  8
0
  6
CONTINUOUS
 62
     7
 10
757.43275388879999
 20
701.59672468449992
 30
0.0
  0
VERTEX
  5
2B8
  8
0
  6
CONTINUOUS
 62
     7
 10
758.04374614999995
 20
701.74968342750003
 30
0.0
  0
VERTEX
  5
2B9
  8
0
  6
CONTINUOUS
 62
     7
 10
758.9984504828999
 20
701.98714606809995
 30
0.0
  0
VERTEX
  5
2BA
  8
0
  6
CONTINUOUS
 62
     7
 10
760.21642326499989
 20
702.28725394389994
 30
0.0
  0
VERTEX
  5
2BB
  8
0
  6
CONTINUOUS
 62
     7
 10
761.22021835989995
 20
702.53221535030002
 30
0.0
  0
SEQEND
  5
2BC
  8
0
  6
CONTINUOUS
 62
     7
  0
LINE
  5
1EC
  8
0
  6
CONTINUOUS
 62
     7
 10
759.09557931580002
 20
701.54328442350004
 30
0.0
 11
757.22021835989995
 21
701.54328442350004
 31
0.0
  0
LINE
  5
1ED
  8
0
  6
CONTINUOUS
 62
     7
 10
832.22021835989995
 20
757.42596235389988
 30
0.0
 11
903.22021835989995
 21
757.42596235389988
 31
0.0
  0
LINE
  5
1EE
  8
0
  6
CONTINUOUS
 62
     7
 10
832.22021835989995
 20
718.86991319440006
 30
0.0
 11
832.22021835989995
 21
757.42596235389988
 31
0.0
  0
LINE
  5
1EF
  8
0
  6
CONTINUOUS
 62
     7
 10
903.22021835989995
 20
757.42596235389988
 30
0.0
 11
907.22021835990006
 21
757.42596235389988
 31
0.0
  0
LINE
  5
1F0
  8
0
  6
CONTINUOUS
 62
     7
 10
907.22021835990006
 20
701.54328442350004
 30
0.0
 11
907.22021835990006
 21
757.42596235389988
 31
0.0
  0
POLYLINE
  5
1F1
  8
0
  6
CONTINUOUS
 62
     7
 66
     1
 10
0.0
 20
0.0
 30
0.0
 70
   128
  0
VERTEX
  5
2BD
  8
0
  6
CONTINUOUS
 62
     7
 10
907.22021835990006
 20
701.54328442350004
 30
0.0
  0
VERTEX
  5
2BE
  8
0
  6
CONTINUOUS
 62
     7
 10
907.00764410470003
 20
701.59670920009978
 30
0.0
  0
VERTEX
  5
2BF
  8
0
  6
CONTINUOUS
 62
     7
 10
906.39664384399987
 20
701.74969554389997
 30
0.0
  0
VERTEX
  5
2C0
  8
0
  6
CONTINUOUS
 62
     7
 10
905.44188654059985
 20
701.98716865520009
 30
0.0
  0
VERTEX
  5
2C1
  8
0
  6
CONTINUOUS
 62
     7
 10
904.22391206389989
 20
702.28727476530003
 30
0.0
  0
VERTEX
  5
2C2
  8
0
  6
CONTINUOUS
 62
     7
 10
903.22021835989995
 20
702.53221535030002
 30
0.0
  0
SEQEND
  5
2C3
  8
0
  6
CONTINUOUS
 62
     7
  0
LINE
  5
1F9
  8
0
  6
CONTINUOUS
 62
     7
 10
905.34485740410003
 20
701.54328442350004
 30
0.0
 11
907.22021835990006
 21
701.54328442350004
 31
0.0
  0
CIRCLE
  5
1FA
  8
0
  6
CONTINUOUS
 62
     7
 10
832.22021835989995
 20
556.42596235389988
 30
0.0
 40
158.94395084049989
  0
CIRCLE
  5
1FB
  8
0
  6
CONTINUOUS
 62
     7
 10
832.22021835989995
 20
556.42596235389988
 30
0.0
 40
162.44395084049989
  0
CIRCLE
  5
1FC
  8
0
  6
CONTINUOUS
 62
     7
 10
832.22021835989995
 20
556.42596235389988
 30
0.0
 40
140.07976164539991
  0
CIRCLE
  5
1FD
  8
0
  6
CONTINUOUS
 62
     7
 10
832.22021835989995
 20
556.42596235389988
 30
0.0
 40
136.72482852059991
  0
CIRCLE
  5
1FE
  8
0
  6
CONTINUOUS
 62
     7
 10
832.22021835989995
 20
556.42596235389988
 30
0.0
 40
40.663054644799999
  0
CIRCLE
  5
1FF
  8
0
  6
CONTINUOUS
 62
     7
 10
832.22021835989995
 20
556.42596235389988
 30
0.0
 40
38.970575331100001
  0
CIRCLE
  5
200
  8
0
  6
CONTINUOUS
 62
     7
 10
832.22021835989995
 20
556.42596235389988
 30
0.0
 40
34.748994922100003
  0
CIRCLE
  5
201
  8
0
  6
CONTINUOUS
 62
     7
 10
832.22021835989995
 20
556.42596235389988
 30
0.0
 40
26.522965659899992
  0
CIRCLE
  5
202
  8
0
  6
CONTINUOUS
 62
     7
 10
832.22021835989995
 20
556.42596235389988
 30
0.0
 40
24.0
  0
LINE
  5
203
  8
0
  6
CONTINUOUS
 62
     7
 10
831.7203908189
 20
718.86914422710004
 30
0.0
 11
831.72021835989995
 21
718.92519312130003
 31
0.0
  0
LINE
  5
204
  8
0
  6
CONTINUOUS
 62
     7
 10
832.72004590100005
 20
718.86914422710004
 30
0.0
 11
832.72021835989995
 21
718.92519312130003
 31
0.0
  0
ARC
  5
205
  8
0
  6
CONTINUOUS
 62
     7
 10
832.22021835989995
 20
556.42596235389988
 30
0.0
 40
162.5
 50
90.176294984399988
 51
89.823705015599998
  0
LINE
  5
206
  8
0
  6
CONTINUOUS
 62
     7
 10
903.22021833169981
 20
758.97165635210001
 30
0.0
 11
903.22021835989995
 21
757.42596235389988
 31
0.0
  0
LINE
  5
207
  8
0
  6
CONTINUOUS
 62
     7
 10
903.22021833169981
 20
758.97165635210001
 30
0.0
 11
905.22021833170004
 21
758.97165635210001
 31
0.0
  0
LINE
  5
208
  8
0
  6
CONTINUOUS
 62
     7
 10
905.22021833170004
 20
758.97165635210001
 30
0.0
 11
905.22021833170004
 21
757.42596235399992
 31
0.0
  0
LINE
  5
209
  8
0
  6
CONTINUOUS
 62
     7
 10
785.22021834300006
 20
757.42596235389988
 30
0.0
 11
785.22021834300006
 21
758.97165635210001
 31
0.0
  0
LINE
  5
20A
  8
0
  6
CONTINUOUS
 62
     7
 10
879.22021834300006
 20
758.97165635210001
 30
0.0
 11
879.22021834300006
 21
757.42596235389988
 31
0.0
  0
LINE
  5
20B
  8
0
  6
CONTINUOUS
 62
     7
 10
897.22021834300006
 20
757.42596235389988
 30
0.0
 11
897.22021834300006
 21
758.97165635210001
 31
0.0
  0
LINE
  5
20C
  8
0
  6
CONTINUOUS
 62
     7
 10
767.22021834300006
 20
757.42596235389988
 30
0.0
 11
767.22021834300006
 21
758.97165635210001
 31
0.0
  0
LINE
  5
20D
  8
0
  6
CONTINUOUS
 62
     7
 10
761.22021835989995
 20
702.59452942630003
 30
0.0
 11
761.22021835989995
 21
757.42596235389988
 31
0.0
  0
LINE
  5
20E
  8
0
  6
CONTINUOUS
 62
     7
 10
903.22021835989995
 20
702.59452942630003
 30
0.0
 11
903.22021835989995
 21
757.42596235389988
 31
0.0
  0
DIMENSION
  5
20F
  8
0
 62
     7
  2
*D0
 10
969.72021835990006
 20
376.99256728620003
 30
0.0
 11
833.03042484869991
 21
376.99256728620003
 31
0.0
 70
   128
  1
%%c<>
 13
694.72021835989995
 23
556.42596235389988
 33
0.0
 14
969.72021835990006
 24
556.42596235389988
 34
0.0
  0
DIMENSION
  5
210
  8
0
 62
     7
  2
*D1
 10
907.22021835990006
 20
779.07988602670002
 30
0.0
 11
831.65178558310004
 21
779.07988602670002
 31
0.0
 70
   128
 13
757.22021835989995
 23
757.42596235389988
 33
0.0
 14
907.22021835990006
 24
757.42596235389988
 34
0.0
  0
DIMENSION
  5
211
  8
0
 62
     7
  2
*D2
 10
994.66416920039978
 20
360.86322882370001
 30
0.0
 11
834.12549271499995
 21
360.86322882370001
 31
0.0
 70
   128
  1
%%c<>
 13
669.77626751939999
 23
556.42596235389988
 33
0.0
 14
994.66416920039978
 24
556.42596235389988
 34
0.0
  0
DIMENSION
  5
212
  8
0
 62
     7
  2
*D3
 10
1020.4808553326
 20
758.97165635210001
 30
0.0
 11
1020.4808553326
 21
647.90665271579985
 31
0.0
 70
   128
 13
832.22021835989995
 23
556.42596235389988
 33
0.0
 14
897.22021834229997
 24
758.97165635210001
 34
0.0
 50
90.0
  0
DIMENSION
  5
213
  8
0
 62
     7
  2
*D4
 10
1045.1375508683991
 20
393.98201151339993
 30
0.0
 11
1045.1375508683991
 21
563.65419562830004
 31
0.0
 70
   128
 13
897.22021834229997
 23
758.97165635210001
 33
0.0
 14
832.22021835989995
 24
393.98201151339993
 34
0.0
 50
90.0
  0
INSERT
  5
214
  8
0
  2
NOTE0
 10
959.45822177369985
 20
96.113641942299992
 30
0.0
  0
LINE
  5
221
  8
0
  6
CENTERX2
 62
     5
 10
339.12810766870001
 20
-158.84904155649991
 30
0.0
 11
339.12810766870001
 21
777.52493484869979
 31
0.0
  0
LINE
  5
222
  8
0
  6
CONTINUOUS
 62
     7
 10
176.68377221189991
 20
757.17792947160001
 30
0.0
 11
176.68377221189991
 21
710.67792947160001
 31
0.0
  0
LINE
  5
223
  8
0
  6
CONTINUOUS
 62
     7
 10
501.57167389289998
 20
710.67792947160001
 30
0.0
 11
501.57167389289998
 21
757.17792947160001
 31
0.0
  0
ARC
  5
224
  8
0
  6
CONTINUOUS
 62
     7
 10
498.07167389289998
 20
757.17792947160001
 30
0.0
 40
3.5
 50
0.0
 51
90.0
  0
ARC
  5
225
  8
0
  6
CONTINUOUS
 62
     7
 10
180.18377221189999
 20
757.17792947160001
 30
0.0
 40
3.5
 50
90.0
 51
180.0
  0
LINE
  5
226
  8
0
  6
CONTINUOUS
 62
     7
 10
501.62772305239992
 20
-135.82207052839991
 30
0.0
 11
501.62772305239992
 21
709.67792947160001
 31
0.0
  0
ARC
  5
227
  8
0
  6
CONTINUOUS
 62
     7
 10
498.12772305239992
 20
-135.82207052839991
 30
0.0
 40
3.5
 50
270.0
 51
0.0
  0
LINE
  5
228
  8
0
  6
CONTINUOUS
 62
     7
 10
138.1277230522999
 20
577.67792947160001
 30
0.0
 11
136.58202905409991
 21
577.67792947160001
 31
0.0
  0
LINE
  5
229
  8
0
  6
CONTINUOUS
 62
     7
 10
136.58202905409991
 20
577.67792947160001
 30
0.0
 11
136.58202905409991
 21
607.67792947160001
 31
0.0
  0
LINE
  5
22A
  8
0
  6
CONTINUOUS
 62
     7
 10
136.58202905409991
 20
607.67792947160001
 30
0.0
 11
138.12772305239989
 21
607.67792947160001
 31
0.0
  0
LINE
  5
22B
  8
0
  6
CONTINUOUS
 62
     7
 10
136.58202905409991
 20
560.67792947160001
 30
0.0
 11
136.58202905409991
 21
576.1779294715999
 31
0.0
  0
LINE
  5
22C
  8
0
  6
CONTINUOUS
 62
     7
 10
138.1277230522999
 20
576.1779294715999
 30
0.0
 11
136.58202905409991
 21
576.1779294715999
 31
0.0
  0
LINE
  5
22D
  8
0
  6
CONTINUOUS
 62
     7
 10
136.58202905409991
 20
560.67792947160001
 30
0.0
 11
138.12772305239989
 21
560.67792947160001
 31
0.0
  0
LINE
  5
22E
  8
0
  6
CONTINUOUS
 62
     7
 10
136.58202905409991
 20
537.67792947160001
 30
0.0
 11
136.58202905409991
 21
548.67792947160001
 31
0.0
  0
LINE
  5
22F
  8
0
  6
CONTINUOUS
 62
     7
 10
138.12772305239989
 20
537.67792947160001
 30
0.0
 11
136.58202905409991
 21
537.67792947160001
 31
0.0
  0
LINE
  5
230
  8
0
  6
CONTINUOUS
 62
     7
 10
136.58202905409991
 20
548.67792947160001
 30
0.0
 11
138.12772305239989
 21
548.67792947160001
 31
0.0
  0
LINE
  5
231
  8
0
  6
CONTINUOUS
 62
     7
 10
136.58202905409991
 20
577.67792947160001
 30
0.0
 11
136.58202905409991
 21
576.1779294715999
 31
0.0
  0
LINE
  5
232
  8
0
  6
CONTINUOUS
 62
     7
 10
136.58202905409991
 20
548.67792947160001
 30
0.0
 11
136.58202905409991
 21
560.67792947160001
 31
0.0
  0
LINE
  5
233
  8
0
  6
CONTINUOUS
 62
     7
 10
138.1277230522999
 20
277.6779294715999
 30
0.0
 11
136.58202905420001
 21
277.6779294715999
 31
0.0
  0
LINE
  5
234
  8
0
  6
CONTINUOUS
 62
     7
 10
136.58202905420001
 20
277.6779294715999
 30
0.0
 11
136.58202905420001
 21
307.67792947160001
 31
0.0
  0
LINE
  5
235
  8
0
  6
CONTINUOUS
 62
     7
 10
136.58202905420001
 20
307.67792947160001
 30
0.0
 11
138.1277230522999
 21
307.67792947160001
 31
0.0
  0
LINE
  5
236
  8
0
  6
CONTINUOUS
 62
     7
 10
136.58202905420001
 20
237.67792947160001
 30
0.0
 11
136.58202905420001
 21
248.67792947160001
 31
0.0
  0
LINE
  5
237
  8
0
  6
CONTINUOUS
 62
     7
 10
138.12772305239989
 20
237.67792947160001
 30
0.0
 11
136.58202905420001
 21
237.67792947160001
 31
0.0
  0
LINE
  5
238
  8
0
  6
CONTINUOUS
 62
     7
 10
136.58202905420001
 20
248.67792947160001
 30
0.0
 11
138.12772305239989
 21
248.67792947160001
 31
0.0
  0
LINE
  5
239
  8
0
  6
CONTINUOUS
 62
     7
 10
136.58202905420001
 20
260.67792947160001
 30
0.0
 11
136.58202905420001
 21
276.17792947160001
 31
0.0
  0
LINE
  5
23A
  8
0
  6
CONTINUOUS
 62
     7
 10
138.1277230522999
 20
276.17792947160001
 30
0.0
 11
136.58202905420001
 21
276.17792947160001
 31
0.0
  0
LINE
  5
23B
  8
0
  6
CONTINUOUS
 62
     7
 10
136.58202905420001
 20
260.67792947160001
 30
0.0
 11
138.12772305239989
 21
260.67792947160001
 31
0.0
  0
LINE
  5
23C
  8
0
  6
CONTINUOUS
 62
     7
 10
136.58202905420001
 20
277.6779294715999
 30
0.0
 11
136.58202905420001
 21
276.17792947160001
 31
0.0
  0
LINE
  5
23D
  8
0
  6
CONTINUOUS
 62
     7
 10
136.58202905420001
 20
248.67792947160001
 30
0.0
 11
136.58202905420001
 21
260.67792947160001
 31
0.0
  0
LINE
  5
23E
  8
0
  6
CONTINUOUS
 62
     7
 10
194.01040098269991
 20
606.67792947149985
 30
0.0
 11
138.12772305239989
 21
606.67792947149985
 31
0.0
  0
LINE
  5
23F
  8
0
  6
CONTINUOUS
 62
     7
 10
192.95915597999999
 20
610.67792947149985
 30
0.0
 11
138.12772305239989
 21
610.67792947149985
 31
0.0
  0
POLYLINE
  5
240
  8
0
  6
CONTINUOUS
 62
     7
 66
     1
 10
0.0
 20
0.0
 30
0.0
 70
   128
  0
VERTEX
  5
2C4
  8
0
  6
CONTINUOUS
 62
     7
 10
194.01040098269991
 20
606.67792947149985
 30
0.0
  0
VERTEX
  5
2C5
  8
0
  6
CONTINUOUS
 62
     7
 10
193.95696072179999
 20
607.96444137589992
 30
0.0
  0
VERTEX
  5
2C6
  8
0
  6
CONTINUOUS
 62
     7
 10
193.80400197879999
 20
609.10898362549995
 30
0.0
  0
VERTEX
  5
2C7
  8
0
  6
CONTINUOUS
 62
     7
 10
193.56653933809989
 20
610.00415067589995
 30
0.0
  0
VERTEX
  5
2C8
  8
0
  6
CONTINUOUS
 62
     7
 10
193.26643146239999
 20
610.54993094459985
 30
0.0
  0
VERTEX
  5
2C9
  8
0
  6
CONTINUOUS
 62
     7
 10
193.02147005590001
 20
610.67792947149985
 30
0.0
  0
SEQEND
  5
2CA
  8
0
  6
CONTINUOUS
 62
     7
  0
LINE
  5
248
  8
0
  6
CONTINUOUS
 62
     7
 10
138.12772305239989
 20
610.67792947149985
 30
0.0
 11
138.12772305239989
 21
606.67792947149985
 31
0.0
  0
LINE
  5
249
  8
0
  6
CONTINUOUS
 62
     7
 10
194.01040098269991
 20
214.67792947149999
 30
0.0
 11
138.12772305239989
 21
214.67792947149999
 31
0.0
  0
LINE
  5
24A
  8
0
  6
CONTINUOUS
 62
     7
 10
194.01040098269991
 20
214.67792947149999
 30
0.0
 11
194.01040098269991
 21
606.67792947149985
 31
0.0
  0
LINE
  5
24B
  8
0
  6
CONTINUOUS
 62
     7
 10
138.12772305239989
 20
606.67792947149985
 30
0.0
 11
138.12772305239989
 21
214.67792947149999
 31
0.0
  0
LINE
  5
24C
  8
0
  6
CONTINUOUS
 62
     7
 10
192.95915597979999
 20
210.67792947149999
 30
0.0
 11
138.12772305239989
 21
210.67792947149999
 31
0.0
  0
LINE
  5
24D
  8
0
  6
CONTINUOUS
 62
     7
 10
138.12772305239989
 20
214.67792947149999
 30
0.0
 11
138.12772305239989
 21
210.67792947149999
 31
0.0
  0
POLYLINE
  5
24E
  8
0
  6
CONTINUOUS
 62
     7
 66
     1
 10
0.0
 20
0.0
 30
0.0
 70
   128
  0
VERTEX
  5
2CB
  8
0
  6
CONTINUOUS
 62
     7
 10
193.02147005590001
 20
210.67792947149999
 30
0.0
  0
VERTEX
  5
2CC
  8
0
  6
CONTINUOUS
 62
     7
 10
193.35405272130001
 20
210.9164841809
 30
0.0
  0
VERTEX
  5
2CD
  8
0
  6
CONTINUOUS
 62
     7
 10
193.65153292759999
 20
211.6079906816999
 30
0.0
  0
VERTEX
  5
2CE
  8
0
  6
CONTINUOUS
 62
     7
 10
193.87340951589991
 20
212.66065158379999
 30
0.0
  0
VERTEX
  5
2CF
  8
0
  6
CONTINUOUS
 62
     7
 10
193.99245453360001
 20
213.9257356043
 30
0.0
  0
VERTEX
  5
2D0
  8
0
  6
CONTINUOUS
 62
     7
 10
194.01040098269991
 20
214.67792947149999
 30
0.0
  0
SEQEND
  5
2D1
  8
0
  6
CONTINUOUS
 62
     7
  0
LINE
  5
256
  8
0
  6
CONTINUOUS
 62
     7
 10
180.18377221189999
 20
760.67792947160001
 30
0.0
 11
498.07167389279988
 21
760.67792947160001
 31
0.0
  0
LINE
  5
257
  8
0
  6
CONTINUOUS
 62
     7
 10
176.62849228499991
 20
709.67792947160001
 30
0.0
 11
176.62849228499991
 21
610.67792947160001
 31
0.0
  0
LINE
  5
258
  8
0
  6
CONTINUOUS
 62
     7
 10
176.62849228499991
 20
210.67792947160001
 30
0.0
 11
176.62849228499991
 21
-135.82207052839991
 31
0.0
  0
LINE
  5
259
  8
0
  6
CONTINUOUS
 62
     7
 10
498.12772305239992
 20
-139.32207052839991
 30
0.0
 11
180.1284757169
 21
-139.32207052839991
 31
0.0
  0
POLYLINE
  5
25A
  8
0
  6
CONTINUOUS
 62
     7
 66
     1
 10
0.0
 20
0.0
 30
0.0
 70
   128
  0
VERTEX
  5
2D2
  8
0
  6
CONTINUOUS
 62
     7
 10
180.1284757169
 20
-139.32207052839991
 30
0.0
  0
VERTEX
  5
2D3
  8
0
  6
CONTINUOUS
 62
     7
 10
179.44566282209991
 20
-139.2548190098
 30
0.0
  0
VERTEX
  5
2D4
  8
0
  6
CONTINUOUS
 62
     7
 10
178.78909004400001
 20
-139.05564889219991
 30
0.0
  0
VERTEX
  5
2D5
  8
0
  6
CONTINUOUS
 62
     7
 10
178.1839891061
 20
-138.7322141715
 30
0.0
  0
VERTEX
  5
2D6
  8
0
  6
CONTINUOUS
 62
     7
 10
177.65361369809989
 20
-138.29694426259991
 30
0.0
  0
VERTEX
  5
2D7
  8
0
  6
CONTINUOUS
 62
     7
 10
177.21834584969989
 20
-137.7665663439999
 30
0.0
  0
VERTEX
  5
2D8
  8
0
  6
CONTINUOUS
 62
     7
 10
176.8949126599999
 20
-137.1614625416999
 30
0.0
  0
VERTEX
  5
2D9
  8
0
  6
CONTINUOUS
 62
     7
 10
176.69574348520001
 20
-136.5048866555
 30
0.0
  0
VERTEX
  5
2DA
  8
0
  6
CONTINUOUS
 62
     7
 10
176.62849228499991
 20
-135.82207052839991
 30
0.0
  0
SEQEND
  5
2DB
  8
0
  6
CONTINUOUS
 62
     7
  0
LINE
  5
265
  8
0
  6
CONTINUOUS
 62
     7
 10
492.37772305239997
 20
-139.32207052839991
 30
0.0
 11
185.8784484979
 21
-139.32207052839991
 31
0.0
  0
LINE
  5
266
  8
0
  6
CONTINUOUS
 62
     7
 10
185.8784484979
 20
-139.32207052839991
 30
0.0
 11
180.1284757169
 21
-139.32207052839991
 31
0.0
  0
LINE
  5
267
  8
0
  6
CONTINUOUS
 62
     7
 10
501.57167389289998
 20
757.17792947160001
 30
0.0
 11
176.68377221189991
 21
757.17792947160001
 31
0.0
  0
LINE
  5
268
  8
0
  6
CONTINUOUS
 62
     7
 10
176.62849228499991
 20
-135.82207052839991
 30
0.0
 11
501.62772305239992
 21
-135.82207052839991
 31
0.0
  0
DIMENSION
  5
269
  8
0
 62
     7
  2
*D6
 10
176.62849228499991
 20
787.93277250239998
 30
0.0
 11
321.98875069130003
 21
787.93277250239998
 31
0.0
 70
   128
 13
501.62772305239992
 23
709.67792947160001
 33
0.0
 14
176.62849228499991
 24
709.67792947160001
 34
0.0
  0
DIMENSION
  5
26A
  8
0
 62
     7
  2
*D7
 10
116.7898968637999
 20
760.67792947160001
 30
0.0
 11
116.7898968637999
 21
683.44662069230003
 31
0.0
 70
   128
 13
138.12772305239989
 23
610.67792947149985
 33
0.0
 14
180.18377221189999
 24
760.67792947160001
 34
0.0
 50
90.0
  0
DIMENSION
  5
26B
  8
0
 62
     7
  2
*D8
 10
117.1935424349999
 20
210.67792947149999
 30
0.0
 11
117.1935424349999
 21
406.94940443309991
 31
0.0
 70
   128
 13
138.12772305239989
 23
610.67792947149985
 33
0.0
 14
138.12772305239989
 24
210.67792947149999
 34
0.0
 50
90.0
  0
DIMENSION
  5
26C
  8
0
 62
     7
  2
*D9
 10
525.43010703580001
 20
-139.32207052839991
 30
0.0
 11
525.43010703580001
 21
335.3242281492
 31
0.0
 70
   128
 13
498.07167389289998
 23
760.67792947160001
 33
0.0
 14
498.12772305239992
 24
-139.32207052839991
 34
0.0
 50
90.0
  0
INSERT
  5
26D
  8
0
  2
NOTE1
 10
666.30243754280002
 20
272.93575151160002
 30
0.0
  0
VIEWPORT
  5
272
 67
     1
  8
0
  6
CONTINUOUS
 10
204.45939636230469
 20
142.3987445831298
 30
0.0
 40
501.06514023246018
 41
314.19248547363281
 68
     1
 69
     1
1001
ACAD
1000
MVIEW
1002
{
1070
    16
1010
0.0
1020
0.0
1030
0.0
1010
0.0
1020
0.0
1030
1.0
1040
0.0
1040
314.19248547363281
1040
204.45939636230469
1040
142.3987445831298
1040
50.0
1040
0.0
1040
0.0
1070
     0
1070
  2000
1070
     1
1070
     1
1070
     0
1070
     0
1070
     0
1070
     0
1040
0.0
1040
0.0
1040
0.0
1040
10.0
1040
10.0
1040
10.0
1040
10.0
1070
     0
1002
{
1002
}
1002
}
  0
VIEWPORT
  5
276
 67
     1
  8
0
  6
CONTINUOUS
 10
203.63865066213381
 20
142.60383080920329
 30
0.0
 40
407.91052373748101
 41
283.83968729163161
 68
     2
 69
     3
1001
ACAD
1000
MVIEW
1002
{
1070
    16
1010
0.0
1020
0.0
1030
0.0
1010
0.0
1020
0.0
1030
1.0
1040
0.0
1040
960.12626638885047
1040
578.94263733276455
1040
317.03682892506112
1040
50.0
1040
0.0
1040
0.0
1070
     0
1070
  2000
1070
     1
1070
     1
1070
     0
1070
     0
1070
     0
1070
     0
1040
0.0
1040
0.0
1040
0.0
1040
1.0
1040
1.0
1040
0.0
1040
0.0
1070
     0
1002
{
1002
}
1002
}
  0
ENDSEC
  0
EOF
