  0
SECTION
  2
HEADER
  9
$ACADVER
  1
AC1027
  9
$ACADMAINTVER
 70
   125
  9
$DWGCODEPAGE
  3
ANSI_1252
  9
$LASTSAVEDBY
  1
fleminab
  9
$REQUIREDVERSIONS
160
                 0
  9
$INSBASE
 10
8.0
 20
5.0
 30
0.0
  9
$EXTMIN
 10
807.9637528631646
 20
340.3827697704183
 30
0.0
  9
$EXTMAX
 10
6558.78162570826
 20
4531.101129467404
 30
0.0
  9
$LIMMIN
 10
0.0
 20
0.0
  9
$LIMMAX
 10
420.0
 20
297.0
  9
$ORTHOMODE
 70
     0
  9
$REGENMODE
 70
     1
  9
$FILLMODE
 70
     1
  9
$QTEXTMODE
 70
     0
  9
$MIRRTEXT
 70
     1
  9
$LTSCALE
 40
0.5
  9
$ATTMODE
 70
     1
  9
$TEXTSIZE
 40
6.0
  9
$TRACEWID
 40
1.0
  9
$TEXTSTYLE
  7
黑体
  9
$CLAYER
  8
0
  9
$CELTYPE
  6
ByLayer
  9
$CECOLOR
 62
   256
  9
$CELTSCALE
 40
1.0
  9
$DISPSILH
 70
     1
  9
$DIMSCALE
 40
1.0
  9
$DIMASZ
 40
2.5
  9
$DIMEXO
 40
0.625
  9
$DIMDLI
 40
3.75
  9
$DIMRND
 40
0.0
  9
$DIMDLE
 40
0.0
  9
$DIMEXE
 40
1.25
  9
$DIMTP
 40
0.0
  9
$DIMTM
 40
0.0
  9
$DIMTXT
 40
30.0
  9
$DIMCEN
 40
2.5
  9
$DIMTSZ
 40
0.0
  9
$DIMTOL
 70
     0
  9
$DIMLIM
 70
     0
  9
$DIMTIH
 70
     0
  9
$DIMTOH
 70
     0
  9
$DIMSE1
 70
     0
  9
$DIMSE2
 70
     0
  9
$DIMTAD
 70
     1
  9
$DIMZIN
 70
     8
  9
$DIMBLK
  1
ClosedBlank
  9
$DIMASO
 70
     1
  9
$DIMSHO
 70
     1
  9
$DIMPOST
  1

  9
$DIMAPOST
  1

  9
$DIMALT
 70
     0
  9
$DIMALTD
 70
     3
  9
$DIMALTF
 40
0.03937007874016
  9
$DIMLFAC
 40
1.0
  9
$DIMTOFL
 70
     1
  9
$DIMTVP
 40
0.0
  9
$DIMTIX
 70
     0
  9
$DIMSOXD
 70
     0
  9
$DIMSAH
 70
     0
  9
$DIMBLK1
  1

  9
$DIMBLK2
  1

  9
$DIMSTYLE
  2
线性标注
  9
$DIMCLRD
 70
     0
  9
$DIMCLRE
 70
     0
  9
$DIMCLRT
 70
     0
  9
$DIMTFAC
 40
1.0
  9
$DIMGAP
 40
0.625
  9
$DIMJUST
 70
     0
  9
$DIMSD1
 70
     0
  9
$DIMSD2
 70
     0
  9
$DIMTOLJ
 70
     0
  9
$DIMTZIN
 70
     8
  9
$DIMALTZ
 70
     0
  9
$DIMALTTZ
 70
     0
  9
$DIMUPT
 70
     0
  9
$DIMDEC
 70
     1
  9
$DIMTDEC
 70
     1
  9
$DIMALTU
 70
     2
  9
$DIMALTTD
 70
     3
  9
$DIMTXSTY
  7
样式 1
  9
$DIMAUNIT
 70
     0
  9
$DIMADEC
 70
     0
  9
$DIMALTRND
 40
0.0
  9
$DIMAZIN
 70
     0
  9
$DIMDSEP
 70
    46
  9
$DIMATFIT
 70
     3
  9
$DIMFRAC
 70
     0
  9
$DIMLDRBLK
  1

  9
$DIMLUNIT
 70
     2
  9
$DIMLWD
 70
    -2
  9
$DIMLWE
 70
    -2
  9
$DIMTMOVE
 70
     0
  9
$DIMFXL
 40
1.25
  9
$DIMFXLON
 70
     0
  9
$DIMJOGANG
 40
1.570796326794896
  9
$DIMTFILL
 70
     0
  9
$DIMTFILLCLR
 70
     0
  9
$DIMARCSYM
 70
     0
  9
$DIMLTYPE
  6

  9
$DIMLTEX1
  6

  9
$DIMLTEX2
  6

  9
$DIMTXTDIRECTION
 70
     0
  9
$LUNITS
 70
     2
  9
$LUPREC
 70
     4
  9
$SKETCHINC
 40
1.0
  9
$FILLETRAD
 40
46.0
  9
$AUNITS
 70
     0
  9
$AUPREC
 70
     0
  9
$MENU
  1
.
  9
$ELEVATION
 40
0.0
  9
$PELEVATION
 40
0.0
  9
$THICKNESS
 40
0.0
  9
$LIMCHECK
 70
     0
  9
$CHAMFERA
 40
1.0
  9
$CHAMFERB
 40
1.0
  9
$CHAMFERC
 40
0.5
  9
$CHAMFERD
 40
0.7853981633974483
  9
$SKPOLY
 70
     0
  9
$TDCREATE
 40
2454593.406203704
  9
$TDUCREATE
 40
2454592.989546620
  9
$TDUPDATE
 40
2458015.625879629
  9
$TDUUPDATE
 40
2458015.209212963
  9
$TDINDWG
 40
8.2797253009
  9
$TDUSRTIMER
 40
8.2797195139
  9
$USRTIMER
 70
     1
  9
$ANGBASE
 50
0.0
  9
$ANGDIR
 70
     0
  9
$PDMODE
 70
    34
  9
$PDSIZE
 40
-2.0
  9
$PLINEWID
 40
0.0
  9
$SPLFRAME
 70
     0
  9
$SPLINETYPE
 70
     6
  9
$SPLINESEGS
 70
     8
  9
$HANDSEED
  5
606371D
  9
$SURFTAB1
 70
     6
  9
$SURFTAB2
 70
     6
  9
$SURFTYPE
 70
     6
  9
$SURFU
 70
     6
  9
$SURFV
 70
     6
  9
$UCSBASE
  2

  9
$UCSNAME
  2

  9
$UCSORG
 10
0.0
 20
0.0
 30
0.0
  9
$UCSXDIR
 10
1.0
 20
0.0
 30
0.0
  9
$UCSYDIR
 10
0.0
 20
1.0
 30
0.0
  9
$UCSORTHOREF
  2

  9
$UCSORTHOVIEW
 70
     1
  9
$UCSORGTOP
 10
0.0
 20
0.0
 30
0.0
  9
$UCSORGBOTTOM
 10
0.0
 20
0.0
 30
0.0
  9
$UCSORGLEFT
 10
0.0
 20
0.0
 30
0.0
  9
$UCSORGRIGHT
 10
0.0
 20
0.0
 30
0.0
  9
$UCSORGFRONT
 10
0.0
 20
0.0
 30
0.0
  9
$UCSORGBACK
 10
0.0
 20
0.0
 30
0.0
  9
$PUCSBASE
  2

  9
$PUCSNAME
  2

  9
$PUCSORG
 10
0.0
 20
0.0
 30
0.0
  9
$PUCSXDIR
 10
1.0
 20
0.0
 30
0.0
  9
$PUCSYDIR
 10
0.0
 20
1.0
 30
0.0
  9
$PUCSORTHOREF
  2

  9
$PUCSORTHOVIEW
 70
     0
  9
$PUCSORGTOP
 10
0.0
 20
0.0
 30
0.0
  9
$PUCSORGBOTTOM
 10
0.0
 20
0.0
 30
0.0
  9
$PUCSORGLEFT
 10
0.0
 20
0.0
 30
0.0
  9
$PUCSORGRIGHT
 10
0.0
 20
0.0
 30
0.0
  9
$PUCSORGFRONT
 10
0.0
 20
0.0
 30
0.0
  9
$PUCSORGBACK
 10
0.0
 20
0.0
 30
0.0
  9
$USERI1
 70
     0
  9
$USERI2
 70
     0
  9
$USERI3
 70
     0
  9
$USERI4
 70
     0
  9
$USERI5
 70
     0
  9
$USERR1
 40
0.0
  9
$USERR2
 40
0.0
  9
$USERR3
 40
0.0
  9
$USERR4
 40
0.0
  9
$USERR5
 40
0.0
  9
$WORLDVIEW
 70
     1
  9
$SHADEDGE
 70
     3
  9
$SHADEDIF
 70
    70
  9
$TILEMODE
 70
     1
  9
$MAXACTVP
 70
    64
  9
$PINSBASE
 10
0.0
 20
0.0
 30
0.0
  9
$PLIMCHECK
 70
     0
  9
$PEXTMIN
 10
0.0451739414299368
 20
0.0000025706221436
 30
0.0
  9
$PEXTMAX
 10
287.29517394143
 20
200.4000025706222
 30
0.0
  9
$PLIMMIN
 10
-4.7730712890625
 20
-4.773083209991455
  9
$PLIMMAX
 10
292.2375793457031
 20
205.2425875663757
  9
$UNITMODE
 70
     0
  9
$VISRETAIN
 70
     1
  9
$PLINEGEN
 70
     0
  9
$PSLTSCALE
 70
     0
  9
$TREEDEPTH
 70
  3020
  9
$CMLSTYLE
  2
Standard
  9
$CMLJUST
 70
     0
  9
$CMLSCALE
 40
20.0
  9
$PROXYGRAPHICS
 70
     1
  9
$MEASUREMENT
 70
     1
  9
$CELWEIGHT
370
    -1
  9
$ENDCAPS
280
     0
  9
$JOINSTYLE
280
     0
  9
$LWDISPLAY
290
     0
  9
$INSUNITS
 70
     4
  9
$HYPERLINKBASE
  1

  9
$STYLESHEET
  1
acad.ctb
  9
$XEDIT
290
     1
  9
$CEPSNTYPE
380
     0
  9
$PSTYLEMODE
290
     1
  9
$FINGERPRINTGUID
  2
{FDEAD578-A652-11D2-9A35-0060089B3A3F}
  9
$VERSIONGUID
  2
{E62E30B5-511C-DB49-A271-AF3CB31487DB}
  9
$EXTNAMES
290
     1
  9
$PSVPSCALE
 40
1.0
  9
$OLESTARTUP
290
     0
  9
$SORTENTS
280
   127
  9
$INDEXCTL
280
     0
  9
$HIDETEXT
280
     1
  9
$XCLIPFRAME
280
     2
  9
$HALOGAP
280
     0
  9
$OBSCOLOR
 70
   257
  9
$OBSLTYPE
280
     0
  9
$INTERSECTIONDISPLAY
280
     0
  9
$INTERSECTIONCOLOR
 70
   257
  9
$DIMASSOC
280
     1
  9
$PROJECTNAME
  1

  9
$CAMERADISPLAY
290
     0
  9
$LENSLENGTH
 40
50.0
  9
$CAMERAHEIGHT
 40
0.0
  9
$STEPSPERSEC
 40
2.0
  9
$STEPSIZE
 40
6.0
  9
$3DDWFPREC
 40
2.0
  9
$PSOLWIDTH
 40
0.25
  9
$PSOLHEIGHT
 40
4.0
  9
$LOFTANG1
 40
1.570795999999999
  9
$LOFTANG2
 40
1.570795999999999
  9
$LOFTMAG1
 40
0.0
  9
$LOFTMAG2
 40
0.0
  9
$LOFTPARAM
 70
     7
  9
$LOFTNORMALS
280
     1
  9
$LATITUDE
 40
37.795
  9
$LONGITUDE
 40
-122.394
  9
$NORTHDIRECTION
 40
0.0
  9
$TIMEZONE
 70
 -8000
  9
$LIGHTGLYPHDISPLAY
280
     1
  9
$TILEMODELIGHTSYNCH
280
     1
  9
$CMATERIAL
347
982F
  9
$SOLIDHIST
280
     0
  9
$SHOWHIST
280
     1
  9
$DWFFRAME
280
     2
  9
$DGNFRAME
280
     2
  9
$REALWORLDSCALE
290
     1
  9
$INTERFERECOLOR
 62
   256
  9
$INTERFEREOBJVS
345
9851
  9
$INTERFEREVPVS
346
60636F4
  9
$CSHADOW
280
     0
  9
$SHADOWPLANELOCATION
 40
0.0
  0
ENDSEC
  0
SECTION
  2
CLASSES
  0
CLASS
  1
ACDBDICTIONARYWDFLT
  2
AcDbDictionaryWithDefault
  3
ObjectDBX Classes
 90
        0
 91
        1
280
     0
281
     0
  0
CLASS
  1
ACDBPLACEHOLDER
  2
AcDbPlaceHolder
  3
ObjectDBX Classes
 90
        0
 91
        1
280
     0
281
     0
  0
CLASS
  1
LAYOUT
  2
AcDbLayout
  3
ObjectDBX Classes
 90
        0
 91
        2
280
     0
281
     0
  0
CLASS
  1
PLOTSETTINGS
  2
AcDbPlotSettings
  3
ObjectDBX Classes
 90
        0
 91
        1
280
     0
281
     0
  0
CLASS
  1
DICTIONARYVAR
  2
AcDbDictionaryVar
  3
ObjectDBX Classes
 90
        0
 91
       21
280
     0
281
     0
  0
CLASS
  1
WIPEOUT
  2
AcDbWipeout
  3
WipeOut|Product Desc: Object Enabler for WipeOut entity | Company: Autodesk, Inc. | WEB Address: www.autodesk.com
 90
     2175
 91
        0
280
     0
281
     1
  0
CLASS
  1
WIPEOUTVARIABLES
  2
AcDbWipeoutVariables
  3
"WipeOut|Product Desc:     WipeOut Dbx Application|Company:          Autodesk, Inc.|WEB Address:      www.autodesk.com"
 90
        0
 91
        0
280
     0
281
     0
  0
CLASS
  1
DIMASSOC
  2
AcDbDimAssoc
  3
"AcDbDimAssoc|Product Desc:     AcDim ARX App For Dimension|Company:          Autodesk, Inc.|WEB Address:      www.autodesk.com"
 90
        0
 91
        0
280
     0
281
     0
  0
CLASS
  1
RASTERVARIABLES
  2
AcDbRasterVariables
  3
ISM
 90
        0
 91
        3
280
     0
281
     0
  0
CLASS
  1
IMAGEDEF
  2
AcDbRasterImageDef
  3
ISM
 90
        0
 91
        1
280
     0
281
     0
  0
CLASS
  1
IMAGEDEF_REACTOR
  2
AcDbRasterImageDefReactor
  3
ISM
 90
        1
 91
        0
280
     0
281
     0
  0
CLASS
  1
IMAGE
  2
AcDbRasterImage
  3
ISM
 90
     2175
 91
        0
280
     0
281
     1
  0
CLASS
  1
MATERIAL
  2
AcDbMaterial
  3
ObjectDBX Classes
 90
     1153
 91
        3
280
     0
281
     0
  0
CLASS
  1
VISUALSTYLE
  2
AcDbVisualStyle
  3
ObjectDBX Classes
 90
     4095
 91
       26
280
     0
281
     0
  0
CLASS
  1
TABLESTYLE
  2
AcDbTableStyle
  3
ObjectDBX Classes
 90
     4095
 91
        1
280
     0
281
     0
  0
CLASS
  1
SCALE
  2
AcDbScale
  3
ObjectDBX Classes
 90
     1153
 91
       33
280
     0
281
     0
  0
CLASS
  1
MLEADERSTYLE
  2
AcDbMLeaderStyle
  3
ACDB_MLEADERSTYLE_CLASS
 90
     4095
 91
        1
280
     0
281
     0
  0
CLASS
  1
CELLSTYLEMAP
  2
AcDbCellStyleMap
  3
ObjectDBX Classes
 90
     1152
 91
        2
280
     0
281
     0
  0
CLASS
  1
SORTENTSTABLE
  2
AcDbSortentsTable
  3
ObjectDBX Classes
 90
        0
 91
        1
280
     0
281
     0
  0
CLASS
  1
ACDBSECTIONVIEWSTYLE
  2
AcDbSectionViewStyle
  3
ObjectDBX Classes
 90
     1025
 91
        1
280
     0
281
     0
  0
CLASS
  1
ACDBDETAILVIEWSTYLE
  2
AcDbDetailViewStyle
  3
ObjectDBX Classes
 90
     1025
 91
        1
280
     0
281
     0
  0
ENDSEC
  0
SECTION
  2
TABLES
  0
TABLE
  2
VPORT
  5
1A
102
{ACAD_XDICTIONARY
360
623E1
102
}
330
0
100
AcDbSymbolTable
 70
     1
1001
ACAD
1000
DbSaveVer
1071
        5
  0
VPORT
  5
636E5
330
1A
100
AcDbSymbolTableRecord
100
AcDbViewportTableRecord
  2
*Active
 70
     0
 10
0.0
 20
0.0
 11
1.0
 21
1.0
 12
4913.154127520345
 22
3567.2378019973
 13
0.0
 23
0.0
 14
10.0
 24
10.0
 15
10.0
 25
10.0
 16
0.0
 26
0.0
 36
1.0
 17
0.0
 27
0.0
 37
0.0
 40
1640.889169280686
 41
2.292712066905615
 42
50.0
 43
0.0
 44
0.0
 50
0.0
 51
0.0
 71
    16
 72
 20000
 73
     1
 74
     1
 75
     0
 76
     0
 77
     0
 78
     1
281
     0
 65
     1
110
0.0
120
0.0
130
0.0
111
1.0
121
0.0
131
0.0
112
0.0
122
1.0
132
0.0
 79
     0
146
0.0
348
984D
 60
     3
 61
     5
292
     1
282
     1
141
0.0
142
0.0
 63
   250
421
  3355443
1001
ACAD_NAV_VCDISPLAY
1070
     3
  0
ENDTAB
  0
TABLE
  2
LTYPE
  5
15
330
0
100
AcDbSymbolTable
 70
     2
  0
LTYPE
  5
16
330
15
100
AcDbSymbolTableRecord
100
AcDbLinetypeTableRecord
  2
ByBlock
 70
     0
  3

 72
    65
 73
     0
 40
0.0
  0
LTYPE
  5
17
330
15
100
AcDbSymbolTableRecord
100
AcDbLinetypeTableRecord
  2
ByLayer
 70
     0
  3

 72
    65
 73
     0
 40
0.0
  0
LTYPE
  5
8
330
15
100
AcDbSymbolTableRecord
100
AcDbLinetypeTableRecord
  2
Continuous
 70
     0
  3
Solid line
 72
    65
 73
     0
 40
0.0
  0
LTYPE
  5
3FE
330
15
100
AcDbSymbolTableRecord
100
AcDbLinetypeTableRecord
  2
CENTER
 70
     0
  3
Center ____ _ ____ _ ____ _ ____ _ ____ _ ____
 72
    65
 73
     4
 40
50.8
 49
31.75
 74
     0
 49
-6.349999999999998
 74
     0
 49
6.349999999999998
 74
     0
 49
-6.349999999999998
 74
     0
  0
ENDTAB
  0
TABLE
  2
LAYER
  5
10
102
{ACAD_XDICTIONARY
360
3FD7
102
}
330
0
100
AcDbSymbolTable
 70
     8
  0
LAYER
  5
4
102
{ACAD_XDICTIONARY
360
9891
102
}
330
10
100
AcDbSymbolTableRecord
100
AcDbLayerTableRecord
  2
0
 70
     0
 62
     7
  6
Continuous
370
    30
390
5
347
983F
348
0
  0
LAYER
  5
400
102
{ACAD_XDICTIONARY
360
9893
102
}
330
10
100
AcDbSymbolTableRecord
100
AcDbLayerTableRecord
  2
标注
 70
     0
 62
   221
  6
Continuous
370
     9
390
5
347
983F
348
0
1001
AcadStringInfo
1000
MIFCodePage
1070
     5
  0
LAYER
  5
401
330
10
100
AcDbSymbolTableRecord
100
AcDbLayerTableRecord
  2
Defpoints
 70
     0
 62
     7
  6
Continuous
290
     0
370
    -3
390
5
347
983F
348
0
  0
LAYER
  5
403
102
{ACAD_XDICTIONARY
360
9897
102
}
330
10
100
AcDbSymbolTableRecord
100
AcDbLayerTableRecord
  2
中心线
 70
     0
 62
     1
  6
CENTER
370
     9
390
5
347
983F
348
0
1001
AcadStringInfo
1000
MIFCodePage
1070
     5
  0
LAYER
  5
405
102
{ACAD_XDICTIONARY
360
989B
102
}
330
10
100
AcDbSymbolTableRecord
100
AcDbLayerTableRecord
  2
剖面线
 70
     0
 62
    50
  6
Continuous
370
     9
390
5
347
983F
348
0
1001
AcadStringInfo
1000
MIFCodePage
1070
     5
  0
LAYER
  5
92F
102
{ACAD_XDICTIONARY
360
989F
102
}
330
10
100
AcDbSymbolTableRecord
100
AcDbLayerTableRecord
  2
ASHADE
 70
     4
 62
    -7
  6
Continuous
370
    -3
390
5
347
983F
348
0
  0
LAYER
  5
4563
102
{ACAD_XDICTIONARY
360
98A9
102
}
330
10
100
AcDbSymbolTableRecord
100
AcDbLayerTableRecord
  2
图层1
 70
     0
 62
     7
  6
Continuous
370
    13
390
5
347
983F
348
0
1001
AcadStringInfo
1000
MIFCodePage
1070
     5
  0
LAYER
  5
628AB
330
10
100
AcDbSymbolTableRecord
100
AcDbLayerTableRecord
  2
03___PRT_ALL_CURVES
 70
     0
 62
     7
  6
Continuous
370
    -3
390
5
347
983F
348
0
  0
ENDTAB
  0
TABLE
  2
STYLE
  5
11
330
0
100
AcDbSymbolTable
 70
     5
  0
STYLE
  5
12
330
11
100
AcDbSymbolTableRecord
100
AcDbTextStyleTableRecord
  2
Standard
 70
     0
 40
0.0
 41
1.0
 50
0.0
 71
     0
 42
4.5
  3
SIMHEI.TTF
  4

1001
ACAD
1000
SimHei
1071
    34306
  0
STYLE
  5
406
330
11
100
AcDbSymbolTableRecord
100
AcDbTextStyleTableRecord
  2
样式 1
 70
     0
 40
0.0
 41
1.0
 50
0.0
 71
     0
 42
4.5
  3

  4

1001
ACAD
1000
LiSu
1071
    34353
1001
AcadStringInfo
1000
MIFCodePage
1070
     5
  0
STYLE
  5
3FD6
330
11
100
AcDbSymbolTableRecord
100
AcDbTextStyleTableRecord
  2
黑体
 70
     0
 40
0.0
 41
1.0
 50
0.0
 71
     0
 42
6.0
  3
SIMHEI.TTF
  4

1001
ACAD
1000
SimHei
1071
    34306
1001
AcadStringInfo
1000
MIFCodePage
1070
     5
  0
STYLE
  5
63612
330
11
100
AcDbSymbolTableRecord
100
AcDbTextStyleTableRecord
  2
GN3
 70
     0
 40
0.156
 41
1.0
 50
0.0
 71
     0
 42
0.2
  3
ROMANK
  4

  0
STYLE
  5
63613
330
11
100
AcDbSymbolTableRecord
100
AcDbTextStyleTableRecord
  2
GN4
 70
     0
 40
0.188
 41
1.0
 50
0.0
 71
     0
 42
0.2
  3
ROMAND
  4

  0
ENDTAB
  0
TABLE
  2
VIEW
  5
18
330
0
100
AcDbSymbolTable
 70
     0
  0
ENDTAB
  0
TABLE
  2
UCS
  5
19
330
0
100
AcDbSymbolTable
 70
     0
  0
ENDTAB
  0
TABLE
  2
APPID
  5
1C
330
0
100
AcDbSymbolTable
 70
    19
  0
APPID
  5
13
330
1C
100
AcDbSymbolTableRecord
100
AcDbRegAppTableRecord
  2
ACAD
 70
     0
  0
APPID
  5
2BE8
330
1C
100
AcDbSymbolTableRecord
100
AcDbRegAppTableRecord
  2
DCO15
 70
     0
  0
APPID
  5
987D
330
1C
100
AcDbSymbolTableRecord
100
AcDbRegAppTableRecord
  2
ACAD_MLEADERVER
 70
     0
  0
APPID
  5
988A
330
1C
100
AcDbSymbolTableRecord
100
AcDbRegAppTableRecord
  2
ACAD_EXEMPT_FROM_CAD_STANDARDS
 70
     0
  0
APPID
  5
A534
330
1C
100
AcDbSymbolTableRecord
100
AcDbRegAppTableRecord
  2
ACAD_DSTYLE_DIMRADIAL_EXTENSION
 70
     0
  0
APPID
  5
30A41
330
1C
100
AcDbSymbolTableRecord
100
AcDbRegAppTableRecord
  2
ACAD_PSEXT
 70
     0
  0
APPID
  5
46FFE
330
1C
100
AcDbSymbolTableRecord
100
AcDbRegAppTableRecord
  2
ACAD_DSTYLE_DIMJAG
 70
     0
  0
APPID
  5
46FFF
330
1C
100
AcDbSymbolTableRecord
100
AcDbRegAppTableRecord
  2
ACAD_DSTYLE_DIMTALN
 70
     0
  0
APPID
  5
62B7A
330
1C
100
AcDbSymbolTableRecord
100
AcDbRegAppTableRecord
  2
ACAD_DSTYLE_DIMTEXT_FILL
 70
     0
  0
APPID
  5
62B7B
330
1C
100
AcDbSymbolTableRecord
100
AcDbRegAppTableRecord
  2
ACAD_DSTYLE_DIMEXT_LENGTH
 70
     0
  0
APPID
  5
62B7C
330
1C
100
AcDbSymbolTableRecord
100
AcDbRegAppTableRecord
  2
ACAD_DSTYLE_DIMEXT_ENABLED
 70
     0
  0
APPID
  5
62B7D
330
1C
100
AcDbSymbolTableRecord
100
AcDbRegAppTableRecord
  2
ACAD_DSTYLE_DIM_LINETYPE
 70
     0
  0
APPID
  5
62B7E
330
1C
100
AcDbSymbolTableRecord
100
AcDbRegAppTableRecord
  2
ACAD_DSTYLE_DIM_EXT1_LINETYPE
 70
     0
  0
APPID
  5
62B7F
330
1C
100
AcDbSymbolTableRecord
100
AcDbRegAppTableRecord
  2
ACAD_DSTYLE_DIM_EXT2_LINETYPE
 70
     0
  0
APPID
  5
62C3B
330
1C
100
AcDbSymbolTableRecord
100
AcDbRegAppTableRecord
  2
ACAD_DSTYLE_DIMJOGGED_JOGANGLE_SYMBOL
 70
     0
  0
APPID
  5
62C9F
330
1C
100
AcDbSymbolTableRecord
100
AcDbRegAppTableRecord
  2
ACAD_DSTYLE_DIMARC_LENGTH_SYMBOL
 70
     0
  0
APPID
  5
63614
330
1C
100
AcDbSymbolTableRecord
100
AcDbRegAppTableRecord
  2
PSP
 70
     0
  0
APPID
  5
60636FF
330
1C
100
AcDbSymbolTableRecord
100
AcDbRegAppTableRecord
  2
AcadStringInfo
 70
     0
  0
APPID
  5
6063709
330
1C
100
AcDbSymbolTableRecord
100
AcDbRegAppTableRecord
  2
ACAD_NAV_VCDISPLAY
 70
     0
  0
ENDTAB
  0
TABLE
  2
DIMSTYLE
  5
1D
330
0
100
AcDbSymbolTable
 70
     2
100
AcDbDimStyleTable
 71
     1
340
18F2E
  0
DIMSTYLE
105
4564
330
1D
100
AcDbSymbolTableRecord
100
AcDbDimStyleTableRecord
  2
STANDARD
 70
     0
 41
15.0
 42
6.0
 44
5.0
140
15.0
271
     0
272
     0
340
12
  0
DIMSTYLE
105
18F2E
102
{ACAD_REACTORS
330
62F30
330
62F31
330
62F32
330
62F33
330
62F34
330
62F44
330
62F52
330
62F5A
330
62F5B
330
62F6A
330
62F6B
330
62F6C
330
630CA
330
63440
330
63441
330
63442
330
63443
330
63444
102
}
330
1D
100
AcDbSymbolTableRecord
100
AcDbDimStyleTableRecord
  2
线性标注
 70
     0
 41
2.5
 42
0.625
 43
3.75
 44
1.25
 49
1.25
 50
90.0
 73
     0
 74
     0
 77
     1
 78
     8
140
30.0
141
2.5
143
0.03937007874016
147
0.625
171
     3
172
     1
271
     1
272
     1
274
     3
283
     0
284
     8
340
406
342
18F26
1001
ACAD_DSTYLE_DIMJAG
1070
   388
1040
1.5
1001
ACAD_DSTYLE_DIMTALN
1070
   392
1070
     0
1001
ACAD_DSTYLE_DIMJOGGED_JOGANGLE_SYMBOL
1070
   384
1040
1.570796326794896
1001
AcadStringInfo
1000
MIFCodePage
1070
     5
  0
ENDTAB
  0
TABLE
  2
BLOCK_RECORD
  5
1
330
0
100
AcDbSymbolTable
 70
    19
  0
BLOCK_RECORD
  5
2
102
{ACAD_XDICTIONARY
360
98C5
102
}
330
1
100
AcDbSymbolTableRecord
100
AcDbBlockTableRecord
  2
*Model_Space
340
A
 70
     0
280
     1
281
     0
  0
BLOCK_RECORD
  5
C
330
1
100
AcDbSymbolTableRecord
100
AcDbBlockTableRecord
  2
*Paper_Space
340
F
 70
     0
280
     1
281
     0
  0
BLOCK_RECORD
  5
18F26
330
1
100
AcDbSymbolTableRecord
100
AcDbBlockTableRecord
  2
_ClosedBlank
340
0
102
{BLKREFS
331
6359C
331
6359D
331
635A7
331
635A8
331
635C8
331
635C9
331
635DB
331
635DC
331
6351B
331
6351C
331
63523
331
63524
331
6352A
331
6352B
331
63531
331
63532
331
6353B
331
63542
331
63543
331
6354B
331
63552
331
63553
331
6355A
331
6355B
331
63561
331
63562
331
63574
331
63575
331
6357D
331
63583
331
63584
331
63595
331
63596
102
}
 70
     0
280
     1
281
     0
  0
BLOCK_RECORD
  5
62F6F
330
1
100
AcDbSymbolTableRecord
100
AcDbBlockTableRecord
  2
*D1
340
0
 70
     0
280
     1
281
     0
  0
BLOCK_RECORD
  5
62F7A
330
1
100
AcDbSymbolTableRecord
100
AcDbBlockTableRecord
  2
*D2
340
0
 70
     0
280
     1
281
     0
  0
BLOCK_RECORD
  5
62F85
330
1
100
AcDbSymbolTableRecord
100
AcDbBlockTableRecord
  2
*D3
340
0
 70
     0
280
     1
281
     0
  0
BLOCK_RECORD
  5
62F91
330
1
100
AcDbSymbolTableRecord
100
AcDbBlockTableRecord
  2
*D4
340
0
 70
     0
280
     1
281
     0
  0
BLOCK_RECORD
  5
62F9D
330
1
100
AcDbSymbolTableRecord
100
AcDbBlockTableRecord
  2
*D5
340
0
 70
     0
280
     1
281
     0
  0
BLOCK_RECORD
  5
62FA5
330
1
100
AcDbSymbolTableRecord
100
AcDbBlockTableRecord
  2
*D6
340
0
 70
     0
280
     1
281
     0
  0
BLOCK_RECORD
  5
62FB2
330
1
100
AcDbSymbolTableRecord
100
AcDbBlockTableRecord
  2
*D7
340
0
 70
     0
280
     1
281
     0
  0
BLOCK_RECORD
  5
62FBB
330
1
100
AcDbSymbolTableRecord
100
AcDbBlockTableRecord
  2
*D8
340
0
 70
     0
280
     1
281
     0
  0
BLOCK_RECORD
  5
62FC6
330
1
100
AcDbSymbolTableRecord
100
AcDbBlockTableRecord
  2
*D9
340
0
 70
     0
280
     1
281
     0
  0
BLOCK_RECORD
  5
62FD1
330
1
100
AcDbSymbolTableRecord
100
AcDbBlockTableRecord
  2
*D10
340
0
 70
     0
280
     1
281
     0
  0
BLOCK_RECORD
  5
62FDD
330
1
100
AcDbSymbolTableRecord
100
AcDbBlockTableRecord
  2
*D11
340
0
 70
     0
280
     1
281
     0
  0
BLOCK_RECORD
  5
62FEA
330
1
100
AcDbSymbolTableRecord
100
AcDbBlockTableRecord
  2
*D12
340
0
 70
     0
280
     1
281
     0
  0
BLOCK_RECORD
  5
630CB
330
1
100
AcDbSymbolTableRecord
100
AcDbBlockTableRecord
  2
*D13
340
0
 70
     0
280
     1
281
     0
  0
BLOCK_RECORD
  5
63445
330
1
100
AcDbSymbolTableRecord
100
AcDbBlockTableRecord
  2
*D14
340
0
 70
     0
280
     1
281
     0
  0
BLOCK_RECORD
  5
63451
330
1
100
AcDbSymbolTableRecord
100
AcDbBlockTableRecord
  2
*D15
340
0
 70
     0
280
     1
281
     0
  0
BLOCK_RECORD
  5
6345D
330
1
100
AcDbSymbolTableRecord
100
AcDbBlockTableRecord
  2
*D16
340
0
 70
     0
280
     1
281
     0
  0
BLOCK_RECORD
  5
63469
330
1
100
AcDbSymbolTableRecord
100
AcDbBlockTableRecord
  2
*D17
340
0
 70
     0
280
     1
281
     0
  0
BLOCK_RECORD
  5
63475
330
1
100
AcDbSymbolTableRecord
100
AcDbBlockTableRecord
  2
*D18
340
0
 70
     0
280
     1
281
     0
  0
ENDTAB
  0
ENDSEC
  0
SECTION
  2
BLOCKS
  0
BLOCK
  5
3
330
2
100
AcDbEntity
  8
0
100
AcDbBlockBegin
  2
*Model_Space
 70
     2
 10
0.0
 20
0.0
 30
0.0
  3
*Model_Space
  1

  0
ENDBLK
  5
9
330
2
100
AcDbEntity
  8
0
100
AcDbBlockEnd
  0
BLOCK
  5
D
330
C
100
AcDbEntity
 67
     1
  8
0
100
AcDbBlockBegin
  2
*Paper_Space
 70
     0
 10
0.0
 20
0.0
 30
0.0
  3
*Paper_Space
  1

  0
ENDBLK
  5
E
330
C
100
AcDbEntity
 67
     1
  8
0
100
AcDbBlockEnd
  0
BLOCK
  5
18F27
330
18F26
100
AcDbEntity
  8
0
 48
0.2
100
AcDbBlockBegin
  2
_ClosedBlank
 70
     0
 10
0.0
 20
0.0
 30
0.0
  3
_ClosedBlank
  1

  0
LINE
  5
18F28
330
18F26
100
AcDbEntity
  8
0
  6
ByBlock
 62
     0
370
    -2
100
AcDbLine
 10
-1.0
 20
0.1666666666666666
 30
0.0
 11
0.0
 21
0.0
 31
0.0
  0
LINE
  5
18F29
330
18F26
100
AcDbEntity
  8
0
  6
ByBlock
 62
     0
370
    -2
100
AcDbLine
 10
0.0
 20
0.0
 30
0.0
 11
-1.0
 21
-0.1666666666666666
 31
0.0
  0
LINE
  5
18F2A
330
18F26
100
AcDbEntity
  8
0
  6
ByBlock
 62
     0
370
    -2
100
AcDbLine
 10
-1.0
 20
0.1666666666666666
 30
0.0
 11
-1.0
 21
-0.1666666666666666
 31
0.0
  0
ENDBLK
  5
18F2B
330
18F26
100
AcDbEntity
  8
0
 48
0.2
100
AcDbBlockEnd
  0
BLOCK
  5
62F78
330
62F6F
100
AcDbEntity
  8
0
100
AcDbBlockBegin
  2
*D1
 70
     1
 10
0.0
 20
0.0
 30
0.0
  3
*D1
  1

  0
LINE
  5
63517
330
62F6F
100
AcDbEntity
  8
标注
 62
     0
440
 16777216
370
    -2
100
AcDbLine
 10
5516.156002108363
 20
3808.492887233713
 30
0.0
 11
5371.004407012764
 21
3758.837013647144
 31
0.0
  0
LINE
  5
63518
330
62F6F
100
AcDbEntity
  8
标注
 62
     0
440
 16777216
370
    -2
100
AcDbLine
 10
5336.185480457827
 20
3746.925575717073
 30
0.0
 11
5333.82006425165
 21
3746.116374770737
 31
0.0
  0
MTEXT
  5
63519
330
62F6F
100
AcDbEntity
  8
标注
 62
     0
440
 16777216
100
AcDbMText
 10
5457.116319202775
 20
3804.809616925578
 30
0.0
 40
30.0
 41
0.0
 46
0.0
 71
     5
 72
     1
  1
∅31.8
  7
样式 1
 11
0.9461664824711041
 21
0.3236803785345317
 31
0.0
 73
     1
 44
1.0
  0
LINE
  5
6351A
330
62F6F
100
AcDbEntity
  8
标注
 62
     0
440
 16777216
370
    -2
100
AcDbLine
 10
5338.550896664004
 20
3747.73477666341
 30
0.0
 11
5368.638990806587
 21
3758.027812700807
 31
0.0
  0
INSERT
  5
6351B
330
62F6F
100
AcDbEntity
  8
标注
 62
     0
440
 16777216
370
    -2
100
AcDbBlockReference
  2
_ClosedBlank
 10
5338.550896664004
 20
3747.73477666341
 30
0.0
 41
2.5
 42
2.5
 43
2.5
 50
18.88564528046951
  0
INSERT
  5
6351C
330
62F6F
100
AcDbEntity
  8
标注
 62
     0
440
 16777216
370
    -2
100
AcDbBlockReference
  2
_ClosedBlank
 10
5368.638990806587
 20
3758.027812700807
 30
0.0
 41
2.5
 42
2.5
 43
2.5
 50
198.8856452804695
  0
POINT
  5
6351D
330
62F6F
100
AcDbEntity
  8
Defpoints
 62
     0
440
 16777216
100
AcDbPoint
 10
5368.638990806587
 20
3758.027812700807
 30
0.0
  0
POINT
  5
6351E
330
62F6F
100
AcDbEntity
  8
Defpoints
 62
     0
440
 16777216
100
AcDbPoint
 10
5338.550896664004
 20
3747.73477666341
 30
0.0
  0
ENDBLK
  5
62F79
330
62F6F
100
AcDbEntity
  8
0
100
AcDbBlockEnd
  0
BLOCK
  5
62F83
330
62F7A
100
AcDbEntity
  8
0
100
AcDbBlockBegin
  2
*D2
 70
     1
 10
0.0
 20
0.0
 30
0.0
  3
*D2
  1

  0
LINE
  5
6351F
330
62F7A
100
AcDbEntity
  8
标注
 62
     0
440
 16777216
370
    -2
100
AcDbLine
 10
5197.007308883752
 20
3795.64765935425
 30
0.0
 11
5336.906171453842
 21
3757.439241559558
 31
0.0
  0
LINE
  5
63520
330
62F7A
100
AcDbEntity
  8
标注
 62
     0
440
 16777216
370
    -2
100
AcDbLine
 10
5370.283716016754
 20
3748.323347804655
 30
0.0
 11
5372.695388311762
 21
3747.664684961093
 31
0.0
  0
MTEXT
  5
63521
330
62F7A
100
AcDbEntity
  8
标注
 62
     0
440
 16777216
100
AcDbMText
 10
5258.228906355676
 20
3795.124416009414
 30
0.0
 40
30.0
 41
0.0
 46
0.0
 71
     5
 72
     1
  1
∅29.6
  7
样式 1
 11
0.9646689180032957
 21
-0.2634651374249557
 31
0.0
 73
     1
 44
1.0
  0
LINE
  5
63522
330
62F7A
100
AcDbEntity
  8
标注
 62
     0
440
 16777216
370
    -2
100
AcDbLine
 10
5367.872043721746
 20
3748.982010648218
 30
0.0
 11
5339.317843748849
 21
3756.780578715996
 31
0.0
  0
INSERT
  5
63523
330
62F7A
100
AcDbEntity
  8
标注
 62
     0
440
 16777216
370
    -2
100
AcDbBlockReference
  2
_ClosedBlank
 10
5367.872043721746
 20
3748.982010648218
 30
0.0
 41
2.5
 42
2.5
 43
2.5
 50
164.7242290561624
  0
INSERT
  5
63524
330
62F7A
100
AcDbEntity
  8
标注
 62
     0
440
 16777216
370
    -2
100
AcDbBlockReference
  2
_ClosedBlank
 10
5339.317843748849
 20
3756.780578715996
 30
0.0
 41
2.5
 42
2.5
 43
2.5
 50
344.7242290561624
  0
POINT
  5
63525
330
62F7A
100
AcDbEntity
  8
Defpoints
 62
     0
440
 16777216
100
AcDbPoint
 10
5339.317843748849
 20
3756.780578715996
 30
0.0
  0
POINT
  5
63526
330
62F7A
100
AcDbEntity
  8
Defpoints
 62
     0
440
 16777216
100
AcDbPoint
 10
5367.872043721746
 20
3748.982010648218
 30
0.0
  0
ENDBLK
  5
62F84
330
62F7A
100
AcDbEntity
  8
0
100
AcDbBlockEnd
  0
BLOCK
  5
62F8F
330
62F85
100
AcDbEntity
  8
0
100
AcDbBlockBegin
  2
*D3
 70
     1
 10
0.0
 20
0.0
 30
0.0
  3
*D3
  1

  0
LINE
  5
63527
330
62F85
100
AcDbEntity
  8
标注
 62
     0
440
 16777216
370
    -2
100
AcDbLine
 10
4547.857453253125
 20
3745.159367482718
 30
0.0
 11
4492.881397442118
 21
3677.091766733577
 31
0.0
  0
LINE
  5
63528
330
62F85
100
AcDbEntity
  8
标注
 62
     0
440
 16777216
370
    -2
100
AcDbLine
 10
3999.973342060613
 20
4187.66809620801
 30
0.0
 11
3944.997286249606
 21
4119.60049545887
 31
0.0
  0
LINE
  5
63529
330
62F85
100
AcDbEntity
  8
标注
 62
     0
440
 16777216
370
    -2
100
AcDbLine
 10
4491.72192920435
 20
3679.635019258515
 30
0.0
 11
3947.727569212219
 21
4119.002118534121
 31
0.0
  0
INSERT
  5
6352A
330
62F85
100
AcDbEntity
  8
标注
 62
     0
440
 16777216
370
    -2
100
AcDbBlockReference
  2
_ClosedBlank
 10
4493.66680480454
 20
3678.064204533671
 30
0.0
 41
2.5
 42
2.5
 43
2.5
 50
321.0732825514464
  0
INSERT
  5
6352B
330
62F85
100
AcDbEntity
  8
标注
 62
     0
440
 16777216
370
    -2
100
AcDbBlockReference
  2
_ClosedBlank
 10
3945.782693612028
 20
4120.572933258965
 30
0.0
 41
2.5
 42
2.5
 43
2.5
 50
141.0732825514464
  0
MTEXT
  5
6352C
330
62F85
100
AcDbEntity
  8
标注
 62
     0
440
 16777216
100
AcDbMText
 10
4229.542341238555
 20
3911.474041397507
 30
0.0
 40
30.0
 41
0.0
 46
0.0
 71
     5
 72
     1
  1
700
  7
样式 1
 11
0.7779502400760531
 21
-0.6283258899373888
 31
0.0
 73
     1
 44
1.0
  0
POINT
  5
6352D
330
62F85
100
AcDbEntity
  8
Defpoints
 62
     0
440
 16777216
100
AcDbPoint
 10
4548.250156934336
 20
3745.645586382766
 30
0.0
  0
POINT
  5
6352E
330
62F85
100
AcDbEntity
  8
Defpoints
 62
     0
440
 16777216
100
AcDbPoint
 10
4000.366045741823
 20
4188.154315108058
 30
0.0
  0
POINT
  5
6352F
330
62F85
100
AcDbEntity
  8
Defpoints
 62
     0
440
 16777216
100
AcDbPoint
 10
3945.782693612028
 20
4120.572933258965
 30
0.0
  0
ENDBLK
  5
62F90
330
62F85
100
AcDbEntity
  8
0
100
AcDbBlockEnd
  0
BLOCK
  5
62F9B
330
62F91
100
AcDbEntity
  8
0
100
AcDbBlockBegin
  2
*D4
 70
     1
 10
0.0
 20
0.0
 30
0.0
  3
*D4
  1

  0
ARC
  5
63530
330
62F91
100
AcDbEntity
  8
标注
 62
     0
440
 16777216
370
    -2
100
AcDbCircle
 10
4546.766334690842
 20
3742.040871387768
 30
0.0
 40
167.939221605874
100
AcDbArc
 50
1.622703045112213
 51
139.9168386253321
  0
INSERT
  5
63531
330
62F91
100
AcDbEntity
  8
标注
 62
     0
440
 16777216
370
    -2
100
AcDbBlockReference
  2
_ClosedBlank
 10
4714.690399994786
 20
3744.297072926478
 30
0.0
 41
2.5
 42
2.5
 43
2.5
 50
271.1962369401673
  0
INSERT
  5
63532
330
62F91
100
AcDbEntity
  8
标注
 62
     0
440
 16777216
370
    -2
100
AcDbBlockReference
  2
_ClosedBlank
 10
4416.678779204769
 20
3848.252029282052
 30
0.0
 41
2.5
 42
2.5
 43
2.5
 50
230.3433047302771
  0
MTEXT
  5
63533
330
62F91
100
AcDbEntity
  8
标注
 62
     0
440
 16777216
100
AcDbMText
 10
4643.628332147346
 20
3897.968985922981
 30
0.0
 40
30.0
 41
0.0
 46
0.0
 71
     5
 72
     1
  1
140°
  7
样式 1
 11
0.8494472025708953
 21
-0.5276736207585901
 31
0.0
 73
     1
 44
1.0
  0
POINT
  5
63534
330
62F91
100
AcDbEntity
  8
Defpoints
 62
     0
440
 16777216
100
AcDbPoint
 10
4534.750034240995
 20
3909.549649298318
 30
0.0
  0
POINT
  5
63535
330
62F91
100
AcDbEntity
  8
Defpoints
 62
     0
440
 16777216
100
AcDbPoint
 10
5088.995550747586
 20
3749.326178525767
 30
0.0
  0
POINT
  5
63536
330
62F91
100
AcDbEntity
  8
Defpoints
 62
     0
440
 16777216
100
AcDbPoint
 10
4527.087249412455
 20
3758.108038042625
 30
0.0
  0
POINT
  5
63537
330
62F91
100
AcDbEntity
  8
Defpoints
 62
     0
440
 16777216
100
AcDbPoint
 10
3971.636542483587
 20
4211.610777145364
 30
0.0
  0
POINT
  5
63538
330
62F91
100
AcDbEntity
  8
Defpoints
 62
     0
440
 16777216
100
AcDbPoint
 10
4572.169164262527
 20
3742.382179842059
 30
0.0
  0
ENDBLK
  5
62F9C
330
62F91
100
AcDbEntity
  8
0
100
AcDbBlockEnd
  0
BLOCK
  5
62FA3
330
62F9D
100
AcDbEntity
  8
0
100
AcDbBlockBegin
  2
*D5
 70
     1
 10
0.0
 20
0.0
 30
0.0
  3
*D5
  1

  0
LINE
  5
63539
330
62F9D
100
AcDbEntity
  8
标注
 62
     0
440
 16777216
370
    -2
100
AcDbLine
 10
4576.270236119337
 20
3828.740727131617
 30
0.0
 11
4551.645734410106
 21
3747.788842607076
 31
0.0
  0
MTEXT
  5
6353A
330
62F9D
100
AcDbEntity
  8
标注
 62
     0
440
 16777216
100
AcDbMText
 10
4549.706693066311
 20
3795.104676229853
 30
0.0
 40
30.0
 41
0.0
 46
0.0
 71
     5
 72
     1
  1
R55
  7
样式 1
 11
0.2910206921426618
 21
0.9567167588919962
 31
0.0
 73
     1
 44
1.0
  0
INSERT
  5
6353B
330
62F9D
100
AcDbEntity
  8
标注
 62
     0
440
 16777216
370
    -2
100
AcDbBlockReference
  2
_ClosedBlank
 10
4550.91818267975
 20
3745.397050709846
 30
0.0
 41
2.5
 42
2.5
 43
2.5
 50
253.080926749059
  0
POINT
  5
6353C
330
62F9D
100
AcDbEntity
  8
Defpoints
 62
     0
440
 16777216
100
AcDbPoint
 10
4550.91818267975
 20
3745.397050709846
 30
0.0
  0
POINT
  5
6353D
330
62F9D
100
AcDbEntity
  8
Defpoints
 62
     0
440
 16777216
100
AcDbPoint
 10
4571.231426991309
 20
3812.175880480509
 30
0.0
  0
ENDBLK
  5
62FA4
330
62F9D
100
AcDbEntity
  8
0
100
AcDbBlockEnd
  0
BLOCK
  5
62FB0
330
62FA5
100
AcDbEntity
  8
0
100
AcDbBlockBegin
  2
*D6
 70
     1
 10
0.0
 20
0.0
 30
0.0
  3
*D6
  1

  0
LINE
  5
6353E
330
62FA5
100
AcDbEntity
  8
标注
 62
     0
440
 16777216
370
    -2
100
AcDbLine
 10
4606.540227697297
 20
3617.968829296066
 30
0.0
 11
4606.551592513168
 21
3617.122971313187
 31
0.0
  0
LINE
  5
6353F
330
62FA5
100
AcDbEntity
  8
标注
 62
     0
440
 16777216
370
    -2
100
AcDbLine
 10
4550.926579324367
 20
3744.772107115306
 30
0.0
 11
4552.651383363077
 21
3616.398776513585
 31
0.0
  0
LINE
  5
63540
330
62FA5
100
AcDbEntity
  8
标注
 62
     0
440
 16777216
370
    -2
100
AcDbLine
 10
4604.035024845759
 20
3618.339271923789
 30
0.0
 11
4555.134364452004
 21
3617.682250281152
 31
0.0
  0
LINE
  5
63541
330
62FA5
100
AcDbEntity
  8
标注
 62
     0
440
 16777216
370
    -2
100
AcDbLine
 10
4552.634590073836
 20
3617.648663702669
 30
0.0
 11
4477.462803416066
 21
3616.638667306871
 31
0.0
  0
INSERT
  5
63542
330
62FA5
100
AcDbEntity
  8
标注
 62
     0
440
 16777216
370
    -2
100
AcDbBlockReference
  2
_ClosedBlank
 10
4606.534799223927
 20
3618.372858502271
 30
0.0
 41
2.5
 42
2.5
 43
2.5
 50
0.7697708352218946
  0
INSERT
  5
63543
330
62FA5
100
AcDbEntity
  8
标注
 62
     0
440
 16777216
370
    -2
100
AcDbBlockReference
  2
_ClosedBlank
 10
4552.634590073836
 20
3617.648663702669
 30
0.0
 41
2.5
 42
2.5
 43
2.5
 50
180.7697708352219
  0
MTEXT
  5
63544
330
62FA5
100
AcDbEntity
  8
标注
 62
     0
440
 16777216
100
AcDbMText
 10
4513.588893440351
 20
3632.750462079079
 30
0.0
 40
30.0
 41
0.0
 46
0.0
 71
     5
 72
     1
  1
100
  7
样式 1
 11
0.9999097512672497
 21
0.0134346313930395
 31
0.0
 73
     1
 44
1.0
  0
POINT
  5
63545
330
62FA5
100
AcDbEntity
  8
Defpoints
 62
     0
440
 16777216
100
AcDbPoint
 10
4606.531831052676
 20
3618.593772890608
 30
0.0
  0
POINT
  5
63546
330
62FA5
100
AcDbEntity
  8
Defpoints
 62
     0
440
 16777216
100
AcDbPoint
 10
4550.918182679747
 20
3745.397050709847
 30
0.0
  0
POINT
  5
63547
330
62FA5
100
AcDbEntity
  8
Defpoints
 62
     0
440
 16777216
100
AcDbPoint
 10
4552.634590073836
 20
3617.648663702669
 30
0.0
  0
ENDBLK
  5
62FB1
330
62FA5
100
AcDbEntity
  8
0
100
AcDbBlockEnd
  0
BLOCK
  5
62FB9
330
62FB2
100
AcDbEntity
  8
0
100
AcDbBlockBegin
  2
*D7
 70
     1
 10
0.0
 20
0.0
 30
0.0
  3
*D7
  1

  0
LINE
  5
63548
330
62FB2
100
AcDbEntity
  8
标注
 62
     0
440
 16777216
370
    -2
100
AcDbLine
 10
5437.889642000299
 20
3673.208410458157
 30
0.0
 11
5353.875082892326
 21
3702.365113155526
 31
0.0
  0
MTEXT
  5
63549
330
62FB2
100
AcDbEntity
  8
标注
 62
     0
440
 16777216
100
AcDbMText
 10
5405.982585051743
 20
3700.820732972512
 30
0.0
 40
30.0
 41
0.0
 46
0.0
 71
     5
 72
     1
  1
R46
  7
样式 1
 11
0.9447259844939734
 21
-0.3278609678230891
 31
0.0
 73
     1
 44
1.0
  0
LINE
  5
6354A
330
62FB2
100
AcDbEntity
  8
标注
 62
     0
440
 16777216
370
    -2
100
AcDbLine
 10
5308.055872644374
 20
3718.266370094943
 30
0.0
 11
5351.513267931091
 21
3703.184765575084
 31
0.0
  0
INSERT
  5
6354B
330
62FB2
100
AcDbEntity
  8
标注
 62
     0
440
 16777216
370
    -2
100
AcDbBlockReference
  2
_ClosedBlank
 10
5351.513267931091
 20
3703.184765575084
 30
0.0
 41
2.5
 42
2.5
 43
2.5
 50
160.8610037373733
  0
POINT
  5
6354C
330
62FB2
100
AcDbEntity
  8
Defpoints
 62
     0
440
 16777216
100
AcDbPoint
 10
5351.513267931091
 20
3703.184765575084
 30
0.0
  0
POINT
  5
6354D
330
62FB2
100
AcDbEntity
  8
Defpoints
 62
     0
440
 16777216
100
AcDbPoint
 10
5308.055872644374
 20
3718.266370094943
 30
0.0
  0
ENDBLK
  5
62FBA
330
62FB2
100
AcDbEntity
  8
0
100
AcDbBlockEnd
  0
BLOCK
  5
62FC4
330
62FBB
100
AcDbEntity
  8
0
100
AcDbBlockBegin
  2
*D8
 70
     1
 10
0.0
 20
0.0
 30
0.0
  3
*D8
  1

  0
LINE
  5
6354E
330
62FBB
100
AcDbEntity
  8
标注
 62
     0
440
 16777216
370
    -2
100
AcDbLine
 10
4743.353626492399
 20
3657.933461004127
 30
0.0
 11
4618.42957414644
 21
3662.38365743214
 31
0.0
  0
LINE
  5
6354F
330
62FBB
100
AcDbEntity
  8
标注
 62
     0
440
 16777216
370
    -2
100
AcDbLine
 10
4593.445421733391
 20
3663.273673275666
 30
0.0
 11
4590.947006492085
 21
3663.36267486002
 31
0.0
  0
MTEXT
  5
63550
330
62FBB
100
AcDbEntity
  8
标注
 62
     0
440
 16777216
100
AcDbMText
 10
4705.452137501665
 20
3674.918544935709
 30
0.0
 40
30.0
 41
0.0
 46
0.0
 71
     5
 72
     1
  1
∅20
  7
样式 1
 11
0.9993660965218074
 21
-0.0356006337410623
 31
0.0
 73
     1
 44
1.0
  0
LINE
  5
63551
330
62FBB
100
AcDbEntity
  8
标注
 62
     0
440
 16777216
370
    -2
100
AcDbLine
 10
4595.943836974694
 20
3663.184671691314
 30
0.0
 11
4615.931158905135
 21
3662.472659016493
 31
0.0
  0
INSERT
  5
63552
330
62FBB
100
AcDbEntity
  8
标注
 62
     0
440
 16777216
370
    -2
100
AcDbBlockReference
  2
_ClosedBlank
 10
4595.943836974694
 20
3663.184671691314
 30
0.0
 41
2.5
 42
2.5
 43
2.5
 50
357.9598028243966
  0
INSERT
  5
63553
330
62FBB
100
AcDbEntity
  8
标注
 62
     0
440
 16777216
370
    -2
100
AcDbBlockReference
  2
_ClosedBlank
 10
4615.931158905135
 20
3662.472659016493
 30
0.0
 41
2.5
 42
2.5
 43
2.5
 50
177.9598028243965
  0
POINT
  5
63554
330
62FBB
100
AcDbEntity
  8
Defpoints
 62
     0
440
 16777216
100
AcDbPoint
 10
4615.931158905135
 20
3662.472659016493
 30
0.0
  0
POINT
  5
63555
330
62FBB
100
AcDbEntity
  8
Defpoints
 62
     0
440
 16777216
100
AcDbPoint
 10
4595.943836974694
 20
3663.184671691314
 30
0.0
  0
ENDBLK
  5
62FC5
330
62FBB
100
AcDbEntity
  8
0
100
AcDbBlockEnd
  0
BLOCK
  5
62FCF
330
62FC6
100
AcDbEntity
  8
0
100
AcDbBlockBegin
  2
*D9
 70
     1
 10
0.0
 20
0.0
 30
0.0
  3
*D9
  1

  0
LINE
  5
63556
330
62FC6
100
AcDbEntity
  8
标注
 62
     0
440
 16777216
370
    -2
100
AcDbLine
 10
3842.516767040117
 20
4169.528261443369
 30
0.0
 11
3969.57963609048
 21
4184.521550213434
 31
0.0
  0
LINE
  5
63557
330
62FC6
100
AcDbEntity
  8
标注
 62
     0
440
 16777216
370
    -2
100
AcDbLine
 10
4031.152455393169
 20
4191.787080002678
 30
0.0
 11
4033.635230365052
 21
4192.080044913534
 31
0.0
  0
MTEXT
  5
63558
330
62FC6
100
AcDbEntity
  8
标注
 62
     0
440
 16777216
100
AcDbMText
 10
3902.842369272638
 20
4193.526404817258
 30
0.0
 40
30.0
 41
0.0
 46
0.0
 71
     5
 72
     1
  1
{\fGulim|b0|i0|c129|p34;2-%%C57}
  7
样式 1
 11
0.9931099887530494
 21
0.117185964342654
 31
0.0
 73
     1
 44
1.0
  0
LINE
  5
63559
330
62FC6
100
AcDbEntity
  8
标注
 62
     0
440
 16777216
370
    -2
100
AcDbLine
 10
4028.669680421287
 20
4191.494115091822
 30
0.0
 11
3972.062411062363
 21
4184.814515124291
 31
0.0
  0
INSERT
  5
6355A
330
62FC6
100
AcDbEntity
  8
标注
 62
     0
440
 16777216
370
    -2
100
AcDbBlockReference
  2
_ClosedBlank
 10
4028.669680421287
 20
4191.494115091822
 30
0.0
 41
2.5
 42
2.5
 43
2.5
 50
186.7297242447026
  0
INSERT
  5
6355B
330
62FC6
100
AcDbEntity
  8
标注
 62
     0
440
 16777216
370
    -2
100
AcDbBlockReference
  2
_ClosedBlank
 10
3972.062411062363
 20
4184.814515124291
 30
0.0
 41
2.5
 42
2.5
 43
2.5
 50
6.729724244702644
  0
POINT
  5
6355C
330
62FC6
100
AcDbEntity
  8
Defpoints
 62
     0
440
 16777216
100
AcDbPoint
 10
3972.062411062363
 20
4184.814515124291
 30
0.0
  0
POINT
  5
6355D
330
62FC6
100
AcDbEntity
  8
Defpoints
 62
     0
440
 16777216
100
AcDbPoint
 10
4028.669680421287
 20
4191.494115091822
 30
0.0
  0
ENDBLK
  5
62FD0
330
62FC6
100
AcDbEntity
  8
0
100
AcDbBlockEnd
  0
BLOCK
  5
62FDB
330
62FD1
100
AcDbEntity
  8
0
100
AcDbBlockBegin
  2
*D10
 70
     1
 10
0.0
 20
0.0
 30
0.0
  3
*D10
  1

  0
LINE
  5
6355E
330
62FD1
100
AcDbEntity
  8
标注
 62
     0
440
 16777216
370
    -2
100
AcDbLine
 10
4537.325356227014
 20
3412.685774358316
 30
0.0
 11
4496.40510375275
 21
3412.135976231212
 31
0.0
  0
LINE
  5
6355F
330
62FD1
100
AcDbEntity
  8
标注
 62
     0
440
 16777216
370
    -2
100
AcDbLine
 10
4578.956587024566
 20
3503.053230146886
 30
0.0
 11
4495.198673853617
 21
3501.927871894992
 31
0.0
  0
LINE
  5
63560
330
62FD1
100
AcDbEntity
  8
标注
 62
     0
440
 16777216
370
    -2
100
AcDbLine
 10
4497.621404363352
 20
3414.652543898622
 30
0.0
 11
4496.482147621186
 21
3499.444890806066
 31
0.0
  0
INSERT
  5
63561
330
62FD1
100
AcDbEntity
  8
标注
 62
     0
440
 16777216
370
    -2
100
AcDbBlockReference
  2
_ClosedBlank
 10
4497.654990941835
 20
3412.152769520453
 30
0.0
 41
2.5
 42
2.5
 43
2.5
 50
270.7697708352463
  0
INSERT
  5
63562
330
62FD1
100
AcDbEntity
  8
标注
 62
     0
440
 16777216
370
    -2
100
AcDbBlockReference
  2
_ClosedBlank
 10
4496.448561042702
 20
3501.944665184235
 30
0.0
 41
2.5
 42
2.5
 43
2.5
 50
90.76977083524633
  0
MTEXT
  5
63563
330
62FD1
100
AcDbEntity
  8
标注
 62
     0
440
 16777216
100
AcDbMText
 10
4512.675365855818
 20
3457.258633467867
 30
0.0
 40
30.0
 41
0.0
 46
0.0
 71
     5
 72
     1
  1
88
  7
样式 1
 11
0.0134346313934658
 21
-0.999909751267244
 31
0.0
 73
     1
 44
1.0
  0
POINT
  5
63564
330
62FD1
100
AcDbEntity
  8
Defpoints
 62
     0
440
 16777216
100
AcDbPoint
 10
4537.950299821555
 20
3412.694171002936
 30
0.0
  0
POINT
  5
63565
330
62FD1
100
AcDbEntity
  8
Defpoints
 62
     0
440
 16777216
100
AcDbPoint
 10
4579.581530619107
 20
3503.061626791507
 30
0.0
  0
POINT
  5
63566
330
62FD1
100
AcDbEntity
  8
Defpoints
 62
     0
440
 16777216
100
AcDbPoint
 10
4496.448561042702
 20
3501.944665184235
 30
0.0
  0
ENDBLK
  5
62FDC
330
62FD1
100
AcDbEntity
  8
0
100
AcDbBlockEnd
  0
BLOCK
  5
62FE8
330
62FDD
100
AcDbEntity
  8
0
100
AcDbBlockBegin
  2
*D11
 70
     1
 10
0.0
 20
0.0
 30
0.0
  3
*D11
  1

  0
LINE
  5
635C4
330
62FDD
100
AcDbEntity
  8
标注
 62
     0
440
 16777216
370
    -2
100
AcDbLine
 10
5152.489742409442
 20
3721.051647845782
 30
0.0
 11
5153.242132860467
 21
3665.052899035243
 31
0.0
  0
LINE
  5
635C5
330
62FDD
100
AcDbEntity
  8
标注
 62
     0
440
 16777216
370
    -2
100
AcDbLine
 10
5139.490915642968
 20
3720.876997637671
 30
0.0
 11
5140.243306093992
 21
3664.878248827133
 31
0.0
  0
LINE
  5
635C6
330
62FDD
100
AcDbEntity
  8
标注
 62
     0
440
 16777216
370
    -2
100
AcDbLine
 10
5150.725565193059
 20
3666.269199645844
 30
0.0
 11
5142.72628718292
 21
3666.161722594699
 31
0.0
  0
LINE
  5
635C7
330
62FDD
100
AcDbEntity
  8
标注
 62
     0
440
 16777216
370
    -2
100
AcDbLine
 10
5140.226512804752
 20
3666.128136016217
 30
0.0
 11
5093.623576183189
 21
3665.501986231649
 31
0.0
  0
INSERT
  5
635C8
330
62FDD
100
AcDbEntity
  8
标注
 62
     0
440
 16777216
370
    -2
100
AcDbBlockReference
  2
_ClosedBlank
 10
5153.225339571226
 20
3666.302786224327
 30
0.0
 41
2.5
 42
2.5
 43
2.5
 50
0.7697708352218946
  0
INSERT
  5
635C9
330
62FDD
100
AcDbEntity
  8
标注
 62
     0
440
 16777216
370
    -2
100
AcDbBlockReference
  2
_ClosedBlank
 10
5140.226512804752
 20
3666.128136016217
 30
0.0
 41
2.5
 42
2.5
 43
2.5
 50
180.7697708352219
  0
MTEXT
  5
635CA
330
62FDD
100
AcDbEntity
  8
标注
 62
     0
440
 16777216
100
AcDbMText
 10
5115.465241189369
 20
3681.421857698242
 30
0.0
 40
30.0
 41
0.0
 46
0.0
 71
     5
 72
     1
  1
13
  7
样式 1
 11
0.9999097512672497
 21
0.0134346313930395
 31
0.0
 73
     1
 44
1.0
  0
POINT
  5
635CB
330
62FDD
100
AcDbEntity
  8
Defpoints
 62
     0
440
 16777216
100
AcDbPoint
 10
5152.481345764821
 20
3721.676591440323
 30
0.0
  0
POINT
  5
635CC
330
62FDD
100
AcDbEntity
  8
Defpoints
 62
     0
440
 16777216
100
AcDbPoint
 10
5139.482518998346
 20
3721.501941232213
 30
0.0
  0
POINT
  5
635CD
330
62FDD
100
AcDbEntity
  8
Defpoints
 62
     0
440
 16777216
100
AcDbPoint
 10
5140.226512804752
 20
3666.128136016217
 30
0.0
  0
ENDBLK
  5
62FE9
330
62FDD
100
AcDbEntity
  8
0
100
AcDbBlockEnd
  0
BLOCK
  5
62FF4
330
62FEA
100
AcDbEntity
  8
0
100
AcDbBlockBegin
  2
*D12
 70
     1
 10
0.0
 20
0.0
 30
0.0
  3
*D12
  1

  0
LINE
  5
63571
330
62FEA
100
AcDbEntity
  8
标注
 62
     0
440
 16777216
370
    -2
100
AcDbLine
 10
5152.498139054062
 20
3720.426704251239
 30
0.0
 11
5153.804117144061
 21
3623.225658020254
 31
0.0
  0
LINE
  5
63572
330
62FEA
100
AcDbEntity
  8
标注
 62
     0
440
 16777216
370
    -2
100
AcDbLine
 10
4605.262407712412
 20
3713.074130355084
 30
0.0
 11
4606.56838580241
 21
3615.873084124102
 31
0.0
  0
LINE
  5
63573
330
62FEA
100
AcDbEntity
  8
标注
 62
     0
440
 16777216
370
    -2
100
AcDbLine
 10
5151.287549476652
 20
3624.441958630856
 30
0.0
 11
4609.051366891338
 21
3617.156557891668
 31
0.0
  0
INSERT
  5
63574
330
62FEA
100
AcDbEntity
  8
标注
 62
     0
440
 16777216
370
    -2
100
AcDbBlockReference
  2
_ClosedBlank
 10
5153.78732385482
 20
3624.475545209338
 30
0.0
 41
2.5
 42
2.5
 43
2.5
 50
0.7697708352218946
  0
INSERT
  5
63575
330
62FEA
100
AcDbEntity
  8
标注
 62
     0
440
 16777216
370
    -2
100
AcDbBlockReference
  2
_ClosedBlank
 10
4606.551592513169
 20
3617.122971313186
 30
0.0
 41
2.5
 42
2.5
 43
2.5
 50
180.7697708352219
  0
MTEXT
  5
63576
330
62FEA
100
AcDbEntity
  8
标注
 62
     0
440
 16777216
100
AcDbMText
 10
4879.95954206848
 20
3636.422848124813
 30
0.0
 40
10.0
 41
0.0
 46
0.0
 71
     5
 72
     1
  1
{\H3x;800}
  7
样式 1
 11
0.9999097512672497
 21
0.0134346313930395
 31
0.0
 73
     1
 44
1.0
  0
POINT
  5
63577
330
62FEA
100
AcDbEntity
  8
Defpoints
 62
     0
440
 16777216
100
AcDbPoint
 10
5152.489742409443
 20
3721.051647845781
 30
0.0
  0
POINT
  5
63578
330
62FEA
100
AcDbEntity
  8
Defpoints
 62
     0
440
 16777216
100
AcDbPoint
 10
4605.254011067791
 20
3713.699073949626
 30
0.0
  0
POINT
  5
63579
330
62FEA
100
AcDbEntity
  8
Defpoints
 62
     0
440
 16777216
100
AcDbPoint
 10
4606.551592513169
 20
3617.122971313186
 30
0.0
  0
ENDBLK
  5
62FF5
330
62FEA
100
AcDbEntity
  8
0
100
AcDbBlockEnd
  0
BLOCK
  5
630D2
330
630CB
100
AcDbEntity
  8
0
100
AcDbBlockBegin
  2
*D13
 70
     1
 10
0.0
 20
0.0
 30
0.0
  3
*D13
  1

  0
LINE
  5
6357A
330
630CB
100
AcDbEntity
  8
标注
 62
     0
440
 16777216
370
    -2
100
AcDbLine
 10
3748.183677907789
 20
3882.503419910394
 30
0.0
 11
3835.671405383165
 21
3868.216865469462
 31
0.0
  0
MTEXT
  5
6357B
330
630CB
100
AcDbEntity
  8
标注
 62
     0
440
 16777216
100
AcDbMText
 10
3790.0908446648
 20
3891.492030158707
 30
0.0
 40
30.0
 41
0.0
 46
0.0
 71
     5
 72
     1
  1
R55
  7
样式 1
 11
0.9869277786220219
 21
-0.1611631464826912
 31
0.0
 73
     1
 44
1.0
  0
LINE
  5
6357C
330
630CB
100
AcDbEntity
  8
标注
 62
     0
440
 16777216
370
    -2
100
AcDbLine
 10
3892.419752653933
 20
3858.949984546707
 30
0.0
 11
3838.13872482972
 21
3867.813957603255
 31
0.0
  0
INSERT
  5
6357D
330
630CB
100
AcDbEntity
  8
标注
 62
     0
440
 16777216
370
    -2
100
AcDbBlockReference
  2
_ClosedBlank
 10
3838.13872482972
 20
3867.813957603255
 30
0.0
 41
2.5
 42
2.5
 43
2.5
 50
350.7255841591005
  0
POINT
  5
6357E
330
630CB
100
AcDbEntity
  8
Defpoints
 62
     0
440
 16777216
100
AcDbPoint
 10
3838.13872482972
 20
3867.813957603255
 30
0.0
  0
POINT
  5
6357F
330
630CB
100
AcDbEntity
  8
Defpoints
 62
     0
440
 16777216
100
AcDbPoint
 10
3892.419752653933
 20
3858.949984546707
 30
0.0
  0
ENDBLK
  5
630D3
330
630CB
100
AcDbEntity
  8
0
100
AcDbBlockEnd
  0
BLOCK
  5
6344F
330
63445
100
AcDbEntity
  8
0
100
AcDbBlockBegin
  2
*D14
 70
     1
 10
0.0
 20
0.0
 30
0.0
  3
*D14
  1

  0
LINE
  5
63580
330
63445
100
AcDbEntity
  8
标注
 62
     0
440
 16777216
370
    -2
100
AcDbLine
 10
5775.919642633539
 20
3215.260581970075
 30
0.0
 11
5837.326783664629
 21
3177.491437061378
 31
0.0
  0
LINE
  5
63581
330
63445
100
AcDbEntity
  8
标注
 62
     0
440
 16777216
370
    -2
100
AcDbLine
 10
5448.208223845107
 20
3066.247861637894
 30
0.0
 11
5509.615364876196
 21
3028.478716729197
 31
0.0
  0
LINE
  5
63582
330
63445
100
AcDbEntity
  8
标注
 62
     0
440
 16777216
370
    -2
100
AcDbLine
 10
5833.767403749578
 20
3177.246118666165
 30
0.0
 11
5510.607540086002
 21
3030.303022924436
 31
0.0
  0
INSERT
  5
63583
330
63445
100
AcDbEntity
  8
标注
 62
     0
440
 16777216
370
    -2
100
AcDbBlockReference
  2
_ClosedBlank
 10
5836.043181312006
 20
3178.280930961391
 30
0.0
 41
2.5
 42
2.5
 43
2.5
 50
24.45163168455442
  0
INSERT
  5
63584
330
63445
100
AcDbEntity
  8
标注
 62
     0
440
 16777216
370
    -2
100
AcDbBlockReference
  2
_ClosedBlank
 10
5508.331762523575
 20
3029.268210629211
 30
0.0
 41
2.5
 42
2.5
 43
2.5
 50
204.4516316845544
  0
MTEXT
  5
63585
330
63445
100
AcDbEntity
  8
标注
 62
     0
440
 16777216
100
AcDbMText
 10
5665.719895072626
 20
3117.998180560473
 30
0.0
 40
30.0
 41
0.0
 46
0.0
 71
     5
 72
     1
  1
800
  7
样式 1
 11
0.9103110249710308
 21
0.4139249180904567
 31
0.0
 73
     1
 44
1.0
  0
POINT
  5
63586
330
63445
100
AcDbEntity
  8
Defpoints
 62
     0
440
 16777216
100
AcDbPoint
 10
5775.277841457228
 20
3215.655328920082
 30
0.0
  0
POINT
  5
63587
330
63445
100
AcDbEntity
  8
Defpoints
 62
     0
440
 16777216
100
AcDbPoint
 10
5447.566422668796
 20
3066.642608587901
 30
0.0
  0
POINT
  5
63588
330
63445
100
AcDbEntity
  8
Defpoints
 62
     0
440
 16777216
100
AcDbPoint
 10
5508.331762523575
 20
3029.268210629211
 30
0.0
  0
ENDBLK
  5
63450
330
63445
100
AcDbEntity
  8
0
100
AcDbBlockEnd
  0
BLOCK
  5
6345B
330
63451
100
AcDbEntity
  8
0
100
AcDbBlockBegin
  2
*D15
 70
     1
 10
0.0
 20
0.0
 30
0.0
  3
*D15
  1

  0
LINE
  5
635D8
330
63451
100
AcDbEntity
  8
标注
 62
     0
440
 16777216
370
    -2
100
AcDbLine
 10
5448.211203713981
 20
3066.246028836407
 30
0.0
 11
5510.837640427175
 21
3027.726942560461
 31
0.0
  0
LINE
  5
635D9
330
63451
100
AcDbEntity
  8
标注
 62
     0
440
 16777216
370
    -2
100
AcDbLine
 10
5377.316064337417
 20
3034.591939545287
 30
0.0
 11
5439.94250105061
 21
2996.072853269339
 31
0.0
  0
LINE
  5
635DA
330
63451
100
AcDbEntity
  8
标注
 62
     0
440
 16777216
370
    -2
100
AcDbLine
 10
5507.265287253233
 20
3027.500854856548
 30
0.0
 11
5440.935730043809
 21
2997.885259979224
 31
0.0
  0
INSERT
  5
635DB
330
63451
100
AcDbEntity
  8
标注
 62
     0
440
 16777216
370
    -2
100
AcDbBlockReference
  2
_ClosedBlank
 10
5509.548078336803
 20
3028.520102063447
 30
0.0
 41
2.5
 42
2.5
 43
2.5
 50
24.06036395453522
  0
INSERT
  5
635DC
330
63451
100
AcDbEntity
  8
标注
 62
     0
440
 16777216
370
    -2
100
AcDbBlockReference
  2
_ClosedBlank
 10
5438.652938960239
 20
2996.866012772325
 30
0.0
 41
2.5
 42
2.5
 43
2.5
 50
204.0603639545352
  0
MTEXT
  5
635DD
330
63451
100
AcDbEntity
  8
标注
 62
     0
440
 16777216
100
AcDbMText
 10
5467.730213605399
 20
3026.9605016902
 30
0.0
 40
30.0
 41
0.0
 46
0.0
 71
     5
 72
     1
  1
100
  7
样式 1
 11
0.9131164334280898
 21
0.4076988827597702
 31
0.0
 73
     1
 44
1.0
  0
POINT
  5
635DE
330
63451
100
AcDbEntity
  8
Defpoints
 62
     0
440
 16777216
100
AcDbPoint
 10
5447.566422668796
 20
3066.642608587901
 30
0.0
  0
POINT
  5
635DF
330
63451
100
AcDbEntity
  8
Defpoints
 62
     0
440
 16777216
100
AcDbPoint
 10
5376.67128329223
 20
3034.98851929678
 30
0.0
  0
POINT
  5
635E0
330
63451
100
AcDbEntity
  8
Defpoints
 62
     0
440
 16777216
100
AcDbPoint
 10
5438.652938960239
 20
2996.866012772325
 30
0.0
  0
ENDBLK
  5
6345C
330
63451
100
AcDbEntity
  8
0
100
AcDbBlockEnd
  0
BLOCK
  5
63467
330
6345D
100
AcDbEntity
  8
0
100
AcDbBlockBegin
  2
*D16
 70
     1
 10
0.0
 20
0.0
 30
0.0
  3
*D16
  1

  0
LINE
  5
63592
330
6345D
100
AcDbEntity
  8
标注
 62
     0
440
 16777216
370
    -2
100
AcDbLine
 10
5322.697817292978
 20
3065.326980281009
 30
0.0
 11
5178.256888014323
 21
3001.448212893191
 31
0.0
  0
LINE
  5
63593
330
6345D
100
AcDbEntity
  8
标注
 62
     0
440
 16777216
370
    -2
100
AcDbLine
 10
4911.767221454248
 20
3296.458751059101
 30
0.0
 11
4767.326292175594
 21
3232.579983671281
 31
0.0
  0
LINE
  5
63594
330
6345D
100
AcDbEntity
  8
标注
 62
     0
440
 16777216
370
    -2
100
AcDbLine
 10
5177.505350769966
 20
3003.305081537585
 30
0.0
 11
4770.932708243535
 21
3231.985680569791
 31
0.0
  0
INSERT
  5
63595
330
6345D
100
AcDbEntity
  8
标注
 62
     0
440
 16777216
370
    -2
100
AcDbBlockReference
  2
_ClosedBlank
 10
5179.684327426116
 20
3002.079495664642
 30
0.0
 41
2.5
 42
2.5
 43
2.5
 50
330.6440141711622
  0
INSERT
  5
63596
330
6345D
100
AcDbEntity
  8
标注
 62
     0
440
 16777216
370
    -2
100
AcDbBlockReference
  2
_ClosedBlank
 10
4768.753731587387
 20
3233.211266442733
 30
0.0
 41
2.5
 42
2.5
 43
2.5
 50
150.6440141711622
  0
MTEXT
  5
63597
330
6345D
100
AcDbEntity
  8
标注
 62
     0
440
 16777216
100
AcDbMText
 10
4981.878941212644
 20
3131.263985154622
 30
0.0
 40
30.0
 41
0.0
 46
0.0
 71
     5
 72
     1
  1
700
  7
样式 1
 11
0.8715906624596835
 21
-0.4902343491770952
 31
0.0
 73
     1
 44
1.0
  0
POINT
  5
63598
330
6345D
100
AcDbEntity
  8
Defpoints
 62
     0
440
 16777216
100
AcDbPoint
 10
5323.411536998875
 20
3065.642621666736
 30
0.0
  0
POINT
  5
63599
330
6345D
100
AcDbEntity
  8
Defpoints
 62
     0
440
 16777216
100
AcDbPoint
 10
4912.480941160145
 20
3296.774392444826
 30
0.0
  0
POINT
  5
6359A
330
6345D
100
AcDbEntity
  8
Defpoints
 62
     0
440
 16777216
100
AcDbPoint
 10
4768.753731587387
 20
3233.211266442733
 30
0.0
  0
ENDBLK
  5
63468
330
6345D
100
AcDbEntity
  8
0
100
AcDbBlockEnd
  0
BLOCK
  5
63473
330
63469
100
AcDbEntity
  8
0
100
AcDbBlockBegin
  2
*D17
 70
     1
 10
0.0
 20
0.0
 30
0.0
  3
*D17
  1

  0
ARC
  5
6359B
330
63469
100
AcDbEntity
  8
标注
 62
     0
440
 16777216
370
    -2
100
AcDbCircle
 10
5356.213114310626
 20
3100.368345589687
 30
0.0
 40
124.7388698006001
100
AcDbArc
 50
25.00566666083603
 51
147.2576098119386
  0
INSERT
  5
6359C
330
63469
100
AcDbEntity
  8
标注
 62
     0
440
 16777216
370
    -2
100
AcDbBlockReference
  2
_ClosedBlank
 10
5470.293721598149
 20
3150.820309674756
 30
0.0
 41
2.5
 42
2.5
 43
2.5
 50
294.4314998175339
  0
INSERT
  5
6359D
330
63469
100
AcDbEntity
  8
标注
 62
     0
440
 16777216
370
    -2
100
AcDbBlockReference
  2
_ClosedBlank
 10
5249.962879562979
 20
3165.718733922131
 30
0.0
 41
2.5
 42
2.5
 43
2.5
 50
237.8317766552408
  0
MTEXT
  5
6359E
330
63469
100
AcDbEntity
  8
标注
 62
     0
440
 16777216
100
AcDbMText
 10
5365.682674027715
 20
3240.412422166187
 30
0.0
 40
30.0
 41
0.0
 46
0.0
 71
     5
 72
     1
  1
140
  7
样式 1
 11
0.9977216841872804
 21
-0.0674643676506092
 31
0.0
 73
     1
 44
1.0
  0
POINT
  5
6359F
330
63469
100
AcDbEntity
  8
Defpoints
 62
     0
440
 16777216
100
AcDbPoint
 10
5408.191888890681
 20
3213.761434586711
 30
0.0
  0
POINT
  5
635A0
330
63469
100
AcDbEntity
  8
Defpoints
 62
     0
440
 16777216
100
AcDbPoint
 10
5711.599264687027
 20
3257.537295873506
 30
0.0
  0
POINT
  5
635A1
330
63469
100
AcDbEntity
  8
Defpoints
 62
     0
440
 16777216
100
AcDbPoint
 10
5352.850954590048
 20
3102.436279311409
 30
0.0
  0
POINT
  5
635A2
330
63469
100
AcDbEntity
  8
Defpoints
 62
     0
440
 16777216
100
AcDbPoint
 10
5017.384253485278
 20
3308.768804052361
 30
0.0
  0
POINT
  5
635A3
330
63469
100
AcDbEntity
  8
Defpoints
 62
     0
440
 16777216
100
AcDbPoint
 10
5359.808554675579
 20
3101.958423276647
 30
0.0
  0
ENDBLK
  5
63474
330
63469
100
AcDbEntity
  8
0
100
AcDbBlockEnd
  0
BLOCK
  5
6347F
330
63475
100
AcDbEntity
  8
0
100
AcDbBlockBegin
  2
*D18
 70
     1
 10
0.0
 20
0.0
 30
0.0
  3
*D18
  1

  0
LINE
  5
635A4
330
63475
100
AcDbEntity
  8
标注
 62
     0
440
 16777216
370
    -2
100
AcDbLine
 10
5018.410730044537
 20
3298.082803806642
 30
0.0
 11
4942.305044565256
 21
3342.693932023956
 31
0.0
  0
LINE
  5
635A5
330
63475
100
AcDbEntity
  8
标注
 62
     0
440
 16777216
370
    -2
100
AcDbLine
 10
4938.159139264509
 20
3307.100367376702
 30
0.0
 11
4877.437235462064
 21
3342.693932023956
 31
0.0
  0
LINE
  5
635A6
330
63475
100
AcDbEntity
  8
标注
 62
     0
440
 16777216
370
    -2
100
AcDbLine
 10
4941.937519368083
 20
3341.443932023957
 30
0.0
 11
4882.06971026489
 21
3341.443932023957
 31
0.0
  0
INSERT
  5
635A7
330
63475
100
AcDbEntity
  8
标注
 62
     0
440
 16777216
370
    -2
100
AcDbBlockReference
  2
_ClosedBlank
 10
4944.437519368083
 20
3341.443932023957
 30
0.0
 41
2.5
 42
2.5
 43
2.5
  0
INSERT
  5
635A8
330
63475
100
AcDbEntity
  8
标注
 62
     0
440
 16777216
370
    -2
100
AcDbBlockReference
  2
_ClosedBlank
 10
4879.56971026489
 20
3341.443932023957
 30
0.0
 41
2.5
 42
2.5
 43
2.5
 50
180.0
  0
MTEXT
  5
635A9
330
63475
100
AcDbEntity
  8
标注
 62
     0
440
 16777216
100
AcDbMText
 10
4916.69993598433
 20
3357.068932023957
 30
0.0
 40
30.0
 41
0.0
 46
0.0
 71
     5
 72
     1
  1
88
  7
样式 1
 73
     1
 44
1.0
  0
POINT
  5
635AA
330
63475
100
AcDbEntity
  8
Defpoints
 62
     0
440
 16777216
100
AcDbPoint
 10
5019.476967445951
 20
3297.457803806642
 30
0.0
  0
POINT
  5
635AB
330
63475
100
AcDbEntity
  8
Defpoints
 62
     0
440
 16777216
100
AcDbPoint
 10
4939.225376665923
 20
3306.475367376702
 30
0.0
  0
POINT
  5
635AC
330
63475
100
AcDbEntity
  8
Defpoints
 62
     0
440
 16777216
100
AcDbPoint
 10
4879.56971026489
 20
3341.443932023957
 30
0.0
  0
ENDBLK
  5
63480
330
63475
100
AcDbEntity
  8
0
100
AcDbBlockEnd
  0
ENDSEC
  0
SECTION
  2
ENTITIES
  0
HATCH
  5
47A0
330
2
100
AcDbEntity
  8
标注
100
AcDbHatch
 10
0.0
 20
0.0
 30
0.0
210
0.0
220
0.0
230
1.0
  2
ANSI31
 70
     0
 71
     0
 91
        1
 92
        7
 72
     0
 73
     1
 93
        6
 10
808.9637528631646
 20
341.4077636669027
 10
807.9637528631646
 20
340.4077636669027
 10
807.9637528631646
 20
340.3827697704183
 10
808.9637528631646
 20
340.3827697704183
 10
817.9637528631646
 20
340.3827697704183
 10
817.9637528631646
 20
341.4077636669027
 97
        0
 75
     0
 76
     1
 52
0.0
 41
1.0
 77
     0
 78
     1
 53
45.0
 43
0.0
 44
0.0
 45
-57.02462636878911
 46
57.02462636878912
 79
     0
 47
0.0
 98
        2
 10
811.6304195298312
 20
290.00483008513
 10
814.540916511757
 20
290.1885128832553
  0
HATCH
  5
47AF
330
2
100
AcDbEntity
  8
标注
100
AcDbHatch
 10
0.0
 20
0.0
 30
0.0
210
0.0
220
0.0
230
1.0
  2
ANSI31
 70
     0
 71
     0
 91
        1
 92
        7
 72
     0
 73
     1
 93
        6
 10
807.9637528631646
 20
340.4077636669027
 10
807.9637528631646
 20
340.3827697704183
 10
808.9637528631646
 20
340.3827697704183
 10
817.9637528631646
 20
340.3827697704183
 10
817.9637528631646
 20
341.4077636669027
 10
808.9637528631646
 20
341.4077636669027
 97
        0
 75
     0
 76
     1
 52
0.0
 41
1.0
 77
     0
 78
     1
 53
45.0
 43
0.0
 44
0.0
 45
-57.02462636878911
 46
57.02462636878912
 79
     0
 47
0.0
 98
        2
 10
811.6304195298312
 20
290.00483008513
 10
815.1155934479202
 20
290.0208102015142
  0
HATCH
  5
47C4
330
2
100
AcDbEntity
  8
标注
100
AcDbHatch
 10
0.0
 20
0.0
 30
0.0
210
0.0
220
0.0
230
1.0
  2
ANSI31
 70
     0
 71
     0
 91
        1
 92
        7
 72
     0
 73
     1
 93
        6
 10
807.9637528631646
 20
340.4077636669027
 10
807.9637528631646
 20
340.3827697704183
 10
808.9637528631646
 20
340.3827697704183
 10
817.9637528631646
 20
340.3827697704183
 10
817.9637528631646
 20
341.4077636669027
 10
808.9637528631646
 20
341.4077636669027
 97
        0
 75
     0
 76
     1
 52
0.0
 41
1.0
 77
     0
 78
     1
 53
45.0
 43
0.0
 44
0.0
 45
-57.02462636878911
 46
57.02462636878912
 79
     0
 47
0.0
 98
        2
 10
811.6304195298312
 20
290.00483008513
 10
811.6304195298312
 20
290.00483008513
  0
HATCH
  5
7FDE
330
2
100
AcDbEntity
  8
剖面线
100
AcDbHatch
 10
0.0
 20
0.0
 30
0.0
210
0.0
220
0.0
230
1.0
  2
ANSI31
 70
     0
 71
     1
 91
        0
 75
     0
 76
     1
 52
0.0
 41
0.25
 77
     0
 78
     1
 53
45.0
 43
0.0
 44
0.0
 45
-0.5612660075668221
 46
0.5612660075668221
 79
     0
 98
        1
 10
267.1978866720704
 20
1009.396111914461
  0
HATCH
  5
807B
330
2
100
AcDbEntity
  8
剖面线
100
AcDbHatch
 10
0.0
 20
0.0
 30
0.0
210
0.0
220
0.0
230
1.0
  2
ANSI31
 70
     0
 71
     1
 91
        0
 75
     0
 76
     1
 52
0.0
 41
0.25
 77
     0
 78
     1
 53
45.0
 43
0.0
 44
0.0
 45
-0.5612660075668221
 46
0.5612660075668221
 79
     0
 98
        1
 10
260.9063311437414
 20
1015.611866868925
  0
HATCH
  5
80BB
330
2
100
AcDbEntity
  8
0
100
AcDbHatch
 10
0.0
 20
0.0
 30
0.0
210
0.0
220
0.0
230
1.0
  2
ANSI31
 70
     0
 71
     1
 91
        0
 75
     0
 76
     1
 52
0.0
 41
0.25
 77
     0
 78
     1
 53
45.0
 43
0.0
 44
0.0
 45
-0.5612660075668221
 46
0.5612660075668221
 79
     0
 98
        1
 10
0.0
 20
0.0
  0
HATCH
  5
8127
330
2
100
AcDbEntity
  8
0
100
AcDbHatch
 10
0.0
 20
0.0
 30
0.0
210
0.0
220
0.0
230
1.0
  2
ANSI31
 70
     0
 71
     1
 91
        0
 75
     0
 76
     1
 52
0.0
 41
0.25
 77
     0
 78
     1
 53
45.0
 43
0.0
 44
0.0
 45
-0.5612660075668221
 46
0.5612660075668221
 79
     0
 98
        1
 10
0.0
 20
0.0
  0
HATCH
  5
8151
330
2
100
AcDbEntity
  8
0
100
AcDbHatch
 10
0.0
 20
0.0
 30
0.0
210
0.0
220
0.0
230
1.0
  2
ANSI31
 70
     0
 71
     1
 91
        0
 75
     0
 76
     1
 52
0.0
 41
0.25
 77
     0
 78
     1
 53
45.0
 43
0.0
 44
0.0
 45
-0.5612660075668221
 46
0.5612660075668221
 79
     0
 98
        1
 10
0.0
 20
0.0
  0
HATCH
  5
8184
330
2
100
AcDbEntity
  8
剖面线
100
AcDbHatch
 10
0.0
 20
0.0
 30
0.0
210
0.0
220
0.0
230
1.0
  2
ANSI31
 70
     0
 71
     0
 91
        0
 75
     0
 76
     1
 52
0.0
 41
0.25
 77
     0
 78
     1
 53
45.00000000000436
 43
1662.819978524104
 44
0.3206117319112991
 45
-0.5612660075669284
 46
0.5612660075668221
 79
     0
 98
        2
 10
2060.042234542995
 20
923.3992186555811
 10
2042.482776698473
 20
923.3050660666023
  0
HATCH
  5
81A8
330
2
100
AcDbEntity
  8
0
100
AcDbHatch
 10
0.0
 20
0.0
 30
0.0
210
0.0
220
0.0
230
1.0
  2
ANSI31
 70
     0
 71
     1
 91
        0
 75
     0
 76
     1
 52
0.0
 41
0.1
 77
     0
 78
     1
 53
45.0
 43
0.0
 44
0.0
 45
-0.2245064030267288
 46
0.2245064030267288
 79
     0
 98
        1
 10
0.0
 20
0.0
  0
HATCH
  5
81BF
330
2
100
AcDbEntity
  8
0
100
AcDbHatch
 10
0.0
 20
0.0
 30
0.0
210
0.0
220
0.0
230
1.0
  2
ANSI31
 70
     0
 71
     1
 91
        0
 75
     0
 76
     1
 52
0.0
 41
0.1
 77
     0
 78
     1
 53
45.0
 43
0.0
 44
0.0
 45
-0.2245064030267288
 46
0.2245064030267288
 79
     0
 98
        1
 10
0.0
 20
0.0
  0
HATCH
  5
81C7
330
2
100
AcDbEntity
  8
0
100
AcDbHatch
 10
0.0
 20
0.0
 30
0.0
210
0.0
220
0.0
230
1.0
  2
ANSI31
 70
     0
 71
     1
 91
        0
 75
     0
 76
     1
 52
0.0
 41
0.25
 77
     0
 78
     1
 53
45.0
 43
0.0
 44
0.0
 45
-0.5612660075668221
 46
0.5612660075668221
 79
     0
 98
        1
 10
0.0
 20
0.0
  0
HATCH
  5
8D7A
330
2
100
AcDbEntity
  8
标注
100
AcDbHatch
 10
0.0
 20
0.0
 30
0.0
210
0.0
220
0.0
230
1.0
  2
ANSI31
 70
     0
 71
     0
 91
        1
 92
       10
 72
     0
 73
     1
 93
        4
 10
2048.785847868912
 20
971.5216843808956
 10
2048.785847868912
 20
966.6558651718558
 10
2053.651667077952
 20
966.6558651718558
 10
2053.651667077952
 20
971.5216843808956
 97
        0
 75
     0
 76
     1
 52
0.0
 41
0.25
 77
     0
 78
     1
 53
45.0
 43
0.0
 44
0.0
 45
-0.5612660075668221
 46
0.5612660075668221
 79
     0
 98
        1
 10
0.0
 20
0.0
  0
HATCH
  5
8ED7
330
2
100
AcDbEntity
  8
标注
100
AcDbHatch
 10
0.0
 20
0.0
 30
0.0
210
0.0
220
0.0
230
1.0
  2
ANSI31
 70
     0
 71
     1
 91
        0
 75
     0
 76
     1
 52
0.0
 41
0.25
 77
     0
 78
     1
 53
45.0
 43
0.0
 44
0.0
 45
-0.5612660075668221
 46
0.5612660075668221
 79
     0
 98
        1
 10
0.0
 20
0.0
  0
MTEXT
  5
47027
330
2
100
AcDbEntity
  8
标注
100
AcDbMText
 10
851.2901663856801
 20
335.199601009439
 30
0.0
 40
6.0
 41
13.70396488517739
 46
0.0
 71
     1
 72
     1
  1

 73
     1
 44
1.0
  0
LINE
  5
62F1D
330
2
100
AcDbEntity
  8
0
100
AcDbLine
 10
5138.900799459027
 20
3764.798033462085
 30
0.0
 11
4571.970331717909
 21
3757.180844160815
 31
0.0
  0
LINE
  5
62F1E
330
2
100
AcDbEntity
  8
中心线
100
AcDbLine
 10
5161.482315692964
 20
3750.300099388806
 30
0.0
 11
4572.169164262527
 21
3742.382179842059
 31
0.0
  0
LINE
  5
62F1F
330
2
100
AcDbEntity
  8
0
100
AcDbLine
 10
5139.298464548262
 20
3735.200704824575
 30
0.0
 11
4615.060657485758
 21
3728.157127450459
 31
0.0
  0
LINE
  5
62F20
330
2
100
AcDbEntity
  8
0
100
AcDbLine
 10
4595.062462460412
 20
3727.888434822598
 30
0.0
 11
4572.367996807144
 21
3727.583515523304
 31
0.0
  0
LINE
  5
62F21
330
2
100
AcDbEntity
  8
0
100
AcDbLine
 10
4536.44733291055
 20
3769.572279705673
 30
0.0
 11
4009.726129239913
 21
4199.618556771106
 31
0.0
  0
LINE
  5
62F22
330
2
100
AcDbEntity
  8
0
100
AcDbLine
 10
4517.727165914369
 20
3746.643796379578
 30
0.0
 11
3991.005962243733
 21
4176.690073445011
 31
0.0
  0
ARC
  5
62F23
330
2
100
AcDbEntity
  8
0
100
AcDbCircle
 10
4571.231426991292
 20
3812.175880480513
 30
0.0
 40
55.0
100
AcDbArc
 50
230.7697708352265
 51
270.7697708352463
  0
ARC
  5
62F24
330
2
100
AcDbEntity
  8
中心线
100
AcDbCircle
 10
4571.231426991292
 20
3812.175880480513
 30
0.0
 40
69.79999999999998
100
AcDbArc
 50
230.7697708352265
 51
270.7697708352463
  0
ARC
  5
62F25
330
2
100
AcDbEntity
  8
0
100
AcDbCircle
 10
4571.231426991292
 20
3812.175880480513
 30
0.0
 40
84.59999999999999
100
AcDbArc
 50
230.7697708352265
 51
270.7697708352463
  0
ARC
  5
62F26
330
2
100
AcDbEntity
  8
0
100
AcDbCircle
 10
4000.366045741823
 20
4188.154315108058
 30
0.0
 40
14.79999999999962
100
AcDbArc
 50
50.7697708352265
 51
230.7697708352265
  0
ARC
  5
62F27
330
2
100
AcDbEntity
  8
0
100
AcDbCircle
 10
4000.366045741823
 20
4188.154315108058
 30
0.0
 40
28.5
100
AcDbArc
 50
352.0549618002171
 51
289.4845798702256
  0
LINE
  5
62F28
330
2
100
AcDbEntity
  8
中心线
100
AcDbLine
 10
5167.892120828638
 20
3435.959306816254
 30
0.0
 11
4534.015393611059
 21
3427.442638018889
 31
0.0
  0
LINE
  5
62F29
330
2
100
AcDbEntity
  8
0
100
AcDbLine
 10
5143.522293004494
 20
3420.830541810454
 30
0.0
 11
4537.950299821555
 21
3412.694171002935
 31
0.0
  0
LINE
  5
62F2A
330
2
100
AcDbEntity
  8
0
100
AcDbLine
 10
5143.124627915261
 20
3450.427870447966
 30
0.0
 11
4618.886820852756
 21
3443.38429307385
 31
0.0
  0
LINE
  5
62F2B
330
2
100
AcDbEntity
  8
0
100
AcDbLine
 10
4598.888625827408
 20
3443.115600445988
 30
0.0
 11
4537.552634732322
 21
3442.291499640447
 31
0.0
  0
SPLINE
  5
62F2C
330
2
100
AcDbEntity
  8
0
100
AcDbSpline
210
0.0
220
0.0
230
1.0
 70
  1064
 71
     3
 72
     9
 73
     5
 74
     3
 42
0.000000001
 43
0.0000000001
 44
0.0000000001
 40
0.0
 40
0.0
 40
0.0
 40
0.0
 40
15.66579547199606
 40
31.33159094399128
 40
31.33159094399128
 40
31.33159094399128
 40
31.33159094399128
 10
4537.552634732322
 20
3442.291499640447
 30
0.0
 10
4540.186614867091
 20
3437.393110785933
 30
0.0
 10
4545.45457513663
 20
3427.596333076908
 30
0.0
 10
4540.45172492658
 20
3417.661558360926
 30
0.0
 10
4537.950299821555
 20
3412.694171002935
 30
0.0
 11
4537.552634732322
 21
3442.291499640447
 31
0.0
 11
4542.886872516733
 21
3427.561833825168
 31
0.0
 11
4537.950299821555
 21
3412.694171002935
 31
0.0
  0
LINE
  5
62F2D
330
2
100
AcDbEntity
  8
中心线
100
AcDbLine
 10
4022.72139441341
 20
4215.535173375513
 30
0.0
 11
3972.682139170099
 21
4154.247032637749
 31
0.0
  0
ARC
  5
62F2E
330
2
100
AcDbEntity
  8
0
100
AcDbCircle
 10
5353.594943735295
 20
3752.881294682108
 30
0.0
 40
14.8
100
AcDbArc
 50
313.2764131379375
 51
228.2631285325108
  0
ARC
  5
62F2F
330
2
100
AcDbEntity
  8
0
100
AcDbCircle
 10
5353.594943735295
 20
3752.881294682108
 30
0.0
 40
15.9
100
AcDbArc
 50
309.7410550116998
 51
231.7984866587478
  0
DIMENSION
  5
62F30
330
2
100
AcDbEntity
  8
标注
100
AcDbDimension
280
     0
  2
*D1
 10
5338.550896664004
 20
3747.73477666341
 30
0.0
 11
5462.173825117377
 21
3790.025765636967
 31
0.0
 70
   163
 71
     5
 42
31.80000000000109
 73
     0
 74
     0
 75
     0
  3
线性标注
100
AcDbDiametricDimension
 15
5368.638990806587
 25
3758.027812700807
 35
0.0
 40
0.0
1001
ACAD
1000
DSTYLE
1002
{
1070
   288
1070
     1
1002
}
1001
ACAD_DSTYLE_DIMRADIAL_EXTENSION
1070
   387
1070
     1
1070
   388
1040
0.0
1070
   390
1040
0.0
  0
DIMENSION
  5
62F31
330
2
100
AcDbEntity
  8
标注
100
AcDbDimension
280
     0
  2
*D2
 10
5367.872043721746
 20
3748.982010648218
 30
0.0
 11
5254.112263583411
 21
3780.051464165613
 31
0.0
 70
   163
 71
     5
 42
29.59999999999855
 73
     0
 74
     0
 75
     0
  3
线性标注
100
AcDbDiametricDimension
 15
5339.317843748849
 25
3756.780578715996
 35
0.0
 40
0.0
1001
ACAD
1000
DSTYLE
1002
{
1070
   288
1070
     1
1002
}
1001
ACAD_DSTYLE_DIMRADIAL_EXTENSION
1070
   387
1070
     1
1070
   388
1040
0.0
1070
   390
1040
0.0
  0
DIMENSION
  5
62F32
330
2
100
AcDbEntity
  8
标注
100
AcDbDimension
280
     0
  2
*D3
 10
3945.782693612028
 20
4120.572933258965
 30
0.0
 11
4229.542341238555
 21
3911.474041397507
 31
0.0
 70
    33
  1
700
 71
     5
 42
704.2662666174524
 73
     0
 74
     0
 75
     0
  3
线性标注
100
AcDbAlignedDimension
 13
4548.250156934336
 23
3745.645586382766
 33
0.0
 14
4000.366045741823
 24
4188.154315108058
 34
0.0
1001
ACAD
1000
DSTYLE
1002
{
1070
   140
1040
30.0
1002
}
  0
DIMENSION
  5
62F33
330
2
100
AcDbEntity
  8
标注
100
AcDbDimension
280
     0
  2
*D4
 10
4572.169164262527
 20
3742.382179842059
 30
0.0
 11
4635.383431822993
 21
3884.696373382811
 31
0.0
 70
   162
 71
     5
 42
2.443460952792058
 73
     0
 74
     0
 75
     0
  3
线性标注
100
AcDb2LineAngularDimension
 13
4527.087249412456
 23
3758.108038042625
 33
0.0
 14
3971.636542483587
 24
4211.610777145363
 34
0.0
 15
5088.995550747586
 25
3749.326178525767
 35
0.0
 16
4534.750034240995
 26
3909.549649298318
 36
0.0
  0
DIMENSION
  5
62F34
330
2
100
AcDbEntity
  8
标注
100
AcDbDimension
280
     0
  2
*D5
 10
4571.231426991309
 20
3812.175880480509
 30
0.0
 11
4564.655392424
 21
3790.557477915124
 31
0.0
 70
   164
  1
R55
 71
     5
 42
69.800000000002
 73
     0
 74
     0
 75
     0
  3
线性标注
100
AcDbRadialDimension
 15
4550.91818267975
 25
3745.397050709846
 35
0.0
 40
0.0
1001
ACAD
1000
DSTYLE
1002
{
1070
   288
1070
     1
1002
}
1001
ACAD_DSTYLE_DIMRADIAL_EXTENSION
1070
   387
1070
     1
1070
   388
1040
4.712388980384689
1070
   390
1040
5.410520681182421
  0
LINE
  5
62F35
330
2
100
AcDbEntity
  8
中心线
100
AcDbLine
 10
4604.415150730295
 20
3776.133584199646
 30
0.0
 11
4606.393614711863
 21
3628.880907901793
 31
0.0
  0
LINE
  5
62F36
330
2
100
AcDbEntity
  8
0
100
AcDbLine
 10
4595.062462460412
 20
3727.888434822598
 30
0.0
 11
4595.938400427239
 21
3662.694319039973
 31
0.0
  0
LINE
  5
62F37
330
2
100
AcDbEntity
  8
0
100
AcDbLine
 10
4615.060657485758
 20
3728.157127450459
 30
0.0
 11
4615.936595452584
 21
3662.963011667834
 31
0.0
  0
ARC
  5
62F38
330
2
100
AcDbEntity
  8
0
100
AcDbCircle
 10
4605.937497939911
 20
3662.828665353904
 30
0.0
 40
10.00000000000091
100
AcDbArc
 50
180.7697708352219
 51
0.7697708352219076
  0
ARC
  5
62F39
330
2
100
AcDbEntity
  8
0
100
AcDbCircle
 10
4605.937497939911
 20
3662.828665353904
 30
0.0
 40
28.5
100
AcDbArc
 50
111.3107483727566
 51
70.22879329769541
  0
LINE
  5
62F3A
330
2
100
AcDbEntity
  8
中心线
100
AcDbLine
 10
4607.824553037592
 20
3522.379349094555
 30
0.0
 11
4609.684396080695
 21
3383.955365568835
 31
0.0
  0
ARC
  5
62F3B
330
2
100
AcDbEntity
  8
0
100
AcDbCircle
 10
4605.487344099861
 20
3696.332615039566
 30
0.0
 40
33.23323516264468
100
AcDbArc
 50
73.25788750684816
 51
108.2816541636125
  0
LINE
  5
62F3C
330
2
100
AcDbEntity
  8
0
100
AcDbLine
 10
4618.252706251002
 20
3490.580033333664
 30
0.0
 11
4618.886820852756
 21
3443.38429307385
 31
0.0
  0
LINE
  5
62F3D
330
2
100
AcDbEntity
  8
0
100
AcDbLine
 10
4598.254511225658
 20
3490.311340705803
 30
0.0
 11
4598.888625827411
 21
3443.115600445989
 31
0.0
  0
ARC
  5
62F3E
330
2
100
AcDbEntity
  8
0
100
AcDbCircle
 10
4608.428803821893
 20
3477.406306384568
 30
0.0
 40
35.59308233256088
100
AcDbArc
 50
254.4526518060503
 51
287.0868898643582
  0
LINE
  5
62F3F
330
2
100
AcDbEntity
  8
0
100
AcDbLine
 10
4636.57638644134
 20
3503.82740078091
 30
0.0
 11
4579.581530619106
 21
3503.061626791506
 31
0.0
  0
LINE
  5
62F40
330
2
100
AcDbEntity
  8
0
100
AcDbLine
 10
4636.57638644134
 20
3503.82740078091
 30
0.0
 11
4579.581530619106
 21
3503.061626791506
 31
0.0
  0
LINE
  5
62F41
330
2
100
AcDbEntity
  8
0
100
AcDbLine
 10
4636.751036649449
 20
3490.828574014436
 30
0.0
 11
4579.756180827216
 21
3490.062800025031
 31
0.0
  0
LINE
  5
62F42
330
2
100
AcDbEntity
  8
0
100
AcDbLine
 10
4636.57638644134
 20
3503.82740078091
 30
0.0
 11
4636.751036649449
 21
3490.828574014436
 31
0.0
  0
LINE
  5
62F43
330
2
100
AcDbEntity
  8
0
100
AcDbLine
 10
4579.581530619106
 20
3503.061626791506
 30
0.0
 11
4579.756180827216
 21
3490.062800025031
 31
0.0
  0
DIMENSION
  5
62F44
330
2
100
AcDbEntity
  8
标注
100
AcDbDimension
280
     0
  2
*D6
 10
4552.634590073836
 20
3617.648663702669
 30
0.0
 11
4513.588893440351
 21
3632.750462079079
 31
0.0
 70
    32
  1
100
 71
     5
 42
53.9050740147104
 73
     0
 74
     0
 75
     0
  3
线性标注
100
AcDbAlignedDimension
 13
4606.531831052676
 23
3618.593772890608
 33
0.0
 14
4550.918182679748
 24
3745.397050709847
 34
0.0
 50
180.7697708352219
100
AcDbRotatedDimension
  0
ARC
  5
62F45
330
2
100
AcDbEntity
  8
中心线
100
AcDbCircle
 10
5308.055872644366
 20
3718.266370094943
 30
0.0
 40
45.99999999999999
100
AcDbArc
 50
270.7697708352463
 51
0.7697708352219076
  0
ARC
  5
62F46
330
2
100
AcDbEntity
  8
0
100
AcDbCircle
 10
5308.055872644366
 20
3718.266370094943
 30
0.0
 40
36.0
100
AcDbArc
 50
270.7697708352463
 51
0.7697708352219076
  0
ARC
  5
62F47
330
2
100
AcDbEntity
  8
0
100
AcDbCircle
 10
5308.055872644366
 20
3718.266370094943
 30
0.0
 40
55.99999999999999
100
AcDbArc
 50
270.7697708352463
 51
0.7697708352219076
  0
LINE
  5
62F48
330
2
100
AcDbEntity
  8
0
100
AcDbLine
 10
5282.959108175071
 20
3643.422449746174
 30
0.0
 11
5282.193334185668
 21
3700.417305568406
 31
0.0
  0
LINE
  5
62F49
330
2
100
AcDbEntity
  8
0
100
AcDbLine
 10
5295.957934941545
 20
3643.597099954283
 30
0.0
 11
5295.192160952143
 21
3700.591955776516
 31
0.0
  0
LINE
  5
62F4A
330
2
100
AcDbEntity
  8
0
100
AcDbLine
 10
5295.192160952143
 20
3700.591955776516
 30
0.0
 11
5282.193334185668
 21
3700.417305568406
 31
0.0
  0
LINE
  5
62F4B
330
2
100
AcDbEntity
  8
0
100
AcDbLine
 10
5295.957934941545
 20
3643.597099954283
 30
0.0
 11
5282.959108175072
 21
3643.422449746173
 31
0.0
  0
LINE
  5
62F4C
330
2
100
AcDbEntity
  8
中心线
100
AcDbLine
 10
5353.556426317013
 20
3755.748060506006
 30
0.0
 11
5354.05172120266
 21
3718.884363139022
 31
0.0
  0
LINE
  5
62F4D
330
2
100
AcDbEntity
  8
0
100
AcDbLine
 10
5343.954389830355
 20
3726.0613446373
 30
0.0
 11
5344.052623689987
 21
3718.750016825092
 31
0.0
  0
LINE
  5
62F4E
330
2
100
AcDbEntity
  8
0
100
AcDbLine
 10
5363.9525848557
 20
3726.33003726516
 30
0.0
 11
5364.050818715333
 21
3719.018709452953
 31
0.0
  0
LINE
  5
62F4F
330
2
100
AcDbEntity
  8
中心线
100
AcDbLine
 10
5308.673865688446
 20
3672.270521536649
 30
0.0
 11
5273.179622453347
 21
3671.79362642303
 31
0.0
  0
LINE
  5
62F50
330
2
100
AcDbEntity
  8
0
100
AcDbLine
 10
5308.539519374516
 20
3682.269619049321
 30
0.0
 11
5295.440701632913
 21
3682.093625378072
 31
0.0
  0
LINE
  5
62F51
330
2
100
AcDbEntity
  8
0
100
AcDbLine
 10
5308.808212002376
 20
3662.271424023976
 30
0.0
 11
5295.709394260774
 21
3662.095430352728
 31
0.0
  0
DIMENSION
  5
62F52
330
2
100
AcDbEntity
  8
标注
100
AcDbDimension
280
     0
  2
*D7
 10
5308.055872644374
 20
3718.266370094943
 30
0.0
 11
5400.859757429508
 21
3686.059389464793
 31
0.0
 70
   164
 71
     5
 42
45.99999999999409
 73
     0
 74
     0
 75
     0
  3
线性标注
100
AcDbRadialDimension
 15
5351.513267931091
 25
3703.184765575084
 35
0.0
 40
0.0
1001
ACAD
1000
DSTYLE
1002
{
1070
   288
1070
     1
1002
}
1001
ACAD_DSTYLE_DIMRADIAL_EXTENSION
1070
   387
1070
     1
1070
   388
1040
3.141592653589793
1070
   390
1040
4.712388980384689
  0
LINE
  5
62F53
330
2
100
AcDbEntity
  8
0
100
AcDbLine
 10
4604.415150730295
 20
3776.133584199646
 30
0.0
 11
4604.18613615539
 21
3793.178629942211
 31
0.0
  0
LWPOLYLINE
  5
62F54
330
2
100
AcDbEntity
  8
0
100
AcDbPolyline
 90
        2
 70
     0
 10
4604.18613615539
 20
3793.178629942211
 40
1.999999999999999
 41
0.0
 10
4640.266283358595
 20
3793.663397170121
 40
0.0
 41
0.0
  0
LINE
  5
62F55
330
2
100
AcDbEntity
  8
0
100
AcDbLine
 10
4606.55159251317
 20
3617.122971313188
 30
0.0
 11
4606.71379478234
 21
3605.050616971953
 31
0.0
  0
LWPOLYLINE
  5
62F56
330
2
100
AcDbEntity
  8
0
100
AcDbPolyline
 90
        3
 70
     0
 10
4606.71379478234
 20
3605.050616971953
 40
0.0
 41
0.0
 10
4608.713614284875
 20
3605.077486234739
 40
1.999999999999999
 41
0.0
 10
4628.211003795448
 20
3605.339450117848
 40
0.0
 41
0.0
  0
MTEXT
  5
62F57
330
2
100
AcDbEntity
  8
0
100
AcDbMText
 10
4625.371720468026
 20
3599.666935259609
 30
0.0
 40
25.0
 41
78.15922592658897
 46
0.0
 71
     1
 72
     5
  1
A
  7
黑体
210
0.0
220
0.0
230
-1.0
 11
-0.9999097512672497
 21
-0.0134346313930457
 31
0.0
 73
     1
 44
1.0
  0
MTEXT
  5
62F58
330
2
100
AcDbEntity
  8
0
100
AcDbMText
 10
4622.297719793754
 20
3828.457972369763
 30
0.0
 40
25.0
 41
78.15922592658897
 46
0.0
 71
     1
 72
     5
  1
A
  7
黑体
210
0.0
220
0.0
230
-1.0
 11
-0.9999097512672497
 21
-0.0134346313930457
 31
0.0
 73
     1
 44
1.0
  0
MTEXT
  5
62F59
330
2
100
AcDbEntity
  8
0
100
AcDbMText
 10
5377.093961306285
 20
3601.546841617086
 30
0.0
 40
25.0
 41
173.5631402998114
 46
0.0
 71
     1
 72
     5
  1
A-A
  7
黑体
210
0.0
220
0.0
230
-1.0
 11
-0.9999097512672497
 21
-0.0134346313930457
 31
0.0
 73
     1
 44
1.0
  0
DIMENSION
  5
62F5A
330
2
100
AcDbEntity
  8
标注
100
AcDbDimension
280
     0
  2
*D8
 10
4595.943836974694
 20
3663.184671691314
 30
0.0
 11
4704.895877599461
 21
3659.303449677556
 31
0.0
 70
   163
 71
     5
 42
20.00000000000455
 73
     0
 74
     0
 75
     0
  3
线性标注
100
AcDbDiametricDimension
 15
4615.931158905135
 25
3662.472659016493
 35
0.0
 40
0.0
1001
ACAD
1000
DSTYLE
1002
{
1070
   288
1070
     1
1002
}
1001
ACAD_DSTYLE_DIMRADIAL_EXTENSION
1070
   387
1070
     1
1070
   388
1040
3.141592653589793
1070
   390
1040
0.0
  0
DIMENSION
  5
62F5B
330
2
100
AcDbEntity
  8
标注
100
AcDbDimension
280
     0
  2
*D9
 10
4028.669680421287
 20
4191.494115091822
 30
0.0
 11
3902.842369272638
 21
4193.526404817258
 31
0.0
 70
    35
  1
{\fGulim|b0|i0|c129|p34;2-%%C57}
 71
     5
 42
57.00000000000091
 73
     0
 74
     0
 75
     0
  3
线性标注
100
AcDbDiametricDimension
 15
3972.062411062363
 25
4184.814515124291
 35
0.0
 40
0.0
1001
ACAD
1000
DSTYLE
1002
{
1070
   288
1070
     1
1002
}
1001
ACAD_DSTYLE_DIMRADIAL_EXTENSION
1070
   387
1070
     1
1070
   388
1040
4.385753943841915
1070
   390
1040
3.293694764933179
  0
CIRCLE
  5
62F5C
330
2
100
AcDbEntity
  8
0
100
AcDbCircle
 10
5353.594943735297
 20
3752.881294682107
 30
0.0
 40
28.50000000000136
  0
LINE
  5
62F5D
330
2
100
AcDbEntity
  8
中心线
100
AcDbLine
 10
5386.346504151103
 20
3752.874693992727
 30
0.0
 11
5314.962052970161
 21
3751.915583645422
 31
0.0
  0
LINE
  5
62F5E
330
2
100
AcDbEntity
  8
0
100
AcDbLine
 10
5151.715571775417
 20
3778.671447262555
 30
0.0
 11
5152.104458746836
 21
3749.727454421584
 31
0.0
  0
LINE
  5
62F5F
330
2
100
AcDbEntity
  8
0
100
AcDbLine
 10
5138.716745008943
 20
3778.496797054446
 30
0.0
 11
5139.105631980362
 21
3749.552804213475
 31
0.0
  0
LINE
  5
62F60
330
2
100
AcDbEntity
  8
0
100
AcDbLine
 10
5152.481345764821
 20
3721.676591440323
 30
0.0
 11
5152.092458793403
 21
3750.620584281293
 31
0.0
  0
LINE
  5
62F61
330
2
100
AcDbEntity
  8
0
100
AcDbLine
 10
5139.482518998346
 20
3721.501941232213
 30
0.0
 11
5139.09363202693
 21
3750.445934073184
 31
0.0
  0
LINE
  5
62F62
330
2
100
AcDbEntity
  8
0
100
AcDbLine
 10
5151.715571775417
 20
3778.671447262555
 30
0.0
 11
5138.716745008943
 21
3778.496797054446
 31
0.0
  0
LINE
  5
62F63
330
2
100
AcDbEntity
  8
0
100
AcDbLine
 10
5152.481345764821
 20
3721.676591440323
 30
0.0
 11
5139.482518998346
 21
3721.501941232213
 31
0.0
  0
LINE
  5
62F64
330
2
100
AcDbEntity
  8
0
100
AcDbLine
 10
5155.933400254934
 20
3464.74784917829
 30
0.0
 11
5156.322287226352
 21
3435.803856337319
 31
0.0
  0
LINE
  5
62F65
330
2
100
AcDbEntity
  8
0
100
AcDbLine
 10
5142.93457348846
 20
3464.57319897018
 30
0.0
 11
5143.323460459877
 21
3435.62920612921
 31
0.0
  0
LINE
  5
62F66
330
2
100
AcDbEntity
  8
0
100
AcDbLine
 10
5156.699174244337
 20
3407.752993356058
 30
0.0
 11
5156.310287272919
 21
3436.696986197028
 31
0.0
  0
LINE
  5
62F67
330
2
100
AcDbEntity
  8
0
100
AcDbLine
 10
5143.700347477864
 20
3407.578343147948
 30
0.0
 11
5143.311460506445
 21
3436.522335988918
 31
0.0
  0
LINE
  5
62F68
330
2
100
AcDbEntity
  8
0
100
AcDbLine
 10
5155.933400254934
 20
3464.74784917829
 30
0.0
 11
5142.93457348846
 21
3464.57319897018
 31
0.0
  0
LINE
  5
62F69
330
2
100
AcDbEntity
  8
0
100
AcDbLine
 10
5156.699174244337
 20
3407.752993356058
 30
0.0
 11
5143.700347477864
 21
3407.578343147948
 31
0.0
  0
DIMENSION
  5
62F6A
330
2
100
AcDbEntity
  8
标注
100
AcDbDimension
280
     0
  2
*D10
 10
4496.448561042702
 20
3501.944665184235
 30
0.0
 11
4512.675365855818
 21
3457.258633467867
 31
0.0
 70
    32
  1
88
 71
     5
 42
89.79999999998199
 73
     0
 74
     0
 75
     0
  3
线性标注
100
AcDbAlignedDimension
 13
4537.950299821555
 23
3412.694171002935
 33
0.0
 14
4579.581530619106
 24
3503.061626791506
 34
0.0
 50
90.76977083524633
100
AcDbRotatedDimension
  0
DIMENSION
  5
62F6B
330
2
100
AcDbEntity
  8
标注
100
AcDbDimension
280
     0
  2
*D11
 10
5140.226512804752
 20
3666.128136016217
 30
0.0
 11
5115.675157304885
 21
3665.798267834691
 31
0.0
 70
   160
 71
     5
 42
13.0
 73
     0
 74
     0
 75
     0
  3
线性标注
100
AcDbAlignedDimension
 13
5152.481345764821
 23
3721.676591440323
 33
0.0
 14
5139.482518998346
 24
3721.501941232213
 34
0.0
 50
180.7697708352219
100
AcDbRotatedDimension
  0
DIMENSION
  5
62F6C
330
2
100
AcDbEntity
  8
标注
100
AcDbDimension
280
     0
  2
*D12
 10
4606.551592513169
 20
3617.122971313186
 30
0.0
 11
4879.95954206848
 21
3636.422848124813
 31
0.0
 70
    32
  1
{\H3x;800}
 71
     5
 42
547.2851231304657
 73
     0
 74
     0
 75
     0
  3
线性标注
100
AcDbAlignedDimension
 13
5152.489742409443
 23
3721.051647845781
 33
0.0
 14
4605.254011067791
 24
3713.699073949626
 34
0.0
 50
180.7697708352219
100
AcDbRotatedDimension
1001
ACAD
1000
DSTYLE
1002
{
1070
   140
1040
10.0
1002
}
  0
ARC
  5
62F6D
330
2
100
AcDbEntity
  8
0
100
AcDbCircle
 10
5353.594943746244
 20
3752.881293867164
 30
0.0
 40
15.89999936635633
100
AcDbArc
 50
231.7984758979349
 51
309.7410568588641
  0
ARC
  5
62F6E
330
2
100
AcDbEntity
  8
0
100
AcDbCircle
 10
5353.594943735295
 20
3752.881294682102
 30
0.0
 40
14.7999999999951
100
AcDbArc
 50
223.8121726278711
 51
313.2764131379413
  0
LINE
  5
630BC
330
2
100
AcDbEntity
  8
0
100
AcDbLine
 10
3841.310793847224
 20
3927.943638817917
 30
0.0
 11
3884.975327105007
 21
3891.304745065784
 31
0.0
  0
LINE
  5
630BD
330
2
100
AcDbEntity
  8
0
100
AcDbLine
 10
3849.66703277315
 20
3937.902216578463
 30
0.0
 11
3893.331566030931
 21
3901.263322826331
 31
0.0
  0
LINE
  5
630BE
330
2
100
AcDbEntity
  8
0
100
AcDbLine
 10
3849.66703277315
 20
3937.902216578463
 30
0.0
 11
3841.310793847224
 21
3927.943638817917
 31
0.0
  0
LINE
  5
630BF
330
2
100
AcDbEntity
  8
0
100
AcDbLine
 10
3893.331566030931
 20
3901.263322826331
 30
0.0
 11
3884.975327105007
 21
3891.304745065784
 31
0.0
  0
LINE
  5
630C0
330
2
100
AcDbEntity
  8
中心线
100
AcDbLine
 10
3872.695246792201
 20
3921.008044301173
 30
0.0
 11
3850.287308282385
 21
3894.30330307947
 31
0.0
  0
LINE
  5
630C1
330
2
100
AcDbEntity
  8
0
100
AcDbLine
 10
3851.805602717956
 20
3919.137448565211
 30
0.0
 11
3838.949850524223
 21
3903.816559702831
 31
0.0
  0
LINE
  5
630C2
330
2
100
AcDbEntity
  8
0
100
AcDbLine
 10
3874.480518234275
 20
3900.110935318489
 30
0.0
 11
3861.624766040547
 21
3884.790046456109
 31
0.0
  0
LINE
  5
630C3
330
2
100
AcDbEntity
  8
中心线
100
AcDbLine
 10
3857.066434121169
 20
3816.817540175167
 30
0.0
 11
4158.360546368694
 21
3564.001761712382
 31
0.0
  0
LINE
  5
630C4
330
2
100
AcDbEntity
  8
0
100
AcDbLine
 10
3847.553177497808
 20
3805.480082417005
 30
0.0
 11
4148.847289745332
 21
3552.664303954221
 31
0.0
  0
LINE
  5
630C5
330
2
100
AcDbEntity
  8
0
100
AcDbLine
 10
3866.579690744529
 20
3828.154997933328
 30
0.0
 11
4167.873802992053
 21
3575.339219470544
 31
0.0
  0
ARC
  5
630C6
330
2
100
AcDbEntity
  8
中心线
100
AcDbCircle
 10
3892.419752653928
 20
3858.94998454671
 30
0.0
 40
55.0
100
AcDbArc
 50
139.999999999961
 51
230.0000000000474
  0
ARC
  5
630C7
330
2
100
AcDbEntity
  8
0
100
AcDbCircle
 10
3892.419752653928
 20
3858.94998454671
 30
0.0
 40
69.79999999999998
100
AcDbArc
 50
139.999999999961
 51
230.0000000000474
  0
ARC
  5
630C8
330
2
100
AcDbEntity
  8
0
100
AcDbCircle
 10
3892.419752653928
 20
3858.94998454671
 30
0.0
 40
40.19999999999999
100
AcDbArc
 50
139.999999999961
 51
230.0000000000474
  0
SPLINE
  5
630C9
330
2
100
AcDbEntity
  8
0
100
AcDbSpline
210
0.0
220
0.0
230
1.0
 70
  1064
 71
     3
 72
     9
 73
     5
 74
     3
 42
0.000000001
 43
0.0000000001
 44
0.0000000001
 40
0.0
 40
0.0
 40
0.0
 40
0.0
 40
15.66579547199473
 40
31.33159094399148
 40
31.33159094399148
 40
31.33159094399148
 40
31.33159094399148
 10
4167.873802992053
 20
3575.339219470544
 30
0.0
 10
4162.735565594416
 20
3573.210703281763
 30
0.0
 10
4152.459090799141
 20
3568.9536709042
 30
0.0
 10
4150.051223429936
 20
3558.094092937548
 30
0.0
 10
4148.847289745332
 20
3552.664303954221
 30
0.0
 11
4167.873802992053
 21
3575.339219470544
 31
0.0
 11
4154.426242655659
 21
3567.303034506929
 31
0.0
 11
4148.847289745332
 21
3552.664303954221
 31
0.0
  0
DIMENSION
  5
630CA
330
2
100
AcDbEntity
  8
标注
100
AcDbDimension
280
     0
  2
*D13
 10
3892.419752653933
 20
3858.949984546707
 30
0.0
 11
3787.572670501008
 21
3876.071283617736
 31
0.0
 70
   164
 71
     5
 42
55.00000000000182
 73
     0
 74
     0
 75
     0
  3
线性标注
100
AcDbRadialDimension
 15
3838.13872482972
 25
3867.813957603255
 35
0.0
 40
0.0
1001
ACAD
1000
DSTYLE
1002
{
1070
   288
1070
     1
1002
}
1001
ACAD_DSTYLE_DIMRADIAL_EXTENSION
1070
   387
1070
     1
1070
   388
1040
5.410520681181646
1070
   390
1040
0.6981317007982393
  0
LINE
  5
633FB
330
2
100
AcDbEntity
  8
0
  6
Continuous
 62
     7
100
AcDbLine
 10
4983.878545733551
 20
3295.427481923933
 30
0.0
 11
4986.605796490945
 21
3294.512310229805
 31
0.0
  0
LINE
  5
633FC
330
2
100
AcDbEntity
  8
0
  6
Continuous
 62
     7
100
AcDbLine
 10
4960.52210000149
 20
3297.370774783642
 30
0.0
 11
4963.260309800655
 21
3296.455306003667
 31
0.0
  0
LINE
  5
633FD
330
2
100
AcDbEntity
  8
0
  6
Continuous
 62
     7
100
AcDbLine
 10
5007.404925347223
 20
3287.594307514122
 30
0.0
 11
5004.8619510647
 21
3288.409360071626
 31
0.0
  0
LINE
  5
633FE
330
2
100
AcDbEntity
  8
0
  6
Continuous
 62
     7
100
AcDbLine
 10
5342.871626476673
 20
3081.26178277317
 30
0.0
 11
5340.328652169471
 21
3082.076835330557
 31
0.0
  0
LINE
  5
633FF
330
2
100
AcDbEntity
  8
0
  6
Continuous
 62
     7
100
AcDbLine
 10
5352.850954590049
 20
3102.436279311409
 30
0.0
 11
5017.384253485277
 21
3308.768804052361
 31
0.0
  0
LINE
  5
63400
330
2
100
AcDbEntity
  8
0
  6
Continuous
 62
     7
100
AcDbLine
 10
5340.328652169471
 20
3082.076835330557
 30
0.0
 11
5292.508755263789
 21
3111.488994650176
 31
0.0
  0
LINE
  5
63401
330
2
100
AcDbEntity
  8
0
  6
Continuous
 62
     7
100
AcDbLine
 10
5292.508755263789
 20
3111.488994650176
 30
0.0
 11
5004.8619510647
 21
3288.409360071626
 31
0.0
  0
LINE
  5
63402
330
2
100
AcDbEntity
  8
0
  6
Continuous
 62
     7
100
AcDbLine
 10
5443.306820611386
 20
3113.18985332151
 30
0.0
 11
5444.383680405477
 21
3107.024912571517
 31
0.0
  0
LINE
  5
63403
330
2
100
AcDbEntity
  8
0
  6
Continuous
 62
     7
100
AcDbLine
 10
5390.550808101809
 20
3072.842148947162
 30
0.0
 11
5397.503922017906
 21
3072.263638996501
 31
0.0
  0
LINE
  5
63404
330
2
100
AcDbEntity
  8
0
  6
Continuous
 62
     7
100
AcDbLine
 10
5423.427365428917
 20
3079.610173583944
 30
0.0
 11
5398.289184288737
 21
3081.701709610858
 31
0.0
  0
LINE
  5
63405
330
2
100
AcDbEntity
  8
0
  6
Continuous
 62
     7
100
AcDbLine
 10
4986.605796490945
 20
3294.512310229805
 30
0.0
 11
4963.249350734437
 21
3296.455603089515
 31
0.0
  0
LINE
  5
63406
330
2
100
AcDbEntity
  8
0
  6
Continuous
 62
     7
100
AcDbLine
 10
4988.587648831457
 20
3318.332202738599
 30
0.0
 11
4965.231203099396
 21
3320.275495598308
 31
0.0
  0
LINE
  5
63407
330
2
100
AcDbEntity
  8
0
  6
Continuous
 62
     7
100
AcDbLine
 10
5359.808554675579
 20
3101.958423276647
 30
0.0
 11
5362.552450181134
 21
3102.384367473755
 31
0.0
  0
LINE
  5
63408
330
2
100
AcDbEntity
  8
0
  6
Continuous
 62
     7
100
AcDbLine
 10
5728.835249705747
 20
3232.936902474392
 30
0.0
 11
5443.755533396182
 21
3112.14999242649
 31
0.0
  0
LINE
  5
63409
330
2
100
AcDbEntity
  8
0
  6
Continuous
 62
     7
100
AcDbLine
 10
5427.191882854709
 20
3105.002573291637
 30
0.0
 11
5369.278588398043
 21
3080.012273752695
 31
0.0
  0
LINE
  5
6340A
330
2
100
AcDbEntity
  8
0
  6
Continuous
 62
     7
100
AcDbLine
 10
5711.599264687027
 20
3257.537295873506
 30
0.0
 11
5359.808554675579
 21
3101.958423276647
 31
0.0
  0
SPLINE
  5
6340B
330
2
100
AcDbEntity
  8
0
  6
Continuous
 62
     7
100
AcDbSpline
210
0.0
220
0.0
230
1.0
 70
  1064
 71
     3
 72
     9
 73
     5
 74
     3
 42
0.000000001
 43
0.0000000001
 44
0.0000000001
 12
-0.5046676841374498
 22
-0.8633136907215957
 32
0.0
 13
-0.8704277400826235
 23
-0.4922962007721135
 33
0.0
 40
0.0
 40
0.0
 40
0.0
 40
0.0
 40
4.181201299832516
 40
9.42234380543647
 40
9.42234380543647
 40
9.42234380543647
 40
9.42234380543647
 10
5410.619422118095
 20
3080.540017197473
 30
0.0
 10
5409.916049725796
 20
3079.336787755537
 30
0.0
 10
5408.086190124245
 20
3076.765964696131
 30
0.0
 10
5405.651428713802
 20
3074.673117596982
 30
0.0
 10
5404.130750104934
 20
3073.813052749243
 30
0.0
 11
5410.619422118095
 21
3080.540017197473
 31
0.0
 11
5408.172919517765
 21
3077.149284336232
 31
0.0
 11
5404.130750104934
 21
3073.813052749243
 31
0.0
  0
SPLINE
  5
6340C
330
2
100
AcDbEntity
  8
0
  6
Continuous
 62
     7
100
AcDbSpline
210
0.0
220
0.0
230
1.0
 70
  1064
 71
     3
 72
     9
 73
     5
 74
     3
 42
0.000000001
 43
0.0000000001
 44
0.0000000001
 12
-0.8704277401372138
 22
-0.4922962006755923
 32
0.0
 13
-0.9968002037531199
 23
0.0799334335415327
 33
0.0
 40
0.0
 40
0.0
 40
0.0
 40
0.0
 40
1.429710744052352
 40
6.862212819259003
 40
6.862212819259003
 40
6.862212819259003
 40
6.862212819259003
 10
5404.130750104934
 20
3073.813052749243
 30
0.0
 10
5403.715930140936
 20
3073.578439026789
 30
0.0
 10
5401.669399293371
 20
3072.560700155851
 30
0.0
 10
5399.299013388843
 20
3072.121095469561
 30
0.0
 10
5397.493973663692
 20
3072.265841650759
 30
0.0
 11
5404.130750104934
 21
3073.813052749243
 31
0.0
 11
5402.849101561503
 21
3073.179452068387
 31
0.0
 11
5397.493973663692
 21
3072.265841650759
 31
0.0
  0
SPLINE
  5
6340D
330
2
100
AcDbEntity
  8
0
  6
Continuous
 62
     7
100
AcDbSpline
210
0.0
220
0.0
230
1.0
 70
  1064
 71
     3
 72
     9
 73
     5
 74
     3
 42
0.000000001
 43
0.0000000001
 44
0.0000000001
 12
-0.9181645357641595
 22
-0.3961992999299535
 32
0.0
 13
-0.9965749733574186
 23
0.0826941502021791
 33
0.0
 40
0.0
 40
0.0
 40
0.0
 40
0.0
 40
10.12210186268858
 40
15.41812872553019
 40
15.41812872553019
 40
15.41812872553019
 40
15.41812872553019
 10
5369.278588398043
 20
3080.012273752695
 30
0.0
 10
5366.180670078805
 20
3078.675483862089
 30
0.0
 10
5361.101262109469
 20
3077.340990199188
 30
0.0
 10
5355.938902297026
 20
3077.323107781778
 30
0.0
 10
5354.17960635378
 20
3077.469091262068
 30
0.0
 11
5369.278588398043
 21
3080.012273752695
 31
0.0
 11
5359.475588982376
 21
3077.4907368057
 31
0.0
 11
5354.17960635378
 21
3077.469091262068
 31
0.0
  0
SPLINE
  5
6340E
330
2
100
AcDbEntity
  8
0
  6
Continuous
 62
     7
100
AcDbSpline
210
0.0
220
0.0
230
1.0
 70
  1064
 71
     3
 72
     8
 73
     4
 74
     2
 42
0.000000001
 43
0.0000000001
 44
0.0000000001
 12
-0.9953160261334982
 22
0.0966747543147711
 32
0.0
 13
-0.9722904895822889
 23
0.2337759693976969
 33
0.0
 40
0.0
 40
0.0
 40
0.0
 40
0.0
 40
1.024511592948113
 40
1.024511592948113
 40
1.024511592948113
 40
1.024511592948113
 10
5356.162673047893
 20
3101.308930068026
 30
0.0
 10
5355.822768778753
 20
3101.341944870207
 30
0.0
 10
5355.484529007068
 20
3101.399829170674
 30
0.0
 10
5355.152488047639
 20
3101.479664567607
 30
0.0
 11
5356.162673047893
 21
3101.308930068026
 31
0.0
 11
5355.152488047639
 21
3101.479664567607
 31
0.0
  0
SPLINE
  5
6340F
330
2
100
AcDbEntity
  8
0
  6
Continuous
 62
     7
100
AcDbSpline
210
0.0
220
0.0
230
1.0
 70
  1064
 71
     3
 72
     8
 73
     4
 74
     2
 42
0.000000001
 43
0.0000000001
 44
0.0000000001
 12
-0.9722904906471695
 22
0.2337759649687851
 32
0.0
 13
-0.8517812848767606
 23
0.523897549845096
 33
0.0
 40
0.0
 40
0.0
 40
0.0
 40
0.0
 40
2.492422120040328
 40
2.492422120040328
 40
2.492422120040328
 40
2.492422120040328
 10
5355.152488047639
 20
3101.479664567607
 30
0.0
 10
5354.344701938974
 20
3101.673887363014
 30
0.0
 10
5353.558620762004
 20
3102.001021364119
 30
0.0
 10
5352.850954590049
 20
3102.436279311409
 30
0.0
 11
5355.152488047639
 21
3101.479664567607
 31
0.0
 11
5352.850954590049
 21
3102.436279311409
 31
0.0
  0
SPLINE
  5
63410
330
2
100
AcDbEntity
  8
0
  6
Continuous
 62
     7
100
AcDbSpline
210
0.0
220
0.0
230
1.0
 70
  1064
 71
     3
 72
     8
 73
     4
 74
     2
 42
0.000000001
 43
0.0000000001
 44
0.0000000001
 12
-0.9181645334833847
 22
-0.3961993052154917
 32
0.0
 13
-0.9958726901304004
 23
-0.0907611428555188
 33
0.0
 40
0.0
 40
0.0
 40
0.0
 40
0.0
 40
2.505007005188963
 40
2.505007005188963
 40
2.505007005188963
 40
2.505007005188963
 10
5359.808554675579
 20
3101.958423276647
 30
0.0
 10
5359.041885146148
 20
3101.627595931641
 30
0.0
 10
5358.222492408373
 20
3101.378326503636
 30
0.0
 10
5357.390936386688
 20
3101.302540737419
 30
0.0
 11
5359.808554675579
 21
3101.958423276647
 31
0.0
 11
5357.390936386688
 21
3101.302540737419
 31
0.0
  0
SPLINE
  5
63411
330
2
100
AcDbEntity
  8
0
  6
Continuous
 62
     7
100
AcDbSpline
210
0.0
220
0.0
230
1.0
 70
  1064
 71
     3
 72
     8
 73
     4
 74
     2
 42
0.000000001
 43
0.0000000001
 44
0.0000000001
 12
-0.9958726903200648
 22
-0.090761140774431
 32
0.0
 13
-0.9984582814218084
 23
0.0555072991615405
 33
0.0
 40
0.0
 40
0.0
 40
0.0
 40
0.0
 40
0.9434284047159524
 40
0.9434284047159524
 40
0.9434284047159524
 40
0.9434284047159524
 10
5357.390936386688
 20
3101.302540737419
 30
0.0
 10
5357.077758192179
 20
3101.273998524669
 30
0.0
 10
5356.761624845804
 20
3101.269693365212
 30
0.0
 10
5356.447633544598
 20
3101.287149086111
 30
0.0
 11
5357.390936386688
 21
3101.302540737419
 31
0.0
 11
5356.447633544598
 21
3101.287149086111
 31
0.0
  0
SPLINE
  5
63412
330
2
100
AcDbEntity
  8
0
  6
Continuous
 62
     7
100
AcDbSpline
210
0.0
220
0.0
230
1.0
 70
  1064
 71
     3
 72
     8
 73
     4
 74
     2
 42
0.000000001
 43
0.0000000001
 44
0.0000000001
 12
-0.9984582821378761
 22
0.055507286281005
 32
0.0
 13
-0.9953160292325062
 23
0.0966747224088958
 33
0.0
 40
0.0
 40
0.0
 40
0.0
 40
0.0
 40
0.28579170011664
 40
0.28579170011664
 40
0.28579170011664
 40
0.28579170011664
 10
5356.447633544598
 20
3101.287149086111
 30
0.0
 10
5356.352516514616
 20
3101.292436926683
 30
0.0
 10
5356.257490734609
 20
3101.299720456934
 30
0.0
 10
5356.162673047893
 20
3101.308930068026
 30
0.0
 11
5356.447633544598
 21
3101.287149086111
 31
0.0
 11
5356.162673047893
 21
3101.308930068026
 31
0.0
  0
SPLINE
  5
63413
330
2
100
AcDbEntity
  8
0
  6
Continuous
 62
     7
100
AcDbSpline
210
0.0
220
0.0
230
1.0
 70
  1064
 71
     3
 72
     8
 73
     4
 74
     2
 42
0.000000001
 43
0.0000000001
 44
0.0000000001
 12
-0.9965749733237581
 22
0.0826941506078318
 32
0.0
 13
-0.9730353879630841
 23
0.2306558773834531
 33
0.0
 40
0.0
 40
0.0
 40
0.0
 40
0.0
 40
4.554156612830493
 40
4.554156612830493
 40
4.554156612830493
 40
4.554156612830493
 10
5354.17960635378
 20
3077.469091262068
 30
0.0
 10
5352.666753518799
 20
3077.594625299679
 30
0.0
 10
5351.159020196224
 20
3077.833782831131
 30
0.0
 10
5349.681901680687
 20
3078.183930494223
 30
0.0
 11
5354.17960635378
 21
3077.469091262068
 31
0.0
 11
5349.681901680687
 21
3078.183930494223
 31
0.0
  0
SPLINE
  5
63414
330
2
100
AcDbEntity
  8
0
  6
Continuous
 62
     7
100
AcDbSpline
210
0.0
220
0.0
230
1.0
 70
  1064
 71
     3
 72
     8
 73
     4
 74
     2
 42
0.000000001
 43
0.0000000001
 44
0.0000000001
 12
-0.9730353873078952
 22
0.2306558801474062
 32
0.0
 13
-0.8913678967038814
 23
0.4532805673373816
 33
0.0
 40
0.0
 40
0.0
 40
0.0
 40
0.0
 40
7.499998115920688
 40
7.499998115920688
 40
7.499998115920688
 40
7.499998115920688
 10
5349.681901680687
 20
3078.183930494223
 30
0.0
 10
5347.249313823509
 20
3078.760570049733
 30
0.0
 10
5344.873330735119
 20
3079.645096659897
 30
0.0
 10
5342.644911553161
 20
3080.778297793568
 30
0.0
 11
5349.681901680687
 21
3078.183930494223
 31
0.0
 11
5342.644911553161
 21
3080.778297793568
 31
0.0
  0
SPLINE
  5
63415
330
2
100
AcDbEntity
  8
0
  6
Continuous
 62
     7
100
AcDbSpline
210
0.0
220
0.0
230
1.0
 70
  1064
 71
     3
 72
     8
 73
     4
 74
     2
 42
0.000000001
 43
0.0000000001
 44
0.0000000001
 12
-0.8913678961855511
 22
0.4532805683566689
 32
0.0
 13
-0.8517812859042976
 23
0.5238975481744702
 33
0.0
 40
0.0
 40
0.0
 40
0.0
 40
0.0
 40
2.655420356083377
 40
2.655420356083377
 40
2.655420356083377
 40
2.655420356083377
 10
5342.644911553161
 20
3080.778297793568
 30
0.0
 10
5341.855926067731
 20
3081.179514609645
 30
0.0
 10
5341.082597957978
 20
3081.613112592583
 30
0.0
 10
5340.328652169471
 20
3082.076835330557
 30
0.0
 11
5342.644911553161
 21
3080.778297793568
 31
0.0
 11
5340.328652169471
 21
3082.076835330557
 31
0.0
  0
SPLINE
  5
63416
330
2
100
AcDbEntity
  8
0
  6
Continuous
 62
     7
100
AcDbSpline
210
0.0
220
0.0
230
1.0
 70
  1064
 71
     3
 72
    11
 73
     7
 74
     5
 42
0.000000001
 43
0.0000000001
 44
0.0000000001
 12
-0.8517812849290685
 22
0.5238975497600509
 32
0.0
 13
-0.9818956562609212
 23
0.1894225968989313
 33
0.0
 40
0.0
 40
0.0
 40
0.0
 40
0.0
 40
2.979465747803254
 40
7.441471535368255
 40
12.54971941428839
 40
16.69656439653246
 40
16.69656439653246
 40
16.69656439653246
 40
16.69656439653246
 10
5004.8619510647
 20
3288.409360071626
 30
0.0
 10
5004.016000010345
 20
3288.929671673249
 30
0.0
 10
5001.810637464346
 20
3290.076419484215
 30
0.0
 10
4997.94945209066
 20
3291.695298607321
 30
0.0
 10
4993.603115318425
 20
3293.1312931889
 30
0.0
 10
4990.602945311538
 20
3293.867628942488
 30
0.0
 10
4989.24568895312
 20
3294.129464324313
 30
0.0
 11
5004.8619510647
 21
3288.409360071626
 31
0.0
 11
5002.236512535168
 21
3289.818007887788
 31
0.0
 11
4998.129175399579
 21
3291.561360205273
 31
0.0
 11
4993.277882810133
 21
3293.161096622335
 31
0.0
 11
4989.24568895312
 21
3294.129464324313
 31
0.0
  0
SPLINE
  5
63417
330
2
100
AcDbEntity
  8
0
  6
Continuous
 62
     7
100
AcDbSpline
210
0.0
220
0.0
230
1.0
 70
  1064
 71
     3
 72
     8
 73
     4
 74
     2
 42
0.000000001
 43
0.0000000001
 44
0.0000000001
 12
-0.981895656890787
 22
0.1894225936339443
 32
0.0
 13
-0.9965566167052472
 23
0.0829150752335851
 33
0.0
 40
0.0
 40
0.0
 40
0.0
 40
0.0
 40
2.667508800210964
 40
2.667508800210964
 40
2.667508800210964
 40
2.667508800210964
 10
4989.24568895312
 20
3294.129464324313
 30
0.0
 10
4988.372617184572
 20
3294.297893136139
 30
0.0
 10
4987.491904339268
 20
3294.438584665521
 30
0.0
 10
4986.605796490945
 20
3294.512310229805
 30
0.0
 11
4989.24568895312
 21
3294.129464324313
 31
0.0
 11
4986.605796490945
 21
3294.512310229805
 31
0.0
  0
SPLINE
  5
63418
330
2
100
AcDbEntity
  8
0
  6
Continuous
 62
     7
100
AcDbSpline
210
0.0
220
0.0
230
1.0
 70
  1064
 71
     3
 72
    11
 73
     7
 74
     5
 42
0.000000001
 43
0.0000000001
 44
0.0000000001
 12
-0.8517812845276772
 22
0.523897550412655
 32
0.0
 13
-0.9965566171043892
 23
0.0829150704362955
 33
0.0
 40
0.0
 40
0.0
 40
0.0
 40
0.0
 40
7.6503290294466
 40
15.29683290358278
 40
22.93044052862545
 40
30.54895098721386
 40
30.54895098721386
 40
30.54895098721386
 40
30.54895098721386
 10
5017.384253485277
 20
3308.768804052361
 30
0.0
 10
5015.212117789356
 20
3310.104800265153
 30
0.0
 10
5010.638245987871
 20
3312.400191912888
 30
0.0
 10
5003.492004524137
 20
3315.134342229158
 30
0.0
 10
4996.144896854029
 20
3317.231125863279
 30
0.0
 10
4991.118407834785
 20
3318.121639628167
 30
0.0
 10
4988.587648831457
 20
3318.332202738599
 30
0.0
 11
5017.384253485277
 21
3308.768804052361
 31
0.0
 11
5010.58873657152
 21
3312.282845050078
 31
0.0
 11
5003.452762587145
 21
3315.030006638244
 31
0.0
 11
4996.106789509216
 21
3317.105734200199
 31
0.0
 11
4988.587648831457
 21
3318.332202738599
 31
0.0
  0
SPLINE
  5
63419
330
2
100
AcDbEntity
  8
0
  6
Continuous
 62
     7
100
AcDbSpline
210
0.0
220
0.0
230
1.0
 70
  1064
 71
     3
 72
     9
 73
     5
 74
     3
 42
0.000000001
 43
0.0000000001
 44
0.0000000001
 12
0.9965566170639077
 22
-0.0829150709228449
 32
0.0
 13
0.9176670719102506
 23
0.39735015431187
 33
0.0
 40
0.0
 40
0.0
 40
0.0
 40
0.0
 40
7.282407859326527
 40
9.357771867759119
 40
9.357771867759119
 40
9.357771867759119
 40
9.357771867759119
 10
5423.427365428917
 20
3079.610173583944
 30
0.0
 10
5425.846476009041
 20
3079.408899795896
 30
0.0
 10
5429.054001495453
 20
3079.733058282131
 30
0.0
 10
5431.982553231192
 20
3080.813935727333
 30
0.0
 10
5432.617384302114
 20
3081.088817797001
 30
0.0
 11
5423.427365428917
 21
3079.610173583944
 31
0.0
 11
5430.669844802618
 21
3080.371722499706
 31
0.0
 11
5432.617384302114
 21
3081.088817797001
 31
0.0
  0
SPLINE
  5
6341A
330
2
100
AcDbEntity
  8
0
  6
Continuous
 62
     7
100
AcDbSpline
210
0.0
220
0.0
230
1.0
 70
  1064
 71
     3
 72
    11
 73
     7
 74
     5
 42
0.000000001
 43
0.0000000001
 44
0.0000000001
 12
0.9176670722429147
 22
0.3973501535435934
 32
0.0
 13
-0.0878407183329621
 23
0.9961345331845238
 33
0.0
 40
0.0
 40
0.0
 40
0.0
 40
0.0
 40
5.13938988878278
 40
12.84757061438918
 40
21.40283385734406
 40
27.93819872012523
 40
27.93819872012523
 40
27.93819872012523
 40
27.93819872012523
 10
5432.617384302114
 20
3081.088817797001
 30
0.0
 10
5434.189467259564
 20
3081.769530250811
 30
0.0
 10
5437.902732172382
 20
3084.020846643618
 30
0.0
 10
5442.532558886473
 20
3089.694940156361
 30
0.0
 10
5444.840211475133
 20
3097.115412612271
 30
0.0
 10
5444.925777763786
 20
3102.188155278653
 30
0.0
 10
5444.734420715747
 20
3104.358189487579
 30
0.0
 11
5432.617384302114
 21
3081.088817797001
 31
0.0
 11
5437.010811356744
 21
3083.755487469938
 31
0.0
 11
5441.928817780604
 21
3089.690911878813
 31
0.0
 11
5444.581235301132
 21
3097.82462016305
 31
0.0
 11
5444.734420715747
 21
3104.358189487579
 31
0.0
  0
SPLINE
  5
6341B
330
2
100
AcDbEntity
  8
0
  6
Continuous
 62
     7
100
AcDbSpline
210
0.0
220
0.0
230
1.0
 70
  1064
 71
     3
 72
     8
 73
     4
 74
     2
 42
0.000000001
 43
0.0000000001
 44
0.0000000001
 12
-0.0878407228936979
 22
0.996134532782351
 32
0.0
 13
-0.1720694268369651
 23
0.9850848249506224
 33
0.0
 40
0.0
 40
0.0
 40
0.0
 40
0.0
 40
2.689687576400536
 40
2.689687576400536
 40
2.689687576400536
 40
2.689687576400536
 10
5444.734420715747
 20
3104.358189487579
 30
0.0
 10
5444.655666015391
 20
3105.251286379995
 30
0.0
 10
5444.537951777654
 20
3106.141720323381
 30
0.0
 10
5444.383680777773
 20
3107.024910461838
 30
0.0
 11
5444.734420715747
 21
3104.358189487579
 31
0.0
 11
5444.383680777773
 21
3107.024910461838
 31
0.0
  0
SPLINE
  5
6341C
330
2
100
AcDbEntity
  8
0
  6
Continuous
 62
     7
100
AcDbSpline
210
0.0
220
0.0
230
1.0
 70
  1064
 71
     3
 72
    10
 73
     6
 74
     4
 42
0.000000001
 43
0.0000000001
 44
0.0000000001
 12
-0.9968002037310723
 22
0.079933433816476
 32
0.0
 13
-0.4745640465087807
 23
0.8802209755289931
 33
0.0
 40
0.0
 40
0.0
 40
0.0
 40
0.0
 40
0.5149178752874391
 40
6.524526922253743
 40
13.33662173219982
 40
13.33662173219982
 40
13.33662173219982
 40
13.33662173219982
 10
5390.540859722914
 20
3072.844351601536
 30
0.0
 10
5390.369769641917
 20
3072.858071319505
 30
0.0
 10
5388.206631723225
 20
3073.087060462912
 30
0.0
 10
5383.944061379052
 20
3075.042621293048
 30
0.0
 10
5381.261671196836
 20
3078.543208654138
 30
0.0
 10
5380.184079437433
 20
3080.541924900474
 30
0.0
 11
5390.540859722914
 21
3072.844351601536
 31
0.0
 11
5390.028823108561
 21
3072.898747592681
 31
0.0
 11
5384.511534652589
 21
3075.280958538624
 31
0.0
 11
5380.184079437433
 21
3080.541924900474
 31
0.0
  0
SPLINE
  5
6341D
330
2
100
AcDbEntity
  8
0
  6
Continuous
 62
     7
100
AcDbSpline
210
0.0
220
0.0
230
1.0
 70
  1064
 71
     3
 72
     8
 73
     4
 74
     2
 42
0.000000001
 43
0.0000000001
 44
0.0000000001
 12
-0.4745640464485578
 22
0.8802209755614617
 32
0.0
 13
-0.3171529922787011
 23
0.9483743878282806
 33
0.0
 40
0.0
 40
0.0
 40
0.0
 40
0.0
 40
3.860766803414751
 40
3.860766803414751
 40
3.860766803414751
 40
3.860766803414751
 10
5380.184079437433
 20
3080.541924900474
 30
0.0
 10
5379.573352398558
 20
3081.674700874513
 30
0.0
 10
5379.065801397641
 20
3082.867640711996
 30
0.0
 10
5378.657650149577
 20
3084.088124829909
 30
0.0
 11
5380.184079437433
 21
3080.541924900474
 31
0.0
 11
5378.657650149577
 21
3084.088124829909
 31
0.0
  0
SPLINE
  5
6341E
330
2
100
AcDbEntity
  8
0
  6
Continuous
 62
     7
100
AcDbSpline
210
0.0
220
0.0
230
1.0
 70
  1064
 71
     3
 72
    17
 73
    13
 74
    11
 42
0.000000001
 43
0.0000000001
 44
0.0000000001
 12
-0.9964437058902982
 22
0.0842611475806535
 32
0.0
 13
0.9965316231339215
 23
-0.0832149271108975
 33
0.0
 40
0.0
 40
0.0
 40
0.0
 40
0.0
 40
2.332988852963788
 40
7.968035041646295
 40
14.34507338678865
 40
21.48118025178988
 40
29.06290716025717
 40
36.62080489004489
 40
43.69446234338904
 40
49.99278030325819
 40
55.57406432914578
 40
57.34434376470525
 40
57.34434376470525
 40
57.34434376470525
 40
57.34434376470525
 10
4955.849916704924
 20
3332.538081396377
 30
0.0
 10
4955.075019352108
 20
3332.603608169057
 30
0.0
 10
4952.395324708517
 20
3332.547395316959
 30
0.0
 10
4947.818068950454
 20
3330.594078398258
 30
0.0
 10
4943.34139030443
 20
3325.870578430826
 30
0.0
 10
4940.23256354233
 20
3319.461436892874
 30
0.0
 10
4938.795076069988
 20
3312.09894506742
 30
0.0
 10
4939.175857569879
 20
3304.627086692978
 30
0.0
 10
4941.352918748528
 20
3297.900057248433
 30
0.0
 10
4945.137455771022
 20
3292.677567796673
 30
0.0
 10
4949.251074635705
 20
3290.31224768505
 30
0.0
 10
4951.680909393545
 20
3289.910585128819
 30
0.0
 10
4952.268955873318
 20
3289.861480570753
 30
0.0
 11
4955.849916704924
 21
3332.538081396377
 31
0.0
 11
4953.517590116003
 21
3332.482496590243
 31
0.0
 11
4948.280290350078
 21
3330.402968588407
 31
0.0
 11
4943.778920055127
 21
3325.88585850306
 31
0.0
 11
4940.584871357765
 21
3319.504473535233
 31
0.0
 11
4939.10363917215
 21
3312.068847527501
 31
0.0
 11
4939.523319276275
 21
3304.522610935388
 31
0.0
 11
4941.791519233717
 21
3297.822469241341
 31
0.0
 11
4945.620195804389
 21
3292.821464858139
 31
0.0
 11
4950.523113321273
 21
3290.154606931615
 31
0.0
 11
4952.268955873318
 21
3289.861480570753
 31
0.0
  0
SPLINE
  5
6341F
330
2
100
AcDbEntity
  8
0
  6
Continuous
 62
     7
100
AcDbSpline
210
0.0
220
0.0
230
1.0
 70
  1064
 71
     3
 72
    10
 73
     6
 74
     4
 42
0.000000001
 43
0.0000000001
 44
0.0000000001
 12
0.9964437058658671
 22
-0.0842611478695707
 32
0.0
 13
0.5054311113418759
 23
-0.862866960595732
 33
0.0
 40
0.0
 40
0.0
 40
0.0
 40
0.0
 40
3.05228187880506
 40
8.76818964072172
 40
18.05946633806459
 40
18.05946633806459
 40
18.05946633806459
 40
18.05946633806459
 10
4962.803030645701
 20
3331.959571420803
 30
0.0
 10
4963.816839667921
 20
3331.873841829227
 30
0.0
 10
4966.716362628423
 20
3331.226194911295
 30
0.0
 10
4971.730154116199
 20
3327.497049478804
 30
0.0
 10
4974.155588473527
 20
3323.034441511908
 30
0.0
 10
4975.720955242501
 20
3320.362062950611
 30
0.0
 11
4962.803030645701
 21
3331.959571420803
 31
0.0
 11
4965.779159772669
 21
3331.282016930526
 31
0.0
 11
4970.484977875829
 21
3328.037501940161
 31
0.0
 11
4975.720955242501
 21
3320.362062950611
 31
0.0
  0
SPLINE
  5
63420
330
2
100
AcDbEntity
  8
0
  6
Continuous
 62
     7
100
AcDbSpline
210
0.0
220
0.0
230
1.0
 70
  1064
 71
     3
 72
    10
 73
     6
 74
     4
 42
0.000000001
 43
0.0000000001
 44
0.0000000001
 12
0.8006931757655058
 22
-0.5990746516775256
 32
0.0
 13
-0.3729953809503038
 23
-0.927833199335817
 33
0.0
 40
0.0
 40
0.0
 40
0.0
 40
0.0
 40
3.804711594651831
 40
6.407762324423152
 40
7.228561786734871
 40
7.228561786734871
 40
7.228561786734871
 40
7.228561786734871
 10
5438.615413602824
 20
3118.571034032135
 30
0.0
 10
5439.630882472688
 20
3117.811265274369
 30
0.0
 10
5441.377692132192
 20
3116.379787776804
 30
0.0
 10
5442.557553803758
 20
3114.543954411075
 30
0.0
 10
5443.408872080762
 20
3113.443708318553
 30
0.0
 10
5443.306820611386
 20
3113.18985332151
 30
0.0
 11
5438.615413602824
 21
3118.571034032135
 31
0.0
 11
5441.458159685982
 21
3116.042274449818
 31
0.0
 11
5443.017507472225
 21
3113.957974187546
 31
0.0
 11
5443.306820611386
 21
3113.18985332151
 31
0.0
  0
SPLINE
  5
63421
330
2
100
AcDbEntity
  8
0
  6
Continuous
 62
     7
100
AcDbSpline
210
0.0
220
0.0
230
1.0
 70
  1064
 71
     3
 72
    11
 73
     7
 74
     5
 42
0.000000001
 43
0.0000000001
 44
0.0000000001
 12
0.9201791979546186
 22
0.391497437605401
 32
0.0
 13
0.3918144488055142
 23
0.9200442585589192
 33
0.0
 40
0.0
 40
0.0
 40
0.0
 40
0.0
 40
3.393356699892802
 40
7.761545093087276
 40
12.70347748481974
 40
18.11518700163702
 40
18.11518700163702
 40
18.11518700163702
 40
18.11518700163702
 10
5427.166352337143
 20
3104.989870850095
 30
0.0
 10
5428.207184419303
 20
3105.432701001058
 30
0.0
 10
5430.410376232145
 20
3106.852825567302
 30
0.0
 10
5433.445874425732
 20
3109.830955896889
 30
0.0
 10
5436.348767424195
 20
3113.815741300275
 30
0.0
 10
5437.908618275681
 20
3116.91136327549
 30
0.0
 10
5438.615413602824
 20
3118.571034032135
 30
0.0
 11
5427.166352337143
 21
3104.989870850095
 31
0.0
 11
5430.067033331525
 21
3106.750813626434
 31
0.0
 11
5433.223176236413
 21
3109.770719552511
 31
0.0
 11
5436.146388298748
 21
3113.75538101907
 31
0.0
 11
5438.615413602824
 21
3118.571034032135
 31
0.0
  0
SPLINE
  5
63422
330
2
100
AcDbEntity
  8
0
  6
Continuous
 62
     7
100
AcDbSpline
210
0.0
220
0.0
230
1.0
 70
  1064
 71
     3
 72
     9
 73
     5
 74
     3
 42
0.000000001
 43
0.0000000001
 44
0.0000000001
 12
0.8563922483140176
 22
-0.5163257857473919
 32
0.0
 13
0.2607489113717374
 23
-0.9654066527730446
 33
0.0
 40
0.0
 40
0.0
 40
0.0
 40
0.0
 40
0.9704790306768241
 40
4.789482027791923
 40
4.789482027791923
 40
4.789482027791923
 40
4.789482027791923
 10
5352.845964168813
 20
3102.428002058743
 30
0.0
 10
5353.123001075154
 20
3102.260974276055
 30
0.0
 10
5354.423660117026
 20
3101.320480432237
 30
0.0
 10
5355.224961139313
 20
3099.787456376152
 30
0.0
 10
5355.556894763988
 20
3098.558492742693
 30
0.0
 11
5352.845964168813
 21
3102.428002058743
 31
0.0
 11
5353.629596190677
 21
3101.855507165059
 31
0.0
 11
5355.556894763988
 21
3098.558492742693
 31
0.0
  0
SPLINE
  5
63423
330
2
100
AcDbEntity
  8
0
  6
Continuous
 62
     7
100
AcDbSpline
210
0.0
220
0.0
230
1.0
 70
  1064
 71
     3
 72
    11
 73
     7
 74
     5
 42
0.000000001
 43
0.0000000001
 44
0.0000000001
 12
0.2607489123077968
 22
-0.9654066525202221
 32
0.0
 13
-0.914954646568383
 23
-0.403556680929613
 33
0.0
 40
0.0
 40
0.0
 40
0.0
 40
0.0
 40
4.547706132428442
 40
9.713066642974808
 40
15.01071987518098
 40
19.88840956585298
 40
19.88840956585298
 40
19.88840956585298
 40
19.88840956585298
 10
5355.556894763988
 20
3098.558492742693
 30
0.0
 10
5355.952164573163
 20
3097.095030824709
 30
0.0
 10
5355.945885752852
 20
3093.743728526308
 30
0.0
 10
5354.257398759644
 20
3088.962636693056
 30
0.0
 10
5351.215073262921
 20
3084.770641410643
 30
0.0
 10
5348.417294496379
 20
3082.699749427611
 30
0.0
 10
5346.929672880713
 20
3082.043608006887
 30
0.0
 11
5355.556894763988
 21
3098.558492742693
 31
0.0
 11
5355.708150907569
 21
3094.013302686606
 31
0.0
 11
5354.053406507392
 21
3089.120167681929
 31
0.0
 11
5350.920403981731
 21
3084.848233115143
 31
0.0
 11
5346.929672880713
 21
3082.043608006887
 31
0.0
  0
SPLINE
  5
63424
330
2
100
AcDbEntity
  8
0
  6
Continuous
 62
     7
100
AcDbSpline
210
0.0
220
0.0
230
1.0
 70
  1064
 71
     3
 72
     8
 73
     4
 74
     2
 42
0.000000001
 43
0.0000000001
 44
0.0000000001
 12
-0.9149546466741396
 22
-0.4035566806898384
 32
0.0
 13
-0.9965566172864221
 23
0.0829150682484397
 33
0.0
 40
0.0
 40
0.0
 40
0.0
 40
0.0
 40
4.132673627739516
 40
4.132673627739516
 40
4.132673627739516
 40
4.132673627739516
 10
5346.929672880713
 20
3082.043608006887
 30
0.0
 10
5345.669269901083
 20
3081.487685323025
 30
0.0
 10
5344.24444089361
 20
3081.147562467873
 30
0.0
 10
5342.871626476673
 20
3081.26178277317
 30
0.0
 11
5346.929672880713
 21
3082.043608006887
 31
0.0
 11
5342.871626476673
 21
3081.26178277317
 31
0.0
  0
SPLINE
  5
63425
330
2
100
AcDbEntity
  8
0
  6
Continuous
 62
     7
100
AcDbSpline
210
0.0
220
0.0
230
1.0
 70
  1064
 71
     3
 72
    13
 73
     9
 74
     7
 42
0.000000001
 43
0.0000000001
 44
0.0000000001
 12
0.8563922491722161
 22
-0.5163257843239608
 32
0.0
 13
-0.9149546464249791
 23
-0.4035566812547425
 33
0.0
 40
0.0
 40
0.0
 40
0.0
 40
0.0
 40
0.9704790104230905
 40
4.789482007638692
 40
9.337188140903478
 40
14.50254865144984
 40
19.80020189838936
 40
24.67789156867864
 40
24.67789156867864
 40
24.67789156867864
 40
24.67789156867864
 10
5017.379263063808
 20
3308.760526799578
 30
0.0
 10
5017.656299964645
 20
3308.593499020837
 30
0.0
 10
5018.95795503808
 20
3307.65042120701
 30
0.0
 10
5020.502882111149
 20
3304.706444903543
 30
0.0
 10
5020.474239531437
 20
3300.08908166224
 30
0.0
 10
5018.792143593401
 20
3295.29141044843
 30
0.0
 10
5015.747989863792
 20
3291.104157831424
 30
0.0
 10
5012.950593385159
 20
3289.03227416635
 30
0.0
 10
5011.462971775942
 20
3288.376132747839
 30
0.0
 11
5017.379263063808
 21
3308.760526799578
 31
0.0
 11
5018.162895060759
 21
3308.188031906128
 31
0.0
 11
5020.090193634071
 21
3304.891017483646
 31
0.0
 11
5020.241449802798
 21
3300.345827427558
 31
0.0
 11
5018.58670540262
 21
3295.452692422882
 31
0.0
 11
5015.453702852046
 21
3291.180757856095
 31
0.0
 11
5011.462971775942
 21
3288.376132747839
 31
0.0
  0
SPLINE
  5
63426
330
2
100
AcDbEntity
  8
0
  6
Continuous
 62
     7
100
AcDbSpline
210
0.0
220
0.0
230
1.0
 70
  1064
 71
     3
 72
     8
 73
     4
 74
     2
 42
0.000000001
 43
0.0000000001
 44
0.0000000001
 12
-0.9149546466741396
 22
-0.4035566806898384
 32
0.0
 13
-0.9965566172864221
 23
0.0829150682484397
 33
0.0
 40
0.0
 40
0.0
 40
0.0
 40
0.0
 40
4.132673651973896
 40
4.132673651973896
 40
4.132673651973896
 40
4.132673651973896
 10
5011.462971775942
 20
3288.376132747839
 30
0.0
 10
5010.202568788921
 20
3287.820210060718
 30
0.0
 10
5008.777739772209
 20
3287.480087208155
 30
0.0
 10
5007.404925347223
 20
3287.594307514122
 30
0.0
 11
5011.462971775942
 21
3288.376132747839
 31
0.0
 11
5007.404925347223
 21
3287.594307514122
 31
0.0
  0
SPLINE
  5
63427
330
2
100
AcDbEntity
  8
0
  6
Continuous
 62
     7
100
AcDbSpline
210
0.0
220
0.0
230
1.0
 70
  1064
 71
     3
 72
    13
 73
     9
 74
     7
 42
0.000000001
 43
0.0000000001
 44
0.0000000001
 12
-0.995857416947342
 22
0.0909285714776587
 32
0.0
 13
0.503657076510061
 23
-0.86390366898245
 33
0.0
 40
0.0
 40
0.0
 40
0.0
 40
0.0
 40
0.907004440500993
 40
4.83188757020477
 40
9.4168612317616
 40
14.58222174241825
 40
19.8850783140949
 40
24.81013143950254
 40
24.81013143950254
 40
24.81013143950254
 40
24.81013143950254
 10
4988.586985860868
 20
3318.324941757699
 30
0.0
 10
4988.285903494443
 20
3318.352432630399
 30
0.0
 10
4986.667794737275
 20
3318.379706710565
 30
0.0
 10
4983.60501655481
 20
3317.033715245438
 30
0.0
 10
4980.736260091793
 20
3313.339418862283
 30
0.0
 10
4979.156761306616
 20
3308.48516466965
 30
0.0
 10
4979.100612440181
 20
3303.284183108222
 30
0.0
 10
4980.153297387055
 20
3299.943733577716
 30
0.0
 10
4980.980143339988
 20
3298.525476422725
 30
0.0
 11
4988.586985860868
 21
3318.324941757699
 31
0.0
 11
4987.680066649951
 21
3318.337375580898
 31
0.0
 11
4984.028726411434
 21
3316.897784651356
 31
0.0
 11
4981.084071603287
 21
3313.383386902377
 31
0.0
 11
4979.42932720311
 21
3308.490251897583
 31
0.0
 11
4979.392235629177
 21
3303.187525048601
 31
0.0
 11
4980.980143339988
 21
3298.525476422725
 31
0.0
  0
SPLINE
  5
63428
330
2
100
AcDbEntity
  8
0
  6
Continuous
 62
     7
100
AcDbSpline
210
0.0
220
0.0
230
1.0
 70
  1064
 71
     3
 72
     8
 73
     4
 74
     2
 42
0.000000001
 43
0.0000000001
 44
0.0000000001
 12
0.5036570755988429
 22
-0.8639036695136915
 32
0.0
 13
0.8517812849947327
 23
-0.5238975496532907
 33
0.0
 40
0.0
 40
0.0
 40
0.0
 40
0.0
 40
4.242441083804964
 40
4.242441083804964
 40
4.242441083804964
 40
4.242441083804964
 10
4980.980143339988
 20
3298.525476422725
 30
0.0
 10
4981.692388496544
 20
3297.30378961606
 30
0.0
 10
4982.674001760925
 20
3296.168350086718
 30
0.0
 10
4983.878545733551
 20
3295.427481923933
 30
0.0
 11
4980.980143339988
 21
3298.525476422725
 31
0.0
 11
4983.878545733551
 21
3295.427481923933
 31
0.0
  0
SPLINE
  5
63429
330
2
100
AcDbEntity
  8
0
  6
Continuous
 62
     7
100
AcDbSpline
210
0.0
220
0.0
230
1.0
 70
  1064
 71
     3
 72
    15
 73
    11
 74
     9
 42
0.000000001
 43
0.0000000001
 44
0.0000000001
 12
-0.9963110652598164
 22
0.0858152739368106
 32
0.0
 13
0.8517812847827036
 23
-0.523897549998019
 33
0.0
 40
0.0
 40
0.0
 40
0.0
 40
0.0
 40
0.4263798409556575
 40
3.7922566560409
 40
7.616616745136306
 40
11.95772128133803
 40
16.59623405688724
 40
21.18678503649841
 40
25.40301023375741
 40
29.08500651530435
 40
29.08500651530435
 40
29.08500651530435
 40
29.08500651530435
 10
4965.220164735718
 20
3320.274872239312
 30
0.0
 10
4965.078562417868
 20
3320.287068873597
 30
0.0
 10
4963.815194780415
 20
3320.349367587474
 30
0.0
 10
4961.247943929842
 20
3319.584254406656
 30
0.0
 10
4958.409875839272
 20
3316.845754983267
 30
0.0
 10
4956.476781131693
 20
3312.967015771255
 30
0.0
 10
4955.655331839975
 20
3308.462401767893
 30
0.0
 10
4956.048374119172
 20
3303.939985426143
 30
0.0
 10
4957.604259176562
 20
3300.007384981928
 30
0.0
 10
4959.476681493736
 20
3298.013771060643
 30
0.0
 10
4960.52210000149
 20
3297.370774783642
 30
0.0
 11
4965.220164735718
 21
3320.274872239312
 31
0.0
 11
4964.794282933846
 21
3320.29547465684
 31
0.0
 11
4961.54576966973
 21
3319.414402408275
 31
0.0
 11
4958.707470666068
 21
3316.851242472399
 31
0.0
 11
4956.711491286903
 21
3312.996212652517
 31
0.0
 11
4955.861701256744
 21
3308.436206328665
 31
0.0
 11
4956.287473431938
 21
3303.865443115454
 31
0.0
 11
4957.923987832302
 21
3299.979780297941
 31
0.0
 11
4960.52210000149
 21
3297.370774783642
 31
0.0
  0
SPLINE
  5
6342A
330
2
100
AcDbEntity
  8
0
  6
Continuous
 62
     7
100
AcDbSpline
210
0.0
220
0.0
230
1.0
 70
  1064
 71
     3
 72
    11
 73
     7
 74
     5
 42
0.000000001
 43
0.0000000001
 44
0.0000000001
 12
0.2100237598482839
 22
-0.9776962822365597
 32
0.0
 13
0.9967602602470478
 23
-0.0804299918701833
 33
0.0
 40
0.0
 40
0.0
 40
0.0
 40
0.0
 40
3.729608903597879
 40
7.530040745385668
 40
10.88277001175722
 40
11.16826430637273
 40
11.16826430637273
 40
11.16826430637273
 40
11.16826430637273
 10
5391.236922560409
 20
3089.504557614546
 30
0.0
 10
5391.498024721975
 20
3088.289082694798
 30
0.0
 10
5392.333438581569
 20
3085.886925307565
 30
0.0
 10
5394.601601660948
 20
3082.93279651034
 30
0.0
 10
5396.980843125912
 20
3081.838422841645
 30
0.0
 10
5398.187007335518
 20
3081.71073675983
 30
0.0
 10
5398.281863791319
 20
3081.703082658565
 30
0.0
 11
5391.236922560409
 21
3089.504557614546
 31
0.0
 11
5392.505640921331
 21
3085.997374087205
 31
0.0
 11
5394.919905416584
 21
3083.062308648234
 31
0.0
 11
5397.997971612411
 21
3081.733285688428
 31
0.0
 11
5398.281863791319
 21
3081.703082658565
 31
0.0
  0
SPLINE
  5
6342B
330
2
100
AcDbEntity
  8
0
  6
Continuous
 62
     7
100
AcDbSpline
210
0.0
220
0.0
230
1.0
 70
  1064
 71
     3
 72
     8
 73
     4
 74
     2
 42
0.000000001
 43
0.0000000001
 44
0.0000000001
 12
-0.7915932174755892
 22
-0.6110484252877548
 32
0.0
 13
-0.6268792177075074
 23
-0.7791164524038905
 33
0.0
 40
0.0
 40
0.0
 40
0.0
 40
0.0
 40
3.62098098634013
 40
3.62098098634013
 40
3.62098098634013
 40
3.62098098634013
 10
5421.789087221935
 20
3102.671200461315
 30
0.0
 10
5420.83363922547
 20
3101.933668884748
 30
0.0
 10
5419.841636890041
 20
3101.20339413995
 30
0.0
 10
5419.084997647359
 20
3100.26300551985
 30
0.0
 11
5421.789087221935
 21
3102.671200461315
 31
0.0
 11
5419.084997647359
 21
3100.26300551985
 31
0.0
  0
SPLINE
  5
6342C
330
2
100
AcDbEntity
  8
0
  6
Continuous
 62
     7
100
AcDbSpline
210
0.0
220
0.0
230
1.0
 70
  1064
 71
     3
 72
    13
 73
     9
 74
     7
 42
0.000000001
 43
0.0000000001
 44
0.0000000001
 12
-0.6268792199566907
 22
-0.7791164505941917
 32
0.0
 13
0.9972098632933622
 23
-0.0746491028106438
 33
0.0
 40
0.0
 40
0.0
 40
0.0
 40
0.0
 40
4.947486160651093
 40
10.25499051979501
 40
15.40484221229493
 40
19.96260276005264
 40
23.86829511378487
 40
24.63073514756166
 40
24.63073514756166
 40
24.63073514756166
 40
24.63073514756166
 10
5419.084997647359
 20
3100.26300551985
 30
0.0
 10
5418.051172225646
 20
3098.978116234233
 30
0.0
 10
5416.498830843893
 20
3095.83029681907
 30
0.0
 10
5415.753442810771
 20
3090.678524298106
 30
0.0
 10
5416.568418115104
 20
3085.651969151642
 30
0.0
 10
5418.841771348958
 20
3081.583448924099
 30
0.0
 10
5421.628026833526
 20
3079.849782034879
 30
0.0
 10
5423.174350277741
 20
3079.634788621162
 30
0.0
 10
5423.427787851691
 20
3079.615816799673
 30
0.0
 11
5419.084997647359
 21
3100.26300551985
 31
0.0
 11
5416.799149328061
 21
3095.875236522854
 31
0.0
 11
5416.022365568587
 21
3090.624883247754
 31
0.0
 11
5416.908497930887
 21
3085.551842552941
 31
0.0
 11
5419.282037048284
 21
3081.660892377357
 31
0.0
 11
5422.672874348853
 21
3079.722683110257
 31
0.0
 11
5423.427787851691
 21
3079.615816799673
 31
0.0
  0
SPLINE
  5
6342D
330
2
100
AcDbEntity
  8
0
  6
Continuous
 62
     7
100
AcDbSpline
210
0.0
220
0.0
230
1.0
 70
     8
 71
     3
 72
     8
 73
     4
 74
     0
 42
0.000000001
 43
0.0000000001
 40
0.0
 40
0.0
 40
0.0
 40
0.0
 40
3.195703056073785
 40
3.195703056073785
 40
3.195703056073785
 40
3.195703056073785
 10
5441.115027999188
 20
3104.260930937464
 30
0.0
 10
5442.093088403634
 20
3104.682976041678
 30
0.0
 10
5444.263111357161
 20
3105.101464172616
 30
0.0
 10
5444.595809362915
 20
3105.630663663862
 30
0.0
  0
SPLINE
  5
6342E
330
2
100
AcDbEntity
  8
0
  6
Continuous
 62
     7
100
AcDbSpline
210
0.0
220
0.0
230
1.0
 70
     8
 71
     3
 72
    10
 73
     6
 74
     0
 42
0.000000001
 43
0.0000000001
 40
0.0850664229160447
 40
0.0850664229160447
 40
0.0850664229160447
 40
0.0850664229160447
 40
1.464964572900221
 40
5.262763867783145
 40
6.189294294930306
 40
6.189294294930306
 40
6.189294294930306
 40
6.189294294930306
 10
5421.789087221935
 20
3102.671200461315
 30
0.0
 10
5422.046598064087
 20
3102.287302541091
 30
0.0
 10
5423.299709451693
 20
3100.962586814207
 30
0.0
 10
5425.625041732367
 20
3101.276068355419
 30
0.0
 10
5427.164002369165
 20
3101.45023706267
 30
0.0
 10
5427.471607915042
 20
3101.477861700911
 30
0.0
  0
SPLINE
  5
6342F
330
2
100
AcDbEntity
  8
0
  6
Continuous
 62
     7
100
AcDbSpline
210
0.0
220
0.0
230
1.0
 70
  1064
 71
     3
 72
     9
 73
     5
 74
     3
 42
0.000000001
 43
0.0000000001
 44
0.0000000001
 12
0.9959917242234428
 22
0.089445431847656
 32
0.0
 13
0.9665171637390056
 23
0.2566019723188198
 33
0.0
 40
0.0
 40
0.0
 40
0.0
 40
0.0
 40
4.07467525203837
 40
9.37351669645279
 40
9.37351669645279
 40
9.37351669645279
 40
9.37351669645279
 10
5427.471607915042
 20
3101.477861700911
 30
0.0
 10
5428.824388858352
 20
3101.599348730097
 30
0.0
 10
5431.95594564068
 20
3101.668510361955
 30
0.0
 10
5435.026352116207
 20
3102.350495064456
 30
0.0
 10
5436.733492517527
 20
3102.80372611967
 30
0.0
 11
5427.471607915042
 21
3101.477861700911
 31
0.0
 11
5431.535414110785
 21
3101.77527994684
 31
0.0
 11
5436.733492517527
 21
3102.80372611967
 31
0.0
  0
SPLINE
  5
63430
330
2
100
AcDbEntity
  8
0
  6
Continuous
 62
     7
100
AcDbSpline
210
0.0
220
0.0
230
1.0
 70
  1064
 71
     3
 72
     8
 73
     4
 74
     2
 42
0.000000001
 43
0.0000000001
 44
0.0000000001
 12
0.966517163738696
 22
0.2566019723199864
 32
0.0
 13
0.9181645342787506
 23
0.3961993033722865
 33
0.0
 40
0.0
 40
0.0
 40
0.0
 40
0.0
 40
4.617499221230253
 40
4.617499221230253
 40
4.617499221230253
 40
4.617499221230253
 10
5436.733492517527
 20
3102.80372611967
 30
0.0
 10
5438.221123267817
 20
3103.198679255454
 30
0.0
 10
5439.701819991857
 20
3103.651114279206
 30
0.0
 10
5441.115027999188
 20
3104.260930937464
 30
0.0
 11
5436.733492517527
 21
3102.80372611967
 31
0.0
 11
5441.115027999188
 21
3104.260930937464
 31
0.0
  0
SPLINE
  5
63431
330
2
100
AcDbEntity
  8
0
  6
Continuous
 62
     7
100
AcDbSpline
210
0.0
220
0.0
230
1.0
 70
  1064
 71
     3
 72
     8
 73
     4
 74
     2
 42
0.000000001
 43
0.0000000001
 44
0.0000000001
 12
0.9965566172246688
 22
-0.0829150689906521
 32
0.0
 13
0.838505437973561
 23
-0.544893228521668
 33
0.0
 40
0.0
 40
0.0
 40
0.0
 40
0.0
 40
4.143738129111149
 40
4.143738129111149
 40
4.143738129111149
 40
4.143738129111149
 10
5362.552450181134
 20
3102.384367473755
 30
0.0
 10
5363.928940065338
 20
3102.269841362803
 30
0.0
 10
5365.281282011159
 20
3101.701141612745
 30
0.0
 10
5366.439464329426
 20
3100.948509996972
 30
0.0
 11
5362.552450181134
 21
3102.384367473755
 31
0.0
 11
5366.439464329426
 21
3100.948509996972
 31
0.0
  0
SPLINE
  5
63432
330
2
100
AcDbEntity
  8
0
  6
Continuous
 62
     7
100
AcDbSpline
210
0.0
220
0.0
230
1.0
 70
  1064
 71
     3
 72
    13
 73
     9
 74
     7
 42
0.000000001
 43
0.0000000001
 44
0.0000000001
 12
0.8385054386893735
 22
-0.5448932274201449
 32
0.0
 13
-0.9219822474962814
 23
-0.387232146524156
 33
0.0
 40
0.0
 40
0.0
 40
0.0
 40
0.0
 40
4.894203905126518
 40
10.1965198553045
 40
15.34637154791909
 40
19.85996054643394
 40
23.64136637713372
 40
24.48765434891005
 40
24.48765434891005
 40
24.48765434891005
 40
24.48765434891005
 10
5366.439464329426
 20
3100.948509996972
 30
0.0
 10
5367.807403193593
 20
3100.059570476466
 30
0.0
 10
5370.248907012172
 20
3097.57153048159
 30
0.0
 10
5372.615581758915
 20
3092.965953774302
 30
0.0
 10
5373.545878626451
 20
3087.984144476994
 30
0.0
 10
5372.873670927491
 20
3083.443270409421
 30
0.0
 10
5370.915901473767
 20
3080.836026159092
 30
0.0
 10
5369.535469228065
 20
3080.129145270891
 30
0.0
 10
5369.275381732649
 20
3080.019908634928
 30
0.0
 11
5366.439464329426
 21
3100.948509996972
 31
0.0
 11
5369.950973644769
 21
3097.539326195354
 31
0.0
 11
5372.391480670925
 21
3092.832046737877
 31
0.0
 11
5373.277613033224
 21
3087.759006042947
 31
0.0
 11
5372.433861365226
 21
3083.324982049973
 31
0.0
 11
5370.02734103092
 21
3080.408187587378
 31
0.0
 11
5369.275381732649
 21
3080.019908634928
 31
0.0
  0
SPLINE
  5
63433
330
2
100
AcDbEntity
  8
0
  6
Continuous
 62
     7
100
AcDbSpline
210
0.0
220
0.0
230
1.0
 70
  1064
 71
     3
 72
    10
 73
     6
 74
     4
 42
0.000000001
 43
0.0000000001
 44
0.0000000001
 12
-0.9968002037310723
 22
0.079933433816476
 32
0.0
 13
-0.4745640465087807
 23
0.8802209755289931
 33
0.0
 40
0.0
 40
0.0
 40
0.0
 40
0.0
 40
0.5149178726802361
 40
6.524526929475865
 40
13.33662173933203
 40
13.33662173933203
 40
13.33662173933203
 40
13.33662173933203
 10
5397.493973663692
 20
3072.265841650759
 30
0.0
 10
5397.32288358356
 20
3072.279561368657
 30
0.0
 10
5395.15974564465
 20
3072.50855034653
 30
0.0
 10
5390.897175335186
 20
3074.464111426766
 30
0.0
 10
5388.214785137599
 20
3077.964698703387
 30
0.0
 10
5387.13719337821
 20
3079.963414949696
 30
0.0
 11
5397.493973663692
 21
3072.265841650759
 31
0.0
 11
5396.981937049339
 21
3072.320237617223
 31
0.0
 11
5391.464648593366
 21
3074.702448587963
 31
0.0
 11
5387.13719337821
 21
3079.963414949696
 31
0.0
  0
SPLINE
  5
63434
330
2
100
AcDbEntity
  8
0
  6
Continuous
 62
     7
100
AcDbSpline
210
0.0
220
0.0
230
1.0
 70
  1064
 71
     3
 72
     8
 73
     4
 74
     2
 42
0.000000001
 43
0.0000000001
 44
0.0000000001
 12
-0.4745640450646122
 22
0.8802209763076048
 32
0.0
 13
-0.1932056795304281
 23
0.9811582774441573
 33
0.0
 40
0.0
 40
0.0
 40
0.0
 40
0.0
 40
7.155880767784299
 40
7.155880767784299
 40
7.155880767784299
 40
7.155880767784299
 10
5387.13719337821
 20
3079.963414949696
 30
0.0
 10
5386.005218803823
 20
3082.063000401616
 30
0.0
 10
5385.228213152707
 20
3084.375139897054
 30
0.0
 10
5384.767360883914
 20
3086.715490446291
 30
0.0
 11
5387.13719337821
 21
3079.963414949696
 31
0.0
 11
5384.767360883914
 21
3086.715490446291
 31
0.0
  0
SPLINE
  5
63435
330
2
100
AcDbEntity
  8
0
  6
Continuous
 62
     7
100
AcDbSpline
210
0.0
220
0.0
230
1.0
 70
  1064
 71
     3
 72
    10
 73
     6
 74
     4
 42
0.000000001
 43
0.0000000001
 44
0.0000000001
 12
-0.996531623068218
 22
0.0832149278977217
 32
0.0
 13
-0.4620110101624778
 23
0.8868741886472099
 33
0.0
 40
0.0
 40
0.0
 40
0.0
 40
0.0
 40
1.770279435329853
 40
7.351563483213578
 40
13.64988142784603
 40
13.64988142784603
 40
13.64988142784603
 40
13.64988142784603
 10
4959.222069813862
 20
3289.282970595179
 30
0.0
 10
4958.634023334204
 20
3289.332075153702
 30
0.0
 10
4956.204056093253
 20
3289.734064729727
 30
0.0
 10
4952.092234186904
 20
3292.094949013381
 30
0.0
 10
4949.714597253136
 20
3295.382020726887
 30
0.0
 10
4948.744633174494
 20
3297.243959265883
 30
0.0
 11
4959.222069813862
 21
3289.282970595179
 31
0.0
 11
4957.47622726205
 21
3289.576096956042
 31
0.0
 11
4952.573309720254
 21
3292.242954882798
 31
0.0
 11
4948.744633174494
 21
3297.243959265883
 31
0.0
  0
SPLINE
  5
63436
330
2
100
AcDbEntity
  8
0
  6
Continuous
 62
     7
100
AcDbSpline
210
0.0
220
0.0
230
1.0
 70
  1064
 71
     3
 72
    11
 73
     7
 74
     5
 42
0.000000001
 43
0.0000000001
 44
0.0000000001
 12
-0.4620110107600749
 22
0.8868741883358961
 32
0.0
 13
0.5766034022810148
 23
0.817024183533118
 33
0.0
 40
0.0
 40
0.0
 40
0.0
 40
0.0
 40
7.073657453269499
 40
14.63155520794459
 40
22.21328211154468
 40
29.34938896521027
 40
29.34938896521027
 40
29.34938896521027
 40
29.34938896521027
 10
4948.744633174494
 20
3297.243959265883
 30
0.0
 10
4947.655263964575
 20
3299.335107336695
 30
0.0
 10
4946.12659204691
 20
3304.05359612075
 30
0.0
 10
4945.749580765681
 20
3311.520216133022
 30
0.0
 10
4947.182661936339
 20
3318.878714506995
 30
0.0
 10
4949.360466165384
 20
3323.363891235578
 30
0.0
 10
4950.732033995671
 20
3325.307348527485
 30
0.0
 11
4948.744633174494
 21
3297.243959265883
 31
0.0
 11
4946.476433217285
 21
3303.944100959931
 31
0.0
 11
4946.056753112927
 21
3311.490337576956
 31
0.0
 11
4947.53798527363
 21
3318.925963584688
 31
0.0
 11
4950.732033995671
 21
3325.307348527485
 31
0.0
  0
SPLINE
  5
63437
330
2
100
AcDbEntity
  8
0
  6
Continuous
 62
     7
100
AcDbSpline
210
0.0
220
0.0
230
1.0
 70
  1064
 71
     3
 72
    10
 73
     6
 74
     4
 42
0.000000001
 43
0.0000000001
 44
0.0000000001
 12
0.5766034019963824
 22
0.8170241837339936
 32
0.0
 13
0.9964437059157502
 23
-0.084261147279669
 33
0.0
 40
0.0
 40
0.0
 40
0.0
 40
0.0
 40
6.377038362871028
 40
12.01208452844208
 40
14.34507340571811
 40
14.34507340571811
 40
14.34507340571811
 40
14.34507340571811
 10
4950.732033995671
 20
3325.307348527485
 30
0.0
 10
4951.95770800057
 20
3327.044080048507
 30
0.0
 10
4954.773368489035
 20
3330.019100962324
 30
0.0
 10
4959.34820850852
 20
3331.968513447129
 30
0.0
 10
4962.028133284789
 20
3332.025098193933
 30
0.0
 10
4962.803030645701
 20
3331.959571420803
 30
0.0
 11
4950.732033995671
 21
3325.307348527485
 31
0.0
 11
4955.233404290855
 21
3329.82445863763
 31
0.0
 11
4960.470704031868
 21
3331.903986639581
 31
0.0
 11
4962.803030645701
 21
3331.959571420803
 31
0.0
  0
ARC
  5
63438
330
2
100
AcDbEntity
  8
0
100
AcDbCircle
 10
4962.237711503198
 20
3307.637193478857
 30
0.0
 40
18.60031162271758
100
AcDbArc
 50
260.6695330520202
 51
318.7617931735848
  0
ARC
  5
63439
330
2
100
AcDbEntity
  8
0
100
AcDbCircle
 10
4954.910389023202
 20
3279.171885552453
 30
0.0
 40
53.37446553471757
100
AcDbArc
 50
79.57712284085594
 51
88.99139502997291
  0
ARC
  5
6343A
330
2
100
AcDbEntity
  8
0
100
AcDbCircle
 10
4962.64383882091
 20
3372.483235841212
 30
0.0
 40
83.27059889389468
100
AcDbArc
 50
262.8427825546181
 51
267.6449294005948
  0
ELLIPSE
  5
6343B
330
2
100
AcDbEntity
  8
0
100
AcDbEllipse
 10
5730.18166238965
 20
3250.186903252089
 30
0.0
 11
16.06406368185039
 21
-27.8237744729859
 31
0.0
210
0.0
220
0.0
230
-0.9999999999999998
 40
0.5773502691896243
 41
3.157657639519781
 42
6.283185307179586
  0
ELLIPSE
  5
6343C
330
2
100
AcDbEntity
  8
0
100
AcDbEllipse
 10
5719.25282684145
 20
3244.280937363157
 30
0.0
 11
16.06406368185039
 21
-27.8237744729859
 31
0.0
210
0.0
220
0.0
230
-0.9999999999999998
 40
0.5773502691896243
 41
2.128410716080724
 42
7.46542380249091
  0
ELLIPSE
  5
6343D
330
2
100
AcDbEntity
  8
0
100
AcDbEllipse
 10
5719.25282684145
 20
3244.280937363157
 30
0.0
 11
7.653562154423713
 21
-13.25635851034913
 31
0.0
210
0.0
220
0.0
230
-1.0
 40
0.577350269189639
 41
3.141592653589793
 42
5.98141729498388
  0
LINE
  5
6343E
330
2
100
AcDbEntity
  8
0
100
AcDbLine
 10
5739.606346601206
 20
3220.876929623375
 30
0.0
 11
5746.245726071499
 21
3222.363128779104
 31
0.0
  0
LINE
  5
6343F
330
2
100
AcDbEntity
  8
0
100
AcDbLine
 10
5703.188763159598
 20
3272.104711836143
 30
0.0
 11
5714.377729456901
 21
3278.156077142924
 31
0.0
  0
DIMENSION
  5
63440
330
2
100
AcDbEntity
  8
标注
100
AcDbDimension
280
     0
  2
*D14
 10
5508.331762523575
 20
3029.268210629211
 30
0.0
 11
5665.719895072626
 21
3117.998180560473
 31
0.0
 70
    33
  1
800
 71
     5
 42
359.9993955899427
 73
     0
 74
     0
 75
     0
  3
线性标注
100
AcDbAlignedDimension
 13
5775.277841457228
 23
3215.655328920082
 33
0.0
 14
5447.566422668796
 24
3066.642608587901
 34
0.0
  0
DIMENSION
  5
63441
330
2
100
AcDbEntity
  8
标注
100
AcDbDimension
280
     0
  2
*D15
 10
5438.652938960239
 20
2996.866012772325
 30
0.0
 11
5474.100508648521
 21
3012.693057417886
 31
0.0
 70
   161
  1
100
 71
     5
 42
77.64085365368373
 73
     0
 74
     0
 75
     0
  3
线性标注
100
AcDbAlignedDimension
 13
5447.566422668796
 23
3066.642608587901
 33
0.0
 14
5376.671283292232
 24
3034.98851929678
 34
0.0
  0
DIMENSION
  5
63442
330
2
100
AcDbEntity
  8
标注
100
AcDbDimension
280
     0
  2
*D16
 10
4768.753731587387
 20
3233.211266442733
 30
0.0
 11
4981.878941212644
 21
3131.263985154622
 31
0.0
 70
    33
  1
700
 71
     5
 42
471.4720034735778
 73
     0
 74
     0
 75
     0
  3
线性标注
100
AcDbAlignedDimension
 13
5323.411536998875
 23
3065.642621666735
 33
0.0
 14
4912.480941160145
 24
3296.774392444826
 34
0.0
  0
DIMENSION
  5
63443
330
2
100
AcDbEntity
  8
标注
100
AcDbDimension
280
     0
  2
*D17
 10
5359.808554675579
 20
3101.958423276647
 30
0.0
 11
5365.682674027715
 21
3240.412422166187
 31
0.0
 70
    34
  1
140
 71
     5
 42
2.17378333243329
 73
     0
 74
     0
 75
     0
  3
线性标注
100
AcDb2LineAngularDimension
 13
5352.850954590049
 23
3102.436279311409
 33
0.0
 14
5017.384253485277
 24
3308.768804052361
 34
0.0
 15
5711.599264687027
 25
3257.537295873506
 35
0.0
 16
5408.191888890681
 26
3213.761434586711
 36
0.0
  0
DIMENSION
  5
63444
330
2
100
AcDbEntity
  8
标注
100
AcDbDimension
280
     0
  2
*D18
 10
4879.56971026489
 20
3341.443932023957
 30
0.0
 11
4916.69993598433
 21
3341.443932023957
 31
0.0
 70
   160
  1
88
 71
     5
 42
80.25159078002799
 73
     0
 74
     0
 75
     0
  3
线性标注
100
AcDbAlignedDimension
 13
5019.476967445951
 23
3297.457803806642
 33
0.0
 14
4939.225376665923
 24
3306.475367376702
 34
0.0
 50
180.0
100
AcDbRotatedDimension
  0
VIEWPORT
  5
99
330
C
100
AcDbEntity
 67
     1
  8
0
100
AcDbViewport
 10
143.6764787904317
 20
100.2046656547372
 30
0.0
 40
390.1005202556985
 41
202.9375384062431
 68
     1
 69
     1
 12
116.7325519153533
 22
100.551332739372
 13
0.0
 23
0.0
 14
10.0
 24
10.0
 15
10.0
 25
10.0
 16
0.0
 26
0.0
 36
1.0
 17
0.0
 27
0.0
 37
0.0
 42
50.0
 43
0.0
 44
0.0
 45
831.2321573119717
 50
0.0
 51
0.0
 72
   100
 90
    38944
  1

281
     0
 71
     1
 74
     0
110
0.0
120
0.0
130
0.0
111
1.0
121
0.0
131
0.0
112
0.0
122
1.0
132
0.0
 79
     0
146
0.0
170
     2
 61
     5
348
984D
292
     1
282
     1
141
0.0
142
0.0
 63
   250
421
  3355443
  0
MTEXT
  5
2C09
102
{ACAD_XDICTIONARY
360
636EF
102
}
330
C
100
AcDbEntity
 67
     1
  8
ASHADE
 62
     5
100
AcDbMText
 10
231.8996211309493
 20
125.8491204523215
 30
0.0
 40
2.5
 41
66.6875
 46
0.0
 71
     1
 72
     5
  3
\pt24;技术要求:\P\ptz;1.注："☆"号为特注受控处.\P2.所注尺寸为电镀后尺寸.{\fSimSun|b0|i0|c134|p0;\P}3.未注公差为%%p0.1.\P4.未注缧纹倒角为{\fArial|b0|i0|c0|p32;C0.5}.\P5.无毛刺.\P6.壁厚为2.5{\fArial|b0|i0|c134|p32;mm.\P\fSimSun|b0|i0|c134|p0;7\fArial|b0|i0|c134|p32;.}未注铸造圆角{\fArial|b0|i0|c134|
  1
p32;R1\fSimSun|b0|i0|c134|p0;～\fArial|b0|i0|c134|p32;R3.}\P8.表面抛光电镀铬.
 73
     1
 44
1.0
  0
ENDSEC
  0
SECTION
  2
OBJECTS
  0
DICTIONARY
  5
7
330
0
100
AcDbDictionary
281
     1
  3
ACAD_CIP_PREVIOUS_PRODUCT_INFO
350
6063708
  3
ACAD_COLOR
350
29
  3
ACAD_DETAILVIEWSTYLE
350
6063701
  3
ACAD_GROUP
350
25
  3
ACAD_IMAGE_DICT
350
2BE1
  3
ACAD_IMAGE_VARS
350
2BE2
  3
ACAD_LAYOUT
350
B
  3
ACAD_MATERIAL
350
28
  3
ACAD_MLEADERSTYLE
350
987B
  3
ACAD_MLINESTYLE
350
26
  3
ACAD_PLOTSETTINGS
350
27
  3
ACAD_PLOTSTYLENAME
350
6
  3
ACAD_SCALELIST
350
9859
  3
ACAD_SECTIONVIEWSTYLE
350
60636FE
  3
ACAD_TABLESTYLE
350
46A6
  3
ACAD_VISUALSTYLE
350
9847
  3
AcadDim
350
61415
  3
ACDB_RECOMPOSE_DATA
350
606371C
  3
ACDBHEADERROUNDTRIPXREC
350
636E7
  3
ACDBVARIABLEDICTIONARY
350
4557
  3
ASE_INDEX_DICTIONARY
350
635AD
  0
DICTIONARY
  5
623E1
330
1A
100
AcDbDictionary
280
     1
281
     1
  0
DICTIONARY
  5
3FD7
330
10
100
AcDbDictionary
280
     1
281
     1
  3
ACAD_LAYERFILTERS
360
158C4
  3
ACAD_LAYERSTATES
360
3FD8
  3
ACLYDICTIONARY
360
158C3
  0
DICTIONARY
  5
9891
330
4
100
AcDbDictionary
280
     1
281
     1
  3
ADSK_XREC_LAYER_RECONCILED
360
9892
  0
DICTIONARY
  5
9893
330
400
100
AcDbDictionary
280
     1
281
     1
  3
ADSK_XREC_LAYER_RECONCILED
360
9894
  0
DICTIONARY
  5
9897
330
403
100
AcDbDictionary
280
     1
281
     1
  3
ADSK_XREC_LAYER_RECONCILED
360
9898
  0
DICTIONARY
  5
989B
330
405
100
AcDbDictionary
280
     1
281
     1
  3
ADSK_XREC_LAYER_RECONCILED
360
989C
  0
DICTIONARY
  5
989F
330
92F
100
AcDbDictionary
280
     1
281
     1
  3
ADSK_XREC_LAYER_RECONCILED
360
98A0
  0
DICTIONARY
  5
98A9
330
4563
100
AcDbDictionary
280
     1
281
     1
  3
ADSK_XREC_LAYER_RECONCILED
360
98AA
  0
DICTIONARY
  5
98C5
330
2
100
AcDbDictionary
280
     1
281
     1
  3
ACAD_SORTENTS
360
98C6
  0
DICTIONARY
  5
636EF
330
2C09
100
AcDbDictionary
280
     1
281
     1
  0
XRECORD
  5
6063708
102
{ACAD_REACTORS
330
7
102
}
330
7
100
AcDbXrecord
280
     1
300
ACD
300
2017
300
ACD_F_S
  0
DICTIONARY
  5
29
102
{ACAD_REACTORS
330
7
102
}
330
7
100
AcDbDictionary
281
     1
  0
DICTIONARY
  5
6063701
102
{ACAD_REACTORS
330
7
102
}
330
7
100
AcDbDictionary
281
     1
  3
Metric50
350
6063702
  0
DICTIONARY
  5
25
102
{ACAD_REACTORS
330
7
102
}
330
7
100
AcDbDictionary
281
     1
  0
DICTIONARY
  5
2BE1
102
{ACAD_REACTORS
330
7
102
}
330
7
100
AcDbDictionary
281
     1
  3
irunin
350
2BE3
  0
ACAD_PROXY_OBJECT
  5
2BE2
102
{ACAD_REACTORS
330
7
102
}
330
7
100
AcDbProxyObject
 90
      499
 91
      508
 95
       27
 70
     0
162
                 0
161
                40
310
409014050100
 94
        0
1001
ACAD
1000
AcRTDxfName
1000
RASTERVARIABLES
1000
AcRTDxfName
1000
RASTERVARIABLES
1000
AcRTDxfName
1000
RASTERVARIABLES
1000
AcRTDxfName
1000
RASTERVARIABLES
1000
AcRTDxfName
1000
RASTERVARIABLES
1000
AcRTDxfName
1000
RASTERVARIABLES
1000
AcRTDxfName
1000
RASTERVARIABLES
1000
AcRTDxfName
1000
RASTERVARIABLES
1000
AcRTDxfName
1000
RASTERVARIABLES
1000
AcRTDxfName
1000
RASTERVARIABLES
1000
AcRTDxfName
1000
RASTERVARIABLES
  0
DICTIONARY
  5
B
102
{ACAD_REACTORS
330
7
102
}
330
7
100
AcDbDictionary
281
     1
  3
Model
350
A
  3
布局1
350
F
1001
AcadStringInfo
1000
MIFCodePage
1070
     5
  0
DICTIONARY
  5
28
102
{ACAD_REACTORS
330
7
102
}
330
7
100
AcDbDictionary
281
     1
  3
ByBlock
350
9837
  3
ByLayer
350
982F
  3
Global
350
983F
  0
DICTIONARY
  5
987B
102
{ACAD_REACTORS
330
7
102
}
330
7
100
AcDbDictionary
281
     1
  3
Standard
350
987C
  0
DICTIONARY
  5
26
102
{ACAD_REACTORS
330
7
102
}
330
7
100
AcDbDictionary
281
     1
  3
Standard
350
2A
  0
DICTIONARY
  5
27
102
{ACAD_REACTORS
330
7
102
}
330
7
100
AcDbDictionary
281
     1
  3
设置1
350
30A40
1001
AcadStringInfo
1000
MIFCodePage
1070
     5
  0
ACDBDICTIONARYWDFLT
  5
6
102
{ACAD_REACTORS
330
7
102
}
330
7
100
AcDbDictionary
281
     1
  3
Normal
350
5
100
AcDbDictionaryWithDefault
340
5
  0
DICTIONARY
  5
9859
102
{ACAD_REACTORS
330
7
102
}
330
7
100
AcDbDictionary
281
     1
  3
A0
350
985A
  3
A1
350
985B
  3
A2
350
985C
  3
A3
350
985D
  3
A4
350
985E
  3
A5
350
985F
  3
A6
350
9860
  3
A7
350
9861
  3
A8
350
9862
  3
A9
350
9863
  3
B0
350
9864
  3
B1
350
9865
  3
B2
350
9866
  3
B3
350
9867
  3
B4
350
9868
  3
B5
350
9869
  3
B6
350
986A
  3
B7
350
986B
  3
B8
350
986C
  3
B9
350
986D
  3
C0
350
986E
  3
C1
350
986F
  3
C2
350
9870
  3
C3
350
9871
  3
C4
350
9872
  3
C5
350
9873
  3
C6
350
9874
  3
C7
350
9875
  3
C8
350
9876
  3
C9
350
9877
  3
D0
350
9878
  3
D1
350
9879
  3
D2
350
987A
  0
DICTIONARY
  5
60636FE
102
{ACAD_REACTORS
330
7
102
}
330
7
100
AcDbDictionary
281
     1
  3
Metric50
350
6063700
  0
DICTIONARY
  5
46A6
102
{ACAD_REACTORS
330
7
102
}
330
7
100
AcDbDictionary
281
     1
  3
Standard
350
9858
  0
DICTIONARY
  5
9847
102
{ACAD_REACTORS
330
7
102
}
330
7
100
AcDbDictionary
281
     1
  3
2dWireframe
350
984D
  3
3D Hidden
350
984F
  3
3dWireframe
350
984E
  3
Basic
350
984C
  3
Brighten
350
9853
  3
ColorChange
350
9857
  3
Conceptual
350
9850
  3
Dim
350
9852
  3
EdgeColorOff
350
60636FD
  3
Facepattern
350
9856
  3
Flat
350
9848
  3
FlatWithEdges
350
9849
  3
Gouraud
350
984A
  3
GouraudWithEdges
350
984B
  3
Hidden
350
60636F5
  3
JitterOff
350
60636FB
  3
Linepattern
350
9855
  3
OverhangOff
350
60636FC
  3
Realistic
350
9851
  3
Shaded
350
60636FA
  3
Shaded with edges
350
60636F9
  3
Shades of Gray
350
60636F6
  3
Sketchy
350
60636F7
  3
Thicken
350
9854
  3
Wireframe
350
60636F4
  3
X-Ray
350
60636F8
  0
XRECORD
  5
61415
102
{ACAD_REACTORS
330
7
102
}
330
7
100
AcDbXrecord
280
     1
 90
   990106
  3

 60
     0
 61
     0
 62
     1
 63
     3
 64
     0
 65
     0
 66
     0
 67
     3
 68
     1
 69
     0
 70
     0
 71
     0
 72
     0
 40
13.70396488517739
170
     1
340
47027
  0
XRECORD
  5
606371C
102
{ACAD_REACTORS
330
7
102
}
330
7
100
AcDbXrecord
280
     1
 90
        1
330
9858
330
6063700
330
6063702
  0
DICTIONARY
  5
636E7
102
{ACAD_REACTORS
330
7
102
}
330
7
100
AcDbDictionary
281
     1
  0
DICTIONARY
  5
4557
102
{ACAD_REACTORS
330
7
102
}
330
7
100
AcDbDictionary
281
     1
  3
CANNOSCALE
350
B806
  3
CMLEADERSTYLE
350
B804
  3
CTABLESTYLE
350
B803
  3
CVIEWDETAILSTYLE
350
6063713
  3
CVIEWSECTIONSTYLE
350
6063714
  3
DGNFRAME
350
62412
  3
DIMASSOC
350
4558
  3
HIDETEXT
350
62411
  3
INDEXCTL
350
62410
  3
LAYEREVAL
350
6063715
  3
LAYERNOTIFY
350
6063716
  3
LIGHTINGUNITS
350
B807
  3
MSLTSCALE
350
B805
  3
PROJECTNAME
350
62A9C
  3
SORTENTS
350
6240F
  0
DICTIONARY
  5
635AD
102
{ACAD_REACTORS
330
7
102
}
330
7
100
AcDbDictionary
281
     1
  3
ASEBlockHierarchyIndexRecord
350
635AE
1001
DCO15
1040
1674721934.546
  0
DICTIONARY
  5
158C4
102
{ACAD_REACTORS
330
3FD7
102
}
330
3FD7
100
AcDbDictionary
281
     1
  0
DICTIONARY
  5
3FD8
102
{ACAD_REACTORS
330
3FD7
102
}
330
3FD7
100
AcDbDictionary
281
     1
  0
DICTIONARY
  5
158C3
102
{ACAD_REACTORS
330
3FD7
102
}
330
3FD7
100
AcDbDictionary
281
     1
1001
ACAD
1000
<All
  0
XRECORD
  5
9892
102
{ACAD_REACTORS
330
9891
102
}
330
9891
100
AcDbXrecord
280
     1
290
     1
  0
XRECORD
  5
9894
102
{ACAD_REACTORS
330
9893
102
}
330
9893
100
AcDbXrecord
280
     1
290
     1
  0
XRECORD
  5
9898
102
{ACAD_REACTORS
330
9897
102
}
330
9897
100
AcDbXrecord
280
     1
290
     1
  0
XRECORD
  5
989C
102
{ACAD_REACTORS
330
989B
102
}
330
989B
100
AcDbXrecord
280
     1
290
     1
  0
XRECORD
  5
98A0
102
{ACAD_REACTORS
330
989F
102
}
330
989F
100
AcDbXrecord
280
     1
290
     1
  0
XRECORD
  5
98AA
102
{ACAD_REACTORS
330
98A9
102
}
330
98A9
100
AcDbXrecord
280
     1
290
     1
  0
SORTENTSTABLE
  5
98C6
102
{ACAD_REACTORS
330
98C5
102
}
330
98C5
100
AcDbSortentsTable
330
2
331
807B
  5
87F7
331
8151
  5
8822
331
47027
  5
4724F
331
8127
  5
87FF
331
81BF
  5
88BA
331
47A0
  5
47A0
331
80BB
  5
87FB
331
7FDE
  5
86EB
331
8ED7
  5
9333
331
81C7
  5
88BB
331
8D7A
  5
9332
331
47C4
  5
47C4
331
8184
  5
88B5
331
47AF
  5
47AF
331
81A8
  5
88B6
  0
ACDBDETAILVIEWSTYLE
  5
6063702
102
{ACAD_XDICTIONARY
360
606371A
102
}
102
{ACAD_REACTORS
330
6063701
102
}
330
6063701
100
AcDbModelDocViewStyle
 70
     0
  3
Metric50
290
     0
100
AcDbDetailViewStyle
 70
     0
 71
     0
 90
        3
 71
     1
340
12
 62
   256
 40
5.0
340
0
 62
   256
 40
5.0
300

 40
0.0
280
     1
 71
     2
340
8
 90
       25
 62
   256
 71
     3
340
12
 62
   256
 40
5.0
 90
        0
 40
15.0
 90
        1
300
%<\AcVar ViewDetailId>% (%<\AcVar ViewScale \f "%sn">%)
 71
     4
340
8
 90
       25
 62
   256
340
8
 90
       25
 62
   256
280
     0
  0
IMAGEDEF
  5
2BE3
102
{ACAD_REACTORS
330
2BE1
102
}
330
2BE1
100
AcDbRasterImageDef
 90
        0
  1
C:\boot\irunin.bmp
 10
111.0
 20
63.0
 11
0.009009009009009
 21
0.009009009009009
280
     1
281
     0
  0
LAYOUT
  5
A
102
{ACAD_REACTORS
330
B
102
}
330
B
100
AcDbPlotSettings
  1
设置1
  2
\\192.168.1.102\HP LaserJet 1020
  4
A4
  6

 40
4.773083209991455
 41
4.942401409149169
 42
4.815414428710936
 43
4.7730712890625
 44
210.0156707763672
 45
297.0106506347656
 46
0.0
 47
8.162242915879204
 48
4678.397198801646
 49
199.7202550513075
140
4813.122570352224
141
299.3717161006835
142
1.0
143
0.4971953627312283
 70
  3764
 72
     1
 73
     1
 74
     4
  7
acad.ctb
 75
     0
147
2.01128183196788
 76
     1
 77
     2
 78
   300
148
-4678.397198801646
149
-199.7202550513075
100
AcDbLayout
  1
Model
 70
     1
 71
     0
 10
0.0
 20
0.0
 11
12.0
 21
9.0
 12
0.0
 22
0.0
 32
0.0
 14
0.2380952380952381
 24
-0.6113291389338498
 34
0.0
 15
2371.078652631803
 25
1364.802114083393
 35
0.0
146
0.0
 13
0.0
 23
0.0
 33
0.0
 16
1.0
 26
0.0
 36
0.0
 17
0.0
 27
1.0
 37
0.0
 76
     0
330
2
331
636E5
1001
ACAD_PSEXT
1000
\\192.168.1.102\HP LaserJet 1020
1000
HP LaserJet 1020
1000
\\192.168.1.102
1000

1070
     0
1001
AcadStringInfo
1000
MIFCodePage
1070
     5
  0
LAYOUT
  5
F
102
{ACAD_REACTORS
330
B
102
}
330
B
100
AcDbPlotSettings
  1

  2
在 SKF 上自动 HP LaserJet 1020
  4
A4
  6

 40
4.773083209991455
 41
4.942401409149169
 42
4.815414428710936
 43
4.7730712890625
 44
210.0156707763672
 45
297.0106506347656
 46
0.0
 47
0.0
 48
0.0
 49
0.0
140
0.0
141
0.0
142
1.0
143
1.0
 70
   688
 72
     1
 73
     1
 74
     5
  7
acad.ctb
 75
    16
147
1.0
 76
     1
 77
     2
 78
   300
148
0.0
149
0.0
100
AcDbLayout
  1
布局1
 70
     0
 71
     1
 10
-4.7730712890625
 20
-4.773083209991455
 11
292.2375793457031
 21
205.2425875663757
 12
0.0
 22
0.0
 32
0.0
 14
0.0451739414299368
 24
0.0000025706221436
 34
0.0
 15
287.29517394143
 25
200.4000025706222
 35
0.0
146
0.0
 13
0.0
 23
0.0
 33
0.0
 16
1.0
 26
0.0
 36
0.0
 17
0.0
 27
1.0
 37
0.0
 76
     0
330
C
331
99
1001
AcadStringInfo
1000
MIFCodePage
1070
     5
  0
MATERIAL
  5
9837
102
{ACAD_XDICTIONARY
360
9838
102
}
102
{ACAD_REACTORS
330
28
102
}
330
28
100
AcDbMaterial
  1
ByBlock
 72
     0
 43
0.0008202099737533
 43
0.0
 43
0.0
 43
0.0
 43
0.0
 43
0.0008202099737533
 43
0.0
 43
0.0
 43
0.0
 43
0.0
 43
1.0
 43
0.0
 43
0.0
 43
0.0
 43
0.0
 43
1.0
 77
     0
 47
0.0008202099737533
 47
0.0
 47
0.0
 47
0.0
 47
0.0
 47
0.0008202099737533
 47
0.0
 47
0.0
 47
0.0
 47
0.0
 47
1.0
 47
0.0
 47
0.0
 47
0.0
 47
0.0
 47
1.0
171
     0
 49
0.0008202099737533
 49
0.0
 49
0.0
 49
0.0
 49
0.0
 49
0.0008202099737533
 49
0.0
 49
0.0
 49
0.0
 49
0.0
 49
1.0
 49
0.0
 49
0.0
 49
0.0
 49
0.0
 49
1.0
175
     0
142
0.0008202099737533
142
0.0
142
0.0
142
0.0
142
0.0
142
0.0008202099737533
142
0.0
142
0.0
142
0.0
142
0.0
142
1.0
142
0.0
142
0.0
142
0.0
142
0.0
142
1.0
179
     0
144
0.0008202099737533
144
0.0
144
0.0
144
0.0
144
0.0
144
0.0008202099737533
144
0.0
144
0.0
144
0.0
144
0.0
144
1.0
144
0.0
144
0.0
144
0.0
144
0.0
144
1.0
147
0.0008202099737533
147
0.0
147
0.0
147
0.0
147
0.0
147
0.0008202099737533
147
0.0
147
0.0
147
0.0
147
0.0
147
1.0
147
0.0
147
0.0
147
0.0
147
0.0
147
1.0
  0
MATERIAL
  5
982F
102
{ACAD_XDICTIONARY
360
9830
102
}
102
{ACAD_REACTORS
330
28
102
}
330
28
100
AcDbMaterial
  1
ByLayer
 72
     0
 43
0.0008202099737533
 43
0.0
 43
0.0
 43
0.0
 43
0.0
 43
0.0008202099737533
 43
0.0
 43
0.0
 43
0.0
 43
0.0
 43
1.0
 43
0.0
 43
0.0
 43
0.0
 43
0.0
 43
1.0
 77
     0
 47
0.0008202099737533
 47
0.0
 47
0.0
 47
0.0
 47
0.0
 47
0.0008202099737533
 47
0.0
 47
0.0
 47
0.0
 47
0.0
 47
1.0
 47
0.0
 47
0.0
 47
0.0
 47
0.0
 47
1.0
171
     0
 49
0.0008202099737533
 49
0.0
 49
0.0
 49
0.0
 49
0.0
 49
0.0008202099737533
 49
0.0
 49
0.0
 49
0.0
 49
0.0
 49
1.0
 49
0.0
 49
0.0
 49
0.0
 49
0.0
 49
1.0
175
     0
142
0.0008202099737533
142
0.0
142
0.0
142
0.0
142
0.0
142
0.0008202099737533
142
0.0
142
0.0
142
0.0
142
0.0
142
1.0
142
0.0
142
0.0
142
0.0
142
0.0
142
1.0
179
     0
144
0.0008202099737533
144
0.0
144
0.0
144
0.0
144
0.0
144
0.0008202099737533
144
0.0
144
0.0
144
0.0
144
0.0
144
1.0
144
0.0
144
0.0
144
0.0
144
0.0
144
1.0
147
0.0008202099737533
147
0.0
147
0.0
147
0.0
147
0.0
147
0.0008202099737533
147
0.0
147
0.0
147
0.0
147
0.0
147
1.0
147
0.0
147
0.0
147
0.0
147
0.0
147
1.0
  0
MATERIAL
  5
983F
102
{ACAD_XDICTIONARY
360
9840
102
}
102
{ACAD_REACTORS
330
28
102
}
330
28
100
AcDbMaterial
  1
Global
 72
     0
 43
0.0008202099737533
 43
0.0
 43
0.0
 43
0.0
 43
0.0
 43
0.0008202099737533
 43
0.0
 43
0.0
 43
0.0
 43
0.0
 43
1.0
 43
0.0
 43
0.0
 43
0.0
 43
0.0
 43
1.0
 77
     0
 47
0.0008202099737533
 47
0.0
 47
0.0
 47
0.0
 47
0.0
 47
0.0008202099737533
 47
0.0
 47
0.0
 47
0.0
 47
0.0
 47
1.0
 47
0.0
 47
0.0
 47
0.0
 47
0.0
 47
1.0
171
     0
 49
0.0008202099737533
 49
0.0
 49
0.0
 49
0.0
 49
0.0
 49
0.0008202099737533
 49
0.0
 49
0.0
 49
0.0
 49
0.0
 49
1.0
 49
0.0
 49
0.0
 49
0.0
 49
0.0
 49
1.0
175
     0
142
0.0008202099737533
142
0.0
142
0.0
142
0.0
142
0.0
142
0.0008202099737533
142
0.0
142
0.0
142
0.0
142
0.0
142
1.0
142
0.0
142
0.0
142
0.0
142
0.0
142
1.0
179
     0
144
0.0008202099737533
144
0.0
144
0.0
144
0.0
144
0.0
144
0.0008202099737533
144
0.0
144
0.0
144
0.0
144
0.0
144
1.0
144
0.0
144
0.0
144
0.0
144
0.0
144
1.0
147
0.0008202099737533
147
0.0
147
0.0
147
0.0
147
0.0
147
0.0008202099737533
147
0.0
147
0.0
147
0.0
147
0.0
147
1.0
147
0.0
147
0.0
147
0.0
147
0.0
147
1.0
  0
MLEADERSTYLE
  5
987C
102
{ACAD_REACTORS
330
987B
102
}
330
987B
100
AcDbMLeaderStyle
179
     2
170
     2
171
     1
172
     0
 90
        2
 40
0.0
 41
0.0
173
     1
 91
-1056964608
340
16
 92
       -2
290
     1
 42
2.0
291
     1
 43
0.36
  3
Standard
 44
4.0
300

342
12
174
     1
178
     6
175
     1
176
     0
 93
-1056964608
 45
4.0
292
     0
297
     0
 46
4.0
 94
-1056964608
 47
1.0
 49
1.0
140
1.0
293
     1
141
0.0
294
     1
177
     0
142
1.0
295
     0
296
     0
143
0.125
271
     0
272
     9
273
     9
298
     0
1001
ACAD
1000
AcRTDxfName
1000
MLEADERSTYLE
1000
AcRTDxfName
1000
MLEADERSTYLE
1000
AcRTDxfName
1000
MLEADERSTYLE
1000
AcRTDxfName
1000
MLEADERSTYLE
1000
AcRTDxfName
1000
MLEADERSTYLE
1000
AcRTDxfName
1000
MLEADERSTYLE
1000
AcRTDxfName
1000
MLEADERSTYLE
1000
AcRTDxfName
1000
MLEADERSTYLE
  0
MLINESTYLE
  5
2A
102
{ACAD_REACTORS
330
26
102
}
330
26
100
AcDbMlineStyle
  2
STANDARD
 70
     0
  3

 62
   256
 51
90.0
 52
90.0
 71
     2
 49
0.5
 62
   256
  6
BYLAYER
 49
-0.5
 62
   256
  6
BYLAYER
  0
PLOTSETTINGS
  5
30A40
102
{ACAD_REACTORS
330
27
102
}
330
27
100
AcDbPlotSettings
  1
设置1
  2
\\192.168.1.102\HP LaserJet 1020
  4
A4
  6

 40
4.773083209991455
 41
4.942401409149169
 42
4.815414428710936
 43
4.7730712890625
 44
210.0156707763672
 45
297.0106506347656
 46
0.0
 47
8.162242915879204
 48
4678.397198801646
 49
199.7202550513075
140
4813.122570352224
141
299.3717161006835
142
1.0
143
0.4971953627312283
 70
  3764
 72
     1
 73
     1
 74
     4
  7
acad.ctb
 75
     0
147
2.01128183196788
 76
     1
 77
     2
 78
   300
148
-4678.397198801646
149
-199.7202550513075
1001
ACAD_PSEXT
1000
\\192.168.1.102\HP LaserJet 1020
1000
HP LaserJet 1020
1000
\\192.168.1.102
1000

1070
     0
1001
AcadStringInfo
1000
MIFCodePage
1070
     5
  0
ACDBPLACEHOLDER
  5
5
102
{ACAD_REACTORS
330
6
102
}
330
6
  0
SCALE
  5
985A
102
{ACAD_REACTORS
330
9859
102
}
330
9859
100
AcDbScale
 70
     0
300
1:1
140
1.0
141
1.0
290
     1
1001
ACAD
1000
AcRTDxfName
1000
SCALE
1000
AcRTDxfName
1000
SCALE
1000
AcRTDxfName
1000
SCALE
1000
AcRTDxfName
1000
SCALE
1000
AcRTDxfName
1000
SCALE
1000
AcRTDxfName
1000
SCALE
1000
AcRTDxfName
1000
SCALE
1000
AcRTDxfName
1000
SCALE
  0
SCALE
  5
985B
102
{ACAD_REACTORS
330
9859
102
}
330
9859
100
AcDbScale
 70
     0
300
1:2
140
1.0
141
2.0
290
     0
1001
ACAD
1000
AcRTDxfName
1000
SCALE
1000
AcRTDxfName
1000
SCALE
1000
AcRTDxfName
1000
SCALE
1000
AcRTDxfName
1000
SCALE
1000
AcRTDxfName
1000
SCALE
1000
AcRTDxfName
1000
SCALE
1000
AcRTDxfName
1000
SCALE
1000
AcRTDxfName
1000
SCALE
  0
SCALE
  5
985C
102
{ACAD_REACTORS
330
9859
102
}
330
9859
100
AcDbScale
 70
     0
300
1:4
140
1.0
141
4.0
290
     0
1001
ACAD
1000
AcRTDxfName
1000
SCALE
1000
AcRTDxfName
1000
SCALE
1000
AcRTDxfName
1000
SCALE
1000
AcRTDxfName
1000
SCALE
1000
AcRTDxfName
1000
SCALE
1000
AcRTDxfName
1000
SCALE
1000
AcRTDxfName
1000
SCALE
1000
AcRTDxfName
1000
SCALE
  0
SCALE
  5
985D
102
{ACAD_REACTORS
330
9859
102
}
330
9859
100
AcDbScale
 70
     0
300
1:5
140
1.0
141
5.0
290
     0
1001
ACAD
1000
AcRTDxfName
1000
SCALE
1000
AcRTDxfName
1000
SCALE
1000
AcRTDxfName
1000
SCALE
1000
AcRTDxfName
1000
SCALE
1000
AcRTDxfName
1000
SCALE
1000
AcRTDxfName
1000
SCALE
1000
AcRTDxfName
1000
SCALE
1000
AcRTDxfName
1000
SCALE
  0
SCALE
  5
985E
102
{ACAD_REACTORS
330
9859
102
}
330
9859
100
AcDbScale
 70
     0
300
1:8
140
1.0
141
8.0
290
     0
1001
ACAD
1000
AcRTDxfName
1000
SCALE
1000
AcRTDxfName
1000
SCALE
1000
AcRTDxfName
1000
SCALE
1000
AcRTDxfName
1000
SCALE
1000
AcRTDxfName
1000
SCALE
1000
AcRTDxfName
1000
SCALE
1000
AcRTDxfName
1000
SCALE
1000
AcRTDxfName
1000
SCALE
  0
SCALE
  5
985F
102
{ACAD_REACTORS
330
9859
102
}
330
9859
100
AcDbScale
 70
     0
300
1:10
140
1.0
141
10.0
290
     0
1001
ACAD
1000
AcRTDxfName
1000
SCALE
1000
AcRTDxfName
1000
SCALE
1000
AcRTDxfName
1000
SCALE
1000
AcRTDxfName
1000
SCALE
1000
AcRTDxfName
1000
SCALE
1000
AcRTDxfName
1000
SCALE
1000
AcRTDxfName
1000
SCALE
1000
AcRTDxfName
1000
SCALE
  0
SCALE
  5
9860
102
{ACAD_REACTORS
330
9859
102
}
330
9859
100
AcDbScale
 70
     0
300
1:16
140
1.0
141
16.0
290
     0
1001
ACAD
1000
AcRTDxfName
1000
SCALE
1000
AcRTDxfName
1000
SCALE
1000
AcRTDxfName
1000
SCALE
1000
AcRTDxfName
1000
SCALE
1000
AcRTDxfName
1000
SCALE
1000
AcRTDxfName
1000
SCALE
1000
AcRTDxfName
1000
SCALE
1000
AcRTDxfName
1000
SCALE
  0
SCALE
  5
9861
102
{ACAD_REACTORS
330
9859
102
}
330
9859
100
AcDbScale
 70
     0
300
1:20
140
1.0
141
20.0
290
     0
1001
ACAD
1000
AcRTDxfName
1000
SCALE
1000
AcRTDxfName
1000
SCALE
1000
AcRTDxfName
1000
SCALE
1000
AcRTDxfName
1000
SCALE
1000
AcRTDxfName
1000
SCALE
1000
AcRTDxfName
1000
SCALE
1000
AcRTDxfName
1000
SCALE
1000
AcRTDxfName
1000
SCALE
  0
SCALE
  5
9862
102
{ACAD_REACTORS
330
9859
102
}
330
9859
100
AcDbScale
 70
     0
300
1:30
140
1.0
141
30.0
290
     0
1001
ACAD
1000
AcRTDxfName
1000
SCALE
1000
AcRTDxfName
1000
SCALE
1000
AcRTDxfName
1000
SCALE
1000
AcRTDxfName
1000
SCALE
1000
AcRTDxfName
1000
SCALE
1000
AcRTDxfName
1000
SCALE
1000
AcRTDxfName
1000
SCALE
1000
AcRTDxfName
1000
SCALE
  0
SCALE
  5
9863
102
{ACAD_REACTORS
330
9859
102
}
330
9859
100
AcDbScale
 70
     0
300
1:40
140
1.0
141
40.0
290
     0
1001
ACAD
1000
AcRTDxfName
1000
SCALE
1000
AcRTDxfName
1000
SCALE
1000
AcRTDxfName
1000
SCALE
1000
AcRTDxfName
1000
SCALE
1000
AcRTDxfName
1000
SCALE
1000
AcRTDxfName
1000
SCALE
1000
AcRTDxfName
1000
SCALE
1000
AcRTDxfName
1000
SCALE
  0
SCALE
  5
9864
102
{ACAD_REACTORS
330
9859
102
}
330
9859
100
AcDbScale
 70
     0
300
1:50
140
1.0
141
50.0
290
     0
1001
ACAD
1000
AcRTDxfName
1000
SCALE
1000
AcRTDxfName
1000
SCALE
1000
AcRTDxfName
1000
SCALE
1000
AcRTDxfName
1000
SCALE
1000
AcRTDxfName
1000
SCALE
1000
AcRTDxfName
1000
SCALE
1000
AcRTDxfName
1000
SCALE
1000
AcRTDxfName
1000
SCALE
  0
SCALE
  5
9865
102
{ACAD_REACTORS
330
9859
102
}
330
9859
100
AcDbScale
 70
     0
300
1:100
140
1.0
141
100.0
290
     0
1001
ACAD
1000
AcRTDxfName
1000
SCALE
1000
AcRTDxfName
1000
SCALE
1000
AcRTDxfName
1000
SCALE
1000
AcRTDxfName
1000
SCALE
1000
AcRTDxfName
1000
SCALE
1000
AcRTDxfName
1000
SCALE
1000
AcRTDxfName
1000
SCALE
1000
AcRTDxfName
1000
SCALE
  0
SCALE
  5
9866
102
{ACAD_REACTORS
330
9859
102
}
330
9859
100
AcDbScale
 70
     0
300
2:1
140
2.0
141
1.0
290
     0
1001
ACAD
1000
AcRTDxfName
1000
SCALE
1000
AcRTDxfName
1000
SCALE
1000
AcRTDxfName
1000
SCALE
1000
AcRTDxfName
1000
SCALE
1000
AcRTDxfName
1000
SCALE
1000
AcRTDxfName
1000
SCALE
1000
AcRTDxfName
1000
SCALE
1000
AcRTDxfName
1000
SCALE
  0
SCALE
  5
9867
102
{ACAD_REACTORS
330
9859
102
}
330
9859
100
AcDbScale
 70
     0
300
4:1
140
4.0
141
1.0
290
     0
1001
ACAD
1000
AcRTDxfName
1000
SCALE
1000
AcRTDxfName
1000
SCALE
1000
AcRTDxfName
1000
SCALE
1000
AcRTDxfName
1000
SCALE
1000
AcRTDxfName
1000
SCALE
1000
AcRTDxfName
1000
SCALE
1000
AcRTDxfName
1000
SCALE
1000
AcRTDxfName
1000
SCALE
  0
SCALE
  5
9868
102
{ACAD_REACTORS
330
9859
102
}
330
9859
100
AcDbScale
 70
     0
300
8:1
140
8.0
141
1.0
290
     0
1001
ACAD
1000
AcRTDxfName
1000
SCALE
1000
AcRTDxfName
1000
SCALE
1000
AcRTDxfName
1000
SCALE
1000
AcRTDxfName
1000
SCALE
1000
AcRTDxfName
1000
SCALE
1000
AcRTDxfName
1000
SCALE
1000
AcRTDxfName
1000
SCALE
1000
AcRTDxfName
1000
SCALE
  0
SCALE
  5
9869
102
{ACAD_REACTORS
330
9859
102
}
330
9859
100
AcDbScale
 70
     0
300
10:1
140
10.0
141
1.0
290
     0
1001
ACAD
1000
AcRTDxfName
1000
SCALE
1000
AcRTDxfName
1000
SCALE
1000
AcRTDxfName
1000
SCALE
1000
AcRTDxfName
1000
SCALE
1000
AcRTDxfName
1000
SCALE
1000
AcRTDxfName
1000
SCALE
1000
AcRTDxfName
1000
SCALE
1000
AcRTDxfName
1000
SCALE
  0
SCALE
  5
986A
102
{ACAD_REACTORS
330
9859
102
}
330
9859
100
AcDbScale
 70
     0
300
100:1
140
100.0
141
1.0
290
     0
1001
ACAD
1000
AcRTDxfName
1000
SCALE
1000
AcRTDxfName
1000
SCALE
1000
AcRTDxfName
1000
SCALE
1000
AcRTDxfName
1000
SCALE
1000
AcRTDxfName
1000
SCALE
1000
AcRTDxfName
1000
SCALE
1000
AcRTDxfName
1000
SCALE
1000
AcRTDxfName
1000
SCALE
  0
SCALE
  5
986B
102
{ACAD_REACTORS
330
9859
102
}
330
9859
100
AcDbScale
 70
     0
300
1/128" = 1'-0"
140
0.0078125
141
12.0
290
     0
1001
ACAD
1000
AcRTDxfName
1000
SCALE
1000
AcRTDxfName
1000
SCALE
1000
AcRTDxfName
1000
SCALE
1000
AcRTDxfName
1000
SCALE
1000
AcRTDxfName
1000
SCALE
1000
AcRTDxfName
1000
SCALE
1000
AcRTDxfName
1000
SCALE
1000
AcRTDxfName
1000
SCALE
  0
SCALE
  5
986C
102
{ACAD_REACTORS
330
9859
102
}
330
9859
100
AcDbScale
 70
     0
300
1/64" = 1'-0"
140
0.015625
141
12.0
290
     0
1001
ACAD
1000
AcRTDxfName
1000
SCALE
1000
AcRTDxfName
1000
SCALE
1000
AcRTDxfName
1000
SCALE
1000
AcRTDxfName
1000
SCALE
1000
AcRTDxfName
1000
SCALE
1000
AcRTDxfName
1000
SCALE
1000
AcRTDxfName
1000
SCALE
1000
AcRTDxfName
1000
SCALE
  0
SCALE
  5
986D
102
{ACAD_REACTORS
330
9859
102
}
330
9859
100
AcDbScale
 70
     0
300
1/32" = 1'-0"
140
0.03125
141
12.0
290
     0
1001
ACAD
1000
AcRTDxfName
1000
SCALE
1000
AcRTDxfName
1000
SCALE
1000
AcRTDxfName
1000
SCALE
1000
AcRTDxfName
1000
SCALE
1000
AcRTDxfName
1000
SCALE
1000
AcRTDxfName
1000
SCALE
1000
AcRTDxfName
1000
SCALE
1000
AcRTDxfName
1000
SCALE
  0
SCALE
  5
986E
102
{ACAD_REACTORS
330
9859
102
}
330
9859
100
AcDbScale
 70
     0
300
1/16" = 1'-0"
140
0.0625
141
12.0
290
     0
1001
ACAD
1000
AcRTDxfName
1000
SCALE
1000
AcRTDxfName
1000
SCALE
1000
AcRTDxfName
1000
SCALE
1000
AcRTDxfName
1000
SCALE
1000
AcRTDxfName
1000
SCALE
1000
AcRTDxfName
1000
SCALE
1000
AcRTDxfName
1000
SCALE
1000
AcRTDxfName
1000
SCALE
  0
SCALE
  5
986F
102
{ACAD_REACTORS
330
9859
102
}
330
9859
100
AcDbScale
 70
     0
300
3/32" = 1'-0"
140
0.09375
141
12.0
290
     0
1001
ACAD
1000
AcRTDxfName
1000
SCALE
1000
AcRTDxfName
1000
SCALE
1000
AcRTDxfName
1000
SCALE
1000
AcRTDxfName
1000
SCALE
1000
AcRTDxfName
1000
SCALE
1000
AcRTDxfName
1000
SCALE
1000
AcRTDxfName
1000
SCALE
1000
AcRTDxfName
1000
SCALE
  0
SCALE
  5
9870
102
{ACAD_REACTORS
330
9859
102
}
330
9859
100
AcDbScale
 70
     0
300
1/8" = 1'-0"
140
0.125
141
12.0
290
     0
1001
ACAD
1000
AcRTDxfName
1000
SCALE
1000
AcRTDxfName
1000
SCALE
1000
AcRTDxfName
1000
SCALE
1000
AcRTDxfName
1000
SCALE
1000
AcRTDxfName
1000
SCALE
1000
AcRTDxfName
1000
SCALE
1000
AcRTDxfName
1000
SCALE
1000
AcRTDxfName
1000
SCALE
  0
SCALE
  5
9871
102
{ACAD_REACTORS
330
9859
102
}
330
9859
100
AcDbScale
 70
     0
300
3/16" = 1'-0"
140
0.1875
141
12.0
290
     0
1001
ACAD
1000
AcRTDxfName
1000
SCALE
1000
AcRTDxfName
1000
SCALE
1000
AcRTDxfName
1000
SCALE
1000
AcRTDxfName
1000
SCALE
1000
AcRTDxfName
1000
SCALE
1000
AcRTDxfName
1000
SCALE
1000
AcRTDxfName
1000
SCALE
1000
AcRTDxfName
1000
SCALE
  0
SCALE
  5
9872
102
{ACAD_REACTORS
330
9859
102
}
330
9859
100
AcDbScale
 70
     0
300
1/4" = 1'-0"
140
0.25
141
12.0
290
     0
1001
ACAD
1000
AcRTDxfName
1000
SCALE
1000
AcRTDxfName
1000
SCALE
1000
AcRTDxfName
1000
SCALE
1000
AcRTDxfName
1000
SCALE
1000
AcRTDxfName
1000
SCALE
1000
AcRTDxfName
1000
SCALE
1000
AcRTDxfName
1000
SCALE
1000
AcRTDxfName
1000
SCALE
  0
SCALE
  5
9873
102
{ACAD_REACTORS
330
9859
102
}
330
9859
100
AcDbScale
 70
     0
300
3/8" = 1'-0"
140
0.375
141
12.0
290
     0
1001
ACAD
1000
AcRTDxfName
1000
SCALE
1000
AcRTDxfName
1000
SCALE
1000
AcRTDxfName
1000
SCALE
1000
AcRTDxfName
1000
SCALE
1000
AcRTDxfName
1000
SCALE
1000
AcRTDxfName
1000
SCALE
1000
AcRTDxfName
1000
SCALE
1000
AcRTDxfName
1000
SCALE
  0
SCALE
  5
9874
102
{ACAD_REACTORS
330
9859
102
}
330
9859
100
AcDbScale
 70
     0
300
1/2" = 1'-0"
140
0.5
141
12.0
290
     0
1001
ACAD
1000
AcRTDxfName
1000
SCALE
1000
AcRTDxfName
1000
SCALE
1000
AcRTDxfName
1000
SCALE
1000
AcRTDxfName
1000
SCALE
1000
AcRTDxfName
1000
SCALE
1000
AcRTDxfName
1000
SCALE
1000
AcRTDxfName
1000
SCALE
1000
AcRTDxfName
1000
SCALE
  0
SCALE
  5
9875
102
{ACAD_REACTORS
330
9859
102
}
330
9859
100
AcDbScale
 70
     0
300
3/4" = 1'-0"
140
0.75
141
12.0
290
     0
1001
ACAD
1000
AcRTDxfName
1000
SCALE
1000
AcRTDxfName
1000
SCALE
1000
AcRTDxfName
1000
SCALE
1000
AcRTDxfName
1000
SCALE
1000
AcRTDxfName
1000
SCALE
1000
AcRTDxfName
1000
SCALE
1000
AcRTDxfName
1000
SCALE
1000
AcRTDxfName
1000
SCALE
  0
SCALE
  5
9876
102
{ACAD_REACTORS
330
9859
102
}
330
9859
100
AcDbScale
 70
     0
300
1" = 1'-0"
140
1.0
141
12.0
290
     0
1001
ACAD
1000
AcRTDxfName
1000
SCALE
1000
AcRTDxfName
1000
SCALE
1000
AcRTDxfName
1000
SCALE
1000
AcRTDxfName
1000
SCALE
1000
AcRTDxfName
1000
SCALE
1000
AcRTDxfName
1000
SCALE
1000
AcRTDxfName
1000
SCALE
1000
AcRTDxfName
1000
SCALE
  0
SCALE
  5
9877
102
{ACAD_REACTORS
330
9859
102
}
330
9859
100
AcDbScale
 70
     0
300
1-1/2" = 1'-0"
140
1.5
141
12.0
290
     0
1001
ACAD
1000
AcRTDxfName
1000
SCALE
1000
AcRTDxfName
1000
SCALE
1000
AcRTDxfName
1000
SCALE
1000
AcRTDxfName
1000
SCALE
1000
AcRTDxfName
1000
SCALE
1000
AcRTDxfName
1000
SCALE
1000
AcRTDxfName
1000
SCALE
1000
AcRTDxfName
1000
SCALE
  0
SCALE
  5
9878
102
{ACAD_REACTORS
330
9859
102
}
330
9859
100
AcDbScale
 70
     0
300
3" = 1'-0"
140
3.0
141
12.0
290
     0
1001
ACAD
1000
AcRTDxfName
1000
SCALE
1000
AcRTDxfName
1000
SCALE
1000
AcRTDxfName
1000
SCALE
1000
AcRTDxfName
1000
SCALE
1000
AcRTDxfName
1000
SCALE
1000
AcRTDxfName
1000
SCALE
1000
AcRTDxfName
1000
SCALE
1000
AcRTDxfName
1000
SCALE
  0
SCALE
  5
9879
102
{ACAD_REACTORS
330
9859
102
}
330
9859
100
AcDbScale
 70
     0
300
6" = 1'-0"
140
6.0
141
12.0
290
     0
1001
ACAD
1000
AcRTDxfName
1000
SCALE
1000
AcRTDxfName
1000
SCALE
1000
AcRTDxfName
1000
SCALE
1000
AcRTDxfName
1000
SCALE
1000
AcRTDxfName
1000
SCALE
1000
AcRTDxfName
1000
SCALE
1000
AcRTDxfName
1000
SCALE
1000
AcRTDxfName
1000
SCALE
  0
SCALE
  5
987A
102
{ACAD_REACTORS
330
9859
102
}
330
9859
100
AcDbScale
 70
     0
300
1'-0" = 1'-0"
140
12.0
141
12.0
290
     0
1001
ACAD
1000
AcRTDxfName
1000
SCALE
1000
AcRTDxfName
1000
SCALE
1000
AcRTDxfName
1000
SCALE
1000
AcRTDxfName
1000
SCALE
1000
AcRTDxfName
1000
SCALE
1000
AcRTDxfName
1000
SCALE
1000
AcRTDxfName
1000
SCALE
1000
AcRTDxfName
1000
SCALE
  0
ACDBSECTIONVIEWSTYLE
  5
6063700
102
{ACAD_XDICTIONARY
360
6063718
102
}
102
{ACAD_REACTORS
330
60636FE
102
}
330
60636FE
100
AcDbModelDocViewStyle
 70
     0
  3
Metric50
290
     0
100
AcDbSectionViewStyle
 70
     0
 71
     0
 90
      102
 71
     1
340
12
 62
   256
 40
5.0
340
0
340
0
 62
   256
 40
5.0
300
I, O, Q, S, X, Z
 40
10.0
 90
        0
 40
2.5
 90
        0
 71
     2
340
8
 90
       25
 62
   256
340
8
 90
       50
 62
   256
 40
5.0
 40
2.5
 40
5.0
 71
     3
340
12
 62
   256
 40
5.0
 90
        0
 40
15.0
 90
        1
300
%<\AcVar ViewSectionStartId>%-%<\AcVar ViewSectionEndId>% (%<\AcVar ViewScale \f "%sn">%)
 71
     4
 62
   256
 62
   257
300
ANSI31
 40
1.0
 90
        0
290
     0
290
     0
 90
        6
 40
0.0
 40
1.570796326794896
 40
0.2617993877991494
 40
1.308996938995747
 40
-0.2617993877991494
 40
1.832595714594046
  0
TABLESTYLE
  5
9858
102
{ACAD_XDICTIONARY
360
B800
102
}
102
{ACAD_REACTORS
330
46A6
102
}
330
46A6
100
AcDbTableStyle
280
     0
  3
Standard
 70
     0
 71
     0
 40
1.5
 41
1.5
280
     0
281
     0
  7
Standard
140
4.5
170
     2
 62
     0
 63
     7
283
     0
 90
      512
 91
        0
  1

274
    -2
284
     1
 64
     0
275
    -2
285
     1
 65
     0
276
    -2
286
     1
 66
     0
277
    -2
287
     1
 67
     0
278
    -2
288
     1
 68
     0
279
    -2
289
     1
 69
     0
  7
Standard
140
6.0
170
     5
 62
     0
 63
     7
283
     0
 90
      512
 91
        0
  1

274
    -2
284
     1
 64
     0
275
    -2
285
     1
 65
     0
276
    -2
286
     1
 66
     0
277
    -2
287
     1
 67
     0
278
    -2
288
     1
 68
     0
279
    -2
289
     1
 69
     0
  7
Standard
140
4.5
170
     5
 62
     0
 63
     7
283
     0
 90
      512
 91
        0
  1

274
    -2
284
     1
 64
     0
275
    -2
285
     1
 65
     0
276
    -2
286
     1
 66
     0
277
    -2
287
     1
 67
     0
278
    -2
288
     1
 68
     0
279
    -2
289
     1
 69
     0
  0
VISUALSTYLE
  5
984D
102
{ACAD_REACTORS
330
9847
102
}
330
9847
100
AcDbVisualStyle
  2
2dWireframe
 70
     4
177
     3
291
     0
 70
    58
 90
        0
176
     1
 90
        2
176
     1
 90
        0
176
     1
 90
        0
176
     1
 40
0.6
176
     1
 40
30.0
176
     1
 62
     7
176
     1
 90
        1
176
     1
 90
        4
176
     1
 62
     7
176
     1
 62
   257
176
     1
 90
        1
176
     1
 90
        1
176
     1
 40
1.0
176
     1
 90
        0
176
     1
 62
   257
176
     1
 40
1.0
176
     1
 90
        1
176
     1
 90
        6
176
     1
 90
        2
176
     1
 62
     7
176
     1
 90
        5
176
     1
 90
        0
176
     1
 90
        0
176
     1
290
     0
176
     1
 90
        1
176
     1
 40
0.0
176
     1
 90
        0
176
     1
290
     1
176
     1
290
     1
176
     1
290
     0
176
     1
290
     0
176
     1
290
     0
176
     1
290
     0
176
     1
290
     0
176
     1
290
     0
176
     1
290
     0
176
     1
 90
       50
176
     1
 40
0.0
176
     1
 40
1.0
176
     1
 90
        0
176
     1
 62
    18
420
        0
176
     1
 90
       50
176
     1
 90
        3
176
     1
 62
     5
420
      255
176
     1
290
     0
176
     1
 90
       50
176
     1
 90
       50
176
     1
 90
       50
176
     1
290
     0
176
     1
 90
       50
176
     1
 62
   256
176
     0
 40
1.0
176
     0
 90
        2
176
     1
  1
strokes_ogs.tif
176
     1
290
     0
176
     1
 40
1.0
176
     1
 40
1.0
176
     1
1001
ACAD
1000
AcRTDxfName
1000
VISUALSTYLE
1000
AcRTDxfName
1000
VISUALSTYLE
1000
AcRTDxfName
1000
VISUALSTYLE
1000
AcRTDxfName
1000
VISUALSTYLE
1000
AcRTDxfName
1000
VISUALSTYLE
1000
AcRTDxfName
1000
VISUALSTYLE
1000
AcRTDxfName
1000
VISUALSTYLE
1000
AcRTDxfName
1000
VISUALSTYLE
  0
VISUALSTYLE
  5
984F
102
{ACAD_REACTORS
330
9847
102
}
330
9847
100
AcDbVisualStyle
  2
3D Hidden
 70
     6
177
     3
291
     0
 70
    58
 90
        1
176
     1
 90
        2
176
     1
 90
        2
176
     1
 90
        0
176
     1
 40
0.6
176
     1
 40
30.0
176
     1
 62
     7
176
     1
 90
        2
176
     1
 90
        2
176
     1
 62
     7
176
     1
 62
   257
176
     1
 90
        2
176
     1
 90
        1
176
     1
 40
40.0
176
     1
 90
        0
176
     1
 62
   257
176
     1
 40
1.0
176
     1
 90
        1
176
     1
 90
        6
176
     1
 90
        2
176
     1
 62
     7
176
     1
 90
        3
176
     1
 90
        0
176
     1
 90
        0
176
     1
290
     0
176
     1
 90
        1
176
     1
 40
0.0
176
     1
 90
        0
176
     1
290
     0
176
     1
290
     1
176
     1
290
     1
176
     1
290
     0
176
     1
290
     0
176
     1
290
     0
176
     1
290
     0
176
     1
290
     0
176
     1
290
     0
176
     1
 90
       50
176
     1
 40
0.0
176
     1
 40
1.0
176
     1
 90
        0
176
     1
 62
    18
420
        0
176
     1
 90
       50
176
     1
 90
        3
176
     1
 62
     5
420
      255
176
     1
290
     0
176
     1
 90
       50
176
     1
 90
       50
176
     1
 90
       50
176
     1
290
     0
176
     1
 90
       50
176
     1
 62
   256
176
     0
 40
1.0
176
     0
 90
        2
176
     1
  1
strokes_ogs.tif
176
     1
290
     0
176
     1
 40
1.0
176
     1
 40
1.0
176
     1
1001
ACAD
1000
AcRTDxfName
1000
VISUALSTYLE
1000
AcRTDxfName
1000
VISUALSTYLE
1000
AcRTDxfName
1000
VISUALSTYLE
1000
AcRTDxfName
1000
VISUALSTYLE
1000
AcRTDxfName
1000
VISUALSTYLE
1000
AcRTDxfName
1000
VISUALSTYLE
1000
AcRTDxfName
1000
VISUALSTYLE
1000
AcRTDxfName
1000
VISUALSTYLE
  0
VISUALSTYLE
  5
984E
102
{ACAD_REACTORS
330
9847
102
}
330
9847
100
AcDbVisualStyle
  2
3dWireframe
 70
     5
177
     3
291
     0
 70
    58
 90
        0
176
     1
 90
        2
176
     1
 90
        0
176
     1
 90
        0
176
     1
 40
0.6
176
     1
 40
30.0
176
     1
 62
     7
176
     1
 90
        1
176
     1
 90
        4
176
     1
 62
     7
176
     1
 62
   257
176
     1
 90
        1
176
     1
 90
        1
176
     1
 40
1.0
176
     1
 90
        0
176
     1
 62
   257
176
     1
 40
1.0
176
     1
 90
        1
176
     1
 90
        6
176
     1
 90
        2
176
     1
 62
     7
176
     1
 90
        5
176
     1
 90
        0
176
     1
 90
        0
176
     1
290
     0
176
     1
 90
        1
176
     1
 40
0.0
176
     1
 90
        0
176
     1
290
     0
176
     1
290
     1
176
     1
290
     1
176
     1
290
     0
176
     1
290
     0
176
     1
290
     0
176
     1
290
     0
176
     1
290
     0
176
     1
290
     0
176
     1
 90
       50
176
     1
 40
0.0
176
     1
 40
1.0
176
     1
 90
        0
176
     1
 62
    18
420
        0
176
     1
 90
       50
176
     1
 90
        3
176
     1
 62
     5
420
      255
176
     1
290
     0
176
     1
 90
       50
176
     1
 90
       50
176
     1
 90
       50
176
     1
290
     0
176
     1
 90
       50
176
     1
 62
   256
176
     0
 40
1.0
176
     0
 90
        2
176
     1
  1
strokes_ogs.tif
176
     1
290
     0
176
     1
 40
1.0
176
     1
 40
1.0
176
     1
1001
ACAD
1000
AcRTDxfName
1000
VISUALSTYLE
1000
AcRTDxfName
1000
VISUALSTYLE
1000
AcRTDxfName
1000
VISUALSTYLE
1000
AcRTDxfName
1000
VISUALSTYLE
1000
AcRTDxfName
1000
VISUALSTYLE
1000
AcRTDxfName
1000
VISUALSTYLE
1000
AcRTDxfName
1000
VISUALSTYLE
1000
AcRTDxfName
1000
VISUALSTYLE
  0
VISUALSTYLE
  5
984C
102
{ACAD_REACTORS
330
9847
102
}
330
9847
100
AcDbVisualStyle
  2
Basic
 70
     7
177
     3
291
     1
 70
    58
 90
        1
176
     1
 90
        0
176
     1
 90
        1
176
     1
 90
        0
176
     1
 40
0.6
176
     1
 40
30.0
176
     1
 62
     7
176
     1
 90
        0
176
     1
 90
        4
176
     1
 62
     7
176
     1
 62
   257
176
     1
 90
        1
176
     1
 90
        1
176
     1
 40
1.0
176
     1
 90
        8
176
     1
 62
     7
176
     1
 40
1.0
176
     1
 90
        1
176
     1
 90
        6
176
     1
 90
        2
176
     1
 62
     7
176
     1
 90
        5
176
     1
 90
        0
176
     1
 90
        0
176
     1
290
     0
176
     1
 90
        1
176
     1
 40
0.0
176
     1
 90
        0
176
     1
290
     0
176
     1
290
     1
176
     1
290
     1
176
     1
290
     0
176
     1
290
     0
176
     1
290
     0
176
     1
290
     0
176
     1
290
     0
176
     1
290
     0
176
     1
 90
       50
176
     1
 40
0.0
176
     1
 40
1.0
176
     1
 90
        0
176
     1
 62
    18
420
        0
176
     1
 90
       50
176
     1
 90
        3
176
     1
 62
     5
420
      255
176
     1
290
     0
176
     1
 90
       50
176
     1
 90
       50
176
     1
 90
       50
176
     1
290
     0
176
     1
 90
       50
176
     1
 62
   256
176
     0
 40
1.0
176
     0
 90
        2
176
     1
  1
strokes_ogs.tif
176
     1
290
     0
176
     1
 40
1.0
176
     1
 40
1.0
176
     1
1001
ACAD
1000
AcRTDxfName
1000
VISUALSTYLE
1000
AcRTDxfName
1000
VISUALSTYLE
1000
AcRTDxfName
1000
VISUALSTYLE
1000
AcRTDxfName
1000
VISUALSTYLE
1000
AcRTDxfName
1000
VISUALSTYLE
1000
AcRTDxfName
1000
VISUALSTYLE
1000
AcRTDxfName
1000
VISUALSTYLE
1000
AcRTDxfName
1000
VISUALSTYLE
  0
VISUALSTYLE
  5
9853
102
{ACAD_REACTORS
330
9847
102
}
330
9847
100
AcDbVisualStyle
  2
Brighten
 70
    12
177
     3
291
     1
 70
    58
 90
        2
176
     1
 90
        2
176
     1
 90
        0
176
     1
 90
        0
176
     1
 40
0.6
176
     1
 40
30.0
176
     1
 62
     7
176
     1
 90
        1
176
     1
 90
        4
176
     1
 62
     7
176
     1
 62
   257
176
     1
 90
        1
176
     1
 90
        1
176
     1
 40
1.0
176
     1
 90
        8
176
     1
 62
     7
176
     1
 40
1.0
176
     1
 90
        1
176
     1
 90
        6
176
     1
 90
        2
176
     1
 62
     7
176
     1
 90
        5
176
     1
 90
        0
176
     1
 90
        0
176
     1
290
     0
176
     1
 90
        1
176
     1
 40
50.0
176
     1
 90
        0
176
     1
290
     0
176
     1
290
     1
176
     1
290
     1
176
     1
290
     0
176
     1
290
     0
176
     1
290
     0
176
     1
290
     0
176
     1
290
     0
176
     1
290
     0
176
     1
 90
       50
176
     1
 40
0.0
176
     1
 40
1.0
176
     1
 90
        0
176
     1
 62
    18
420
        0
176
     1
 90
       50
176
     1
 90
        3
176
     1
 62
     5
420
      255
176
     1
290
     0
176
     1
 90
       50
176
     1
 90
       50
176
     1
 90
       50
176
     1
290
     0
176
     1
 90
       50
176
     1
 62
   256
176
     0
 40
1.0
176
     0
 90
        2
176
     1
  1
strokes_ogs.tif
176
     1
290
     0
176
     1
 40
1.0
176
     1
 40
1.0
176
     1
1001
ACAD
1000
AcRTDxfName
1000
VISUALSTYLE
1000
AcRTDxfName
1000
VISUALSTYLE
1000
AcRTDxfName
1000
VISUALSTYLE
1000
AcRTDxfName
1000
VISUALSTYLE
1000
AcRTDxfName
1000
VISUALSTYLE
1000
AcRTDxfName
1000
VISUALSTYLE
1000
AcRTDxfName
1000
VISUALSTYLE
1000
AcRTDxfName
1000
VISUALSTYLE
  0
VISUALSTYLE
  5
9857
102
{ACAD_REACTORS
330
9847
102
}
330
9847
100
AcDbVisualStyle
  2
ColorChange
 70
    16
177
     3
291
     1
 70
    58
 90
        2
176
     1
 90
        2
176
     1
 90
        3
176
     1
 90
        0
176
     1
 40
0.6
176
     1
 40
30.0
176
     1
 62
     8
176
     1
 90
        1
176
     1
 90
        4
176
     1
 62
     7
176
     1
 62
   257
176
     1
 90
        1
176
     1
 90
        1
176
     1
 40
1.0
176
     1
 90
        8
176
     1
 62
     8
176
     1
 40
1.0
176
     1
 90
        1
176
     1
 90
        6
176
     1
 90
        2
176
     1
 62
     7
176
     1
 90
        5
176
     1
 90
        0
176
     1
 90
        0
176
     1
290
     0
176
     1
 90
        1
176
     1
 40
0.0
176
     1
 90
        0
176
     1
290
     0
176
     1
290
     1
176
     1
290
     1
176
     1
290
     0
176
     1
290
     0
176
     1
290
     0
176
     1
290
     0
176
     1
290
     0
176
     1
290
     0
176
     1
 90
       50
176
     1
 40
0.0
176
     1
 40
1.0
176
     1
 90
        0
176
     1
 62
    18
420
        0
176
     1
 90
       50
176
     1
 90
        3
176
     1
 62
     5
420
      255
176
     1
290
     0
176
     1
 90
       50
176
     1
 90
       50
176
     1
 90
       50
176
     1
290
     0
176
     1
 90
       50
176
     1
 62
   256
176
     0
 40
1.0
176
     0
 90
        2
176
     1
  1
strokes_ogs.tif
176
     1
290
     0
176
     1
 40
1.0
176
     1
 40
1.0
176
     1
1001
ACAD
1000
AcRTDxfName
1000
VISUALSTYLE
1000
AcRTDxfName
1000
VISUALSTYLE
1000
AcRTDxfName
1000
VISUALSTYLE
1000
AcRTDxfName
1000
VISUALSTYLE
1000
AcRTDxfName
1000
VISUALSTYLE
1000
AcRTDxfName
1000
VISUALSTYLE
1000
AcRTDxfName
1000
VISUALSTYLE
1000
AcRTDxfName
1000
VISUALSTYLE
  0
VISUALSTYLE
  5
9850
102
{ACAD_REACTORS
330
9847
102
}
330
9847
100
AcDbVisualStyle
  2
Conceptual
 70
     9
177
     3
291
     0
 70
    58
 90
        3
176
     1
 90
        2
176
     1
 90
        0
176
     1
 90
        0
176
     1
 40
0.6
176
     1
 40
30.0
176
     1
 62
     7
176
     1
 90
        2
176
     1
 90
        2
176
     1
 62
     7
176
     1
 62
   257
176
     1
 90
        1
176
     1
 90
        1
176
     1
 40
40.0
176
     1
 90
        8
176
     1
 62
     7
176
     1
 40
1.0
176
     1
 90
        1
176
     1
 90
        6
176
     1
 90
        2
176
     1
 62
     7
176
     1
 90
        3
176
     1
 90
        0
176
     1
 90
        0
176
     1
290
     0
176
     1
 90
        1
176
     1
 40
0.0
176
     1
 90
        0
176
     1
290
     0
176
     1
290
     1
176
     1
290
     1
176
     1
290
     0
176
     1
290
     0
176
     1
290
     0
176
     1
290
     0
176
     1
290
     0
176
     1
290
     0
176
     1
 90
       50
176
     1
 40
0.0
176
     1
 40
1.0
176
     1
 90
        0
176
     1
 62
    18
420
        0
176
     1
 90
       50
176
     1
 90
        3
176
     1
 62
     5
420
      255
176
     1
290
     0
176
     1
 90
       50
176
     1
 90
       50
176
     1
 90
       50
176
     1
290
     0
176
     1
 90
       50
176
     1
 62
   256
176
     0
 40
1.0
176
     0
 90
        2
176
     1
  1
strokes_ogs.tif
176
     1
290
     0
176
     1
 40
1.0
176
     1
 40
1.0
176
     1
1001
ACAD
1000
AcRTDxfName
1000
VISUALSTYLE
1000
AcRTDxfName
1000
VISUALSTYLE
1000
AcRTDxfName
1000
VISUALSTYLE
1000
AcRTDxfName
1000
VISUALSTYLE
1000
AcRTDxfName
1000
VISUALSTYLE
1000
AcRTDxfName
1000
VISUALSTYLE
1000
AcRTDxfName
1000
VISUALSTYLE
1000
AcRTDxfName
1000
VISUALSTYLE
  0
VISUALSTYLE
  5
9852
102
{ACAD_REACTORS
330
9847
102
}
330
9847
100
AcDbVisualStyle
  2
Dim
 70
    11
177
     3
291
     1
 70
    58
 90
        2
176
     1
 90
        2
176
     1
 90
        0
176
     1
 90
        0
176
     1
 40
0.6
176
     1
 40
30.0
176
     1
 62
     7
176
     1
 90
        1
176
     1
 90
        4
176
     1
 62
     7
176
     1
 62
   257
176
     1
 90
        1
176
     1
 90
        1
176
     1
 40
1.0
176
     1
 90
        8
176
     1
 62
     7
176
     1
 40
1.0
176
     1
 90
        1
176
     1
 90
        6
176
     1
 90
        2
176
     1
 62
     7
176
     1
 90
        5
176
     1
 90
        0
176
     1
 90
        0
176
     1
290
     0
176
     1
 90
        1
176
     1
 40
-50.0
176
     1
 90
        0
176
     1
290
     0
176
     1
290
     1
176
     1
290
     1
176
     1
290
     0
176
     1
290
     0
176
     1
290
     0
176
     1
290
     0
176
     1
290
     0
176
     1
290
     0
176
     1
 90
       50
176
     1
 40
0.0
176
     1
 40
1.0
176
     1
 90
        0
176
     1
 62
    18
420
        0
176
     1
 90
       50
176
     1
 90
        3
176
     1
 62
     5
420
      255
176
     1
290
     0
176
     1
 90
       50
176
     1
 90
       50
176
     1
 90
       50
176
     1
290
     0
176
     1
 90
       50
176
     1
 62
   256
176
     0
 40
1.0
176
     0
 90
        2
176
     1
  1
strokes_ogs.tif
176
     1
290
     0
176
     1
 40
1.0
176
     1
 40
1.0
176
     1
1001
ACAD
1000
AcRTDxfName
1000
VISUALSTYLE
1000
AcRTDxfName
1000
VISUALSTYLE
1000
AcRTDxfName
1000
VISUALSTYLE
1000
AcRTDxfName
1000
VISUALSTYLE
1000
AcRTDxfName
1000
VISUALSTYLE
1000
AcRTDxfName
1000
VISUALSTYLE
1000
AcRTDxfName
1000
VISUALSTYLE
1000
AcRTDxfName
1000
VISUALSTYLE
  0
VISUALSTYLE
  5
60636FD
102
{ACAD_REACTORS
330
9847
102
}
330
9847
100
AcDbVisualStyle
  2
EdgeColorOff
 70
    22
177
     3
291
     1
 70
    58
 90
        2
176
     0
 90
        2
176
     0
 90
        0
176
     0
 90
        0
176
     0
 40
0.6
176
     0
 40
30.0
176
     0
 62
     7
420
 16777215
176
     0
 90
        1
176
     0
 90
        4
176
     0
 62
     7
176
     0
 62
   257
176
     0
 90
        1
176
     0
 90
        1
176
     0
 40
1.0
176
     0
 90
        8
176
     2
 62
     7
176
     0
 40
1.0
176
     0
 90
        1
176
     0
 90
        6
176
     0
 90
        2
176
     0
 62
     7
176
     0
 90
        5
176
     0
 90
        0
176
     0
 90
        0
176
     0
290
     0
176
     0
 90
        1
176
     0
 40
0.0
176
     0
 90
        0
176
     0
290
     0
176
     0
290
     1
176
     0
290
     1
176
     0
290
     0
176
     0
290
     0
176
     0
290
     0
176
     0
290
     0
176
     0
290
     0
176
     0
290
     0
176
     0
 90
       50
176
     0
 40
0.0
176
     0
 40
1.0
176
     0
 90
        0
176
     0
 62
    18
420
        0
176
     0
 90
       50
176
     0
 90
        3
176
     0
 62
     5
420
      255
176
     0
290
     0
176
     0
 90
       50
176
     0
 90
       50
176
     0
 90
       50
176
     0
290
     0
176
     0
 90
       50
176
     0
 62
   256
176
     0
 40
1.0
176
     0
 90
        2
176
     0
  1
strokes_ogs.tif
176
     0
290
     0
176
     0
 40
1.0
176
     0
 40
1.0
176
     0
  0
VISUALSTYLE
  5
9856
102
{ACAD_REACTORS
330
9847
102
}
330
9847
100
AcDbVisualStyle
  2
Facepattern
 70
    15
177
     3
291
     1
 70
    58
 90
        2
176
     1
 90
        2
176
     1
 90
        0
176
     1
 90
        0
176
     1
 40
0.6
176
     1
 40
30.0
176
     1
 62
     7
176
     1
 90
        1
176
     1
 90
        4
176
     1
 62
     7
176
     1
 62
   257
176
     1
 90
        1
176
     1
 90
        1
176
     1
 40
1.0
176
     1
 90
        8
176
     1
 62
     7
176
     1
 40
1.0
176
     1
 90
        1
176
     1
 90
        6
176
     1
 90
        2
176
     1
 62
     7
176
     1
 90
        5
176
     1
 90
        0
176
     1
 90
        0
176
     1
290
     0
176
     1
 90
        1
176
     1
 40
0.0
176
     1
 90
        0
176
     1
290
     0
176
     1
290
     1
176
     1
290
     1
176
     1
290
     0
176
     1
290
     0
176
     1
290
     0
176
     1
290
     0
176
     1
290
     0
176
     1
290
     0
176
     1
 90
       50
176
     1
 40
0.0
176
     1
 40
1.0
176
     1
 90
        0
176
     1
 62
    18
420
        0
176
     1
 90
       50
176
     1
 90
        3
176
     1
 62
     5
420
      255
176
     1
290
     0
176
     1
 90
       50
176
     1
 90
       50
176
     1
 90
       50
176
     1
290
     0
176
     1
 90
       50
176
     1
 62
   256
176
     0
 40
1.0
176
     0
 90
        2
176
     1
  1
strokes_ogs.tif
176
     1
290
     0
176
     1
 40
1.0
176
     1
 40
1.0
176
     1
1001
ACAD
1000
AcRTDxfName
1000
VISUALSTYLE
1000
AcRTDxfName
1000
VISUALSTYLE
1000
AcRTDxfName
1000
VISUALSTYLE
1000
AcRTDxfName
1000
VISUALSTYLE
1000
AcRTDxfName
1000
VISUALSTYLE
1000
AcRTDxfName
1000
VISUALSTYLE
1000
AcRTDxfName
1000
VISUALSTYLE
1000
AcRTDxfName
1000
VISUALSTYLE
  0
VISUALSTYLE
  5
9848
102
{ACAD_REACTORS
330
9847
102
}
330
9847
100
AcDbVisualStyle
  2
Flat
 70
     0
177
     3
291
     1
 70
    58
 90
        2
176
     1
 90
        1
176
     1
 90
        1
176
     1
 90
        2
176
     1
 40
0.6
176
     1
 40
30.0
176
     1
 62
     7
176
     1
 90
        0
176
     1
 90
        4
176
     1
 62
     7
176
     1
 62
   257
176
     1
 90
        1
176
     1
 90
        1
176
     1
 40
1.0
176
     1
 90
        8
176
     1
 62
     7
176
     1
 40
1.0
176
     1
 90
        1
176
     1
 90
        6
176
     1
 90
        2
176
     1
 62
     7
176
     1
 90
        5
176
     1
 90
        0
176
     1
 90
        0
176
     1
290
     0
176
     1
 90
       13
176
     1
 40
0.0
176
     1
 90
        0
176
     1
290
     0
176
     1
290
     1
176
     1
290
     1
176
     1
290
     0
176
     1
290
     0
176
     1
290
     0
176
     1
290
     0
176
     1
290
     0
176
     1
290
     0
176
     1
 90
       50
176
     1
 40
0.0
176
     1
 40
1.0
176
     1
 90
        0
176
     1
 62
    18
420
        0
176
     1
 90
       50
176
     1
 90
        3
176
     1
 62
     5
420
      255
176
     1
290
     0
176
     1
 90
       50
176
     1
 90
       50
176
     1
 90
       50
176
     1
290
     0
176
     1
 90
       50
176
     1
 62
   256
176
     0
 40
1.0
176
     0
 90
        2
176
     1
  1
strokes_ogs.tif
176
     1
290
     0
176
     1
 40
1.0
176
     1
 40
1.0
176
     1
1001
ACAD
1000
AcRTDxfName
1000
VISUALSTYLE
1000
AcRTDxfName
1000
VISUALSTYLE
1000
AcRTDxfName
1000
VISUALSTYLE
1000
AcRTDxfName
1000
VISUALSTYLE
1000
AcRTDxfName
1000
VISUALSTYLE
1000
AcRTDxfName
1000
VISUALSTYLE
1000
AcRTDxfName
1000
VISUALSTYLE
1000
AcRTDxfName
1000
VISUALSTYLE
  0
VISUALSTYLE
  5
9849
102
{ACAD_REACTORS
330
9847
102
}
330
9847
100
AcDbVisualStyle
  2
FlatWithEdges
 70
     1
177
     3
291
     1
 70
    58
 90
        2
176
     1
 90
        1
176
     1
 90
        1
176
     1
 90
        2
176
     1
 40
0.6
176
     1
 40
30.0
176
     1
 62
     7
176
     1
 90
        1
176
     1
 90
        4
176
     1
 62
     7
176
     1
 62
   257
176
     1
 90
        1
176
     1
 90
        1
176
     1
 40
1.0
176
     1
 90
        0
176
     1
 62
   257
176
     1
 40
1.0
176
     1
 90
        1
176
     1
 90
        6
176
     1
 90
        2
176
     1
 62
     7
176
     1
 90
        5
176
     1
 90
        0
176
     1
 90
        0
176
     1
290
     0
176
     1
 90
       13
176
     1
 40
0.0
176
     1
 90
        0
176
     1
290
     0
176
     1
290
     1
176
     1
290
     1
176
     1
290
     0
176
     1
290
     0
176
     1
290
     0
176
     1
290
     0
176
     1
290
     0
176
     1
290
     0
176
     1
 90
       50
176
     1
 40
0.0
176
     1
 40
1.0
176
     1
 90
        0
176
     1
 62
    18
420
        0
176
     1
 90
       50
176
     1
 90
        3
176
     1
 62
     5
420
      255
176
     1
290
     0
176
     1
 90
       50
176
     1
 90
       50
176
     1
 90
       50
176
     1
290
     0
176
     1
 90
       50
176
     1
 62
   256
176
     0
 40
1.0
176
     0
 90
        2
176
     1
  1
strokes_ogs.tif
176
     1
290
     0
176
     1
 40
1.0
176
     1
 40
1.0
176
     1
1001
ACAD
1000
AcRTDxfName
1000
VISUALSTYLE
1000
AcRTDxfName
1000
VISUALSTYLE
1000
AcRTDxfName
1000
VISUALSTYLE
1000
AcRTDxfName
1000
VISUALSTYLE
1000
AcRTDxfName
1000
VISUALSTYLE
1000
AcRTDxfName
1000
VISUALSTYLE
1000
AcRTDxfName
1000
VISUALSTYLE
1000
AcRTDxfName
1000
VISUALSTYLE
  0
VISUALSTYLE
  5
984A
102
{ACAD_REACTORS
330
9847
102
}
330
9847
100
AcDbVisualStyle
  2
Gouraud
 70
     2
177
     3
291
     1
 70
    58
 90
        2
176
     1
 90
        2
176
     1
 90
        1
176
     1
 90
        2
176
     1
 40
0.6
176
     1
 40
30.0
176
     1
 62
     7
176
     1
 90
        0
176
     1
 90
        4
176
     1
 62
     7
176
     1
 62
   257
176
     1
 90
        1
176
     1
 90
        1
176
     1
 40
1.0
176
     1
 90
        0
176
     1
 62
     7
176
     1
 40
1.0
176
     1
 90
        1
176
     1
 90
        6
176
     1
 90
        2
176
     1
 62
     7
176
     1
 90
        5
176
     1
 90
        0
176
     1
 90
        0
176
     1
290
     0
176
     1
 90
       13
176
     1
 40
0.0
176
     1
 90
        0
176
     1
290
     0
176
     1
290
     1
176
     1
290
     1
176
     1
290
     0
176
     1
290
     0
176
     1
290
     0
176
     1
290
     0
176
     1
290
     0
176
     1
290
     0
176
     1
 90
       50
176
     1
 40
0.0
176
     1
 40
1.0
176
     1
 90
        0
176
     1
 62
    18
420
        0
176
     1
 90
       50
176
     1
 90
        3
176
     1
 62
     5
420
      255
176
     1
290
     0
176
     1
 90
       50
176
     1
 90
       50
176
     1
 90
       50
176
     1
290
     0
176
     1
 90
       50
176
     1
 62
   256
176
     0
 40
1.0
176
     0
 90
        2
176
     1
  1
strokes_ogs.tif
176
     1
290
     0
176
     1
 40
1.0
176
     1
 40
1.0
176
     1
1001
ACAD
1000
AcRTDxfName
1000
VISUALSTYLE
1000
AcRTDxfName
1000
VISUALSTYLE
1000
AcRTDxfName
1000
VISUALSTYLE
1000
AcRTDxfName
1000
VISUALSTYLE
1000
AcRTDxfName
1000
VISUALSTYLE
1000
AcRTDxfName
1000
VISUALSTYLE
1000
AcRTDxfName
1000
VISUALSTYLE
1000
AcRTDxfName
1000
VISUALSTYLE
  0
VISUALSTYLE
  5
984B
102
{ACAD_REACTORS
330
9847
102
}
330
9847
100
AcDbVisualStyle
  2
GouraudWithEdges
 70
     3
177
     3
291
     1
 70
    58
 90
        2
176
     1
 90
        2
176
     1
 90
        1
176
     1
 90
        2
176
     1
 40
0.6
176
     1
 40
30.0
176
     1
 62
     7
176
     1
 90
        1
176
     1
 90
        4
176
     1
 62
     7
176
     1
 62
   257
176
     1
 90
        1
176
     1
 90
        1
176
     1
 40
1.0
176
     1
 90
        0
176
     1
 62
   257
176
     1
 40
1.0
176
     1
 90
        1
176
     1
 90
        6
176
     1
 90
        2
176
     1
 62
     7
176
     1
 90
        5
176
     1
 90
        0
176
     1
 90
        0
176
     1
290
     0
176
     1
 90
       13
176
     1
 40
0.0
176
     1
 90
        0
176
     1
290
     0
176
     1
290
     1
176
     1
290
     1
176
     1
290
     0
176
     1
290
     0
176
     1
290
     0
176
     1
290
     0
176
     1
290
     0
176
     1
290
     0
176
     1
 90
       50
176
     1
 40
0.0
176
     1
 40
1.0
176
     1
 90
        0
176
     1
 62
    18
420
        0
176
     1
 90
       50
176
     1
 90
        3
176
     1
 62
     5
420
      255
176
     1
290
     0
176
     1
 90
       50
176
     1
 90
       50
176
     1
 90
       50
176
     1
290
     0
176
     1
 90
       50
176
     1
 62
   256
176
     0
 40
1.0
176
     0
 90
        2
176
     1
  1
strokes_ogs.tif
176
     1
290
     0
176
     1
 40
1.0
176
     1
 40
1.0
176
     1
1001
ACAD
1000
AcRTDxfName
1000
VISUALSTYLE
1000
AcRTDxfName
1000
VISUALSTYLE
1000
AcRTDxfName
1000
VISUALSTYLE
1000
AcRTDxfName
1000
VISUALSTYLE
1000
AcRTDxfName
1000
VISUALSTYLE
1000
AcRTDxfName
1000
VISUALSTYLE
1000
AcRTDxfName
1000
VISUALSTYLE
1000
AcRTDxfName
1000
VISUALSTYLE
  0
VISUALSTYLE
  5
60636F5
102
{ACAD_REACTORS
330
9847
102
}
330
9847
100
AcDbVisualStyle
  2
Hidden
 70
     6
177
     3
291
     0
 70
    58
 90
        1
176
     1
 90
        2
176
     1
 90
        2
176
     1
 90
        0
176
     1
 40
0.6
176
     1
 40
30.0
176
     1
 62
     7
420
 16777215
176
     1
 90
        2
176
     1
 90
        2
176
     1
 62
     7
176
     1
 62
   257
176
     1
 90
        2
176
     1
 90
        1
176
     1
 40
40.0
176
     1
 90
        0
176
     1
 62
   257
176
     1
 40
1.0
176
     1
 90
        1
176
     1
 90
        6
176
     1
 90
        2
176
     1
 62
     7
176
     1
 90
        3
176
     1
 90
        0
176
     1
 90
        0
176
     1
290
     0
176
     1
 90
        1
176
     1
 40
0.0
176
     1
 90
        0
176
     1
290
     0
176
     1
290
     1
176
     1
290
     1
176
     1
290
     0
176
     1
290
     0
176
     1
290
     0
176
     1
290
     0
176
     1
290
     0
176
     1
290
     0
176
     1
 90
       50
176
     1
 40
0.0
176
     1
 40
1.0
176
     1
 90
        0
176
     1
 62
    18
420
        0
176
     1
 90
       50
176
     1
 90
        3
176
     1
 62
     5
420
      255
176
     1
290
     0
176
     1
 90
       50
176
     1
 90
       50
176
     1
 90
       50
176
     1
290
     0
176
     1
 90
       50
176
     1
 62
   256
176
     0
 40
1.0
176
     0
 90
        2
176
     1
  1
strokes_ogs.tif
176
     1
290
     0
176
     1
 40
1.0
176
     1
 40
1.0
176
     1
  0
VISUALSTYLE
  5
60636FB
102
{ACAD_REACTORS
330
9847
102
}
330
9847
100
AcDbVisualStyle
  2
JitterOff
 70
    20
177
     3
291
     1
 70
    58
 90
        2
176
     0
 90
        2
176
     0
 90
        0
176
     0
 90
        0
176
     0
 40
0.6
176
     0
 40
30.0
176
     0
 62
     7
420
 16777215
176
     0
 90
        1
176
     0
 90
        4
176
     0
 62
     7
176
     0
 62
   257
176
     0
 90
        1
176
     0
 90
        1
176
     0
 40
1.0
176
     0
 90
       10
176
     2
 62
     7
176
     0
 40
1.0
176
     0
 90
        1
176
     0
 90
        6
176
     0
 90
        2
176
     0
 62
     7
176
     0
 90
        5
176
     0
 90
        0
176
     0
 90
        0
176
     0
290
     0
176
     0
 90
        1
176
     0
 40
0.0
176
     0
 90
        0
176
     0
290
     0
176
     0
290
     1
176
     0
290
     1
176
     0
290
     0
176
     0
290
     0
176
     0
290
     0
176
     0
290
     0
176
     0
290
     0
176
     0
290
     0
176
     0
 90
       50
176
     0
 40
0.0
176
     0
 40
1.0
176
     0
 90
        0
176
     0
 62
    18
420
        0
176
     0
 90
       50
176
     0
 90
        3
176
     0
 62
     5
420
      255
176
     0
290
     0
176
     0
 90
       50
176
     0
 90
       50
176
     0
 90
       50
176
     0
290
     0
176
     0
 90
       50
176
     0
 62
   256
176
     0
 40
1.0
176
     0
 90
        2
176
     0
  1
strokes_ogs.tif
176
     0
290
     0
176
     0
 40
1.0
176
     0
 40
1.0
176
     0
  0
VISUALSTYLE
  5
9855
102
{ACAD_REACTORS
330
9847
102
}
330
9847
100
AcDbVisualStyle
  2
Linepattern
 70
    14
177
     3
291
     1
 70
    58
 90
        2
176
     1
 90
        2
176
     1
 90
        0
176
     1
 90
        0
176
     1
 40
0.6
176
     1
 40
30.0
176
     1
 62
     7
176
     1
 90
        1
176
     1
 90
        4
176
     1
 62
     7
176
     1
 62
   257
176
     1
 90
        7
176
     1
 90
        7
176
     1
 40
1.0
176
     1
 90
        8
176
     1
 62
     7
176
     1
 40
1.0
176
     1
 90
        1
176
     1
 90
        6
176
     1
 90
        2
176
     1
 62
     7
176
     1
 90
        5
176
     1
 90
        0
176
     1
 90
        0
176
     1
290
     0
176
     1
 90
        1
176
     1
 40
0.0
176
     1
 90
        0
176
     1
290
     0
176
     1
290
     1
176
     1
290
     1
176
     1
290
     0
176
     1
290
     0
176
     1
290
     0
176
     1
290
     0
176
     1
290
     0
176
     1
290
     0
176
     1
 90
       50
176
     1
 40
0.0
176
     1
 40
1.0
176
     1
 90
        0
176
     1
 62
    18
420
        0
176
     1
 90
       50
176
     1
 90
        3
176
     1
 62
     5
420
      255
176
     1
290
     0
176
     1
 90
       50
176
     1
 90
       50
176
     1
 90
       50
176
     1
290
     0
176
     1
 90
       50
176
     1
 62
   256
176
     0
 40
1.0
176
     0
 90
        2
176
     1
  1
strokes_ogs.tif
176
     1
290
     0
176
     1
 40
1.0
176
     1
 40
1.0
176
     1
1001
ACAD
1000
AcRTDxfName
1000
VISUALSTYLE
1000
AcRTDxfName
1000
VISUALSTYLE
1000
AcRTDxfName
1000
VISUALSTYLE
1000
AcRTDxfName
1000
VISUALSTYLE
1000
AcRTDxfName
1000
VISUALSTYLE
1000
AcRTDxfName
1000
VISUALSTYLE
1000
AcRTDxfName
1000
VISUALSTYLE
1000
AcRTDxfName
1000
VISUALSTYLE
  0
VISUALSTYLE
  5
60636FC
102
{ACAD_REACTORS
330
9847
102
}
330
9847
100
AcDbVisualStyle
  2
OverhangOff
 70
    21
177
     3
291
     1
 70
    58
 90
        2
176
     0
 90
        2
176
     0
 90
        0
176
     0
 90
        0
176
     0
 40
0.6
176
     0
 40
30.0
176
     0
 62
     7
420
 16777215
176
     0
 90
        1
176
     0
 90
        4
176
     0
 62
     7
176
     0
 62
   257
176
     0
 90
        1
176
     0
 90
        1
176
     0
 40
1.0
176
     0
 90
        9
176
     2
 62
     7
176
     0
 40
1.0
176
     0
 90
        1
176
     0
 90
        6
176
     0
 90
        2
176
     0
 62
     7
176
     0
 90
        5
176
     0
 90
        0
176
     0
 90
        0
176
     0
290
     0
176
     0
 90
        1
176
     0
 40
0.0
176
     0
 90
        0
176
     0
290
     0
176
     0
290
     1
176
     0
290
     1
176
     0
290
     0
176
     0
290
     0
176
     0
290
     0
176
     0
290
     0
176
     0
290
     0
176
     0
290
     0
176
     0
 90
       50
176
     0
 40
0.0
176
     0
 40
1.0
176
     0
 90
        0
176
     0
 62
    18
420
        0
176
     0
 90
       50
176
     0
 90
        3
176
     0
 62
     5
420
      255
176
     0
290
     0
176
     0
 90
       50
176
     0
 90
       50
176
     0
 90
       50
176
     0
290
     0
176
     0
 90
       50
176
     0
 62
   256
176
     0
 40
1.0
176
     0
 90
        2
176
     0
  1
strokes_ogs.tif
176
     0
290
     0
176
     0
 40
1.0
176
     0
 40
1.0
176
     0
  0
VISUALSTYLE
  5
9851
102
{ACAD_REACTORS
330
9847
102
}
330
9847
100
AcDbVisualStyle
  2
Realistic
 70
     8
177
     3
291
     0
 70
    58
 90
        2
176
     1
 90
        2
176
     1
 90
        0
176
     1
 90
        0
176
     1
 40
0.6
176
     1
 40
30.0
176
     1
 62
     7
176
     1
 90
        1
176
     1
 90
        0
176
     1
 62
     7
176
     1
 62
   257
176
     1
 90
        1
176
     1
 90
        1
176
     1
 40
1.0
176
     1
 90
        8
176
     1
 62
     8
176
     1
 40
1.0
176
     1
 90
        1
176
     1
 90
        6
176
     1
 90
        2
176
     1
 62
     7
176
     1
 90
        5
176
     1
 90
        0
176
     1
 90
        0
176
     1
290
     0
176
     1
 90
       13
176
     1
 40
0.0
176
     1
 90
        0
176
     1
290
     0
176
     1
290
     1
176
     1
290
     1
176
     1
290
     0
176
     1
290
     0
176
     1
290
     0
176
     1
290
     0
176
     1
290
     0
176
     1
290
     0
176
     1
 90
       50
176
     1
 40
0.0
176
     1
 40
1.0
176
     1
 90
        0
176
     1
 62
    18
420
        0
176
     1
 90
       50
176
     1
 90
        3
176
     1
 62
     5
420
      255
176
     1
290
     0
176
     1
 90
       50
176
     1
 90
       50
176
     1
 90
       50
176
     1
290
     0
176
     1
 90
       50
176
     1
 62
   256
176
     0
 40
1.0
176
     0
 90
        2
176
     1
  1
strokes_ogs.tif
176
     1
290
     0
176
     1
 40
1.0
176
     1
 40
1.0
176
     1
1001
ACAD
1000
AcRTDxfName
1000
VISUALSTYLE
1000
AcRTDxfName
1000
VISUALSTYLE
1000
AcRTDxfName
1000
VISUALSTYLE
1000
AcRTDxfName
1000
VISUALSTYLE
1000
AcRTDxfName
1000
VISUALSTYLE
1000
AcRTDxfName
1000
VISUALSTYLE
1000
AcRTDxfName
1000
VISUALSTYLE
1000
AcRTDxfName
1000
VISUALSTYLE
  0
VISUALSTYLE
  5
60636FA
102
{ACAD_REACTORS
330
9847
102
}
330
9847
100
AcDbVisualStyle
  2
Shaded
 70
    27
177
     3
291
     0
 70
    58
 90
        2
176
     1
 90
        2
176
     1
 90
        1
176
     1
 90
        2
176
     1
 40
0.6
176
     1
 40
30.0
176
     1
 62
     7
420
 16777215
176
     1
 90
        0
176
     1
 90
        4
176
     1
 62
     7
176
     1
 62
   257
176
     1
 90
        1
176
     1
 90
        1
176
     1
 40
1.0
176
     1
 90
        8
176
     1
 62
   257
176
     1
 40
1.0
176
     1
 90
        1
176
     1
 90
        6
176
     1
 90
        2
176
     1
 62
     8
420
  7895160
176
     1
 90
        3
176
     1
 90
        0
176
     1
 90
        0
176
     1
290
     0
176
     1
 90
        5
176
     1
 40
0.0
176
     1
 90
        0
176
     1
290
     0
176
     1
290
     1
176
     1
290
     1
176
     1
290
     0
176
     1
290
     0
176
     1
290
     0
176
     1
290
     0
176
     1
290
     0
176
     1
290
     0
176
     1
 90
       50
176
     1
 40
0.0
176
     1
 40
1.0
176
     1
 90
        0
176
     1
 62
    18
420
        0
176
     1
 90
       50
176
     1
 90
        3
176
     1
 62
     5
420
      255
176
     1
290
     0
176
     1
 90
       50
176
     1
 90
       50
176
     1
 90
       50
176
     1
290
     0
176
     1
 90
       50
176
     1
 62
   256
176
     0
 40
1.0
176
     0
 90
        2
176
     1
  1
strokes_ogs.tif
176
     1
290
     0
176
     1
 40
1.0
176
     1
 40
1.0
176
     1
  0
VISUALSTYLE
  5
60636F9
102
{ACAD_REACTORS
330
9847
102
}
330
9847
100
AcDbVisualStyle
  2
Shaded with edges
 70
    26
177
     3
291
     0
 70
    58
 90
        2
176
     1
 90
        2
176
     1
 90
        1
176
     1
 90
        2
176
     1
 40
0.6
176
     1
 40
30.0
176
     1
 62
     7
420
 16777215
176
     1
 90
        1
176
     1
 90
        2
176
     1
 62
     7
176
     1
 62
   257
176
     1
 90
        2
176
     1
 90
        1
176
     1
 40
1.0
176
     1
 90
        8
176
     1
 62
   257
176
     1
 40
1.0
176
     1
 90
        1
176
     1
 90
        6
176
     1
 90
        2
176
     1
 62
     7
176
     1
 90
        3
176
     1
 90
        0
176
     1
 90
        0
176
     1
290
     0
176
     1
 90
        5
176
     1
 40
0.0
176
     1
 90
        0
176
     1
290
     0
176
     1
290
     1
176
     1
290
     1
176
     1
290
     0
176
     1
290
     0
176
     1
290
     0
176
     1
290
     0
176
     1
290
     0
176
     1
290
     0
176
     1
 90
       50
176
     1
 40
0.0
176
     1
 40
1.0
176
     1
 90
        0
176
     1
 62
    18
420
        0
176
     1
 90
       50
176
     1
 90
        3
176
     1
 62
     5
420
      255
176
     1
290
     0
176
     1
 90
       50
176
     1
 90
       50
176
     1
 90
       50
176
     1
290
     0
176
     1
 90
       50
176
     1
 62
   256
176
     0
 40
1.0
176
     0
 90
        2
176
     1
  1
strokes_ogs.tif
176
     1
290
     0
176
     1
 40
1.0
176
     1
 40
1.0
176
     1
  0
VISUALSTYLE
  5
60636F6
102
{ACAD_REACTORS
330
9847
102
}
330
9847
100
AcDbVisualStyle
  2
Shades of Gray
 70
    23
177
     3
291
     0
 70
    58
 90
        2
176
     1
 90
        2
176
     1
 90
        3
176
     1
 90
        0
176
     1
 40
0.6
176
     1
 40
30.0
176
     1
 62
     7
420
 16777215
176
     1
 90
        2
176
     1
 90
        2
176
     1
 62
     7
176
     1
 62
     7
176
     1
 90
        1
176
     1
 90
        1
176
     1
 40
40.0
176
     1
 90
        8
176
     1
 62
     7
176
     1
 40
1.0
176
     1
 90
        1
176
     1
 90
        6
176
     1
 90
        2
176
     1
 62
     7
176
     1
 90
        3
176
     1
 90
        0
176
     1
 90
        0
176
     1
290
     0
176
     1
 90
        1
176
     1
 40
0.0
176
     1
 90
        0
176
     1
290
     0
176
     1
290
     1
176
     1
290
     1
176
     1
290
     0
176
     1
290
     0
176
     1
290
     0
176
     1
290
     0
176
     1
290
     0
176
     1
290
     0
176
     1
 90
       50
176
     1
 40
0.0
176
     1
 40
1.0
176
     1
 90
        0
176
     1
 62
    18
420
        0
176
     1
 90
       50
176
     1
 90
        3
176
     1
 62
     5
420
      255
176
     1
290
     0
176
     1
 90
       50
176
     1
 90
       50
176
     1
 90
       50
176
     1
290
     0
176
     1
 90
       50
176
     1
 62
   256
176
     0
 40
1.0
176
     0
 90
        2
176
     1
  1
strokes_ogs.tif
176
     1
290
     0
176
     1
 40
1.0
176
     1
 40
1.0
176
     1
  0
VISUALSTYLE
  5
60636F7
102
{ACAD_REACTORS
330
9847
102
}
330
9847
100
AcDbVisualStyle
  2
Sketchy
 70
    24
177
     3
291
     0
 70
    58
 90
        1
176
     1
 90
        2
176
     1
 90
        2
176
     1
 90
        0
176
     1
 40
0.6
176
     1
 40
30.0
176
     1
 62
     7
420
 16777215
176
     1
 90
        2
176
     1
 90
        2
176
     1
 62
     7
176
     1
 62
     7
176
     1
 90
        1
176
     1
 90
        1
176
     1
 40
40.0
176
     1
 90
       11
176
     1
 62
     7
176
     1
 40
1.0
176
     1
 90
        1
176
     1
 90
        6
176
     1
 90
        2
176
     1
 62
     7
176
     1
 90
        6
176
     1
 90
        0
176
     1
 90
        0
176
     1
290
     0
176
     1
 90
        1
176
     1
 40
0.0
176
     1
 90
        0
176
     1
290
     0
176
     1
290
     1
176
     1
290
     1
176
     1
290
     0
176
     1
290
     0
176
     1
290
     0
176
     1
290
     0
176
     1
290
     0
176
     1
290
     0
176
     1
 90
       50
176
     1
 40
0.0
176
     1
 40
1.0
176
     1
 90
        0
176
     1
 62
    18
420
        0
176
     1
 90
       50
176
     1
 90
        3
176
     1
 62
     5
420
      255
176
     1
290
     0
176
     1
 90
       50
176
     1
 90
       50
176
     1
 90
       50
176
     1
290
     0
176
     1
 90
       50
176
     1
 62
   256
176
     0
 40
1.0
176
     0
 90
        2
176
     1
  1
strokes_ogs.tif
176
     1
290
     0
176
     1
 40
1.0
176
     1
 40
1.0
176
     1
  0
VISUALSTYLE
  5
9854
102
{ACAD_REACTORS
330
9847
102
}
330
9847
100
AcDbVisualStyle
  2
Thicken
 70
    13
177
     3
291
     1
 70
    58
 90
        2
176
     1
 90
        2
176
     1
 90
        0
176
     1
 90
        0
176
     1
 40
0.6
176
     1
 40
30.0
176
     1
 62
     7
176
     1
 90
        1
176
     1
 90
        4
176
     1
 62
     7
176
     1
 62
   257
176
     1
 90
        1
176
     1
 90
        1
176
     1
 40
1.0
176
     1
 90
       12
176
     1
 62
     7
176
     1
 40
1.0
176
     1
 90
        1
176
     1
 90
        6
176
     1
 90
        2
176
     1
 62
     7
176
     1
 90
        5
176
     1
 90
        0
176
     1
 90
        0
176
     1
290
     0
176
     1
 90
        1
176
     1
 40
0.0
176
     1
 90
        0
176
     1
290
     0
176
     1
290
     1
176
     1
290
     1
176
     1
290
     0
176
     1
290
     0
176
     1
290
     0
176
     1
290
     0
176
     1
290
     0
176
     1
290
     0
176
     1
 90
       50
176
     1
 40
0.0
176
     1
 40
1.0
176
     1
 90
        0
176
     1
 62
    18
420
        0
176
     1
 90
       50
176
     1
 90
        3
176
     1
 62
     5
420
      255
176
     1
290
     0
176
     1
 90
       50
176
     1
 90
       50
176
     1
 90
       50
176
     1
290
     0
176
     1
 90
       50
176
     1
 62
   256
176
     0
 40
1.0
176
     0
 90
        2
176
     1
  1
strokes_ogs.tif
176
     1
290
     0
176
     1
 40
1.0
176
     1
 40
1.0
176
     1
1001
ACAD
1000
AcRTDxfName
1000
VISUALSTYLE
1000
AcRTDxfName
1000
VISUALSTYLE
1000
AcRTDxfName
1000
VISUALSTYLE
1000
AcRTDxfName
1000
VISUALSTYLE
1000
AcRTDxfName
1000
VISUALSTYLE
1000
AcRTDxfName
1000
VISUALSTYLE
1000
AcRTDxfName
1000
VISUALSTYLE
1000
AcRTDxfName
1000
VISUALSTYLE
  0
VISUALSTYLE
  5
60636F4
102
{ACAD_REACTORS
330
9847
102
}
330
9847
100
AcDbVisualStyle
  2
Wireframe
 70
     5
177
     3
291
     0
 70
    58
 90
        0
176
     1
 90
        2
176
     1
 90
        0
176
     1
 90
        0
176
     1
 40
0.6
176
     1
 40
30.0
176
     1
 62
     7
420
 16777215
176
     1
 90
        1
176
     1
 90
        4
176
     1
 62
     7
176
     1
 62
   257
176
     1
 90
        1
176
     1
 90
        1
176
     1
 40
1.0
176
     1
 90
        0
176
     1
 62
   257
176
     1
 40
1.0
176
     1
 90
        1
176
     1
 90
        6
176
     1
 90
        2
176
     1
 62
     7
176
     1
 90
        3
176
     1
 90
        0
176
     1
 90
        0
176
     1
290
     0
176
     1
 90
        1
176
     1
 40
0.0
176
     1
 90
        0
176
     1
290
     0
176
     1
290
     1
176
     1
290
     1
176
     1
290
     0
176
     1
290
     0
176
     1
290
     0
176
     1
290
     0
176
     1
290
     0
176
     1
290
     0
176
     1
 90
       50
176
     1
 40
0.0
176
     1
 40
1.0
176
     1
 90
        0
176
     1
 62
    18
420
        0
176
     1
 90
       50
176
     1
 90
        3
176
     1
 62
     5
420
      255
176
     1
290
     0
176
     1
 90
       50
176
     1
 90
       50
176
     1
 90
       50
176
     1
290
     0
176
     1
 90
       50
176
     1
 62
   256
176
     0
 40
1.0
176
     0
 90
        2
176
     1
  1
strokes_ogs.tif
176
     1
290
     0
176
     1
 40
1.0
176
     1
 40
1.0
176
     1
  0
VISUALSTYLE
  5
60636F8
102
{ACAD_REACTORS
330
9847
102
}
330
9847
100
AcDbVisualStyle
  2
X-Ray
 70
    25
177
     3
291
     0
 70
    58
 90
        2
176
     1
 90
        2
176
     1
 90
        1
176
     1
 90
        1
176
     1
 40
0.5
176
     1
 40
30.0
176
     1
 62
     7
420
 16777215
176
     1
 90
        1
176
     1
 90
        0
176
     1
 62
     7
176
     1
 62
   257
176
     1
 90
        1
176
     1
 90
        1
176
     1
 40
1.0
176
     1
 90
        8
176
     1
 62
     7
176
     1
 40
1.0
176
     1
 90
        1
176
     1
 90
        6
176
     1
 90
        2
176
     1
 62
     7
176
     1
 90
        3
176
     1
 90
        0
176
     1
 90
        0
176
     1
290
     0
176
     1
 90
       13
176
     1
 40
0.0
176
     1
 90
        0
176
     1
290
     0
176
     1
290
     1
176
     1
290
     1
176
     1
290
     0
176
     1
290
     0
176
     1
290
     0
176
     1
290
     0
176
     1
290
     0
176
     1
290
     0
176
     1
 90
       50
176
     1
 40
0.0
176
     1
 40
1.0
176
     1
 90
        0
176
     1
 62
    18
420
        0
176
     1
 90
       50
176
     1
 90
        3
176
     1
 62
     5
420
      255
176
     1
290
     0
176
     1
 90
       50
176
     1
 90
       50
176
     1
 90
       50
176
     1
290
     0
176
     1
 90
       50
176
     1
 62
   256
176
     0
 40
1.0
176
     0
 90
        2
176
     1
  1
strokes_ogs.tif
176
     1
290
     0
176
     1
 40
1.0
176
     1
 40
1.0
176
     1
  0
DICTIONARYVAR
  5
B806
102
{ACAD_REACTORS
330
4557
102
}
330
4557
100
DictionaryVariables
280
     0
  1
1:1
  0
DICTIONARYVAR
  5
B804
102
{ACAD_REACTORS
330
4557
102
}
330
4557
100
DictionaryVariables
280
     0
  1
STANDARD
  0
DICTIONARYVAR
  5
B803
102
{ACAD_REACTORS
330
4557
102
}
330
4557
100
DictionaryVariables
280
     0
  1
STANDARD
  0
DICTIONARYVAR
  5
6063713
102
{ACAD_REACTORS
330
4557
102
}
330
4557
100
DictionaryVariables
280
     0
  1
Metric50
  0
DICTIONARYVAR
  5
6063714
102
{ACAD_REACTORS
330
4557
102
}
330
4557
100
DictionaryVariables
280
     0
  1
Metric50
  0
DICTIONARYVAR
  5
62412
102
{ACAD_REACTORS
330
4557
102
}
330
4557
100
DictionaryVariables
280
     0
  1
2
  0
DICTIONARYVAR
  5
4558
102
{ACAD_REACTORS
330
4557
102
}
330
4557
100
DictionaryVariables
280
     0
  1
1
  0
DICTIONARYVAR
  5
62411
102
{ACAD_REACTORS
330
4557
102
}
330
4557
100
DictionaryVariables
280
     0
  1
1
  0
DICTIONARYVAR
  5
62410
102
{ACAD_REACTORS
330
4557
102
}
330
4557
100
DictionaryVariables
280
     0
  1
0
  0
DICTIONARYVAR
  5
6063715
102
{ACAD_REACTORS
330
4557
102
}
330
4557
100
DictionaryVariables
280
     0
  1
1
  0
DICTIONARYVAR
  5
6063716
102
{ACAD_REACTORS
330
4557
102
}
330
4557
100
DictionaryVariables
280
     0
  1
15
  0
DICTIONARYVAR
  5
B807
102
{ACAD_REACTORS
330
4557
102
}
330
4557
100
DictionaryVariables
280
     0
  1
0
  0
DICTIONARYVAR
  5
B805
102
{ACAD_REACTORS
330
4557
102
}
330
4557
100
DictionaryVariables
280
     0
  1
0
  0
DICTIONARYVAR
  5
62A9C
102
{ACAD_REACTORS
330
4557
102
}
330
4557
100
DictionaryVariables
280
     0
  1

  0
DICTIONARYVAR
  5
6240F
102
{ACAD_REACTORS
330
4557
102
}
330
4557
100
DictionaryVariables
280
     0
  1
127
  0
XRECORD
  5
635AE
102
{ACAD_REACTORS
330
635AD
102
}
330
635AD
100
AcDbXrecord
280
     1
330
0
330
0
330
0
330
0
330
0
330
0
330
0
330
0
330
0
330
0
330
0
330
0
330
0
330
0
330
0
330
0
330
0
330
0
330
0
330
0
330
0
330
0
330
0
330
0
330
0
330
0
330
0
330
0
330
0
330
0
330
0
330
0
330
0
330
6351B
330
6351C
330
63523
330
63524
330
6352A
330
6352B
330
63531
330
63532
330
6353B
330
63542
330
63543
330
6354B
330
63552
330
63553
330
6355A
330
6355B
330
63561
330
63562
330
0
330
0
330
63574
330
63575
330
6357D
330
0
330
0
330
0
330
0
330
0
330
0
330
0
330
0
330
0
330
0
330
63583
330
63584
330
0
330
0
330
63595
330
63596
330
6359C
330
6359D
330
635A7
330
635A8
  0
DICTIONARY
  5
606371A
330
6063702
100
AcDbDictionary
280
     1
281
     1
  3
ACAD_XREC_ROUNDTRIP
360
606371B
  0
DICTIONARY
  5
9838
330
9837
100
AcDbDictionary
280
     1
281
     1
  3
BUMPTILE
360
983A
  3
DIFFUSETILE
360
9839
  3
OPACITYTILE
360
983D
  3
REFLECTIONTILE
360
983C
  3
REFRACTIONTILE
360
983E
  3
SPECULARTILE
360
983B
  0
DICTIONARY
  5
9830
330
982F
100
AcDbDictionary
280
     1
281
     1
  3
BUMPTILE
360
9832
  3
DIFFUSETILE
360
9831
  3
OPACITYTILE
360
9835
  3
REFLECTIONTILE
360
9834
  3
REFRACTIONTILE
360
9836
  3
SPECULARTILE
360
9833
  0
DICTIONARY
  5
9840
330
983F
100
AcDbDictionary
280
     1
281
     1
  3
BUMPTILE
360
9842
  3
DIFFUSETILE
360
9841
  3
OPACITYTILE
360
9845
  3
REFLECTIONTILE
360
9844
  3
REFRACTIONTILE
360
9846
  3
SPECULARTILE
360
9843
  0
DICTIONARY
  5
6063718
330
6063700
100
AcDbDictionary
280
     1
281
     1
  3
ACAD_XREC_ROUNDTRIP
360
6063719
  0
DICTIONARY
  5
B800
330
9858
100
AcDbDictionary
280
     1
281
     1
  3
ACAD_ROUNDTRIP_2008_TABLESTYLE_CELLSTYLEMAP
360
6063717
  0
XRECORD
  5
606371B
102
{ACAD_REACTORS
330
606371A
102
}
330
606371A
100
AcDbXrecord
280
     1
102
DISPLAYNAME
  1
Metric50
102
FLAGS
 90
        0
  0
XRECORD
  5
983A
102
{ACAD_REACTORS
330
9838
102
}
330
9838
100
AcDbXrecord
280
     1
270
     1
271
     1
  0
XRECORD
  5
9839
102
{ACAD_REACTORS
330
9838
102
}
330
9838
100
AcDbXrecord
280
     1
270
     1
271
     1
  0
XRECORD
  5
983D
102
{ACAD_REACTORS
330
9838
102
}
330
9838
100
AcDbXrecord
280
     1
270
     1
271
     1
  0
XRECORD
  5
983C
102
{ACAD_REACTORS
330
9838
102
}
330
9838
100
AcDbXrecord
280
     1
270
     1
271
     1
  0
XRECORD
  5
983E
102
{ACAD_REACTORS
330
9838
102
}
330
9838
100
AcDbXrecord
280
     1
270
     1
271
     1
  0
XRECORD
  5
983B
102
{ACAD_REACTORS
330
9838
102
}
330
9838
100
AcDbXrecord
280
     1
270
     1
271
     1
  0
XRECORD
  5
9832
102
{ACAD_REACTORS
330
9830
102
}
330
9830
100
AcDbXrecord
280
     1
270
     1
271
     1
  0
XRECORD
  5
9831
102
{ACAD_REACTORS
330
9830
102
}
330
9830
100
AcDbXrecord
280
     1
270
     1
271
     1
  0
XRECORD
  5
9835
102
{ACAD_REACTORS
330
9830
102
}
330
9830
100
AcDbXrecord
280
     1
270
     1
271
     1
  0
XRECORD
  5
9834
102
{ACAD_REACTORS
330
9830
102
}
330
9830
100
AcDbXrecord
280
     1
270
     1
271
     1
  0
XRECORD
  5
9836
102
{ACAD_REACTORS
330
9830
102
}
330
9830
100
AcDbXrecord
280
     1
270
     1
271
     1
  0
XRECORD
  5
9833
102
{ACAD_REACTORS
330
9830
102
}
330
9830
100
AcDbXrecord
280
     1
270
     1
271
     1
  0
XRECORD
  5
9842
102
{ACAD_REACTORS
330
9840
102
}
330
9840
100
AcDbXrecord
280
     1
270
     1
271
     1
  0
XRECORD
  5
9841
102
{ACAD_REACTORS
330
9840
102
}
330
9840
100
AcDbXrecord
280
     1
270
     1
271
     1
  0
XRECORD
  5
9845
102
{ACAD_REACTORS
330
9840
102
}
330
9840
100
AcDbXrecord
280
     1
270
     1
271
     1
  0
XRECORD
  5
9844
102
{ACAD_REACTORS
330
9840
102
}
330
9840
100
AcDbXrecord
280
     1
270
     1
271
     1
  0
XRECORD
  5
9846
102
{ACAD_REACTORS
330
9840
102
}
330
9840
100
AcDbXrecord
280
     1
270
     1
271
     1
  0
XRECORD
  5
9843
102
{ACAD_REACTORS
330
9840
102
}
330
9840
100
AcDbXrecord
280
     1
270
     1
271
     1
  0
XRECORD
  5
6063719
102
{ACAD_REACTORS
330
6063718
102
}
330
6063718
100
AcDbXrecord
280
     1
102
DISPLAYNAME
  1
Metric50
102
FLAGS
 90
        0
  0
CELLSTYLEMAP
  5
6063717
102
{ACAD_REACTORS
330
B800
102
}
330
B800
100
AcDbCellStyleMap
 90
        3
300
CELLSTYLE
  1
TABLEFORMAT_BEGIN
 90
        5
170
     1
 91
        0
 92
    32768
 62
   257
 93
        1
300
CONTENTFORMAT
  1
CONTENTFORMAT_BEGIN
 90
        0
 91
        0
 92
      512
 93
        0
300

 40
0.0
140
1.0
 94
        5
 62
     0
340
12
144
6.0
309
CONTENTFORMAT_END
171
     1
301
MARGIN
  1
CELLMARGIN_BEGIN
 40
1.5
 40
1.5
 40
1.5
 40
1.5
 40
0.18
 40
0.18
309
CELLMARGIN_END
 94
        6
 95
        1
302
GRIDFORMAT
  1
GRIDFORMAT_BEGIN
 90
        0
 91
        1
 62
     0
 92
       -2
340
0
 93
        0
 40
1.125
309
GRIDFORMAT_END
 95
        2
302
GRIDFORMAT
  1
GRIDFORMAT_BEGIN
 90
        0
 91
        1
 62
     0
 92
       -2
340
0
 93
        0
 40
1.125
309
GRIDFORMAT_END
 95
        4
302
GRIDFORMAT
  1
GRIDFORMAT_BEGIN
 90
        0
 91
        1
 62
     0
 92
       -2
340
0
 93
        0
 40
1.125
309
GRIDFORMAT_END
 95
        8
302
GRIDFORMAT
  1
GRIDFORMAT_BEGIN
 90
        0
 91
        1
 62
     0
 92
       -2
340
0
 93
        0
 40
1.125
309
GRIDFORMAT_END
 95
       16
302
GRIDFORMAT
  1
GRIDFORMAT_BEGIN
 90
        0
 91
        1
 62
     0
 92
       -2
340
0
 93
        0
 40
1.125
309
GRIDFORMAT_END
 95
       32
302
GRIDFORMAT
  1
GRIDFORMAT_BEGIN
 90
        0
 91
        1
 62
     0
 92
       -2
340
0
 93
        0
 40
1.125
309
GRIDFORMAT_END
309
TABLEFORMAT_END
  1
CELLSTYLE_BEGIN
 90
        1
 91
        1
300
_TITLE
309
CELLSTYLE_END
300
CELLSTYLE
  1
TABLEFORMAT_BEGIN
 90
        5
170
     1
 91
        0
 92
        0
 62
   257
 93
        1
300
CONTENTFORMAT
  1
CONTENTFORMAT_BEGIN
 90
        0
 91
        0
 92
      512
 93
        0
300

 40
0.0
140
1.0
 94
        5
 62
     0
340
12
144
4.5
309
CONTENTFORMAT_END
171
     1
301
MARGIN
  1
CELLMARGIN_BEGIN
 40
1.5
 40
1.5
 40
1.5
 40
1.5
 40
0.18
 40
0.18
309
CELLMARGIN_END
 94
        6
 95
        1
302
GRIDFORMAT
  1
GRIDFORMAT_BEGIN
 90
        0
 91
        1
 62
     0
 92
       -2
340
0
 93
        0
 40
1.125
309
GRIDFORMAT_END
 95
        2
302
GRIDFORMAT
  1
GRIDFORMAT_BEGIN
 90
        0
 91
        1
 62
     0
 92
       -2
340
0
 93
        0
 40
1.125
309
GRIDFORMAT_END
 95
        4
302
GRIDFORMAT
  1
GRIDFORMAT_BEGIN
 90
        0
 91
        1
 62
     0
 92
       -2
340
0
 93
        0
 40
1.125
309
GRIDFORMAT_END
 95
        8
302
GRIDFORMAT
  1
GRIDFORMAT_BEGIN
 90
        0
 91
        1
 62
     0
 92
       -2
340
0
 93
        0
 40
1.125
309
GRIDFORMAT_END
 95
       16
302
GRIDFORMAT
  1
GRIDFORMAT_BEGIN
 90
        0
 91
        1
 62
     0
 92
       -2
340
0
 93
        0
 40
1.125
309
GRIDFORMAT_END
 95
       32
302
GRIDFORMAT
  1
GRIDFORMAT_BEGIN
 90
        0
 91
        1
 62
     0
 92
       -2
340
0
 93
        0
 40
1.125
309
GRIDFORMAT_END
309
TABLEFORMAT_END
  1
CELLSTYLE_BEGIN
 90
        2
 91
        1
300
_HEADER
309
CELLSTYLE_END
300
CELLSTYLE
  1
TABLEFORMAT_BEGIN
 90
        5
170
     1
 91
        0
 92
        0
 62
   257
 93
        1
300
CONTENTFORMAT
  1
CONTENTFORMAT_BEGIN
 90
        0
 91
        0
 92
      512
 93
        0
300

 40
0.0
140
1.0
 94
        2
 62
     0
340
12
144
4.5
309
CONTENTFORMAT_END
171
     1
301
MARGIN
  1
CELLMARGIN_BEGIN
 40
1.5
 40
1.5
 40
1.5
 40
1.5
 40
0.18
 40
0.18
309
CELLMARGIN_END
 94
        6
 95
        1
302
GRIDFORMAT
  1
GRIDFORMAT_BEGIN
 90
        0
 91
        1
 62
     0
 92
       -2
340
0
 93
        0
 40
1.125
309
GRIDFORMAT_END
 95
        2
302
GRIDFORMAT
  1
GRIDFORMAT_BEGIN
 90
        0
 91
        1
 62
     0
 92
       -2
340
0
 93
        0
 40
1.125
309
GRIDFORMAT_END
 95
        4
302
GRIDFORMAT
  1
GRIDFORMAT_BEGIN
 90
        0
 91
        1
 62
     0
 92
       -2
340
0
 93
        0
 40
1.125
309
GRIDFORMAT_END
 95
        8
302
GRIDFORMAT
  1
GRIDFORMAT_BEGIN
 90
        0
 91
        1
 62
     0
 92
       -2
340
0
 93
        0
 40
1.125
309
GRIDFORMAT_END
 95
       16
302
GRIDFORMAT
  1
GRIDFORMAT_BEGIN
 90
        0
 91
        1
 62
     0
 92
       -2
340
0
 93
        0
 40
1.125
309
GRIDFORMAT_END
 95
       32
302
GRIDFORMAT
  1
GRIDFORMAT_BEGIN
 90
        0
 91
        1
 62
     0
 92
       -2
340
0
 93
        0
 40
1.125
309
GRIDFORMAT_END
309
TABLEFORMAT_END
  1
CELLSTYLE_BEGIN
 90
        3
 91
        2
300
_DATA
309
CELLSTYLE_END
  0
ENDSEC
  0
EOF
