  0
SECTION
  2
HEADER
  9
$ACADVER
  1
AC1027
  9
$ACADMAINTVER
 70
   125
  9
$DWGCODEPAGE
  3
ANSI_1252
  9
$LASTSAVEDBY
  1
fleminab
  9
$REQUIREDVERSIONS
160
                 0
  9
$INSBASE
 10
0.0
 20
0.0
 30
0.0
  9
$EXTMIN
 10
687.4580986449139
 20
-56.28009808052479
 30
-0.0015258207003583
  9
$EXTMAX
 10
902.6632096588821
 20
225.3659314782396
 30
0.0000000349246037
  9
$LIMMIN
 10
0.0
 20
0.0
  9
$LIMMAX
 10
297.0
 20
210.0
  9
$ORTHOMODE
 70
     0
  9
$REGENMODE
 70
     1
  9
$FILLMODE
 70
     1
  9
$QTEXTMODE
 70
     0
  9
$MIRRTEXT
 70
     1
  9
$LTSCALE
 40
1.0
  9
$ATTMODE
 70
     1
  9
$TEXTSIZE
 40
2.5
  9
$TRACEWID
 40
1.0
  9
$TEXTSTYLE
  7
Standard
  9
$CLAYER
  8
0
  9
$CELTYPE
  6
ByLayer
  9
$CECOLOR
 62
   256
  9
$CELTSCALE
 40
1.0
  9
$DISPSILH
 70
     0
  9
$DIMSCALE
 40
1.0
  9
$DIMASZ
 40
2.0
  9
$DIMEXO
 40
1.0
  9
$DIMDLI
 40
3.75
  9
$DIMRND
 40
0.0
  9
$DIMDLE
 40
0.0
  9
$DIMEXE
 40
1.5
  9
$DIMTP
 40
0.0
  9
$DIMTM
 40
0.0
  9
$DIMTXT
 40
2.5
  9
$DIMCEN
 40
2.5
  9
$DIMTSZ
 40
0.0
  9
$DIMTOL
 70
     0
  9
$DIMLIM
 70
     0
  9
$DIMTIH
 70
     1
  9
$DIMTOH
 70
     1
  9
$DIMSE1
 70
     0
  9
$DIMSE2
 70
     0
  9
$DIMTAD
 70
     1
  9
$DIMZIN
 70
     0
  9
$DIMBLK
  1

  9
$DIMASO
 70
     1
  9
$DIMSHO
 70
     1
  9
$DIMPOST
  1

  9
$DIMAPOST
  1

  9
$DIMALT
 70
     0
  9
$DIMALTD
 70
     3
  9
$DIMALTF
 40
0.0393700787401575
  9
$DIMLFAC
 40
5.0
  9
$DIMTOFL
 70
     1
  9
$DIMTVP
 40
0.0
  9
$DIMTIX
 70
     0
  9
$DIMSOXD
 70
     0
  9
$DIMSAH
 70
     0
  9
$DIMBLK1
  1

  9
$DIMBLK2
  1

  9
$DIMSTYLE
  2
ISO-25
  9
$DIMCLRD
 70
     0
  9
$DIMCLRE
 70
     0
  9
$DIMCLRT
 70
     0
  9
$DIMTFAC
 40
1.0
  9
$DIMGAP
 40
1.524
  9
$DIMJUST
 70
     0
  9
$DIMSD1
 70
     0
  9
$DIMSD2
 70
     0
  9
$DIMTOLJ
 70
     0
  9
$DIMTZIN
 70
     0
  9
$DIMALTZ
 70
     0
  9
$DIMALTTZ
 70
     0
  9
$DIMUPT
 70
     0
  9
$DIMDEC
 70
     0
  9
$DIMTDEC
 70
     2
  9
$DIMALTU
 70
     2
  9
$DIMALTTD
 70
     3
  9
$DIMTXSTY
  7
Standard
  9
$DIMAUNIT
 70
     0
  9
$DIMADEC
 70
     2
  9
$DIMALTRND
 40
0.0
  9
$DIMAZIN
 70
     0
  9
$DIMDSEP
 70
    44
  9
$DIMATFIT
 70
     3
  9
$DIMFRAC
 70
     0
  9
$DIMLDRBLK
  1

  9
$DIMLUNIT
 70
     2
  9
$DIMLWD
 70
    -2
  9
$DIMLWE
 70
    -2
  9
$DIMTMOVE
 70
     0
  9
$DIMFXL
 40
1.0
  9
$DIMFXLON
 70
     0
  9
$DIMJOGANG
 40
0.7853981633974483
  9
$DIMTFILL
 70
     0
  9
$DIMTFILLCLR
 70
     0
  9
$DIMARCSYM
 70
     0
  9
$DIMLTYPE
  6

  9
$DIMLTEX1
  6

  9
$DIMLTEX2
  6

  9
$DIMTXTDIRECTION
 70
     0
  9
$LUNITS
 70
     2
  9
$LUPREC
 70
     2
  9
$SKETCHINC
 40
1.0
  9
$FILLETRAD
 40
10.0
  9
$AUNITS
 70
     0
  9
$AUPREC
 70
     2
  9
$MENU
  1
.
  9
$ELEVATION
 40
0.0
  9
$PELEVATION
 40
0.0
  9
$THICKNESS
 40
0.0
  9
$LIMCHECK
 70
     0
  9
$CHAMFERA
 40
10.0
  9
$CHAMFERB
 40
10.0
  9
$CHAMFERC
 40
20.0
  9
$CHAMFERD
 40
0.0
  9
$SKPOLY
 70
     0
  9
$TDCREATE
 40
2456156.466053241
  9
$TDUCREATE
 40
2456156.049395255
  9
$TDUPDATE
 40
2458033.445474537
  9
$TDUUPDATE
 40
2458032.987141204
  9
$TDINDWG
 40
0.0118684954
  9
$TDUSRTIMER
 40
0.0118684954
  9
$USRTIMER
 70
     1
  9
$ANGBASE
 50
0.0
  9
$ANGDIR
 70
     0
  9
$PDMODE
 70
     0
  9
$PDSIZE
 40
-1.0
  9
$PLINEWID
 40
0.0
  9
$SPLFRAME
 70
     0
  9
$SPLINETYPE
 70
     6
  9
$SPLINESEGS
 70
     8
  9
$HANDSEED
  5
89D
  9
$SURFTAB1
 70
     6
  9
$SURFTAB2
 70
     6
  9
$SURFTYPE
 70
     6
  9
$SURFU
 70
     6
  9
$SURFV
 70
     6
  9
$UCSBASE
  2

  9
$UCSNAME
  2

  9
$UCSORG
 10
0.0
 20
0.0
 30
0.0
  9
$UCSXDIR
 10
1.0
 20
0.0
 30
0.0
  9
$UCSYDIR
 10
0.0
 20
1.0
 30
0.0
  9
$UCSORTHOREF
  2

  9
$UCSORTHOVIEW
 70
     0
  9
$UCSORGTOP
 10
0.0
 20
0.0
 30
0.0
  9
$UCSORGBOTTOM
 10
0.0
 20
0.0
 30
0.0
  9
$UCSORGLEFT
 10
0.0
 20
0.0
 30
0.0
  9
$UCSORGRIGHT
 10
0.0
 20
0.0
 30
0.0
  9
$UCSORGFRONT
 10
0.0
 20
0.0
 30
0.0
  9
$UCSORGBACK
 10
0.0
 20
0.0
 30
0.0
  9
$PUCSBASE
  2

  9
$PUCSNAME
  2

  9
$PUCSORG
 10
0.0
 20
0.0
 30
0.0
  9
$PUCSXDIR
 10
1.0
 20
0.0
 30
0.0
  9
$PUCSYDIR
 10
0.0
 20
1.0
 30
0.0
  9
$PUCSORTHOREF
  2

  9
$PUCSORTHOVIEW
 70
     0
  9
$PUCSORGTOP
 10
0.0
 20
0.0
 30
0.0
  9
$PUCSORGBOTTOM
 10
0.0
 20
0.0
 30
0.0
  9
$PUCSORGLEFT
 10
0.0
 20
0.0
 30
0.0
  9
$PUCSORGRIGHT
 10
0.0
 20
0.0
 30
0.0
  9
$PUCSORGFRONT
 10
0.0
 20
0.0
 30
0.0
  9
$PUCSORGBACK
 10
0.0
 20
0.0
 30
0.0
  9
$USERI1
 70
     0
  9
$USERI2
 70
     0
  9
$USERI3
 70
     0
  9
$USERI4
 70
     0
  9
$USERI5
 70
     0
  9
$USERR1
 40
0.0
  9
$USERR2
 40
0.0
  9
$USERR3
 40
0.0
  9
$USERR4
 40
0.0
  9
$USERR5
 40
0.0
  9
$WORLDVIEW
 70
     1
  9
$SHADEDGE
 70
     3
  9
$SHADEDIF
 70
    70
  9
$TILEMODE
 70
     1
  9
$MAXACTVP
 70
    64
  9
$PINSBASE
 10
0.0
 20
0.0
 30
0.0
  9
$PLIMCHECK
 70
     0
  9
$PEXTMIN
 10
1.000000000000000E+20
 20
1.000000000000000E+20
 30
1.000000000000000E+20
  9
$PEXTMAX
 10
-1.000000000000000E+20
 20
-1.000000000000000E+20
 30
-1.000000000000000E+20
  9
$PLIMMIN
 10
0.0
 20
0.0
  9
$PLIMMAX
 10
420.0
 20
297.0
  9
$UNITMODE
 70
     0
  9
$VISRETAIN
 70
     1
  9
$PLINEGEN
 70
     0
  9
$PSLTSCALE
 70
     1
  9
$TREEDEPTH
 70
  3020
  9
$CMLSTYLE
  2
Standard
  9
$CMLJUST
 70
     0
  9
$CMLSCALE
 40
20.0
  9
$PROXYGRAPHICS
 70
     1
  9
$MEASUREMENT
 70
     1
  9
$CELWEIGHT
370
    -1
  9
$ENDCAPS
280
     0
  9
$JOINSTYLE
280
     0
  9
$LWDISPLAY
290
     1
  9
$INSUNITS
 70
     4
  9
$HYPERLINKBASE
  1

  9
$STYLESHEET
  1

  9
$XEDIT
290
     1
  9
$CEPSNTYPE
380
     0
  9
$PSTYLEMODE
290
     1
  9
$FINGERPRINTGUID
  2
{6DAC91DC-5942-45BD-B52A-C7FD97454AB9}
  9
$VERSIONGUID
  2
{6C8AD015-5630-5F4B-88A2-24EE23A12BAA}
  9
$EXTNAMES
290
     1
  9
$PSVPSCALE
 40
0.0
  9
$OLESTARTUP
290
     0
  9
$SORTENTS
280
   127
  9
$INDEXCTL
280
     1
  9
$HIDETEXT
280
     0
  9
$XCLIPFRAME
280
     0
  9
$HALOGAP
280
     0
  9
$OBSCOLOR
 70
   257
  9
$OBSLTYPE
280
     0
  9
$INTERSECTIONDISPLAY
280
     0
  9
$INTERSECTIONCOLOR
 70
   257
  9
$DIMASSOC
280
     1
  9
$PROJECTNAME
  1

  9
$CAMERADISPLAY
290
     0
  9
$LENSLENGTH
 40
50.0
  9
$CAMERAHEIGHT
 40
0.0
  9
$STEPSPERSEC
 40
2.0
  9
$STEPSIZE
 40
6.0
  9
$3DDWFPREC
 40
2.0
  9
$PSOLWIDTH
 40
0.25
  9
$PSOLHEIGHT
 40
4.0
  9
$LOFTANG1
 40
1.570796326794896
  9
$LOFTANG2
 40
1.570796326794896
  9
$LOFTMAG1
 40
0.0
  9
$LOFTMAG2
 40
0.0
  9
$LOFTPARAM
 70
     7
  9
$LOFTNORMALS
280
     1
  9
$LATITUDE
 40
37.795
  9
$LONGITUDE
 40
-122.394
  9
$NORTHDIRECTION
 40
0.0
  9
$TIMEZONE
 70
 -8000
  9
$LIGHTGLYPHDISPLAY
280
     1
  9
$TILEMODELIGHTSYNCH
280
     1
  9
$CMATERIAL
347
81A
  9
$SOLIDHIST
280
     0
  9
$SHOWHIST
280
     1
  9
$DWFFRAME
280
     2
  9
$DGNFRAME
280
     0
  9
$REALWORLDSCALE
290
     1
  9
$INTERFERECOLOR
 62
     1
  9
$INTERFEREOBJVS
345
83C
  9
$INTERFEREVPVS
346
839
  9
$CSHADOW
280
     0
  9
$SHADOWPLANELOCATION
 40
0.0
  0
ENDSEC
  0
SECTION
  2
CLASSES
  0
CLASS
  1
ACDBDICTIONARYWDFLT
  2
AcDbDictionaryWithDefault
  3
ObjectDBX Classes
 90
        0
 91
        1
280
     0
281
     0
  0
CLASS
  1
VISUALSTYLE
  2
AcDbVisualStyle
  3
ObjectDBX Classes
 90
     4095
 91
       24
280
     0
281
     0
  0
CLASS
  1
MATERIAL
  2
AcDbMaterial
  3
ObjectDBX Classes
 90
     1153
 91
        3
280
     0
281
     0
  0
CLASS
  1
ACDBPLACEHOLDER
  2
AcDbPlaceHolder
  3
ObjectDBX Classes
 90
        0
 91
        1
280
     0
281
     0
  0
CLASS
  1
LAYOUT
  2
AcDbLayout
  3
ObjectDBX Classes
 90
        0
 91
        3
280
     0
281
     0
  0
CLASS
  1
SCALE
  2
AcDbScale
  3
ObjectDBX Classes
 90
     1153
 91
       99
280
     0
281
     0
  0
CLASS
  1
ACME_DOCUMENT
  2
AcMeDbDoc
  3
AcMeServices
 90
        0
 91
        0
280
     0
281
     0
  0
CLASS
  1
AMGSETTINGSOBJ
  2
AmgSettingsObj
  3
"AcadM|Product Description: AutoCAD Mechanical 2000|Company: Autodesk"
 90
        0
 91
        2
280
     0
281
     0
  0
CLASS
  1
ACMESCOPE
  2
AcMeScope
  3
AcMeServices
 90
        0
 91
        1
280
     0
281
     0
  0
CLASS
  1
ACMECOMMANDHISTORY
  2
AcMeCommandHistory
  3
AcMeServices
 90
        0
 91
        1
280
     0
281
     0
  0
CLASS
  1
ACIMSYSVARMAN
  2
AcImSysVarManager
  3
AcMeServices
 90
        0
 91
        5
280
     0
281
     0
  0
CLASS
  1
ACIMINTSYSVAR
  2
AcImIntSysVar
  3
AcMeServices
 90
        0
 91
       26
280
     0
281
     0
  0
CLASS
  1
ACMEDRAWINGMAN
  2
AcMeDrawingMan
  3
AcMeServices
 90
        0
 91
        1
280
     0
281
     0
  0
CLASS
  1
ACMEVIEW
  2
AcMeView
  3
AcMeServices
 90
        0
 91
        1
280
     0
281
     0
  0
CLASS
  1
ACDBENTITYCACHE
  2
AcMeEntityCache
  3
AcMeServices
 90
        0
 91
        0
280
     0
281
     0
  0
CLASS
  1
GSMANAGER
  2
AcMeGSManager
  3
AcMeServices
 90
        0
 91
        0
280
     0
281
     0
  0
CLASS
  1
AMDTINTERNALREACTOR
  2
AmdtInternalReactor
  3
AcMeServices
 90
        0
 91
        0
280
     0
281
     0
  0
CLASS
  1
ACMESTATEMGR
  2
AcMeStateMgr
  3
AcMeServices
 90
        0
 91
        1
280
     0
281
     0
  0
CLASS
  1
ACGREFMASTER
  2
AcGrefMaster
  3
AcAttribServices
 90
        0
 91
        1
280
     0
281
     0
  0
CLASS
  1
AM_DRAWING_MGR
  2
AcDmDwgMgr
  3
AcMechDwgViewMgmt
 90
        0
 91
        1
280
     0
281
     0
  0
CLASS
  1
AM_DWG_DOCUMENT
  2
AcDmDwgDocument
  3
AcMechDwgViewMgmt
 90
        0
 91
        1
280
     0
281
     0
  0
CLASS
  1
AM_DWG_SHEET
  2
AcDmSheet
  3
AcMechDwgViewMgmt
 90
        0
 91
        2
280
     0
281
     0
  0
CLASS
  1
AM_VIEWDIMPARMAP
  2
AcDmViewDimParMap
  3
AcMechDwgViewMgmt
 90
        0
 91
        2
280
     0
281
     0
  0
CLASS
  1
ACIMREALSYSVAR
  2
AcImRealSysVar
  3
AcMeServices
 90
        0
 91
        1
280
     0
281
     0
  0
CLASS
  1
AM_DWGMGR_NAME
  2
AcDmDwgMgrName
  3
AcMechDwgViewMgmt
 90
        0
 91
        1
280
     0
281
     0
  0
CLASS
  1
ACME_DATABASE
  2
AcMeDbDatabase
  3
AcMeServices
 90
        0
 91
        0
280
     0
281
     0
  0
CLASS
  1
ACRFINSADJUSTERMGR
  2
AcRfInsAdjusterMgr
  3
AcMeServices
 90
        0
 91
        0
280
     0
281
     0
  0
CLASS
  1
ACGREFACADMASTER
  2
AcGrefacadMaster
  3
AcGrefServices
 90
        0
 91
        1
280
     0
281
     0
  0
CLASS
  1
AMDTMENUSTATEMGR
  2
AmdtMenuStateMgr
  3
McadcomServices
 90
        0
 91
        0
280
     0
281
     0
  0
CLASS
  1
AMDTMCOMMENUSTATE
  2
AmdtMcomMenuState
  3
McadcomServices
 90
        0
 91
        0
280
     0
281
     0
  0
CLASS
  1
AMIMASTER
  2
AmiMaster
  3
AmiServices
 90
        0
 91
        1
280
     0
281
     0
  0
CLASS
  1
MAPIAMMOUDLE
  2
MApiAmModule
  3
MApiAmServices
 90
        0
 91
        1
280
     0
281
     0
  0
CLASS
  1
AMDTADMENUSTATE
  2
AmdtAdMenuState
  3
DesignerServices
 90
        0
 91
        0
280
     0
281
     0
  0
CLASS
  1
ADAPPL
  2
AcAdAppl
  3
DesignerServices
 90
        0
 91
        1
280
     0
281
     0
  0
CLASS
  1
DEPMGR
  2
AcAdDepMgr
  3
DesignerServices
 90
        0
 91
        1
280
     0
281
     0
  0
CLASS
  1
PARAMMGR
  2
AcAdParamMgr
  3
DesignerServices
 90
        0
 91
        1
280
     0
281
     0
  0
CLASS
  1
PARAMSCOPE
  2
AcAdParamScope
  3
DesignerServices
 90
        0
 91
        1
280
     0
281
     0
  0
CLASS
  1
NAMEDAPPL
  2
AcAdNamedAppl
  3
DesignerServices
 90
        0
 91
        1
280
     0
281
     0
  0
CLASS
  1
AMDTDMMENUSTATE
  2
AmdtDmMenuState
  3
AcMechDwgViewMgmt
 90
        0
 91
        0
280
     0
281
     0
  0
CLASS
  1
AMDTAMMENUSTATE
  2
AmdtAmMenuState
  3
DesignerAssemblies
 90
        0
 91
        0
280
     0
281
     0
  0
CLASS
  1
ACIMSTRSYSVAR
  2
AcImStrSysVar
  3
AcMeServices
 90
        0
 91
        5
280
     0
281
     0
  0
CLASS
  1
ACAMPROJECT
  2
AcAmProject
  3
DesignerAssemblies
 90
        0
 91
        1
280
     0
281
     0
  0
CLASS
  1
ACAMGRCOMPDEF
  2
AcAmGrCompDef
  3
DesignerAssemblies
 90
        0
 91
        1
280
     0
281
     0
  0
CLASS
  1
ACCMCONTEXT
  2
AcCmContext
  3
DesignerAssemblies
 90
        0
 91
        1
280
     0
281
     0
  0
CLASS
  1
ACAMCOMPDEF
  2
AcAmCompDef
  3
DesignerAssemblies
 90
        0
 91
        1
280
     0
281
     0
  0
CLASS
  1
ACAMCOMPDEFMGR
  2
AcAmCompDefMgr
  3
DesignerAssemblies
 90
        0
 91
        1
280
     0
281
     0
  0
CLASS
  1
AMCONTEXTMGR
  2
AcAmContextMgr
  3
DesignerAssemblies
 90
        0
 91
        1
280
     0
281
     0
  0
CLASS
  1
ACAMCONTEXTMODELER
  2
AcAmContextModeler
  3
DesignerAssemblies
 90
        0
 91
        1
280
     0
281
     0
  0
CLASS
  1
ACMDATADICTIONARY
  2
AcmDataDictionary
  3
"AcmSymBB|Product Description: AutoCAD Mechanical 2004 DX|Company: Autodesk"
 90
        0
 91
        1
280
     0
281
     0
  0
CLASS
  1
CATALOGSTATE
  2
AcAmCatalogState
  3
DesignerAssemblies
 90
        0
 91
        1
280
     0
281
     0
  0
CLASS
  1
ACAMGRCOMPDEFSET
  2
AcAmGrCompDefSet
  3
DesignerAssemblies
 90
        0
 91
        0
280
     0
281
     0
  0
CLASS
  1
AMDTBROWSERDBTAB
  2
AmdtBrowserDbTab
  3
McadcomServices
 90
        0
 91
        0
280
     0
281
     0
  0
CLASS
  1
CBROWSERAPPOBJECT
  2
CBrowserAppObject
  3
McadcomServices
 90
        0
 91
        0
280
     0
281
     0
  0
CLASS
  1
DM_PLACEHOLDER
  2
AcDmSelsetPlaceholder
  3
AcMechDwgViewMgmt
 90
        0
 91
        0
280
     0
281
     0
  0
CLASS
  1
ACMSTANDARDISO
  2
AcmStandardISO
  3
"Amdt_StdImp|Product Description: AutoCAD Mechanical 2004 DX|Company: Autodesk"
 90
        0
 91
        1
280
     0
281
     0
  0
CLASS
  1
AMGOBJPROPCFG
  2
AmgObjPropCfg
  3
"AmgLay|Product Description: AutoCAD Mechanical 2000|Company: Autodesk"
 90
        1
 91
        1
280
     0
281
     0
  0
CLASS
  1
AMDTEDGESTANDARDISO
  2
AmdtEdgeStdISO
  3
"Amdt_StdImp|Product Description: AutoCAD Mechanical 2004 DX|Company: Autodesk"
 90
        0
 91
        1
280
     0
281
     0
  0
CLASS
  1
ACMSURFSTANDARDISO
  2
AcmSurfTextStdISO
  3
"Amdt_StdImp|Product Description: AutoCAD Mechanical 2004 DX|Company: Autodesk"
 90
        0
 91
        1
280
     0
281
     0
  0
CLASS
  1
ACMFCFSTANDARDISO
  2
AcmFCFStdISO
  3
"Amdt_StdImp|Product Description: AutoCAD Mechanical 2004 DX|Company: Autodesk"
 90
        0
 91
        1
280
     0
281
     0
  0
CLASS
  1
ACMWELDSTANDARDISO
  2
AcmWeldingStdISO
  3
"Amdt_StdImp|Product Description: AutoCAD Mechanical 2004 DX|Company: Autodesk"
 90
        0
 91
        1
280
     0
281
     0
  0
CLASS
  1
ACMIDSTANDARDISO
  2
AcmIdStdISO
  3
"Amdt_StdImp|Product Description: AutoCAD Mechanical 2004 DX|Company: Autodesk"
 90
        0
 91
        1
280
     0
281
     0
  0
CLASS
  1
ACMDATUMSTANDARDISO
  2
AcmDatumStdISO
  3
"Amdt_StdImp|Product Description: AutoCAD Mechanical 2004 DX|Company: Autodesk"
 90
        0
 91
        1
280
     0
281
     0
  0
CLASS
  1
ACMBOMSTANDARDISO
  2
AcmBOMStdISO
  3
"Amdt_StdImp|Product Description: AutoCAD Mechanical 2004 DX|Company: Autodesk"
 90
        0
 91
        1
280
     0
281
     0
  0
CLASS
  1
ACMDETAILSTANDARDISO
  2
AmdtDetailSymStdISO
  3
"Amdt_StdImp|Product Description: AutoCAD Mechanical 2004 DX|Company: Autodesk"
 90
        0
 91
        1
280
     0
281
     0
  0
CLASS
  1
ACMSECTIONSTANDARDISO
  2
AmdtSectionSymStdISO
  3
"Amdt_StdImp|Product Description: AutoCAD Mechanical 2004 DX|Company: Autodesk"
 90
        0
 91
        1
280
     0
281
     0
  0
CLASS
  1
ACMCENTERLINESTANDARDISO
  2
AmdtCenterLineStdISO
  3
"Amdt_StdImp|Product Description: AutoCAD Mechanical 2004 DX|Company: Autodesk"
 90
        0
 91
        1
280
     0
281
     0
  0
CLASS
  1
ACMTHREADLINESTANDARDISO
  2
AmdtThreadLineStdISO
  3
"Amdt_StdImp|Product Description: AutoCAD Mechanical 2004 DX|Company: Autodesk"
 90
        0
 91
        1
280
     0
281
     0
  0
CLASS
  1
ACMNOTESTANDARDISO
  2
AmdtNoteStdISO
  3
"Amdt_StdImp|Product Description: AutoCAD Mechanical 2004 DX|Company: Autodesk"
 90
        0
 91
        1
280
     0
281
     0
  0
CLASS
  1
AMDTNOTETEMPLATEDB
  2
AmdtNoteTemplateDB
  3
AMDT_STDIMP_MODULE_NAME
 90
        0
 91
        4
280
     0
281
     0
  0
CLASS
  1
ACAMGLAYSTD
  2
AcAmgLayStd
  3
"AcAmgLayStd|Product Description: AutoCAD Mechanical 2000|Company: Autodesk"
 90
        0
 91
        1
280
     0
281
     0
  0
CLASS
  1
ACAMGDIMSTD
  2
AcAmgDimStd
  3
"AcAmgDimStd|Product Description: AutoCAD Mechanical 2000|Company: Autodesk"
 90
        0
 91
        1
280
     0
281
     0
  0
CLASS
  1
ACAMGHOLECHARTSTDISO
  2
AcAmgHoleChartStdISO
  3
ACMSYMBB_MODULE_NAME
 90
        0
 91
        1
280
     0
281
     0
  0
CLASS
  1
ACAMGTITLESTD
  2
AcAmgTitleStd
  3
"TITLEAPP"
 90
        0
 91
        1
280
     0
281
     0
  0
CLASS
  1
ACAMGFILTERDAT
  2
AcAmgFilterDat
  3
"AcadM|Product Description: AutoCAD Mechanical 2000|Company: Autodesk"
 90
        0
 91
        6
280
     0
281
     0
  0
CLASS
  1
LAYER_INDEX
  2
AcDbLayerIndex
  3
ObjectDBX Classes
 90
        0
 91
        1
280
     0
281
     0
  0
CLASS
  1
IDBUFFER
  2
AcDbIdBuffer
  3
ObjectDBX Classes
 90
        0
 91
       16
280
     0
281
     0
  0
CLASS
  1
TABLESTYLE
  2
AcDbTableStyle
  3
ObjectDBX Classes
 90
     4095
 91
        1
280
     0
281
     0
  0
CLASS
  1
MLEADERSTYLE
  2
AcDbMLeaderStyle
  3
ACDB_MLEADERSTYLE_CLASS
 90
     4095
 91
        1
280
     0
281
     0
  0
CLASS
  1
ACDBSECTIONVIEWSTYLE
  2
AcDbSectionViewStyle
  3
ObjectDBX Classes
 90
     1025
 91
        1
280
     0
281
     0
  0
CLASS
  1
ACDBDETAILVIEWSTYLE
  2
AcDbDetailViewStyle
  3
ObjectDBX Classes
 90
     1025
 91
        1
280
     0
281
     0
  0
CLASS
  1
DICTIONARYVAR
  2
AcDbDictionaryVar
  3
ObjectDBX Classes
 90
        0
 91
       18
280
     0
281
     0
  0
CLASS
  1
CELLSTYLEMAP
  2
AcDbCellStyleMap
  3
ObjectDBX Classes
 90
     1152
 91
        1
280
     0
281
     0
  0
ENDSEC
  0
SECTION
  2
TABLES
  0
TABLE
  2
VPORT
  5
8
330
0
100
AcDbSymbolTable
 70
     1
1001
ACAD
1000
DbSaveVer
1071
        5
  0
VPORT
  5
818
330
8
100
AcDbSymbolTableRecord
100
AcDbViewportTableRecord
  2
*Active
 70
     0
 10
0.0
 20
0.0
 11
1.0
 21
1.0
 12
795.060654151898
 22
84.54291669885737
 13
0.0
 23
0.0
 14
10.0
 24
10.0
 15
10.0
 25
10.0
 16
0.0
 26
0.0
 36
1.0
 17
0.0
 27
0.0
 37
0.0
 40
283.662588242956
 41
2.292712066905615
 42
50.0
 43
0.0
 44
0.0
 50
0.0
 51
0.0
 71
     0
 72
  2000
 73
     1
 74
     3
 75
     0
 76
     0
 77
     0
 78
     0
281
     0
 65
     1
110
0.0
120
0.0
130
0.0
111
1.0
121
0.0
131
0.0
112
0.0
122
1.0
132
0.0
 79
     0
146
0.0
348
838
 60
     3
 61
     5
292
     1
282
     1
141
0.0
142
0.0
 63
   250
421
  3355443
1001
ACAD_NAV_VCDISPLAY
1070
     3
  0
ENDTAB
  0
TABLE
  2
LTYPE
  5
5
330
0
100
AcDbSymbolTable
 70
    17
  0
LTYPE
  5
14
330
5
100
AcDbSymbolTableRecord
100
AcDbLinetypeTableRecord
  2
ByBlock
 70
     0
  3

 72
    65
 73
     0
 40
0.0
  0
LTYPE
  5
15
330
5
100
AcDbSymbolTableRecord
100
AcDbLinetypeTableRecord
  2
ByLayer
 70
     0
  3

 72
    65
 73
     0
 40
0.0
  0
LTYPE
  5
16
330
5
100
AcDbSymbolTableRecord
100
AcDbLinetypeTableRecord
  2
Continuous
 70
     0
  3
Solid line
 72
    65
 73
     0
 40
0.0
  0
LTYPE
  5
3F
330
5
100
AcDbSymbolTableRecord
100
AcDbLinetypeTableRecord
  2
HIDDEN
 70
     0
  3
Hidden __ __ __ __ __ __ __ __ __ __ __ __ __ __
 72
    65
 73
     2
 40
1.905
 49
1.27
 74
     0
 49
-0.635
 74
     0
  0
LTYPE
  5
40
330
5
100
AcDbSymbolTableRecord
100
AcDbLinetypeTableRecord
  2
PHANTOM
 70
     0
  3
Phantom ______  __  __  ______  __  __  ______
 72
    65
 73
     6
 40
12.7
 49
6.349999999999999
 74
     0
 49
-1.27
 74
     0
 49
1.27
 74
     0
 49
-1.27
 74
     0
 49
1.27
 74
     0
 49
-1.27
 74
     0
  0
LTYPE
  5
41
330
5
100
AcDbSymbolTableRecord
100
AcDbLinetypeTableRecord
  2
CENTER
 70
     0
  3
Center ____ _ ____ _ ____ _ ____ _ ____ _ ____
 72
    65
 73
     4
 40
10.16
 49
6.349999999999999
 74
     0
 49
-1.27
 74
     0
 49
1.27
 74
     0
 49
-1.27
 74
     0
  0
LTYPE
  5
42
330
5
100
AcDbSymbolTableRecord
100
AcDbLinetypeTableRecord
  2
CENTERX2
 70
     0
  3
Center (2x) ________  __  ________  __  _____
 72
    65
 73
     4
 40
20.32
 49
12.7
 74
     0
 49
-2.54
 74
     0
 49
2.54
 74
     0
 49
-2.54
 74
     0
  0
LTYPE
  5
43
330
5
100
AcDbSymbolTableRecord
100
AcDbLinetypeTableRecord
  2
DOT2
 70
     0
  3
Dot (.5x) ........................................
 72
    65
 73
     2
 40
0.635
 49
0.0
 74
     0
 49
-0.635
 74
     0
  0
LTYPE
  5
311
330
5
100
AcDbSymbolTableRecord
100
AcDbLinetypeTableRecord
  2
PHANTOM2
 70
     0
  3
Phantom (.5x) ___ _ _ ___ _ _ ___ _ _ ___ _ _
 72
    65
 73
     6
 40
31.75
 49
15.875
 74
     0
 49
-3.174999999999999
 74
     0
 49
3.174999999999999
 74
     0
 49
-3.174999999999999
 74
     0
 49
3.174999999999999
 74
     0
 49
-3.174999999999999
 74
     0
  0
LTYPE
  5
358
330
5
100
AcDbSymbolTableRecord
100
AcDbLinetypeTableRecord
  2
AM_ISO02W050
 70
     0
  3
__ __ __ __ __ __ __ __ __ __ __ __ __ __ __
 72
    65
 73
     2
 40
7.5
 49
6.0
 74
     0
 49
-1.5
 74
     0
  0
LTYPE
  5
359
330
5
100
AcDbSymbolTableRecord
100
AcDbLinetypeTableRecord
  2
AM_ISO08W050
 70
     0
  3
____ . ____ . ____ . ____ . ____ . ____ . ____
 72
    65
 73
     4
 40
18.0
 49
12.0
 74
     0
 49
-1.5
 74
     0
 49
3.0
 74
     0
 49
-1.5
 74
     0
  0
LTYPE
  5
35A
330
5
100
AcDbSymbolTableRecord
100
AcDbLinetypeTableRecord
  2
AM_ISO09W050
 70
     0
  3
_____ . . _____ . . _____ . . ____ .. ____
 72
    65
 73
     6
 40
22.5
 49
12.0
 74
     0
 49
-1.5
 74
     0
 49
3.0
 74
     0
 49
-1.5
 74
     0
 49
3.0
 74
     0
 49
-1.5
 74
     0
  0
LTYPE
  5
35B
330
5
100
AcDbSymbolTableRecord
100
AcDbLinetypeTableRecord
  2
Amconstr
 70
     0
  3
_______________________
 72
    65
 73
     2
 40
9999.0
 49
9999.0
 74
     0
 49
0.0
 74
     0
  0
LTYPE
  5
35C
330
5
100
AcDbSymbolTableRecord
100
AcDbLinetypeTableRecord
  2
AM_ISO08W050x2
 70
     0
  3
__ . __ . __ . __ . __ . __
 72
    65
 73
     4
 40
9.0
 49
6.0
 74
     0
 49
-0.75
 74
     0
 49
1.5
 74
     0
 49
-0.75
 74
     0
  0
LTYPE
  5
35D
330
5
100
AcDbSymbolTableRecord
100
AcDbLinetypeTableRecord
  2
AM_ISO02W050x2
 70
     0
  3
 _ _ _ _ _ _ _ _ _ _ _ _
 72
    65
 73
     2
 40
3.75
 49
3.0
 74
     0
 49
-0.75
 74
     0
  0
LTYPE
  5
360
330
5
100
AcDbSymbolTableRecord
100
AcDbLinetypeTableRecord
  2
Amzigzag
 70
     0
  3
/\/-/\/-/\/-/\/-/\/-/\/
 72
    65
 73
     2
 40
11.0001
 49
0.0001
 74
     4
 75
   135
340
35F
 46
0.04
 50
0.0
 44
0.0
 45
0.0
 49
-11.0
 74
     0
  0
LTYPE
  5
36F
330
5
100
AcDbSymbolTableRecord
100
AcDbLinetypeTableRecord
  2
ACISOWELD
 70
     0
  3
_ _ _ _ _
 72
    65
 73
     2
 40
2.0
 49
2.0
 74
     0
 49
-1.0
 74
     0
  0
LTYPE
  5
370
330
5
100
AcDbSymbolTableRecord
100
AcDbLinetypeTableRecord
  2
ACISOTGB
 70
     0
  3
__ . . __ . .
 72
    65
 73
     6
 40
9.0
 49
4.0
 74
     0
 49
-1.0
 74
     0
 49
1.0
 74
     0
 49
-1.0
 74
     0
 49
1.0
 74
     0
 49
-1.0
 74
     0
  0
LTYPE
  5
371
330
5
100
AcDbSymbolTableRecord
100
AcDbLinetypeTableRecord
  2
ACISOTGL
 70
     0
  3
_ _ _ _ _
 72
    65
 73
     2
 40
3.0
 49
2.0
 74
     0
 49
-1.0
 74
     0
  0
ENDTAB
  0
TABLE
  2
LAYER
  5
2
330
0
100
AcDbSymbolTable
 70
    16
  0
LAYER
  5
10
102
{ACAD_XDICTIONARY
360
85E
102
}
330
2
100
AcDbSymbolTableRecord
100
AcDbLayerTableRecord
  2
0
 70
     0
 62
     7
  6
Continuous
370
    -3
390
F
347
82A
348
0
  0
LAYER
  5
44
102
{ACAD_XDICTIONARY
360
860
102
}
330
2
100
AcDbSymbolTableRecord
100
AcDbLayerTableRecord
  2
FORMAT
 70
     0
 62
     7
  6
Continuous
370
    -3
390
F
347
82A
348
0
  0
LAYER
  5
45
102
{ACAD_XDICTIONARY
360
862
102
}
330
2
100
AcDbSymbolTableRecord
100
AcDbLayerTableRecord
  2
SLD-0
 70
     0
 62
   179
  6
Continuous
370
    -3
390
F
347
82A
348
0
  0
LAYER
  5
46
102
{ACAD_XDICTIONARY
360
864
102
}
330
2
100
AcDbSymbolTableRecord
100
AcDbLayerTableRecord
  2
AM_5
 70
     0
 62
     3
  6
Continuous
370
    15
390
F
347
82A
348
0
  0
LAYER
  5
47
102
{ACAD_XDICTIONARY
360
866
102
}
330
2
100
AcDbSymbolTableRecord
100
AcDbLayerTableRecord
  2
AM_PAREF
 70
     0
 62
     4
  6
Continuous
370
    15
390
F
347
82A
348
0
  0
LAYER
  5
48
102
{ACAD_XDICTIONARY
360
868
102
}
330
2
100
AcDbSymbolTableRecord
100
AcDbLayerTableRecord
  2
双点划线
 70
     0
 62
     5
  6
PHANTOM
370
    -3
390
F
347
82A
348
0
1001
AcadStringInfo
1000
MIFCodePage
1070
     5
  0
LAYER
  5
49
102
{ACAD_XDICTIONARY
360
86A
102
}
330
2
100
AcDbSymbolTableRecord
100
AcDbLayerTableRecord
  2
虚线
 70
     0
 62
     6
  6
HIDDEN
370
    -3
390
F
347
82A
348
0
1001
AcadStringInfo
1000
MIFCodePage
1070
     5
  0
LAYER
  5
4A
102
{ACAD_XDICTIONARY
360
86C
102
}
330
2
100
AcDbSymbolTableRecord
100
AcDbLayerTableRecord
  2
AM_0
 70
     0
 62
   179
  6
Continuous
370
    40
390
F
347
82A
348
0
  0
LAYER
  5
4B
102
{ACAD_XDICTIONARY
360
86E
102
}
330
2
100
AcDbSymbolTableRecord
100
AcDbLayerTableRecord
  2
AM_0N
 70
     0
 62
   179
  6
Continuous
370
    40
390
F
347
82A
348
0
  0
LAYER
  5
4C
102
{ACAD_XDICTIONARY
360
870
102
}
330
2
100
AcDbSymbolTableRecord
100
AcDbLayerTableRecord
  2
AM_3N
 70
     0
 62
     6
  6
Continuous
370
    15
390
F
347
82A
348
0
  0
LAYER
  5
4D
102
{ACAD_XDICTIONARY
360
872
102
}
330
2
100
AcDbSymbolTableRecord
100
AcDbLayerTableRecord
  2
AM_4N
 70
     0
 62
     3
  6
Continuous
370
    15
390
F
347
82A
348
0
  0
LAYER
  5
4E
102
{ACAD_XDICTIONARY
360
874
102
}
330
2
100
AcDbSymbolTableRecord
100
AcDbLayerTableRecord
  2
AM_12N
 70
     0
 62
   179
  6
Continuous
370
    40
390
F
347
82A
348
0
  0
LAYER
  5
4F
102
{ACAD_XDICTIONARY
360
876
102
}
330
2
100
AcDbSymbolTableRecord
100
AcDbLayerTableRecord
  2
AM_7
 70
     0
 62
     4
  6
Continuous
370
    15
390
F
347
82A
348
0
  0
LAYER
  5
50
102
{ACAD_XDICTIONARY
360
878
102
}
330
2
100
AcDbSymbolTableRecord
100
AcDbLayerTableRecord
  2
CONFIDENTIAL
 70
     0
 62
    -4
  6
Continuous
370
    -3
390
F
347
82A
348
0
  0
LAYER
  5
51
102
{ACAD_XDICTIONARY
360
87A
102
}
330
2
100
AcDbSymbolTableRecord
100
AcDbLayerTableRecord
  2
AM_12
 70
     0
 62
   179
  6
Continuous
370
    40
390
F
347
82A
348
0
  0
LAYER
  5
39F
330
2
100
AcDbSymbolTableRecord
100
AcDbLayerTableRecord
  2
Defpoints
 70
     0
 62
     7
  6
Continuous
290
     0
370
    -3
390
F
347
82A
348
0
  0
ENDTAB
  0
TABLE
  2
STYLE
  5
3
330
0
100
AcDbSymbolTable
 70
     8
  0
STYLE
  5
11
330
3
100
AcDbSymbolTableRecord
100
AcDbTextStyleTableRecord
  2
Standard
 70
     0
 40
0.0
 41
1.0
 50
0.0
 71
     0
 42
2.5
  3
txt
  4

  0
STYLE
  5
88
330
3
100
AcDbSymbolTableRecord
100
AcDbTextStyleTableRecord
  2
SLDTEXTSTYLE0
 70
     0
 40
0.0
 41
0.75
 50
0.0
 71
     0
 42
0.2
  3
TXT
  4
bigfont
  0
STYLE
  5
8A
330
3
100
AcDbSymbolTableRecord
100
AcDbTextStyleTableRecord
  2
SLDTEXTSTYLE1
 70
     0
 40
0.0
 41
0.75
 50
0.0
 71
     0
 42
0.2
  3
TXT
  4

  0
STYLE
  5
96
330
3
100
AcDbSymbolTableRecord
100
AcDbTextStyleTableRecord
  2
SLDTEXTSTYLE2
 70
     0
 40
0.0
 41
0.7
 50
0.0
 71
     0
 42
0.2
  3
TXT
  4
bigfont
  0
STYLE
  5
129
330
3
100
AcDbSymbolTableRecord
100
AcDbTextStyleTableRecord
  2
SLDTEXTSTYLE3
 70
     0
 40
0.0
 41
0.65
 50
0.0
 71
     0
 42
0.2
  3
TXT
  4
bigfont
  0
STYLE
  5
35F
330
3
100
AcDbSymbolTableRecord
100
AcDbTextStyleTableRecord
  2

 70
     1
 40
0.0
 41
1.0
 50
0.0
 71
     0
 42
2.5
  3
ltypeshp.shx
  4

  0
STYLE
  5
361
330
3
100
AcDbSymbolTableRecord
100
AcDbTextStyleTableRecord
  2
ACISOTS
 70
     0
 40
1.0
 41
1.0
 50
0.0
 71
     0
 42
2.5
  3
isocp.shx
  4
gbcbig.shx
  0
STYLE
  5
36E
330
3
100
AcDbSymbolTableRecord
100
AcDbTextStyleTableRecord
  2
ACISOGDT
 70
     0
 40
0.0
 41
1.0
 50
0.0
 71
     0
 42
2.5
  3
amgdt.shx
  4

  0
ENDTAB
  0
TABLE
  2
VIEW
  5
6
330
0
100
AcDbSymbolTable
 70
     0
  0
ENDTAB
  0
TABLE
  2
UCS
  5
7
330
0
100
AcDbSymbolTable
 70
     0
  0
ENDTAB
  0
TABLE
  2
APPID
  5
9
330
0
100
AcDbSymbolTable
 70
    10
  0
APPID
  5
12
330
9
100
AcDbSymbolTableRecord
100
AcDbRegAppTableRecord
  2
ACAD
 70
     0
  0
APPID
  5
2F5
330
9
100
AcDbSymbolTableRecord
100
AcDbRegAppTableRecord
  2
MCAD_NO_VIS
 70
     0
  0
APPID
  5
2F6
330
9
100
AcDbSymbolTableRecord
100
AcDbRegAppTableRecord
  2
ACAD_TEMP_GRAPHIC
 70
     0
  0
APPID
  5
326
330
9
100
AcDbSymbolTableRecord
100
AcDbRegAppTableRecord
  2
AD_DRAW
 70
     0
  0
APPID
  5
329
330
9
100
AcDbSymbolTableRecord
100
AcDbRegAppTableRecord
  2
ACATTRIBSERVICES
 70
     0
  0
APPID
  5
347
330
9
100
AcDbSymbolTableRecord
100
AcDbRegAppTableRecord
  2
DESIGNERASSEMBLIES
 70
     0
  0
APPID
  5
34D
330
9
100
AcDbSymbolTableRecord
100
AcDbRegAppTableRecord
  2
ACADM_DIM_EDIT
 70
     0
  0
APPID
  5
34E
330
9
100
AcDbSymbolTableRecord
100
AcDbRegAppTableRecord
  2
AMDT_DM_ADJ
 70
     0
  0
APPID
  5
854
330
9
100
AcDbSymbolTableRecord
100
AcDbRegAppTableRecord
  2
AcadStringInfo
 70
     0
  0
APPID
  5
87C
330
9
100
AcDbSymbolTableRecord
100
AcDbRegAppTableRecord
  2
ACAD_NAV_VCDISPLAY
 70
     0
  0
ENDTAB
  0
TABLE
  2
DIMSTYLE
  5
A
330
0
100
AcDbSymbolTable
 70
     8
100
AcDbDimStyleTable
 71
     1
340
27
  0
DIMSTYLE
105
27
102
{ACAD_REACTORS
330
7A1
330
7CB
330
7F3
102
}
330
A
100
AcDbSymbolTableRecord
100
AcDbDimStyleTableRecord
  2
ISO-25
 70
     0
 41
2.5
 42
0.625
 43
3.75
 44
1.25
 73
     0
 74
     0
 77
     1
 78
     8
140
2.5
141
2.5
143
0.03937007874016
147
0.625
171
     3
172
     1
271
     2
272
     2
274
     3
278
    44
283
     0
284
     8
340
11
  0
DIMSTYLE
105
37A
330
A
100
AcDbSymbolTableRecord
100
AcDbDimStyleTableRecord
  2
AM_ISO
 70
     0
  4
"
 41
2.5
 42
1.0
 43
10.0
 44
1.0
 47
0.1
 48
0.1
 73
     0
 74
     0
 77
     1
 78
     8
 79
     2
140
3.5
141
0.0
143
0.0393701
146
0.71
147
1.5
172
     1
176
   256
177
   256
178
     2
271
     2
272
     3
274
     4
283
     0
284
     8
340
11
371
    -1
372
    -1
  0
DIMSTYLE
105
37B
330
A
100
AcDbSymbolTableRecord
100
AcDbDimStyleTableRecord
  2
AM_ISO$3
 70
     0
  4
"
 41
2.5
 42
1.0
 43
10.0
 44
1.0
 47
0.1
 48
0.1
 73
     0
 77
     1
 78
     8
 79
     2
140
3.5
141
0.0
143
0.0393701
146
0.71
147
1.5
176
   256
177
   256
178
     2
271
     2
272
     3
274
     4
283
     0
284
     8
288
     1
289
     0
340
11
371
    -1
372
    -1
  0
DIMSTYLE
105
37C
330
A
100
AcDbSymbolTableRecord
100
AcDbDimStyleTableRecord
  2
AM_ISO$4
 70
     0
  4
"
 41
2.5
 42
1.0
 43
10.0
 44
1.0
 47
0.1
 48
0.1
 73
     0
 77
     1
 78
     8
 79
     2
140
3.5
141
0.0
143
0.0393701
146
0.71
147
1.5
176
   256
177
   256
178
     2
271
     2
272
     3
274
     4
283
     0
284
     8
288
     1
289
     0
340
11
371
    -1
372
    -1
  0
DIMSTYLE
105
37D
330
A
100
AcDbSymbolTableRecord
100
AcDbDimStyleTableRecord
  2
AM_ISO$6
 70
     0
  4
"
 41
2.5
 42
1.0
 43
10.0
 44
1.0
 47
0.1
 48
0.1
 73
     0
 74
     0
 78
     8
 79
     2
140
3.5
141
0.0
143
0.0393701
146
0.71
147
1.5
172
     1
176
   256
177
   256
178
     2
271
     2
272
     3
274
     4
283
     0
284
     8
340
11
371
    -1
372
    -1
  0
DIMSTYLE
105
37E
330
A
100
AcDbSymbolTableRecord
100
AcDbDimStyleTableRecord
  2
AM_ISO$7
 70
     0
  4
"
 41
2.5
 42
1.0
 43
10.0
 44
1.0
 47
0.1
 48
0.1
 73
     0
 74
     0
 77
     1
 78
     8
 79
     2
140
5.0
141
0.0
143
0.0393701
146
0.71
147
1.5
172
     1
176
   256
177
   256
178
     2
271
     2
272
     3
274
     4
283
     0
284
     8
340
11
371
    -1
372
    -1
  0
DIMSTYLE
105
37F
330
A
100
AcDbSymbolTableRecord
100
AcDbDimStyleTableRecord
  2
AM_ISO$SF
 70
     0
  4
"
 41
2.5
 42
1.0
 43
10.0
 44
1.0
 47
0.1
 48
0.1
 73
     0
 74
     0
 75
     1
 76
     1
 77
     1
 78
     8
 79
     2
140
3.5
141
0.0
143
0.0393701
146
0.71
147
1.5
172
     1
176
   256
177
   256
178
     2
271
     2
272
     3
274
     4
283
     0
284
     8
340
11
371
    -1
372
    -1
  0
DIMSTYLE
105
384
330
A
100
AcDbSymbolTableRecord
100
AcDbDimStyleTableRecord
  2
AM_ISO$SH
 70
     0
  4
"
 41
2.5
 42
1.0
 43
10.0
 44
1.0
 47
0.1
 48
0.1
 73
     0
 74
     0
 75
     1
 76
     1
 77
     1
 78
     8
 79
     2
140
3.5
141
0.0
143
0.0393701
144
2.0
146
0.71
147
1.5
172
     1
173
     1
176
   256
177
   256
178
     2
271
     2
272
     3
274
     4
283
     0
284
     8
340
11
343
380
371
    -1
372
    -1
  0
ENDTAB
  0
TABLE
  2
BLOCK_RECORD
  5
1
330
0
100
AcDbSymbolTable
 70
    31
  0
BLOCK_RECORD
  5
1F
102
{ACAD_XDICTIONARY
360
41F
102
}
330
1
100
AcDbSymbolTableRecord
100
AcDbBlockTableRecord
  2
*Model_Space
340
22
 70
     0
280
     1
281
     0
  0
BLOCK_RECORD
  5
1B
330
1
100
AcDbSymbolTableRecord
100
AcDbBlockTableRecord
  2
*Paper_Space
340
1E
 70
     0
280
     1
281
     0
  0
BLOCK_RECORD
  5
23
330
1
100
AcDbSymbolTableRecord
100
AcDbBlockTableRecord
  2
*Paper_Space0
340
26
 70
     0
280
     1
281
     0
  0
BLOCK_RECORD
  5
8C
330
1
100
AcDbSymbolTableRecord
100
AcDbBlockTableRecord
  2
SW_NOTE_0
340
0
 70
     0
280
     1
281
     0
  0
BLOCK_RECORD
  5
9E
330
1
100
AcDbSymbolTableRecord
100
AcDbBlockTableRecord
  2
SW_NOTE_1
340
0
 70
     0
280
     1
281
     0
  0
BLOCK_RECORD
  5
A6
330
1
100
AcDbSymbolTableRecord
100
AcDbBlockTableRecord
  2
SW_NOTE_2
340
0
 70
     0
280
     1
281
     0
  0
BLOCK_RECORD
  5
B2
330
1
100
AcDbSymbolTableRecord
100
AcDbBlockTableRecord
  2
SW_NOTE_3
340
0
 70
     0
280
     1
281
     0
  0
BLOCK_RECORD
  5
B9
330
1
100
AcDbSymbolTableRecord
100
AcDbBlockTableRecord
  2
SW_NOTE_4
340
0
 70
     0
280
     1
281
     0
  0
BLOCK_RECORD
  5
BF
330
1
100
AcDbSymbolTableRecord
100
AcDbBlockTableRecord
  2
SW_NOTE_5
340
0
 70
     0
280
     1
281
     0
  0
BLOCK_RECORD
  5
C9
330
1
100
AcDbSymbolTableRecord
100
AcDbBlockTableRecord
  2
SW_NOTE_6
340
0
 70
     0
280
     1
281
     0
  0
BLOCK_RECORD
  5
D2
330
1
100
AcDbSymbolTableRecord
100
AcDbBlockTableRecord
  2
SW_NOTE_7
340
0
 70
     0
280
     1
281
     0
  0
BLOCK_RECORD
  5
D9
330
1
100
AcDbSymbolTableRecord
100
AcDbBlockTableRecord
  2
SW_NOTE_8
340
0
 70
     0
280
     1
281
     0
  0
BLOCK_RECORD
  5
DF
330
1
100
AcDbSymbolTableRecord
100
AcDbBlockTableRecord
  2
SW_NOTE_9
340
0
 70
     0
280
     1
281
     0
  0
BLOCK_RECORD
  5
E5
330
1
100
AcDbSymbolTableRecord
100
AcDbBlockTableRecord
  2
SW_NOTE_10
340
0
 70
     0
280
     1
281
     0
  0
BLOCK_RECORD
  5
EC
330
1
100
AcDbSymbolTableRecord
100
AcDbBlockTableRecord
  2
SW_NOTE_11
340
0
 70
     0
280
     1
281
     0
  0
BLOCK_RECORD
  5
F2
330
1
100
AcDbSymbolTableRecord
100
AcDbBlockTableRecord
  2
SW_NOTE_12
340
0
 70
     0
280
     1
281
     0
  0
BLOCK_RECORD
  5
F8
330
1
100
AcDbSymbolTableRecord
100
AcDbBlockTableRecord
  2
SW_NOTE_13
340
0
 70
     0
280
     1
281
     0
  0
BLOCK_RECORD
  5
FE
330
1
100
AcDbSymbolTableRecord
100
AcDbBlockTableRecord
  2
SW_NOTE_14
340
0
 70
     0
280
     1
281
     0
  0
BLOCK_RECORD
  5
104
330
1
100
AcDbSymbolTableRecord
100
AcDbBlockTableRecord
  2
SW_NOTE_15
340
0
 70
     0
280
     1
281
     0
  0
BLOCK_RECORD
  5
10A
330
1
100
AcDbSymbolTableRecord
100
AcDbBlockTableRecord
  2
SW_NOTE_16
340
0
 70
     0
280
     1
281
     0
  0
BLOCK_RECORD
  5
111
330
1
100
AcDbSymbolTableRecord
100
AcDbBlockTableRecord
  2
SW_NOTE_17
340
0
 70
     0
280
     1
281
     0
  0
BLOCK_RECORD
  5
117
330
1
100
AcDbSymbolTableRecord
100
AcDbBlockTableRecord
  2
SW_NOTE_18
340
0
 70
     0
280
     1
281
     0
  0
BLOCK_RECORD
  5
11D
330
1
100
AcDbSymbolTableRecord
100
AcDbBlockTableRecord
  2
SW_NOTE_19
340
0
 70
     0
280
     1
281
     0
  0
BLOCK_RECORD
  5
123
330
1
100
AcDbSymbolTableRecord
100
AcDbBlockTableRecord
  2
SW_NOTE_20
340
0
 70
     0
280
     1
281
     0
  0
BLOCK_RECORD
  5
12C
330
1
100
AcDbSymbolTableRecord
100
AcDbBlockTableRecord
  2
SW_SFSYMBOL_0
340
0
 70
     0
280
     1
281
     0
  0
BLOCK_RECORD
  5
33E
330
1
100
AcDbSymbolTableRecord
100
AcDbBlockTableRecord
  2
*U23
340
0
 70
     0
280
     1
281
     0
  0
BLOCK_RECORD
  5
380
330
1
100
AcDbSymbolTableRecord
100
AcDbBlockTableRecord
  2
GENAXEH
340
0
 70
     0
280
     1
281
     0
  0
BLOCK_RECORD
  5
7A2
330
1
100
AcDbSymbolTableRecord
100
AcDbBlockTableRecord
  2
*D28
340
0
 70
     0
280
     1
281
     0
  0
BLOCK_RECORD
  5
7CC
330
1
100
AcDbSymbolTableRecord
100
AcDbBlockTableRecord
  2
*D29
340
0
 70
     0
280
     1
281
     0
  0
BLOCK_RECORD
  5
7F4
330
1
100
AcDbSymbolTableRecord
100
AcDbBlockTableRecord
  2
*D30
340
0
 70
     0
280
     1
281
     0
  0
ENDTAB
  0
ENDSEC
  0
SECTION
  2
BLOCKS
  0
BLOCK
  5
20
330
1F
100
AcDbEntity
  8
0
100
AcDbBlockBegin
  2
*Model_Space
 70
     0
 10
0.0
 20
0.0
 30
0.0
  3
*Model_Space
  1

  0
ENDBLK
  5
21
330
1F
100
AcDbEntity
  8
0
100
AcDbBlockEnd
  0
BLOCK
  5
1C
330
1B
100
AcDbEntity
 67
     1
  8
0
100
AcDbBlockBegin
  2
*Paper_Space
 70
     0
 10
0.0
 20
0.0
 30
0.0
  3
*Paper_Space
  1

  0
ENDBLK
  5
1D
330
1B
100
AcDbEntity
 67
     1
  8
0
100
AcDbBlockEnd
  0
BLOCK
  5
24
330
23
100
AcDbEntity
 67
     1
  8
0
100
AcDbBlockBegin
  2
*Paper_Space0
 70
     0
 10
0.0
 20
0.0
 30
0.0
  3
*Paper_Space0
  1

  0
ENDBLK
  5
25
330
23
100
AcDbEntity
 67
     1
  8
0
100
AcDbBlockEnd
  0
BLOCK
  5
8D
330
8C
100
AcDbEntity
  8
0
100
AcDbBlockBegin
  2
SW_NOTE_0
 70
     0
 10
0.0
 20
0.0
 30
0.0
  3
SW_NOTE_0
  1

  0
MTEXT
  5
8F
330
8C
100
AcDbEntity
  8
SLD-0
 62
     0
100
AcDbMText
 10
0.0
 20
3.867203219315898
 30
0.0
 40
3.0
 41
0.0
 46
0.0
 71
     1
 72
     1
  1
技术要求：
  7
SLDTEXTSTYLE0
 73
     1
 44
1.0
  0
MTEXT
  5
90
330
8C
100
AcDbEntity
  8
SLD-0
 62
     0
100
AcDbMText
 10
0.0
 20
0.0547031764750565
 30
0.0
 40
3.0
 41
0.0
 46
0.0
 71
     1
 72
     1
  1
1.去除所有毛刺；
  7
SLDTEXTSTYLE0
 73
     1
 44
1.0
  0
MTEXT
  5
91
330
8C
100
AcDbEntity
  8
SLD-0
 62
     0
100
AcDbMText
 10
0.0
 20
-3.757796866365782
 30
0.0
 40
3.0
 41
0.0
 46
0.0
 71
     1
 72
     1
  1
2.产品表面处理依照BOM要求；
  7
SLDTEXTSTYLE0
 73
     1
 44
1.0
  0
ENDBLK
  5
8E
330
8C
100
AcDbEntity
  8
0
100
AcDbBlockEnd
  0
BLOCK
  5
9F
330
9E
100
AcDbEntity
  8
0
100
AcDbBlockBegin
  2
SW_NOTE_1
 70
     0
 10
0.0
 20
0.0
 30
0.0
  3
SW_NOTE_1
  1

  0
MTEXT
  5
A1
330
9E
100
AcDbEntity
  8
SLD-0
 62
     0
100
AcDbMText
 10
2.062499999999994
 20
3.867203219315898
 30
0.0
 40
3.0
 41
0.0
 46
0.0
 71
     2
 72
     1
  1
产
  7
SLDTEXTSTYLE2
 73
     1
 44
1.0
  0
MTEXT
  5
A2
330
9E
100
AcDbEntity
  8
SLD-0
 62
     0
100
AcDbMText
 10
2.062499999999994
 20
-0.1327969706739103
 30
0.0
 40
3.0
 41
0.0
 46
0.0
 71
     2
 72
     1
  1
品
  7
SLDTEXTSTYLE2
 73
     1
 44
1.0
  0
MTEXT
  5
A3
330
9E
100
AcDbEntity
  8
SLD-0
 62
     0
100
AcDbMText
 10
2.062499999999994
 20
-4.132797160663715
 30
0.0
 40
3.0
 41
0.0
 46
0.0
 71
     2
 72
     1
  1
特
  7
SLDTEXTSTYLE2
 73
     1
 44
1.0
  0
MTEXT
  5
A4
330
9E
100
AcDbEntity
  8
SLD-0
 62
     0
100
AcDbMText
 10
2.062499999999994
 20
-8.13279735065352
 30
0.0
 40
3.0
 41
0.0
 46
0.0
 71
     2
 72
     1
  1
征
  7
SLDTEXTSTYLE2
 73
     1
 44
1.0
  0
ENDBLK
  5
A0
330
9E
100
AcDbEntity
  8
0
100
AcDbBlockEnd
  0
BLOCK
  5
A7
330
A6
100
AcDbEntity
  8
0
100
AcDbBlockBegin
  2
SW_NOTE_2
 70
     0
 10
0.0
 20
0.0
 30
0.0
  3
SW_NOTE_2
  1

  0
MTEXT
  5
A9
330
A6
100
AcDbEntity
  8
SLD-0
 62
     0
100
AcDbMText
 10
2.062499999999994
 20
3.867203219315898
 30
0.0
 40
3.0
 41
0.0
 46
0.0
 71
     2
 72
     1
  1
材
  7
SLDTEXTSTYLE2
 73
     1
 44
1.0
  0
MTEXT
  5
AA
330
A6
100
AcDbEntity
  8
SLD-0
 62
     0
100
AcDbMText
 10
2.062499999999994
 20
-0.1327969706739068
 30
0.0
 40
3.0
 41
0.0
 46
0.0
 71
     2
 72
     1
  1
料
  7
SLDTEXTSTYLE2
 73
     1
 44
1.0
  0
MTEXT
  5
AB
330
A6
100
AcDbEntity
  8
SLD-0
 62
     0
100
AcDbMText
 10
2.062499999999994
 20
-4.132797160663711
 30
0.0
 40
3.0
 41
0.0
 46
0.0
 71
     2
 72
     1
  1
特
  7
SLDTEXTSTYLE2
 73
     1
 44
1.0
  0
MTEXT
  5
AC
330
A6
100
AcDbEntity
  8
SLD-0
 62
     0
100
AcDbMText
 10
2.062499999999994
 20
-8.132797350653516
 30
0.0
 40
3.0
 41
0.0
 46
0.0
 71
     2
 72
     1
  1
征
  7
SLDTEXTSTYLE2
 73
     1
 44
1.0
  0
ENDBLK
  5
A8
330
A6
100
AcDbEntity
  8
0
100
AcDbBlockEnd
  0
BLOCK
  5
B3
330
B2
100
AcDbEntity
  8
0
100
AcDbBlockBegin
  2
SW_NOTE_3
 70
     0
 10
0.0
 20
0.0
 30
0.0
  3
SW_NOTE_3
  1

  0
MTEXT
  5
B5
330
B2
100
AcDbEntity
  8
SLD-0
 62
     0
100
AcDbMText
 10
0.0
 20
3.867203219315898
 30
0.0
 40
3.0
 41
0.0
 46
0.0
 71
     1
 72
     1
  1
原
  7
SLDTEXTSTYLE2
 73
     1
 44
1.0
  0
MTEXT
  5
B6
330
B2
100
AcDbEntity
  8
SLD-0
 62
     0
100
AcDbMText
 10
0.0
 20
-0.1327969706739103
 30
0.0
 40
3.0
 41
0.0
 46
0.0
 71
     1
 72
     1
  1
代
  7
SLDTEXTSTYLE2
 73
     1
 44
1.0
  0
MTEXT
  5
B7
330
B2
100
AcDbEntity
  8
SLD-0
 62
     0
100
AcDbMText
 10
0.0
 20
-4.132797160663715
 30
0.0
 40
3.0
 41
0.0
 46
0.0
 71
     1
 72
     1
  1
号
  7
SLDTEXTSTYLE2
 73
     1
 44
1.0
  0
ENDBLK
  5
B4
330
B2
100
AcDbEntity
  8
0
100
AcDbBlockEnd
  0
BLOCK
  5
BA
330
B9
100
AcDbEntity
  8
0
100
AcDbBlockBegin
  2
SW_NOTE_4
 70
     0
 10
0.0
 20
0.0
 30
0.0
  3
SW_NOTE_4
  1

  0
MTEXT
  5
BC
330
B9
100
AcDbEntity
  8
SLD-0
 62
     0
100
AcDbMText
 10
0.0
 20
3.867203219315898
 30
0.0
 40
3.0
 41
0.0
 46
0.0
 71
     1
 72
     1
  1
名
  7
SLDTEXTSTYLE2
 73
     1
 44
1.0
  0
MTEXT
  5
BD
330
B9
100
AcDbEntity
  8
SLD-0
 62
     0
100
AcDbMText
 10
0.0
 20
-0.1327969706739068
 30
0.0
 40
3.0
 41
0.0
 46
0.0
 71
     1
 72
     1
  1
称
  7
SLDTEXTSTYLE2
 73
     1
 44
1.0
  0
ENDBLK
  5
BB
330
B9
100
AcDbEntity
  8
0
100
AcDbBlockEnd
  0
BLOCK
  5
C0
330
BF
100
AcDbEntity
  8
0
100
AcDbBlockBegin
  2
SW_NOTE_5
 70
     0
 10
0.0
 20
0.0
 30
0.0
  3
SW_NOTE_5
  1

  0
MTEXT
  5
C2
330
BF
100
AcDbEntity
  8
SLD-0
 62
     0
100
AcDbMText
 10
0.0
 20
3.867203219315898
 30
0.0
 40
3.0
 41
0.0
 46
0.0
 71
     1
 72
     1
  1
代
  7
SLDTEXTSTYLE2
 73
     1
 44
1.0
  0
MTEXT
  5
C3
330
BF
100
AcDbEntity
  8
SLD-0
 62
     0
100
AcDbMText
 10
0.0
 20
-0.1327969706739068
 30
0.0
 40
3.0
 41
0.0
 46
0.0
 71
     1
 72
     1
  1
号
  7
SLDTEXTSTYLE2
 73
     1
 44
1.0
  0
ENDBLK
  5
C1
330
BF
100
AcDbEntity
  8
0
100
AcDbBlockEnd
  0
BLOCK
  5
CA
330
C9
100
AcDbEntity
  8
0
100
AcDbBlockBegin
  2
SW_NOTE_6
 70
     0
 10
0.0
 20
0.0
 30
0.0
  3
SW_NOTE_6
  1

  0
MTEXT
  5
CC
330
C9
100
AcDbEntity
  8
SLD-0
 62
     0
100
AcDbMText
 10
0.0
 20
3.609389671361498
 30
0.0
 40
2.799999999999999
 41
0.0
 46
0.0
 71
     1
 72
     1
  1
未注
  7
SLDTEXTSTYLE2
 73
     1
 44
1.0
  0
MTEXT
  5
CD
330
C9
100
AcDbEntity
  8
SLD-0
 62
     0
100
AcDbMText
 10
0.0
 20
-0.1906103927134944
 30
0.0
 40
2.799999999999999
 41
0.0
 46
0.0
 71
     1
 72
     1
  1
公差
  7
SLDTEXTSTYLE2
 73
     1
 44
1.0
  0
ENDBLK
  5
CB
330
C9
100
AcDbEntity
  8
0
100
AcDbBlockEnd
  0
BLOCK
  5
D3
330
D2
100
AcDbEntity
  8
0
100
AcDbBlockBegin
  2
SW_NOTE_7
 70
     0
 10
0.0
 20
0.0
 30
0.0
  3
SW_NOTE_7
  1

  0
MTEXT
  5
D5
330
D2
100
AcDbEntity
  8
SLD-0
 62
     0
100
AcDbMText
 10
0.9374999999999939
 20
3.222669349429913
 30
0.0
 40
2.5
 41
0.0
 46
0.0
 71
     2
 72
     1
  1
%%p
  7
SLDTEXTSTYLE1
 73
     1
 44
1.0
  0
MTEXT
  5
D6
330
D2
100
AcDbEntity
  8
SLD-0
 62
     0
100
AcDbMText
 10
4.556250050663942
 20
3.222669349429913
 30
0.0
 40
2.5
 41
0.0
 46
0.0
 71
     2
 72
     1
  1
0.1
  7
SLDTEXTSTYLE1
 73
     1
 44
1.0
  0
ENDBLK
  5
D4
330
D2
100
AcDbEntity
  8
0
100
AcDbBlockEnd
  0
BLOCK
  5
DA
330
D9
100
AcDbEntity
  8
0
100
AcDbBlockBegin
  2
SW_NOTE_8
 70
     0
 10
0.0
 20
0.0
 30
0.0
  3
SW_NOTE_8
  1

  0
MTEXT
  5
DC
330
D9
100
AcDbEntity
  8
SLD-0
 62
     0
100
AcDbMText
 10
0.9374999999999939
 20
3.222669349429913
 30
0.0
 40
2.5
 41
0.0
 46
0.0
 71
     2
 72
     1
  1
%%p
  7
SLDTEXTSTYLE1
 73
     1
 44
1.0
  0
MTEXT
  5
DD
330
D9
100
AcDbEntity
  8
SLD-0
 62
     0
100
AcDbMText
 10
5.415625050663952
 20
3.222669349429913
 30
0.0
 40
2.5
 41
0.0
 46
0.0
 71
     2
 72
     1
  1
0.15
  7
SLDTEXTSTYLE1
 73
     1
 44
1.0
  0
ENDBLK
  5
DB
330
D9
100
AcDbEntity
  8
0
100
AcDbBlockEnd
  0
BLOCK
  5
E0
330
DF
100
AcDbEntity
  8
0
100
AcDbBlockBegin
  2
SW_NOTE_9
 70
     0
 10
0.0
 20
0.0
 30
0.0
  3
SW_NOTE_9
  1

  0
MTEXT
  5
E2
330
DF
100
AcDbEntity
  8
SLD-0
 62
     0
100
AcDbMText
 10
0.9375000000000078
 20
3.222669349429913
 30
0.0
 40
2.5
 41
0.0
 46
0.0
 71
     2
 72
     1
  1
%%p
  7
SLDTEXTSTYLE1
 73
     1
 44
1.0
  0
MTEXT
  5
E3
330
DF
100
AcDbEntity
  8
SLD-0
 62
     0
100
AcDbMText
 10
4.556250050663956
 20
3.222669349429913
 30
0.0
 40
2.5
 41
0.0
 46
0.0
 71
     2
 72
     1
  1
0.4
  7
SLDTEXTSTYLE1
 73
     1
 44
1.0
  0
ENDBLK
  5
E1
330
DF
100
AcDbEntity
  8
0
100
AcDbBlockEnd
  0
BLOCK
  5
E6
330
E5
100
AcDbEntity
  8
0
100
AcDbBlockBegin
  2
SW_NOTE_10
 70
     0
 10
0.0
 20
0.0
 30
0.0
  3
SW_NOTE_10
  1

  0
MTEXT
  5
E8
330
E5
100
AcDbEntity
  8
SLD-0
 62
     0
100
AcDbMText
 10
0.9375000000000078
 20
3.222669349429913
 30
0.0
 40
2.5
 41
0.0
 46
0.0
 71
     2
 72
     1
  1
%%p
  7
SLDTEXTSTYLE1
 73
     1
 44
1.0
  0
MTEXT
  5
E9
330
E5
100
AcDbEntity
  8
SLD-0
 62
     0
100
AcDbMText
 10
4.556250050663956
 20
3.222669349429913
 30
0.0
 40
2.5
 41
0.0
 46
0.0
 71
     2
 72
     1
  1
0.3
  7
SLDTEXTSTYLE1
 73
     1
 44
1.0
  0
ENDBLK
  5
E7
330
E5
100
AcDbEntity
  8
0
100
AcDbBlockEnd
  0
BLOCK
  5
ED
330
EC
100
AcDbEntity
  8
0
100
AcDbBlockBegin
  2
SW_NOTE_11
 70
     0
 10
0.0
 20
0.0
 30
0.0
  3
SW_NOTE_11
  1

  0
MTEXT
  5
EF
330
EC
100
AcDbEntity
  8
SLD-0
 62
     0
100
AcDbMText
 10
0.9375000000000078
 20
3.222669349429913
 30
0.0
 40
2.5
 41
0.0
 46
0.0
 71
     2
 72
     1
  1
%%p
  7
SLDTEXTSTYLE1
 73
     1
 44
1.0
  0
MTEXT
  5
F0
330
EC
100
AcDbEntity
  8
SLD-0
 62
     0
100
AcDbMText
 10
4.556250050663956
 20
3.222669349429913
 30
0.0
 40
2.5
 41
0.0
 46
0.0
 71
     2
 72
     1
  1
0.4
  7
SLDTEXTSTYLE1
 73
     1
 44
1.0
  0
ENDBLK
  5
EE
330
EC
100
AcDbEntity
  8
0
100
AcDbBlockEnd
  0
BLOCK
  5
F3
330
F2
100
AcDbEntity
  8
0
100
AcDbBlockBegin
  2
SW_NOTE_12
 70
     0
 10
0.0
 20
0.0
 30
0.0
  3
SW_NOTE_12
  1

  0
MTEXT
  5
F5
330
F2
100
AcDbEntity
  8
SLD-0
 62
     0
100
AcDbMText
 10
4.335937499999998
 20
3.222669349429913
 30
0.0
 40
2.5
 41
0.0
 46
0.0
 71
     2
 72
     1
  1
>0-10
  7
SLDTEXTSTYLE1
 73
     1
 44
1.0
  0
MTEXT
  5
F6
330
F2
100
AcDbEntity
  8
SLD-0
 62
     0
100
AcDbMText
 10
9.701388701796542
 20
3.222669349429913
 30
0.0
 40
2.5
 41
0.0
 46
0.0
 71
     2
 72
     1
  1
%%d
  7
SLDTEXTSTYLE1
 73
     1
 44
1.0
  0
ENDBLK
  5
F4
330
F2
100
AcDbEntity
  8
0
100
AcDbBlockEnd
  0
BLOCK
  5
F9
330
F8
100
AcDbEntity
  8
0
100
AcDbBlockBegin
  2
SW_NOTE_13
 70
     0
 10
0.0
 20
0.0
 30
0.0
  3
SW_NOTE_13
  1

  0
MTEXT
  5
FB
330
F8
100
AcDbEntity
  8
SLD-0
 62
     0
100
AcDbMText
 10
5.195312499999992
 20
3.222669349429913
 30
0.0
 40
2.5
 41
0.0
 46
0.0
 71
     2
 72
     1
  1
>10-50
  7
SLDTEXTSTYLE1
 73
     1
 44
1.0
  0
MTEXT
  5
FC
330
F8
100
AcDbEntity
  8
SLD-0
 62
     0
100
AcDbMText
 10
11.48611102253199
 20
3.222669349429913
 30
0.0
 40
2.5
 41
0.0
 46
0.0
 71
     2
 72
     1
  1
%%d
  7
SLDTEXTSTYLE1
 73
     1
 44
1.0
  0
ENDBLK
  5
FA
330
F8
100
AcDbEntity
  8
0
100
AcDbBlockEnd
  0
BLOCK
  5
FF
330
FE
100
AcDbEntity
  8
0
100
AcDbBlockBegin
  2
SW_NOTE_14
 70
     0
 10
0.0
 20
0.0
 30
0.0
  3
SW_NOTE_14
  1

  0
MTEXT
  5
101
330
FE
100
AcDbEntity
  8
SLD-0
 62
     0
100
AcDbMText
 10
6.054687499999989
 20
3.222669349429913
 30
0.0
 40
2.5
 41
0.0
 46
0.0
 71
     2
 72
     1
  1
>50-120
  7
SLDTEXTSTYLE1
 73
     1
 44
1.0
  0
MTEXT
  5
102
330
FE
100
AcDbEntity
  8
SLD-0
 62
     0
100
AcDbMText
 10
13.27083334326745
 20
3.222669349429913
 30
0.0
 40
2.5
 41
0.0
 46
0.0
 71
     2
 72
     1
  1
%%d
  7
SLDTEXTSTYLE1
 73
     1
 44
1.0
  0
ENDBLK
  5
100
330
FE
100
AcDbEntity
  8
0
100
AcDbBlockEnd
  0
BLOCK
  5
105
330
104
100
AcDbEntity
  8
0
100
AcDbBlockBegin
  2
SW_NOTE_15
 70
     0
 10
0.0
 20
0.0
 30
0.0
  3
SW_NOTE_15
  1

  0
MTEXT
  5
107
330
104
100
AcDbEntity
  8
SLD-0
 62
     0
100
AcDbMText
 10
1.601562499999986
 20
3.222669349429913
 30
0.0
 40
2.5
 41
0.0
 46
0.0
 71
     2
 72
     1
  1
角
  7
SLDTEXTSTYLE0
 73
     1
 44
1.0
  0
MTEXT
  5
108
330
104
100
AcDbEntity
  8
SLD-0
 62
     0
100
AcDbMText
 10
1.601562499999986
 20
-0.2773307586035056
 30
0.0
 40
2.5
 41
0.0
 46
0.0
 71
     2
 72
     1
  1
度
  7
SLDTEXTSTYLE0
 73
     1
 44
1.0
  0
ENDBLK
  5
106
330
104
100
AcDbEntity
  8
0
100
AcDbBlockEnd
  0
BLOCK
  5
10B
330
10A
100
AcDbEntity
  8
0
100
AcDbBlockBegin
  2
SW_NOTE_16
 70
     0
 10
0.0
 20
0.0
 30
0.0
  3
SW_NOTE_16
  1

  0
MTEXT
  5
10D
330
10A
100
AcDbEntity
  8
SLD-0
 62
     0
100
AcDbMText
 10
0.9375000000000078
 20
3.222669349429913
 30
0.0
 40
2.5
 41
0.0
 46
0.0
 71
     2
 72
     1
  1
%%p
  7
SLDTEXTSTYLE1
 73
     1
 44
1.0
  0
MTEXT
  5
10E
330
10A
100
AcDbEntity
  8
SLD-0
 62
     0
100
AcDbMText
 10
3.228125050663943
 20
3.222669349429913
 30
0.0
 40
2.5
 41
0.0
 46
0.0
 71
     2
 72
     1
  1
1
  7
SLDTEXTSTYLE1
 73
     1
 44
1.0
  0
MTEXT
  5
10F
330
10A
100
AcDbEntity
  8
SLD-0
 62
     0
100
AcDbMText
 10
4.934722371399413
 20
3.222669349429913
 30
0.0
 40
2.5
 41
0.0
 46
0.0
 71
     2
 72
     1
  1
%%d
  7
SLDTEXTSTYLE1
 73
     1
 44
1.0
  0
ENDBLK
  5
10C
330
10A
100
AcDbEntity
  8
0
100
AcDbBlockEnd
  0
BLOCK
  5
112
330
111
100
AcDbEntity
  8
0
100
AcDbBlockBegin
  2
SW_NOTE_17
 70
     0
 10
0.0
 20
0.0
 30
0.0
  3
SW_NOTE_17
  1

  0
MTEXT
  5
114
330
111
100
AcDbEntity
  8
SLD-0
 62
     0
100
AcDbMText
 10
0.9375000000000078
 20
3.222669349429913
 30
0.0
 40
2.5
 41
0.0
 46
0.0
 71
     2
 72
     1
  1
%%p
  7
SLDTEXTSTYLE1
 73
     1
 44
1.0
  0
MTEXT
  5
115
330
111
100
AcDbEntity
  8
SLD-0
 62
     0
100
AcDbMText
 10
4.439062550663952
 20
3.222669349429913
 30
0.0
 40
2.5
 41
0.0
 46
0.0
 71
     2
 72
     1
  1
20'
  7
SLDTEXTSTYLE1
 73
     1
 44
1.0
  0
ENDBLK
  5
113
330
111
100
AcDbEntity
  8
0
100
AcDbBlockEnd
  0
BLOCK
  5
118
330
117
100
AcDbEntity
  8
0
100
AcDbBlockBegin
  2
SW_NOTE_18
 70
     0
 10
0.0
 20
0.0
 30
0.0
  3
SW_NOTE_18
  1

  0
MTEXT
  5
11A
330
117
100
AcDbEntity
  8
SLD-0
 62
     0
100
AcDbMText
 10
0.9375000000000078
 20
3.222669349429913
 30
0.0
 40
2.5
 41
0.0
 46
0.0
 71
     2
 72
     1
  1
%%p
  7
SLDTEXTSTYLE1
 73
     1
 44
1.0
  0
MTEXT
  5
11B
330
117
100
AcDbEntity
  8
SLD-0
 62
     0
100
AcDbMText
 10
4.439062550663952
 20
3.222669349429913
 30
0.0
 40
2.5
 41
0.0
 46
0.0
 71
     2
 72
     1
  1
30'
  7
SLDTEXTSTYLE1
 73
     1
 44
1.0
  0
ENDBLK
  5
119
330
117
100
AcDbEntity
  8
0
100
AcDbBlockEnd
  0
BLOCK
  5
11E
330
11D
100
AcDbEntity
  8
0
100
AcDbBlockBegin
  2
SW_NOTE_19
 70
     0
 10
0.0
 20
0.0
 30
0.0
  3
SW_NOTE_19
  1

  0
MTEXT
  5
120
330
11D
100
AcDbEntity
  8
SLD-0
 62
     0
100
AcDbMText
 10
3.750000000000003
 20
3.222669349429913
 30
0.0
 40
2.5
 41
0.0
 46
0.0
 71
     2
 72
     1
  1
>120
  7
SLDTEXTSTYLE1
 73
     1
 44
1.0
  0
MTEXT
  5
121
330
11D
100
AcDbEntity
  8
SLD-0
 62
     0
100
AcDbMText
 10
8.513888623565446
 20
3.222669349429913
 30
0.0
 40
2.5
 41
0.0
 46
0.0
 71
     2
 72
     1
  1
%%d
  7
SLDTEXTSTYLE1
 73
     1
 44
1.0
  0
ENDBLK
  5
11F
330
11D
100
AcDbEntity
  8
0
100
AcDbBlockEnd
  0
BLOCK
  5
124
330
123
100
AcDbEntity
  8
0
100
AcDbBlockBegin
  2
SW_NOTE_20
 70
     0
 10
0.0
 20
0.0
 30
0.0
  3
SW_NOTE_20
  1

  0
MTEXT
  5
126
330
123
100
AcDbEntity
  8
SLD-0
 62
     0
100
AcDbMText
 10
0.9375000000000078
 20
3.222669349429913
 30
0.0
 40
2.5
 41
0.0
 46
0.0
 71
     2
 72
     1
  1
%%p
  7
SLDTEXTSTYLE1
 73
     1
 44
1.0
  0
MTEXT
  5
127
330
123
100
AcDbEntity
  8
SLD-0
 62
     0
100
AcDbMText
 10
4.439062550663952
 20
3.222669349429913
 30
0.0
 40
2.5
 41
0.0
 46
0.0
 71
     2
 72
     1
  1
10'
  7
SLDTEXTSTYLE1
 73
     1
 44
1.0
  0
ENDBLK
  5
125
330
123
100
AcDbEntity
  8
0
100
AcDbBlockEnd
  0
BLOCK
  5
12D
330
12C
100
AcDbEntity
  8
0
100
AcDbBlockBegin
  2
SW_SFSYMBOL_0
 70
     0
 10
0.0
 20
0.0
 30
0.0
  3
SW_SFSYMBOL_0
  1

  0
LINE
  5
12F
330
12C
100
AcDbEntity
  8
SLD-0
 62
     0
100
AcDbLine
 10
2.450522213856387
 20
-3.571249825377015
 30
0.0
 11
0.343772213856397
 21
0.0000001746229827
 31
0.0
  0
LINE
  5
130
330
12C
100
AcDbEntity
  8
SLD-0
 62
     0
100
AcDbLine
 10
4.557272213856378
 20
0.0000001746229827
 30
0.0
 11
0.343772213856397
 21
0.0000001746229827
 31
0.0
  0
LINE
  5
131
330
12C
100
AcDbEntity
  8
SLD-0
 62
     0
100
AcDbLine
 10
2.450522213856387
 20
-3.571249825377015
 30
0.0
 11
6.664022213856368
 21
3.57125017462298
 31
0.0
  0
MTEXT
  5
132
330
12C
100
AcDbEntity
  8
SLD-0
 62
     0
100
AcDbMText
 10
0.0
 20
3.222669349429913
 30
0.0
 40
2.5
 41
0.0
 46
0.0
 71
     1
 72
     1
  1
3.2
  7
SLDTEXTSTYLE1
 73
     1
 44
1.0
  0
ENDBLK
  5
12E
330
12C
100
AcDbEntity
  8
0
100
AcDbBlockEnd
  0
BLOCK
  5
33F
330
33E
100
AcDbEntity
  8
0
100
AcDbBlockBegin
  2
*U23
 70
     1
 10
0.0
 20
0.0
 30
0.0
  3
*U23
  1

  0
ENDBLK
  5
340
330
33E
100
AcDbEntity
  8
0
100
AcDbBlockEnd
  0
BLOCK
  5
382
330
380
100
AcDbEntity
  8
0
100
AcDbBlockBegin
  2
GENAXEH
 70
     0
 10
0.0
 20
0.0
 30
0.0
  3
GENAXEH
  1

  0
LINE
  5
381
330
380
100
AcDbEntity
  8
0
100
AcDbLine
 10
-1.0
 20
0.0
 30
0.0
 11
1.0
 21
0.0
 31
0.0
  0
ENDBLK
  5
383
330
380
100
AcDbEntity
  8
0
100
AcDbBlockEnd
  0
BLOCK
  5
7AD
330
7A2
100
AcDbEntity
  8
0
100
AcDbBlockBegin
  2
*D28
 70
     1
 10
0.0
 20
0.0
 30
0.0
  3
*D28
  1

  0
LINE
  5
7AF
330
7A2
100
AcDbEntity
  8
AM_5
 62
     0
440
 16777216
370
    -2
100
AcDbLine
 10
751.546319338295
 20
225.3598384884342
 30
0.0
 11
793.2001004538874
 21
225.3598384884342
 31
0.0
  0
LINE
  5
7B0
330
7A2
100
AcDbEntity
  8
AM_5
 62
     0
440
 16777216
370
    -2
100
AcDbLine
 10
754.5463198300333
 20
89.33826352927528
 30
0.0
 11
793.2001004538874
 21
89.33826352927528
 31
0.0
  0
LINE
  5
7B1
330
7A2
100
AcDbEntity
  8
AM_5
 62
     0
440
 16777216
370
    -2
100
AcDbLine
 10
791.7001004538875
 20
223.3598384884342
 30
0.0
 11
791.7001004538875
 21
160.1230510088547
 31
0.0
  0
LINE
  5
7B2
330
7A2
100
AcDbEntity
  8
AM_5
 62
     0
440
 16777216
370
    -2
100
AcDbLine
 10
791.7001004538875
 20
91.33826352927528
 30
0.0
 11
791.7001004538875
 21
154.5750510088547
 31
0.0
  0
SOLID
  5
7B3
330
7A2
100
AcDbEntity
  8
AM_5
 62
     0
440
 16777216
100
AcDbTrace
 10
791.3667671205541
 20
223.3598384884342
 30
0.0
 11
792.0334337872207
 21
223.3598384884342
 31
0.0
 12
791.7001004538875
 22
225.3598384884342
 32
0.0
 13
791.7001004538875
 23
225.3598384884342
 33
0.0
  0
SOLID
  5
7B4
330
7A2
100
AcDbEntity
  8
AM_5
 62
     0
440
 16777216
100
AcDbTrace
 10
791.3667671205541
 20
91.33826352927528
 30
0.0
 11
792.0334337872207
 21
91.33826352927528
 31
0.0
 12
791.7001004538875
 22
89.33826352927528
 32
0.0
 13
791.7001004538875
 23
89.33826352927528
 33
0.0
  0
MTEXT
  5
7B5
330
7A2
100
AcDbEntity
  8
AM_5
 62
     0
440
 16777216
100
AcDbMText
 10
791.7001004538875
 20
157.3490510088548
 30
0.0
 40
2.5
 41
0.0
 46
0.0
 71
     5
 72
     1
  1
136
 73
     1
 44
1.0
  0
POINT
  5
7B6
330
7A2
100
AcDbEntity
  8
Defpoints
 62
     0
440
 16777216
100
AcDbPoint
 10
750.546319338295
 20
225.3598384884342
 30
0.0
  0
POINT
  5
7B7
330
7A2
100
AcDbEntity
  8
Defpoints
 62
     0
440
 16777216
100
AcDbPoint
 10
753.5463198300333
 20
89.33826352927528
 30
0.0
  0
POINT
  5
7B8
330
7A2
100
AcDbEntity
  8
Defpoints
 62
     0
440
 16777216
100
AcDbPoint
 10
791.7001004538875
 20
89.33826352927528
 30
0.0
  0
ENDBLK
  5
7AE
330
7A2
100
AcDbEntity
  8
0
100
AcDbBlockEnd
  0
BLOCK
  5
7D6
330
7CC
100
AcDbEntity
  8
0
100
AcDbBlockBegin
  2
*D29
 70
     1
 10
0.0
 20
0.0
 30
0.0
  3
*D29
  1

  0
LINE
  5
7D8
330
7CC
100
AcDbEntity
  8
AM_5
 62
     0
440
 16777216
370
    -2
100
AcDbLine
 10
687.502682137105
 20
102.5799095732315
 30
0.0
 11
687.502682137105
 21
80.62892575336991
 31
0.0
  0
LINE
  5
7D9
330
7CC
100
AcDbEntity
  8
AM_5
 62
     0
440
 16777216
370
    -2
100
AcDbLine
 10
765.5899561222525
 20
102.5799095732315
 30
0.0
 11
765.5899561222525
 21
80.62892575336991
 31
0.0
  0
LINE
  5
7DA
330
7CC
100
AcDbEntity
  8
AM_5
 62
     0
440
 16777216
370
    -2
100
AcDbLine
 10
689.5026821371049
 20
82.12892575336992
 30
0.0
 11
763.5899561222524
 21
82.12892575336992
 31
0.0
  0
SOLID
  5
7DB
330
7CC
100
AcDbEntity
  8
AM_5
 62
     0
440
 16777216
100
AcDbTrace
 10
689.5026821371049
 20
82.46225908670323
 30
0.0
 11
689.5026821371049
 21
81.79559242003659
 31
0.0
 12
687.502682137105
 22
82.12892575336992
 32
0.0
 13
687.502682137105
 23
82.12892575336992
 33
0.0
  0
SOLID
  5
7DC
330
7CC
100
AcDbEntity
  8
AM_5
 62
     0
440
 16777216
100
AcDbTrace
 10
763.5899561222524
 20
82.46225908670323
 30
0.0
 11
763.5899561222524
 21
81.79559242003659
 31
0.0
 12
765.5899561222525
 22
82.12892575336992
 32
0.0
 13
765.5899561222525
 23
82.12892575336992
 33
0.0
  0
MTEXT
  5
7DD
330
7CC
100
AcDbEntity
  8
AM_5
 62
     0
440
 16777216
100
AcDbMText
 10
726.5463191296787
 20
84.90292575336992
 30
0.0
 40
2.5
 41
0.0
 46
0.0
 71
     5
 72
     1
  1
78
 73
     1
 44
1.0
  0
POINT
  5
7DE
330
7CC
100
AcDbEntity
  8
Defpoints
 62
     0
440
 16777216
100
AcDbPoint
 10
687.502682137105
 20
103.5799095732315
 30
0.0
  0
POINT
  5
7DF
330
7CC
100
AcDbEntity
  8
Defpoints
 62
     0
440
 16777216
100
AcDbPoint
 10
765.5899561222525
 20
103.5799095732315
 30
0.0
  0
POINT
  5
7E0
330
7CC
100
AcDbEntity
  8
Defpoints
 62
     0
440
 16777216
100
AcDbPoint
 10
765.5899561222525
 20
82.12892575336992
 30
0.0
  0
ENDBLK
  5
7D7
330
7CC
100
AcDbEntity
  8
0
100
AcDbBlockEnd
  0
BLOCK
  5
7FF
330
7F4
100
AcDbEntity
  8
0
100
AcDbBlockBegin
  2
*D30
 70
     1
 10
0.0
 20
0.0
 30
0.0
  3
*D30
  1

  0
LINE
  5
80E
330
7F4
100
AcDbEntity
  8
AM_5
 62
     0
440
 16777216
370
    -2
100
AcDbLine
 10
757.107511831754
 20
50.26169970363378
 30
0.0
 11
793.2001004538874
 21
50.26169970363377
 31
0.0
  0
LINE
  5
80F
330
7F4
100
AcDbEntity
  8
AM_5
 62
     0
440
 16777216
370
    -2
100
AcDbLine
 10
730.546319621417
 20
-56.26869606078265
 30
0.0
 11
793.2001004538874
 21
-56.26869606078267
 31
0.0
  0
LINE
  5
810
330
7F4
100
AcDbEntity
  8
AM_5
 62
     0
440
 16777216
370
    -2
100
AcDbLine
 10
791.7001004538875
 20
48.26169970363377
 30
0.0
 11
791.7001004538875
 21
-0.229498178574448
 31
0.0
  0
LINE
  5
811
330
7F4
100
AcDbEntity
  8
AM_5
 62
     0
440
 16777216
370
    -2
100
AcDbLine
 10
791.7001004538875
 20
-54.26869606078267
 30
0.0
 11
791.7001004538875
 21
-5.777498178574448
 31
0.0
  0
SOLID
  5
812
330
7F4
100
AcDbEntity
  8
AM_5
 62
     0
440
 16777216
100
AcDbTrace
 10
791.3667671205541
 20
48.26169970363377
 30
0.0
 11
792.0334337872207
 21
48.26169970363377
 31
0.0
 12
791.7001004538875
 22
50.26169970363377
 32
0.0
 13
791.7001004538875
 23
50.26169970363377
 33
0.0
  0
SOLID
  5
813
330
7F4
100
AcDbEntity
  8
AM_5
 62
     0
440
 16777216
100
AcDbTrace
 10
791.3667671205541
 20
-54.26869606078267
 30
0.0
 11
792.0334337872207
 21
-54.26869606078267
 31
0.0
 12
791.7001004538875
 22
-56.26869606078267
 32
0.0
 13
791.7001004538875
 23
-56.26869606078267
 33
0.0
  0
MTEXT
  5
814
330
7F4
100
AcDbEntity
  8
AM_5
 62
     0
440
 16777216
100
AcDbMText
 10
791.7001004538875
 20
-3.00349817857432
 30
0.0
 40
2.5
 41
0.0
 46
0.0
 71
     5
 72
     1
  1
107
 73
     1
 44
1.0
  0
POINT
  5
815
330
7F4
100
AcDbEntity
  8
Defpoints
 62
     0
440
 16777216
100
AcDbPoint
 10
756.1075118317539
 20
50.26169970363378
 30
0.0
  0
POINT
  5
816
330
7F4
100
AcDbEntity
  8
Defpoints
 62
     0
440
 16777216
100
AcDbPoint
 10
729.546319621417
 20
-56.26869606078265
 30
0.0
  0
POINT
  5
817
330
7F4
100
AcDbEntity
  8
Defpoints
 62
     0
440
 16777216
100
AcDbPoint
 10
791.7001004538875
 20
-56.26869606078267
 30
0.0
  0
ENDBLK
  5
800
330
7F4
100
AcDbEntity
  8
0
100
AcDbBlockEnd
  0
ENDSEC
  0
SECTION
  2
ENTITIES
  0
LINE
  5
5F4
330
1F
100
AcDbEntity
  8
0
  6
Continuous
 62
     8
370
    15
100
AcDbLine
 10
865.9568752008933
 20
50.947629442373
 30
0.0
 11
865.9568752008933
 21
52.17224238014924
 31
0.0
  0
ARC
  5
5F5
330
1F
100
AcDbEntity
  8
0
  6
Continuous
 62
     8
370
    15
100
AcDbCircle
 10
861.7287590981788
 20
1.525166382629393
 30
0.0
 40
3.356318994415356
100
AcDbArc
 50
215.5235552568339
 51
241.4219253510192
  0
ARC
  5
5F6
330
1F
100
AcDbEntity
  8
0
  6
Continuous
 62
     8
370
    15
100
AcDbCircle
 10
892.4588432139891
 20
1.525178935123506
 30
0.0
 40
3.356335784289155
100
AcDbArc
 50
298.5781528670821
 51
324.4763781036536
  0
ARC
  5
5F7
330
1F
100
AcDbEntity
  8
0
  6
Continuous
 62
     8
370
    15
100
AcDbCircle
 10
852.746818044444
 20
4.801130641342041
 30
0.0
 40
1.023357342740128
100
AcDbArc
 50
177.1990564024862
 51
206.9183512947958
  0
ARC
  5
5F8
330
1F
100
AcDbEntity
  8
0
  6
Continuous
 62
     8
370
    15
100
AcDbCircle
 10
901.4403785900924
 20
4.801178588882947
 30
0.0
 40
1.023772272930874
100
AcDbArc
 50
333.5276560688738
 51
2.797163481647077
  0
ARC
  5
5F9
330
1F
100
AcDbEntity
  8
0
  6
Continuous
 62
     8
370
    15
100
AcDbCircle
 10
860.6164907832777
 20
-1.474858324618338
 30
0.0
 40
0.4960452426048938
100
AcDbArc
 50
173.9107582515475
 51
234.7769794097398
  0
ARC
  5
5FA
330
1F
100
AcDbEntity
  8
0
  6
Continuous
 62
     8
370
    15
100
AcDbCircle
 10
893.5743511332029
 20
-1.476317852783282
 30
0.0
 40
0.4929939896181114
100
AcDbArc
 50
305.0143879718222
 51
6.297701815060184
  0
LINE
  5
5FB
330
1F
100
AcDbEntity
  8
0
  6
Continuous
 62
     8
370
    15
100
AcDbLine
 10
860.1232442877144
 20
-1.075073393385423
 30
0.0
 11
860.1232442877144
 21
-1.422239152015009
 31
0.0
  0
LINE
  5
5FC
330
1F
100
AcDbEntity
  8
0
  6
Continuous
 62
     8
370
    15
100
AcDbLine
 10
894.0643700796966
 20
-1.422239152015038
 30
0.0
 11
894.0643700796966
 21
-1.075073393385466
 31
0.0
  0
ARC
  5
5FD
330
1F
100
AcDbEntity
  8
0
  6
Continuous
 62
     8
370
    15
100
AcDbCircle
 10
880.1398839321199
 20
-9.232317718014144
 30
0.0
 40
0.4924490029551426
100
AcDbArc
 50
304.8070226710271
 51
6.319059432304541
  0
ARC
  5
5FE
330
1F
100
AcDbEntity
  8
0
  6
Continuous
 62
     8
370
    15
100
AcDbCircle
 10
874.0477763858223
 20
-9.232282774565419
 30
0.0
 40
0.4924908298678577
100
AcDbArc
 50
173.6855695350057
 51
235.2090696291514
  0
LINE
  5
5FF
330
1F
100
AcDbEntity
  8
0
  6
Continuous
 62
     8
370
    15
100
AcDbLine
 10
873.558273356798
 20
-9.178116345109117
 30
0.0
 11
873.558273356798
 21
-8.830950586479545
 31
0.0
  0
LINE
  5
600
330
1F
100
AcDbEntity
  8
0
  6
Continuous
 62
     8
370
    15
100
AcDbLine
 10
880.629341010613
 20
-8.830950586479545
 30
0.0
 11
880.629341010613
 21
-9.178116345109131
 31
0.0
  0
ARC
  5
601
330
1F
100
AcDbEntity
  8
0
  6
Continuous
 62
     8
370
    15
100
AcDbCircle
 10
853.7584278813159
 20
3.460157897434243
 30
0.0
 40
0.7484233646105501
100
AcDbArc
 50
171.0256886630042
 51
235.0086198598981
  0
ARC
  5
602
330
1F
100
AcDbEntity
  8
0
  6
Continuous
 62
     8
370
    15
100
AcDbCircle
 10
900.4291729407787
 20
3.460162339046021
 30
0.0
 40
0.7484354601006121
100
AcDbArc
 50
304.9920592727651
 51
8.973850332076585
  0
ARC
  5
603
330
1F
100
AcDbEntity
  8
0
  6
Continuous
 62
     8
370
    15
100
AcDbCircle
 10
879.8886467791822
 20
-8.398195207422176
 30
0.0
 40
0.7477321778285834
100
AcDbArc
 50
304.8052367780231
 51
8.99324842645678
  0
ARC
  5
604
330
1F
100
AcDbEntity
  8
0
  6
Continuous
 62
     8
370
    15
100
AcDbCircle
 10
874.2998303677241
 20
-8.398031125057769
 30
0.0
 40
0.7485600618073169
100
AcDbArc
 50
171.0294950007956
 51
234.9731859811905
  0
LWPOLYLINE
  5
605
330
1F
100
AcDbEntity
  8
0
  6
Continuous
 62
     8
370
    15
100
AcDbPolyline
 90
        7
 70
   128
 43
0.0
 10
875.903151469283
 20
-9.742541573267601
 10
875.8982347759866
 20
-9.741411085636215
 10
875.8515189456794
 20
-9.699559463031476
 10
875.8172456553058
 20
-9.604765104033035
 10
875.7966858957665
 20
-9.4605400228195
 10
875.7905996274239
 20
-9.272225367874824
 10
875.7992120724992
 20
-9.046791404675929
  0
LWPOLYLINE
  5
606
330
1F
100
AcDbEntity
  8
0
  6
Continuous
 62
     8
370
    15
100
AcDbPolyline
 90
        7
 70
   128
 43
0.0
 10
878.3884009778228
 20
-9.046791404675929
 10
878.3970134228981
 20
-9.272225367874824
 10
878.3909284716443
 20
-9.460540783158819
 10
878.3703673950162
 20
-9.604765104033035
 10
878.3360954217316
 20
-9.699558702692172
 10
878.2893782743354
 20
-9.741411085636215
 10
878.2844668493948
 20
-9.742540810827335
  0
ARC
  5
607
330
1F
100
AcDbEntity
  8
0
  6
Continuous
 62
     8
370
    15
100
AcDbCircle
 10
898.4693150473251
 20
42.14625053426948
 30
0.0
 40
0.7090896032646816
100
AcDbArc
 50
64.4783049256186
 51
121.2504672821845
  0
SPLINE
  5
608
330
1F
100
AcDbEntity
  8
0
  6
Continuous
 62
     8
370
    15
100
AcDbSpline
210
0.0
220
0.0
230
1.0
 70
     8
 71
     3
 72
    10
 73
     6
 74
     0
 42
0.000000001
 43
0.0000000001
 40
0.0
 40
0.0
 40
0.0
 40
0.0
 40
0.4373602710012218
 40
0.8824725190800865
 40
1.0
 40
1.0
 40
1.0
 40
1.0
 10
851.7246832732526
 20
4.85113824537872
 30
0.0
 10
851.6774433841296
 20
4.968800838228332
 30
0.0
 10
851.582126304094
 20
5.206211530506749
 30
0.0
 10
851.5386430198514
 20
5.488950777017365
 30
0.0
 10
851.5599832772904
 20
5.650985489893258
 30
0.0
 10
851.5644409552141
 20
5.684832249452469
 30
0.0
  0
SPLINE
  5
609
330
1F
100
AcDbEntity
  8
0
  6
Continuous
 62
     8
370
    15
100
AcDbSpline
210
0.0
220
0.0
230
1.0
 70
     8
 71
     3
 72
    10
 73
     6
 74
     0
 42
0.000000001
 43
0.0000000001
 40
0.0
 40
0.0
 40
0.0
 40
0.0
 40
0.1172547604325399
 40
0.5547416206239202
 40
1.0
 40
1.0
 40
1.0
 40
1.0
 10
902.6229877026457
 20
5.684836243859976
 30
0.0
 10
902.6275154042277
 20
5.651064256531853
 30
0.0
 10
902.6489363214178
 20
5.491286291756892
 30
0.0
 10
902.6058713547545
 20
5.208518217929608
 30
0.0
 10
902.5108566779993
 20
4.97096254127328
 30
0.0
 10
902.4629310941586
 20
4.851139005717982
 30
0.0
  0
LINE
  5
60A
330
1F
100
AcDbEntity
  8
0
  6
Continuous
 62
     8
370
    15
100
AcDbLine
 10
900.5330124128656
 20
40.26698050294356
 30
0.0
 11
900.5426732607975
 21
40.17068191092266
 31
0.0
  0
LINE
  5
60B
330
1F
100
AcDbEntity
  8
0
  6
Continuous
 62
     8
370
    15
100
AcDbLine
 10
898.1014533795173
 20
42.7524566533541
 30
0.0
 11
892.2174266893206
 21
46.16669003959796
 31
0.0
  0
LINE
  5
60C
330
1F
100
AcDbEntity
  8
0
  6
Continuous
 62
     8
370
    15
100
AcDbLine
 10
855.0716652708125
 20
37.51300743968517
 30
0.0
 11
853.0191664318925
 21
3.576905668681632
 31
0.0
  0
SPLINE
  5
60D
330
1F
100
AcDbEntity
  8
0
  6
Continuous
 62
     8
370
    15
100
AcDbSpline
210
0.0
220
0.0
230
1.0
 70
     8
 71
     3
 72
     9
 73
     5
 74
     0
 42
0.000000001
 43
0.0000000001
 40
0.0
 40
0.0
 40
0.0
 40
0.0
 40
0.3766119736259458
 40
0.9999999999999998
 40
0.9999999999999998
 40
0.9999999999999998
 40
0.9999999999999998
 10
873.5604274558836
 20
27.40938964128392
 30
0.0
 10
871.323129502011
 20
28.70832853105915
 30
0.0
 10
865.3825378306084
 20
32.15733966384212
 30
0.0
 10
859.440893394704
 20
35.57133980165799
 30
0.0
 10
855.7369433963893
 20
37.69958660961177
 30
0.0
  0
SPLINE
  5
60E
330
1F
100
AcDbEntity
  8
0
  6
Continuous
 62
     8
370
    15
100
AcDbSpline
210
0.0
220
0.0
230
1.0
 70
     8
 71
     3
 72
     9
 73
     5
 74
     0
 42
0.000000001
 43
0.0000000001
 40
0.0
 40
0.0
 40
0.0
 40
0.0
 40
0.600457689221527
 40
1.0
 40
1.0
 40
1.0
 40
1.0
 10
857.7404491580933
 20
38.85618300467078
 30
0.0
 10
861.0947996242922
 20
36.91709260380824
 30
0.0
 10
866.6811224017518
 20
33.6877386698508
 30
0.0
 10
872.3014002027966
 20
30.44881283885343
 30
0.0
 10
874.546938982643
 20
29.15472492789667
 30
0.0
  0
ARC
  5
60F
330
1F
100
AcDbEntity
  8
0
  6
Continuous
 62
     8
370
    15
100
AcDbCircle
 10
891.6872559636651
 20
45.4436808304809
 30
0.0
 40
1.020475764262023
100
AcDbArc
 50
293.2535486570032
 51
354.5304419281837
  0
ARC
  5
610
330
1F
100
AcDbEntity
  8
0
  6
Continuous
 62
     8
370
    15
100
AcDbCircle
 10
892.0365998551222
 20
46.14291627039313
 30
0.0
 40
0.123411203456582
100
AcDbArc
 50
63.05118529170268
 51
126.0701286542382
  0
LINE
  5
611
330
1F
100
AcDbEntity
  8
0
  6
Continuous
 62
     8
370
    15
100
AcDbLine
 10
862.0435620486254
 20
41.34032032320527
 30
0.0
 11
862.0435620486254
 21
40.95820901333619
 31
0.0
  0
LINE
  5
612
330
1F
100
AcDbEntity
  8
0
  6
Continuous
 62
     8
370
    15
100
AcDbLine
 10
875.3934459226385
 20
36.83049952927971
 30
0.0
 11
865.0141792744282
 21
43.0552191167979
 31
0.0
  0
LINE
  5
613
330
1F
100
AcDbEntity
  8
0
  6
Continuous
 62
     8
370
    15
100
AcDbLine
 10
865.3644228782761
 20
43.25741092602885
 30
0.0
 11
875.57356047975
 21
37.13472241030919
 31
0.0
  0
LINE
  5
614
330
1F
100
AcDbEntity
  8
0
  6
Continuous
 62
     8
370
    15
100
AcDbLine
 10
891.9639384202186
 20
46.24266917018229
 30
0.0
 11
888.0434770965891
 21
48.59387305488851
 31
0.0
  0
ARC
  5
615
330
1F
100
AcDbEntity
  8
0
  6
Continuous
 62
     7
370
    15
100
AcDbCircle
 10
862.4575541393872
 20
52.04922461912801
 30
0.0
 40
0.9789608342339652
100
AcDbArc
 50
184.7822939390845
 51
246.5378724290316
  0
ARC
  5
616
330
1F
100
AcDbEntity
  8
0
  6
Continuous
 62
     7
370
    15
100
AcDbCircle
 10
892.059432707774
 20
52.06657440317409
 30
0.0
 40
1.004619524386596
100
AcDbArc
 50
294.3332427373225
 51
354.3465908945781
  0
LINE
  5
617
330
1F
100
AcDbEntity
  8
0
  6
Continuous
 62
     7
370
    15
100
AcDbLine
 10
862.0677879254408
 20
51.15120089258738
 30
0.0
 11
864.188648623373
 21
49.92685407262593
 31
0.0
  0
LINE
  5
618
330
1F
100
AcDbEntity
  8
0
  6
Continuous
 62
     7
370
    15
100
AcDbLine
 10
862.0677879254408
 20
54.41736467549628
 30
0.0
 11
862.0677879254408
 21
51.15120089258738
 31
0.0
  0
ARC
  5
619
330
1F
100
AcDbEntity
  8
0
  6
Continuous
 62
     7
370
    15
100
AcDbCircle
 10
870.5530692181977
 20
43.59337780675639
 30
0.0
 40
2.305534416251687
100
AcDbArc
 50
62.60969225648975
 51
117.3903128775994
  0
LINE
  5
61A
330
1F
100
AcDbEntity
  8
0
  6
Continuous
 62
     7
370
    15
100
AcDbLine
 10
878.6847973728866
 20
43.19122201825234
 30
0.0
 11
892.4733792319711
 21
51.15120089258735
 31
0.0
  0
LINE
  5
61B
330
1F
100
AcDbEntity
  8
0
  6
Continuous
 62
     7
370
    15
100
AcDbLine
 10
892.4733792319711
 20
51.15120089258735
 30
0.0
 11
892.4733792319711
 21
54.41736467549626
 31
0.0
  0
LINE
  5
61C
330
1F
100
AcDbEntity
  8
0
  6
Continuous
 62
     7
370
    15
100
AcDbLine
 10
871.6137293897995
 20
45.64044618492514
 30
0.0
 11
875.856369784525
 21
43.19122201825234
 31
0.0
  0
LINE
  5
61D
330
1F
100
AcDbEntity
  8
0
  6
Continuous
 62
     7
370
    15
100
AcDbLine
 10
871.6137293897995
 20
48.90660996783402
 30
0.0
 11
871.6137293897995
 21
45.64044618492514
 31
0.0
  0
ARC
  5
61E
330
1F
100
AcDbEntity
  8
0
  6
Continuous
 62
     7
370
    15
100
AcDbCircle
 10
877.2705835787057
 20
45.90564936364711
 30
0.0
 40
3.060737896174407
100
AcDbArc
 50
242.4805336143067
 51
297.5194663857006
  0
LINE
  5
61F
330
1F
100
AcDbEntity
  8
0
  6
Continuous
 62
     7
370
    15
100
AcDbLine
 10
878.6847973728866
 20
46.45738580116119
 30
0.0
 11
878.6847973728866
 21
43.19122201825234
 31
0.0
  0
LINE
  5
620
330
1F
100
AcDbEntity
  8
0
  6
Continuous
 62
     7
370
    15
100
AcDbLine
 10
875.856369784525
 20
43.19122201825234
 30
0.0
 11
875.856369784525
 21
46.45738580116119
 31
0.0
  0
ARC
  5
621
330
1F
100
AcDbEntity
  8
0
  6
Continuous
 62
     7
370
    15
100
AcDbCircle
 10
852.3758629129243
 20
39.36319381771537
 30
0.0
 40
0.5029461180106965
100
AcDbArc
 50
185.6952252054432
 51
245.6248548684662
  0
LINE
  5
622
330
1F
100
AcDbEntity
  8
0
  6
Continuous
 62
     7
370
    15
100
AcDbLine
 10
855.7038276626247
 20
37.68046759571735
 30
0.0
 11
869.4924088631646
 21
45.64044608988274
 31
0.0
  0
LINE
  5
623
330
1F
100
AcDbEntity
  8
0
  6
Continuous
 62
     7
370
    15
100
AcDbLine
 10
869.4924088631646
 20
45.64044608988274
 30
0.0
 11
869.4924088631646
 21
48.90660987279159
 31
0.0
  0
LINE
  5
624
330
1F
100
AcDbEntity
  8
0
  6
Continuous
 62
     7
370
    15
100
AcDbLine
 10
852.1682923539922
 20
38.90507891871445
 30
0.0
 11
854.2896127159909
 21
37.68046674033565
 31
0.0
  0
LINE
  5
625
330
1F
100
AcDbEntity
  8
0
  6
Continuous
 62
     7
370
    15
100
AcDbLine
 10
852.1682923539922
 20
42.17124270162332
 30
0.0
 11
852.1682923539922
 21
38.90507891871445
 31
0.0
  0
ARC
  5
626
330
1F
100
AcDbEntity
  8
0
  6
Continuous
 62
     7
370
    15
100
AcDbCircle
 10
854.9967193638648
 20
39.04518396968263
 30
0.0
 40
1.537027302146584
100
AcDbArc
 50
242.6097820208974
 51
297.3902872893069
  0
LINE
  5
627
330
1F
100
AcDbEntity
  8
0
  6
Continuous
 62
     7
370
    15
100
AcDbLine
 10
854.2896127159909
 20
37.68046674033565
 30
0.0
 11
854.2896127159909
 21
40.94663052324449
 31
0.0
  0
LINE
  5
628
330
1F
100
AcDbEntity
  8
0
  6
Continuous
 62
     7
370
    15
100
AcDbLine
 10
855.7038276626247
 20
40.94663137862625
 30
0.0
 11
855.7038276626247
 21
37.68046759571735
 31
0.0
  0
LINE
  5
629
330
1F
100
AcDbEntity
  8
0
  6
Continuous
 62
     7
370
    15
100
AcDbLine
 10
865.956875036257
 20
50.94763010672801
 30
0.0
 11
852.1682938357173
 21
42.98765161256264
 31
0.0
  0
ARC
  5
62A
330
1F
100
AcDbEntity
  8
0
  6
Continuous
 62
     7
370
    15
100
AcDbCircle
 10
852.3232212753685
 20
42.57944687590913
 30
0.0
 40
0.4366160997756056
100
AcDbArc
 50
110.7834397536309
 51
249.2163522706935
  0
LINE
  5
62B
330
1F
100
AcDbEntity
  8
0
  6
Continuous
 62
     7
370
    15
100
AcDbLine
 10
852.1682923539922
 20
42.17124270162332
 30
0.0
 11
854.2896127159909
 21
40.94663052324449
 31
0.0
  0
ARC
  5
62C
330
1F
100
AcDbEntity
  8
0
  6
Continuous
 62
     7
370
    15
100
AcDbCircle
 10
854.9967193638646
 20
42.31134775259147
 30
0.0
 40
1.53702730214656
100
AcDbArc
 50
242.6097820208982
 51
297.3902872893129
  0
LINE
  5
62D
330
1F
100
AcDbEntity
  8
0
  6
Continuous
 62
     7
370
    15
100
AcDbLine
 10
869.4924088631646
 20
48.90660987279159
 30
0.0
 11
855.7038276626247
 21
40.94663137862625
 31
0.0
  0
ARC
  5
62E
330
1F
100
AcDbEntity
  8
0
  6
Continuous
 62
     7
370
    15
100
AcDbCircle
 10
870.5530692181977
 20
46.85954158966538
 30
0.0
 40
2.30553441625156
100
AcDbArc
 50
62.60969225648975
 51
117.3903128776059
  0
LINE
  5
62F
330
1F
100
AcDbEntity
  8
0
  6
Continuous
 62
     7
370
    15
100
AcDbLine
 10
871.6137293897995
 20
48.90660996783402
 30
0.0
 11
875.856369784525
 21
46.45738580116119
 31
0.0
  0
ARC
  5
630
330
1F
100
AcDbEntity
  8
0
  6
Continuous
 62
     7
370
    15
100
AcDbCircle
 10
877.2705835787057
 20
49.17181314655636
 30
0.0
 40
3.060737896174758
100
AcDbArc
 50
242.4805336143069
 51
297.5194663856933
  0
LINE
  5
631
330
1F
100
AcDbEntity
  8
0
  6
Continuous
 62
     7
370
    15
100
AcDbLine
 10
878.6847973728866
 20
46.45738580116119
 30
0.0
 11
892.4733792319711
 21
54.41736467549626
 31
0.0
  0
ARC
  5
632
330
1F
100
AcDbEntity
  8
0
  6
Continuous
 62
     7
370
    15
100
AcDbCircle
 10
892.1548690600943
 20
55.23377292113867
 30
0.0
 40
0.8763396334424221
100
AcDbArc
 50
291.3125422090863
 51
68.68745779091375
  0
LINE
  5
633
330
1F
100
AcDbEntity
  8
0
  6
Continuous
 62
     7
370
    15
100
AcDbLine
 10
892.4733792319711
 20
56.0501811667811
 30
0.0
 11
878.6847973728866
 21
64.01016004111617
 31
0.0
  0
ARC
  5
634
330
1F
100
AcDbEntity
  8
0
  6
Continuous
 62
     7
370
    15
100
AcDbCircle
 10
877.2705835787059
 20
61.29573269572117
 30
0.0
 40
3.060737896174607
100
AcDbArc
 50
62.48053361430614
 51
117.5194663856933
  0
LINE
  5
635
330
1F
100
AcDbEntity
  8
0
  6
Continuous
 62
     7
370
    15
100
AcDbLine
 10
875.8563697845252
 20
64.01016004111617
 30
0.0
 11
862.0677879254408
 21
56.0501811667811
 31
0.0
  0
ARC
  5
636
330
1F
100
AcDbEntity
  8
0
  6
Continuous
 62
     7
370
    15
100
AcDbCircle
 10
862.3862980973173
 20
55.23377292113869
 30
0.0
 40
0.8763396334423131
100
AcDbArc
 50
111.3125422090723
 51
248.6874577909277
  0
LINE
  5
637
330
1F
100
AcDbEntity
  8
0
  6
Continuous
 62
     7
370
    15
100
AcDbLine
 10
865.9568752008933
 20
52.17224238014924
 30
0.0
 11
862.0677879254408
 21
54.41736467549628
 31
0.0
  0
ARC
  5
638
330
1F
100
AcDbEntity
  8
0
  6
Continuous
 62
     7
370
    15
100
AcDbCircle
 10
865.724484182874
 20
51.55993627468115
 30
0.0
 40
0.6549231649969155
100
AcDbArc
 50
290.7834438055722
 51
69.21654078880497
  0
LINE
  5
639
330
1F
100
AcDbEntity
  8
0
  6
Continuous
 62
     7
370
    15
100
AcDbLine
 10
860.1232442877144
 20
-1.422239152015009
 30
0.0
 11
873.558273356798
 21
-9.178116345109117
 31
0.0
  0
LINE
  5
63A
330
1F
100
AcDbEntity
  8
0
  6
Continuous
 62
     7
370
    15
100
AcDbLine
 10
880.629341010613
 20
-9.178116345109131
 30
0.0
 11
894.0643700796966
 21
-1.422239152015038
 31
0.0
  0
ARC
  5
63B
330
1F
100
AcDbEntity
  8
0
  6
Continuous
 62
     7
370
    15
100
AcDbCircle
 10
877.0938071837054
 20
-2.378179301182967
 30
0.0
 40
7.664146608890369
100
AcDbArc
 50
242.5284432125422
 51
297.4715567874635
  0
ELLIPSE
  5
63C
330
1F
100
AcDbEntity
  8
0
  6
Continuous
 62
     7
370
    15
100
AcDbEllipse
 10
856.543280050876
 20
5.320979489738022
 30
0.0
 11
4.988107680885548
 21
-0.3467157164296566
 31
0.0
210
0.0
220
0.0
230
1.0
 40
0.5404932099246326
 41
3.443212497005306
 42
3.966098972141056
  0
ELLIPSE
  5
63D
330
1F
100
AcDbEntity
  8
0
  6
Continuous
 62
     7
370
    15
100
AcDbEllipse
 10
897.6443338964163
 20
5.320979489737965
 30
0.0
 11
4.988107680885491
 21
0.3467157164296708
 31
0.0
210
0.0
220
0.0
230
1.0
 40
0.5404932099246414
 41
5.458678988628362
 42
5.981565463764093
  0
SPLINE
  5
63E
330
1F
100
AcDbEntity
  8
0
  6
Continuous
 62
     7
370
    15
100
AcDbSpline
210
0.0
220
0.0
230
1.0
 70
     8
 71
     3
 72
    13
 73
     9
 74
     0
 42
0.000000001
 43
0.0000000001
 40
0.0
 40
0.0
 40
0.0
 40
0.0
 40
0.0102799293487065
 40
0.0849052024259186
 40
0.313799550397751
 40
0.5425974785547952
 40
0.7712970482872514
 40
1.0
 40
1.0
 40
1.0
 40
1.0
 10
900.5426732607975
 20
40.17068191092266
 30
0.0
 10
900.542264144923
 20
40.17683581614764
 30
0.0
 10
900.5388851269387
 20
40.22766287449715
 30
0.0
 10
900.5112425613724
 20
40.41466143258435
 30
0.0
 10
900.3776818847148
 20
40.72223098764465
 30
0.0
 10
900.0546372250013
 20
41.04594769488275
 30
0.0
 10
899.6184368601541
 20
41.27447155159845
 30
0.0
 10
899.2830169124795
 20
41.31467117019823
 30
0.0
 10
899.1153056986144
 20
41.33477112811374
 30
0.0
  0
SPLINE
  5
63F
330
1F
100
AcDbEntity
  8
0
  6
Continuous
 62
     7
370
    15
100
AcDbSpline
210
0.0
220
0.0
230
1.0
 70
     8
 71
     3
 72
    12
 73
     8
 74
     0
 42
0.000000001
 43
0.0000000001
 40
0.0
 40
0.0
 40
0.0
 40
0.0
 40
0.1449832824297475
 40
0.3557044947999112
 40
0.5724972668893566
 40
0.7832098524870461
 40
1.0
 40
1.0
 40
1.0
 40
1.0
 10
900.5426732607975
 20
40.17068191092266
 30
0.0
 10
900.5365353430304
 20
40.05683940616444
 30
0.0
 10
900.5214764693318
 20
39.77753623435632
 30
0.0
 10
900.3702883450635
 20
39.33546623625355
 30
0.0
 10
900.0725968557659
 20
38.86869248988225
 30
0.0
 10
899.6490579641756
 20
38.43196012932774
 30
0.0
 10
899.2732365364172
 20
38.18748090673239
 30
0.0
 10
899.0826544033641
 20
38.06350348477617
 30
0.0
  0
SPLINE
  5
640
330
1F
100
AcDbEntity
  8
0
  6
Continuous
 62
     7
370
    15
100
AcDbSpline
210
0.0
220
0.0
230
1.0
 70
     8
 71
     3
 72
    13
 73
     9
 74
     0
 42
0.000000001
 43
0.0000000001
 40
0.0
 40
0.0
 40
0.0
 40
0.0
 40
0.000010763127438
 40
0.1643253378720013
 40
0.3735157385760237
 40
0.5826968257669428
 40
0.7913511946037764
 40
0.9999999999999998
 40
0.9999999999999998
 40
0.9999999999999998
 40
0.9999999999999998
 10
899.1153056986144
 20
41.33477112811374
 30
0.0
 10
899.1153056986203
 20
41.33477695739432
 30
0.0
 10
899.1153057879712
 20
41.42377511378964
 30
0.0
 10
899.1060046435322
 20
41.60609691582837
 30
0.0
 10
898.9979276157157
 20
41.90615701859329
 30
0.0
 10
898.790130582744
 20
42.21150641402977
 30
0.0
 10
898.4950671962904
 20
42.50052669841159
 30
0.0
 10
898.2326568189661
 20
42.66848074808831
 30
0.0
 10
898.1014533795173
 20
42.7524566533541
 30
0.0
  0
ARC
  5
641
330
1F
100
AcDbEntity
  8
0
  6
Continuous
 62
     7
370
    15
100
AcDbCircle
 10
896.7522127536623
 20
37.90518681259181
 30
0.0
 40
2.335813017207363
100
AcDbArc
 50
3.886371263148426
 51
54.71582964256485
  0
LINE
  5
642
330
1F
100
AcDbEntity
  8
0
  6
Continuous
 62
     7
370
    15
100
AcDbLine
 10
853.0191664318925
 20
3.576905668681632
 30
0.0
 11
873.5604261387948
 21
-8.281311150870919
 31
0.0
  0
LINE
  5
643
330
1F
100
AcDbEntity
  8
0
  6
Continuous
 62
     7
370
    15
100
AcDbLine
 10
880.6271869115274
 20
-8.281311150870934
 30
0.0
 11
901.1684472769742
 21
3.576906048851242
 31
0.0
  0
LINE
  5
644
330
1F
100
AcDbEntity
  8
0
  6
Continuous
 62
     7
370
    15
100
AcDbLine
 10
901.1684472769742
 20
3.576906048851242
 30
0.0
 11
899.0826544033641
 21
38.06350348477617
 31
0.0
  0
SPLINE
  5
645
330
1F
100
AcDbEntity
  8
0
  6
Continuous
 62
     7
370
    15
100
AcDbSpline
210
0.0
220
0.0
230
1.0
 70
     8
 71
     3
 72
     9
 73
     5
 74
     0
 42
0.000000001
 43
0.0000000001
 40
0.0
 40
0.0
 40
0.0
 40
0.0
 40
0.3637159450797756
 40
1.0
 40
1.0
 40
1.0
 40
1.0
 10
899.0826544033641
 20
38.06350348477617
 30
0.0
 10
896.8449273946381
 20
36.779008438115
 30
0.0
 10
890.6925245676596
 20
33.24741994429903
 30
0.0
 10
884.5411861326722
 20
29.67956101074157
 30
0.0
 10
880.6271875700717
 20
27.40938926111426
 30
0.0
  0
LINE
  5
646
330
1F
100
AcDbEntity
  8
0
  6
Continuous
 62
     7
370
    15
100
AcDbLine
 10
892.7031394839056
 20
41.58479611748382
 30
0.0
 11
899.1153056986144
 21
41.33477112811374
 31
0.0
  0
SPLINE
  5
647
330
1F
100
AcDbEntity
  8
0
  6
Continuous
 62
     7
370
    15
100
AcDbSpline
210
0.0
220
0.0
230
1.0
 70
     8
 71
     3
 72
     9
 73
     5
 74
     0
 42
0.000000001
 43
0.0000000001
 40
0.0
 40
0.0
 40
0.0
 40
0.0
 40
0.6363137765164998
 40
1.0
 40
1.0
 40
1.0
 40
1.0
 10
879.6406760433127
 20
29.154724547727
 30
0.0
 10
883.5670991634609
 20
31.41821352328003
 30
0.0
 10
889.7376761100161
 20
34.97540348063802
 30
0.0
 10
895.8708885202259
 20
38.52204118624781
 30
0.0
 10
898.1014533795173
 20
39.81190445946518
 30
0.0
  0
SPLINE
  5
648
330
1F
100
AcDbEntity
  8
0
  6
Continuous
 62
     7
370
    15
100
AcDbSpline
210
0.0
220
0.0
230
1.0
 70
     8
 71
     3
 72
    13
 73
     9
 74
     0
 42
0.000000001
 43
0.0000000001
 40
0.0
 40
0.0
 40
0.0
 40
0.0
 40
0.2086491304822333
 40
0.4173031746762449
 40
0.6264842573250568
 40
0.8356746534867696
 40
0.9999894682543535
 40
1.0
 40
1.0
 40
1.0
 40
1.0
 10
898.1014533795173
 20
39.81190445946518
 30
0.0
 10
898.232670410848
 20
39.89633708666762
 30
0.0
 10
898.495107563686
 20
40.06520432947084
 30
0.0
 10
898.7899705411749
 20
40.36881501784276
 30
0.0
 10
898.9985296681579
 20
40.70094345429203
 30
0.0
 10
899.1039609262845
 20
41.02324023033077
 30
0.0
 10
899.1187311892749
 20
41.24578961197861
 30
0.0
 10
899.1153059181428
 20
41.3347654255812
 30
0.0
 10
899.1153056986144
 20
41.33477112811374
 30
0.0
  0
LINE
  5
649
330
1F
100
AcDbEntity
  8
0
  6
Continuous
 62
     7
370
    15
100
AcDbLine
 10
877.0938071837056
 20
32.60780902925478
 30
0.0
 11
877.0938071837056
 21
28.62203063374688
 31
0.0
  0
ARC
  5
64A
330
1F
100
AcDbEntity
  8
0
  6
Continuous
 62
     7
370
    15
100
AcDbCircle
 10
875.8998665845428
 20
27.23854364894146
 30
0.0
 40
2.345669156083436
100
AcDbArc
 50
125.2241593396836
 51
175.8231834556785
  0
SPLINE
  5
64B
330
1F
100
AcDbEntity
  8
0
  6
Continuous
 62
     7
370
    15
100
AcDbSpline
210
0.0
220
0.0
230
1.0
 70
     8
 71
     3
 72
    13
 73
     9
 74
     0
 42
0.000000001
 43
0.0000000001
 40
0.0
 40
0.0
 40
0.0
 40
0.0
 40
0.2086487320930589
 40
0.4173032530914887
 40
0.6264840520645976
 40
0.8356744375851656
 40
0.9999890004034508
 40
1.0
 40
1.0
 40
1.0
 40
1.0
 10
874.546938982643
 20
29.15472492789667
 30
0.0
 10
874.6928001615199
 20
29.07920324402363
 30
0.0
 10
874.9845265661544
 20
28.92815778094791
 30
0.0
 10
875.4978167037505
 20
28.76522989217639
 30
0.0
 10
876.0499505676218
 20
28.65823519040942
 30
0.0
 10
876.5889736094477
 20
28.6084330962621
 30
0.0
 10
876.9396658306856
 20
28.6201374316974
 30
0.0
 10
877.0937968665084
 20
28.62203050702851
 30
0.0
 10
877.0938071837056
 20
28.62203063374688
 30
0.0
  0
SPLINE
  5
64C
330
1F
100
AcDbEntity
  8
0
  6
Continuous
 62
     7
370
    15
100
AcDbSpline
210
0.0
220
0.0
230
1.0
 70
     8
 71
     3
 72
    13
 73
     9
 74
     0
 42
0.000000001
 43
0.0000000001
 40
0.0
 40
0.0
 40
0.0
 40
0.0
 40
0.2287031811886514
 40
0.4574026883776181
 40
0.6862005539642741
 40
0.9150948393393502
 40
0.9897200564610299
 40
1.0
 40
1.0
 40
1.0
 40
1.0
 10
877.0938071837056
 20
28.62203063374688
 30
0.0
 10
877.0938069053613
 20
28.50511294650613
 30
0.0
 10
877.0938063486774
 20
28.27127945024754
 30
0.0
 10
877.0938065725948
 20
27.79094228912857
 30
0.0
 10
877.0938065119816
 20
27.28073578073418
 30
0.0
 10
877.0938065262734
 20
26.89606358070671
 30
0.0
 10
877.0938065251467
 20
26.69310698118838
 30
0.0
 10
877.0938065251593
 20
26.64032936394921
 30
0.0
 10
877.0938065251609
 20
26.63393928210829
 30
0.0
  0
ARC
  5
64D
330
1F
100
AcDbEntity
  8
0
  6
Continuous
 62
     7
370
    15
100
AcDbCircle
 10
878.2877441454958
 20
27.2385408406015
 30
0.0
 40
2.345673617446177
100
AcDbArc
 50
4.176868054911248
 51
54.77578914972651
  0
SPLINE
  5
64E
330
1F
100
AcDbEntity
  8
0
  6
Continuous
 62
     7
370
    15
100
AcDbSpline
210
0.0
220
0.0
230
1.0
 70
     8
 71
     3
 72
    13
 73
     9
 74
     0
 42
0.000000001
 43
0.0000000001
 40
0.0
 40
0.0
 40
0.0
 40
0.0
 40
0.0000105317453626
 40
0.16432534208376
 40
0.3735154582529665
 40
0.5826968365723668
 40
0.7913508751420063
 40
1.0
 40
1.0
 40
1.0
 40
1.0
 10
877.0938071837056
 20
28.62203063374688
 30
0.0
 10
877.0938170618729
 20
28.62203050702794
 30
0.0
 10
877.2479447189478
 20
28.62005332893969
 30
0.0
 10
877.5986415247537
 20
28.60848387927106
 30
0.0
 10
878.1376624602859
 20
28.65822066950111
 30
0.0
 10
878.6897980992469
 20
28.76523268318391
 30
0.0
 10
879.2030864978372
 20
28.92815758622655
 30
0.0
 10
879.49481400651
 20
29.07920282007541
 30
0.0
 10
879.6406760433127
 20
29.154724547727
 30
0.0
  0
SPLINE
  5
64F
330
1F
100
AcDbEntity
  8
0
  6
Continuous
 62
     7
370
    15
100
AcDbSpline
210
0.0
220
0.0
230
1.0
 70
     8
 71
     3
 72
    11
 73
     7
 74
     0
 42
0.000000001
 43
0.0000000001
 40
0.0
 40
0.0
 40
0.0
 40
0.0
 40
0.2477659184987654
 40
0.4999242251047157
 40
0.7477601015184641
 40
0.9999999999999998
 40
0.9999999999999998
 40
0.9999999999999998
 40
0.9999999999999998
 10
878.3884009778228
 20
-9.046791404675929
 30
0.0
 10
878.1774213235436
 20
-9.079002812486649
 30
0.0
 10
877.7517217728654
 20
-9.143996671153246
 30
0.0
 10
877.0977790351448
 20
-9.169141427416406
 30
0.0
 10
876.4399620271758
 20
-9.144351593491691
 30
0.0
 10
876.0140456978499
 20
-9.079501838598261
 30
0.0
 10
875.7992120724992
 20
-9.046791404675929
 30
0.0
  0
ELLIPSE
  5
650
330
1F
100
AcDbEntity
  8
0
  6
Continuous
 62
     7
370
    15
100
AcDbEllipse
 10
877.0938069736459
 20
-6.542587179660316
 30
0.0
 11
4.998170850757503
 21
0.2563962273035401
 31
0.0
210
0.0
220
0.0
230
1.0
 40
0.5274401875011203
 41
4.947241647569755
 42
5.470128122705493
  0
LINE
  5
651
330
1F
100
AcDbEntity
  8
0
  6
Continuous
 62
     7
370
    15
100
AcDbLine
 10
880.6271875700717
 20
27.40938926111426
 30
0.0
 11
880.6271869115274
 21
-8.281311150870934
 31
0.0
  0
SPLINE
  5
652
330
1F
100
AcDbEntity
  8
0
  6
Continuous
 62
     7
370
    15
100
AcDbSpline
210
0.0
220
0.0
230
1.0
 70
     8
 71
     3
 72
    12
 73
     8
 74
     0
 42
0.000000001
 43
0.0000000001
 40
0.0
 40
0.0
 40
0.0
 40
0.0
 40
0.2107130024810637
 40
0.4275023954590168
 40
0.6382222666103972
 40
0.8550167526927275
 40
1.0
 40
1.0
 40
1.0
 40
1.0
 10
880.6271875700717
 20
27.40938926111426
 30
0.0
 10
880.4228686218928
 20
27.30471473046851
 30
0.0
 10
880.0083387221921
 20
27.09234714010762
 30
0.0
 10
879.2814257481211
 20
26.86161748551516
 30
0.0
 10
878.4934241021071
 20
26.70281391995187
 30
0.0
 10
877.7559740657537
 20
26.63069716596414
 30
0.0
 10
877.2832512613451
 20
26.63301171952034
 30
0.0
 10
877.0938065251609
 20
26.63393928210829
 30
0.0
  0
SPLINE
  5
653
330
1F
100
AcDbEntity
  8
0
  6
Continuous
 62
     7
370
    15
100
AcDbSpline
210
0.0
220
0.0
230
1.0
 70
     8
 71
     3
 72
    12
 73
     8
 74
     0
 42
0.000000001
 43
0.0000000001
 40
0.0
 40
0.0
 40
0.0
 40
0.0
 40
0.1449833026151415
 40
0.3557045443231063
 40
0.5724975632787768
 40
0.7832100589883303
 40
1.0
 40
1.0
 40
1.0
 40
1.0
 10
877.0938065251609
 20
26.63393928210829
 30
0.0
 10
876.9043579264259
 20
26.63300646793749
 30
0.0
 10
876.4395614548998
 20
26.63071788550374
 30
0.0
 10
875.7020305894377
 20
26.70169435659301
 30
0.0
 10
874.92050072576
 20
26.85794163090145
 30
0.0
 10
874.185968282226
 20
27.08975196326381
 30
0.0
 10
873.770907920235
 20
27.30183872844075
 30
0.0
 10
873.5604274558836
 20
27.40938964128392
 30
0.0
  0
LINE
  5
654
330
1F
100
AcDbEntity
  8
0
  6
Continuous
 62
     7
370
    15
100
AcDbLine
 10
873.5604261387948
 20
-8.281311150870919
 30
0.0
 11
873.5604274558836
 21
27.40938964128392
 31
0.0
  0
ELLIPSE
  5
655
330
1F
100
AcDbEntity
  8
0
  6
Continuous
 62
     7
370
    15
100
AcDbEllipse
 10
877.0938069736459
 20
-6.542587179660316
 30
0.0
 11
4.998170850757503
 21
-0.2563962273035258
 31
0.0
210
0.0
220
0.0
230
1.0
 40
0.5274401875011216
 41
3.954649838063917
 42
4.47753631319967
  0
LWPOLYLINE
  5
656
330
1F
100
AcDbEntity
  8
0
  6
Continuous
 62
     7
370
    15
100
AcDbPolyline
 90
        3
 70
   128
 43
0.0
 10
862.0435620486254
 20
40.95820901333619
 10
861.8246019266219
 20
41.11481724042178
 10
861.7583905447004
 20
41.17569380684776
  0
ARC
  5
657
330
1F
100
AcDbEntity
  8
0
  6
Continuous
 62
     7
370
    15
100
AcDbCircle
 10
891.6850355833149
 20
41.56785156071833
 30
0.0
 40
1.023868699734799
100
AcDbArc
 50
293.3072099280975
 51
353.9170875044115
  0
LINE
  5
658
330
1F
100
AcDbEntity
  8
0
  6
Continuous
 62
     7
370
    15
100
AcDbLine
 10
863.5155249278003
 20
40.07543379114895
 30
0.0
 11
862.0435620486254
 21
40.95820901333619
 31
0.0
  0
LINE
  5
659
330
1F
100
AcDbEntity
  8
0
  6
Continuous
 62
     7
370
    15
100
AcDbLine
 10
875.3934459226385
 20
32.95193193823263
 30
0.0
 11
873.4514617181426
 21
34.11659136244063
 31
0.0
  0
LINE
  5
65A
330
1F
100
AcDbEntity
  8
0
  6
Continuous
 62
     7
370
    15
100
AcDbLine
 10
879.7505364137677
 20
33.77055543243912
 30
0.0
 11
878.221359846284
 21
32.92080972981515
 31
0.0
  0
LINE
  5
65B
330
1F
100
AcDbEntity
  8
0
  6
Continuous
 62
     7
370
    15
100
AcDbLine
 10
892.0901405726395
 20
40.6275340282215
 30
0.0
 11
890.0726730088218
 21
39.50644983964722
 31
0.0
  0
LINE
  5
65C
330
1F
100
AcDbEntity
  8
0
  6
Continuous
 62
     7
370
    15
100
AcDbLine
 10
892.0901405726395
 20
40.6275340282215
 30
0.0
 11
892.0901405726395
 21
44.50610161926855
 31
0.0
  0
ARC
  5
65D
330
1F
100
AcDbEntity
  8
0
  6
Continuous
 62
     7
370
    15
100
AcDbCircle
 10
891.6997795966887
 20
44.48928099263196
 30
0.0
 40
0.3907232076877263
100
AcDbArc
 50
2.467344737524249
 51
56.26555735371632
  0
LINE
  5
65E
330
1F
100
AcDbEntity
  8
0
  6
Continuous
 62
     7
370
    15
100
AcDbLine
 10
892.0901405726395
 20
44.50610161926855
 30
0.0
 11
878.221359846284
 21
36.79937732086219
 31
0.0
  0
LINE
  5
65F
330
1F
100
AcDbEntity
  8
0
  6
Continuous
 62
     7
370
    15
100
AcDbLine
 10
878.0479841751228
 20
37.10749047794389
 30
0.0
 11
891.9167655600229
 21
44.81421439618057
 31
0.0
  0
LWPOLYLINE
  5
660
330
1F
100
AcDbEntity
  8
0
  6
Continuous
 62
     7
370
    15
100
AcDbPolyline
 90
        9
 70
   128
 43
0.0
 10
891.9167655600229
 20
44.81421439618057
 10
892.1394155069048
 20
44.96488247244866
 10
892.3068702043947
 20
45.13773040657241
 10
892.4126950141049
 20
45.3261170148954
 10
892.4528221066097
 20
45.52280196638927
 10
892.4257091706717
 20
45.72022672802652
 10
892.3323999993355
 20
45.91080501439515
 10
892.1764790503587
 20
46.08721209680394
 10
891.9639384202186
 20
46.24266917018229
  0
ARC
  5
661
330
1F
100
AcDbEntity
  8
0
  6
Continuous
 62
     7
370
    15
100
AcDbCircle
 10
874.7101648172581
 20
46.09935155253118
 30
0.0
 40
2.73415115525017
100
AcDbArc
 50
195.3650763572103
 51
242.6848097809417
  0
LWPOLYLINE
  5
662
330
1F
100
AcDbEntity
  8
0
  6
Continuous
 62
     7
370
    15
100
AcDbPolyline
 90
       23
 70
   128
 43
0.0
 10
873.455503514481
 20
43.67007026888589
 10
873.8348842142896
 20
43.46482591647307
 10
874.2488104097279
 20
43.2831884481074
 10
874.6928944245349
 20
43.12708330427483
 10
875.1624286738744
 20
42.99816516150682
 10
875.6524356725602
 20
42.89780046833678
 10
876.1577220562838
 20
42.82705336714281
 10
876.6729307301092
 20
42.78667345743682
 10
877.1926010429764
 20
42.77708919041702
 10
877.7112241054396
 20
42.79840178625332
 10
878.2233023879465
 20
42.85038561425705
 10
878.7234078373897
 20
42.93248942843234
 10
879.206238841208
 20
43.0438430204451
 10
879.6666778500295
 20
43.18326596352483
 10
880.0998434850074
 20
43.34928039566932
 10
880.501144703104
 20
43.54012632147319
 10
880.8663270186842
 20
43.75378107206183
 10
881.1915199804596
 20
43.9879794897241
 10
881.4732759227146
 20
44.24023933987718
 10
881.7086083255265
 20
44.5078864973064
 10
881.8950229721504
 20
44.78808357769199
 10
882.0305432000868
 20
45.07786086203424
 10
882.0505786758797
 20
45.13424643683615
  0
LINE
  5
663
330
1F
100
AcDbEntity
  8
0
  6
Continuous
 62
     7
370
    15
100
AcDbLine
 10
875.3934459226385
 20
32.95193193823263
 30
0.0
 11
875.3934459226385
 21
36.83049952927971
 31
0.0
  0
ARC
  5
664
330
1F
100
AcDbEntity
  8
0
  6
Continuous
 62
     7
370
    15
100
AcDbCircle
 10
876.8372479856896
 20
35.64824064043984
 30
0.0
 40
3.058536417123198
100
AcDbArc
 50
241.83212716741
 51
296.9068024793302
  0
LINE
  5
665
330
1F
100
AcDbEntity
  8
0
  6
Continuous
 62
     7
370
    15
100
AcDbLine
 10
878.221359846284
 20
36.79937732086219
 30
0.0
 11
878.221359846284
 21
32.92080972981515
 31
0.0
  0
ARC
  5
666
330
1F
100
AcDbEntity
  8
0
  6
Continuous
 62
     7
370
    15
100
AcDbCircle
 10
877.8309971721093
 20
36.78255567578324
 30
0.0
 40
0.3907249481822045
100
AcDbArc
 50
2.467483222516129
 51
56.26554446303104
  0
ARC
  5
667
330
1F
100
AcDbEntity
  8
0
  6
Continuous
 62
     7
370
    15
100
AcDbCircle
 10
876.8370433750627
 20
39.50821955370845
 30
0.0
 40
2.688843192986893
100
AcDbArc
 50
241.9723036227827
 51
296.7666255205634
  0
ARC
  5
668
330
1F
100
AcDbEntity
  8
0
  6
Continuous
 62
     7
370
    15
100
AcDbCircle
 10
875.7710017104107
 20
36.81239804405246
 30
0.0
 40
0.3779894663183788
100
AcDbArc
 50
121.4897387096639
 51
177.2551205054631
  0
ARC
  5
669
330
1F
100
AcDbEntity
  8
0
  6
Continuous
 62
     7
370
    15
100
AcDbCircle
 10
876.8372479856896
 20
39.52680823148668
 30
0.0
 40
3.058536417123007
100
AcDbArc
 50
241.832127167404
 51
296.9068024793304
  0
LINE
  5
66A
330
1F
100
AcDbEntity
  8
0
  6
Continuous
 62
     7
370
    15
100
AcDbLine
 10
861.4820013903335
 20
55.23377254096906
 30
0.0
 11
861.4820013903335
 21
51.96760875806015
 31
0.0
  0
LINE
  5
66B
330
1F
100
AcDbEntity
  8
0
  6
Continuous
 62
     7
370
    15
100
AcDbLine
 10
893.0591657670783
 20
51.96760875806012
 30
0.0
 11
893.0591657670783
 21
55.23377254096903
 31
0.0
  0
LINE
  5
66C
330
1F
100
AcDbEntity
  8
0
  6
Continuous
 62
     7
370
    15
100
AcDbLine
 10
851.8753994157107
 20
42.57944682444452
 30
0.0
 11
851.8753994157107
 21
39.31328304153567
 31
0.0
  0
LINE
  5
66D
330
1F
100
AcDbEntity
  8
0
  6
Continuous
 62
     7
370
    15
100
AcDbLine
 10
872.09380701903
 20
45.36330219139111
 30
0.0
 11
872.09380701903
 21
45.28261099493124
 31
0.0
  0
SPLINE
  5
66E
330
1F
100
AcDbEntity
  8
0
  6
Continuous
 62
     7
370
    15
100
AcDbSpline
210
0.0
220
0.0
230
1.0
 70
     8
 71
     3
 72
    14
 73
    10
 74
     0
 42
0.000000001
 43
0.0000000001
 40
0.0
 40
0.0
 40
0.0
 40
0.0
 40
0.0628529056532902
 40
0.2307880609458762
 40
0.4029616605110835
 40
0.5800133802157888
 40
0.761786490022476
 40
0.9473479626350753
 40
1.0
 40
1.0
 40
1.0
 40
1.0
 10
858.8726267787512
 20
-0.3531076537312145
 30
0.0
 10
858.8887507282898
 20
-0.3930072853421365
 30
0.0
 10
858.9479558678151
 20
-0.5395137756345037
 30
0.0
 10
859.0952542782074
 20
-0.7774426246741513
 30
0.0
 10
859.3127051972389
 20
-1.06574858396857
 30
0.0
 10
859.57577949964
 20
-1.337443619350494
 30
0.0
 10
859.8800248646403
 20
-1.591163336133575
 30
0.0
 10
860.1394209434108
 20
-1.767808559352857
 30
0.0
 10
860.295822250865
 20
-1.859760272771254
 30
0.0
 10
860.3303914383339
 20
-1.880084246214778
 30
0.0
  0
SPLINE
  5
66F
330
1F
100
AcDbEntity
  8
0
  6
Continuous
 62
     7
370
    15
100
AcDbSpline
210
0.0
220
0.0
230
1.0
 70
     8
 71
     3
 72
    13
 73
     9
 74
     0
 42
0.000000001
 43
0.0000000001
 40
0.0
 40
0.0
 40
0.0
 40
0.0
 40
0.1041970499828306
 40
0.2963601812481964
 40
0.4882893789539886
 40
0.6776721672458067
 40
0.8626859219444138
 40
0.9999999999999998
 40
0.9999999999999998
 40
0.9999999999999998
 40
0.9999999999999998
 10
893.8572222705326
 20
-1.880083866045168
 30
0.0
 10
893.9252140795433
 20
-1.839450438439953
 30
0.0
 10
894.1185982957486
 20
-1.72387970038352
 30
0.0
 10
894.4112694772819
 20
-1.51116446919562
 30
0.0
 10
894.7199764019837
 20
-1.234858454490222
 30
0.0
 10
894.9823460303969
 20
-0.9334672834674933
 30
0.0
 10
895.1851110358559
 20
-0.639811816879984
 30
0.0
 10
895.276781508419
 20
-0.438414943048187
 30
0.0
 10
895.3158338183525
 20
-0.3526183619177772
 30
0.0
  0
SPLINE
  5
670
330
1F
100
AcDbEntity
  8
0
  6
Continuous
 62
     7
370
    15
100
AcDbSpline
210
0.0
220
0.0
230
1.0
 70
     8
 71
     3
 72
    12
 73
     8
 74
     0
 42
0.000000001
 43
0.0000000001
 40
0.0
 40
0.0
 40
0.0
 40
0.0
 40
0.0768367652532514
 40
0.3395749174756198
 40
0.5947182797155716
 40
0.8492404364926095
 40
1.0
 40
1.0
 40
1.0
 40
1.0
 10
851.5608769123369
 20
5.686524402556784
 30
0.0
 10
851.557414901133
 20
5.651258690225603
 30
0.0
 10
851.542114775405
 20
5.495404245870659
 30
0.0
 10
851.5623809913886
 20
5.218224214689286
 30
0.0
 10
851.6271948616253
 20
4.868439661375276
 30
0.0
 10
851.7188253387482
 20
4.576839165508985
 30
0.0
 10
851.8037223530981
 20
4.410579400134778
 30
0.0
 10
851.8353029455253
 20
4.348732915573194
 30
0.0
  0
SPLINE
  5
671
330
1F
100
AcDbEntity
  8
0
  6
Continuous
 62
     7
370
    15
100
AcDbSpline
210
0.0
220
0.0
230
1.0
 70
     8
 71
     3
 72
    12
 73
     8
 74
     0
 42
0.000000001
 43
0.0000000001
 40
0.0
 40
0.0
 40
0.0
 40
0.0
 40
0.171140419525248
 40
0.4320457775953849
 40
0.6897775326503441
 40
0.9454100058301525
 40
1.0
 40
1.0
 40
1.0
 40
1.0
 10
902.3511392126613
 20
4.347286548893208
 30
0.0
 10
902.3869386062917
 20
4.417819011663269
 30
0.0
 10
902.4773145496332
 20
4.595878951026165
 30
0.0
 10
902.5696048191377
 20
4.902276171887663
 30
0.0
 10
902.6286216974085
 20
5.254036649285055
 30
0.0
 10
902.6457001151472
 20
5.518782331213969
 30
0.0
 10
902.6302290803613
 20
5.661136996324898
 30
0.0
 10
902.6275066350594
 20
5.686187214011738
 30
0.0
  0
SPLINE
  5
672
330
1F
100
AcDbEntity
  8
0
  6
Continuous
 62
     7
370
    15
100
AcDbSpline
210
0.0
220
0.0
230
1.0
 70
     8
 71
     3
 72
    13
 73
     9
 74
     0
 42
0.000000001
 43
0.0000000001
 40
0.0
 40
0.0
 40
0.0
 40
0.0
 40
0.1261034525555466
 40
0.2984112059159869
 40
0.47582722984088
 40
0.6606387889674564
 40
0.8522336472936146
 40
1.0
 40
1.0
 40
1.0
 40
1.0
 10
851.8308103548919
 20
4.344807572105551
 30
0.0
 10
851.872630585019
 20
4.266854987751202
 30
0.0
 10
851.9715939761947
 20
4.082387994738411
 30
0.0
 10
852.1669806199016
 20
3.810380092183919
 30
0.0
 10
852.4182467228991
 20
3.52819922854961
 30
0.0
 10
852.7125362827442
 20
3.262737595584951
 30
0.0
 10
853.0182794626394
 20
3.034544191843068
 30
0.0
 10
853.2349140151248
 20
2.90390455529571
 30
0.0
 10
853.329242113476
 20
2.847020792555852
 30
0.0
  0
SPLINE
  5
673
330
1F
100
AcDbEntity
  8
0
  6
Continuous
 62
     7
370
    15
100
AcDbSpline
210
0.0
220
0.0
230
1.0
 70
     8
 71
     3
 72
    13
 73
     9
 74
     0
 42
0.000000001
 43
0.0000000001
 40
0.0
 40
0.0
 40
0.0
 40
0.0
 40
0.111156727022281
 40
0.3167368939768512
 40
0.5230101483767197
 40
0.7019548876178661
 40
0.8739608710008848
 40
1.0
 40
1.0
 40
1.0
 40
1.0
 10
900.8583729124794
 20
2.847020412386143
 30
0.0
 10
900.9295956190412
 20
2.889545350400553
 30
0.0
 10
901.1325420304851
 20
3.010718554614612
 30
0.0
 10
901.4421301353932
 20
3.2344735521919
 30
0.0
 10
901.758337455168
 20
3.51588536851041
 30
0.0
 10
902.0203651794783
 20
3.809957608776457
 30
0.0
 10
902.216167625813
 20
4.082659831443393
 30
0.0
 10
902.3150073754257
 20
4.266896464645995
 30
0.0
 10
902.3568053296081
 20
4.344807572105509
 30
0.0
  0
LINE
  5
674
330
1F
100
AcDbEntity
  8
0
  6
Continuous
 62
     7
370
    15
100
AcDbLine
 10
860.3303914383339
 20
-1.880084246214778
 30
0.0
 11
873.7654205074177
 21
-9.635961439308886
 31
0.0
  0
LINE
  5
675
330
1F
100
AcDbEntity
  8
0
  6
Continuous
 62
     7
370
    15
100
AcDbLine
 10
880.4221932014488
 20
-9.635961059139248
 30
0.0
 11
893.8572222705326
 21
-1.880083866045168
 31
0.0
  0
SPLINE
  5
676
330
1F
100
AcDbEntity
  8
0
  6
Continuous
 62
     7
370
    15
100
AcDbSpline
210
0.0
220
0.0
230
1.0
 70
     8
 71
     3
 72
    23
 73
    19
 74
     0
 42
0.000000001
 43
0.0000000001
 40
0.0
 40
0.0
 40
0.0
 40
0.0
 40
0.0374434020877546
 40
0.1058558234459468
 40
0.1741216265111764
 40
0.2422106631190149
 40
0.3100711769405027
 40
0.3777233111425277
 40
0.4452254765393755
 40
0.5126552985839696
 40
0.5800999856899933
 40
0.6476301500709928
 40
0.7153305658876416
 40
0.7832943671366007
 40
0.8516085112565178
 40
0.9203403395491218
 40
0.9855212864654896
 40
0.9999999999999998
 40
0.9999999999999998
 40
0.9999999999999998
 40
0.9999999999999998
 10
873.7654205074177
 20
-9.635961439308886
 30
0.0
 10
873.8348926959695
 20
-9.67469813702732
 30
0.0
 10
874.0312967435638
 20
-9.784210222092482
 30
0.0
 10
874.3774973638105
 20
-9.942565112113811
 30
0.0
 10
874.8084800999656
 20
-10.10185614078332
 30
0.0
 10
875.2604029315264
 20
-10.23150702414601
 30
0.0
 10
875.72835757997
 20
-10.33154322460572
 30
0.0
 10
876.2081009069754
 20
-10.40152021339205
 30
0.0
 10
876.6953481647574
 20
-10.44129390387228
 30
0.0
 10
877.1859440561659
 20
-10.45076430823442
 30
0.0
 10
877.6757176131123
 20
-10.42991616069881
 30
0.0
 10
878.1605258759352
 20
-10.37880617413866
 30
0.0
 10
878.6362978911425
 20
-10.29755337768991
 30
0.0
 10
879.0990547990402
 20
-10.18626689236416
 30
0.0
 10
879.5449842087732
 20
-10.0451159624402
 30
0.0
 10
879.9616366857099
 20
-9.877244913928706
 30
0.0
 10
880.2489270582691
 20
-9.734586068006905
 30
0.0
 10
880.3955444423284
 20
-9.651129828157451
 30
0.0
 10
880.4221932014488
 20
-9.635961059139248
 30
0.0
  0
LINE
  5
677
330
1F
100
AcDbEntity
  8
0
  6
Continuous
 62
     7
370
    15
100
AcDbLine
 10
853.329242113476
 20
2.847020792555852
 30
0.0
 11
873.8705018203784
 21
-9.011196026996714
 31
0.0
  0
LINE
  5
678
330
1F
100
AcDbEntity
  8
0
  6
Continuous
 62
     7
370
    15
100
AcDbLine
 10
880.3171125470326
 20
-9.011196787336018
 30
0.0
 11
900.8583729124794
 21
2.847020412386143
 31
0.0
  0
SPLINE
  5
679
330
1F
100
AcDbEntity
  8
0
  6
Continuous
 62
     7
370
    15
100
AcDbSpline
210
0.0
220
0.0
230
1.0
 70
     8
 71
     3
 72
    13
 73
     9
 74
     0
 42
0.000000001
 43
0.0000000001
 40
0.0
 40
0.0
 40
0.0
 40
0.0
 40
0.1157781343268347
 40
0.3303979647951098
 40
0.5468277219324041
 40
0.765763862787957
 40
0.9747868331546037
 40
1.0
 40
1.0
 40
1.0
 40
1.0
 10
878.285139881882
 20
-9.742414686901099
 30
0.0
 10
878.3706869755885
 20
-9.724954682894903
 30
0.0
 10
878.6148141229045
 20
-9.675128782499257
 30
0.0
 10
879.0085105140356
 20
-9.570617847798487
 30
0.0
 10
879.4586606861326
 20
-9.419969922630201
 30
0.0
 10
879.8824064733071
 20
-9.242640918905522
 30
0.0
 10
880.163078085987
 20
-9.099453440367213
 30
0.0
 10
880.3021435472876
 20
-9.019773529240097
 30
0.0
 10
880.3171125470326
 20
-9.011196787336018
 30
0.0
  0
SPLINE
  5
67A
330
1F
100
AcDbEntity
  8
0
  6
Continuous
 62
     7
370
    15
100
AcDbSpline
210
0.0
220
0.0
230
1.0
 70
     8
 71
     3
 72
    13
 73
     9
 74
     0
 42
0.000000001
 43
0.0000000001
 40
0.0
 40
0.0
 40
0.0
 40
0.0
 40
0.1206263596731798
 40
0.3392749347080159
 40
0.5564714107019526
 40
0.7722020167348571
 40
0.9750089534233261
 40
0.9999999999999998
 40
0.9999999999999998
 40
0.9999999999999998
 40
0.9999999999999998
 10
873.8705018203784
 20
-9.011196026996714
 30
0.0
 10
873.9428213148778
 20
-9.051566013479956
 30
0.0
 10
874.1462278658248
 20
-9.165111050944233
 30
0.0
 10
874.5021224778593
 20
-9.329422217565735
 30
0.0
 10
874.941615325301
 20
-9.495648420781861
 30
0.0
 10
875.3909453873168
 20
-9.630163156046236
 30
0.0
 10
875.7151453997918
 20
-9.705692512947834
 30
0.0
 10
875.88395489269
 20
-9.738784971021118
 30
0.0
 10
875.902474485529
 20
-9.742415447240404
 30
0.0
  0
SPLINE
  5
67B
330
1F
100
AcDbEntity
  8
0
  6
Continuous
 62
     7
370
    15
100
AcDbSpline
210
0.0
220
0.0
230
1.0
 70
     8
 71
     3
 72
    13
 73
     9
 74
     0
 42
0.000000001
 43
0.0000000001
 40
0.0
 40
0.0
 40
0.0
 40
0.0
 40
0.0943511898889781
 40
0.2982299664107767
 40
0.5040141292765399
 40
0.7073141943820617
 40
0.9101553143083414
 40
1.0
 40
1.0
 40
1.0
 40
1.0
 10
875.9040049429655
 20
-9.737732284502456
 30
0.0
 10
875.9771890335759
 20
-9.752994942841823
 30
0.0
 10
876.2085129724708
 20
-9.801237917723668
 30
0.0
 10
876.610349774191
 20
-9.842578122455037
 30
0.0
 10
877.1014434046245
 20
-9.86357983567062
 30
0.0
 10
877.5916405321302
 20
-9.841302690464104
 30
0.0
 10
877.9868132897139
 20
-9.799432826025253
 30
0.0
 10
878.2139424284249
 20
-9.752537733707185
 30
0.0
 10
878.2836634250951
 20
-9.738142519628027
 30
0.0
  0
SPLINE
  5
67C
330
1F
100
AcDbEntity
  8
0
  6
Continuous
 62
     7
370
    15
100
AcDbSpline
210
0.0
220
0.0
230
1.0
 70
     8
 71
     3
 72
    10
 73
     6
 74
     0
 42
0.000000001
 43
0.0000000001
 40
0.0
 40
0.0
 40
0.0
 40
0.0
 40
0.0200996675044582
 40
0.9164176908487796
 40
1.0
 40
1.0
 40
1.0
 40
1.0
 10
898.7752932422424
 20
42.78595021390637
 30
0.0
 10
898.7057372793019
 20
42.8262743259996
 30
0.0
 10
895.5344253693652
 20
44.66479875342048
 30
0.0
 10
892.0727391473432
 20
46.67879778568113
 30
0.0
 10
888.6817680288459
 20
48.62902771139082
 30
0.0
 10
888.3925292287861
 20
48.79537597678174
 30
0.0
  0
SPLINE
  5
67D
330
1F
100
AcDbEntity
  8
0
  6
Continuous
 62
     7
370
    15
100
AcDbSpline
210
0.0
220
0.0
230
1.0
 70
     8
 71
     3
 72
    17
 73
    13
 74
     0
 42
0.000000001
 43
0.0000000001
 40
0.0
 40
0.0
 40
0.0
 40
0.0
 40
0.0480577761136592
 40
0.1577338714908055
 40
0.2657262273314366
 40
0.3755616119791022
 40
0.4893387624126634
 40
0.6069926684145616
 40
0.7269872266852869
 40
0.8530213224608422
 40
0.9837887367413298
 40
1.0
 40
1.0
 40
1.0
 40
1.0
 10
900.533624859258
 20
40.26900831204994
 30
0.0
 10
900.5319404108838
 20
40.31979205519113
 30
0.0
 10
900.5264117621438
 20
40.48647301844477
 30
0.0
 10
900.466418274188
 20
40.76412995839348
 30
0.0
 10
900.3590009727998
 20
41.09238637710078
 30
0.0
 10
900.2076333710773
 20
41.40704076518895
 30
0.0
 10
900.0150552552737
 20
41.71023592693759
 30
0.0
 10
899.7792720187502
 20
41.99978787781591
 30
0.0
 10
899.5030423570938
 20
42.27281755285429
 30
0.0
 10
899.1832644159213
 20
42.5257934677004
 30
0.0
 10
898.9370485394593
 20
42.69777879644741
 30
0.0
 10
898.7898465543693
 20
42.77573357763086
 30
0.0
 10
898.7736106610244
 20
42.78433173282718
 30
0.0
  0
LINE
  5
67E
330
1F
100
AcDbEntity
  8
0
  6
Continuous
 62
     7
370
    15
100
AcDbLine
 10
853.5182187040314
 20
38.1257846476691
 30
0.0
 11
851.55618807544
 21
5.685475170403648
 31
0.0
  0
LINE
  5
67F
330
1F
100
AcDbEntity
  8
0
  6
Continuous
 62
     7
370
    15
100
AcDbLine
 10
902.6314236577929
 20
5.685498174529641
 30
0.0
 11
900.5398612757485
 21
40.26748237187013
 31
0.0
  0
LINE
  5
680
330
1F
100
AcDbEntity
  8
0
  6
Continuous
 62
     7
370
    15
100
AcDbLine
 10
892.0925185768579
 20
46.25293331126124
 30
0.0
 11
888.1177133372489
 21
48.63672885513361
 31
0.0
  0
LINE
  5
681
330
1F
100
AcDbEntity
  8
0
  6
Continuous
 62
     7
370
    15
100
AcDbLine
 10
892.7031394839056
 20
41.45935473173861
 30
0.0
 11
892.7031394839056
 21
45.33792232278566
 31
0.0
  0
SPLINE
  5
682
330
1F
100
AcDbEntity
  8
0
  6
Continuous
 62
     7
370
    15
100
AcDbSpline
210
0.0
220
0.0
230
1.0
 70
     8
 71
     3
 72
    13
 73
     9
 74
     0
 42
0.000000001
 43
0.0000000001
 40
0.0
 40
0.0
 40
0.0
 40
0.0
 40
0.058154284684362
 40
0.2449176474874358
 40
0.4317111591015749
 40
0.6229352693173582
 40
0.8207774367690012
 40
1.0
 40
1.0
 40
1.0
 40
1.0
 10
892.6977809072441
 20
45.34846895663608
 30
0.0
 10
892.6990351342821
 20
45.36920703723398
 30
0.0
 10
892.704317330379
 20
45.45654577660648
 30
0.0
 10
892.6642427303059
 20
45.60899435148343
 30
0.0
 10
892.580421476604
 20
45.79679651496497
 30
0.0
 10
892.4500116122635
 20
45.97122175196989
 30
0.0
 10
892.2880748463054
 20
46.12579052191136
 30
0.0
 10
892.1555221655605
 20
46.21197092212719
 30
0.0
 10
892.0925185768579
 20
46.25293331126124
 30
0.0
  0
LINE
  5
683
330
1F
100
AcDbEntity
  8
0
  6
Continuous
 62
     8
370
    15
100
AcDbLine
 10
697.4965910639496
 20
-27.81233223379253
 30
0.0
 11
697.4965910639496
 21
-27.81415762603877
 31
0.0
  0
LINE
  5
684
330
1F
100
AcDbEntity
  8
0
  6
Continuous
 62
     8
370
    15
100
AcDbLine
 10
755.5960471954079
 20
-27.81233223379253
 30
0.0
 11
755.5960471954079
 21
-27.81415762603877
 31
0.0
  0
LINE
  5
685
330
1F
100
AcDbEntity
  8
0
  6
Continuous
 62
     8
370
    15
100
AcDbLine
 10
765.5899561222525
 20
-17.81842330694793
 30
0.0
 11
765.591785239789
 21
-17.81842330694793
 31
0.0
  0
LINE
  5
686
330
1F
100
AcDbEntity
  8
0
  6
Continuous
 62
     8
370
    15
100
AcDbLine
 10
687.5008567448587
 20
-17.81842330694793
 30
0.0
 11
687.502682137105
 21
-17.81842330694793
 31
0.0
  0
LINE
  5
687
330
1F
100
AcDbEntity
  8
0
  6
Continuous
 62
     8
370
    15
100
AcDbLine
 10
765.5899561222525
 20
40.28103468715549
 30
0.0
 11
765.591785239789
 21
40.28103468715549
 31
0.0
  0
LINE
  5
688
330
1F
100
AcDbEntity
  8
0
  6
Continuous
 62
     8
370
    15
100
AcDbLine
 10
687.5008567448587
 20
40.28103468715549
 30
0.0
 11
687.502682137105
 21
40.28103468715549
 31
0.0
  0
LINE
  5
689
330
1F
100
AcDbEntity
  8
0
  6
Continuous
 62
     8
370
    15
100
AcDbLine
 10
755.5960471954079
 20
50.27677086889148
 30
0.0
 11
755.5960471954079
 21
50.27494175135494
 31
0.0
  0
LINE
  5
68A
330
1F
100
AcDbEntity
  8
0
  6
Continuous
 62
     8
370
    15
100
AcDbLine
 10
697.4965910639496
 20
50.27677086889148
 30
0.0
 11
697.4965910639496
 21
50.27494175135494
 31
0.0
  0
LINE
  5
68B
330
1F
100
AcDbEntity
  8
0
  6
Continuous
 62
     8
370
    15
100
AcDbLine
 10
764.2545103307695
 20
-22.81522037685512
 30
0.0
 11
764.2605751033754
 21
-22.81151371300815
 31
0.0
  0
LINE
  5
68C
330
1F
100
AcDbEntity
  8
0
  6
Continuous
 62
     8
370
    15
100
AcDbLine
 10
692.4997939940424
 20
-26.4768864423096
 30
0.0
 11
692.5035006578894
 21
-26.4829474896252
 31
0.0
  0
LINE
  5
68D
330
1F
100
AcDbEntity
  8
0
  6
Continuous
 62
     8
370
    15
100
AcDbLine
 10
688.8381279285879
 20
45.27783361970783
 30
0.0
 11
688.832063155982
 21
45.27412323057056
 31
0.0
  0
LINE
  5
68E
330
1F
100
AcDbEntity
  8
0
  6
Continuous
 62
     8
370
    15
100
AcDbLine
 10
760.5928442653151
 20
48.93949595987201
 30
0.0
 11
760.5891376014681
 21
48.94556073247791
 31
0.0
  0
LINE
  5
68F
330
1F
100
AcDbEntity
  8
0
  6
Continuous
 62
     8
370
    15
100
AcDbLine
 10
731.5463194835813
 20
-27.81233223379253
 30
0.0
 11
755.5960471954079
 21
-27.81233223379253
 31
0.0
  0
LINE
  5
690
330
1F
100
AcDbEntity
  8
0
  6
Continuous
 62
     8
370
    15
100
AcDbLine
 10
697.4965910639496
 20
-27.81233223379253
 30
0.0
 11
721.5463197070987
 21
-27.81233223379253
 31
0.0
  0
LINE
  5
691
330
1F
100
AcDbEntity
  8
0
  6
Continuous
 62
     8
370
    15
100
AcDbLine
 10
721.5463197070987
 20
-24.86167879999278
 30
0.0
 11
700.4463485654325
 21
-24.86257286966441
 31
0.0
  0
SPLINE
  5
692
330
1F
100
AcDbEntity
  8
0
  6
Continuous
 62
     8
370
    15
100
AcDbSpline
210
0.0
220
0.0
230
1.0
 70
     8
 71
     3
 72
     9
 73
     5
 74
     0
 42
0.000000001
 43
0.0000000001
 40
0.0
 40
0.0
 40
0.0
 40
0.0
 40
0.8998085873191607
 40
1.0
 40
1.0
 40
1.0
 40
1.0
 10
752.6462915565701
 20
-24.86257286966441
 30
0.0
 10
746.317651518523
 20
-24.86177188647442
 30
0.0
 10
739.2843334026085
 20
-24.86088171583004
 30
0.0
 10
732.2509991756381
 20
-24.86122020335542
 30
0.0
 10
731.5463194835813
 20
-24.86125411689876
 30
0.0
  0
SPLINE
  5
693
330
1F
100
AcDbEntity
  8
0
  6
Continuous
 62
     8
370
    15
100
AcDbSpline
210
0.0
220
0.0
230
1.0
 70
     8
 71
     3
 72
     9
 73
     5
 74
     0
 42
0.000000001
 43
0.0000000001
 40
0.0
 40
0.0
 40
0.0
 40
0.0
 40
0.1003270351325697
 40
1.0
 40
1.0
 40
1.0
 40
1.0
 10
731.5463194835813
 20
-22.128142735368
 30
0.0
 10
732.2522066067663
 20
-22.12842296013839
 30
0.0
 10
739.2880680996555
 20
-22.1312160733807
 30
0.0
 10
746.3238757830526
 20
-22.10415405766221
 30
0.0
 10
752.6538017418118
 20
-22.07980709374545
 30
0.0
  0
SPLINE
  5
694
330
1F
100
AcDbEntity
  8
0
  6
Continuous
 62
     8
370
    15
100
AcDbSpline
210
0.0
220
0.0
230
1.0
 70
     8
 71
     3
 72
     9
 73
     5
 74
     0
 42
0.000000001
 43
0.0000000001
 40
0.0
 40
0.0
 40
0.0
 40
0.0
 40
0.7870430924825281
 40
1.0
 40
1.0
 40
1.0
 40
1.0
 10
700.4388383801908
 20
-22.07980709374545
 30
0.0
 10
705.9763187314993
 20
-22.09999178914599
 30
0.0
 10
713.0121219857299
 20
-22.12563802833332
 30
0.0
 10
720.0479842397613
 20
-22.12560532623243
 30
0.0
 10
721.5463197070987
 20
-22.12559836209415
 30
0.0
  0
LWPOLYLINE
  5
695
330
1F
100
AcDbEntity
  8
0
  6
Continuous
 62
     8
370
    15
100
AcDbPolyline
 90
        5
 70
   128
 43
0.0
 10
745.3496641691656
 20
-12.3813863307297
 10
745.3498485710354
 20
-12.37178066969512
 10
745.3503906007738
 20
-12.34333249033091
 10
745.3512716319294
 20
-12.29713516533969
 10
745.3518136616678
 20
-12.26869443655608
  0
LINE
  5
696
330
1F
100
AcDbEntity
  8
0
  6
Continuous
 62
     8
370
    15
100
AcDbLine
 10
703.5463190849752
 20
-1.665585061913709
 30
0.0
 11
703.4335377838345
 21
-7.581569573289137
 31
0.0
  0
ARC
  5
697
330
1F
100
AcDbEntity
  8
0
  6
Continuous
 62
     8
370
    15
100
AcDbCircle
 10
706.9329014113343
 20
-7.648282017501621
 30
0.0
 40
3.500000000000016
100
AcDbArc
 50
178.9078456786851
 51
195.3749233596965
  0
LWPOLYLINE
  5
698
330
1F
100
AcDbEntity
  8
0
  6
Continuous
 62
     8
370
    15
100
AcDbPolyline
 90
        5
 70
   128
 43
0.0
 10
707.7408264603348
 20
34.73130581676365
 10
707.7413684900732
 20
34.75974654554726
 10
707.7422495212288
 20
34.80594387053848
 10
707.7427915509672
 20
34.83439204990269
 10
707.7429740901918
 20
34.84399771093727
  0
LINE
  5
699
330
1F
100
AcDbEntity
  8
0
  6
Continuous
 62
     7
370
    15
100
AcDbLine
 10
721.5463197070987
 20
-15.2686949282944
 30
0.0
 11
721.5463197070987
 21
-54.26869200766681
 31
0.0
  0
ARC
  5
69A
330
1F
100
AcDbEntity
  8
0
  6
Continuous
 62
     7
370
    15
100
AcDbCircle
 10
723.5463195826059
 20
-54.26869442563869
 30
0.0
 40
2.000000000000001
100
AcDbArc
 50
180.0
 51
270.0
  0
LINE
  5
69B
330
1F
100
AcDbEntity
  8
0
  6
Continuous
 62
     7
370
    15
100
AcDbLine
 10
723.546319569263
 20
-56.26869606078265
 30
0.0
 11
729.546319621417
 21
-56.26869606078265
 31
0.0
  0
ARC
  5
69C
330
1F
100
AcDbEntity
  8
0
  6
Continuous
 62
     7
370
    15
100
AcDbCircle
 10
729.546319582606
 20
-54.26869442563869
 30
0.0
 40
2.000000000000001
100
AcDbArc
 50
270.0
 51
0.0
  0
LINE
  5
69D
330
1F
100
AcDbEntity
  8
0
  6
Continuous
 62
     7
370
    15
100
AcDbLine
 10
731.5463194835813
 20
-15.2686949282944
 30
0.0
 11
731.5463194835813
 21
-54.26869200766681
 31
0.0
  0
ARC
  5
69E
330
1F
100
AcDbEntity
  8
0
  6
Continuous
 62
     7
370
    15
100
AcDbCircle
 10
734.546319582606
 20
-15.26869442563868
 30
0.0
 40
3.0
100
AcDbArc
 50
90.0
 51
180.0000000000008
  0
LINE
  5
69F
330
1F
100
AcDbEntity
  8
0
  6
Continuous
 62
     7
370
    15
100
AcDbLine
 10
734.5463195096583
 20
-12.26869443655608
 30
0.0
 11
746.5463186826439
 21
-12.26869443655608
 31
0.0
  0
ARC
  5
6A0
330
1F
100
AcDbEntity
  8
0
  6
Continuous
 62
     7
370
    15
100
AcDbCircle
 10
746.5463195826059
 20
-8.268694425638685
 30
0.0
 40
4.000000000000007
100
AcDbArc
 50
270.0
 51
0.0
  0
LINE
  5
6A1
330
1F
100
AcDbEntity
  8
0
  6
Continuous
 62
     7
370
    15
100
AcDbLine
 10
750.546319338295
 20
-8.268693780904989
 30
0.0
 11
750.546319338295
 21
30.73130516111256
 31
0.0
  0
ARC
  5
6A2
330
1F
100
AcDbEntity
  8
0
  6
Continuous
 62
     7
370
    15
100
AcDbCircle
 10
746.546319582606
 20
30.7313055743613
 30
0.0
 40
4.000000000000014
100
AcDbArc
 50
0.0000000000008142
 51
90.0
  0
LINE
  5
6A3
330
1F
100
AcDbEntity
  8
0
  6
Continuous
 62
     7
370
    15
100
AcDbLine
 10
746.5463186826439
 20
34.73130581676365
 30
0.0
 11
707.5463197406263
 21
34.73130581676365
 31
0.0
  0
ARC
  5
6A4
330
1F
100
AcDbEntity
  8
0
  6
Continuous
 62
     7
370
    15
100
AcDbCircle
 10
707.5463195826061
 20
30.73130557436132
 30
0.0
 40
4.000000000000014
100
AcDbArc
 50
90.0
 51
180.0
  0
LINE
  5
6A5
330
1F
100
AcDbEntity
  8
0
  6
Continuous
 62
     7
370
    15
100
AcDbLine
 10
703.5463190849752
 20
30.73130516111256
 30
0.0
 11
703.5463190849752
 21
-8.268693780904989
 31
0.0
  0
ARC
  5
6A6
330
1F
100
AcDbEntity
  8
0
  6
Continuous
 62
     7
370
    15
100
AcDbCircle
 10
707.5463195826061
 20
-8.26869442563867
 30
0.0
 40
4.000000000000007
100
AcDbArc
 50
180.0
 51
270.0
  0
LINE
  5
6A7
330
1F
100
AcDbEntity
  8
0
  6
Continuous
 62
     7
370
    15
100
AcDbLine
 10
718.5463196810217
 20
-12.26869443655608
 30
0.0
 11
707.5463197406263
 21
-12.26869443655608
 31
0.0
  0
ARC
  5
6A8
330
1F
100
AcDbEntity
  8
0
  6
Continuous
 62
     7
370
    15
100
AcDbCircle
 10
718.546319582606
 20
-15.26869442563867
 30
0.0
 40
3.0
100
AcDbArc
 50
0.0
 51
90.0
  0
LINE
  5
6A9
330
1F
100
AcDbEntity
  8
0
  6
Continuous
 62
     7
370
    15
100
AcDbLine
 10
760.5893760200472
 20
-26.48280220330356
 30
0.0
 11
760.5928442653151
 21
-26.4768864423096
 31
0.0
  0
LINE
  5
6AA
330
1F
100
AcDbEntity
  8
0
  6
Continuous
 62
     7
370
    15
100
AcDbLine
 10
688.832212167594
 20
-22.81174840629695
 30
0.0
 11
688.8381279285879
 21
-22.81522037685512
 31
0.0
  0
LINE
  5
6AB
330
1F
100
AcDbEntity
  8
0
  6
Continuous
 62
     7
370
    15
100
AcDbLine
 10
692.5032659646006
 20
48.94541172086597
 30
0.0
 11
692.4997939940424
 21
48.93949595987201
 31
0.0
  0
LINE
  5
6AC
330
1F
100
AcDbEntity
  8
0
  6
Continuous
 62
     7
370
    15
100
AcDbLine
 10
764.2604260917635
 20
45.27436164914966
 30
0.0
 11
764.2545103307695
 21
45.27783361970783
 31
0.0
  0
LINE
  5
6AD
330
1F
100
AcDbEntity
  8
0
  6
Continuous
 62
     7
370
    15
100
AcDbLine
 10
765.5899561222525
 20
-17.81842330694793
 30
0.0
 11
765.5899561222525
 21
40.28103468715549
 31
0.0
  0
LINE
  5
6AE
330
1F
100
AcDbEntity
  8
0
  6
Continuous
 62
     7
370
    15
100
AcDbLine
 10
687.502682137105
 20
40.28103468715549
 30
0.0
 11
687.502682137105
 21
-17.81842330694793
 31
0.0
  0
LINE
  5
6AF
330
1F
100
AcDbEntity
  8
0
  6
Continuous
 62
     7
370
    15
100
AcDbLine
 10
755.5960471954079
 20
50.27494175135494
 30
0.0
 11
697.4965910639496
 21
50.27494175135494
 31
0.0
  0
SPLINE
  5
6B0
330
1F
100
AcDbEntity
  8
0
  6
Continuous
 62
     7
370
    15
100
AcDbSpline
210
0.0
220
0.0
230
1.0
 70
     8
 71
     3
 72
    11
 73
     7
 74
     0
 42
0.000000001
 43
0.0000000001
 40
0.0
 40
0.0
 40
0.0
 40
0.0
 40
0.2477659184987654
 40
0.4999242251047157
 40
0.7477601015184641
 40
0.9999999999999998
 40
0.9999999999999998
 40
0.9999999999999998
 40
0.9999999999999998
 10
764.2545103307695
 20
-22.81522037685512
 30
0.0
 10
764.0247867953402
 20
-23.1822374183582
 30
0.0
 10
763.5612671912973
 20
-23.92277797044616
 30
0.0
 10
762.6895811649358
 20
-24.90072132148448
 30
0.0
 10
761.7069085712857
 20
-25.77863619629273
 30
0.0
 10
760.9663729280619
 20
-26.24277385180692
 30
0.0
 10
760.5928442653151
 20
-26.4768864423096
 30
0.0
  0
ELLIPSE
  5
6B1
330
1F
100
AcDbEntity
  8
0
  6
Continuous
 62
     7
370
    15
100
AcDbEllipse
 10
755.6091534707008
 20
-17.8315283137336
 30
0.0
 11
3.235436281387421
 21
9.467736666135877
 31
0.0
210
0.0
220
0.0
230
1.0
 40
0.9972650234067574
 41
4.519266526420463
 42
5.042153001556188
  0
LINE
  5
6B2
330
1F
100
AcDbEntity
  8
0
  6
Continuous
 62
     7
370
    15
100
AcDbLine
 10
762.6402004834146
 20
-14.86866580546496
 30
0.0
 11
765.5899561222525
 21
-17.81842330694793
 31
0.0
  0
LINE
  5
6B3
330
1F
100
AcDbEntity
  8
0
  6
Continuous
 62
     7
370
    15
100
AcDbLine
 10
755.5960471954079
 20
-27.81233223379253
 30
0.0
 11
752.6462915565701
 21
-24.86257286966441
 31
0.0
  0
ELLIPSE
  5
6B4
330
1F
100
AcDbEntity
  8
0
  6
Continuous
 62
     7
370
    15
100
AcDbEllipse
 10
755.6091534707008
 20
-17.8315283137336
 30
0.0
 11
9.467736666135921
 21
3.235436281387229
 31
0.0
210
0.0
220
0.0
230
1.0
 40
0.9972650234067625
 41
4.382624959213242
 42
4.905511434349005
  0
SPLINE
  5
6B5
330
1F
100
AcDbEntity
  8
0
  6
Continuous
 62
     7
370
    15
100
AcDbSpline
210
0.0
220
0.0
230
1.0
 70
     8
 71
     3
 72
    11
 73
     7
 74
     0
 42
0.000000001
 43
0.0000000001
 40
0.0
 40
0.0
 40
0.0
 40
0.0
 40
0.2477663310259124
 40
0.4999241878626346
 40
0.7477600827334335
 40
1.0
 40
1.0
 40
1.0
 40
1.0
 10
692.4997939940424
 20
-26.4768864423096
 30
0.0
 10
692.1327772845054
 20
-26.24716123589431
 30
0.0
 10
691.3922386903889
 20
-25.78363906654547
 30
0.0
 10
690.4142917038885
 20
-24.91195762192039
 30
0.0
 10
689.5363783769551
 20
-23.92928444023438
 30
0.0
 10
689.0722405869355
 20
-23.1887489582648
 30
0.0
 10
688.8381279285879
 20
-22.81522037685512
 30
0.0
  0
ELLIPSE
  5
6B6
330
1F
100
AcDbEntity
  8
0
  6
Continuous
 62
     7
370
    15
100
AcDbEllipse
 10
697.4834856945112
 20
-17.8315283137336
 30
0.0
 11
9.467736666135863
 21
-3.235436281387279
 31
0.0
210
0.0
220
0.0
230
0.9999999999999998
 40
0.9972650234067666
 41
4.519266526420413
 42
5.042153001556173
  0
LINE
  5
6B7
330
1F
100
AcDbEntity
  8
0
  6
Continuous
 62
     7
370
    15
100
AcDbLine
 10
700.4463485654325
 20
-24.86257286966441
 30
0.0
 11
697.4965910639496
 21
-27.81233223379253
 31
0.0
  0
LINE
  5
6B8
330
1F
100
AcDbEntity
  8
0
  6
Continuous
 62
     7
370
    15
100
AcDbLine
 10
687.502682137105
 20
-17.81842330694793
 30
0.0
 11
690.4524415012331
 21
-14.86866580546496
 31
0.0
  0
ELLIPSE
  5
6B9
330
1F
100
AcDbEntity
  8
0
  6
Continuous
 62
     7
370
    15
100
AcDbEllipse
 10
697.4834856945112
 20
-17.8315283137336
 30
0.0
 11
-3.235436281387535
 21
9.467736666135834
 31
0.0
210
0.0
220
0.0
230
1.0
 40
0.9972650234067662
 41
1.241032305623398
 42
1.763918780759132
  0
SPLINE
  5
6BA
330
1F
100
AcDbEntity
  8
0
  6
Continuous
 62
     7
370
    15
100
AcDbSpline
210
0.0
220
0.0
230
1.0
 70
     8
 71
     3
 72
    11
 73
     7
 74
     0
 42
0.000000001
 43
0.0000000001
 40
0.0
 40
0.0
 40
0.0
 40
0.0
 40
0.247766046679935
 40
0.4999244837394475
 40
0.7477609575726136
 40
1.0
 40
1.0
 40
1.0
 40
1.0
 10
760.5928442653151
 20
48.93949595987203
 30
0.0
 10
760.9598613777253
 20
48.70977248544325
 30
0.0
 10
761.7004020728845
 20
48.24625300448303
 30
0.0
 10
762.6783449561848
 20
47.37456550086482
 30
0.0
 10
763.5562632078232
 20
46.39189699374421
 30
0.0
 10
764.0203992350375
 20
45.65136125575472
 30
0.0
 10
764.2545103307695
 20
45.27783361970783
 30
0.0
  0
ELLIPSE
  5
6BB
330
1F
100
AcDbEntity
  8
0
  6
Continuous
 62
     7
370
    15
100
AcDbEllipse
 10
755.6091534707008
 20
40.2941394624562
 30
0.0
 11
9.467736666136033
 21
-3.235436281386967
 31
0.0
210
0.0
220
0.0
230
1.0
 40
0.9972650234067593
 41
1.377673872830572
 42
1.900560347966329
  0
LINE
  5
6BC
330
1F
100
AcDbEntity
  8
0
  6
Continuous
 62
     7
370
    15
100
AcDbLine
 10
752.6462915565701
 20
47.32518611251713
 30
0.0
 11
755.5960471954079
 21
50.27494175135494
 31
0.0
  0
LINE
  5
6BD
330
1F
100
AcDbEntity
  8
0
  6
Continuous
 62
     7
370
    15
100
AcDbLine
 10
765.5899561222525
 20
40.28103468715549
 30
0.0
 11
762.6402004834146
 21
37.33127718567253
 31
0.0
  0
ELLIPSE
  5
6BE
330
1F
100
AcDbEntity
  8
0
  6
Continuous
 62
     7
370
    15
100
AcDbEllipse
 10
755.6091534707008
 20
40.2941394624562
 30
0.0
 11
-3.235436281386512
 21
9.467736666136161
 31
0.0
210
0.0
220
0.0
230
1.0
 40
0.9972650234067566
 41
4.382624959213313
 42
4.905511434349042
  0
SPLINE
  5
6BF
330
1F
100
AcDbEntity
  8
0
  6
Continuous
 62
     7
370
    15
100
AcDbSpline
210
0.0
220
0.0
230
1.0
 70
     8
 71
     3
 72
    11
 73
     7
 74
     0
 42
0.000000001
 43
0.0000000001
 40
0.0
 40
0.0
 40
0.0
 40
0.0
 40
0.247765850671897
 40
0.4999243568189879
 40
0.7477603636049779
 40
1.0
 40
1.0
 40
1.0
 40
1.0
 10
688.8381279285879
 20
45.27783361970783
 30
0.0
 10
689.0678535262172
 20
45.64484878961529
 30
0.0
 10
689.5313775402337
 20
46.3853859631654
 30
0.0
 10
690.4030554420996
 20
47.36333571264618
 30
0.0
 10
691.3857291314382
 20
48.24124932156578
 30
0.0
 10
692.1262653372509
 20
48.70538469968379
 30
0.0
 10
692.4997939940424
 20
48.93949595987201
 30
0.0
  0
ELLIPSE
  5
6C0
330
1F
100
AcDbEntity
  8
0
  6
Continuous
 62
     7
370
    15
100
AcDbEllipse
 10
697.4834856945112
 20
40.2941394624562
 30
0.0
 11
3.235436281386284
 21
9.467736666136218
 31
0.0
210
0.0
220
0.0
230
0.9999999999999998
 40
0.9972650234067705
 41
1.377673872830536
 42
1.900560347966266
  0
LINE
  5
6C1
330
1F
100
AcDbEntity
  8
0
  6
Continuous
 62
     7
370
    15
100
AcDbLine
 10
690.4524415012331
 20
37.33127718567253
 30
0.0
 11
687.502682137105
 21
40.28103468715549
 31
0.0
  0
LINE
  5
6C2
330
1F
100
AcDbEntity
  8
0
  6
Continuous
 62
     7
370
    15
100
AcDbLine
 10
697.4965910639496
 20
50.27494175135494
 30
0.0
 11
700.4463485654325
 21
47.32518611251713
 31
0.0
  0
ELLIPSE
  5
6C3
330
1F
100
AcDbEntity
  8
0
  6
Continuous
 62
     7
370
    15
100
AcDbEllipse
 10
697.4834856945112
 20
40.2941394624562
 30
0.0
 11
9.467736666136147
 21
3.235436281386498
 31
0.0
210
0.0
220
0.0
230
1.0
 40
0.9972650234067643
 41
1.24103230562351
 42
1.763918780759275
  0
SPLINE
  5
6C4
330
1F
100
AcDbEntity
  8
0
  6
Continuous
 62
     7
370
    15
100
AcDbSpline
210
0.0
220
0.0
230
1.0
 70
     8
 71
     3
 72
     9
 73
     5
 74
     0
 42
0.000000001
 43
0.0000000001
 40
0.0
 40
0.0
 40
0.0
 40
0.0
 40
0.3637159361568079
 40
1.0
 40
1.0
 40
1.0
 40
1.0
 10
690.4524415012331
 20
-14.86866580546496
 30
0.0
 10
690.4530450443834
 20
-8.540023331246942
 30
0.0
 10
690.4547044249337
 20
8.859935936662523
 30
0.0
 10
690.4533214598663
 20
26.25993504325926
 30
0.0
 10
690.4524415012331
 20
37.33127718567253
 30
0.0
  0
SPLINE
  5
6C5
330
1F
100
AcDbEntity
  8
0
  6
Continuous
 62
     7
370
    15
100
AcDbSpline
210
0.0
220
0.0
230
1.0
 70
     8
 71
     3
 72
     9
 73
     5
 74
     0
 42
0.000000001
 43
0.0000000001
 40
0.0
 40
0.0
 40
0.0
 40
0.0
 40
0.3637159450797756
 40
1.0
 40
1.0
 40
1.0
 40
1.0
 10
762.6402004834146
 20
37.33127718567253
 30
0.0
 10
762.6395953435842
 20
31.00263455624533
 30
0.0
 10
762.6379315731648
 20
13.6026752884735
 30
0.0
 10
762.6393181968645
 20
-3.797323818238176
 30
0.0
 10
762.6402004834146
 20
-14.86866580546496
 30
0.0
  0
SPLINE
  5
6C6
330
1F
100
AcDbEntity
  8
0
  6
Continuous
 62
     7
370
    15
100
AcDbSpline
210
0.0
220
0.0
230
1.0
 70
     8
 71
     3
 72
     9
 73
     5
 74
     0
 42
0.000000001
 43
0.0000000001
 40
0.0
 40
0.0
 40
0.0
 40
0.0
 40
0.3637159272383811
 40
1.0
 40
1.0
 40
1.0
 40
1.0
 10
700.4463485654325
 20
47.32518611251713
 30
0.0
 10
706.7749908844189
 20
47.32458097269705
 30
0.0
 10
724.1749501521867
 20
47.32291720222462
 30
0.0
 10
741.5749492589013
 20
47.32430382593519
 30
0.0
 10
752.6462915565701
 20
47.32518611251713
 30
0.0
  0
SPLINE
  5
6C7
330
1F
100
AcDbEntity
  8
0
  6
Continuous
 62
     7
370
    15
100
AcDbSpline
210
0.0
220
0.0
230
1.0
 70
     8
 71
     3
 72
    14
 73
    10
 74
     0
 42
0.000000001
 43
0.0000000001
 40
0.0
 40
0.0
 40
0.0
 40
0.0
 40
0.2106304713842152
 40
0.319080881663226
 40
0.4275312259390801
 40
0.638168303220136
 40
0.7466208396063744
 40
0.8550737018842649
 40
1.0
 40
1.0
 40
1.0
 40
1.0
 10
700.4463485654325
 20
-24.86257286966441
 30
0.0
 10
699.8949147531568
 20
-24.83715116922303
 30
0.0
 10
699.0595560994749
 20
-24.79864022378905
 30
0.0
 10
697.965005463162
 20
-24.55972314628976
 30
0.0
 10
696.8943030220348
 20
-24.23752143996845
 30
0.0
 10
695.8676656206762
 20
-23.77958325514439
 30
0.0
 10
694.9124245433256
 20
-23.1985510318946
 30
0.0
 10
694.1438008531177
 20
-22.6442622054261
 30
0.0
 10
693.6608494357385
 20
-22.19014426630797
 30
0.0
 10
693.3846137698622
 20
-21.93040060103534
 30
0.0
  0
ARC
  5
6C8
330
1F
100
AcDbEntity
  8
0
  6
Continuous
 62
     7
370
    15
100
AcDbCircle
 10
982.4400143893431
 20
-22.71012956940158
 30
0.0
 40
282.0018804493476
100
AcDbArc
 50
179.8719340183071
 51
180.4373272761356
  0
ARC
  5
6C9
330
1F
100
AcDbEntity
  8
0
  6
Continuous
 62
     7
370
    15
100
AcDbCircle
 10
692.6052880118929
 20
267.2744024708184
 30
0.0
 40
282.1512816282321
100
AcDbArc
 50
269.5628224150232
 51
270.1279162905349
  0
SPLINE
  5
6CA
330
1F
100
AcDbEntity
  8
0
  6
Continuous
 62
     7
370
    15
100
AcDbSpline
210
0.0
220
0.0
230
1.0
 70
     8
 71
     3
 72
    14
 73
    10
 74
     0
 42
0.000000001
 43
0.0000000001
 40
0.0
 40
0.0
 40
0.0
 40
0.0
 40
0.1449262720546705
 40
0.3555646245588373
 40
0.4640169108138226
 40
0.5724691411149923
 40
0.7830986403999857
 40
0.8915492882607589
 40
1.0
 40
1.0
 40
1.0
 40
1.0
 10
693.3846137698622
 20
-21.93040060103534
 30
0.0
 10
693.1253175691472
 20
-21.6538522376243
 30
0.0
 10
692.4891557818487
 20
-20.97536369572964
 30
0.0
 10
691.8179377588203
 20
-19.95520442814834
 30
0.0
 10
691.3159904253212
 20
-18.95609947413973
 30
0.0
 10
690.9015464816195
 20
-17.916774124355
 30
0.0
 10
690.6215244681602
 20
-16.82913923549697
 30
0.0
 10
690.4738298142149
 20
-15.71954765958723
 30
0.0
 10
690.4595709402935
 20
-15.15229314585876
 30
0.0
 10
690.4524415012331
 20
-14.86866580546496
 30
0.0
  0
SPLINE
  5
6CB
330
1F
100
AcDbEntity
  8
0
  6
Continuous
 62
     7
370
    15
100
AcDbSpline
210
0.0
220
0.0
230
1.0
 70
    24
 71
     3
 72
    17
 73
    13
 74
     0
 42
0.000000001
 43
0.0000000001
 40
0.0
 40
0.0
 40
0.0
 40
0.0
 40
0.1143862096903483
 40
0.228772099528853
 40
0.3431550104641567
 40
0.4575391433939501
 40
0.5719710720802848
 40
0.6864047342632606
 40
0.8008857431814405
 40
0.9153670910274477
 40
0.9897530194983797
 40
1.0
 40
1.0
 40
1.0
 40
1.0
 10
695.4032181974382
 20
-19.91179617345927
 30
0.0
 10
695.2843681109535
 20
-20.03064625994408
 30
0.0
 10
695.0466682703179
 20
-20.26834610057976
 30
0.0
 10
694.7036384112258
 20
-20.6113759596718
 30
0.0
 10
694.3836058917102
 20
-20.9314084791874
 30
0.0
 10
694.0947334694474
 20
-21.22028090145029
 30
0.0
 10
693.8466280154329
 20
-21.46838635546465
 30
0.0
 10
693.6445637321805
 20
-21.67045063871693
 30
0.0
 10
693.4962687133661
 20
-21.81874565753146
 30
0.0
 10
693.4148968613015
 20
-21.90011750959607
 30
0.0
 10
693.3899732114483
 20
-21.92504115944936
 30
0.0
 10
693.3851925868668
 20
-21.92982178403065
 30
0.0
 10
693.3846137698622
 20
-21.93040060103534
 30
0.0
  0
ARC
  5
6CC
330
1F
100
AcDbEntity
  8
0
  6
Continuous
 62
     7
370
    15
100
AcDbCircle
 10
470.5032232802867
 20
-22.7097263590047
 30
0.0
 40
282.1512816282321
100
AcDbArc
 50
359.5628224150239
 51
0.1279162905348487
  0
SPLINE
  5
6CD
330
1F
100
AcDbEntity
  8
0
  6
Continuous
 62
     7
370
    15
100
AcDbSpline
210
0.0
220
0.0
230
1.0
 70
     8
 71
     3
 72
    14
 73
    10
 74
     0
 42
0.000000001
 43
0.0000000001
 40
0.0
 40
0.0
 40
0.0
 40
0.0
 40
0.1449263121192969
 40
0.3555647228540853
 40
0.4640168268317357
 40
0.5724690871143439
 40
0.7830987552886258
 40
0.8915492582797403
 40
1.0
 40
1.0
 40
1.0
 40
1.0
 10
759.7080244894953
 20
-21.93040060103534
 30
0.0
 10
759.4314761402269
 20
-22.18969682539158
 30
0.0
 10
758.7529876330299
 20
-22.8258586706916
 30
0.0
 10
757.7328285441089
 20
-23.49707590525466
 30
0.0
 10
756.7337247904756
 20
-23.99902417872163
 30
0.0
 10
755.6943997909804
 20
-24.41346908278575
 30
0.0
 10
754.6067632980427
 20
-24.69348240298947
 30
0.0
 10
753.4971731457808
 20
-24.84118593791627
 30
0.0
 10
752.929918961087
 20
-24.85544388718411
 30
0.0
 10
752.6462915565701
 20
-24.86257286966441
 30
0.0
  0
SPLINE
  5
6CE
330
1F
100
AcDbEntity
  8
0
  6
Continuous
 62
     7
370
    15
100
AcDbSpline
210
0.0
220
0.0
230
1.0
 70
     8
 71
     3
 72
    17
 73
    13
 74
     0
 42
0.000000001
 43
0.0000000001
 40
0.0
 40
0.0
 40
0.0
 40
0.0
 40
0.1143859332009499
 40
0.2287718419677018
 40
0.3431553032563589
 40
0.4575389761068911
 40
0.5719713359021104
 40
0.6864046823704203
 40
0.8008857102325874
 40
0.915367077022638
 40
0.9897530178027389
 40
1.0
 40
1.0
 40
1.0
 40
1.0
 10
757.6894219245644
 20
-19.91179617345927
 30
0.0
 10
757.8082714007734
 20
-20.03064628329358
 30
0.0
 10
758.0459703278036
 20
-20.26834647757442
 30
0.0
 10
758.3889992695678
 20
-20.61137709081712
 30
0.0
 10
758.7090372899713
 20
-20.93140652461095
 30
0.0
 10
758.997903000661
 20
-21.22028255988082
 30
0.0
 10
759.246015968667
 20
-21.46838516634784
 30
0.0
 10
759.4480731827702
 20
-21.67045115005718
 30
0.0
 10
759.5963699519638
 20
-21.81874555751333
 30
0.0
 10
759.6777413264801
 20
-21.90011752723002
 30
0.0
 10
759.7026650493731
 20
-21.92504115908875
 30
0.0
 10
759.7074456726487
 20
-21.9298217839917
 30
0.0
 10
759.7080244894953
 20
-21.93040060103534
 30
0.0
  0
SPLINE
  5
6CF
330
1F
100
AcDbEntity
  8
0
  6
Continuous
 62
     7
370
    15
100
AcDbSpline
210
0.0
220
0.0
230
1.0
 70
     8
 71
     3
 72
    14
 73
    10
 74
     0
 42
0.000000001
 43
0.0000000001
 40
0.0
 40
0.0
 40
0.0
 40
0.0
 40
0.210630207071677
 40
0.3190807015007783
 40
0.427531031528022
 40
0.6381681045711107
 40
0.7466208728962731
 40
0.8550737209252224
 40
1.0
 40
1.0
 40
1.0
 40
1.0
 10
762.6402004834146
 20
-14.86866580546496
 30
0.0
 10
762.6147796925572
 20
-15.42009918229863
 30
0.0
 10
762.5762700984575
 20
-16.25545775292926
 30
0.0
 10
762.3373461561868
 20
-17.35000665350368
 30
0.0
 10
762.015144889835
 20
-18.42070915161208
 30
0.0
 10
761.557213294755
 20
-19.44735082303264
 30
0.0
 10
760.9761742592233
 20
-20.40258868983821
 30
0.0
 10
760.4218864573899
 20
-21.17121373301408
 30
0.0
 10
759.9677682870313
 20
-21.65416501347355
 30
0.0
 10
759.7080244894953
 20
-21.93040060103534
 30
0.0
  0
ARC
  5
6D0
330
1F
100
AcDbEntity
  8
0
  6
Continuous
 62
     7
370
    15
100
AcDbCircle
 10
760.4268863365787
 20
289.6796112755445
 30
0.0
 40
304.5563196397736
100
AcDbArc
 50
269.8928697521941
 51
270.4163915422494
  0
ARC
  5
6D1
330
1F
100
AcDbEntity
  8
0
  6
Continuous
 62
     7
370
    15
100
AcDbCircle
 10
760.4268863365787
 20
-267.2169998953369
 30
0.0
 40
304.5563196397736
100
AcDbArc
 50
89.58360845775054
 51
90.10713024780592
  0
SPLINE
  5
6D2
330
1F
100
AcDbEntity
  8
0
  6
Continuous
 62
     7
370
    15
100
AcDbSpline
210
0.0
220
0.0
230
1.0
 70
     8
 71
     3
 72
    14
 73
    10
 74
     0
 42
0.000000001
 43
0.0000000001
 40
0.0
 40
0.0
 40
0.0
 40
0.0
 40
0.1449262926785095
 40
0.355564675157721
 40
0.4640167645873279
 40
0.5724687897773409
 40
0.7830985488750735
 40
0.891549272827601
 40
1.0
 40
1.0
 40
1.0
 40
1.0
 10
759.7080244894953
 20
44.39301011859775
 30
0.0
 10
759.9673207117962
 20
44.11646176788366
 30
0.0
 10
760.6034825520536
 20
43.43797325713987
 30
0.0
 10
761.274699828472
 20
42.41781419765859
 30
0.0
 10
761.7766477463643
 20
41.41871089142556
 30
0.0
 10
762.1910930324485
 20
40.37938645451037
 30
0.0
 10
762.4711108577955
 20
39.29175065906811
 30
0.0
 10
762.6188133371049
 20
38.18215935405099
 30
0.0
 10
762.6330714345742
 20
37.61490457793897
 30
0.0
 10
762.6402004834146
 20
37.33127718567253
 30
0.0
  0
SPLINE
  5
6D3
330
1F
100
AcDbEntity
  8
0
  6
Continuous
 62
     7
370
    15
100
AcDbSpline
210
0.0
220
0.0
230
1.0
 70
     8
 71
     3
 72
    14
 73
    10
 74
     0
 42
0.000000001
 43
0.0000000001
 40
0.0
 40
0.0
 40
0.0
 40
0.0
 40
0.2106302771172511
 40
0.3190807092130789
 40
0.427531302560783
 40
0.6381684222154043
 40
0.7466209804188873
 40
0.8550736727296451
 40
1.0
 40
1.0
 40
1.0
 40
1.0
 10
690.4524415012331
 20
37.33127718567253
 30
0.0
 10
690.477863208769
 20
37.88271038439615
 30
0.0
 10
690.5163741796561
 20
38.71806842760103
 30
0.0
 10
690.7552915408135
 20
39.8126189471696
 30
0.0
 10
691.077492302747
 20
40.88332231228341
 30
0.0
 10
691.5354313500287
 20
41.90995998432074
 30
0.0
 10
692.1164627563932
 20
42.86520100952553
 30
0.0
 10
692.6707529114089
 20
43.63382310971438
 30
0.0
 10
693.1248702509376
 20
44.11677434677454
 30
0.0
 10
693.3846137698622
 20
44.39301011859775
 30
0.0
  0
ARC
  5
6D4
330
1F
100
AcDbEntity
  8
0
  6
Continuous
 62
     7
370
    15
100
AcDbCircle
 10
692.6052880118929
 20
-244.8117910906108
 30
0.0
 40
282.1512816282321
100
AcDbArc
 50
89.87208370946515
 51
90.43717758497688
  0
ARC
  5
6D5
330
1F
100
AcDbEntity
  8
0
  6
Continuous
 62
     7
370
    15
100
AcDbCircle
 10
448.0980144755606
 20
45.11187196568099
 30
0.0
 40
304.5563196397736
100
AcDbArc
 50
359.8928697521933
 51
0.4163915422498804
  0
SPLINE
  5
6D6
330
1F
100
AcDbEntity
  8
0
  6
Continuous
 62
     7
370
    15
100
AcDbSpline
210
0.0
220
0.0
230
1.0
 70
     8
 71
     3
 72
    17
 73
    13
 74
     0
 42
0.000000001
 43
0.0000000001
 40
0.0
 40
0.0
 40
0.0
 40
0.0
 40
0.0102469666725554
 40
0.0846329532113398
 40
0.1991142596090545
 40
0.3135954265983076
 40
0.428028621624101
 40
0.5424612033884474
 40
0.6568444131068533
 40
0.7712284216958487
 40
0.885614346340075
 40
1.0
 40
1.0
 40
1.0
 40
1.0
 10
759.7080244894953
 20
44.39301011859775
 30
0.0
 10
759.707445672343
 20
44.3924319719516
 30
0.0
 10
759.702665037592
 20
44.38765687512364
 30
0.0
 10
759.6777413963419
 20
44.36272236999566
 30
0.0
 10
759.596369740391
 20
44.2813597151943
 30
0.0
 10
759.448073591399
 20
44.13305885940127
 30
0.0
 10
759.2460152777172
 20
43.9309980090676
 30
0.0
 10
758.9979043081004
 20
43.68289071325905
 30
0.0
 10
758.7090353829433
 20
43.39402080420978
 30
0.0
 10
758.3890003880298
 20
43.07398607255627
 30
0.0
 10
758.0459707079693
 20
42.73095632321563
 30
0.0
 10
757.8082714251795
 20
42.49325704966333
 30
0.0
 10
757.6894219245644
 20
42.37440755366684
 30
0.0
  0
SPLINE
  5
6D7
330
1F
100
AcDbEntity
  8
0
  6
Continuous
 62
     7
370
    15
100
AcDbSpline
210
0.0
220
0.0
230
1.0
 70
     8
 71
     3
 72
    14
 73
    10
 74
     0
 42
0.000000001
 43
0.0000000001
 40
0.0
 40
0.0
 40
0.0
 40
0.0
 40
0.2106302474672682
 40
0.3190807626954843
 40
0.4275311135218113
 40
0.6381682269618079
 40
0.746621016086521
 40
0.8550736931306206
 40
1.0
 40
1.0
 40
1.0
 40
1.0
 10
752.6462915565701
 20
47.32518611251714
 30
0.0
 10
753.1977249342424
 20
47.29976532280896
 30
0.0
 10
754.0330835061434
 20
47.2612557304501
 30
0.0
 10
755.1276324006843
 20
47.02233177991094
 30
0.0
 10
756.1983349237021
 20
46.70013054769627
 30
0.0
 10
757.2249764456842
 20
46.24219874781684
 30
0.0
 10
758.1802142393533
 20
45.66116045992821
 30
0.0
 10
758.9488376970146
 20
45.1068713444094
 30
0.0
 10
759.4317887964118
 20
44.65275377118842
 30
0.0
 10
759.7080244894953
 20
44.39301011859775
 30
0.0
  0
SPLINE
  5
6D8
330
1F
100
AcDbEntity
  8
0
  6
Continuous
 62
     7
370
    15
100
AcDbSpline
210
0.0
220
0.0
230
1.0
 70
     8
 71
     3
 72
    17
 73
    13
 74
     0
 42
0.000000001
 43
0.0000000001
 40
0.0
 40
0.0
 40
0.0
 40
0.0
 40
0.0102469649768506
 40
0.0846329392059755
 40
0.1991142266589137
 40
0.3135953747034132
 40
0.4280288854436903
 40
0.5424610360990574
 40
0.6568447058981311
 40
0.7712281641353353
 40
0.885614069850569
 40
1.0
 40
1.0
 40
1.0
 40
1.0
 10
693.3846137698622
 20
44.39301011859777
 30
0.0
 10
693.3851925871727
 20
44.39243197199054
 30
0.0
 10
693.3899732232293
 20
44.38765687548422
 30
0.0
 10
693.4148967914396
 20
44.36272235236185
 30
0.0
 10
693.4962689249391
 20
44.28135981521168
 30
0.0
 10
693.6445633235495
 20
44.13305834805683
 30
0.0
 10
693.8466287063845
 20
43.93099919818221
 30
0.0
 10
694.0947321620146
 20
43.68288905482927
 30
0.0
 10
694.3836077987423
 20
43.3940227587833
 30
0.0
 10
694.7036372927593
 20
43.07398494141541
 30
0.0
 10
695.0466678901534
 20
42.73095594621969
 30
0.0
 10
695.2843680865473
 20
42.49325702631367
 30
0.0
 10
695.4032181974382
 20
42.37440755366684
 30
0.0
  0
ARC
  5
6D9
330
1F
100
AcDbEntity
  8
0
  6
Continuous
 62
     7
370
    15
100
AcDbCircle
 10
1004.77163529854
 20
45.11247377659674
 30
0.0
 40
304.3333308086213
100
AcDbArc
 50
179.5834166609381
 51
180.1073220446204
  0
SPLINE
  5
6DA
330
1F
100
AcDbEntity
  8
0
  6
Continuous
 62
     7
370
    15
100
AcDbSpline
210
0.0
220
0.0
230
1.0
 70
     8
 71
     3
 72
    14
 73
    10
 74
     0
 42
0.000000001
 43
0.0000000001
 40
0.0
 40
0.0
 40
0.0
 40
0.0
 40
0.1449262619166408
 40
0.3555645996860199
 40
0.4640168783544409
 40
0.5724688805245665
 40
0.7830985949142969
 40
0.8915492958472132
 40
1.0
 40
1.0
 40
1.0
 40
1.0
 10
693.3846137698622
 20
44.39301011859775
 30
0.0
 10
693.6611621363283
 20
44.65230630956566
 30
0.0
 10
694.3396506857181
 20
45.28846807295013
 30
0.0
 10
695.3598098910874
 20
45.9596862944702
 30
0.0
 10
696.3589144733706
 20
46.46163291070415
 30
0.0
 10
697.3982392231878
 20
46.87607880815419
 30
0.0
 10
698.4858751039744
 20
47.15609646305749
 30
0.0
 10
699.5954663949111
 20
47.30379897048727
 30
0.0
 10
700.1627211724519
 20
47.3180570651033
 30
0.0
 10
700.4463485654325
 20
47.32518611251713
 30
0.0
  0
SPLINE
  5
6DB
330
1F
100
AcDbEntity
  8
0
  6
Continuous
 62
     7
370
    15
100
AcDbSpline
210
0.0
220
0.0
230
1.0
 70
     8
 71
     3
 72
    13
 73
     9
 74
     0
 42
0.000000001
 43
0.0000000001
 40
0.0
 40
0.0
 40
0.0
 40
0.0
 40
0.0000107732940308
 40
0.1643253222256499
 40
0.3735156900669749
 40
0.5826967726711788
 40
0.7913509559238011
 40
1.0
 40
1.0
 40
1.0
 40
1.0
 10
695.4032181974382
 20
-19.91179617345928
 30
0.0
 10
695.403231856804
 20
-19.91181107465117
 30
0.0
 10
695.6115785017982
 20
-20.1390993257451
 30
0.0
 10
696.1360551069435
 20
-20.60702901290207
 30
0.0
 10
697.0437566303663
 20
-21.22367420113719
 30
0.0
 10
698.1206085154692
 20
-21.70856148989849
 30
0.0
 10
699.2632254732248
 20
-22.01773148389241
 30
0.0
 10
700.0469706285307
 20
-22.05911539367826
 30
0.0
 10
700.4388383801908
 20
-22.07980709374545
 30
0.0
  0
SPLINE
  5
6DC
330
1F
100
AcDbEntity
  8
0
  6
Continuous
 62
     7
370
    15
100
AcDbSpline
210
0.0
220
0.0
230
1.0
 70
     8
 71
     3
 72
    13
 73
     9
 74
     0
 42
0.000000001
 43
0.0000000001
 40
0.0
 40
0.0
 40
0.0
 40
0.0
 40
0.2086487320930589
 40
0.4173032530914887
 40
0.6264840520645976
 40
0.8356744375851656
 40
0.9999890004034508
 40
1.0
 40
1.0
 40
1.0
 40
1.0
 10
752.6538017418118
 20
-22.07980709374545
 30
0.0
 10
753.0456494331838
 20
-22.05909707033465
 30
0.0
 10
753.8293556876413
 20
-22.01767644891878
 30
0.0
 10
754.9722638129203
 20
-21.70878082615651
 30
0.0
 10
756.0480052107088
 20
-21.22285182688075
 30
0.0
 10
756.959559606641
 20
-20.60981883044933
 30
0.0
 10
757.4760714973751
 20
-20.13442333019666
 30
0.0
 10
757.6894076443056
 20
-19.91181107464058
 30
0.0
 10
757.6894219245644
 20
-19.91179617345927
 30
0.0
  0
LINE
  5
6DD
330
1F
100
AcDbEntity
  8
0
  6
Continuous
 62
     7
370
    15
100
AcDbLine
 10
695.4032181974382
 20
-19.91179617345927
 30
0.0
 11
704.4789622750015
 21
-10.83605209589598
 31
0.0
  0
SPLINE
  5
6DE
330
1F
100
AcDbEntity
  8
0
  6
Continuous
 62
     7
370
    15
100
AcDbSpline
210
0.0
220
0.0
230
1.0
 70
     8
 71
     3
 72
    13
 73
     9
 74
     0
 42
0.000000001
 43
0.0000000001
 40
0.0
 40
0.0
 40
0.0
 40
0.0
 40
0.0000107732946526
 40
0.164325575301175
 40
0.3735159552166871
 40
0.5826967485849971
 40
0.7913509438808586
 40
1.0
 40
1.0
 40
1.0
 40
1.0
 10
695.4032181974382
 20
42.37440755366684
 30
0.0
 10
695.4032032962463
 20
42.37439389430116
 30
0.0
 10
695.1759147081479
 20
42.16604694053777
 30
0.0
 10
694.7079861298548
 20
41.64156866486959
 30
0.0
 10
694.0913405539737
 20
40.73386777676951
 30
0.0
 10
693.606452494993
 20
39.65701677253682
 30
0.0
 10
693.2972829462686
 20
38.51440025629218
 30
0.0
 10
693.2558989969736
 20
37.73065511537851
 30
0.0
 10
693.2352072771521
 20
37.33878737091423
 30
0.0
  0
SPLINE
  5
6DF
330
1F
100
AcDbEntity
  8
0
  6
Continuous
 62
     7
370
    15
100
AcDbSpline
210
0.0
220
0.0
230
1.0
 70
     8
 71
     3
 72
    10
 73
     6
 74
     0
 42
0.000000001
 43
0.0000000001
 40
0.0
 40
0.0
 40
0.0
 40
0.0
 40
0.3181561283153011
 40
0.6363140453018892
 40
1.0
 40
1.0
 40
1.0
 40
1.0
 10
693.2352072771521
 20
37.33878737091423
 30
0.0
 10
693.2177179144109
 20
31.80130464936275
 30
0.0
 10
693.1827390906037
 20
20.72630807457482
 30
0.0
 10
693.176929519084
 20
3.321197715064997
 30
0.0
 10
693.2149354479361
 20
-8.54624731513897
 30
0.0
 10
693.2352072771521
 20
-14.87617599070666
 30
0.0
  0
SPLINE
  5
6E0
330
1F
100
AcDbEntity
  8
0
  6
Continuous
 62
     7
370
    15
100
AcDbSpline
210
0.0
220
0.0
230
1.0
 70
     8
 71
     3
 72
    13
 73
     9
 74
     0
 42
0.000000001
 43
0.0000000001
 40
0.0
 40
0.0
 40
0.0
 40
0.0
 40
0.2086490504948222
 40
0.417303240166226
 40
0.6264843292054201
 40
0.8356744291283655
 40
0.9999892267056377
 40
1.0
 40
1.0
 40
1.0
 40
1.0
 10
693.2352072771521
 20
-14.87617599070666
 30
0.0
 10
693.2558989656995
 20
-15.26804375100197
 30
0.0
 10
693.2972828524457
 20
-16.05178892357811
 30
0.0
 10
693.606453019386
 20
-17.19440575169499
 30
0.0
 10
694.0913394371756
 20
-18.27125765946072
 30
0.0
 10
694.707986771093
 20
-19.17895748154518
 30
0.0
 10
695.1759147082246
 20
-19.70343556024559
 30
0.0
 10
695.4032032962463
 20
-19.91178251409361
 30
0.0
 10
695.4032181974382
 20
-19.91179617345928
 30
0.0
  0
LINE
  5
6E1
330
1F
100
AcDbEntity
  8
0
  6
Continuous
 62
     7
370
    15
100
AcDbLine
 10
749.1136769976349
 20
-11.3360512465298
 30
0.0
 11
757.6894219245644
 21
-19.91179617345927
 31
0.0
  0
SPLINE
  5
6E2
330
1F
100
AcDbEntity
  8
0
  6
Continuous
 62
     7
370
    15
100
AcDbSpline
210
0.0
220
0.0
230
1.0
 70
     8
 71
     3
 72
    13
 73
     9
 74
     0
 42
0.000000001
 43
0.0000000001
 40
0.0
 40
0.0
 40
0.0
 40
0.0
 40
0.0000105317453626
 40
0.16432534208376
 40
0.3735154582529665
 40
0.5826968365723668
 40
0.7913508751420063
 40
1.0
 40
1.0
 40
1.0
 40
1.0
 10
757.6894219245644
 20
-19.91179617345927
 30
0.0
 10
757.6894362048628
 20
-19.91178251408103
 30
0.0
 10
757.9122496926561
 20
-19.69865715593038
 30
0.0
 10
758.3873213393453
 20
-19.18180844451632
 30
0.0
 10
759.0005111567411
 20
-18.27041682704631
 30
0.0
 10
759.4864004484195
 20
-17.19463070094853
 30
0.0
 10
759.7953007943212
 20
-16.05173221746033
 30
0.0
 10
759.8367235656876
 20
-15.26802499026107
 30
0.0
 10
759.8574347074957
 20
-14.87617599070666
 30
0.0
  0
SPLINE
  5
6E3
330
1F
100
AcDbEntity
  8
0
  6
Continuous
 62
     7
370
    15
100
AcDbSpline
210
0.0
220
0.0
230
1.0
 70
     8
 71
     3
 72
    10
 73
     6
 74
     0
 42
0.000000001
 43
0.0000000001
 40
0.0
 40
0.0
 40
0.0
 40
0.0
 40
0.318156119324895
 40
0.6363140453490147
 40
1.0
 40
1.0
 40
1.0
 40
1.0
 10
759.8574347074957
 20
-14.87617599070666
 30
0.0
 10
759.8749225660594
 20
-9.338693423316414
 30
0.0
 10
759.9098983824942
 20
1.736303156923881
 30
0.0
 10
759.9157081737809
 20
19.14141350374919
 30
0.0
 10
759.8777050436456
 20
31.00885869417141
 30
0.0
 10
759.8574347074957
 20
37.33878737091425
 30
0.0
  0
SPLINE
  5
6E4
330
1F
100
AcDbEntity
  8
0
  6
Continuous
 62
     7
370
    15
100
AcDbSpline
210
0.0
220
0.0
230
1.0
 70
     8
 71
     3
 72
    13
 73
     9
 74
     0
 42
0.000000001
 43
0.0000000001
 40
0.0
 40
0.0
 40
0.0
 40
0.0
 40
0.2086491304822333
 40
0.4173031746762449
 40
0.6264842573250568
 40
0.8356746534867696
 40
0.9999894682543535
 40
1.0
 40
1.0
 40
1.0
 40
1.0
 10
759.8574347074957
 20
37.33878737091425
 30
0.0
 10
759.836723534415
 20
37.73063635463952
 30
0.0
 10
759.7953007005032
 20
38.51434355018013
 30
0.0
 10
759.4864009726629
 20
39.65724172163276
 30
0.0
 10
759.0005100408442
 20
40.73302694532387
 30
0.0
 10
758.3873219844745
 20
41.64441963197515
 30
0.0
 10
757.9122496927044
 20
42.16126853622673
 30
0.0
 10
757.6894362048628
 20
42.3743938942886
 30
0.0
 10
757.6894219245644
 20
42.37440755366684
 30
0.0
  0
LINE
  5
6E5
330
1F
100
AcDbEntity
  8
0
  6
Continuous
 62
     7
370
    15
100
AcDbLine
 10
704.4789622750015
 20
33.29866161345841
 30
0.0
 11
695.4032181974382
 21
42.37440755366684
 31
0.0
  0
LINE
  5
6E6
330
1F
100
AcDbEntity
  8
0
  6
Continuous
 62
     7
370
    15
100
AcDbLine
 10
749.1136769976349
 20
33.79866262673737
 30
0.0
 11
757.6894219245644
 21
42.37440755366684
 31
0.0
  0
SPLINE
  5
6E7
330
1F
100
AcDbEntity
  8
0
  6
Continuous
 62
     7
370
    15
100
AcDbSpline
210
0.0
220
0.0
230
1.0
 70
     8
 71
     3
 72
    13
 73
     9
 74
     0
 42
0.000000001
 43
0.0000000001
 40
0.0
 40
0.0
 40
0.0
 40
0.0
 40
0.000010763127438
 40
0.1643253378720013
 40
0.3735157385760237
 40
0.5826968257669428
 40
0.7913511946037764
 40
0.9999999999999998
 40
0.9999999999999998
 40
0.9999999999999998
 40
0.9999999999999998
 10
757.6894219245644
 20
42.37440755366684
 30
0.0
 10
757.6894076442934
 20
42.37442183395443
 30
0.0
 10
757.4713845490369
 20
42.59244518193362
 30
0.0
 10
756.9623560153072
 20
43.07516610644078
 30
0.0
 10
756.0471804489789
 20
43.68465367573096
 30
0.0
 10
754.9724844888597
 20
44.17161087135123
 30
0.0
 10
753.8293000488088
 20
44.48023002563705
 30
0.0
 10
753.045631028214
 20
44.52169041719294
 30
0.0
 10
752.6538017418118
 20
44.54242033659816
 30
0.0
  0
SPLINE
  5
6E8
330
1F
100
AcDbEntity
  8
0
  6
Continuous
 62
     7
370
    15
100
AcDbSpline
210
0.0
220
0.0
230
1.0
 70
     8
 71
     3
 72
    10
 73
     6
 74
     0
 42
0.000000001
 43
0.0000000001
 40
0.0
 40
0.0
 40
0.0
 40
0.0
 40
0.3181561371610619
 40
0.6363140542670739
 40
1.0
 40
1.0
 40
1.0
 40
1.0
 10
752.6538017418118
 20
44.54242033659816
 30
0.0
 10
747.1163188639808
 20
44.55990819515622
 30
0.0
 10
736.041322128515
 20
44.59488401010927
 30
0.0
 10
718.6362117816948
 20
44.60069380322528
 30
0.0
 10
706.7687669017135
 20
44.56269067288859
 30
0.0
 10
700.4388383801908
 20
44.54242033659816
 30
0.0
  0
SPLINE
  5
6E9
330
1F
100
AcDbEntity
  8
0
  6
Continuous
 62
     7
370
    15
100
AcDbSpline
210
0.0
220
0.0
230
1.0
 70
     8
 71
     3
 72
    13
 73
     9
 74
     0
 42
0.000000001
 43
0.0000000001
 40
0.0
 40
0.0
 40
0.0
 40
0.0
 40
0.2086491184393677
 40
0.4173031505902299
 40
0.6264845224746304
 40
0.8356749065622366
 40
0.9999894682549614
 40
1.0
 40
1.0
 40
1.0
 40
1.0
 10
700.4388383801908
 20
44.54242033659818
 30
0.0
 10
700.04698938928
 20
44.52170918326214
 30
0.0
 10
699.2632821793677
 20
44.48028638883994
 30
0.0
 10
698.1203835661151
 20
44.17138621600615
 30
0.0
 10
697.0445974636261
 20
43.68549605245263
 30
0.0
 10
696.1332041398896
 20
43.07230838541179
 30
0.0
 10
695.6163568988686
 20
42.59723499154195
 30
0.0
 10
695.4032318568165
 20
42.37442183396521
 30
0.0
 10
695.4032181974382
 20
42.37440755366684
 30
0.0
  0
LINE
  5
6EA
330
1F
100
AcDbEntity
  8
0
  6
Continuous
 62
     7
370
    15
100
AcDbLine
 10
745.3496641691656
 20
-12.3813863307297
 30
0.0
 11
739.4384443040819
 21
-12.26869443655608
 31
0.0
  0
ARC
  5
6EB
330
1F
100
AcDbEntity
  8
0
  6
Continuous
 62
     7
370
    15
100
AcDbCircle
 10
706.9329014113343
 20
-7.648282017501621
 30
0.0
 40
4.000000000000023
100
AcDbArc
 50
178.9078456786851
 51
230.9362260616675
  0
LWPOLYLINE
  5
6EC
330
1F
100
AcDbEntity
  8
0
  6
Continuous
 62
     7
370
    15
100
AcDbPolyline
 90
        3
 70
   128
 43
0.0
 10
746.371677073452
 20
-12.26869443655608
 10
745.9195963319273
 20
-12.35152999163268
 10
745.3496641691656
 20
-12.3813863307297
  0
LINE
  5
6ED
330
1F
100
AcDbEntity
  8
0
  6
Continuous
 62
     7
370
    15
100
AcDbLine
 10
702.9336280401678
 20
-7.572040280705671
 30
0.0
 11
703.5463190849752
 21
24.56662771999241
 31
0.0
  0
LWPOLYLINE
  5
6EE
330
1F
100
AcDbEntity
  8
0
  6
Continuous
 62
     7
370
    15
100
AcDbPolyline
 90
        9
 70
   128
 43
0.0
 10
703.4335377838345
 20
-7.581569573289137
 10
703.3360096838207
 20
-7.579710653430204
 10
703.2422310884924
 20
-7.577922514086942
 10
703.1558024909229
 20
-7.576275935775022
 10
703.0800487127037
 20
-7.574830523139219
 10
703.0178773429127
 20
-7.573645880824308
 10
702.9716818805666
 20
-7.572764849668722
 10
702.9432337012024
 20
-7.572222819930296
 10
702.9336280401678
 20
-7.572040280705671
  0
LINE
  5
6EF
330
1F
100
AcDbEntity
  8
0
  6
Continuous
 62
     7
370
    15
100
AcDbLine
 10
707.7429740901918
 20
34.84399771093727
 30
0.0
 11
713.6541948865981
 21
34.73130581676365
 31
0.0
  0
ARC
  5
6F0
330
1F
100
AcDbEntity
  8
0
  6
Continuous
 62
     7
370
    15
100
AcDbCircle
 10
707.6667319907431
 20
30.84472374563314
 30
0.0
 40
4.000000000000012
100
AcDbArc
 50
88.9078456786904
 51
134.471502243397
  0
LINE
  5
6F1
330
1F
100
AcDbEntity
  8
0
  6
Continuous
 62
     7
370
    15
100
AcDbLine
 10
731.5463194835813
 20
-27.81415762603877
 30
0.0
 11
755.5960471954079
 21
-27.81415762603877
 31
0.0
  0
LINE
  5
6F2
330
1F
100
AcDbEntity
  8
0
  6
Continuous
 62
     7
370
    15
100
AcDbLine
 10
697.4965910639496
 20
-27.81415762603877
 30
0.0
 11
721.5463197070987
 21
-27.81415762603877
 31
0.0
  0
LINE
  5
6F3
330
1F
100
AcDbEntity
  8
0
  6
Continuous
 62
     7
370
    15
100
AcDbLine
 10
765.591785239789
 20
-17.81842330694793
 30
0.0
 11
765.591785239789
 21
40.28103468715549
 31
0.0
  0
LINE
  5
6F4
330
1F
100
AcDbEntity
  8
0
  6
Continuous
 62
     7
370
    15
100
AcDbLine
 10
687.5008567448587
 20
40.28103468715549
 30
0.0
 11
687.5008567448587
 21
-17.81842330694793
 31
0.0
  0
LINE
  5
6F5
330
1F
100
AcDbEntity
  8
0
  6
Continuous
 62
     7
370
    15
100
AcDbLine
 10
755.5960471954079
 20
50.27677086889148
 30
0.0
 11
697.4965910639496
 21
50.27677086889148
 31
0.0
  0
SPLINE
  5
6F6
330
1F
100
AcDbEntity
  8
0
  6
Continuous
 62
     7
370
    15
100
AcDbSpline
210
0.0
220
0.0
230
1.0
 70
     8
 71
     3
 72
    14
 73
    10
 74
     0
 42
0.000000001
 43
0.0000000001
 40
0.0
 40
0.0
 40
0.0
 40
0.0
 40
0.0949809383856886
 40
0.2463350689769534
 40
0.3977014653504938
 40
0.5490555519883833
 40
0.7003952054228931
 40
0.8517180093998623
 40
1.0
 40
1.0
 40
1.0
 40
1.0
 10
692.503571438405
 20
-26.48298846781848
 30
0.0
 10
692.6482268267895
 20
-26.56320636362237
 30
0.0
 10
693.0233936305839
 20
-26.77125316998044
 30
0.0
 10
693.6541763660909
 20
-27.0595650525147
 30
0.0
 10
694.3965244099293
 20
-27.33404126615806
 30
0.0
 10
695.1586701178126
 20
-27.54868642924607
 30
0.0
 10
695.9351992276435
 20
-27.70165280157021
 30
0.0
 10
696.7161903900221
 20
-27.79670459135561
 30
0.0
 10
697.2382236165826
 20
-27.80837944545725
 30
0.0
 10
697.4965910639496
 20
-27.81415762603877
 30
0.0
  0
SPLINE
  5
6F7
330
1F
100
AcDbEntity
  8
0
  6
Continuous
 62
     7
370
    15
100
AcDbSpline
210
0.0
220
0.0
230
1.0
 70
     8
 71
     3
 72
    14
 73
    10
 74
     0
 42
0.000000001
 43
0.0000000001
 40
0.0
 40
0.0
 40
0.0
 40
0.0
 40
0.0948910933033039
 40
0.2461554192752864
 40
0.3974641595800939
 40
0.5487978090698365
 40
0.7001536237997687
 40
0.8515299593610372
 40
1.0
 40
1.0
 40
1.0
 40
1.0
 10
755.5960471954079
 20
-27.81415762603877
 30
0.0
 10
755.7613567625224
 20
-27.81171731797126
 30
0.0
 10
756.1901835826882
 20
-27.8053869550825
 30
0.0
 10
756.880587330949
 20
-27.74145931082519
 30
0.0
 10
757.6609069852175
 20
-27.61000032992718
 30
0.0
 10
758.4286831859006
 20
-27.41681187409869
 30
0.0
 10
759.1783000732423
 20
-27.16294476888197
 30
0.0
 10
759.9031964316373
 20
-26.8565373529507
 30
0.0
 10
760.3619279437331
 20
-26.60669756271899
 30
0.0
 10
760.5890705462427
 20
-26.48298846781848
 30
0.0
  0
SPLINE
  5
6F8
330
1F
100
AcDbEntity
  8
0
  6
Continuous
 62
     7
370
    15
100
AcDbSpline
210
0.0
220
0.0
230
1.0
 70
     8
 71
     3
 72
    14
 73
    10
 74
     0
 42
0.000000001
 43
0.0000000001
 40
0.0
 40
0.0
 40
0.0
 40
0.0
 40
0.094981236585659
 40
0.2463347375601701
 40
0.3977013979979956
 40
0.5490555021058973
 40
0.7003951730087534
 40
0.8517183484404275
 40
1.0
 40
1.0
 40
1.0
 40
1.0
 10
764.2606160815687
 20
-22.81144293249248
 30
0.0
 10
764.3408324065988
 20
-22.66678612144675
 30
0.0
 10
764.5488742060595
 20
-22.29161731057213
 30
0.0
 10
764.8371894894844
 20
-21.66083671122365
 30
0.0
 10
765.1116696392523
 20
-20.91849065307047
 30
0.0
 10
765.3263137927697
 20
-20.15634417686394
 30
0.0
 10
765.4792806596786
 20
-19.37981456453357
 30
0.0
 10
765.5743320097455
 20
-18.59882333751732
 30
0.0
 10
765.5860070037854
 20
-18.07679012745207
 30
0.0
 10
765.591785239789
 20
-17.81842330694793
 30
0.0
  0
SPLINE
  5
6F9
330
1F
100
AcDbEntity
  8
0
  6
Continuous
 62
     7
370
    15
100
AcDbSpline
210
0.0
220
0.0
230
1.0
 70
     8
 71
     3
 72
    14
 73
    10
 74
     0
 42
0.000000001
 43
0.0000000001
 40
0.0
 40
0.0
 40
0.0
 40
0.0
 40
0.094890774511891
 40
0.2461552516703253
 40
0.3974639609138586
 40
0.5487975267254761
 40
0.7001541047177178
 40
0.8515298730735445
 40
1.0
 40
1.0
 40
1.0
 40
1.0
 10
687.5008567448587
 20
-17.81842330694793
 30
0.0
 10
687.5032952873214
 20
-17.98373229118122
 30
0.0
 10
687.5096210870281
 20
-18.41255874798514
 30
0.0
 10
687.5735587382266
 20
-19.10296078501398
 30
0.0
 10
687.705006853629
 20
-19.88328182460363
 30
0.0
 10
687.8982053914158
 20
-20.65105635833484
 30
0.0
 10
688.1520673644623
 20
-21.40067448255332
 30
0.0
 10
688.4584782037206
 20
-22.12556958134234
 30
0.0
 10
688.7083170200827
 20
-22.58430025086572
 30
0.0
 10
688.832025903079
 20
-22.81144293249248
 30
0.0
  0
SPLINE
  5
6FA
330
1F
100
AcDbEntity
  8
0
  6
Continuous
 62
     7
370
    15
100
AcDbSpline
210
0.0
220
0.0
230
1.0
 70
     8
 71
     3
 72
    14
 73
    10
 74
     0
 42
0.000000001
 43
0.0000000001
 40
0.0
 40
0.0
 40
0.0
 40
0.0
 40
0.0948907911512003
 40
0.246155266736256
 40
0.3974643258084128
 40
0.5487975444430854
 40
0.7001537832121168
 40
0.8515302051754092
 40
1.0
 40
1.0
 40
1.0
 40
1.0
 10
765.591785239789
 20
40.28103468715549
 30
0.0
 10
765.5893452016004
 20
40.4463436660079
 30
0.0
 10
765.5830155225674
 20
40.87517005990398
 30
0.0
 10
765.5190798434155
 20
41.56557276279132
 30
0.0
 10
765.3876317059464
 20
42.34589390827778
 30
0.0
 10
765.1944329841325
 20
43.1136678011443
 30
0.0
 10
764.9405698436976
 20
43.86328546214871
 30
0.0
 10
764.6341604970796
 20
44.58818107103394
 30
0.0
 10
764.3843236032548
 20
45.04691341583026
 30
0.0
 10
764.2606160815687
 20
45.27405617534519
 30
0.0
  0
SPLINE
  5
6FB
330
1F
100
AcDbEntity
  8
0
  6
Continuous
 62
     7
370
    15
100
AcDbSpline
210
0.0
220
0.0
230
1.0
 70
     8
 71
     3
 72
    14
 73
    10
 74
     0
 42
0.000000001
 43
0.0000000001
 40
0.0
 40
0.0
 40
0.0
 40
0.0
 40
0.0949815373880452
 40
0.2463356240784426
 40
0.3977016422172555
 40
0.5490556849542904
 40
0.7003952944921319
 40
0.8517184085654802
 40
1.0
 40
1.0
 40
1.0
 40
1.0
 10
688.832025903079
 20
45.27405617534519
 30
0.0
 10
688.7518080926599
 20
45.12939949702437
 30
0.0
 10
688.5437623509799
 20
44.75423086834981
 30
0.0
 10
688.2554495414847
 20
44.12344810027424
 30
0.0
 10
687.9809727685353
 20
43.38110083374018
 30
0.0
 10
687.7663280049959
 20
42.6189556171869
 30
0.0
 10
687.6133613748302
 20
41.8424259287021
 30
0.0
 10
687.5183099627297
 20
41.06143472164058
 30
0.0
 10
687.5066349768323
 20
40.53940150895601
 30
0.0
 10
687.5008567448587
 20
40.28103468715549
 30
0.0
  0
SPLINE
  5
6FC
330
1F
100
AcDbEntity
  8
0
  6
Continuous
 62
     7
370
    15
100
AcDbSpline
210
0.0
220
0.0
230
1.0
 70
     8
 71
     3
 72
    14
 73
    10
 74
     0
 42
0.000000001
 43
0.0000000001
 40
0.0
 40
0.0
 40
0.0
 40
0.0
 40
0.0949815050102972
 40
0.2463355401064098
 40
0.397701840977059
 40
0.5490558321198242
 40
0.7003950404670613
 40
0.8517181029566829
 40
1.0
 40
1.0
 40
1.0
 40
1.0
 10
760.5890705462427
 20
48.94560171067119
 30
0.0
 10
760.4444138648538
 20
49.02581951293472
 30
0.0
 10
760.0692452282221
 20
49.23386523346303
 30
0.0
 10
759.4384620169818
 20
49.52217851687798
 30
0.0
 10
758.6961138223487
 20
49.79665448239365
 30
0.0
 10
757.9339687129677
 20
50.01129939181986
 30
0.0
 10
757.1574397163317
 20
50.16426643844434
 30
0.0
 10
756.3764484700564
 20
50.25931769827707
 30
0.0
 10
755.8544146374544
 20
50.27099264787399
 30
0.0
 10
755.5960471954079
 20
50.27677086889148
 30
0.0
  0
SPLINE
  5
6FD
330
1F
100
AcDbEntity
  8
0
  6
Continuous
 62
     7
370
    15
100
AcDbSpline
210
0.0
220
0.0
230
1.0
 70
     8
 71
     3
 72
    14
 73
    10
 74
     0
 42
0.000000001
 43
0.0000000001
 40
0.0
 40
0.0
 40
0.0
 40
0.0
 40
0.0948911727017649
 40
0.2461556885165221
 40
0.3974640850251498
 40
0.5487976895107462
 40
0.7001540783208374
 40
0.85153016568897
 40
0.9999999999999998
 40
0.9999999999999998
 40
0.9999999999999998
 40
0.9999999999999998
 10
697.4965910639496
 20
50.27677086889148
 30
0.0
 10
697.3312814640237
 20
50.2743308369245
 30
0.0
 10
696.9024544485112
 20
50.26800118863651
 30
0.0
 10
696.2120523400744
 20
50.20406575249478
 30
0.0
 10
695.4317318196153
 20
50.07261706624532
 30
0.0
 10
694.6639589603714
 20
49.8794170877007
 30
0.0
 10
693.9143380554528
 20
49.62556248278251
 30
0.0
 10
693.1894467155814
 20
49.3191440013677
 30
0.0
 10
692.7307144450913
 20
49.06930863211406
 30
0.0
 10
692.503571438405
 20
48.94560171067119
 30
0.0
  0
SPLINE
  5
6FE
330
1F
100
AcDbEntity
  8
0
  6
Continuous
 62
     8
370
    15
100
AcDbSpline
210
0.0
220
0.0
230
1.0
 70
     8
 71
     3
 72
     9
 73
     5
 74
     0
 42
0.000000001
 43
0.0000000001
 40
0.0
 40
0.0
 40
0.0
 40
0.0
 40
0.2467635876733818
 40
0.9999999999999998
 40
0.9999999999999998
 40
0.9999999999999998
 40
0.9999999999999998
 10
693.1879147168131
 20
190.9727268246158
 30
0.0
 10
693.1866633257316
 20
190.973627027672
 30
0.0
 10
693.1815921112411
 20
190.977275066123
 30
0.0
 10
693.2121727936487
 20
190.9545589393339
 30
0.0
 10
693.2352072771521
 20
190.9374483254893
 30
0.0
  0
SPLINE
  5
6FF
330
1F
100
AcDbEntity
  8
0
  6
Continuous
 62
     8
370
    15
100
AcDbSpline
210
0.0
220
0.0
230
1.0
 70
     8
 71
     3
 72
     9
 73
     5
 74
     0
 42
0.000000001
 43
0.0000000001
 40
0.0
 40
0.0
 40
0.0
 40
0.0
 40
0.6363122612931926
 40
1.0
 40
1.0
 40
1.0
 40
1.0
 10
759.8574347074957
 20
190.9374483254893
 30
0.0
 10
759.8766019686402
 20
190.951832805565
 30
0.0
 10
759.9067243822887
 20
190.974438813575
 30
0.0
 10
759.9050905167128
 20
190.973068667684
 30
0.0
 10
759.9044962998362
 20
190.9725703624232
 30
0.0
  0
SPLINE
  5
700
330
1F
100
AcDbEntity
  8
0
  6
Continuous
 62
     8
370
    15
100
AcDbSpline
210
0.0
220
0.0
230
1.0
 70
     8
 71
     3
 72
    11
 73
     7
 74
     0
 42
0.000000001
 43
0.0000000001
 40
0.0
 40
0.0
 40
0.0
 40
0.0
 40
0.2513106139251293
 40
0.5026157222588767
 40
0.7637722203112677
 40
1.0
 40
1.0
 40
1.0
 40
1.0
 10
752.3949629839392
 20
99.80960007283531
 30
0.0
 10
752.6619918497994
 20
99.79542112418201
 30
0.0
 10
753.1960437315803
 20
99.76706353750095
 30
0.0
 10
753.9342323859653
 20
99.75509796061741
 30
0.0
 10
754.6025627825668
 20
99.76506404586544
 30
0.0
 10
754.9835439501814
 20
99.79277450702253
 30
0.0
 10
755.1644872154922
 20
99.8059353185042
 30
0.0
  0
SPLINE
  5
701
330
1F
100
AcDbEntity
  8
0
  6
Continuous
 62
     8
370
    15
100
AcDbSpline
210
0.0
220
0.0
230
1.0
 70
     8
 71
     3
 72
    11
 73
     7
 74
     0
 42
0.000000001
 43
0.0000000001
 40
0.0
 40
0.0
 40
0.0
 40
0.0
 40
0.226163299808001
 40
0.4775381714440626
 40
0.7387664710540705
 40
1.0
 40
1.0
 40
1.0
 40
1.0
 10
697.9286539580555
 20
99.80584684285961
 30
0.0
 10
698.1015792790958
 20
99.79317122830403
 30
0.0
 10
698.4667067850885
 20
99.76640698405251
 30
0.0
 10
699.1217983423532
 20
99.75510242201451
 30
0.0
 10
699.86576588824
 20
99.7656733833196
 30
0.0
 10
700.4203702960083
 20
99.79495774529405
 30
0.0
 10
700.6976752754183
 20
99.80960007283531
 30
0.0
  0
LINE
  5
702
330
1F
100
AcDbEntity
  8
0
  6
Continuous
 62
     8
370
    15
100
AcDbLine
 10
750.159738513443
 20
201.2382634309276
 30
0.0
 11
750.1590102191896
 21
201.2382634309276
 31
0.0
  0
LINE
  5
703
330
1F
100
AcDbEntity
  8
0
  6
Continuous
 62
     8
370
    15
100
AcDbLine
 10
750.1590102191896
 20
191.8643825081332
 30
0.0
 11
750.1590102191896
 21
201.2382634309276
 31
0.0
  0
LINE
  5
704
330
1F
100
AcDbEntity
  8
0
  6
Continuous
 62
     8
370
    15
100
AcDbLine
 10
706.8566586103172
 20
201.2382634309276
 30
0.0
 11
702.9329016085596
 21
201.2382634309276
 31
0.0
  0
LINE
  5
705
330
1F
100
AcDbEntity
  8
0
  6
Continuous
 62
     7
370
    15
100
AcDbLine
 10
707.5463197406263
 20
217.359837177132
 30
0.0
 11
703.5463190849752
 21
217.359837177132
 31
0.0
  0
LINE
  5
706
330
1F
100
AcDbEntity
  8
0
  6
Continuous
 62
     7
370
    15
100
AcDbLine
 10
703.5463190849752
 20
225.3598384884342
 30
0.0
 11
707.5463197406263
 21
225.3598384884342
 31
0.0
  0
LINE
  5
707
330
1F
100
AcDbEntity
  8
0
  6
Continuous
 62
     7
370
    15
100
AcDbLine
 10
703.5463190849752
 20
217.359837177132
 30
0.0
 11
703.5463190849752
 21
225.3598384884342
 31
0.0
  0
LINE
  5
708
330
1F
100
AcDbEntity
  8
0
  6
Continuous
 62
     7
370
    15
100
AcDbLine
 10
707.5463197406263
 20
217.359837177132
 30
0.0
 11
718.5463196810217
 21
217.359837177132
 31
0.0
  0
LINE
  5
709
330
1F
100
AcDbEntity
  8
0
  6
Continuous
 62
     7
370
    15
100
AcDbLine
 10
718.5463196810217
 20
225.3598384884342
 30
0.0
 11
707.5463197406263
 21
225.3598384884342
 31
0.0
  0
LINE
  5
70A
330
1F
100
AcDbEntity
  8
0
  6
Continuous
 62
     7
370
    15
100
AcDbLine
 10
707.5463197406263
 20
225.3598384884342
 30
0.0
 11
707.5463197406263
 21
217.359837177132
 31
0.0
  0
LINE
  5
70B
330
1F
100
AcDbEntity
  8
0
  6
Continuous
 62
     7
370
    15
100
AcDbLine
 10
734.5463195096583
 20
217.359837177132
 30
0.0
 11
746.5463186826439
 21
217.359837177132
 31
0.0
  0
LINE
  5
70C
330
1F
100
AcDbEntity
  8
0
  6
Continuous
 62
     7
370
    15
100
AcDbLine
 10
734.5463195096583
 20
225.3598384884342
 30
0.0
 11
746.5463186826439
 21
225.3598384884342
 31
0.0
  0
LINE
  5
70D
330
1F
100
AcDbEntity
  8
0
  6
Continuous
 62
     7
370
    15
100
AcDbLine
 10
750.546319338295
 20
217.359837177132
 30
0.0
 11
746.5463186826439
 21
217.359837177132
 31
0.0
  0
LINE
  5
70E
330
1F
100
AcDbEntity
  8
0
  6
Continuous
 62
     7
370
    15
100
AcDbLine
 10
746.5463186826439
 20
225.3598384884342
 30
0.0
 11
750.546319338295
 21
225.3598384884342
 31
0.0
  0
LINE
  5
70F
330
1F
100
AcDbEntity
  8
0
  6
Continuous
 62
     7
370
    15
100
AcDbLine
 10
750.546319338295
 20
225.3598384884342
 30
0.0
 11
750.546319338295
 21
217.359837177132
 31
0.0
  0
LINE
  5
710
330
1F
100
AcDbEntity
  8
0
  6
Continuous
 62
     7
370
    15
100
AcDbLine
 10
746.5463186826439
 20
217.359837177132
 30
0.0
 11
746.5463186826439
 21
225.3598384884342
 31
0.0
  0
LINE
  5
711
330
1F
100
AcDbEntity
  8
0
  6
Continuous
 62
     7
370
    15
100
AcDbLine
 10
721.5463197070987
 20
217.359837177132
 30
0.0
 11
718.5463196810217
 21
217.359837177132
 31
0.0
  0
LINE
  5
712
330
1F
100
AcDbEntity
  8
0
  6
Continuous
 62
     7
370
    15
100
AcDbLine
 10
718.5463196810217
 20
225.3598384884342
 30
0.0
 11
721.5463197070987
 21
225.3598384884342
 31
0.0
  0
LINE
  5
713
330
1F
100
AcDbEntity
  8
0
  6
Continuous
 62
     7
370
    15
100
AcDbLine
 10
718.5463196810217
 20
217.359837177132
 30
0.0
 11
718.5463196810217
 21
225.3598384884342
 31
0.0
  0
LINE
  5
714
330
1F
100
AcDbEntity
  8
0
  6
Continuous
 62
     7
370
    15
100
AcDbLine
 10
734.5463195096583
 20
217.359837177132
 30
0.0
 11
731.5463194835813
 21
217.359837177132
 31
0.0
  0
LINE
  5
715
330
1F
100
AcDbEntity
  8
0
  6
Continuous
 62
     7
370
    15
100
AcDbLine
 10
731.5463194835813
 20
225.3598384884342
 30
0.0
 11
734.5463195096583
 21
225.3598384884342
 31
0.0
  0
LINE
  5
716
330
1F
100
AcDbEntity
  8
0
  6
Continuous
 62
     7
370
    15
100
AcDbLine
 10
734.5463195096583
 20
225.3598384884342
 30
0.0
 11
734.5463195096583
 21
217.359837177132
 31
0.0
  0
LINE
  5
717
330
1F
100
AcDbEntity
  8
0
  6
Continuous
 62
     7
370
    15
100
AcDbLine
 10
731.5463194835813
 20
217.359837177132
 30
0.0
 11
729.546319621417
 21
217.359837177132
 31
0.0
  0
LINE
  5
718
330
1F
100
AcDbEntity
  8
0
  6
Continuous
 62
     7
370
    15
100
AcDbLine
 10
729.546319621417
 20
225.3598384884342
 30
0.0
 11
731.5463194835813
 21
225.3598384884342
 31
0.0
  0
LINE
  5
719
330
1F
100
AcDbEntity
  8
0
  6
Continuous
 62
     7
370
    15
100
AcDbLine
 10
731.5463194835813
 20
225.3598384884342
 30
0.0
 11
731.5463194835813
 21
217.359837177132
 31
0.0
  0
LINE
  5
71A
330
1F
100
AcDbEntity
  8
0
  6
Continuous
 62
     7
370
    15
100
AcDbLine
 10
723.546319569263
 20
217.359837177132
 30
0.0
 11
729.546319621417
 21
217.359837177132
 31
0.0
  0
LINE
  5
71B
330
1F
100
AcDbEntity
  8
0
  6
Continuous
 62
     7
370
    15
100
AcDbLine
 10
723.546319569263
 20
225.3598384884342
 30
0.0
 11
729.546319621417
 21
225.3598384884342
 31
0.0
  0
LINE
  5
71C
330
1F
100
AcDbEntity
  8
0
  6
Continuous
 62
     7
370
    15
100
AcDbLine
 10
729.546319621417
 20
217.359837177132
 30
0.0
 11
729.546319621417
 21
225.3598384884342
 31
0.0
  0
LINE
  5
71D
330
1F
100
AcDbEntity
  8
0
  6
Continuous
 62
     7
370
    15
100
AcDbLine
 10
723.546319569263
 20
217.359837177132
 30
0.0
 11
721.5463197070987
 21
217.359837177132
 31
0.0
  0
LINE
  5
71E
330
1F
100
AcDbEntity
  8
0
  6
Continuous
 62
     7
370
    15
100
AcDbLine
 10
721.5463197070987
 20
225.3598384884342
 30
0.0
 11
723.546319569263
 21
225.3598384884342
 31
0.0
  0
LINE
  5
71F
330
1F
100
AcDbEntity
  8
0
  6
Continuous
 62
     7
370
    15
100
AcDbLine
 10
723.546319569263
 20
225.3598384884342
 30
0.0
 11
723.546319569263
 21
217.359837177132
 31
0.0
  0
LINE
  5
720
330
1F
100
AcDbEntity
  8
0
  6
Continuous
 62
     7
370
    15
100
AcDbLine
 10
721.5463197070987
 20
217.359837177132
 30
0.0
 11
721.5463197070987
 21
225.3598384884342
 31
0.0
  0
ARC
  5
721
330
1F
100
AcDbEntity
  8
0
  6
Continuous
 62
     7
370
    15
100
AcDbCircle
 10
757.546319582606
 20
98.00787075691275
 30
0.0
 40
2.000000000000014
100
AcDbArc
 50
95.0707055292028
 51
180.0
  0
ARC
  5
722
330
1F
100
AcDbEntity
  8
0
  6
Continuous
 62
     7
370
    15
100
AcDbCircle
 10
695.546319582606
 20
98.00787075691273
 30
0.0
 40
2.000000000000047
100
AcDbArc
 50
0.0000000000008142
 51
84.9292944707907
  0
ARC
  5
723
330
1F
100
AcDbEntity
  8
0
  6
Continuous
 62
     7
370
    15
100
AcDbCircle
 10
755.562649848945
 20
98.02481751252294
 30
0.0
 40
1.816760392900183
100
AcDbArc
 50
100.7659511166902
 51
186.5548167321612
  0
ARC
  5
724
330
1F
100
AcDbEntity
  8
0
  6
Continuous
 62
     7
370
    15
100
AcDbCircle
 10
697.5299870441016
 20
98.02481481987626
 30
0.0
 40
1.816763293375738
100
AcDbArc
 50
353.445279256058
 51
79.23402241463962
  0
ARC
  5
725
330
1F
100
AcDbEntity
  8
0
  6
Continuous
 62
     7
370
    15
100
AcDbCircle
 10
753.546319582606
 20
91.33826416212405
 30
0.0
 40
2.0
100
AcDbArc
 50
270.0
 51
0.0
  0
LINE
  5
726
330
1F
100
AcDbEntity
  8
0
  6
Continuous
 62
     7
370
    15
100
AcDbLine
 10
753.5463198300333
 20
89.33826352927528
 30
0.0
 11
745.5463203813763
 21
89.33826352927528
 31
0.0
  0
LINE
  5
727
330
1F
100
AcDbEntity
  8
0
  6
Continuous
 62
     7
370
    15
100
AcDbLine
 10
745.5463203813763
 20
91.33826385710083
 30
0.0
 11
745.5463203813763
 21
98.0078708705648
 31
0.0
  0
LINE
  5
728
330
1F
100
AcDbEntity
  8
0
  6
Continuous
 62
     7
370
    15
100
AcDbLine
 10
745.5463203813763
 20
91.33826385710083
 30
0.0
 11
755.5463201578588
 21
91.33826385710083
 31
0.0
  0
LINE
  5
729
330
1F
100
AcDbEntity
  8
0
  6
Continuous
 62
     7
370
    15
100
AcDbLine
 10
755.5463201578588
 20
98.0078708705648
 30
0.0
 11
755.5463201578588
 21
91.33826385710083
 31
0.0
  0
LWPOLYLINE
  5
72A
330
1F
100
AcDbEntity
  8
0
  6
Continuous
 62
     7
370
    15
100
AcDbPolyline
 90
        8
 70
   128
 43
0.0
 10
755.5463201578588
 20
98.0078708705648
 10
755.5086984511347
 20
98.00386525217138
 10
755.3961201783152
 20
97.99187726799093
 10
755.2094291176529
 20
97.97199911895834
 10
754.9500334288807
 20
97.94437888536297
 10
754.6198814388247
 20
97.90922518346153
 10
754.221459778759
 20
97.86680157754265
 10
753.7577654447288
 20
97.81742751124941
  0
SPLINE
  5
72B
330
1F
100
AcDbEntity
  8
0
  6
Continuous
 62
     7
370
    15
100
AcDbSpline
210
0.0
220
0.0
230
1.0
 70
     8
 71
     3
 72
    11
 73
     7
 74
     0
 42
0.000000001
 43
0.0000000001
 40
0.0
 40
0.0
 40
0.0
 40
0.0
 40
0.2455422495101243
 40
0.4910806221098503
 40
0.7455382169933111
 40
1.0
 40
1.0
 40
1.0
 40
1.0
 10
753.7577654447288
 20
97.81742751124941
 30
0.0
 10
753.5855496443623
 20
97.80213935281981
 30
0.0
 10
753.2411207627749
 20
97.771563277348
 30
0.0
 10
752.6405162371944
 20
97.75866747221437
 30
0.0
 10
751.9835211257348
 20
97.77017602530339
 30
0.0
 10
751.4968569506497
 20
97.80167692952245
 30
0.0
 10
751.2535228606195
 20
97.81742751124941
 30
0.0
  0
LINE
  5
72C
330
1F
100
AcDbEntity
  8
0
  6
Continuous
 62
     7
370
    15
100
AcDbLine
 10
697.5463199641438
 20
91.33826385710083
 30
0.0
 11
697.5463199641438
 21
98.0078708705648
 31
0.0
  0
LINE
  5
72D
330
1F
100
AcDbEntity
  8
0
  6
Continuous
 62
     7
370
    15
100
AcDbLine
 10
707.5463197406263
 20
98.0078708705648
 30
0.0
 11
707.5463197406263
 21
91.33826385710083
 31
0.0
  0
SPLINE
  5
72E
330
1F
100
AcDbEntity
  8
0
  6
Continuous
 62
     7
370
    15
100
AcDbSpline
210
0.0
220
0.0
230
1.0
 70
     8
 71
     3
 72
    11
 73
     7
 74
     0
 42
0.000000001
 43
0.0000000001
 40
0.0
 40
0.0
 40
0.0
 40
0.0
 40
0.2455426580046637
 40
0.4910806367686702
 40
0.7455382243227814
 40
1.0
 40
1.0
 40
1.0
 40
1.0
 10
701.8391172613831
 20
97.81742751124941
 30
0.0
 10
701.6041675379419
 20
97.80213935527896
 30
0.0
 10
701.1342725684337
 20
97.77156333468036
 30
0.0
 10
700.4821917539219
 20
97.75866745877024
 30
0.0
 10
699.8709959007794
 20
97.77017603021114
 30
0.0
 10
699.5135827322128
 20
97.80167693115835
 30
0.0
 10
699.3348746772737
 20
97.81742751124941
 30
0.0
  0
LWPOLYLINE
  5
72F
330
1F
100
AcDbEntity
  8
0
  6
Continuous
 62
     7
370
    15
100
AcDbPolyline
 90
        8
 70
   128
 43
0.0
 10
699.3348746772737
 20
97.81742751124941
 10
698.8711784805984
 20
97.86680157754265
 10
698.4727568205328
 20
97.90922518346153
 10
698.1426066931219
 20
97.94437888536297
 10
697.8832091417046
 20
97.97199911895834
 10
697.6965199436874
 20
97.99187726799093
 10
697.5839398082228
 20
98.00386525217138
 10
697.5463199641438
 20
98.0078708705648
  0
LINE
  5
730
330
1F
100
AcDbEntity
  8
0
  6
Continuous
 62
     7
370
    15
100
AcDbLine
 10
697.5463199641438
 20
91.33826385710083
 30
0.0
 11
707.5463197406263
 21
91.33826385710083
 31
0.0
  0
ARC
  5
731
330
1F
100
AcDbEntity
  8
0
  6
Continuous
 62
     7
370
    15
100
AcDbCircle
 10
699.5463195826061
 20
91.33826416212405
 30
0.0
 40
2.000000000000056
100
AcDbArc
 50
180.0
 51
270.0
  0
LINE
  5
732
330
1F
100
AcDbEntity
  8
0
  6
Continuous
 62
     7
370
    15
100
AcDbLine
 10
707.5463197406263
 20
89.33826352927528
 30
0.0
 11
699.5463202919693
 21
89.33826352927528
 31
0.0
  0
LINE
  5
733
330
1F
100
AcDbEntity
  8
0
  6
Continuous
 62
     7
370
    15
100
AcDbLine
 10
745.5463203813763
 20
89.33826352927528
 30
0.0
 11
745.5463203813763
 21
91.33826385710083
 31
0.0
  0
LINE
  5
734
330
1F
100
AcDbEntity
  8
0
  6
Continuous
 62
     7
370
    15
100
AcDbLine
 10
707.5463197406263
 20
91.33826385710083
 30
0.0
 11
745.5463203813763
 21
91.33826385710083
 31
0.0
  0
LINE
  5
735
330
1F
100
AcDbEntity
  8
0
  6
Continuous
 62
     7
370
    15
100
AcDbLine
 10
707.5463197406263
 20
89.33826352927528
 30
0.0
 11
707.5463197406263
 21
91.33826385710083
 31
0.0
  0
LINE
  5
736
330
1F
100
AcDbEntity
  8
0
  6
Continuous
 62
     7
370
    15
100
AcDbLine
 10
745.5463203813763
 20
89.33826352927528
 30
0.0
 11
707.5463197406263
 21
89.33826352927528
 31
0.0
  0
ARC
  5
737
330
1F
100
AcDbEntity
  8
0
  6
Continuous
 62
     7
370
    15
100
AcDbCircle
 10
753.1868792453076
 20
98.03277431063975
 30
0.0
 40
1.945312610924414
100
AcDbArc
 50
114.0221299229441
 51
186.355689611175
  0
ELLIPSE
  5
738
330
1F
100
AcDbEntity
  8
0
  6
Continuous
 62
     7
370
    15
100
AcDbEllipse
 10
745.546319582606
 20
96.94308329596161
 30
0.0
 11
10.0
 21
0.0
 31
0.0
210
0.0
220
0.0
230
1.0
 40
0.1064787460951123
 41
0.9634135526779694
 42
1.570796326794896
  0
LINE
  5
739
330
1F
100
AcDbEntity
  8
0
  6
Continuous
 62
     7
370
    15
100
AcDbLine
 10
745.5463203813763
 20
98.0078708705648
 30
0.0
 11
745.5463203813763
 21
100.0000434321507
 31
0.0
  0
LINE
  5
73A
330
1F
100
AcDbEntity
  8
0
  6
Continuous
 62
     7
370
    15
100
AcDbLine
 10
745.5463203813763
 20
98.0078708705648
 30
0.0
 11
707.5463197406263
 21
98.0078708705648
 31
0.0
  0
LINE
  5
73B
330
1F
100
AcDbEntity
  8
0
  6
Continuous
 62
     7
370
    15
100
AcDbLine
 10
707.5463197406263
 20
98.0078708705648
 30
0.0
 11
707.5463197406263
 21
100.0000434321507
 31
0.0
  0
ARC
  5
73C
330
1F
100
AcDbEntity
  8
0
  6
Continuous
 62
     7
370
    15
100
AcDbCircle
 10
699.905761566999
 20
98.0327739657322
 30
0.0
 40
1.945311886681848
100
AcDbArc
 50
353.6443182343155
 51
65.97794289264278
  0
ELLIPSE
  5
73D
330
1F
100
AcDbEntity
  8
0
  6
Continuous
 62
     7
370
    15
100
AcDbEllipse
 10
707.5463195826061
 20
96.94308329596161
 30
0.0
 11
10.0
 21
0.0
 31
0.0
210
0.0
220
0.0
230
1.0
 40
0.1064787460951123
 41
1.570796326794896
 42
2.178179100911819
  0
LINE
  5
73E
330
1F
100
AcDbEntity
  8
0
  6
Continuous
 62
     7
370
    15
100
AcDbLine
 10
693.1881419595213
 20
190.9725703624232
 30
0.0
 11
693.1879147168131
 21
190.9727268246158
 31
0.0
  0
LINE
  5
73F
330
1F
100
AcDbEntity
  8
0
  6
Continuous
 62
     7
370
    15
100
AcDbLine
 10
759.9044962998362
 20
190.9725703624232
 30
0.0
 11
759.9047235425444
 21
190.9727268246158
 31
0.0
  0
ARC
  5
740
330
1F
100
AcDbEntity
  8
0
  6
Continuous
 62
     7
370
    15
100
AcDbCircle
 10
693.450605089989
 20
187.9451998251194
 30
0.0
 40
2.999991217610646
100
AcDbArc
 50
94.1173500246462
 51
177.9999369241995
  0
SPLINE
  5
741
330
1F
100
AcDbEntity
  8
0
  6
Continuous
 62
     7
370
    15
100
AcDbSpline
210
0.0
220
0.0
230
1.0
 70
     8
 71
     3
 72
    13
 73
     9
 74
     0
 42
0.000000001
 43
0.0000000001
 40
0.0
 40
0.0
 40
0.0
 40
0.0
 40
0.2086490504948222
 40
0.417303240166226
 40
0.6264843292054201
 40
0.8356744291283655
 40
0.9999892267056377
 40
1.0
 40
1.0
 40
1.0
 40
1.0
 10
693.2352072771521
 20
190.9374483254893
 30
0.0
 10
693.2558989656995
 20
190.9380074237707
 30
0.0
 10
693.2972828524457
 20
190.9391256341044
 30
0.0
 10
693.606453019386
 20
190.9569956265632
 30
0.0
 10
694.0913394371756
 20
190.9897855387122
 30
0.0
 10
694.707986771093
 20
191.0170390343629
 30
0.0
 10
695.1759147082246
 20
191.0662618865524
 30
0.0
 10
695.4032032962463
 20
191.0662614134606
 30
0.0
 10
695.4032181974382
 20
191.0662614134296
 30
0.0
  0
ARC
  5
742
330
1F
100
AcDbEntity
  8
0
  6
Continuous
 62
     7
370
    15
100
AcDbCircle
 10
759.6420245222711
 20
187.9451879016922
 30
0.0
 40
3.000003998617569
100
AcDbArc
 50
2.000282410621066
 51
85.88243064052946
  0
SPLINE
  5
743
330
1F
100
AcDbEntity
  8
0
  6
Continuous
 62
     7
370
    15
100
AcDbSpline
210
0.0
220
0.0
230
1.0
 70
     8
 71
     3
 72
    13
 73
     9
 74
     0
 42
0.000000001
 43
0.0000000001
 40
0.0
 40
0.0
 40
0.0
 40
0.0
 40
0.0000105317453626
 40
0.16432534208376
 40
0.3735154582529665
 40
0.5826968365723668
 40
0.7913508751420063
 40
1.0
 40
1.0
 40
1.0
 40
1.0
 10
757.6894219245644
 20
191.0662614134296
 30
0.0
 10
757.6894362048628
 20
191.0662614134592
 30
0.0
 10
757.9122496926561
 20
191.0662618759442
 30
0.0
 10
758.3873213393453
 20
191.0170390250873
 30
0.0
 10
759.0005111567411
 20
190.989785514318
 30
0.0
 10
759.4864004484195
 20
190.9569956615343
 30
0.0
 10
759.7953007943212
 20
190.9391256223549
 30
0.0
 10
759.8367235656876
 20
190.9380074200556
 30
0.0
 10
759.8574347074957
 20
190.9374483254893
 30
0.0
  0
LINE
  5
744
330
1F
100
AcDbEntity
  8
0
  6
Continuous
 62
     7
370
    15
100
AcDbLine
 10
747.7387077387304
 20
191.7382665303691
 30
0.0
 11
757.6894219245644
 21
191.0662614134296
 31
0.0
  0
LINE
  5
745
330
1F
100
AcDbEntity
  8
0
  6
Continuous
 62
     7
370
    15
100
AcDbLine
 10
695.4032181974382
 20
191.0662614134296
 30
0.0
 11
705.353930520627
 21
191.7382665303691
 31
0.0
  0
LWPOLYLINE
  5
746
330
1F
100
AcDbEntity
  8
0
  6
Continuous
 62
     7
370
    15
100
AcDbPolyline
 90
        6
 70
   128
 43
0.0
 10
762.8569378729792
 20
100.4869519126757
 10
762.8187909003229
 20
100.4835674864395
 10
762.7047634895773
 20
100.4734495979889
 10
762.5161073382826
 20
100.4567090747102
 10
762.2548750813932
 20
100.4335293871506
 10
761.9239277418585
 20
100.4041638550504
  0
ARC
  5
747
330
1F
100
AcDbEntity
  8
0
  6
Continuous
 62
     7
370
    15
100
AcDbCircle
 10
762.5917839035987
 20
103.4752113073098
 30
0.0
 40
3.00000000000001
100
AcDbArc
 50
275.0707055292093
 51
1.99999999999925
  0
LWPOLYLINE
  5
748
330
1F
100
AcDbEntity
  8
0
  6
Continuous
 62
     7
370
    15
100
AcDbPolyline
 90
        6
 70
   128
 43
0.0
 10
691.168710517499
 20
100.4041638550504
 10
690.8377631779642
 20
100.4335293871506
 10
690.5765346463652
 20
100.4567090747102
 10
690.3878747697802
 20
100.4734495979889
 10
690.2738473590345
 20
100.4835674864395
 10
690.2357003863783
 20
100.4869519126757
  0
ARC
  5
749
330
1F
100
AcDbEntity
  8
0
  6
Continuous
 62
     7
370
    15
100
AcDbCircle
 10
690.5008552616134
 20
103.4752113073098
 30
0.0
 40
2.999999999999992
100
AcDbArc
 50
178.0000000000008
 51
264.9292944707907
  0
LINE
  5
74A
330
1F
100
AcDbEntity
  8
0
  6
Continuous
 62
     7
370
    15
100
AcDbLine
 10
755.1644872154922
 20
99.8059353185042
 30
0.0
 11
755.2232834722729
 21
99.80960007283531
 31
0.0
  0
LINE
  5
74B
330
1F
100
AcDbEntity
  8
0
  6
Continuous
 62
     7
370
    15
100
AcDbLine
 10
761.9239277418585
 20
100.4041638550504
 30
0.0
 11
755.2232834722729
 21
99.80960007283531
 31
0.0
  0
LINE
  5
74C
330
1F
100
AcDbEntity
  8
0
  6
Continuous
 62
     7
370
    15
100
AcDbLine
 10
697.8693547870846
 20
99.80960007283531
 30
0.0
 11
691.168710517499
 21
100.4041638550504
 31
0.0
  0
LINE
  5
74D
330
1F
100
AcDbEntity
  8
0
  6
Continuous
 62
     7
370
    15
100
AcDbLine
 10
697.8693547870846
 20
99.80960007283531
 30
0.0
 11
697.9286539580555
 21
99.80584684285961
 31
0.0
  0
SPLINE
  5
74E
330
1F
100
AcDbEntity
  8
0
  6
Continuous
 62
     7
370
    15
100
AcDbSpline
210
0.0
220
0.0
230
1.0
 70
     8
 71
     3
 72
    10
 73
     6
 74
     0
 42
0.000000001
 43
0.0000000001
 40
0.0
 40
0.0
 40
0.0
 40
0.0
 40
0.3181561193972249
 40
0.6363140363838116
 40
1.0
 40
1.0
 40
1.0
 40
1.0
 10
700.4388383801908
 20
190.9374483254893
 30
0.0
 10
705.976320946522
 20
190.9505800977063
 30
0.0
 10
717.0513173660877
 20
190.9768437163349
 30
0.0
 10
734.4564277255981
 20
190.9807173425951
 30
0.0
 10
746.3238729110239
 20
190.9524993871763
 30
0.0
 10
752.6538017418118
 20
190.9374483254893
 30
0.0
  0
LINE
  5
74F
330
1F
100
AcDbEntity
  8
0
  6
Continuous
 62
     7
370
    15
100
AcDbLine
 10
693.9970291431875
 20
100.4041638550504
 30
0.0
 11
700.6976752754183
 21
99.80960007283531
 31
0.0
  0
ELLIPSE
  5
750
330
1F
100
AcDbEntity
  8
0
  6
Continuous
 62
     7
370
    15
100
AcDbEllipse
 10
707.5463195826061
 20
98.93525606703725
 30
0.0
 11
12.0
 21
0.0
 31
0.0
210
0.0
220
0.0
230
1.0
 40
0.088732288412596
 41
1.570796326794896
 42
2.178179100911861
  0
LINE
  5
751
330
1F
100
AcDbEntity
  8
0
  6
Continuous
 62
     7
370
    15
100
AcDbLine
 10
707.5463197406263
 20
100.0000434321507
 30
0.0
 11
745.5463203813763
 21
100.0000434321507
 31
0.0
  0
ELLIPSE
  5
752
330
1F
100
AcDbEntity
  8
0
  6
Continuous
 62
     7
370
    15
100
AcDbEllipse
 10
745.546319582606
 20
98.93525606703725
 30
0.0
 11
12.0
 21
0.0
 31
0.0
210
0.0
220
0.0
230
1.0
 40
0.088732288412596
 41
0.9634135526779278
 42
1.570796326794896
  0
LINE
  5
753
330
1F
100
AcDbEntity
  8
0
  6
Continuous
 62
     7
370
    15
100
AcDbLine
 10
752.3949629839392
 20
99.80960007283531
 30
0.0
 11
759.0956091161699
 21
100.4041638550504
 31
0.0
  0
LWPOLYLINE
  5
754
330
1F
100
AcDbEntity
  8
0
  6
Continuous
 62
     7
370
    15
100
AcDbPolyline
 90
       10
 70
   128
 43
0.0
 10
752.6538017418118
 20
190.9374483254893
 10
752.6535707738132
 20
190.8630617288097
 10
752.6531498160095
 20
190.7116286781772
 10
752.6525463189812
 20
190.4871575859531
 10
752.6517789091797
 20
190.1955716637118
 10
752.6508662130566
 20
189.8445748117908
 10
752.6498324449987
 20
189.4434206512912
 10
752.6487055446835
 20
189.0027113584025
 10
752.6475134517879
 20
188.5340772894366
 10
752.6462915565701
 20
188.0499013093455
  0
SPLINE
  5
755
330
1F
100
AcDbEntity
  8
0
  6
Continuous
 62
     7
370
    15
100
AcDbSpline
210
0.0
220
0.0
230
1.0
 70
     8
 71
     3
 72
    17
 73
    13
 74
     0
 42
0.000000001
 43
0.0000000001
 40
0.0
 40
0.0
 40
0.0
 40
0.0
 40
0.1143859332009499
 40
0.2287718419677018
 40
0.3431553032563589
 40
0.4575389761068911
 40
0.5719713359021104
 40
0.6864046823704203
 40
0.8008857102325874
 40
0.915367077022638
 40
0.9897530178027389
 40
1.0
 40
1.0
 40
1.0
 40
1.0
 10
757.6894219245644
 20
191.0662614134296
 30
0.0
 10
757.8082714007734
 20
191.0498156972688
 30
0.0
 10
758.0459703278036
 20
191.0169242684603
 30
0.0
 10
758.3889992695678
 20
190.8623526779431
 30
0.0
 10
758.7090372899713
 20
190.6330984917613
 30
0.0
 10
758.997903000661
 20
190.3308969429181
 30
0.0
 10
759.246015968667
 20
189.963584105613
 30
0.0
 10
759.4480731827702
 20
189.5433510534674
 30
0.0
 10
759.5963699519638
 20
189.0803782987235
 30
0.0
 10
759.6777413264801
 20
188.6463909243175
 30
0.0
 10
759.7026650493731
 20
188.3545492159313
 30
0.0
 10
759.7074456726487
 20
188.23006346196
 30
0.0
 10
759.7080244894953
 20
188.2149912742122
 30
0.0
  0
SPLINE
  5
756
330
1F
100
AcDbEntity
  8
0
  6
Continuous
 62
     7
370
    15
100
AcDbSpline
210
0.0
220
0.0
230
1.0
 70
     8
 71
     3
 72
    13
 73
     9
 74
     0
 42
0.000000001
 43
0.0000000001
 40
0.0
 40
0.0
 40
0.0
 40
0.0
 40
0.2086487320930589
 40
0.4173032530914887
 40
0.6264840520645976
 40
0.8356744375851656
 40
0.9999890004034508
 40
1.0
 40
1.0
 40
1.0
 40
1.0
 10
752.6538017418118
 20
190.9374483254893
 30
0.0
 10
753.0456494331838
 20
190.9380074324079
 30
0.0
 10
753.8293556876413
 20
190.9391256617573
 30
0.0
 10
754.9722638129203
 20
190.9569955691186
 30
0.0
 10
756.0480052107088
 20
190.9897856138733
 30
0.0
 10
756.959559606641
 20
191.0170389457754
 30
0.0
 10
757.4760714973751
 20
191.0662618965998
 30
0.0
 10
757.6894076443056
 20
191.0662614134619
 30
0.0
 10
757.6894219245644
 20
191.0662614134296
 30
0.0
  0
SPLINE
  5
757
330
1F
100
AcDbEntity
  8
0
  6
Continuous
 62
     7
370
    15
100
AcDbSpline
210
0.0
220
0.0
230
1.0
 70
     8
 71
     3
 72
    17
 73
    13
 74
     0
 42
0.000000001
 43
0.0000000001
 40
0.0
 40
0.0
 40
0.0
 40
0.0
 40
0.1143862096903483
 40
0.228772099528853
 40
0.3431550104641567
 40
0.4575391433939501
 40
0.5719710720802848
 40
0.6864047342632606
 40
0.8008857431814405
 40
0.9153670910274477
 40
0.9897530194983797
 40
1.0
 40
1.0
 40
1.0
 40
1.0
 10
695.4032181974382
 20
191.0662614134296
 30
0.0
 10
695.2843681109535
 20
191.0498156848083
 30
0.0
 10
695.0466682703179
 20
191.0169242735519
 30
0.0
 10
694.7036384112258
 20
190.8623535113413
 30
0.0
 10
694.3836058917102
 20
190.6330966915893
 30
0.0
 10
694.0947334694474
 20
190.3308989737466
 30
0.0
 10
693.8466280154329
 20
189.963582177721
 30
0.0
 10
693.6445637321805
 20
189.5433521010047
 30
0.0
 10
693.4962687133661
 20
189.0803781361208
 30
0.0
 10
693.4148968613015
 20
188.6463909529855
 30
0.0
 10
693.3899732114483
 20
188.3545492153451
 30
0.0
 10
693.3851925868668
 20
188.2300634618967
 30
0.0
 10
693.3846137698622
 20
188.2149912742122
 30
0.0
  0
LWPOLYLINE
  5
758
330
1F
100
AcDbEntity
  8
0
  6
Continuous
 62
     7
370
    15
100
AcDbPolyline
 90
       10
 70
   128
 43
0.0
 10
700.4388383801908
 20
190.9374483254893
 10
700.4390674855442
 20
190.8630617288097
 10
700.4394884433479
 20
190.7116286781772
 10
700.4400919403763
 20
190.4871575859531
 10
700.4408593501778
 20
190.1955716637118
 10
700.441773908946
 20
189.8445748117908
 10
700.4428058143587
 20
189.4434206512912
 10
700.4439345773191
 20
189.0027113584025
 10
700.4451248075695
 20
188.5340772894366
 10
700.4463485654325
 20
188.0499013093455
  0
SPLINE
  5
759
330
1F
100
AcDbEntity
  8
0
  6
Continuous
 62
     7
370
    15
100
AcDbSpline
210
0.0
220
0.0
230
1.0
 70
     8
 71
     3
 72
    13
 73
     9
 74
     0
 42
0.000000001
 43
0.0000000001
 40
0.0
 40
0.0
 40
0.0
 40
0.0
 40
0.0000107732940308
 40
0.1643253222256499
 40
0.3735156900669749
 40
0.5826967726711788
 40
0.7913509559238011
 40
1.0
 40
1.0
 40
1.0
 40
1.0
 10
695.4032181974382
 20
191.0662614134296
 30
0.0
 10
695.403231856804
 20
191.0662614134606
 30
0.0
 10
695.6115785017982
 20
191.0662618866693
 30
0.0
 10
696.1360551069435
 20
191.0170389378232
 30
0.0
 10
697.0437566303663
 20
190.9897855855259
 30
0.0
 10
698.1206085154692
 20
190.95699561793
 30
0.0
 10
699.2632254732248
 20
190.9391256362604
 30
0.0
 10
700.0469706285307
 20
190.9380074244893
 30
0.0
 10
700.4388383801908
 20
190.9374483254893
 30
0.0
  0
SPLINE
  5
75A
330
1F
100
AcDbEntity
  8
0
  6
Continuous
 62
     7
370
    15
100
AcDbSpline
210
0.0
220
0.0
230
1.0
 70
     8
 71
     3
 72
    11
 73
     7
 74
     0
 42
0.000000001
 43
0.0000000001
 40
0.0
 40
0.0
 40
0.0
 40
0.0
 40
0.2481530880718062
 40
0.5000758528692652
 40
0.7481596496486752
 40
1.0
 40
1.0
 40
1.0
 40
1.0
 10
759.0956091161699
 20
100.4041638550504
 30
0.0
 10
759.3753067383711
 20
100.3907936768745
 30
0.0
 10
759.9389508503768
 20
100.3638502150531
 30
0.0
 10
760.6893205188717
 20
100.3530507083321
 30
0.0
 10
761.3695056633599
 20
100.3637392778514
 30
0.0
 10
761.7381969033323
 20
100.3906216623575
 30
0.0
 10
761.9239277418585
 20
100.4041638550504
 30
0.0
  0
ARC
  5
75B
330
1F
100
AcDbEntity
  8
0
  6
Continuous
 62
     7
370
    15
100
AcDbCircle
 10
761.4696455149921
 20
103.1752269449012
 30
0.0
 40
2.80805323838066
100
AcDbArc
 50
279.3101332563435
 51
7.368343761332349
  0
ARC
  5
75C
330
1F
100
AcDbEntity
  8
0
  6
Continuous
 62
     7
370
    15
100
AcDbCircle
 10
691.6229927443654
 20
103.1752269449012
 30
0.0
 40
2.808053238380716
100
AcDbArc
 50
172.6316562386676
 51
260.6898667436565
  0
SPLINE
  5
75D
330
1F
100
AcDbEntity
  8
0
  6
Continuous
 62
     7
370
    15
100
AcDbSpline
210
0.0
220
0.0
230
1.0
 70
     8
 71
     3
 72
    11
 73
     7
 74
     0
 42
0.000000001
 43
0.0000000001
 40
0.0
 40
0.0
 40
0.0
 40
0.0
 40
0.2481531096695546
 40
0.5000765869470091
 40
0.7481591028939105
 40
1.0
 40
1.0
 40
1.0
 40
1.0
 10
691.168710517499
 20
100.4041638550504
 30
0.0
 10
691.3515869869899
 20
100.3907936791177
 30
0.0
 10
691.7201184989171
 20
100.3638501846107
 30
0.0
 10
692.3964432334559
 20
100.3530506933486
 30
0.0
 10
693.1499120908043
 20
100.3637393827895
 30
0.0
 10
693.7132450960559
 20
100.3906216647367
 30
0.0
 10
693.9970291431875
 20
100.4041638550504
 30
0.0
  0
SPLINE
  5
75E
330
1F
100
AcDbEntity
  8
0
  6
Continuous
 62
     7
370
    15
100
AcDbSpline
210
0.0
220
0.0
230
1.0
 70
     8
 71
     3
 72
    11
 73
     7
 74
     0
 42
0.000000001
 43
0.0000000001
 40
0.0
 40
0.0
 40
0.0
 40
0.0
 40
0.2477663310259124
 40
0.4999241878626346
 40
0.7477600827334335
 40
1.0
 40
1.0
 40
1.0
 40
1.0
 10
692.4997939940424
 20
103.5353532386168
 30
0.0
 10
692.1327772845054
 20
103.5250915981062
 30
0.0
 10
691.3922386903889
 20
103.5043864349909
 30
0.0
 10
690.4142917038885
 20
103.495917927481
 30
0.0
 10
689.5363783769551
 20
103.5042667471178
 30
0.0
 10
689.0722405869355
 20
103.5249304151435
 30
0.0
 10
688.8381279285879
 20
103.5353532386168
 30
0.0
  0
SPLINE
  5
75F
330
1F
100
AcDbEntity
  8
0
  6
Continuous
 62
     7
370
    15
100
AcDbSpline
210
0.0
220
0.0
230
1.0
 70
     8
 71
     3
 72
    14
 73
    10
 74
     0
 42
0.000000001
 43
0.0000000001
 40
0.0
 40
0.0
 40
0.0
 40
0.0
 40
0.2106304713842152
 40
0.319080881663226
 40
0.4275312259390801
 40
0.638168303220136
 40
0.7466208396063744
 40
0.8550737018842649
 40
1.0
 40
1.0
 40
1.0
 40
1.0
 10
700.4463485654325
 20
188.0499013093455
 30
0.0
 10
699.8949147531568
 20
188.0557047652614
 30
0.0
 10
699.0595560994749
 20
188.0644963319239
 30
0.0
 10
697.965005463162
 20
188.0831997281864
 30
0.0
 10
696.8943030220348
 20
188.1046503692271
 30
0.0
 10
695.8676656206762
 20
188.1303214402154
 30
0.0
 10
694.9124245433256
 20
188.1590784372971
 30
0.0
 10
694.1438008531177
 20
188.1848323750766
 30
0.0
 10
693.6608494357385
 20
188.2040177424326
 30
0.0
 10
693.3846137698622
 20
188.2149912742122
 30
0.0
  0
SPLINE
  5
760
330
1F
100
AcDbEntity
  8
0
  6
Continuous
 62
     7
370
    15
100
AcDbSpline
210
0.0
220
0.0
230
1.0
 70
     8
 71
     3
 72
    14
 73
    10
 74
     0
 42
0.000000001
 43
0.0000000001
 40
0.0
 40
0.0
 40
0.0
 40
0.0
 40
0.1449262720546705
 40
0.3555646245588373
 40
0.4640169108138226
 40
0.5724691411149923
 40
0.7830986403999857
 40
0.8915492882607589
 40
1.0
 40
1.0
 40
1.0
 40
1.0
 10
693.3846137698622
 20
188.2149912742122
 30
0.0
 10
693.1253175691472
 20
188.2040261568761
 30
0.0
 10
692.4891557818487
 20
188.1771241481955
 30
0.0
 10
691.8179377588203
 20
188.1447755199503
 30
0.0
 10
691.3159904253212
 20
188.1180244460148
 30
0.0
 10
690.9015464816195
 20
188.0937215966172
 30
0.0
 10
690.6215244681602
 20
188.0735648578411
 30
0.0
 10
690.4738298142149
 20
188.0581393167735
 30
0.0
 10
690.4595709402935
 20
188.0526473123607
 30
0.0
 10
690.4524415012331
 20
188.0499013093455
 30
0.0
  0
LINE
  5
761
330
1F
100
AcDbEntity
  8
0
  6
Continuous
 62
     7
370
    15
100
AcDbLine
 10
687.502682137105
 20
103.5799095732315
 30
0.0
 11
690.4524415012331
 21
188.0499013093455
 31
0.0
  0
ELLIPSE
  5
762
330
1F
100
AcDbEntity
  8
0
  6
Continuous
 62
     7
370
    15
100
AcDbEllipse
 10
697.4834856945112
 20
102.8556265298593
 30
0.0
 11
9.98080071253338
 21
-0.724324246622075
 31
0.0
210
0.0
220
0.0
230
0.9999999999999998
 40
0.0104487431193677
 41
2.619098589460562
 42
3.141985064598088
  0
LINE
  5
763
330
1F
100
AcDbEntity
  8
0
  6
Continuous
 62
     7
370
    15
100
AcDbLine
 10
700.4463485654325
 20
188.0499013093455
 30
0.0
 11
697.4965910639496
 21
103.5799095732315
 31
0.0
  0
SPLINE
  5
764
330
1F
100
AcDbEntity
  8
0
  6
Continuous
 62
     7
370
    15
100
AcDbSpline
210
0.0
220
0.0
230
1.0
 70
     8
 71
     3
 72
     9
 73
     5
 74
     0
 42
0.000000001
 43
0.0000000001
 40
0.0
 40
0.0
 40
0.0
 40
0.0
 40
0.3637159450775051
 40
1.0
 40
1.0
 40
1.0
 40
1.0
 10
752.6462915565701
 20
188.0499013093455
 30
0.0
 10
746.3176489271315
 20
188.0672188465517
 30
0.0
 10
728.9176896592201
 20
188.1148316538552
 30
0.0
 10
711.5176905526247
 20
188.0751500690385
 30
0.0
 10
700.4463485654325
 20
188.0499013093455
 30
0.0
  0
SPLINE
  5
765
330
1F
100
AcDbEntity
  8
0
  6
Continuous
 62
     7
370
    15
100
AcDbSpline
210
0.0
220
0.0
230
1.0
 70
     8
 71
     3
 72
    11
 73
     7
 74
     0
 42
0.000000001
 43
0.0000000001
 40
0.0
 40
0.0
 40
0.0
 40
0.0
 40
0.2477659184987654
 40
0.4999242251047157
 40
0.7477601015184641
 40
0.9999999999999998
 40
0.9999999999999998
 40
0.9999999999999998
 40
0.9999999999999998
 10
764.2545103307695
 20
103.5353532386168
 30
0.0
 10
764.0247867953402
 20
103.525091596492
 30
0.0
 10
763.5612671912973
 20
103.5043863941033
 30
0.0
 10
762.6895811649358
 20
103.4959179360392
 30
0.0
 10
761.7069085712857
 20
103.5042667436321
 30
0.0
 10
760.9663729280619
 20
103.5249304139747
 30
0.0
 10
760.5928442653151
 20
103.5353532386168
 30
0.0
  0
ELLIPSE
  5
766
330
1F
100
AcDbEntity
  8
0
  6
Continuous
 62
     7
370
    15
100
AcDbEllipse
 10
755.6091534707008
 20
102.8556265298593
 30
0.0
 11
9.980800712533323
 21
0.7243242466221033
 31
0.0
210
0.0
220
0.0
230
1.0
 40
0.0104487431193677
 41
6.282792896173678
 42
6.805679371308054
  0
LINE
  5
767
330
1F
100
AcDbEntity
  8
0
  6
Continuous
 62
     7
370
    15
100
AcDbLine
 10
762.6402004834146
 20
188.0499013093455
 30
0.0
 11
765.5899561222525
 21
103.5799095732315
 31
0.0
  0
SPLINE
  5
768
330
1F
100
AcDbEntity
  8
0
  6
Continuous
 62
     7
370
    15
100
AcDbSpline
210
0.0
220
0.0
230
1.0
 70
     8
 71
     3
 72
    14
 73
    10
 74
     0
 42
0.000000001
 43
0.0000000001
 40
0.0
 40
0.0
 40
0.0
 40
0.0
 40
0.210630207071677
 40
0.3190807015007783
 40
0.427531031528022
 40
0.6381681045711107
 40
0.7466208728962731
 40
0.8550737209252224
 40
1.0
 40
1.0
 40
1.0
 40
1.0
 10
762.6402004834146
 20
188.0499013093455
 30
0.0
 10
762.6147796925572
 20
188.0557047725218
 30
0.0
 10
762.5762700984575
 20
188.0644963562511
 30
0.0
 10
762.3373461561868
 20
188.083199720021
 30
0.0
 10
762.015144889835
 20
188.1046503674305
 30
0.0
 10
761.557213294755
 20
188.130321490362
 30
0.0
 10
760.9761742592233
 20
188.1590784039106
 30
0.0
 10
760.4218864573899
 20
188.1848323806306
 30
0.0
 10
759.9677682870313
 20
188.2040177444534
 30
0.0
 10
759.7080244894953
 20
188.2149912742122
 30
0.0
  0
SPLINE
  5
769
330
1F
100
AcDbEntity
  8
0
  6
Continuous
 62
     7
370
    15
100
AcDbSpline
210
0.0
220
0.0
230
1.0
 70
     8
 71
     3
 72
    14
 73
    10
 74
     0
 42
0.000000001
 43
0.0000000001
 40
0.0
 40
0.0
 40
0.0
 40
0.0
 40
0.1449263121192969
 40
0.3555647228540853
 40
0.4640168268317357
 40
0.5724690871143439
 40
0.7830987552886258
 40
0.8915492582797403
 40
1.0
 40
1.0
 40
1.0
 40
1.0
 10
759.7080244894953
 20
188.2149912742122
 30
0.0
 10
759.4314761402269
 20
188.2040261551948
 30
0.0
 10
758.7529876330299
 20
188.1771241423894
 30
0.0
 10
757.7328285441089
 20
188.1447755631791
 30
0.0
 10
756.7337247904756
 20
188.1180244214343
 30
0.0
 10
755.6943997909804
 20
188.0937215929986
 30
0.0
 10
754.6067632980427
 20
188.0735648849807
 30
0.0
 10
753.4971731457808
 20
188.0581393055976
 30
0.0
 10
752.929918961087
 20
188.0526473101111
 30
0.0
 10
752.6462915565701
 20
188.0499013093455
 30
0.0
  0
LINE
  5
76A
330
1F
100
AcDbEntity
  8
0
  6
Continuous
 62
     7
370
    15
100
AcDbLine
 10
755.5960471954079
 20
103.5799095732315
 30
0.0
 11
752.6462915565701
 21
188.0499013093455
 31
0.0
  0
ELLIPSE
  5
76B
330
1F
100
AcDbEntity
  8
0
  6
Continuous
 62
     7
370
    15
100
AcDbEllipse
 10
697.4834856945112
 20
102.8556265298593
 30
0.0
 11
10.00244206060364
 21
-0.1041682935248787
 31
0.0
210
0.0
220
0.0
230
1.0
 40
0.0724164456988694
 41
1.570240276574025
 42
2.093126751709778
  0
ARC
  5
76C
330
1F
100
AcDbEntity
  8
0
  6
Continuous
 62
     7
370
    15
100
AcDbCircle
 10
695.5449501088906
 20
103.0678902158771
 30
0.0
 40
3.080827395591307
100
AcDbArc
 50
171.2726332023409
 51
239.8386532166493
  0
ELLIPSE
  5
76D
330
1F
100
AcDbEntity
  8
0
  6
Continuous
 62
     7
370
    15
100
AcDbEllipse
 10
697.4834856945112
 20
99.86736737324589
 30
0.0
 11
7.004273874450802
 21
0.001168417590776
 31
0.0
210
0.0
220
0.0
230
1.0
 40
0.0884579453702153
 41
1.568910518224702
 42
2.091796993360435
  0
LINE
  5
76E
330
1F
100
AcDbEntity
  8
0
  6
Continuous
 62
     7
370
    15
100
AcDbLine
 10
697.4965910639496
 20
103.5799095732315
 30
0.0
 11
697.4965910639496
 21
100.4869519126757
 31
0.0
  0
LINE
  5
76F
330
1F
100
AcDbEntity
  8
0
  6
Continuous
 62
     7
370
    15
100
AcDbLine
 10
755.5960471954079
 20
100.4869519126757
 30
0.0
 11
697.4965910639496
 21
100.4869519126757
 31
0.0
  0
LINE
  5
770
330
1F
100
AcDbEntity
  8
0
  6
Continuous
 62
     7
370
    15
100
AcDbLine
 10
697.4965910639496
 20
103.5799095732315
 30
0.0
 11
755.5960471954079
 21
103.5799095732315
 31
0.0
  0
ELLIPSE
  5
771
330
1F
100
AcDbEntity
  8
0
  6
Continuous
 62
     7
370
    15
100
AcDbEllipse
 10
755.6091534707008
 20
99.86736737324589
 30
0.0
 11
7.004273874450802
 21
-0.0011684175907192
 31
0.0
210
0.0
220
0.0
230
1.0
 40
0.0884579453702153
 41
1.049795660229334
 42
1.57268213536509
  0
ARC
  5
772
330
1F
100
AcDbEntity
  8
0
  6
Continuous
 62
     7
370
    15
100
AcDbCircle
 10
757.5476939105449
 20
103.0678874615911
 30
0.0
 40
3.08082212012439
100
AcDbArc
 50
300.161279899282
 51
8.727433681729499
  0
ELLIPSE
  5
773
330
1F
100
AcDbEntity
  8
0
  6
Continuous
 62
     7
370
    15
100
AcDbEllipse
 10
755.6091534707008
 20
102.8556265298593
 30
0.0
 11
10.0024420606037
 21
0.1041682935248787
 31
0.0
210
0.0
220
0.0
230
1.0
 40
0.072416445698869
 41
1.04846590188003
 42
1.571352377015767
  0
LINE
  5
774
330
1F
100
AcDbEntity
  8
0
  6
Continuous
 62
     7
370
    15
100
AcDbLine
 10
755.5960471954079
 20
103.5799095732315
 30
0.0
 11
755.5960471954079
 21
100.4869519126757
 31
0.0
  0
LINE
  5
775
330
1F
100
AcDbEntity
  8
0
  6
Continuous
 62
     7
370
    15
100
AcDbLine
 10
748.9252704407902
 20
201.7382644442066
 30
0.0
 11
749.6591023381681
 21
201.7382644442066
 31
0.0
  0
ARC
  5
776
330
1F
100
AcDbEntity
  8
0
  6
Continuous
 62
     7
370
    15
100
AcDbCircle
 10
749.6590609089895
 20
201.2383151330496
 30
0.0
 40
0.4999493128735598
100
AcDbArc
 50
359.9940747725639
 51
89.99525208450455
  0
LINE
  5
777
330
1F
100
AcDbEntity
  8
0
  6
Continuous
 62
     7
370
    15
100
AcDbLine
 10
749.5060934897394
 20
191.7382665303691
 30
0.0
 11
749.4251801844568
 21
191.7382665303691
 31
0.0
  0
LINE
  5
778
330
1F
100
AcDbEntity
  8
0
  6
Continuous
 62
     7
370
    15
100
AcDbLine
 10
750.1590102191896
 20
201.2382634309276
 30
0.0
 11
749.4251801844568
 21
201.2382634309276
 31
0.0
  0
LINE
  5
779
330
1F
100
AcDbEntity
  8
0
  6
Continuous
 62
     7
370
    15
100
AcDbLine
 10
706.8566586103172
 20
191.7382665303691
 30
0.0
 11
702.9329016085596
 21
191.7382665303691
 31
0.0
  0
LINE
  5
77A
330
1F
100
AcDbEntity
  8
0
  6
Continuous
 62
     7
370
    15
100
AcDbLine
 10
703.4329007591934
 20
201.7382644442066
 30
0.0
 11
706.8661897655458
 21
201.7382644442066
 31
0.0
  0
LINE
  5
77B
330
1F
100
AcDbEntity
  8
0
  6
Continuous
 62
     7
370
    15
100
AcDbLine
 10
706.8661897655458
 20
201.7382644442066
 30
0.0
 11
745.3591953243942
 21
201.7382644442066
 31
0.0
  0
ARC
  5
77C
330
1F
100
AcDbEntity
  8
0
  6
Continuous
 62
     7
370
    15
100
AcDbCircle
 10
713.4226203985202
 20
201.3631926318943
 30
0.0
 40
6.567150181729837
100
AcDbArc
 50
176.7258656160666
 51
181.0900234580806
  0
LINE
  5
77D
330
1F
100
AcDbEntity
  8
0
  6
Continuous
 62
     7
370
    15
100
AcDbLine
 10
711.1009116496773
 20
191.7382665303691
 30
0.0
 11
706.8566586103172
 21
191.7382665303691
 31
0.0
  0
LINE
  5
77E
330
1F
100
AcDbEntity
  8
0
  6
Continuous
 62
     7
370
    15
100
AcDbLine
 10
745.3496641691656
 20
191.7382665303691
 30
0.0
 11
739.7501533131928
 21
191.7382665303691
 31
0.0
  0
LINE
  5
77F
330
1F
100
AcDbEntity
  8
0
  6
Continuous
 62
     7
370
    15
100
AcDbLine
 10
706.8566586103172
 20
201.2382634309276
 30
0.0
 11
706.8566586103172
 21
191.7382665303691
 31
0.0
  0
LINE
  5
780
330
1F
100
AcDbEntity
  8
0
  6
Continuous
 62
     7
370
    15
100
AcDbLine
 10
745.3496641691656
 20
201.2382634309276
 30
0.0
 11
706.8566586103172
 21
201.2382634309276
 31
0.0
  0
ARC
  5
781
330
1F
100
AcDbEntity
  8
0
  6
Continuous
 62
     7
370
    15
100
AcDbCircle
 10
748.9252290031538
 20
201.2383132621374
 30
0.0
 40
0.4999511837864528
100
AcDbArc
 50
359.9942892064141
 51
89.99525113299169
  0
LINE
  5
782
330
1F
100
AcDbEntity
  8
0
  6
Continuous
 62
     7
370
    15
100
AcDbLine
 10
745.3591953243942
 20
201.7382644442066
 30
0.0
 11
748.9252704407902
 21
201.7382644442066
 31
0.0
  0
ARC
  5
783
330
1F
100
AcDbEntity
  8
0
  6
Continuous
 62
     7
370
    15
100
AcDbCircle
 10
751.9156259573685
 20
201.3631926318943
 30
0.0
 40
6.567150181729837
100
AcDbArc
 50
176.7258656160666
 51
181.0900234580806
  0
LINE
  5
784
330
1F
100
AcDbEntity
  8
0
  6
Continuous
 62
     7
370
    15
100
AcDbLine
 10
745.3496641691656
 20
191.7382665303691
 30
0.0
 11
745.3496641691656
 21
201.2382634309276
 31
0.0
  0
LINE
  5
785
330
1F
100
AcDbEntity
  8
0
  6
Continuous
 62
     7
370
    15
100
AcDbLine
 10
749.4251801844568
 20
191.7382665303691
 30
0.0
 11
745.3496641691656
 21
191.7382665303691
 31
0.0
  0
LINE
  5
786
330
1F
100
AcDbEntity
  8
0
  6
Continuous
 62
     7
370
    15
100
AcDbLine
 10
749.4251801844568
 20
201.2382634309276
 30
0.0
 11
749.4251801844568
 21
191.7382665303691
 31
0.0
  0
LINE
  5
787
330
1F
100
AcDbEntity
  8
0
  6
Continuous
 62
     7
370
    15
100
AcDbLine
 10
749.4251801844568
 20
201.2382634309276
 30
0.0
 11
745.3496641691656
 21
201.2382634309276
 31
0.0
  0
LINE
  5
788
330
1F
100
AcDbEntity
  8
0
  6
Continuous
 62
     7
370
    15
100
AcDbLine
 10
716.5463193531961
 20
217.359837177132
 30
0.0
 11
716.5463193531961
 21
201.7382644442066
 31
0.0
  0
LINE
  5
789
330
1F
100
AcDbEntity
  8
0
  6
Continuous
 62
     7
370
    15
100
AcDbLine
 10
736.5463198374839
 20
201.7382644442066
 30
0.0
 11
736.5463198374839
 21
217.359837177132
 31
0.0
  0
ARC
  5
78A
330
1F
100
AcDbEntity
  8
0
  6
Continuous
 62
     7
370
    15
100
AcDbCircle
 10
759.6404603254332
 20
187.9899824509285
 30
0.0
 40
3.000004180699409
100
AcDbArc
 50
1.986297198179125
 51
84.93454471057841
  0
ARC
  5
78B
330
1F
100
AcDbEntity
  8
0
  6
Continuous
 62
     7
370
    15
100
AcDbCircle
 10
693.4521665888536
 20
187.9899958151647
 30
0.0
 40
2.999988656210004
100
AcDbArc
 50
95.05854994144616
 51
178.0139479114227
  0
LWPOLYLINE
  5
78C
330
1F
100
AcDbEntity
  8
0
  6
Continuous
 62
     7
370
    15
100
AcDbPolyline
 90
        3
 70
   128
 43
0.0
 10
702.9329016085596
 20
191.8643154529079
 10
699.4317396756144
 20
191.5460266498073
 10
693.1876129682989
 20
190.9783818152888
  0
LWPOLYLINE
  5
78D
330
1F
100
AcDbEntity
  8
0
  6
Continuous
 62
     7
370
    15
100
AcDbPolyline
 90
        3
 70
   128
 43
0.0
 10
759.9050252910585
 20
190.9783818152888
 10
753.6609004463882
 20
191.5460266498073
 10
749.8005441602201
 20
191.8969713476642
  0
ARC
  5
78E
330
1F
100
AcDbEntity
  8
0
  6
Continuous
 62
     7
370
    15
100
AcDbCircle
 10
749.6597377538778
 20
201.2382641621241
 30
0.0
 40
0.5
100
AcDbArc
 50
0.0
 51
90.0
  0
LINE
  5
78F
330
1F
100
AcDbEntity
  8
0
  6
Continuous
 62
     7
370
    15
100
AcDbLine
 10
750.159738513443
 20
191.8643154529079
 30
0.0
 11
750.159738513443
 21
201.2382634309276
 31
0.0
  0
LINE
  5
790
330
1F
100
AcDbEntity
  8
0
  6
Continuous
 62
     7
370
    15
100
AcDbLine
 10
702.9329016085596
 20
201.2382634309276
 30
0.0
 11
702.9329016085596
 21
191.7382665303691
 31
0.0
  0
ARC
  5
791
330
1F
100
AcDbEntity
  8
0
  6
Continuous
 62
     7
370
    15
100
AcDbCircle
 10
703.4329014113343
 20
201.2382641621241
 30
0.0
 40
0.5000000000000569
100
AcDbArc
 50
90.0
 51
180.0
  0
DIMENSION
  5
7A1
330
1F
100
AcDbEntity
  8
AM_5
100
AcDbDimension
280
     0
  2
*D28
 10
791.7001004538875
 20
89.33826352927528
 30
0.0
 11
791.7001004538875
 21
157.3490510088548
 31
0.0
 70
    32
 71
     5
 42
136.0215749591589
 73
     0
 74
     0
 75
     0
  3
ISO-25
100
AcDbAlignedDimension
 13
750.546319338295
 23
225.3598384884342
 33
0.0
 14
753.5463198300333
 24
89.33826352927528
 34
0.0
 50
90.0
100
AcDbRotatedDimension
1001
ACAD
1000
DSTYLE
1002
{
1070
    41
1040
2.0
1070
    42
1040
1.0
1070
    44
1040
1.5
1070
    73
1070
     1
1070
    74
1070
     1
1070
    78
1070
     0
1070
   143
1040
0.0393700787401575
1070
   147
1040
1.524
1070
   179
1070
     2
1070
   271
1070
     0
1070
   284
1070
     0
1002
}
  0
DIMENSION
  5
7CB
330
1F
100
AcDbEntity
  8
AM_5
100
AcDbDimension
280
     0
  2
*D29
 10
765.5899561222525
 20
82.12892575336992
 30
0.0
 11
726.5463191296787
 21
84.90292575336992
 31
0.0
 70
    32
 71
     5
 42
78.08727398514747
 73
     0
 74
     0
 75
     0
  3
ISO-25
100
AcDbAlignedDimension
 13
687.502682137105
 23
103.5799095732315
 33
0.0
 14
765.5899561222525
 24
103.5799095732315
 34
0.0
 50
0.0000000000001132
100
AcDbRotatedDimension
1001
ACAD
1000
DSTYLE
1002
{
1070
    41
1040
2.0
1070
    42
1040
1.0
1070
    44
1040
1.5
1070
    73
1070
     1
1070
    74
1070
     1
1070
    78
1070
     0
1070
   143
1040
0.0393700787401575
1070
   147
1040
1.524
1070
   179
1070
     2
1070
   271
1070
     0
1070
   284
1070
     0
1002
}
  0
DIMENSION
  5
7F3
330
1F
100
AcDbEntity
  8
AM_5
100
AcDbDimension
280
     0
  2
*D30
 10
791.7001004538875
 20
-56.26869606078267
 30
0.0
 11
791.7001004538875
 21
-3.00349817857432
 31
0.0
 70
    32
 71
     5
 42
106.5303957644164
 73
     0
 74
     0
 75
     0
  3
ISO-25
100
AcDbAlignedDimension
 13
756.1075118317539
 23
50.26169970363378
 33
0.0
 14
729.546319621417
 24
-56.26869606078265
 34
0.0
 50
90.00000000000003
100
AcDbRotatedDimension
1001
ACAD
1000
DSTYLE
1002
{
1070
    41
1040
2.0
1070
    42
1040
1.0
1070
    44
1040
1.5
1070
    73
1070
     1
1070
    74
1070
     1
1070
    78
1070
     0
1070
   143
1040
0.0393700787401575
1070
   147
1040
1.524
1070
   179
1070
     2
1070
   271
1070
     0
1070
   284
1070
     0
1002
}
  0
ENDSEC
  0
SECTION
  2
OBJECTS
  0
DICTIONARY
  5
C
330
0
100
AcDbDictionary
281
     1
  3
ACAD_CIP_PREVIOUS_PRODUCT_INFO
350
85C
  3
ACAD_COLOR
350
2EB
  3
ACAD_DETAILVIEWSTYLE
350
851
  3
ACAD_GROUP
350
D
  3
ACAD_LAYOUT
350
1A
  3
ACAD_MATERIAL
350
2EA
  3
ACAD_MLEADERSTYLE
350
84D
  3
ACAD_MLINESTYLE
350
17
  3
ACAD_PLOTSETTINGS
350
19
  3
ACAD_PLOTSTYLENAME
350
E
  3
ACAD_SCALELIST
350
2C7
  3
ACAD_SECTIONVIEWSTYLE
350
84F
  3
ACAD_TABLESTYLE
350
84B
  3
ACAD_VISUALSTYLE
350
832
  3
AcAmCatalogState
350
34A
  3
ACDB_RECOMPOSE_DATA
350
89C
  3
AcDbVariableDictionary
350
88C
  3
ACDMSYSVARMGR
350
309
  3
ACGREF_MASTER
350
301
  3
ACGREFACAD_MASTER
350
32A
  3
AcmDictionary
350
348
  3
ACME_BOM_MANAGER_NAME
350
2FB
  3
ACME_COMMAND_HISTORY
350
2F8
  3
ACME_SCOPE_NAME
350
2F7
  3
ACMESTATEMGR
350
300
  3
AcmeSysVarManager
350
2F9
  3
AcmSystemVariableManager
350
353
  3
AD_APPL
350
335
  3
ADSYSVARMGR
350
334
  3
AmdtNamedDwgMgr
350
325
  3
AMG
350
2F0
  3
AMGSNAPSETTINGS
350
388
  3
AMI_MASTER
350
32D
  3
AUTOCAD_ASSEMBLIES_PROJECT
350
33D
  3
Designer_Assemblies_SysVars
350
338
  3
GREFAM_MODULE
350
32E
  0
DICTIONARY
  5
85E
330
10
100
AcDbDictionary
280
     1
281
     1
  3
ADSK_XREC_LAYER_RECONCILED
360
85F
  0
DICTIONARY
  5
860
330
44
100
AcDbDictionary
280
     1
281
     1
  3
ADSK_XREC_LAYER_RECONCILED
360
861
  0
DICTIONARY
  5
862
330
45
100
AcDbDictionary
280
     1
281
     1
  3
ADSK_XREC_LAYER_RECONCILED
360
863
  0
DICTIONARY
  5
864
330
46
100
AcDbDictionary
280
     1
281
     1
  3
ADSK_XREC_LAYER_RECONCILED
360
865
  0
DICTIONARY
  5
866
330
47
100
AcDbDictionary
280
     1
281
     1
  3
ADSK_XREC_LAYER_RECONCILED
360
867
  0
DICTIONARY
  5
868
330
48
100
AcDbDictionary
280
     1
281
     1
  3
ADSK_XREC_LAYER_RECONCILED
360
869
  0
DICTIONARY
  5
86A
330
49
100
AcDbDictionary
280
     1
281
     1
  3
ADSK_XREC_LAYER_RECONCILED
360
86B
  0
DICTIONARY
  5
86C
330
4A
100
AcDbDictionary
280
     1
281
     1
  3
ADSK_XREC_LAYER_RECONCILED
360
86D
  0
DICTIONARY
  5
86E
330
4B
100
AcDbDictionary
280
     1
281
     1
  3
ADSK_XREC_LAYER_RECONCILED
360
86F
  0
DICTIONARY
  5
870
330
4C
100
AcDbDictionary
280
     1
281
     1
  3
ADSK_XREC_LAYER_RECONCILED
360
871
  0
DICTIONARY
  5
872
330
4D
100
AcDbDictionary
280
     1
281
     1
  3
ADSK_XREC_LAYER_RECONCILED
360
873
  0
DICTIONARY
  5
874
330
4E
100
AcDbDictionary
280
     1
281
     1
  3
ADSK_XREC_LAYER_RECONCILED
360
875
  0
DICTIONARY
  5
876
330
4F
100
AcDbDictionary
280
     1
281
     1
  3
ADSK_XREC_LAYER_RECONCILED
360
877
  0
DICTIONARY
  5
878
330
50
100
AcDbDictionary
280
     1
281
     1
  3
ADSK_XREC_LAYER_RECONCILED
360
879
  0
DICTIONARY
  5
87A
330
51
100
AcDbDictionary
280
     1
281
     1
  3
ADSK_XREC_LAYER_RECONCILED
360
87B
  0
DICTIONARY
  5
41F
330
1F
100
AcDbDictionary
280
     1
281
     1
  3
ACAD_INDEX
360
420
  0
XRECORD
  5
85C
102
{ACAD_REACTORS
330
C
102
}
330
C
100
AcDbXrecord
280
     1
300
ACD
300
2017
300
ACD_F_S
  0
DICTIONARY
  5
2EB
102
{ACAD_REACTORS
330
C
102
}
330
C
100
AcDbDictionary
281
     1
  0
DICTIONARY
  5
851
102
{ACAD_REACTORS
330
C
102
}
330
C
100
AcDbDictionary
281
     1
  3
Metric50
350
852
  0
DICTIONARY
  5
D
102
{ACAD_REACTORS
330
C
102
}
330
C
100
AcDbDictionary
281
     1
  0
DICTIONARY
  5
1A
102
{ACAD_REACTORS
330
C
102
}
330
C
100
AcDbDictionary
281
     1
  3
Layout1
350
1E
  3
Layout2
350
26
  3
Model
350
22
  0
DICTIONARY
  5
2EA
102
{ACAD_REACTORS
330
C
102
}
330
C
100
AcDbDictionary
281
     1
  3
ByBlock
350
822
  3
ByLayer
350
81A
  3
Global
350
82A
  0
DICTIONARY
  5
84D
102
{ACAD_REACTORS
330
C
102
}
330
C
100
AcDbDictionary
281
     1
  3
Standard
350
84E
  0
DICTIONARY
  5
17
102
{ACAD_REACTORS
330
C
102
}
330
C
100
AcDbDictionary
281
     1
  3
Standard
350
18
  0
DICTIONARY
  5
19
102
{ACAD_REACTORS
330
C
102
}
330
C
100
AcDbDictionary
281
     1
  0
ACDBDICTIONARYWDFLT
  5
E
102
{ACAD_REACTORS
330
C
102
}
330
C
100
AcDbDictionary
281
     1
  3
Normal
350
F
100
AcDbDictionaryWithDefault
340
F
  0
DICTIONARY
  5
2C7
102
{ACAD_REACTORS
330
C
102
}
330
C
100
AcDbDictionary
281
     1
  3
A0
350
2C8
  3
A1
350
2C9
  3
A2
350
2CA
  3
A3
350
2CB
  3
A4
350
2CC
  3
A5
350
2CD
  3
A6
350
2CE
  3
A7
350
2CF
  3
A8
350
2D0
  3
A9
350
2D1
  3
B0
350
2D2
  3
B1
350
2D3
  3
B2
350
2D4
  3
B3
350
2D5
  3
B4
350
2D6
  3
B5
350
2D7
  3
B6
350
2D8
  3
B7
350
2D9
  3
B8
350
2DA
  3
B9
350
2DB
  3
C0
350
2DC
  3
C1
350
2DD
  3
C2
350
2DE
  3
C3
350
2DF
  3
C4
350
2E0
  3
C5
350
2E1
  3
C6
350
2E2
  3
C7
350
2E3
  3
C8
350
2E4
  3
C9
350
2E5
  3
D0
350
2E6
  3
D1
350
2E7
  3
D2
350
2E8
  0
DICTIONARY
  5
84F
102
{ACAD_REACTORS
330
C
102
}
330
C
100
AcDbDictionary
281
     1
  3
Metric50
350
850
  0
DICTIONARY
  5
84B
102
{ACAD_REACTORS
330
C
102
}
330
C
100
AcDbDictionary
281
     1
  3
Standard
350
84C
  0
DICTIONARY
  5
832
102
{ACAD_REACTORS
330
C
102
}
330
C
100
AcDbDictionary
281
     1
  3
2dWireframe
350
838
  3
Basic
350
837
  3
Brighten
350
83E
  3
ColorChange
350
842
  3
Conceptual
350
83B
  3
Dim
350
83D
  3
EdgeColorOff
350
84A
  3
Facepattern
350
841
  3
Flat
350
833
  3
FlatWithEdges
350
834
  3
Gouraud
350
835
  3
GouraudWithEdges
350
836
  3
Hidden
350
83A
  3
JitterOff
350
848
  3
Linepattern
350
840
  3
OverhangOff
350
849
  3
Realistic
350
83C
  3
Shaded
350
847
  3
Shaded with edges
350
846
  3
Shades of Gray
350
843
  3
Sketchy
350
844
  3
Thicken
350
83F
  3
Wireframe
350
839
  3
X-Ray
350
845
  0
ACAD_PROXY_OBJECT
  5
34A
102
{ACAD_REACTORS
330
C
102
}
330
C
100
AcDbProxyObject
 90
      499
 91
      549
 95
  4980761
 70
     0
161
               384
310
3FFFFFFFE00A028140291AE2E189C9917189B1C171A17189819AE64F45E63595FAE222BA39427212614AE199918400AA03
 94
        0
  0
XRECORD
  5
89C
102
{ACAD_REACTORS
330
C
102
}
330
C
100
AcDbXrecord
280
     1
 90
        1
330
84C
330
850
330
852
  0
DICTIONARY
  5
88C
102
{ACAD_REACTORS
330
C
102
}
330
C
100
AcDbDictionary
281
     1
  3
CANNOSCALE
350
892
  3
CMLEADERSTYLE
350
88E
  3
CTABLESTYLE
350
88D
  3
CVIEWDETAILSTYLE
350
88F
  3
CVIEWSECTIONSTYLE
350
890
  3
LAYEREVAL
350
894
  3
LAYERNOTIFY
350
895
  3
LIGHTINGUNITS
350
893
  3
MSLTSCALE
350
891
  0
ACAD_PROXY_OBJECT
  5
309
102
{ACAD_REACTORS
330
C
102
}
330
C
100
AcDbProxyObject
 90
      499
 91
      510
 95
  4980761
 70
     0
161
               240
310
4C51A47A000000000000000000000000000000000000000000000000000001
330
30A
330
30B
330
30C
330
30D
330
30E
330
30F
330
310
330
312
330
313
330
314
330
315
330
316
330
317
330
318
330
319
330
31A
330
31B
330
31C
330
31D
330
31E
330
31F
330
320
330
321
330
322
330
323
330
324
 94
        0
  0
ACAD_PROXY_OBJECT
  5
301
102
{ACAD_REACTORS
330
C
102
}
330
C
100
AcDbProxyObject
 90
      499
 91
      518
 95
  4980761
 70
     0
161
                34
310
040000428C
 94
        0
  0
ACAD_PROXY_OBJECT
  5
32A
102
{ACAD_REACTORS
330
C
102
}
330
C
100
AcDbProxyObject
 90
      499
 91
      527
 95
  4980761
 70
     0
161
               114
310
04000041C08000000000000000000C
 94
        0
  0
DICTIONARY
  5
348
102
{ACAD_REACTORS
330
C
102
}
330
C
100
AcDbDictionary
281
     1
  3
AcmBOMDATA
350
349
  3
AcmStdDictionary
350
355
  0
ACAD_PROXY_OBJECT
  5
2FB
102
{ACAD_REACTORS
330
C
102
}
330
C
100
AcDbProxyObject
 90
      499
 91
      512
 95
  4980761
 70
     0
161
                50
310
0001004040000C
330
0
330
0
330
2FC
 94
        0
  0
ACAD_PROXY_OBJECT
  5
2F8
102
{ACAD_REACTORS
330
C
102
}
330
C
100
AcDbProxyObject
 90
      499
 91
      509
 95
  4980761
 70
     0
161
              4730
310
454050E414D4454524553455444424D4F4440805084E202D20554E444F014213880B4815539113C0504554E444F80504554E444F8050545524153458050A414D504F57455244494D40405184D5347202D20436F6D6D616E642043414E43454C4C45442E014290535413D5D15491125350101461354D1C80B4810DBDB5B585B
310
990810D05390D1531311510B8050C475249505F535452455443488050A414D504F57455244494D40405184D5347202D20436F6D6D616E642043414E43454C4C45442E014150D313D4D1501014B9354D1C80B481414104E88080819195CDADD1BDC0B985C9E08119A5B1955995C9CDA5BDB8E880E0B8C0B8C8D0B8D8050E414
310
D4454524553455444424D4F4440805084E202D20554E444F014213880B4815539113C0504554E444F80504554E444F404052E4D5347202D205050413A2020206465736B746F702E6172782046696C6556657273696F6E3A20382E302E32342E3601411312539150101461354D1C80B4810DBDB5B585B990810D05390D15313
310
11510B805095041535445434C4950805044D4F5645805044D4F56458050A414D504F57455244494D40405184D5347202D20436F6D6D616E642043414E43454C4C45442E014290535413D5D15491125350101461354D1C80B4810DBDB5B585B990810D05390D1531311510B8050A414D504F57455244494D40405184D534720
310
2D20436F6D6D616E642043414E43454C4C45442E014151549054D1601411353D591501014B9354D1C80B481414104E88080819195CDADD1BDC0B985C9E08119A5B1955995C9CDA5BDB8E880E0B8C0B8C8D0B8D8C
 94
        0
  0
ACAD_PROXY_OBJECT
  5
2F7
102
{ACAD_REACTORS
330
C
102
}
330
C
100
AcDbProxyObject
 90
      499
 91
      508
 95
  4980761
 70
     0
161
               562
310
08000045408000000000000000001314D600000000000000000000000000000000000000000000000000000000000000000000000000000000000000000000000000AAA406AA8C
360
2FA
360
2FC
360
302
360
303
360
304
360
305
360
306
360
307
360
30A
360
30B
360
30C
360
30D
360
30E
360
30F
360
310
360
312
360
313
360
314
360
315
360
316
360
317
360
318
360
319
360
31A
360
31B
360
31C
360
31D
360
31E
360
31F
360
320
360
321
360
322
360
323
360
324
360
330
360
331
360
332
360
333
360
339
360
33A
360
33B
360
33C
360
341
360
342
360
343
360
344
360
345
360
346
360
354
 94
        0
  0
ACAD_PROXY_OBJECT
  5
300
102
{ACAD_REACTORS
330
C
102
}
330
C
100
AcDbProxyObject
 90
      499
 91
      517
 95
  4980761
 70
     0
161
                50
310
08000041E4128C
 94
        0
  0
ACAD_PROXY_OBJECT
  5
2F9
102
{ACAD_REACTORS
330
C
102
}
330
C
100
AcDbProxyObject
 90
      499
 91
      510
 95
  4980761
 70
     0
161
                32
310
90140A0000
330
2FA
 94
        0
  0
ACAD_PROXY_OBJECT
  5
353
102
{ACAD_REACTORS
330
C
102
}
330
C
100
AcDbProxyObject
 90
      499
 91
      510
 95
  4980761
 70
     0
161
                32
310
90140A0030
330
354
 94
        0
  0
ACAD_PROXY_OBJECT
  5
335
102
{ACAD_REACTORS
330
C
102
}
330
C
100
AcDbProxyObject
 90
      499
 91
      537
 95
  4980761
 70
     0
161
                34
310
000800008C
330
330
 94
        0
  0
ACAD_PROXY_OBJECT
  5
334
102
{ACAD_REACTORS
330
C
102
}
330
C
100
AcDbProxyObject
 90
      499
 91
      510
 95
  4980761
 70
     0
161
                 8
310
AAFF
 94
        0
  0
ACAD_PROXY_OBJECT
  5
325
102
{ACAD_REACTORS
330
C
102
}
330
C
100
AcDbProxyObject
 90
      499
 91
      524
 95
  4980761
 70
     0
161
                42
310
000100005E8C
330
302
 94
        0
  0
DICTIONARY
  5
2F0
102
{ACAD_REACTORS
330
C
102
}
330
C
100
AcDbDictionary
281
     1
  3
AcMgSettings
350
2F1
  3
AMGLAYCFG
350
357
  0
DICTIONARY
  5
388
102
{ACAD_REACTORS
330
C
102
}
330
C
100
AcDbDictionary
281
     1
  3
DIMENSION
350
38D
  3
FEA
350
38C
  3
HATCH (1)
350
389
  3
HATCH (2)
350
38A
  3
SIMPLE WELD
350
38E
  3
SYMBOLS
350
38B
  0
ACAD_PROXY_OBJECT
  5
32D
102
{ACAD_REACTORS
330
C
102
}
330
C
100
AcDbProxyObject
 90
      499
 91
      530
 95
  4980761
 70
     0
161
                34
310
050000428C
 94
        0
  0
ACAD_PROXY_OBJECT
  5
33D
102
{ACAD_REACTORS
330
C
102
}
330
C
100
AcDbProxyObject
 90
      499
 91
      541
 95
  4980761
 70
     0
161
                82
310
0800004BC000000000000C
330
344
330
0
330
345
330
0
330
0
330
0
 94
        0
  0
ACAD_PROXY_OBJECT
  5
338
102
{ACAD_REACTORS
330
C
102
}
330
C
100
AcDbProxyObject
 90
      499
 91
      510
 95
  4980761
 70
     0
161
                56
310
9044160000000000
330
339
330
33A
330
33B
330
33C
 94
        0
  0
ACAD_PROXY_OBJECT
  5
32E
102
{ACAD_REACTORS
330
C
102
}
330
C
100
AcDbProxyObject
 90
      499
 91
      531
 95
  4980761
 70
     0
161
                 8
310
056E
 94
        0
  0
XRECORD
  5
85F
102
{ACAD_REACTORS
330
85E
102
}
330
85E
100
AcDbXrecord
280
     1
290
     1
  0
XRECORD
  5
861
102
{ACAD_REACTORS
330
860
102
}
330
860
100
AcDbXrecord
280
     1
290
     1
  0
XRECORD
  5
863
102
{ACAD_REACTORS
330
862
102
}
330
862
100
AcDbXrecord
280
     1
290
     1
  0
XRECORD
  5
865
102
{ACAD_REACTORS
330
864
102
}
330
864
100
AcDbXrecord
280
     1
290
     1
  0
XRECORD
  5
867
102
{ACAD_REACTORS
330
866
102
}
330
866
100
AcDbXrecord
280
     1
290
     1
  0
XRECORD
  5
869
102
{ACAD_REACTORS
330
868
102
}
330
868
100
AcDbXrecord
280
     1
290
     1
  0
XRECORD
  5
86B
102
{ACAD_REACTORS
330
86A
102
}
330
86A
100
AcDbXrecord
280
     1
290
     1
  0
XRECORD
  5
86D
102
{ACAD_REACTORS
330
86C
102
}
330
86C
100
AcDbXrecord
280
     1
290
     1
  0
XRECORD
  5
86F
102
{ACAD_REACTORS
330
86E
102
}
330
86E
100
AcDbXrecord
280
     1
290
     1
  0
XRECORD
  5
871
102
{ACAD_REACTORS
330
870
102
}
330
870
100
AcDbXrecord
280
     1
290
     1
  0
XRECORD
  5
873
102
{ACAD_REACTORS
330
872
102
}
330
872
100
AcDbXrecord
280
     1
290
     1
  0
XRECORD
  5
875
102
{ACAD_REACTORS
330
874
102
}
330
874
100
AcDbXrecord
280
     1
290
     1
  0
XRECORD
  5
877
102
{ACAD_REACTORS
330
876
102
}
330
876
100
AcDbXrecord
280
     1
290
     1
  0
XRECORD
  5
879
102
{ACAD_REACTORS
330
878
102
}
330
878
100
AcDbXrecord
280
     1
290
     1
  0
XRECORD
  5
87B
102
{ACAD_REACTORS
330
87A
102
}
330
87A
100
AcDbXrecord
280
     1
290
     1
  0
DICTIONARY
  5
420
102
{ACAD_REACTORS
330
41F
102
}
330
41F
100
AcDbDictionary
281
     1
  3
*A1
350
421
  0
ACDBDETAILVIEWSTYLE
  5
852
102
{ACAD_XDICTIONARY
360
89A
102
}
102
{ACAD_REACTORS
330
851
102
}
330
851
100
AcDbModelDocViewStyle
 70
     0
  3
Metric50
290
     0
100
AcDbDetailViewStyle
 70
     0
 71
     0
 90
        3
 71
     1
340
11
 62
   256
 40
5.0
340
0
 62
   256
 40
5.0
300

 40
0.0
280
     1
 71
     2
340
16
 90
       25
 62
   256
 71
     3
340
11
 62
   256
 40
5.0
 90
        0
 40
15.0
 90
        1
300
%<\AcVar ViewDetailId>% (%<\AcVar ViewScale \f "%sn">%)
 71
     4
340
16
 90
       25
 62
   256
340
16
 90
       25
 62
   256
280
     0
  0
LAYOUT
  5
1E
102
{ACAD_REACTORS
330
1A
102
}
330
1A
100
AcDbPlotSettings
  1

  2
none_device
  4

  6

 40
0.0
 41
0.0
 42
0.0
 43
0.0
 44
0.0
 45
0.0
 46
0.0
 47
0.0
 48
0.0
 49
0.0
140
0.0
141
0.0
142
1.0
143
1.0
 70
   688
 72
     0
 73
     0
 74
     5
  7

 75
    16
147
1.0
 76
     0
 77
     2
 78
   300
148
0.0
149
0.0
100
AcDbLayout
  1
Layout1
 70
     1
 71
     1
 10
0.0
 20
0.0
 11
420.0
 21
297.0
 12
0.0
 22
0.0
 32
0.0
 14
1.000000000000000E+20
 24
1.000000000000000E+20
 34
1.000000000000000E+20
 15
-1.000000000000000E+20
 25
-1.000000000000000E+20
 35
-1.000000000000000E+20
146
0.0
 13
0.0
 23
0.0
 33
0.0
 16
1.0
 26
0.0
 36
0.0
 17
0.0
 27
1.0
 37
0.0
 76
     0
330
1B
  0
LAYOUT
  5
26
102
{ACAD_REACTORS
330
1A
102
}
330
1A
100
AcDbPlotSettings
  1

  2
none_device
  4

  6

 40
0.0
 41
0.0
 42
0.0
 43
0.0
 44
0.0
 45
0.0
 46
0.0
 47
0.0
 48
0.0
 49
0.0
140
0.0
141
0.0
142
1.0
143
1.0
 70
   688
 72
     0
 73
     0
 74
     5
  7

 75
    16
147
1.0
 76
     0
 77
     2
 78
   300
148
0.0
149
0.0
100
AcDbLayout
  1
Layout2
 70
     1
 71
     2
 10
0.0
 20
0.0
 11
0.0
 21
0.0
 12
0.0
 22
0.0
 32
0.0
 14
0.0
 24
0.0
 34
0.0
 15
0.0
 25
0.0
 35
0.0
146
0.0
 13
0.0
 23
0.0
 33
0.0
 16
1.0
 26
0.0
 36
0.0
 17
0.0
 27
1.0
 37
0.0
 76
     0
330
23
  0
LAYOUT
  5
22
102
{ACAD_REACTORS
330
1A
102
}
330
1A
100
AcDbPlotSettings
  1

  2
none_device
  4

  6

 40
0.0
 41
0.0
 42
0.0
 43
0.0
 44
0.0
 45
0.0
 46
0.0
 47
0.0
 48
0.0
 49
0.0
140
0.0
141
0.0
142
1.0
143
1.0
 70
  1712
 72
     0
 73
     0
 74
     0
  7

 75
     0
147
1.0
 76
     0
 77
     2
 78
   300
148
0.0
149
0.0
100
AcDbLayout
  1
Model
 70
     1
 71
     0
 10
0.0
 20
0.0
 11
297.0
 21
210.0
 12
0.0
 22
0.0
 32
0.0
 14
0.0
 24
0.0
 34
0.0
 15
297.0
 25
210.0
 35
0.0
146
0.0
 13
0.0
 23
0.0
 33
0.0
 16
1.0
 26
0.0
 36
0.0
 17
0.0
 27
1.0
 37
0.0
 76
     0
330
1F
331
818
  0
MATERIAL
  5
822
102
{ACAD_XDICTIONARY
360
823
102
}
102
{ACAD_REACTORS
330
2EA
102
}
330
2EA
100
AcDbMaterial
  1
ByBlock
 72
     0
 43
0.0008202099737533
 43
0.0
 43
0.0
 43
0.0
 43
0.0
 43
0.0008202099737533
 43
0.0
 43
0.0
 43
0.0
 43
0.0
 43
1.0
 43
0.0
 43
0.0
 43
0.0
 43
0.0
 43
1.0
 77
     0
 47
0.0008202099737533
 47
0.0
 47
0.0
 47
0.0
 47
0.0
 47
0.0008202099737533
 47
0.0
 47
0.0
 47
0.0
 47
0.0
 47
1.0
 47
0.0
 47
0.0
 47
0.0
 47
0.0
 47
1.0
171
     0
 49
0.0008202099737533
 49
0.0
 49
0.0
 49
0.0
 49
0.0
 49
0.0008202099737533
 49
0.0
 49
0.0
 49
0.0
 49
0.0
 49
1.0
 49
0.0
 49
0.0
 49
0.0
 49
0.0
 49
1.0
175
     0
142
0.0008202099737533
142
0.0
142
0.0
142
0.0
142
0.0
142
0.0008202099737533
142
0.0
142
0.0
142
0.0
142
0.0
142
1.0
142
0.0
142
0.0
142
0.0
142
0.0
142
1.0
179
     0
144
0.0008202099737533
144
0.0
144
0.0
144
0.0
144
0.0
144
0.0008202099737533
144
0.0
144
0.0
144
0.0
144
0.0
144
1.0
144
0.0
144
0.0
144
0.0
144
0.0
144
1.0
147
0.0008202099737533
147
0.0
147
0.0
147
0.0
147
0.0
147
0.0008202099737533
147
0.0
147
0.0
147
0.0
147
0.0
147
1.0
147
0.0
147
0.0
147
0.0
147
0.0
147
1.0
  0
MATERIAL
  5
81A
102
{ACAD_XDICTIONARY
360
81B
102
}
102
{ACAD_REACTORS
330
2EA
102
}
330
2EA
100
AcDbMaterial
  1
ByLayer
 72
     0
 43
0.0008202099737533
 43
0.0
 43
0.0
 43
0.0
 43
0.0
 43
0.0008202099737533
 43
0.0
 43
0.0
 43
0.0
 43
0.0
 43
1.0
 43
0.0
 43
0.0
 43
0.0
 43
0.0
 43
1.0
 77
     0
 47
0.0008202099737533
 47
0.0
 47
0.0
 47
0.0
 47
0.0
 47
0.0008202099737533
 47
0.0
 47
0.0
 47
0.0
 47
0.0
 47
1.0
 47
0.0
 47
0.0
 47
0.0
 47
0.0
 47
1.0
171
     0
 49
0.0008202099737533
 49
0.0
 49
0.0
 49
0.0
 49
0.0
 49
0.0008202099737533
 49
0.0
 49
0.0
 49
0.0
 49
0.0
 49
1.0
 49
0.0
 49
0.0
 49
0.0
 49
0.0
 49
1.0
175
     0
142
0.0008202099737533
142
0.0
142
0.0
142
0.0
142
0.0
142
0.0008202099737533
142
0.0
142
0.0
142
0.0
142
0.0
142
1.0
142
0.0
142
0.0
142
0.0
142
0.0
142
1.0
179
     0
144
0.0008202099737533
144
0.0
144
0.0
144
0.0
144
0.0
144
0.0008202099737533
144
0.0
144
0.0
144
0.0
144
0.0
144
1.0
144
0.0
144
0.0
144
0.0
144
0.0
144
1.0
147
0.0008202099737533
147
0.0
147
0.0
147
0.0
147
0.0
147
0.0008202099737533
147
0.0
147
0.0
147
0.0
147
0.0
147
1.0
147
0.0
147
0.0
147
0.0
147
0.0
147
1.0
  0
MATERIAL
  5
82A
102
{ACAD_XDICTIONARY
360
82B
102
}
102
{ACAD_REACTORS
330
2EA
102
}
330
2EA
100
AcDbMaterial
  1
Global
 72
     0
 43
0.0008202099737533
 43
0.0
 43
0.0
 43
0.0
 43
0.0
 43
0.0008202099737533
 43
0.0
 43
0.0
 43
0.0
 43
0.0
 43
1.0
 43
0.0
 43
0.0
 43
0.0
 43
0.0
 43
1.0
 77
     0
 47
0.0008202099737533
 47
0.0
 47
0.0
 47
0.0
 47
0.0
 47
0.0008202099737533
 47
0.0
 47
0.0
 47
0.0
 47
0.0
 47
1.0
 47
0.0
 47
0.0
 47
0.0
 47
0.0
 47
1.0
171
     0
 49
0.0008202099737533
 49
0.0
 49
0.0
 49
0.0
 49
0.0
 49
0.0008202099737533
 49
0.0
 49
0.0
 49
0.0
 49
0.0
 49
1.0
 49
0.0
 49
0.0
 49
0.0
 49
0.0
 49
1.0
175
     0
142
0.0008202099737533
142
0.0
142
0.0
142
0.0
142
0.0
142
0.0008202099737533
142
0.0
142
0.0
142
0.0
142
0.0
142
1.0
142
0.0
142
0.0
142
0.0
142
0.0
142
1.0
179
     0
144
0.0008202099737533
144
0.0
144
0.0
144
0.0
144
0.0
144
0.0008202099737533
144
0.0
144
0.0
144
0.0
144
0.0
144
1.0
144
0.0
144
0.0
144
0.0
144
0.0
144
1.0
147
0.0008202099737533
147
0.0
147
0.0
147
0.0
147
0.0
147
0.0008202099737533
147
0.0
147
0.0
147
0.0
147
0.0
147
1.0
147
0.0
147
0.0
147
0.0
147
0.0
147
1.0
  0
MLEADERSTYLE
  5
84E
102
{ACAD_REACTORS
330
84D
102
}
330
84D
100
AcDbMLeaderStyle
179
     2
170
     2
171
     1
172
     0
 90
        2
 40
0.0
 41
0.0
173
     1
 91
-1056964608
340
14
 92
       -2
290
     1
 42
2.0
291
     1
 43
0.36
  3
Standard
 44
4.0
300

342
11
174
     1
178
     6
175
     1
176
     0
 93
-1056964608
 45
4.0
292
     0
297
     0
 46
4.0
 94
-1056964608
 47
1.0
 49
1.0
140
1.0
293
     1
141
0.0
294
     1
177
     0
142
1.0
295
     1
296
     0
143
0.125
271
     0
272
     9
273
     9
298
     1
  0
MLINESTYLE
  5
18
102
{ACAD_REACTORS
330
17
102
}
330
17
100
AcDbMlineStyle
  2
STANDARD
 70
     0
  3

 62
   256
 51
90.0
 52
90.0
 71
     2
 49
0.5
 62
   256
  6
BYLAYER
 49
-0.5
 62
   256
  6
BYLAYER
  0
ACDBPLACEHOLDER
  5
F
102
{ACAD_REACTORS
330
E
102
}
330
E
  0
SCALE
  5
2C8
102
{ACAD_REACTORS
330
2C7
102
}
330
2C7
100
AcDbScale
 70
     0
300
1:1
140
1.0
141
1.0
290
     1
  0
SCALE
  5
2C9
102
{ACAD_REACTORS
330
2C7
102
}
330
2C7
100
AcDbScale
 70
     0
300
1:2
140
1.0
141
2.0
290
     0
  0
SCALE
  5
2CA
102
{ACAD_REACTORS
330
2C7
102
}
330
2C7
100
AcDbScale
 70
     0
300
1:4
140
1.0
141
4.0
290
     0
  0
SCALE
  5
2CB
102
{ACAD_REACTORS
330
2C7
102
}
330
2C7
100
AcDbScale
 70
     0
300
1:5
140
1.0
141
5.0
290
     0
  0
SCALE
  5
2CC
102
{ACAD_REACTORS
330
2C7
102
}
330
2C7
100
AcDbScale
 70
     0
300
1:8
140
1.0
141
8.0
290
     0
  0
SCALE
  5
2CD
102
{ACAD_REACTORS
330
2C7
102
}
330
2C7
100
AcDbScale
 70
     0
300
1:10
140
1.0
141
10.0
290
     0
  0
SCALE
  5
2CE
102
{ACAD_REACTORS
330
2C7
102
}
330
2C7
100
AcDbScale
 70
     0
300
1:16
140
1.0
141
16.0
290
     0
  0
SCALE
  5
2CF
102
{ACAD_REACTORS
330
2C7
102
}
330
2C7
100
AcDbScale
 70
     0
300
1:20
140
1.0
141
20.0
290
     0
  0
SCALE
  5
2D0
102
{ACAD_REACTORS
330
2C7
102
}
330
2C7
100
AcDbScale
 70
     0
300
1:30
140
1.0
141
30.0
290
     0
  0
SCALE
  5
2D1
102
{ACAD_REACTORS
330
2C7
102
}
330
2C7
100
AcDbScale
 70
     0
300
1:40
140
1.0
141
40.0
290
     0
  0
SCALE
  5
2D2
102
{ACAD_REACTORS
330
2C7
102
}
330
2C7
100
AcDbScale
 70
     0
300
1:50
140
1.0
141
50.0
290
     0
  0
SCALE
  5
2D3
102
{ACAD_REACTORS
330
2C7
102
}
330
2C7
100
AcDbScale
 70
     0
300
1:100
140
1.0
141
100.0
290
     0
  0
SCALE
  5
2D4
102
{ACAD_REACTORS
330
2C7
102
}
330
2C7
100
AcDbScale
 70
     0
300
2:1
140
2.0
141
1.0
290
     0
  0
SCALE
  5
2D5
102
{ACAD_REACTORS
330
2C7
102
}
330
2C7
100
AcDbScale
 70
     0
300
4:1
140
4.0
141
1.0
290
     0
  0
SCALE
  5
2D6
102
{ACAD_REACTORS
330
2C7
102
}
330
2C7
100
AcDbScale
 70
     0
300
8:1
140
8.0
141
1.0
290
     0
  0
SCALE
  5
2D7
102
{ACAD_REACTORS
330
2C7
102
}
330
2C7
100
AcDbScale
 70
     0
300
10:1
140
10.0
141
1.0
290
     0
  0
SCALE
  5
2D8
102
{ACAD_REACTORS
330
2C7
102
}
330
2C7
100
AcDbScale
 70
     0
300
100:1
140
100.0
141
1.0
290
     0
  0
SCALE
  5
2D9
102
{ACAD_REACTORS
330
2C7
102
}
330
2C7
100
AcDbScale
 70
     0
300
1/128" = 1'-0"
140
0.0078125
141
12.0
290
     0
  0
SCALE
  5
2DA
102
{ACAD_REACTORS
330
2C7
102
}
330
2C7
100
AcDbScale
 70
     0
300
1/64" = 1'-0"
140
0.015625
141
12.0
290
     0
  0
SCALE
  5
2DB
102
{ACAD_REACTORS
330
2C7
102
}
330
2C7
100
AcDbScale
 70
     0
300
1/32" = 1'-0"
140
0.03125
141
12.0
290
     0
  0
SCALE
  5
2DC
102
{ACAD_REACTORS
330
2C7
102
}
330
2C7
100
AcDbScale
 70
     0
300
1/16" = 1'-0"
140
0.0625
141
12.0
290
     0
  0
SCALE
  5
2DD
102
{ACAD_REACTORS
330
2C7
102
}
330
2C7
100
AcDbScale
 70
     0
300
3/32" = 1'-0"
140
0.09375
141
12.0
290
     0
  0
SCALE
  5
2DE
102
{ACAD_REACTORS
330
2C7
102
}
330
2C7
100
AcDbScale
 70
     0
300
1/8" = 1'-0"
140
0.125
141
12.0
290
     0
  0
SCALE
  5
2DF
102
{ACAD_REACTORS
330
2C7
102
}
330
2C7
100
AcDbScale
 70
     0
300
3/16" = 1'-0"
140
0.1875
141
12.0
290
     0
  0
SCALE
  5
2E0
102
{ACAD_REACTORS
330
2C7
102
}
330
2C7
100
AcDbScale
 70
     0
300
1/4" = 1'-0"
140
0.25
141
12.0
290
     0
  0
SCALE
  5
2E1
102
{ACAD_REACTORS
330
2C7
102
}
330
2C7
100
AcDbScale
 70
     0
300
3/8" = 1'-0"
140
0.375
141
12.0
290
     0
  0
SCALE
  5
2E2
102
{ACAD_REACTORS
330
2C7
102
}
330
2C7
100
AcDbScale
 70
     0
300
1/2" = 1'-0"
140
0.5
141
12.0
290
     0
  0
SCALE
  5
2E3
102
{ACAD_REACTORS
330
2C7
102
}
330
2C7
100
AcDbScale
 70
     0
300
3/4" = 1'-0"
140
0.75
141
12.0
290
     0
  0
SCALE
  5
2E4
102
{ACAD_REACTORS
330
2C7
102
}
330
2C7
100
AcDbScale
 70
     0
300
1" = 1'-0"
140
1.0
141
12.0
290
     0
  0
SCALE
  5
2E5
102
{ACAD_REACTORS
330
2C7
102
}
330
2C7
100
AcDbScale
 70
     0
300
1-1/2" = 1'-0"
140
1.5
141
12.0
290
     0
  0
SCALE
  5
2E6
102
{ACAD_REACTORS
330
2C7
102
}
330
2C7
100
AcDbScale
 70
     0
300
3" = 1'-0"
140
3.0
141
12.0
290
     0
  0
SCALE
  5
2E7
102
{ACAD_REACTORS
330
2C7
102
}
330
2C7
100
AcDbScale
 70
     0
300
6" = 1'-0"
140
6.0
141
12.0
290
     0
  0
SCALE
  5
2E8
102
{ACAD_REACTORS
330
2C7
102
}
330
2C7
100
AcDbScale
 70
     0
300
1'-0" = 1'-0"
140
12.0
141
12.0
290
     0
  0
ACDBSECTIONVIEWSTYLE
  5
850
102
{ACAD_XDICTIONARY
360
898
102
}
102
{ACAD_REACTORS
330
84F
102
}
330
84F
100
AcDbModelDocViewStyle
 70
     0
  3
Metric50
290
     0
100
AcDbSectionViewStyle
 70
     0
 71
     0
 90
      102
 71
     1
340
11
 62
   256
 40
5.0
340
0
340
0
 62
   256
 40
5.0
300
I, O, Q, S, X, Z
 40
10.0
 90
        0
 40
2.5
 90
        0
 71
     2
340
16
 90
       25
 62
   256
340
16
 90
       50
 62
   256
 40
5.0
 40
2.5
 40
5.0
 71
     3
340
11
 62
   256
 40
5.0
 90
        0
 40
15.0
 90
        1
300
%<\AcVar ViewSectionStartId>%-%<\AcVar ViewSectionEndId>% (%<\AcVar ViewScale \f "%sn">%)
 71
     4
 62
   256
 62
   257
300
ANSI31
 40
1.0
 90
        0
290
     0
290
     0
 90
        6
 40
0.0
 40
1.570796326794896
 40
0.2617993877991494
 40
1.308996938995747
 40
-0.2617993877991494
 40
1.832595714594046
  0
TABLESTYLE
  5
84C
102
{ACAD_XDICTIONARY
360
896
102
}
102
{ACAD_REACTORS
330
84B
102
}
330
84B
100
AcDbTableStyle
280
     0
  3
Standard
 70
     0
 71
     0
 40
1.5
 41
1.5
280
     0
281
     0
  7
Standard
140
4.5
170
     2
 62
     0
 63
     7
283
     0
 90
      512
 91
        0
  1

274
    -2
284
     1
 64
     0
275
    -2
285
     1
 65
     0
276
    -2
286
     1
 66
     0
277
    -2
287
     1
 67
     0
278
    -2
288
     1
 68
     0
279
    -2
289
     1
 69
     0
  7
Standard
140
6.0
170
     5
 62
     0
 63
     7
283
     0
 90
      512
 91
        0
  1

274
    -2
284
     1
 64
     0
275
    -2
285
     1
 65
     0
276
    -2
286
     1
 66
     0
277
    -2
287
     1
 67
     0
278
    -2
288
     1
 68
     0
279
    -2
289
     1
 69
     0
  7
Standard
140
4.5
170
     5
 62
     0
 63
     7
283
     0
 90
      512
 91
        0
  1

274
    -2
284
     1
 64
     0
275
    -2
285
     1
 65
     0
276
    -2
286
     1
 66
     0
277
    -2
287
     1
 67
     0
278
    -2
288
     1
 68
     0
279
    -2
289
     1
 69
     0
  0
VISUALSTYLE
  5
838
102
{ACAD_REACTORS
330
832
102
}
330
832
100
AcDbVisualStyle
  2
2dWireframe
 70
     4
177
     3
291
     0
 70
    58
 90
        0
176
     1
 90
        2
176
     1
 90
        0
176
     1
 90
        0
176
     1
 40
0.6
176
     1
 40
30.0
176
     1
 62
     7
420
 16777215
176
     1
 90
        1
176
     1
 90
        4
176
     1
 62
     7
176
     1
 62
   257
176
     1
 90
        1
176
     1
 90
        1
176
     1
 40
1.0
176
     1
 90
        0
176
     1
 62
   257
176
     1
 40
1.0
176
     1
 90
        1
176
     1
 90
        6
176
     1
 90
        2
176
     1
 62
     7
176
     1
 90
        5
176
     1
 90
        0
176
     1
 90
        0
176
     1
290
     0
176
     1
 90
        1
176
     1
 40
0.0
176
     1
 90
        0
176
     1
290
     1
176
     1
290
     1
176
     1
290
     0
176
     1
290
     0
176
     1
290
     0
176
     1
290
     0
176
     1
290
     0
176
     1
290
     0
176
     1
290
     0
176
     1
 90
       50
176
     1
 40
0.0
176
     1
 40
1.0
176
     1
 90
        0
176
     1
 62
    18
420
        0
176
     1
 90
       50
176
     1
 90
        3
176
     1
 62
     5
420
      255
176
     1
290
     0
176
     1
 90
       50
176
     1
 90
       50
176
     1
 90
       50
176
     1
290
     0
176
     1
 90
       50
176
     1
 62
   256
176
     0
 40
1.0
176
     0
 90
        2
176
     1
  1
strokes_ogs.tif
176
     1
290
     0
176
     1
 40
1.0
176
     1
 40
1.0
176
     1
  0
VISUALSTYLE
  5
837
102
{ACAD_REACTORS
330
832
102
}
330
832
100
AcDbVisualStyle
  2
Basic
 70
     7
177
     3
291
     1
 70
    58
 90
        1
176
     1
 90
        0
176
     1
 90
        1
176
     1
 90
        0
176
     1
 40
0.6
176
     1
 40
30.0
176
     1
 62
     7
420
 16777215
176
     1
 90
        0
176
     1
 90
        4
176
     1
 62
     7
176
     1
 62
   257
176
     1
 90
        1
176
     1
 90
        1
176
     1
 40
1.0
176
     1
 90
        8
176
     1
 62
     7
176
     1
 40
1.0
176
     1
 90
        1
176
     1
 90
        6
176
     1
 90
        2
176
     1
 62
     7
176
     1
 90
        5
176
     1
 90
        0
176
     1
 90
        0
176
     1
290
     0
176
     1
 90
        1
176
     1
 40
0.0
176
     1
 90
        0
176
     1
290
     0
176
     1
290
     1
176
     1
290
     1
176
     1
290
     0
176
     1
290
     0
176
     1
290
     0
176
     1
290
     0
176
     1
290
     0
176
     1
290
     0
176
     1
 90
       50
176
     1
 40
0.0
176
     1
 40
1.0
176
     1
 90
        0
176
     1
 62
    18
420
        0
176
     1
 90
       50
176
     1
 90
        3
176
     1
 62
     5
420
      255
176
     1
290
     0
176
     1
 90
       50
176
     1
 90
       50
176
     1
 90
       50
176
     1
290
     0
176
     1
 90
       50
176
     1
 62
   256
176
     0
 40
1.0
176
     0
 90
        2
176
     1
  1
strokes_ogs.tif
176
     1
290
     0
176
     1
 40
1.0
176
     1
 40
1.0
176
     1
  0
VISUALSTYLE
  5
83E
102
{ACAD_REACTORS
330
832
102
}
330
832
100
AcDbVisualStyle
  2
Brighten
 70
    12
177
     3
291
     1
 70
    58
 90
        2
176
     1
 90
        2
176
     1
 90
        0
176
     1
 90
        0
176
     1
 40
0.6
176
     1
 40
30.0
176
     1
 62
     7
420
 16777215
176
     1
 90
        1
176
     1
 90
        4
176
     1
 62
     7
176
     1
 62
   257
176
     1
 90
        1
176
     1
 90
        1
176
     1
 40
1.0
176
     1
 90
        8
176
     1
 62
     7
176
     1
 40
1.0
176
     1
 90
        1
176
     1
 90
        6
176
     1
 90
        2
176
     1
 62
     7
176
     1
 90
        5
176
     1
 90
        0
176
     1
 90
        0
176
     1
290
     0
176
     1
 90
        1
176
     1
 40
50.0
176
     1
 90
        0
176
     1
290
     0
176
     1
290
     1
176
     1
290
     1
176
     1
290
     0
176
     1
290
     0
176
     1
290
     0
176
     1
290
     0
176
     1
290
     0
176
     1
290
     0
176
     1
 90
       50
176
     1
 40
0.0
176
     1
 40
1.0
176
     1
 90
        0
176
     1
 62
    18
420
        0
176
     1
 90
       50
176
     1
 90
        3
176
     1
 62
     5
420
      255
176
     1
290
     0
176
     1
 90
       50
176
     1
 90
       50
176
     1
 90
       50
176
     1
290
     0
176
     1
 90
       50
176
     1
 62
   256
176
     0
 40
1.0
176
     0
 90
        2
176
     1
  1
strokes_ogs.tif
176
     1
290
     0
176
     1
 40
1.0
176
     1
 40
1.0
176
     1
  0
VISUALSTYLE
  5
842
102
{ACAD_REACTORS
330
832
102
}
330
832
100
AcDbVisualStyle
  2
ColorChange
 70
    16
177
     3
291
     1
 70
    58
 90
        2
176
     1
 90
        2
176
     1
 90
        3
176
     1
 90
        0
176
     1
 40
0.6
176
     1
 40
30.0
176
     1
 62
     8
420
  8421504
176
     1
 90
        1
176
     1
 90
        4
176
     1
 62
     7
176
     1
 62
   257
176
     1
 90
        1
176
     1
 90
        1
176
     1
 40
1.0
176
     1
 90
        8
176
     1
 62
     8
420
  8421504
176
     1
 40
1.0
176
     1
 90
        1
176
     1
 90
        6
176
     1
 90
        2
176
     1
 62
     7
176
     1
 90
        5
176
     1
 90
        0
176
     1
 90
        0
176
     1
290
     0
176
     1
 90
        1
176
     1
 40
0.0
176
     1
 90
        0
176
     1
290
     0
176
     1
290
     1
176
     1
290
     1
176
     1
290
     0
176
     1
290
     0
176
     1
290
     0
176
     1
290
     0
176
     1
290
     0
176
     1
290
     0
176
     1
 90
       50
176
     1
 40
0.0
176
     1
 40
1.0
176
     1
 90
        0
176
     1
 62
    18
420
        0
176
     1
 90
       50
176
     1
 90
        3
176
     1
 62
     5
420
      255
176
     1
290
     0
176
     1
 90
       50
176
     1
 90
       50
176
     1
 90
       50
176
     1
290
     0
176
     1
 90
       50
176
     1
 62
   256
176
     0
 40
1.0
176
     0
 90
        2
176
     1
  1
strokes_ogs.tif
176
     1
290
     0
176
     1
 40
1.0
176
     1
 40
1.0
176
     1
  0
VISUALSTYLE
  5
83B
102
{ACAD_REACTORS
330
832
102
}
330
832
100
AcDbVisualStyle
  2
Conceptual
 70
     9
177
     3
291
     0
 70
    58
 90
        3
176
     1
 90
        2
176
     1
 90
        0
176
     1
 90
        0
176
     1
 40
0.6
176
     1
 40
30.0
176
     1
 62
     7
420
 16777215
176
     1
 90
        2
176
     1
 90
        2
176
     1
 62
     7
176
     1
 62
   257
176
     1
 90
        1
176
     1
 90
        1
176
     1
 40
179.0
176
     1
 90
        8
176
     1
 62
     7
176
     1
 40
1.0
176
     1
 90
        1
176
     1
 90
        6
176
     1
 90
        2
176
     1
 62
     7
176
     1
 90
        3
176
     1
 90
        0
176
     1
 90
        0
176
     1
290
     0
176
     1
 90
        1
176
     1
 40
0.0
176
     1
 90
        0
176
     1
290
     0
176
     1
290
     1
176
     1
290
     1
176
     1
290
     0
176
     1
290
     0
176
     1
290
     0
176
     1
290
     0
176
     1
290
     0
176
     1
290
     0
176
     1
 90
       50
176
     1
 40
0.0
176
     1
 40
1.0
176
     1
 90
        0
176
     1
 62
    18
420
        0
176
     1
 90
       50
176
     1
 90
        3
176
     1
 62
     5
420
      255
176
     1
290
     0
176
     1
 90
       50
176
     1
 90
       50
176
     1
 90
       50
176
     1
290
     0
176
     1
 90
       50
176
     1
 62
   256
176
     0
 40
1.0
176
     0
 90
        2
176
     1
  1
strokes_ogs.tif
176
     1
290
     0
176
     1
 40
1.0
176
     1
 40
1.0
176
     1
  0
VISUALSTYLE
  5
83D
102
{ACAD_REACTORS
330
832
102
}
330
832
100
AcDbVisualStyle
  2
Dim
 70
    11
177
     3
291
     1
 70
    58
 90
        2
176
     1
 90
        2
176
     1
 90
        0
176
     1
 90
        0
176
     1
 40
0.6
176
     1
 40
30.0
176
     1
 62
     7
420
 16777215
176
     1
 90
        1
176
     1
 90
        4
176
     1
 62
     7
176
     1
 62
   257
176
     1
 90
        1
176
     1
 90
        1
176
     1
 40
1.0
176
     1
 90
        8
176
     1
 62
     7
176
     1
 40
1.0
176
     1
 90
        1
176
     1
 90
        6
176
     1
 90
        2
176
     1
 62
     7
176
     1
 90
        5
176
     1
 90
        0
176
     1
 90
        0
176
     1
290
     0
176
     1
 90
        1
176
     1
 40
-50.0
176
     1
 90
        0
176
     1
290
     0
176
     1
290
     1
176
     1
290
     1
176
     1
290
     0
176
     1
290
     0
176
     1
290
     0
176
     1
290
     0
176
     1
290
     0
176
     1
290
     0
176
     1
 90
       50
176
     1
 40
0.0
176
     1
 40
1.0
176
     1
 90
        0
176
     1
 62
    18
420
        0
176
     1
 90
       50
176
     1
 90
        3
176
     1
 62
     5
420
      255
176
     1
290
     0
176
     1
 90
       50
176
     1
 90
       50
176
     1
 90
       50
176
     1
290
     0
176
     1
 90
       50
176
     1
 62
   256
176
     0
 40
1.0
176
     0
 90
        2
176
     1
  1
strokes_ogs.tif
176
     1
290
     0
176
     1
 40
1.0
176
     1
 40
1.0
176
     1
  0
VISUALSTYLE
  5
84A
102
{ACAD_REACTORS
330
832
102
}
330
832
100
AcDbVisualStyle
  2
EdgeColorOff
 70
    22
177
     3
291
     1
 70
    58
 90
        2
176
     0
 90
        2
176
     0
 90
        0
176
     0
 90
        0
176
     0
 40
0.6
176
     0
 40
30.0
176
     0
 62
     7
420
 16777215
176
     0
 90
        1
176
     0
 90
        4
176
     0
 62
     7
176
     0
 62
   257
176
     0
 90
        1
176
     0
 90
        1
176
     0
 40
1.0
176
     0
 90
        8
176
     2
 62
     7
176
     0
 40
1.0
176
     0
 90
        1
176
     0
 90
        6
176
     0
 90
        2
176
     0
 62
     7
176
     0
 90
        5
176
     0
 90
        0
176
     0
 90
        0
176
     0
290
     0
176
     0
 90
        1
176
     0
 40
0.0
176
     0
 90
        0
176
     0
290
     0
176
     0
290
     1
176
     0
290
     1
176
     0
290
     0
176
     0
290
     0
176
     0
290
     0
176
     0
290
     0
176
     0
290
     0
176
     0
290
     0
176
     0
 90
       50
176
     0
 40
0.0
176
     0
 40
1.0
176
     0
 90
        0
176
     0
 62
    18
420
        0
176
     0
 90
       50
176
     0
 90
        3
176
     0
 62
     5
420
      255
176
     0
290
     0
176
     0
 90
       50
176
     0
 90
       50
176
     0
 90
       50
176
     0
290
     0
176
     0
 90
       50
176
     0
 62
   256
176
     0
 40
1.0
176
     0
 90
        2
176
     0
  1
strokes_ogs.tif
176
     0
290
     0
176
     0
 40
1.0
176
     0
 40
1.0
176
     0
  0
VISUALSTYLE
  5
841
102
{ACAD_REACTORS
330
832
102
}
330
832
100
AcDbVisualStyle
  2
Facepattern
 70
    15
177
     3
291
     1
 70
    58
 90
        2
176
     1
 90
        2
176
     1
 90
        0
176
     1
 90
        0
176
     1
 40
0.6
176
     1
 40
30.0
176
     1
 62
     7
420
 16777215
176
     1
 90
        1
176
     1
 90
        4
176
     1
 62
     7
176
     1
 62
   257
176
     1
 90
        1
176
     1
 90
        1
176
     1
 40
1.0
176
     1
 90
        8
176
     1
 62
     7
176
     1
 40
1.0
176
     1
 90
        1
176
     1
 90
        6
176
     1
 90
        2
176
     1
 62
     7
176
     1
 90
        5
176
     1
 90
        0
176
     1
 90
        0
176
     1
290
     0
176
     1
 90
        1
176
     1
 40
0.0
176
     1
 90
        0
176
     1
290
     0
176
     1
290
     1
176
     1
290
     1
176
     1
290
     0
176
     1
290
     0
176
     1
290
     0
176
     1
290
     0
176
     1
290
     0
176
     1
290
     0
176
     1
 90
       50
176
     1
 40
0.0
176
     1
 40
1.0
176
     1
 90
        0
176
     1
 62
    18
420
        0
176
     1
 90
       50
176
     1
 90
        3
176
     1
 62
     5
420
      255
176
     1
290
     0
176
     1
 90
       50
176
     1
 90
       50
176
     1
 90
       50
176
     1
290
     0
176
     1
 90
       50
176
     1
 62
   256
176
     0
 40
1.0
176
     0
 90
        2
176
     1
  1
strokes_ogs.tif
176
     1
290
     0
176
     1
 40
1.0
176
     1
 40
1.0
176
     1
  0
VISUALSTYLE
  5
833
102
{ACAD_REACTORS
330
832
102
}
330
832
100
AcDbVisualStyle
  2
Flat
 70
     0
177
     3
291
     1
 70
    58
 90
        2
176
     1
 90
        1
176
     1
 90
        1
176
     1
 90
        2
176
     1
 40
0.6
176
     1
 40
30.0
176
     1
 62
     7
420
 16777215
176
     1
 90
        0
176
     1
 90
        0
176
     1
 62
     7
176
     1
 62
   257
176
     1
 90
        1
176
     1
 90
        1
176
     1
 40
1.0
176
     1
 90
        8
176
     1
 62
     7
176
     1
 40
1.0
176
     1
 90
        1
176
     1
 90
        6
176
     1
 90
        2
176
     1
 62
     7
176
     1
 90
        5
176
     1
 90
        0
176
     1
 90
        0
176
     1
290
     0
176
     1
 90
       13
176
     1
 40
0.0
176
     1
 90
        0
176
     1
290
     0
176
     1
290
     1
176
     1
290
     1
176
     1
290
     0
176
     1
290
     0
176
     1
290
     0
176
     1
290
     0
176
     1
290
     0
176
     1
290
     0
176
     1
 90
       50
176
     1
 40
0.0
176
     1
 40
1.0
176
     1
 90
        0
176
     1
 62
    18
420
        0
176
     1
 90
       50
176
     1
 90
        3
176
     1
 62
     5
420
      255
176
     1
290
     0
176
     1
 90
       50
176
     1
 90
       50
176
     1
 90
       50
176
     1
290
     0
176
     1
 90
       50
176
     1
 62
   256
176
     0
 40
1.0
176
     0
 90
        2
176
     1
  1
strokes_ogs.tif
176
     1
290
     0
176
     1
 40
1.0
176
     1
 40
1.0
176
     1
  0
VISUALSTYLE
  5
834
102
{ACAD_REACTORS
330
832
102
}
330
832
100
AcDbVisualStyle
  2
FlatWithEdges
 70
     1
177
     3
291
     1
 70
    58
 90
        2
176
     1
 90
        1
176
     1
 90
        1
176
     1
 90
        2
176
     1
 40
0.6
176
     1
 40
30.0
176
     1
 62
     7
420
 16777215
176
     1
 90
        1
176
     1
 90
        0
176
     1
 62
     7
176
     1
 62
   257
176
     1
 90
        1
176
     1
 90
        1
176
     1
 40
1.0
176
     1
 90
        0
176
     1
 62
   257
176
     1
 40
1.0
176
     1
 90
        1
176
     1
 90
        6
176
     1
 90
        2
176
     1
 62
     7
176
     1
 90
        5
176
     1
 90
        0
176
     1
 90
        0
176
     1
290
     0
176
     1
 90
       13
176
     1
 40
0.0
176
     1
 90
        0
176
     1
290
     0
176
     1
290
     1
176
     1
290
     1
176
     1
290
     0
176
     1
290
     0
176
     1
290
     0
176
     1
290
     0
176
     1
290
     0
176
     1
290
     0
176
     1
 90
       50
176
     1
 40
0.0
176
     1
 40
1.0
176
     1
 90
        0
176
     1
 62
    18
420
        0
176
     1
 90
       50
176
     1
 90
        3
176
     1
 62
     5
420
      255
176
     1
290
     0
176
     1
 90
       50
176
     1
 90
       50
176
     1
 90
       50
176
     1
290
     0
176
     1
 90
       50
176
     1
 62
   256
176
     0
 40
1.0
176
     0
 90
        2
176
     1
  1
strokes_ogs.tif
176
     1
290
     0
176
     1
 40
1.0
176
     1
 40
1.0
176
     1
  0
VISUALSTYLE
  5
835
102
{ACAD_REACTORS
330
832
102
}
330
832
100
AcDbVisualStyle
  2
Gouraud
 70
     2
177
     3
291
     1
 70
    58
 90
        2
176
     1
 90
        2
176
     1
 90
        1
176
     1
 90
        2
176
     1
 40
0.6
176
     1
 40
30.0
176
     1
 62
     7
420
 16777215
176
     1
 90
        0
176
     1
 90
        0
176
     1
 62
     7
176
     1
 62
   257
176
     1
 90
        1
176
     1
 90
        1
176
     1
 40
1.0
176
     1
 90
        0
176
     1
 62
     7
176
     1
 40
1.0
176
     1
 90
        1
176
     1
 90
        6
176
     1
 90
        2
176
     1
 62
     7
176
     1
 90
        5
176
     1
 90
        0
176
     1
 90
        0
176
     1
290
     0
176
     1
 90
       13
176
     1
 40
0.0
176
     1
 90
        0
176
     1
290
     0
176
     1
290
     1
176
     1
290
     1
176
     1
290
     0
176
     1
290
     0
176
     1
290
     0
176
     1
290
     0
176
     1
290
     0
176
     1
290
     0
176
     1
 90
       50
176
     1
 40
0.0
176
     1
 40
1.0
176
     1
 90
        0
176
     1
 62
    18
420
        0
176
     1
 90
       50
176
     1
 90
        3
176
     1
 62
     5
420
      255
176
     1
290
     0
176
     1
 90
       50
176
     1
 90
       50
176
     1
 90
       50
176
     1
290
     0
176
     1
 90
       50
176
     1
 62
   256
176
     0
 40
1.0
176
     0
 90
        2
176
     1
  1
strokes_ogs.tif
176
     1
290
     0
176
     1
 40
1.0
176
     1
 40
1.0
176
     1
  0
VISUALSTYLE
  5
836
102
{ACAD_REACTORS
330
832
102
}
330
832
100
AcDbVisualStyle
  2
GouraudWithEdges
 70
     3
177
     3
291
     1
 70
    58
 90
        2
176
     1
 90
        2
176
     1
 90
        1
176
     1
 90
        2
176
     1
 40
0.6
176
     1
 40
30.0
176
     1
 62
     7
420
 16777215
176
     1
 90
        1
176
     1
 90
        0
176
     1
 62
     7
176
     1
 62
   257
176
     1
 90
        1
176
     1
 90
        1
176
     1
 40
1.0
176
     1
 90
        0
176
     1
 62
   257
176
     1
 40
1.0
176
     1
 90
        1
176
     1
 90
        6
176
     1
 90
        2
176
     1
 62
     7
176
     1
 90
        5
176
     1
 90
        0
176
     1
 90
        0
176
     1
290
     0
176
     1
 90
       13
176
     1
 40
0.0
176
     1
 90
        0
176
     1
290
     0
176
     1
290
     1
176
     1
290
     1
176
     1
290
     0
176
     1
290
     0
176
     1
290
     0
176
     1
290
     0
176
     1
290
     0
176
     1
290
     0
176
     1
 90
       50
176
     1
 40
0.0
176
     1
 40
1.0
176
     1
 90
        0
176
     1
 62
    18
420
        0
176
     1
 90
       50
176
     1
 90
        3
176
     1
 62
     5
420
      255
176
     1
290
     0
176
     1
 90
       50
176
     1
 90
       50
176
     1
 90
       50
176
     1
290
     0
176
     1
 90
       50
176
     1
 62
   256
176
     0
 40
1.0
176
     0
 90
        2
176
     1
  1
strokes_ogs.tif
176
     1
290
     0
176
     1
 40
1.0
176
     1
 40
1.0
176
     1
  0
VISUALSTYLE
  5
83A
102
{ACAD_REACTORS
330
832
102
}
330
832
100
AcDbVisualStyle
  2
Hidden
 70
     6
177
     3
291
     0
 70
    58
 90
        1
176
     1
 90
        2
176
     1
 90
        2
176
     1
 90
        0
176
     1
 40
0.6
176
     1
 40
30.0
176
     1
 62
     7
420
 16777215
176
     1
 90
        2
176
     1
 90
        2
176
     1
 62
     7
176
     1
 62
   257
176
     1
 90
        2
176
     1
 90
        1
176
     1
 40
40.0
176
     1
 90
        0
176
     1
 62
   257
176
     1
 40
1.0
176
     1
 90
        1
176
     1
 90
        6
176
     1
 90
        2
176
     1
 62
     7
176
     1
 90
        3
176
     1
 90
        0
176
     1
 90
        0
176
     1
290
     0
176
     1
 90
        1
176
     1
 40
0.0
176
     1
 90
        0
176
     1
290
     0
176
     1
290
     1
176
     1
290
     1
176
     1
290
     0
176
     1
290
     0
176
     1
290
     0
176
     1
290
     0
176
     1
290
     0
176
     1
290
     0
176
     1
 90
       50
176
     1
 40
0.0
176
     1
 40
1.0
176
     1
 90
        0
176
     1
 62
    18
420
        0
176
     1
 90
       50
176
     1
 90
        3
176
     1
 62
     5
420
      255
176
     1
290
     0
176
     1
 90
       50
176
     1
 90
       50
176
     1
 90
       50
176
     1
290
     0
176
     1
 90
       50
176
     1
 62
   256
176
     0
 40
1.0
176
     0
 90
        2
176
     1
  1
strokes_ogs.tif
176
     1
290
     0
176
     1
 40
1.0
176
     1
 40
1.0
176
     1
  0
VISUALSTYLE
  5
848
102
{ACAD_REACTORS
330
832
102
}
330
832
100
AcDbVisualStyle
  2
JitterOff
 70
    20
177
     3
291
     1
 70
    58
 90
        2
176
     0
 90
        2
176
     0
 90
        0
176
     0
 90
        0
176
     0
 40
0.6
176
     0
 40
30.0
176
     0
 62
     7
420
 16777215
176
     0
 90
        1
176
     0
 90
        4
176
     0
 62
     7
176
     0
 62
   257
176
     0
 90
        1
176
     0
 90
        1
176
     0
 40
1.0
176
     0
 90
       10
176
     2
 62
     7
176
     0
 40
1.0
176
     0
 90
        1
176
     0
 90
        6
176
     0
 90
        2
176
     0
 62
     7
176
     0
 90
        5
176
     0
 90
        0
176
     0
 90
        0
176
     0
290
     0
176
     0
 90
        1
176
     0
 40
0.0
176
     0
 90
        0
176
     0
290
     0
176
     0
290
     1
176
     0
290
     1
176
     0
290
     0
176
     0
290
     0
176
     0
290
     0
176
     0
290
     0
176
     0
290
     0
176
     0
290
     0
176
     0
 90
       50
176
     0
 40
0.0
176
     0
 40
1.0
176
     0
 90
        0
176
     0
 62
    18
420
        0
176
     0
 90
       50
176
     0
 90
        3
176
     0
 62
     5
420
      255
176
     0
290
     0
176
     0
 90
       50
176
     0
 90
       50
176
     0
 90
       50
176
     0
290
     0
176
     0
 90
       50
176
     0
 62
   256
176
     0
 40
1.0
176
     0
 90
        2
176
     0
  1
strokes_ogs.tif
176
     0
290
     0
176
     0
 40
1.0
176
     0
 40
1.0
176
     0
  0
VISUALSTYLE
  5
840
102
{ACAD_REACTORS
330
832
102
}
330
832
100
AcDbVisualStyle
  2
Linepattern
 70
    14
177
     3
291
     1
 70
    58
 90
        2
176
     1
 90
        2
176
     1
 90
        0
176
     1
 90
        0
176
     1
 40
0.6
176
     1
 40
30.0
176
     1
 62
     7
420
 16777215
176
     1
 90
        1
176
     1
 90
        4
176
     1
 62
     7
176
     1
 62
   257
176
     1
 90
        7
176
     1
 90
        7
176
     1
 40
1.0
176
     1
 90
        8
176
     1
 62
     7
176
     1
 40
1.0
176
     1
 90
        1
176
     1
 90
        6
176
     1
 90
        2
176
     1
 62
     7
176
     1
 90
        5
176
     1
 90
        0
176
     1
 90
        0
176
     1
290
     0
176
     1
 90
        1
176
     1
 40
0.0
176
     1
 90
        0
176
     1
290
     0
176
     1
290
     1
176
     1
290
     1
176
     1
290
     0
176
     1
290
     0
176
     1
290
     0
176
     1
290
     0
176
     1
290
     0
176
     1
290
     0
176
     1
 90
       50
176
     1
 40
0.0
176
     1
 40
1.0
176
     1
 90
        0
176
     1
 62
    18
420
        0
176
     1
 90
       50
176
     1
 90
        3
176
     1
 62
     5
420
      255
176
     1
290
     0
176
     1
 90
       50
176
     1
 90
       50
176
     1
 90
       50
176
     1
290
     0
176
     1
 90
       50
176
     1
 62
   256
176
     0
 40
1.0
176
     0
 90
        2
176
     1
  1
strokes_ogs.tif
176
     1
290
     0
176
     1
 40
1.0
176
     1
 40
1.0
176
     1
  0
VISUALSTYLE
  5
849
102
{ACAD_REACTORS
330
832
102
}
330
832
100
AcDbVisualStyle
  2
OverhangOff
 70
    21
177
     3
291
     1
 70
    58
 90
        2
176
     0
 90
        2
176
     0
 90
        0
176
     0
 90
        0
176
     0
 40
0.6
176
     0
 40
30.0
176
     0
 62
     7
420
 16777215
176
     0
 90
        1
176
     0
 90
        4
176
     0
 62
     7
176
     0
 62
   257
176
     0
 90
        1
176
     0
 90
        1
176
     0
 40
1.0
176
     0
 90
        9
176
     2
 62
     7
176
     0
 40
1.0
176
     0
 90
        1
176
     0
 90
        6
176
     0
 90
        2
176
     0
 62
     7
176
     0
 90
        5
176
     0
 90
        0
176
     0
 90
        0
176
     0
290
     0
176
     0
 90
        1
176
     0
 40
0.0
176
     0
 90
        0
176
     0
290
     0
176
     0
290
     1
176
     0
290
     1
176
     0
290
     0
176
     0
290
     0
176
     0
290
     0
176
     0
290
     0
176
     0
290
     0
176
     0
290
     0
176
     0
 90
       50
176
     0
 40
0.0
176
     0
 40
1.0
176
     0
 90
        0
176
     0
 62
    18
420
        0
176
     0
 90
       50
176
     0
 90
        3
176
     0
 62
     5
420
      255
176
     0
290
     0
176
     0
 90
       50
176
     0
 90
       50
176
     0
 90
       50
176
     0
290
     0
176
     0
 90
       50
176
     0
 62
   256
176
     0
 40
1.0
176
     0
 90
        2
176
     0
  1
strokes_ogs.tif
176
     0
290
     0
176
     0
 40
1.0
176
     0
 40
1.0
176
     0
  0
VISUALSTYLE
  5
83C
102
{ACAD_REACTORS
330
832
102
}
330
832
100
AcDbVisualStyle
  2
Realistic
 70
     8
177
     3
291
     0
 70
    58
 90
        2
176
     1
 90
        3
176
     1
 90
        0
176
     1
 90
        2
176
     1
 40
0.6
176
     1
 40
30.0
176
     1
 62
     7
420
 16777215
176
     1
 90
        0
176
     1
 90
        0
176
     1
 62
     7
176
     1
 62
   257
176
     1
 90
        1
176
     1
 90
        1
176
     1
 40
1.0
176
     1
 90
        8
176
     1
 62
   257
176
     1
 40
1.0
176
     1
 90
        1
176
     1
 90
        6
176
     1
 90
        2
176
     1
 62
     7
176
     1
 90
        3
176
     1
 90
        0
176
     1
 90
        0
176
     1
290
     0
176
     1
 90
       13
176
     1
 40
0.0
176
     1
 90
        0
176
     1
290
     0
176
     1
290
     1
176
     1
290
     1
176
     1
290
     0
176
     1
290
     0
176
     1
290
     0
176
     1
290
     0
176
     1
290
     0
176
     1
290
     0
176
     1
 90
       50
176
     1
 40
0.0
176
     1
 40
1.0
176
     1
 90
        0
176
     1
 62
    18
420
        0
176
     1
 90
       50
176
     1
 90
        3
176
     1
 62
     5
420
      255
176
     1
290
     0
176
     1
 90
       50
176
     1
 90
       50
176
     1
 90
       50
176
     1
290
     0
176
     1
 90
       50
176
     1
 62
   256
176
     0
 40
1.0
176
     0
 90
        2
176
     1
  1
strokes_ogs.tif
176
     1
290
     0
176
     1
 40
1.0
176
     1
 40
1.0
176
     1
  0
VISUALSTYLE
  5
847
102
{ACAD_REACTORS
330
832
102
}
330
832
100
AcDbVisualStyle
  2
Shaded
 70
    27
177
     3
291
     0
 70
    58
 90
        2
176
     1
 90
        2
176
     1
 90
        1
176
     1
 90
        2
176
     1
 40
0.6
176
     1
 40
30.0
176
     1
 62
     7
420
 16777215
176
     1
 90
        0
176
     1
 90
        4
176
     1
 62
     7
176
     1
 62
   257
176
     1
 90
        1
176
     1
 90
        1
176
     1
 40
1.0
176
     1
 90
        8
176
     1
 62
   257
176
     1
 40
1.0
176
     1
 90
        1
176
     1
 90
        6
176
     1
 90
        2
176
     1
 62
     8
420
  7895160
176
     1
 90
        3
176
     1
 90
        0
176
     1
 90
        0
176
     1
290
     0
176
     1
 90
        5
176
     1
 40
0.0
176
     1
 90
        0
176
     1
290
     0
176
     1
290
     1
176
     1
290
     1
176
     1
290
     0
176
     1
290
     0
176
     1
290
     0
176
     1
290
     0
176
     1
290
     0
176
     1
290
     0
176
     1
 90
       50
176
     1
 40
0.0
176
     1
 40
1.0
176
     1
 90
        0
176
     1
 62
    18
420
        0
176
     1
 90
       50
176
     1
 90
        3
176
     1
 62
     5
420
      255
176
     1
290
     0
176
     1
 90
       50
176
     1
 90
       50
176
     1
 90
       50
176
     1
290
     0
176
     1
 90
       50
176
     1
 62
   256
176
     0
 40
1.0
176
     0
 90
        2
176
     1
  1
strokes_ogs.tif
176
     1
290
     0
176
     1
 40
1.0
176
     1
 40
1.0
176
     1
  0
VISUALSTYLE
  5
846
102
{ACAD_REACTORS
330
832
102
}
330
832
100
AcDbVisualStyle
  2
Shaded with edges
 70
    26
177
     3
291
     0
 70
    58
 90
        2
176
     1
 90
        2
176
     1
 90
        1
176
     1
 90
        2
176
     1
 40
0.6
176
     1
 40
30.0
176
     1
 62
     7
420
 16777215
176
     1
 90
        1
176
     1
 90
        2
176
     1
 62
     7
176
     1
 62
   257
176
     1
 90
        2
176
     1
 90
        1
176
     1
 40
1.0
176
     1
 90
        8
176
     1
 62
   257
176
     1
 40
1.0
176
     1
 90
        1
176
     1
 90
        6
176
     1
 90
        2
176
     1
 62
     7
176
     1
 90
        3
176
     1
 90
        0
176
     1
 90
        0
176
     1
290
     0
176
     1
 90
        5
176
     1
 40
0.0
176
     1
 90
        0
176
     1
290
     0
176
     1
290
     1
176
     1
290
     1
176
     1
290
     0
176
     1
290
     0
176
     1
290
     0
176
     1
290
     0
176
     1
290
     0
176
     1
290
     0
176
     1
 90
       50
176
     1
 40
0.0
176
     1
 40
1.0
176
     1
 90
        0
176
     1
 62
    18
420
        0
176
     1
 90
       50
176
     1
 90
        3
176
     1
 62
     5
420
      255
176
     1
290
     0
176
     1
 90
       50
176
     1
 90
       50
176
     1
 90
       50
176
     1
290
     0
176
     1
 90
       50
176
     1
 62
   256
176
     0
 40
1.0
176
     0
 90
        2
176
     1
  1
strokes_ogs.tif
176
     1
290
     0
176
     1
 40
1.0
176
     1
 40
1.0
176
     1
  0
VISUALSTYLE
  5
843
102
{ACAD_REACTORS
330
832
102
}
330
832
100
AcDbVisualStyle
  2
Shades of Gray
 70
    23
177
     3
291
     0
 70
    58
 90
        2
176
     1
 90
        2
176
     1
 90
        3
176
     1
 90
        0
176
     1
 40
0.6
176
     1
 40
30.0
176
     1
 62
     7
420
 16777215
176
     1
 90
        2
176
     1
 90
        2
176
     1
 62
     7
176
     1
 62
     7
176
     1
 90
        1
176
     1
 90
        1
176
     1
 40
40.0
176
     1
 90
        8
176
     1
 62
     7
176
     1
 40
1.0
176
     1
 90
        1
176
     1
 90
        6
176
     1
 90
        2
176
     1
 62
     7
176
     1
 90
        3
176
     1
 90
        0
176
     1
 90
        0
176
     1
290
     0
176
     1
 90
        1
176
     1
 40
0.0
176
     1
 90
        0
176
     1
290
     0
176
     1
290
     1
176
     1
290
     1
176
     1
290
     0
176
     1
290
     0
176
     1
290
     0
176
     1
290
     0
176
     1
290
     0
176
     1
290
     0
176
     1
 90
       50
176
     1
 40
0.0
176
     1
 40
1.0
176
     1
 90
        0
176
     1
 62
    18
420
        0
176
     1
 90
       50
176
     1
 90
        3
176
     1
 62
     5
420
      255
176
     1
290
     0
176
     1
 90
       50
176
     1
 90
       50
176
     1
 90
       50
176
     1
290
     0
176
     1
 90
       50
176
     1
 62
   256
176
     0
 40
1.0
176
     0
 90
        2
176
     1
  1
strokes_ogs.tif
176
     1
290
     0
176
     1
 40
1.0
176
     1
 40
1.0
176
     1
  0
VISUALSTYLE
  5
844
102
{ACAD_REACTORS
330
832
102
}
330
832
100
AcDbVisualStyle
  2
Sketchy
 70
    24
177
     3
291
     0
 70
    58
 90
        1
176
     1
 90
        2
176
     1
 90
        2
176
     1
 90
        0
176
     1
 40
0.6
176
     1
 40
30.0
176
     1
 62
     7
420
 16777215
176
     1
 90
        2
176
     1
 90
        2
176
     1
 62
     7
176
     1
 62
     7
176
     1
 90
        1
176
     1
 90
        1
176
     1
 40
40.0
176
     1
 90
       11
176
     1
 62
     7
176
     1
 40
1.0
176
     1
 90
        1
176
     1
 90
        6
176
     1
 90
        2
176
     1
 62
     7
176
     1
 90
        6
176
     1
 90
        0
176
     1
 90
        0
176
     1
290
     0
176
     1
 90
        1
176
     1
 40
0.0
176
     1
 90
        0
176
     1
290
     0
176
     1
290
     1
176
     1
290
     1
176
     1
290
     0
176
     1
290
     0
176
     1
290
     0
176
     1
290
     0
176
     1
290
     0
176
     1
290
     0
176
     1
 90
       50
176
     1
 40
0.0
176
     1
 40
1.0
176
     1
 90
        0
176
     1
 62
    18
420
        0
176
     1
 90
       50
176
     1
 90
        3
176
     1
 62
     5
420
      255
176
     1
290
     0
176
     1
 90
       50
176
     1
 90
       50
176
     1
 90
       50
176
     1
290
     0
176
     1
 90
       50
176
     1
 62
   256
176
     0
 40
1.0
176
     0
 90
        2
176
     1
  1
strokes_ogs.tif
176
     1
290
     0
176
     1
 40
1.0
176
     1
 40
1.0
176
     1
  0
VISUALSTYLE
  5
83F
102
{ACAD_REACTORS
330
832
102
}
330
832
100
AcDbVisualStyle
  2
Thicken
 70
    13
177
     3
291
     1
 70
    58
 90
        2
176
     1
 90
        2
176
     1
 90
        0
176
     1
 90
        0
176
     1
 40
0.6
176
     1
 40
30.0
176
     1
 62
     7
420
 16777215
176
     1
 90
        1
176
     1
 90
        4
176
     1
 62
     7
176
     1
 62
   257
176
     1
 90
        1
176
     1
 90
        1
176
     1
 40
1.0
176
     1
 90
       12
176
     1
 62
     7
176
     1
 40
1.0
176
     1
 90
        1
176
     1
 90
        6
176
     1
 90
        2
176
     1
 62
     7
176
     1
 90
        5
176
     1
 90
        0
176
     1
 90
        0
176
     1
290
     0
176
     1
 90
        1
176
     1
 40
0.0
176
     1
 90
        0
176
     1
290
     0
176
     1
290
     1
176
     1
290
     1
176
     1
290
     0
176
     1
290
     0
176
     1
290
     0
176
     1
290
     0
176
     1
290
     0
176
     1
290
     0
176
     1
 90
       50
176
     1
 40
0.0
176
     1
 40
1.0
176
     1
 90
        0
176
     1
 62
    18
420
        0
176
     1
 90
       50
176
     1
 90
        3
176
     1
 62
     5
420
      255
176
     1
290
     0
176
     1
 90
       50
176
     1
 90
       50
176
     1
 90
       50
176
     1
290
     0
176
     1
 90
       50
176
     1
 62
   256
176
     0
 40
1.0
176
     0
 90
        2
176
     1
  1
strokes_ogs.tif
176
     1
290
     0
176
     1
 40
1.0
176
     1
 40
1.0
176
     1
  0
VISUALSTYLE
  5
839
102
{ACAD_REACTORS
330
832
102
}
330
832
100
AcDbVisualStyle
  2
Wireframe
 70
     5
177
     3
291
     0
 70
    58
 90
        0
176
     1
 90
        2
176
     1
 90
        0
176
     1
 90
        0
176
     1
 40
0.6
176
     1
 40
30.0
176
     1
 62
     7
420
 16777215
176
     1
 90
        1
176
     1
 90
        4
176
     1
 62
     7
176
     1
 62
   257
176
     1
 90
        1
176
     1
 90
        1
176
     1
 40
1.0
176
     1
 90
        0
176
     1
 62
   257
176
     1
 40
1.0
176
     1
 90
        1
176
     1
 90
        6
176
     1
 90
        2
176
     1
 62
     7
176
     1
 90
        3
176
     1
 90
        0
176
     1
 90
        0
176
     1
290
     0
176
     1
 90
        1
176
     1
 40
0.0
176
     1
 90
        0
176
     1
290
     0
176
     1
290
     1
176
     1
290
     1
176
     1
290
     0
176
     1
290
     0
176
     1
290
     0
176
     1
290
     0
176
     1
290
     0
176
     1
290
     0
176
     1
 90
       50
176
     1
 40
0.0
176
     1
 40
1.0
176
     1
 90
        0
176
     1
 62
    18
420
        0
176
     1
 90
       50
176
     1
 90
        3
176
     1
 62
     5
420
      255
176
     1
290
     0
176
     1
 90
       50
176
     1
 90
       50
176
     1
 90
       50
176
     1
290
     0
176
     1
 90
       50
176
     1
 62
   256
176
     0
 40
1.0
176
     0
 90
        2
176
     1
  1
strokes_ogs.tif
176
     1
290
     0
176
     1
 40
1.0
176
     1
 40
1.0
176
     1
  0
VISUALSTYLE
  5
845
102
{ACAD_REACTORS
330
832
102
}
330
832
100
AcDbVisualStyle
  2
X-Ray
 70
    25
177
     3
291
     0
 70
    58
 90
        2
176
     1
 90
        2
176
     1
 90
        1
176
     1
 90
        1
176
     1
 40
0.5
176
     1
 40
30.0
176
     1
 62
     7
420
 16777215
176
     1
 90
        1
176
     1
 90
        0
176
     1
 62
     7
176
     1
 62
   257
176
     1
 90
        1
176
     1
 90
        1
176
     1
 40
1.0
176
     1
 90
        8
176
     1
 62
     7
176
     1
 40
1.0
176
     1
 90
        1
176
     1
 90
        6
176
     1
 90
        2
176
     1
 62
     7
176
     1
 90
        3
176
     1
 90
        0
176
     1
 90
        0
176
     1
290
     0
176
     1
 90
       13
176
     1
 40
0.0
176
     1
 90
        0
176
     1
290
     0
176
     1
290
     1
176
     1
290
     1
176
     1
290
     0
176
     1
290
     0
176
     1
290
     0
176
     1
290
     0
176
     1
290
     0
176
     1
290
     0
176
     1
 90
       50
176
     1
 40
0.0
176
     1
 40
1.0
176
     1
 90
        0
176
     1
 62
    18
420
        0
176
     1
 90
       50
176
     1
 90
        3
176
     1
 62
     5
420
      255
176
     1
290
     0
176
     1
 90
       50
176
     1
 90
       50
176
     1
 90
       50
176
     1
290
     0
176
     1
 90
       50
176
     1
 62
   256
176
     0
 40
1.0
176
     0
 90
        2
176
     1
  1
strokes_ogs.tif
176
     1
290
     0
176
     1
 40
1.0
176
     1
 40
1.0
176
     1
  0
DICTIONARYVAR
  5
892
102
{ACAD_REACTORS
330
88C
102
}
330
88C
100
DictionaryVariables
280
     0
  1
1:1
  0
DICTIONARYVAR
  5
88E
102
{ACAD_REACTORS
330
88C
102
}
330
88C
100
DictionaryVariables
280
     0
  1
STANDARD
  0
DICTIONARYVAR
  5
88D
102
{ACAD_REACTORS
330
88C
102
}
330
88C
100
DictionaryVariables
280
     0
  1
STANDARD
  0
DICTIONARYVAR
  5
88F
102
{ACAD_REACTORS
330
88C
102
}
330
88C
100
DictionaryVariables
280
     0
  1
Metric50
  0
DICTIONARYVAR
  5
890
102
{ACAD_REACTORS
330
88C
102
}
330
88C
100
DictionaryVariables
280
     0
  1
Metric50
  0
DICTIONARYVAR
  5
894
102
{ACAD_REACTORS
330
88C
102
}
330
88C
100
DictionaryVariables
280
     0
  1
1
  0
DICTIONARYVAR
  5
895
102
{ACAD_REACTORS
330
88C
102
}
330
88C
100
DictionaryVariables
280
     0
  1
15
  0
DICTIONARYVAR
  5
893
102
{ACAD_REACTORS
330
88C
102
}
330
88C
100
DictionaryVariables
280
     0
  1
0
  0
DICTIONARYVAR
  5
891
102
{ACAD_REACTORS
330
88C
102
}
330
88C
100
DictionaryVariables
280
     0
  1
0
  0
ACAD_PROXY_OBJECT
  5
349
102
{ACAD_REACTORS
330
348
102
}
330
348
100
AcDbProxyObject
 90
      499
 91
      548
 95
  4980761
 70
     0
161
                84
310
90100057356C1D714051EC
330
1F
330
380
330
12C
330
123
330
11D
330
117
330
111
330
10A
330
104
330
FE
330
F8
330
F2
330
EC
330
E5
330
DF
330
D9
330
D2
330
C9
330
BF
330
B9
330
B2
330
A6
330
9E
330
8C
330
3A0
330
3D4
330
405
330
7A2
330
7CC
330
7F4
 94
        0
  0
DICTIONARY
  5
355
102
{ACAD_REACTORS
330
348
102
}
330
348
100
AcDbDictionary
281
     1
  3
ISO
350
356
  0
ACAD_PROXY_OBJECT
  5
2FA
330
0
100
AcDbProxyObject
 90
      499
 91
      511
 95
  4980761
 70
     0
161
               156
310
000101439050D35154D6535093D314D25691508C
330
2F7
 94
        0
  0
ACAD_PROXY_OBJECT
  5
2FC
330
0
100
AcDbProxyObject
 90
      499
 91
      513
 95
  4980761
 70
     0
161
               112
310
00010141F0FDF3EE2C7B4C402B0010
330
2F7
330
0
330
0
 94
        0
  0
ACAD_PROXY_OBJECT
  5
302
330
0
100
AcDbProxyObject
 90
      499
 91
      519
 95
  4980761
 70
     0
161
               374
310
00010141323571B680508382E302E32342E300141323571B680508382E302E32342E3040501000041505391D311658
330
2F7
330
303
330
309
 94
        0
  0
ACAD_PROXY_OBJECT
  5
303
330
0
100
AcDbProxyObject
 90
      499
 91
      520
 95
  4980761
 70
     0
161
                56
310
000190240E000000
330
2F7
330
304
330
306
 94
        0
  0
ACAD_PROXY_OBJECT
  5
304
330
0
100
AcDbProxyObject
 90
      499
 91
      521
 95
  4980761
 70
     0
161
                48
310
0001AA00000078
330
2F7
330
1E
330
305
330
0
 94
        0
  0
ACAD_PROXY_OBJECT
  5
305
330
0
100
AcDbProxyObject
 90
      499
 91
      522
 95
  4980761
 70
     0
161
                28
310
0001AAAC
330
2F7
 94
        0
  0
ACAD_PROXY_OBJECT
  5
306
330
0
100
AcDbProxyObject
 90
      499
 91
      521
 95
  4980761
 70
     0
161
                48
310
0001AA000000AE
330
2F7
330
26
330
307
330
0
 94
        0
  0
ACAD_PROXY_OBJECT
  5
307
330
0
100
AcDbProxyObject
 90
      499
 91
      522
 95
  4980761
 70
     0
161
                28
310
0001AAAC
330
2F7
 94
        0
  0
ACAD_PROXY_OBJECT
  5
30A
330
0
100
AcDbProxyObject
 90
      499
 91
      511
 95
  4980761
 70
     0
161
               108
310
000101421053521310D05310D01C
330
2F7
 94
        0
  0
ACAD_PROXY_OBJECT
  5
30B
330
0
100
AcDbProxyObject
 90
      499
 91
      511
 95
  4980761
 70
     0
161
               124
310
00010142905354915554D1511253501C
330
2F7
 94
        0
  0
ACAD_PROXY_OBJECT
  5
30C
330
0
100
AcDbProxyObject
 90
      499
 91
      511
 95
  4980761
 70
     0
161
               132
310
00010143105354D150D51253D39112536C
330
2F7
 94
        0
  0
ACAD_PROXY_OBJECT
  5
30D
330
0
100
AcDbProxyObject
 90
      499
 91
      511
 95
  4980761
 70
     0
161
               124
310
00010142905355941093D4911154901C
330
2F7
 94
        0
  0
ACAD_PROXY_OBJECT
  5
30E
330
0
100
AcDbProxyObject
 90
      499
 91
      511
 95
  4980761
 70
     0
161
               116
310
0001014290535115D1D0D3D313D4AC
330
2F7
 94
        0
  0
ACAD_PROXY_OBJECT
  5
30F
330
0
100
AcDbProxyObject
 90
      499
 91
      511
 95
  4980761
 70
     0
161
               148
310
00010143505355925155D49151949154D2101C
330
2F7
 94
        0
  0
ACAD_PROXY_OBJECT
  5
310
330
0
100
AcDbProxyObject
 90
      499
 91
      511
 95
  4980761
 70
     0
161
               172
310
00010144105350539393D51154149154D1549591501C
330
2F7
 94
        0
  0
ACAD_PROXY_OBJECT
  5
312
330
0
100
AcDbProxyObject
 90
      499
 91
      511
 95
  4980761
 70
     0
161
               172
310
00010144105350555513D11253505494905391D1501C
330
2F7
 94
        0
  0
ACAD_PROXY_OBJECT
  5
313
330
0
100
AcDbProxyObject
 90
      499
 91
      511
 95
  4980761
 70
     0
161
               124
310
00010142D0535156151491519112536C
330
2F7
 94
        0
  0
ACAD_PROXY_OBJECT
  5
314
330
0
100
AcDbProxyObject
 90
      499
 91
      511
 95
  4980761
 70
     0
161
               132
310
00010142D05355105410539393D511501C
330
2F7
 94
        0
  0
ACAD_PROXY_OBJECT
  5
315
330
0
100
AcDbProxyObject
 90
      499
 91
      511
 95
  4980761
 70
     0
161
               108
310
00010142105350555513D0D3101C
330
2F7
 94
        0
  0
ACAD_PROXY_OBJECT
  5
316
330
0
100
AcDbProxyObject
 90
      499
 91
      511
 95
  4980761
 70
     0
161
               108
310
00010142105350D311915055105C
330
2F7
 94
        0
  0
ACAD_PROXY_OBJECT
  5
317
330
0
100
AcDbProxyObject
 90
      499
 91
      511
 95
  4980761
 70
     0
161
               108
310
00010142105350D315925155D3FC
330
2F7
 94
        0
  0
ACAD_PROXY_OBJECT
  5
318
330
0
100
AcDbProxyObject
 90
      499
 91
      511
 95
  4980761
 70
     0
161
               148
310
0001014350535212511156915493D11253501C
330
2F7
 94
        0
  0
ACAD_PROXY_OBJECT
  5
319
330
0
100
AcDbProxyObject
 90
      499
 91
      511
 95
  4980761
 70
     0
161
               124
310
00010142905352105510D21254D3D01C
330
2F7
 94
        0
  0
ACAD_PROXY_OBJECT
  5
31A
330
0
100
AcDbProxyObject
 90
      499
 91
      511
 95
  4980761
 70
     0
161
               148
310
00010143905354D25391D3115210551310566C
330
2F7
 94
        0
  0
ACAD_PROXY_OBJECT
  5
31B
330
0
100
AcDbProxyObject
 90
      499
 91
      511
 95
  4980761
 70
     0
161
               124
310
00010142D0535115D1D193111254D42C
330
2F7
 94
        0
  0
ACAD_PROXY_OBJECT
  5
31C
330
0
100
AcDbProxyObject
 90
      499
 91
      511
 95
  4980761
 70
     0
161
               100
310
00010142105350555513D213AC
330
2F7
 94
        0
  0
ACAD_PROXY_OBJECT
  5
31D
330
0
100
AcDbProxyObject
 90
      499
 91
      511
 95
  4980761
 70
     0
161
               116
310
000101425053521390D3D55395101C
330
2F7
 94
        0
  0
ACAD_PROXY_OBJECT
  5
31E
330
0
100
AcDbProxyObject
 90
      499
 91
      511
 95
  4980761
 70
     0
161
               108
310
0001014210535213941493D2901C
330
2F7
 94
        0
  0
ACAD_PROXY_OBJECT
  5
31F
330
0
100
AcDbProxyObject
 90
      499
 91
      511
 95
  4980761
 70
     0
161
               108
310
000101421053521395165411507C
330
2F7
 94
        0
  0
ACAD_PROXY_OBJECT
  5
320
330
0
100
AcDbProxyObject
 90
      499
 91
      511
 95
  4980761
 70
     0
161
               108
310
000101421053521395925155D0FC
330
2F7
 94
        0
  0
ACAD_PROXY_OBJECT
  5
321
330
0
100
AcDbProxyObject
 90
      499
 91
      511
 95
  4980761
 70
     0
161
               140
310
00010143505354D150D51253D390D3D4166C
330
2F7
 94
        0
  0
ACAD_PROXY_OBJECT
  5
322
330
0
100
AcDbProxyObject
 90
      499
 91
      511
 95
  4980761
 70
     0
161
               108
310
00010142105350D3141493D2903C
330
2F7
 94
        0
  0
ACAD_PROXY_OBJECT
  5
323
330
0
100
AcDbProxyObject
 90
      499
 91
      523
 95
  4980761
 70
     0
161
               212
310
00010143905350555513D2105510D21493D500000000000002E40C
330
2F7
 94
        0
  0
ACAD_PROXY_OBJECT
  5
324
330
0
100
AcDbProxyObject
 90
      499
 91
      511
 95
  4980761
 70
     0
161
               156
310
00010143905350555513D2105510D2111155101C
330
2F7
 94
        0
  0
ACAD_PROXY_OBJECT
  5
330
330
0
100
AcDbProxyObject
 90
      499
 91
      533
 95
  4980761
 70
     0
161
               714
310
0001000000009AA6A9AA4051E546875204175672031362030333A34323A3437203230313220285554432901420E0B8C0B8C8D0B8C00518467269205365702032382031373A30343A3534203230313201420E0B8C0B8C8D0B8C0C
330
2F7
330
331
330
332
330
334
330
0
 94
        0
  0
ACAD_PROXY_OBJECT
  5
331
330
0
100
AcDbProxyObject
 90
      499
 91
      534
 95
  4980761
 70
     0
161
                70
310
0001AAA80820000000
330
2F7
330
331
330
331
 94
        0
  0
ACAD_PROXY_OBJECT
  5
332
330
0
100
AcDbProxyObject
 90
      499
 91
      535
 95
  4980761
 70
     0
161
                48
310
000100000000F2
330
2F7
330
0
330
333
330
0
330
0
 94
        0
  0
ACAD_PROXY_OBJECT
  5
333
330
0
100
AcDbProxyObject
 90
      499
 91
      536
 95
  4980761
 70
     0
161
                40
310
000100AAAA05
330
2F7
330
0
 94
        0
  0
ACAD_PROXY_OBJECT
  5
339
330
0
100
AcDbProxyObject
 90
      499
 91
      540
 95
  4980761
 70
     0
161
               180
310
00010143105050D3D35411119390535140504434F4D50C
330
2F7
 94
        0
  0
ACAD_PROXY_OBJECT
  5
33A
330
0
100
AcDbProxyObject
 90
      499
 91
      540
 95
  4980761
 70
     0
161
               212
310
0001014390505193D311115491119390535140506CEC4BCFEBCD0C
330
2F7
 94
        0
  0
ACAD_PROXY_OBJECT
  5
33B
330
0
100
AcDbProxyObject
 90
      499
 91
      540
 95
  4980761
 70
     0
161
               180
310
00010143105050539393D111939053514050428415629C
330
2F7
 94
        0
  0
ACAD_PROXY_OBJECT
  5
33C
330
0
100
AcDbProxyObject
 90
      499
 91
      540
 95
  4980761
 70
     0
161
               508
310
00010143905050D3D35415925155D31254D50052BB8A9CAD3CDBC0AD6F7CAD3CDBC0AD3D2CAD3CDBC0AD7F3CAD3CDBC0AD1F6CAD3CDBC0AB8A8D6FACAD3CDBCC
330
2F7
 94
        0
  0
ACAD_PROXY_OBJECT
  5
341
330
0
100
AcDbProxyObject
 90
      499
 91
      542
 95
  4980761
 70
     0
161
                32
310
0001000000
330
2F7
340
33E
330
343
330
33E
 94
        0
  0
ACAD_PROXY_OBJECT
  5
342
330
0
100
AcDbProxyObject
 90
      499
 91
      543
 95
  4980761
 70
     0
161
                18
310
00018C
330
2F7
 94
        0
  0
ACAD_PROXY_OBJECT
  5
343
330
0
100
AcDbProxyObject
 90
      499
 91
      544
 95
  4980761
 70
     0
161
               178
310
000101430CCC8C0C8C504B4C0C4B4C0C1050055401550C
330
2F7
330
341
330
342
 94
        0
  0
ACAD_PROXY_OBJECT
  5
344
330
0
100
AcDbProxyObject
 90
      499
 91
      545
 95
  4980761
 70
     0
161
                50
310
000100AAAAAA8C
330
2F7
330
343
 94
        0
  0
ACAD_PROXY_OBJECT
  5
345
330
0
100
AcDbProxyObject
 90
      499
 91
      546
 95
  4980761
 70
     0
161
               108
310
000190140A000000000000AAAAAC
330
2F7
330
346
330
346
330
346
330
346
330
346
330
0
 94
        0
  0
ACAD_PROXY_OBJECT
  5
346
330
0
100
AcDbProxyObject
 90
      499
 91
      547
 95
  4980761
 70
     0
161
                51
310
00010000AAAA8C
330
2F7
330
345
330
343
 94
        0
  0
ACAD_PROXY_OBJECT
  5
354
330
0
100
AcDbProxyObject
 90
      499
 91
      540
 95
  4980761
 70
     0
161
               140
310
00010142105350D55494D5110050349534FC
330
2F7
 94
        0
  0
DICTIONARY
  5
2F1
102
{ACAD_REACTORS
330
2F0
102
}
330
2F0
100
AcDbDictionary
281
     1
  3
DWGSETTINGS
350
2F2
  3
TRANSSETTINGS
350
2F3
  0
ACAD_PROXY_OBJECT
  5
357
102
{ACAD_REACTORS
330
2F0
102
}
330
2F0
100
AcDbProxyObject
 90
      499
 91
      555
 95
  4980761
 70
     0
161
             17944
310
41502491013041105357CC201C00030C0132441013141105357CC603800030C0132441013241105357CCA01400030C0132441013341105357CCE01800030C01199013441105357CD200C00030C01199013541105357CD600C00030C01199013641105357CDA00800030C01239013741105357CDE01000030C0119901384110
310
5357CE200400030C01199013941105357CE63F400030C0241102324141505357CC4C201C00030C0132902344141505357CC4C600C00030C0119902495041505357CC4CA01C00030C013240902304E41505357CC13A01C00030C0132902314E41505357CC53A03800030C0132902324E41505357CC93A01400030C013290233
310
4E41505357CCD3A01800030C0119902344E41505357CD13A00C00030C0119902354E41505357CD53A00C00030C0119902364E41505357CD93A00800030C0123902374E41505357CDD3A01000030C0119902384E41505357CE13A00400030C0119902394E41505357CE53A3F400030C024110332414E41905357CC4C13A01C0
310
0030C013290334414E41905357CC4C53A00C00030C011990349504E41905357CC4C93A01C00030C0132409044B4C494E41505357D0D3200400030C011942504494E464F42105357D410549151A01000030C011942D055241484D3541905357D093D4A01C00030C0132425045649455742105357D5925155D4E00400030C011
310
942D06424548494E4441905357D25395A3F400030C0243505545241494C41505357D514A00C00030C01194250348494441905357D21251201C00030C01194250356495341905357D59254E01C00030C01324250650415244494D42505357D41054911253600C00030C01194250652454644494D42505357D49151911253601
310
000030C0119425534110921395901398000000C0003FFFFFFFE415092139594D06424548494E448000000C0003FFFFFFFE411093D48C9055241484D358010000C300466411093D48CD055241484D358020000C30048E411093D48D5055241484D358000000C0003FFFFFFFE4110D0530C901348000000C0003FFFFFFFE4110
310
D0530CD01348020000C30048E4110D0530D501348070000C3004CA4110D0530DD013481E0000C30051A4110D15393901378000000C0003FFFFFFFE4110D15395D01378000000C0003FFFFFFFE4110D312539044B4C494E8000000C0003FFFFFFFE4110D3D38C501308000000C0003FFFFFFFD034110D3D38C901318000000C
310
0003FFFFFFFD034110D3D38CD01328000000C0003FFFFFFFD034110D3D38D101328000000C0003FFFFFFFD034111115510501348000000C0003FFFFFFFE4111125051D01358000000C0003FFFFFFFE4111125312501358000000C0003FFFFFFFE411112535410650415244494D8000000C0003FFFFFFFE4111125354906524
310
54644494D8000000C0003FFFFFFFE4111915353901388000000C0003FFFFFFFE415191535413901388030000C3003FFFFFFFE4151915354D410234418000000C0003FFFFFFFE4151915354D510234418030000C300466415191535593901328000000C0003FFFFFFFE415191535595101328030000C3004664112105510D01
310
388000000C0003FFFFFFFD014112125113901338000000C0003FFFFFFFD034112125115D01338000000C0003FFFFFFFD034112131253901348000000C0003FFFFFFFD01411213D0D3901378000000C0003FFFFFFFE411213D0D5D01378000000C0003FFFFFFFE4112539193D04494E464F8000000C0003FFFFFFFE41131150
310
51101358000000C0003FFFFFFFE419397D0921395902394E8000000C0003FFFFFFFE419397D0D3D38C502304E8000000C0003FFFFFFFD03419397D0D3D38C902314E8000000C0003FFFFFFFD03419397D0D3D38CD02324E8000000C0003FFFFFFFD03419397D0D3D38D102324E8000000C0003FFFFFFFD03419397D0D15393
310
902374E8000000C0003FFFFFFFE419397D0D15395D02374E8000000C0003FFFFFFFE419397D1125312502354E8000000C0003FFFFFFFE419397D2105510D02384E8000000C0003FFFFFFFD01419397D2125113902334E8000000C0003FFFFFFFD03419397D2125115D02334E8000000C0003FFFFFFFD03419397D311505110
310
2354E8000000C0003FFFFFFFE419397D391D25410349504E8000000C0003FFFFFFFE419397D412105390334414E8000000C0003FFFFFFFE419397D510D3D3902304E8000000C0003FFFFFFFD03419397D5121312502344E8000000C0003FFFFFFFD01419397D5131153902304E8000000C0003FFFFFFFD03419397D5941312
310
50332414E8000000C0003FFFFFFFE411391D25410249508000000C0003FFFFFFFE411410530C9055241484D358010000C300466411410530CD055241484D358020000C30048E411410530D5055241484D358000000C0003FFFFFFFE411412105390234418000000C0003FFFFFFFE411413D4D3901358000000C0003FFFFFFF
310
E411490D1D3901378000000C0003FFFFFFFE411490D1D5D01378000000C0003FFFFFFFE4114D09492D01348000000C0003FFFFFFFD014114D150D5101348000000C0003FFFFFFFD014114D6508CD01358020000C30048E411354D653501358020000C30048E411510D3D3901308000000C0003FFFFFFFD0341151213125013
310
48000000C0003FFFFFFFD01411512550C9055241484D358010000C300466411512550CD055241484D358020000C30048E411512550D5055241484D358000000C0003FFFFFFFE4115131153901308000000C0003FFFFFFFD03415514905253105545241494C8000000C0003FFFFFFFE4115149312501348000000C0003FFFFF
310
FFD01411516150C501368030000C300466411516150C901368030000C300466411516150CD01368000000C0003FFFFFFFE411516150D501368070000C3004CA411516150DD013681E0000C30051A4115925155D04564945578000000C0003FFFFFFFE41159151121034849448000000C0003FFFFFFFD024115915115903564
310
9538000000C0003FFFFFFFD02411594131250232418000000C0003FFFFFFFE4116925690501348000000C0003FFFFFFFD01AAA3F400030C01013F90A405194092340D1941119415324191941D3243932479467F6CC
340
16
340
16
340
16
340
358
340
16
340
16
340
16
340
359
340
16
340
16
340
359
340
35A
340
16
340
16
340
16
340
16
340
358
340
16
340
16
340
16
340
359
340
16
340
16
340
359
340
35A
340
16
340
35B
340
16
340
16
340
16
340
16
340
16
340
358
340
16
340
16
340
16
340
15
340
15
340
15
340
15
340
15
340
15
340
15
340
15
340
15
340
35C
340
15
340
15
340
15
340
15
340
15
340
15
340
15
340
15
340
15
340
15
340
15
340
15
340
15
340
16
340
15
340
15
340
15
340
15
340
35D
340
15
340
15
340
35C
340
15
340
15
340
15
340
15
340
15
340
15
340
15
340
15
340
35C
340
15
340
15
340
15
340
35D
340
15
340
15
340
15
340
15
340
15
340
15
340
15
340
15
340
15
340
15
340
15
340
15
340
15
340
15
340
35C
340
15
340
15
340
15
340
15
340
15
340
15
340
15
340
15
340
15
340
15
340
15
340
15
340
15
340
15
340
15
340
15
340
15
340
15
340
15
340
15
340
15
340
15
340
360
 94
        0
  0
ACAD_PROXY_OBJECT
  5
38D
102
{ACAD_REACTORS
330
388
102
}
330
388
100
AcDbProxyObject
 90
      499
 91
      573
 95
  4980761
 70
     0
161
               253
310
43D1444494D454E53494F4E2C414D44545F2A5F44494D404A9012A404A9012AC
 94
        0
  0
ACAD_PROXY_OBJECT
  5
38C
102
{ACAD_REACTORS
330
388
102
}
330
388
100
AcDbProxyObject
 90
      499
 91
      573
 95
  4980761
 70
     0
161
               181
310
43D012A42D05357D191504B505357CA9012A404A9012AC
 94
        0
  0
ACAD_PROXY_OBJECT
  5
389
102
{ACAD_REACTORS
330
388
102
}
330
388
100
AcDbProxyObject
 90
      499
 91
      573
 95
  4980761
 70
     0
161
               133
310
43D054841544348404A9012A404A9012AC
 94
        0
  0
ACAD_PROXY_OBJECT
  5
38A
102
{ACAD_REACTORS
330
388
102
}
330
388
100
AcDbProxyObject
 90
      499
 91
      573
 95
  4980761
 70
     0
161
               549
310
43D044C494E4549CE0B0E138B0A8B4E0B0A8B4E138B105357CE0B105357CE138B0A8B505357CE0B0A8B505357CE139012A404A910494E534552542C535444504152543244C
 94
        0
  0
ACAD_PROXY_OBJECT
  5
38E
102
{ACAD_REACTORS
330
388
102
}
330
388
100
AcDbProxyObject
 90
      499
 91
      573
 95
  4980761
 70
     0
161
               181
310
43D0341524341105357CD5012A404C906494E534552544
 94
        0
  0
ACAD_PROXY_OBJECT
  5
38B
102
{ACAD_REACTORS
330
388
102
}
330
388
100
AcDbProxyObject
 90
      499
 91
      573
 95
  4980761
 70
     0
161
              1053
310
43D7841434D46434652414D452C41434D444154554D5441524745542C41434D444154554D49442C41434D57454C4453594D2C41434D5355524653594D2C41434D4645415449442C41434D504152545245462C41434D42414C4C4F4F4E2C414D44544544474553594D2C414D47534352455743414C435441424C45404A9012A
310
404A9012AC
 94
        0
  0
LAYER_INDEX
  5
421
102
{ACAD_REACTORS
330
420
102
}
330
420
100
AcDbIndex
 40
2458033.445474537
100
AcDbLayerIndex
  8
0
360
422
 90
      414
  8
FORMAT
360
423
 90
        0
  8
SLD-0
360
424
 90
        0
  8
AM_5
360
425
 90
        3
  8
AM_PAREF
360
426
 90
        0
  8
双点划线
360
427
 90
        0
  8
虚线
360
428
 90
        0
  8
AM_0
360
429
 90
        0
  8
AM_0N
360
42A
 90
        0
  8
AM_3N
360
42B
 90
        0
  8
AM_4N
360
42C
 90
        0
  8
AM_12N
360
42D
 90
        0
  8
AM_7
360
42E
 90
        0
  8
CONFIDENTIAL
360
42F
 90
        0
  8
AM_12
360
430
 90
        0
  8
Defpoints
360
431
 90
        0
1001
AcadStringInfo
1000
MIFCodePage
1070
     5
  0
DICTIONARY
  5
89A
330
852
100
AcDbDictionary
280
     1
281
     1
  3
ACAD_XREC_ROUNDTRIP
360
89B
  0
DICTIONARY
  5
823
330
822
100
AcDbDictionary
280
     1
281
     1
  3
BUMPTILE
360
825
  3
DIFFUSETILE
360
824
  3
OPACITYTILE
360
828
  3
REFLECTIONTILE
360
827
  3
REFRACTIONTILE
360
829
  3
SPECULARTILE
360
826
  0
DICTIONARY
  5
81B
330
81A
100
AcDbDictionary
280
     1
281
     1
  3
BUMPTILE
360
81D
  3
DIFFUSETILE
360
81C
  3
OPACITYTILE
360
820
  3
REFLECTIONTILE
360
81F
  3
REFRACTIONTILE
360
821
  3
SPECULARTILE
360
81E
  0
DICTIONARY
  5
82B
330
82A
100
AcDbDictionary
280
     1
281
     1
  3
BUMPTILE
360
82D
  3
DIFFUSETILE
360
82C
  3
OPACITYTILE
360
830
  3
REFLECTIONTILE
360
82F
  3
REFRACTIONTILE
360
831
  3
SPECULARTILE
360
82E
  0
DICTIONARY
  5
898
330
850
100
AcDbDictionary
280
     1
281
     1
  3
ACAD_XREC_ROUNDTRIP
360
899
  0
DICTIONARY
  5
896
330
84C
100
AcDbDictionary
280
     1
281
     1
  3
ACAD_ROUNDTRIP_2008_TABLESTYLE_CELLSTYLEMAP
360
897
  0
ACAD_PROXY_OBJECT
  5
356
102
{ACAD_REACTORS
330
355
102
}
330
355
100
AcDbProxyObject
 90
      499
 91
      554
 95
  4980761
 70
     0
161
              2497
310
5C40000000000000C408030000C30040D254D3D01640600800030C0200800030C000000000000000C40C88A2085A0B6B23A22B233B2A9BA3220480A1C82C6DAA6EAE4CCA8CAF0E8A6E8C88120284A0B1B6A321A329BA3220480A1A82C6DAAECAD8C8D2DCCEA6E8C8812028420B1B6A4B229BA3220480A1682C6DA88C2E8EAD
310
AA6E8C88120284A0B1B6A127A6A9BA3220480A2082DAC8E888CAE8C2D2D8A6F2DAA6E8C88120288A0B6B23A29B2B1BA34B7B729BCB6A9BA3220480A2282DAC8E886CADCE8CAE498D2DCCAA6E8C88120288A0B6B23A2A343932B0B22634B732A9BA3220480A1682DAC8E89CDEE8CAA6E8C88120285A0B1A0B6B3A630BCA9BA3
310
220480A1682C682DACE88D2DAA6E8C88120288A0B1A0B6B3A437B632A1B430B93A29BA3220480A1A82C682DACEA8D2E8D8CAA6E8C88120320480CC
340
361
360
362
360
363
360
364
360
365
360
366
360
367
360
368
360
369
360
36A
360
36B
360
36C
360
36D
360
378
360
379
360
385
360
386
340
0
340
0
 94
        0
  0
ACAD_PROXY_OBJECT
  5
2F2
102
{ACAD_REACTORS
330
2F1
102
}
330
2F1
100
AcDbProxyObject
 90
      499
 91
      507
 95
  4980761
 70
     0
161
              2396
310
4050B44574753455454494E4753A1286829C8E82A4A482B282A106660F8686AF86C608321A2A720A723A0A849A1ABE1C983E18999AA0C868A9C889282940000000000000488083A1A2A72224A0A9A0A8418983E19183E199820E868A9C8892A6A894000000000000010808321A2A72622A7250000000000000122020C868A9
310
C9E8C8C940000000000000488084A1A624A720A92920ACA0A8418983E19183E19982108698929C8AA8B2A082A0AB098929C8A84A22BA3AAA9A1A0A622A50A0E9882A6A89E849482A02608426A0A5A2AB24A2ABA7E8120CA0A68682988A0C00800010652455649534941501304154D0D0531150540CC4E8C50954494D455354
310
414D504A07F4DA4025630734141D5915494D253D3905414C4D4B8C0C1107B44574753455454494E4753454E447DC
 94
        0
  0
ACAD_PROXY_OBJECT
  5
2F3
102
{ACAD_REACTORS
330
2F1
102
}
330
2F1
100
AcDbProxyObject
 90
      499
 91
      507
 95
  4980761
 70
     0
161
               852
310
4050D5452414E5353455454494E4753A2488A482AE929C8EA8A4829CA69882A8929E9C0C00800050D4F524947494E414C4C595F4F4E0600400008529A7AAA921A2A620A723A0A81A1A429A12AAA0A48AA68AA4AC8A0C0080001107B44574753455454494E4753454E447DC
 94
        0
  0
IDBUFFER
  5
422
330
0
100
AcDbIdBuffer
330
5F4
330
5F5
330
5F6
330
5F7
330
5F8
330
5F9
330
5FA
330
5FB
330
5FC
330
5FD
330
5FE
330
5FF
330
600
330
601
330
602
330
603
330
604
330
605
330
606
330
607
330
608
330
609
330
60A
330
60B
330
60C
330
60D
330
60E
330
60F
330
610
330
611
330
612
330
613
330
614
330
615
330
616
330
617
330
618
330
619
330
61A
330
61B
330
61C
330
61D
330
61E
330
61F
330
620
330
621
330
622
330
623
330
624
330
625
330
626
330
627
330
628
330
629
330
62A
330
62B
330
62C
330
62D
330
62E
330
62F
330
630
330
631
330
632
330
633
330
634
330
635
330
636
330
637
330
638
330
639
330
63A
330
63B
330
63C
330
63D
330
63E
330
63F
330
640
330
641
330
642
330
643
330
644
330
645
330
646
330
647
330
648
330
649
330
64A
330
64B
330
64C
330
64D
330
64E
330
64F
330
650
330
651
330
652
330
653
330
654
330
655
330
656
330
657
330
658
330
659
330
65A
330
65B
330
65C
330
65D
330
65E
330
65F
330
660
330
661
330
662
330
663
330
664
330
665
330
666
330
667
330
668
330
669
330
66A
330
66B
330
66C
330
66D
330
66E
330
66F
330
670
330
671
330
672
330
673
330
674
330
675
330
676
330
677
330
678
330
679
330
67A
330
67B
330
67C
330
67D
330
67E
330
67F
330
680
330
681
330
682
330
683
330
684
330
685
330
686
330
687
330
688
330
689
330
68A
330
68B
330
68C
330
68D
330
68E
330
68F
330
690
330
691
330
692
330
693
330
694
330
695
330
696
330
697
330
698
330
699
330
69A
330
69B
330
69C
330
69D
330
69E
330
69F
330
6A0
330
6A1
330
6A2
330
6A3
330
6A4
330
6A5
330
6A6
330
6A7
330
6A8
330
6A9
330
6AA
330
6AB
330
6AC
330
6AD
330
6AE
330
6AF
330
6B0
330
6B1
330
6B2
330
6B3
330
6B4
330
6B5
330
6B6
330
6B7
330
6B8
330
6B9
330
6BA
330
6BB
330
6BC
330
6BD
330
6BE
330
6BF
330
6C0
330
6C1
330
6C2
330
6C3
330
6C4
330
6C5
330
6C6
330
6C7
330
6C8
330
6C9
330
6CA
330
6CB
330
6CC
330
6CD
330
6CE
330
6CF
330
6D0
330
6D1
330
6D2
330
6D3
330
6D4
330
6D5
330
6D6
330
6D7
330
6D8
330
6D9
330
6DA
330
6DB
330
6DC
330
6DD
330
6DE
330
6DF
330
6E0
330
6E1
330
6E2
330
6E3
330
6E4
330
6E5
330
6E6
330
6E7
330
6E8
330
6E9
330
6EA
330
6EB
330
6EC
330
6ED
330
6EE
330
6EF
330
6F0
330
6F1
330
6F2
330
6F3
330
6F4
330
6F5
330
6F6
330
6F7
330
6F8
330
6F9
330
6FA
330
6FB
330
6FC
330
6FD
330
6FE
330
6FF
330
700
330
701
330
702
330
703
330
704
330
705
330
706
330
707
330
708
330
709
330
70A
330
70B
330
70C
330
70D
330
70E
330
70F
330
710
330
711
330
712
330
713
330
714
330
715
330
716
330
717
330
718
330
719
330
71A
330
71B
330
71C
330
71D
330
71E
330
71F
330
720
330
721
330
722
330
723
330
724
330
725
330
726
330
727
330
728
330
729
330
72A
330
72B
330
72C
330
72D
330
72E
330
72F
330
730
330
731
330
732
330
733
330
734
330
735
330
736
330
737
330
738
330
739
330
73A
330
73B
330
73C
330
73D
330
73E
330
73F
330
740
330
741
330
742
330
743
330
744
330
745
330
746
330
747
330
748
330
749
330
74A
330
74B
330
74C
330
74D
330
74E
330
74F
330
750
330
751
330
752
330
753
330
754
330
755
330
756
330
757
330
758
330
759
330
75A
330
75B
330
75C
330
75D
330
75E
330
75F
330
760
330
761
330
762
330
763
330
764
330
765
330
766
330
767
330
768
330
769
330
76A
330
76B
330
76C
330
76D
330
76E
330
76F
330
770
330
771
330
772
330
773
330
774
330
775
330
776
330
777
330
778
330
779
330
77A
330
77B
330
77C
330
77D
330
77E
330
77F
330
780
330
781
330
782
330
783
330
784
330
785
330
786
330
787
330
788
330
789
330
78A
330
78B
330
78C
330
78D
330
78E
330
78F
330
790
330
791
  0
IDBUFFER
  5
423
330
0
100
AcDbIdBuffer
  0
IDBUFFER
  5
424
330
0
100
AcDbIdBuffer
  0
IDBUFFER
  5
425
330
0
100
AcDbIdBuffer
330
7A1
330
7CB
330
7F3
  0
IDBUFFER
  5
426
330
0
100
AcDbIdBuffer
  0
IDBUFFER
  5
427
330
0
100
AcDbIdBuffer
  0
IDBUFFER
  5
428
330
0
100
AcDbIdBuffer
  0
IDBUFFER
  5
429
330
0
100
AcDbIdBuffer
  0
IDBUFFER
  5
42A
330
0
100
AcDbIdBuffer
  0
IDBUFFER
  5
42B
330
0
100
AcDbIdBuffer
  0
IDBUFFER
  5
42C
330
0
100
AcDbIdBuffer
  0
IDBUFFER
  5
42D
330
0
100
AcDbIdBuffer
  0
IDBUFFER
  5
42E
330
0
100
AcDbIdBuffer
  0
IDBUFFER
  5
42F
330
0
100
AcDbIdBuffer
  0
IDBUFFER
  5
430
330
0
100
AcDbIdBuffer
  0
IDBUFFER
  5
431
330
0
100
AcDbIdBuffer
  0
XRECORD
  5
89B
102
{ACAD_REACTORS
330
89A
102
}
330
89A
100
AcDbXrecord
280
     1
102
DISPLAYNAME
  1
Metric50
102
FLAGS
 90
        0
  0
XRECORD
  5
825
102
{ACAD_REACTORS
330
823
102
}
330
823
100
AcDbXrecord
280
     1
270
     1
271
     1
  0
XRECORD
  5
824
102
{ACAD_REACTORS
330
823
102
}
330
823
100
AcDbXrecord
280
     1
270
     1
271
     1
  0
XRECORD
  5
828
102
{ACAD_REACTORS
330
823
102
}
330
823
100
AcDbXrecord
280
     1
270
     1
271
     1
  0
XRECORD
  5
827
102
{ACAD_REACTORS
330
823
102
}
330
823
100
AcDbXrecord
280
     1
270
     1
271
     1
  0
XRECORD
  5
829
102
{ACAD_REACTORS
330
823
102
}
330
823
100
AcDbXrecord
280
     1
270
     1
271
     1
  0
XRECORD
  5
826
102
{ACAD_REACTORS
330
823
102
}
330
823
100
AcDbXrecord
280
     1
270
     1
271
     1
  0
XRECORD
  5
81D
102
{ACAD_REACTORS
330
81B
102
}
330
81B
100
AcDbXrecord
280
     1
270
     1
271
     1
  0
XRECORD
  5
81C
102
{ACAD_REACTORS
330
81B
102
}
330
81B
100
AcDbXrecord
280
     1
270
     1
271
     1
  0
XRECORD
  5
820
102
{ACAD_REACTORS
330
81B
102
}
330
81B
100
AcDbXrecord
280
     1
270
     1
271
     1
  0
XRECORD
  5
81F
102
{ACAD_REACTORS
330
81B
102
}
330
81B
100
AcDbXrecord
280
     1
270
     1
271
     1
  0
XRECORD
  5
821
102
{ACAD_REACTORS
330
81B
102
}
330
81B
100
AcDbXrecord
280
     1
270
     1
271
     1
  0
XRECORD
  5
81E
102
{ACAD_REACTORS
330
81B
102
}
330
81B
100
AcDbXrecord
280
     1
270
     1
271
     1
  0
XRECORD
  5
82D
102
{ACAD_REACTORS
330
82B
102
}
330
82B
100
AcDbXrecord
280
     1
270
     1
271
     1
  0
XRECORD
  5
82C
102
{ACAD_REACTORS
330
82B
102
}
330
82B
100
AcDbXrecord
280
     1
270
     1
271
     1
  0
XRECORD
  5
830
102
{ACAD_REACTORS
330
82B
102
}
330
82B
100
AcDbXrecord
280
     1
270
     1
271
     1
  0
XRECORD
  5
82F
102
{ACAD_REACTORS
330
82B
102
}
330
82B
100
AcDbXrecord
280
     1
270
     1
271
     1
  0
XRECORD
  5
831
102
{ACAD_REACTORS
330
82B
102
}
330
82B
100
AcDbXrecord
280
     1
270
     1
271
     1
  0
XRECORD
  5
82E
102
{ACAD_REACTORS
330
82B
102
}
330
82B
100
AcDbXrecord
280
     1
270
     1
271
     1
  0
XRECORD
  5
899
102
{ACAD_REACTORS
330
898
102
}
330
898
100
AcDbXrecord
280
     1
102
DISPLAYNAME
  1
Metric50
102
FLAGS
 90
        0
  0
CELLSTYLEMAP
  5
897
102
{ACAD_REACTORS
330
896
102
}
330
896
100
AcDbCellStyleMap
 90
        3
300
CELLSTYLE
  1
TABLEFORMAT_BEGIN
 90
        5
170
     1
 91
        0
 92
    32768
 62
   257
 93
        1
300
CONTENTFORMAT
  1
CONTENTFORMAT_BEGIN
 90
        0
 91
        0
 92
      512
 93
        0
300

 40
0.0
140
1.0
 94
        5
 62
     0
340
11
144
6.0
309
CONTENTFORMAT_END
171
     1
301
MARGIN
  1
CELLMARGIN_BEGIN
 40
1.5
 40
1.5
 40
1.5
 40
1.5
 40
4.5
 40
4.5
309
CELLMARGIN_END
 94
        6
 95
        1
302
GRIDFORMAT
  1
GRIDFORMAT_BEGIN
 90
        0
 91
        1
 62
     0
 92
       -2
340
0
 93
        0
 40
1.125
309
GRIDFORMAT_END
 95
        2
302
GRIDFORMAT
  1
GRIDFORMAT_BEGIN
 90
        0
 91
        1
 62
     0
 92
       -2
340
0
 93
        0
 40
1.125
309
GRIDFORMAT_END
 95
        4
302
GRIDFORMAT
  1
GRIDFORMAT_BEGIN
 90
        0
 91
        1
 62
     0
 92
       -2
340
0
 93
        0
 40
1.125
309
GRIDFORMAT_END
 95
        8
302
GRIDFORMAT
  1
GRIDFORMAT_BEGIN
 90
        0
 91
        1
 62
     0
 92
       -2
340
0
 93
        0
 40
1.125
309
GRIDFORMAT_END
 95
       16
302
GRIDFORMAT
  1
GRIDFORMAT_BEGIN
 90
        0
 91
        1
 62
     0
 92
       -2
340
0
 93
        0
 40
1.125
309
GRIDFORMAT_END
 95
       32
302
GRIDFORMAT
  1
GRIDFORMAT_BEGIN
 90
        0
 91
        1
 62
     0
 92
       -2
340
0
 93
        0
 40
1.125
309
GRIDFORMAT_END
309
TABLEFORMAT_END
  1
CELLSTYLE_BEGIN
 90
        1
 91
        1
300
_TITLE
309
CELLSTYLE_END
300
CELLSTYLE
  1
TABLEFORMAT_BEGIN
 90
        5
170
     1
 91
        0
 92
        0
 62
   257
 93
        1
300
CONTENTFORMAT
  1
CONTENTFORMAT_BEGIN
 90
        0
 91
        0
 92
      512
 93
        0
300

 40
0.0
140
1.0
 94
        5
 62
     0
340
11
144
4.5
309
CONTENTFORMAT_END
171
     1
301
MARGIN
  1
CELLMARGIN_BEGIN
 40
1.5
 40
1.5
 40
1.5
 40
1.5
 40
4.5
 40
4.5
309
CELLMARGIN_END
 94
        6
 95
        1
302
GRIDFORMAT
  1
GRIDFORMAT_BEGIN
 90
        0
 91
        1
 62
     0
 92
       -2
340
0
 93
        0
 40
1.125
309
GRIDFORMAT_END
 95
        2
302
GRIDFORMAT
  1
GRIDFORMAT_BEGIN
 90
        0
 91
        1
 62
     0
 92
       -2
340
0
 93
        0
 40
1.125
309
GRIDFORMAT_END
 95
        4
302
GRIDFORMAT
  1
GRIDFORMAT_BEGIN
 90
        0
 91
        1
 62
     0
 92
       -2
340
0
 93
        0
 40
1.125
309
GRIDFORMAT_END
 95
        8
302
GRIDFORMAT
  1
GRIDFORMAT_BEGIN
 90
        0
 91
        1
 62
     0
 92
       -2
340
0
 93
        0
 40
1.125
309
GRIDFORMAT_END
 95
       16
302
GRIDFORMAT
  1
GRIDFORMAT_BEGIN
 90
        0
 91
        1
 62
     0
 92
       -2
340
0
 93
        0
 40
1.125
309
GRIDFORMAT_END
 95
       32
302
GRIDFORMAT
  1
GRIDFORMAT_BEGIN
 90
        0
 91
        1
 62
     0
 92
       -2
340
0
 93
        0
 40
1.125
309
GRIDFORMAT_END
309
TABLEFORMAT_END
  1
CELLSTYLE_BEGIN
 90
        2
 91
        1
300
_HEADER
309
CELLSTYLE_END
300
CELLSTYLE
  1
TABLEFORMAT_BEGIN
 90
        5
170
     1
 91
        0
 92
        0
 62
   257
 93
        1
300
CONTENTFORMAT
  1
CONTENTFORMAT_BEGIN
 90
        0
 91
        0
 92
      512
 93
        0
300

 40
0.0
140
1.0
 94
        2
 62
     0
340
11
144
4.5
309
CONTENTFORMAT_END
171
     1
301
MARGIN
  1
CELLMARGIN_BEGIN
 40
1.5
 40
1.5
 40
1.5
 40
1.5
 40
4.5
 40
4.5
309
CELLMARGIN_END
 94
        6
 95
        1
302
GRIDFORMAT
  1
GRIDFORMAT_BEGIN
 90
        0
 91
        1
 62
     0
 92
       -2
340
0
 93
        0
 40
1.125
309
GRIDFORMAT_END
 95
        2
302
GRIDFORMAT
  1
GRIDFORMAT_BEGIN
 90
        0
 91
        1
 62
     0
 92
       -2
340
0
 93
        0
 40
1.125
309
GRIDFORMAT_END
 95
        4
302
GRIDFORMAT
  1
GRIDFORMAT_BEGIN
 90
        0
 91
        1
 62
     0
 92
       -2
340
0
 93
        0
 40
1.125
309
GRIDFORMAT_END
 95
        8
302
GRIDFORMAT
  1
GRIDFORMAT_BEGIN
 90
        0
 91
        1
 62
     0
 92
       -2
340
0
 93
        0
 40
1.125
309
GRIDFORMAT_END
 95
       16
302
GRIDFORMAT
  1
GRIDFORMAT_BEGIN
 90
        0
 91
        1
 62
     0
 92
       -2
340
0
 93
        0
 40
1.125
309
GRIDFORMAT_END
 95
       32
302
GRIDFORMAT
  1
GRIDFORMAT_BEGIN
 90
        0
 91
        1
 62
     0
 92
       -2
340
0
 93
        0
 40
1.125
309
GRIDFORMAT_END
309
TABLEFORMAT_END
  1
CELLSTYLE_BEGIN
 90
        3
 91
        2
300
_DATA
309
CELLSTYLE_END
  0
ACAD_PROXY_OBJECT
  5
362
330
356
100
AcDbProxyObject
 90
      499
 91
      556
 95
  4980761
 70
     0
161
                12
310
5C5C
 94
        0
  0
ACAD_PROXY_OBJECT
  5
363
330
356
100
AcDbProxyObject
 90
      499
 91
      557
 95
  4980761
 70
     0
161
                96
310
5C6A0E80A0280A0280A0280F00
 94
        0
  0
ACAD_PROXY_OBJECT
  5
364
330
356
100
AcDbProxyObject
 90
      499
 91
      558
 95
  4980761
 70
     0
161
               272
310
5C50E4050140501405014050140501405014050140D01405012C00000000000000401F
340
36E
 94
        0
  0
ACAD_PROXY_OBJECT
  5
365
330
356
100
AcDbProxyObject
 90
      499
 91
      559
 95
  4980761
 70
     0
161
               496
310
5C68666666666667A67E199999999999E99FD22405014050140501405014050140501405014050140501405014050140501405014050140501405014050100
340
36F
 94
        0
  0
ACAD_PROXY_OBJECT
  5
366
330
356
100
AcDbProxyObject
 90
      499
 91
      560
 95
  4980761
 70
     0
161
                10
310
5C4C
 94
        0
  0
ACAD_PROXY_OBJECT
  5
367
330
356
100
AcDbProxyObject
 90
      499
 91
      561
 95
  4980761
 70
     0
161
               257
310
5C6290EA22A7D90F49F8000000000000108140000000000000420401000061804C
340
370
340
371
 94
        0
  0
ACAD_PROXY_OBJECT
  5
368
330
356
100
AcDbProxyObject
 90
      499
 91
      562
 95
  4980761
 70
     0
161
             12823
310
5C50E411255115350141343CAEB150140501406901000000000000091013347454E545241434F2C4348532C302CD0F2BAC52C47454E54524154582C25732C2847454E4D53472067656E647767203232322940690120281A8AA2CA0282657EE0DFA028120280A0320200000000000012202668E8A9CA8A482869E588690A658
310
605995FB837E588E8A9CA8A482A8B0584AE658508E8A9C9AA68E40CECADCC8EECE406464665280D202405044E414D4540504C3FBB3C64051C40640A80000000000004E404CD1D15395149050D3CB10D214CB0C0B30FEECF18B11D15395149055160B095CCB0A11D1539354D1C819D95B991DD9C80C8C8D8A50192C3D494628
310
4953424C414E4B28504152543A4E414D45292C424C4F434B3A4E414D452C504152543A4E414D452940480A0A888AA686A480A09976B87EE80A3A80C81D0000000000100A28099A3A2A72A2920A1A79621A42996181665DAE1FB9623A2A72A2920AA2C1612B9961423A2A726A9A39033B2B7323BB39019189B94A0348090142
310
14D5105391105491101412C7AB5EF10147501904A000000000000125013347454E545241434F2C4348532C302CB1EAD7BC2C47454E54524154582C25732C2847454E4D53472067656E64776720323138294069012028426A0AA22A924A0A620282596260E7A028EA0320B40000000000001CA02668E8A9CA8A482869E58869
310
0A65860596589839E588E8A9CA8A482A8B0584AE658508E8A9C9AA68E40CECADCC8EECE406464625280D202405044E4F544540504B1B8D7A24051D40641A80000000000003E404CD1D15395149050D3CB10D214CB0C0B2C6E35E88B11D15395149055160B095CCB0A11D1539354D1C819D95B991DD9C80C8C8D4A501240480
310
A0CAC8A9C889EA480A0D7353A74D939880A3A80C83D00000000000007C809AA3A2A72A2920A1A79621A4299618165CD4E9D364E61623A2A72A2920AA2C1612B9961423A2A726A9A39033B2B7323BB39019191A14A0248090141911154D0D48C90142B078EF3FB0FA32BD880C90147501908A000000000020145013847454E5
310
45241434F2C4348532C302CC1E3BCFEC3E8CAF620322C47454E54524154582C25732C2847454E4D53472067656E6477672033362940490120284A9AA20A72220A922192028358F56BDE10192028EA03213400000000000024A026A8E8A9CA8A482869E588690A658605963D5AF784064588E8A9CA8A482A8B0584AE658508E
310
8A9C9AA68E40CECADCC8EECE4064646052809202405094D4154455249414C3240506B2C4C1CF20324051D40642A8713D0AD7A37045404D11D15395149050D3CB10D214CB0C0B2CB13073C80C8B11D15395149055160B095CCB0A11D1539354D1C819D95B991DD9C80D0C0A501240480A089A82A6A680A09AD95837E80A3A80
310
A0485A068100000000000007C809923A2A72A2920A1A79621A4299618166B6560DF9623A2A72A2920AA2C1612B9961423A2A726A9A39033B2B7323BB3901A1914A024809014154149250D1501412D696F36D01475014090C409020000000000000F9013247454E545241434F2C4348532C302CB5A5BCDB2C47454E54524154
310
582C25732C2847454E4D53472067656E6477672034332940490120281A224A6A028259EFDA73A028EA028121A81A040000000000001F202648E8A9CA8A482869E588690A658605967BF69CE588E8A9CA8A482A8B0584AE658508E8A9C9AA68E40CECADCC8EECE406868528092024050E445020000000000000510201C00030
310
C00010180000000000003E400000000000000F901073D3C4954454D3E4050180000000000003E400000000000000F901073D3C4954454D3E40501800000000000034400000000000000D101073D3C4954454D3E40501800000000000034400000000000000D101073D3C4954454D3E405029010000000000000F9000000000
310
000003E4041CF4F125511534F901418F4F1455164F9014060000000000000F9000000000000003E4041CF4F125511534F901901000000000000000F9000000000000003E40A2200000000000008204018000618048220681A048120280C882148448820348520348452028521485214814000000000000F0BF000000000000
310
3C2FD018020000C3008070000C3003373333333333B0FCCDCCCCCCCCCCEC3F000000000000031012034164050341105901A00000000000006204010000618040100006180400800061802026280A02
340
0
340
0
 94
        0
  0
ACAD_PROXY_OBJECT
  5
369
330
356
100
AcDbProxyObject
 90
      499
 91
      563
 95
  4980761
 70
     0
161
               898
310
5C44000000000000144048CF4F11115510525317D3105091530F880A0F11115510525317D05094D4D0D053114F8A51141C9A9999999999B93F26A666666666724FC000000000000E03F400000000000000400000000000000510000000000000024408070000C30000000000000005100C
340
16
340
361
 94
        0
  0
ACAD_PROXY_OBJECT
  5
36A
330
356
100
AcDbProxyObject
 90
      499
 91
      564
 95
  4980761
 70
     0
161
               813
310
5C40B00000000000002880959E9E29A2A1AA24A7A72FA620A122A62FA324A929AA1F169E29A2A1AA24A7A72FA620A122A62FA620A9AA1F00000000000004880FF8070000C30022300E000186000000000000001220000000000000028800000000000000A204
340
41
340
361
 94
        0
  0
ACAD_PROXY_OBJECT
  5
36B
330
356
100
AcDbProxyObject
 90
      499
 91
      565
 95
  4980761
 70
     0
161
               151
310
5C680000000000000840A3D0A5723F0BD1F200
 94
        0
  0
ACAD_PROXY_OBJECT
  5
36C
330
356
100
AcDbProxyObject
 90
      499
 91
      566
 95
  4980761
 70
     0
161
                14
310
5C60
340
0
 94
        0
  0
ACAD_PROXY_OBJECT
  5
36D
330
356
100
AcDbProxyObject
 90
      499
 91
      567
 95
  4980761
 70
     0
161
              8013
310
5C5084050BA4050AA4050240506C4A3B0E520314043A013D2525633C486F6C653A63746469613E2078203C486F6C653A637464657074683E20555C503C696628657175616C28486F6C653A7461707065642C223022292C22252563222C486F6C653A6E6F6D696E616C202220782022293E3C696628657175616C28486F6C65
310
3A7461707065642C223022292C486F6C653A6469612C486F6C653A706974636864657363293E3C696628657175616C28486F6C653A7461707065642C223122292C22207820222C2222293E3C696628657175616C28486F6C653A7461707065642C223122292C486F6C653A74617064657074682C2222293E203C6966286571
310
75616C28486F6C653A7465726D696E6174696F6E2C223022292C22202F20222C2222293E3C696628657175616C28486F6C653A7465726D696E6174696F6E2C223022292C486F6C653A64657074682C2222293E4069014050340506C4A3B0E520314043B013D2525633C486F6C653A63746469613E2078203C486F6C653A637
310
4616E676C653E2525645C503C696628657175616C28486F6C653A7461707065642C223022292C22252563222C486F6C653A6E6F6D696E616C202220782022293E3C696628657175616C28486F6C653A7461707065642C223022292C486F6C653A6469612C486F6C653A706974636864657363293E3C696628657175616C284
310
86F6C653A7461707065642C223122292C22207820222C2222293E3C696628657175616C28486F6C653A7461707065642C223122292C486F6C653A74617064657074682C2222293E203C696628657175616C28486F6C653A7465726D696E6174696F6E2C223022292C22202F20222C2222293E3C696628657175616C28486F6
310
C653A7465726D696E6174696F6E2C223022292C486F6C653A64657074682C2222293E4069014050140506C4A3B0E5203140416013D3C696628657175616C28486F6C653A7461707065642C223022292C22252563222C486F6C653A6E6F6D696E616C202220782022293E3C696628657175616C28486F6C653A746170706564
310
2C223022292C486F6C653A6469612C486F6C653A706974636864657363293E3C696628657175616C28486F6C653A7461707065642C223122292C22207820222C2222293E3C696628657175616C28486F6C653A7461707065642C223122292C486F6C653A74617064657074682C2222293E203C696628657175616C28486F6C
310
653A7465726D696E6174696F6E2C223022292C22202F20222C2222293E3C696628657175616C28486F6C653A7465726D696E6174696F6E2C223022292C486F6C653A64657074682C2222293E4069014051E40506C4A3B0E520314050C3D3C535444503A444553433E40690140515AAAB8C
360
376
330
376
360
377
330
377
360
375
330
375
360
374
330
374
 94
        0
  0
ACAD_PROXY_OBJECT
  5
378
330
356
100
AcDbProxyObject
 90
      499
 91
      569
 95
  4980761
 70
     0
161
                26
310
5C502A8C
340
357
 94
        0
  0
ACAD_PROXY_OBJECT
  5
379
330
356
100
AcDbProxyObject
 90
      499
 91
      570
 95
  4980761
 70
     0
161
               250
310
5C5020000000000000A1000000000000002440408F0F9023C3E409A0DCFFFF8C
340
37A
340
0
340
0
340
37B
340
37C
340
37D
340
37E
340
37F
340
384
340
0
 94
        0
  0
ACAD_PROXY_OBJECT
  5
385
330
356
100
AcDbProxyObject
 90
      499
 91
      571
 95
  4980761
 70
     0
161
             13549
310
5C51C003FFFFFFFD030300030000000000000310200800030C01030300030000000000000310200800030C000508D7F8B1EAC1D0B1ED014DD1D15395149050D3CB10D214CB0C0B35FE2C7AB0742C7B4B11D15395149055160B095CCB0A11D1539354D1C819D95B991A5B5E880CCC0A78000C00000000000000000000000000
310
0000010000000000000310200800030C010000000000000310200800030C0201412FF5EC7B4053347454E545241434F2C4348532C302CBFD7B1ED2C47454E54524154582C25732C2847454E4D53472067656E64696D7A20333129E00030000000000000000000000000000000040000000000000C408020000C30040000000
310
000000C408020000C30090D44111409034110541D0C4350F4050E44D03449074510F00014131BC2D78C053247454E545241434F2C4348532C302CC6F0B5E32C47454E54524154582C25732C2847454E4D53472067656E64696D7A203129000101040022140002815FEB80A608E8A9CA8A482869E588690A65860597FAE588E
310
8A9CA8A482A8B0584AE658508E8A9C9AA68E40CECADCC8D2DAF4406452029E9E9E27B934B3B4B71F1E24A31427A91424A9A12620A7259427B934B3B4B7149624A9A12620A7259424BA32B6949496111116111711149F1E24BA32B69F00808200111A000140560052F47454E545241434F2C4348532C302C582C47454E54524
310
154582C25732C2847454E4D53472067656E64696D7A20332900010100002054000280AC80A5E8E8A9CA8A482869E588690A6586058B2588E8A9CA8A482A8B0584AE658508E8A9C9AA68E40CECADCC8D2DAF4406852000202000040E800050152014BD1D15395149050D3CB10D214CB0C0B148B11D15395149055160B095CCB
310
0A11D1539354D1C819D95B991A5B5E880D8A400040400008250000A30F6B8CCA6F2DAC4DED8F8C460F8D260F8C664F8E06076D4FA02A323A2A72A2920A1A79621A4299618163DAE3329BCB6B137B63E31183E34983E31993E38181DB53E9623A2A72A2920AA2C1612B9961423A2A726A9A39033B2B73234B6BD101B9480008
310
08180105A000140A9B54053047454E545241434F2C4348532C302CA6D52C47454E54524154582C25732C2847454E4D53472067656E64696D7A203829000101010020F400028265DAE1FB80A668E8A9CA8A482869E588690A6586059976B87EE588E8A9CA8A482A8B0584AE658508E8A9C9AA68E40CECADCC8D2DAF44064605
310
200020008004328000504B1EAD7BC014CD1D15395149050D3CB10D214CB0C0B2C7AB5EF0B11D15395149055160B095CCB0A11D1539354D1C819D95B991A5B5E880C8C4A4000400100086D0000A098DE16BC6029923A2A72A2920A1A79621A42996181663785AF19623A2A72A2920AA2C1612B9961423A2A726A9A39033B2B7
310
3234B6BD10189480A02620202080043E8000504D0F2BAC5014CD1D15395149050D3CB10D214CB0C0B343CAEB14B11D15395149055160B095CCB0A11D1539354D1C819D95B991A5B5E880C4D0A4000404140280D0000A0997EFA5FA0299A3A2A72A2920A1A79621A42996181665FBE97E9623A2A72A2920AA2C1612B9961423
310
A2A726A9A39033B2B73234B6BD10189A94800080828050EA000141AFF5F2FDF4BF4053547454E545241434F2C4348532C302CBFD7CBF7D2FD2C47454E54524154582C25732C2847454E4D53472067656E64696D7A20313729000101050022740002815FEB80A628E8A9CA8A482869E588690A65860597FAE588E8A9CA8A482
310
A8B0584AE658508E8A9C9AA68E40CECADCC8D2DAF440626C52000202080044A8000504CAFDC1BF014CD1D15395149050D3CB10D214CB0C0B32BF706FCB11D15395149055160B095CCB0A11D1539354D1C819D95B991A5B5E880C4E4A400040418008A521E000000000000001CA040C00000000000034408080000000000006
310
881010000000000000D102040000000000001A204080000000000003440818000000000000728103000000000000125020600000000004028A040000000000000034408000000000000004881000000000000000D102000000000000001A204000000000000003440818000000000000508143C00000000000000394081800
310
00000000006881030000000000000D102060000000000001A2040C00000000000034408180000000000006881030000000000000E5020600000000000024A040C000000000080514080000000000000068810000000000000009102000000000000001A2040000000000000034408180000000000006881030000000000000
310
A1028422000000087800000202000000838000002040000008180000020800000082800000202890000004
340
0
340
0
340
0
340
0
340
361
340
361
 94
        0
  0
ACAD_PROXY_OBJECT
  5
386
330
356
100
AcDbProxyObject
 90
      499
 91
      572
 95
  4980761
 70
     0
161
              7474
310
5C59740D254D3D0649534F5F4133429254D3D7D5125513115051349534F5F42525F5265766973696F6E6C69737446114413378372028343230783230383020BAC1C3D729421254D3D7D04CDE0DD14413478392028323937783138393220BAC1C3D729421254D3D7D04D1E0E514413278342028353934783136383220BAC1C3
310
D729421254D3D7D04C9E0D1134134783320283239377836333020BAC1C3D729421254D3D7D04D1E0CD144134783420283239377838343120BAC1C3D72920421254D3D7D04D1E0D114413478362028323937783132363120BAC1C3D729421254D3D7D04D1E0D91341302028383430783131383820BAC1C3D72920419254D3D7
310
D04C11541307833202831313839783235323320BAC1C3D729421254D3D7D04C1E0CD14413278352028353934783231303220BAC1C3D729421254D3D7D04C9E0D514413178342028383430783233373820BAC1C3D729421254D3D7D04C5E0D114413478382028323937783136383220BAC1C3D729421254D3D7D04D1E0E1114
310
13320283239377834323020BAC1C3D729419254D3D7D04CD14413278332028353934783132363120BAC1C3D729421254D3D7D04C9E0CD14413478352028323937783130353120BAC1C3D729421254D3D7D04D1E0D51541307832202831313839783136383220BAC1C3D729421254D3D7D04C1E0C9144131783320283834307
310
83137383320BAC1C3D729421254D3D7D04C5E0CD11413220283432307835393420BAC1C3D729419254D3D7D04C9134133783320283432307838393120BAC1C3D729421254D3D7D04CDE0CD14413378362028343230783137383320BAC1C3D729421254D3D7D04CDE0D911413420283239377832313020BAC1C3D729419254D
310
3D7D04D114413478372028323937783134373120BAC1C3D729421254D3D7D04D1E0DD14413378352028343230783134383620BAC1C3D729421254D3D7D04CDE0D51241312028353934783231303220BAC1C3D729419254D3D7D04C514413378342028343230783131383920BAC1C3D729421254D3D7D04CDE0D102431254D3
310
C82C7AB338B02E081050A49534F5F5449544C4541431254D3C82C7AB338B02E081090A49534F5F5449544C45424110AB8FCB8C4C0B85F42525F44D254D3D7D09497D4995D9A5CDA5BDB9B1A5CDD10AB8FCB8C4C0B85F54525F44D254D3D7D51497D4995D9A5CDA5BDB9B1A5CDD10AB8FCB8C4C0B85F424C5F44D254D3D7D09
310
317D4995D9A5CDA5BDB9B1A5CDD10AB8FCB8C4C0B85F544C5F44D254D3D7D51317D4995D9A5CDA5BDB9B1A5CDD0C
 94
        0
  0
ACAD_PROXY_OBJECT
  5
376
330
0
100
AcDbProxyObject
 90
      499
 91
      568
 95
  4980761
 70
     0
161
              2616
310
5C60141B128EC39480C4043A013D2525633C486F6C653A63746469613E2078203C486F6C653A637464657074683E20555C503C696628657175616C28486F6C653A7461707065642C223022292C22252563222C486F6C653A6E6F6D696E616C202220782022293E3C696628657175616C28486F6C653A7461707065642C2230
310
22292C486F6C653A6469612C486F6C653A706974636864657363293E3C696628657175616C28486F6C653A7461707065642C223122292C22207820222C2222293E3C696628657175616C28486F6C653A7461707065642C223122292C486F6C653A74617064657074682C2222293E203C696628657175616C28486F6C653A74
310
65726D696E6174696F6E2C223022292C22202F20222C2222293E3C696628657175616C28486F6C653A7465726D696E6174696F6E2C223022292C486F6C653A64657074682C2222293E00
 94
        0
  0
ACAD_PROXY_OBJECT
  5
377
330
0
100
AcDbProxyObject
 90
      499
 91
      568
 95
  4980761
 70
     0
161
              2624
310
5C60141B128EC39480C4043B013D2525633C486F6C653A63746469613E2078203C486F6C653A6374616E676C653E2525645C503C696628657175616C28486F6C653A7461707065642C223022292C22252563222C486F6C653A6E6F6D696E616C202220782022293E3C696628657175616C28486F6C653A7461707065642C22
310
3022292C486F6C653A6469612C486F6C653A706974636864657363293E3C696628657175616C28486F6C653A7461707065642C223122292C22207820222C2222293E3C696628657175616C28486F6C653A7461707065642C223122292C486F6C653A74617064657074682C2222293E203C696628657175616C28486F6C653A
310
7465726D696E6174696F6E2C223022292C22202F20222C2222293E3C696628657175616C28486F6C653A7465726D696E6174696F6E2C223022292C486F6C653A64657074682C2222293E00
 94
        0
  0
ACAD_PROXY_OBJECT
  5
375
330
0
100
AcDbProxyObject
 90
      499
 91
      568
 95
  4980761
 70
     0
161
              2328
310
5C60141B128EC39480C40416013D3C696628657175616C28486F6C653A7461707065642C223022292C22252563222C486F6C653A6E6F6D696E616C202220782022293E3C696628657175616C28486F6C653A7461707065642C223022292C486F6C653A6469612C486F6C653A706974636864657363293E3C69662865717561
310
6C28486F6C653A7461707065642C223122292C22207820222C2222293E3C696628657175616C28486F6C653A7461707065642C223122292C486F6C653A74617064657074682C2222293E203C696628657175616C28486F6C653A7465726D696E6174696F6E2C223022292C22202F20222C2222293E3C696628657175616C28
310
486F6C653A7465726D696E6174696F6E2C223022292C486F6C653A64657074682C2222293E11
 94
        0
  0
ACAD_PROXY_OBJECT
  5
374
330
0
100
AcDbProxyObject
 90
      499
 91
      568
 95
  4980761
 70
     0
161
               192
310
5C60141B128EC39480C4050C3D3C535444503A444553433E66
 94
        0
  0
ENDSEC
  0
EOF
