  0
SECTION
  2
HEADER
  9
$ACADVER
  1
AC1027
  9
$ACADMAINTVER
 70
   125
  9
$DWGCODEPAGE
  3
ANSI_1252
  9
$LASTSAVEDBY
  1
fleminab
  9
$REQUIREDVERSIONS
160
                 0
  9
$INSBASE
 10
0.0
 20
0.0
 30
0.0
  9
$EXTMIN
 10
3479.328658964052
 20
-354.0217587562111
 30
-0.0000000000000053
  9
$EXTMAX
 10
3968.557420314647
 20
216.9630925221982
 30
0.0000000000000099
  9
$LIMMIN
 10
0.0
 20
0.0
  9
$LIMMAX
 10
420.0
 20
297.0
  9
$ORTHOMODE
 70
     0
  9
$REGENMODE
 70
     1
  9
$FILLMODE
 70
     1
  9
$QTEXTMODE
 70
     0
  9
$MIRRTEXT
 70
     1
  9
$LTSCALE
 40
0.3
  9
$ATTMODE
 70
     1
  9
$TEXTSIZE
 40
2.5
  9
$TRACEWID
 40
1.0
  9
$TEXTSTYLE
  7
Standard
  9
$CLAYER
  8
图层7
  9
$CELTYPE
  6
ByLayer
  9
$CECOLOR
 62
   256
  9
$CELTSCALE
 40
1.0
  9
$DISPSILH
 70
     0
  9
$DIMSCALE
 40
4.0
  9
$DIMASZ
 40
2.5
  9
$DIMEXO
 40
0.625
  9
$DIMDLI
 40
3.75
  9
$DIMRND
 40
0.0
  9
$DIMDLE
 40
0.0
  9
$DIMEXE
 40
1.25
  9
$DIMTP
 40
0.0
  9
$DIMTM
 40
0.0
  9
$DIMTXT
 40
3.0
  9
$DIMCEN
 40
2.5
  9
$DIMTSZ
 40
0.0
  9
$DIMTOL
 70
     0
  9
$DIMLIM
 70
     0
  9
$DIMTIH
 70
     0
  9
$DIMTOH
 70
     0
  9
$DIMSE1
 70
     0
  9
$DIMSE2
 70
     0
  9
$DIMTAD
 70
     1
  9
$DIMZIN
 70
     8
  9
$DIMBLK
  1

  9
$DIMASO
 70
     1
  9
$DIMSHO
 70
     1
  9
$DIMPOST
  1

  9
$DIMAPOST
  1

  9
$DIMALT
 70
     0
  9
$DIMALTD
 70
     3
  9
$DIMALTF
 40
0.03937007874016
  9
$DIMLFAC
 40
1.0
  9
$DIMTOFL
 70
     1
  9
$DIMTVP
 40
0.0
  9
$DIMTIX
 70
     0
  9
$DIMSOXD
 70
     0
  9
$DIMSAH
 70
     0
  9
$DIMBLK1
  1

  9
$DIMBLK2
  1

  9
$DIMSTYLE
  2
ISO-25
  9
$DIMCLRD
 70
   256
  9
$DIMCLRE
 70
   256
  9
$DIMCLRT
 70
   256
  9
$DIMTFAC
 40
1.0
  9
$DIMGAP
 40
0.625
  9
$DIMJUST
 70
     0
  9
$DIMSD1
 70
     0
  9
$DIMSD2
 70
     0
  9
$DIMTOLJ
 70
     0
  9
$DIMTZIN
 70
     8
  9
$DIMALTZ
 70
     0
  9
$DIMALTTZ
 70
     0
  9
$DIMUPT
 70
     0
  9
$DIMDEC
 70
     1
  9
$DIMTDEC
 70
     1
  9
$DIMALTU
 70
     2
  9
$DIMALTTD
 70
     3
  9
$DIMTXSTY
  7
Standard
  9
$DIMAUNIT
 70
     0
  9
$DIMADEC
 70
     0
  9
$DIMALTRND
 40
0.0
  9
$DIMAZIN
 70
     0
  9
$DIMDSEP
 70
    46
  9
$DIMATFIT
 70
     3
  9
$DIMFRAC
 70
     0
  9
$DIMLDRBLK
  1

  9
$DIMLUNIT
 70
     2
  9
$DIMLWD
 70
    -1
  9
$DIMLWE
 70
    -1
  9
$DIMTMOVE
 70
     0
  9
$DIMFXL
 40
1.25
  9
$DIMFXLON
 70
     0
  9
$DIMJOGANG
 40
0.7853981633974483
  9
$DIMTFILL
 70
     0
  9
$DIMTFILLCLR
 70
     0
  9
$DIMARCSYM
 70
     0
  9
$DIMLTYPE
  6

  9
$DIMLTEX1
  6

  9
$DIMLTEX2
  6

  9
$DIMTXTDIRECTION
 70
     0
  9
$LUNITS
 70
     2
  9
$LUPREC
 70
     4
  9
$SKETCHINC
 40
1.0
  9
$FILLETRAD
 40
3.0
  9
$AUNITS
 70
     0
  9
$AUPREC
 70
     0
  9
$MENU
  1
.
  9
$ELEVATION
 40
0.0
  9
$PELEVATION
 40
0.0
  9
$THICKNESS
 40
0.0
  9
$LIMCHECK
 70
     0
  9
$CHAMFERA
 40
10.0
  9
$CHAMFERB
 40
10.0
  9
$CHAMFERC
 40
20.0
  9
$CHAMFERD
 40
0.0
  9
$SKPOLY
 70
     0
  9
$TDCREATE
 40
2452341.882372685
  9
$TDUCREATE
 40
2452341.424046528
  9
$TDUPDATE
 40
2458032.491458334
  9
$TDUUPDATE
 40
2458032.033125000
  9
$TDINDWG
 40
0.9494852431
  9
$TDUSRTIMER
 40
0.9494852431
  9
$USRTIMER
 70
     1
  9
$ANGBASE
 50
0.0
  9
$ANGDIR
 70
     0
  9
$PDMODE
 70
     0
  9
$PDSIZE
 40
0.0
  9
$PLINEWID
 40
0.0
  9
$SPLFRAME
 70
     0
  9
$SPLINETYPE
 70
     6
  9
$SPLINESEGS
 70
     8
  9
$HANDSEED
  5
63CD
  9
$SURFTAB1
 70
     6
  9
$SURFTAB2
 70
     6
  9
$SURFTYPE
 70
     6
  9
$SURFU
 70
     6
  9
$SURFV
 70
     6
  9
$UCSBASE
  2

  9
$UCSNAME
  2

  9
$UCSORG
 10
0.0
 20
0.0
 30
0.0
  9
$UCSXDIR
 10
1.0
 20
0.0
 30
0.0
  9
$UCSYDIR
 10
0.0
 20
1.0
 30
0.0
  9
$UCSORTHOREF
  2

  9
$UCSORTHOVIEW
 70
     0
  9
$UCSORGTOP
 10
0.0
 20
0.0
 30
0.0
  9
$UCSORGBOTTOM
 10
0.0
 20
0.0
 30
0.0
  9
$UCSORGLEFT
 10
0.0
 20
0.0
 30
0.0
  9
$UCSORGRIGHT
 10
0.0
 20
0.0
 30
0.0
  9
$UCSORGFRONT
 10
0.0
 20
0.0
 30
0.0
  9
$UCSORGBACK
 10
0.0
 20
0.0
 30
0.0
  9
$PUCSBASE
  2

  9
$PUCSNAME
  2

  9
$PUCSORG
 10
0.0
 20
0.0
 30
0.0
  9
$PUCSXDIR
 10
1.0
 20
0.0
 30
0.0
  9
$PUCSYDIR
 10
0.0
 20
1.0
 30
0.0
  9
$PUCSORTHOREF
  2

  9
$PUCSORTHOVIEW
 70
     0
  9
$PUCSORGTOP
 10
0.0
 20
0.0
 30
0.0
  9
$PUCSORGBOTTOM
 10
0.0
 20
0.0
 30
0.0
  9
$PUCSORGLEFT
 10
0.0
 20
0.0
 30
0.0
  9
$PUCSORGRIGHT
 10
0.0
 20
0.0
 30
0.0
  9
$PUCSORGFRONT
 10
0.0
 20
0.0
 30
0.0
  9
$PUCSORGBACK
 10
0.0
 20
0.0
 30
0.0
  9
$USERI1
 70
     0
  9
$USERI2
 70
     0
  9
$USERI3
 70
     0
  9
$USERI4
 70
     0
  9
$USERI5
 70
     0
  9
$USERR1
 40
0.0
  9
$USERR2
 40
0.0
  9
$USERR3
 40
0.0
  9
$USERR4
 40
0.0
  9
$USERR5
 40
0.0
  9
$WORLDVIEW
 70
     1
  9
$SHADEDGE
 70
     3
  9
$SHADEDIF
 70
    70
  9
$TILEMODE
 70
     1
  9
$MAXACTVP
 70
    64
  9
$PINSBASE
 10
0.0
 20
0.0
 30
0.0
  9
$PLIMCHECK
 70
     0
  9
$PEXTMIN
 10
1.000000000000000E+20
 20
1.000000000000000E+20
 30
1.000000000000000E+20
  9
$PEXTMAX
 10
-1.000000000000000E+20
 20
-1.000000000000000E+20
 30
-1.000000000000000E+20
  9
$PLIMMIN
 10
0.0
 20
0.0
  9
$PLIMMAX
 10
420.0
 20
297.0
  9
$UNITMODE
 70
     0
  9
$VISRETAIN
 70
     1
  9
$PLINEGEN
 70
     0
  9
$PSLTSCALE
 70
     1
  9
$TREEDEPTH
 70
  3020
  9
$CMLSTYLE
  2
Standard
  9
$CMLJUST
 70
     0
  9
$CMLSCALE
 40
20.0
  9
$PROXYGRAPHICS
 70
     1
  9
$MEASUREMENT
 70
     0
  9
$CELWEIGHT
370
    -1
  9
$ENDCAPS
280
     0
  9
$JOINSTYLE
280
     0
  9
$LWDISPLAY
290
     1
  9
$INSUNITS
 70
     4
  9
$HYPERLINKBASE
  1

  9
$STYLESHEET
  1

  9
$XEDIT
290
     1
  9
$CEPSNTYPE
380
     0
  9
$PSTYLEMODE
290
     1
  9
$FINGERPRINTGUID
  2
{76D08062-31F6-11D6-AFE6-00E04C3D640A}
  9
$VERSIONGUID
  2
{2B135B7E-E3BB-2F44-A655-D1AB7CF311A1}
  9
$EXTNAMES
290
     1
  9
$PSVPSCALE
 40
0.0
  9
$OLESTARTUP
290
     0
  9
$SORTENTS
280
    96
  9
$INDEXCTL
280
     0
  9
$HIDETEXT
280
     0
  9
$XCLIPFRAME
280
     0
  9
$HALOGAP
280
     0
  9
$OBSCOLOR
 70
   257
  9
$OBSLTYPE
280
     0
  9
$INTERSECTIONDISPLAY
280
     0
  9
$INTERSECTIONCOLOR
 70
   257
  9
$DIMASSOC
280
     1
  9
$PROJECTNAME
  1

  9
$CAMERADISPLAY
290
     0
  9
$LENSLENGTH
 40
50.0
  9
$CAMERAHEIGHT
 40
0.0
  9
$STEPSPERSEC
 40
2.0
  9
$STEPSIZE
 40
6.0
  9
$3DDWFPREC
 40
2.0
  9
$PSOLWIDTH
 40
0.25
  9
$PSOLHEIGHT
 40
4.0
  9
$LOFTANG1
 40
1.570796326794896
  9
$LOFTANG2
 40
1.570796326794896
  9
$LOFTMAG1
 40
0.0
  9
$LOFTMAG2
 40
0.0
  9
$LOFTPARAM
 70
     7
  9
$LOFTNORMALS
280
     1
  9
$LATITUDE
 40
37.795
  9
$LONGITUDE
 40
-122.394
  9
$NORTHDIRECTION
 40
0.0
  9
$TIMEZONE
 70
 -8000
  9
$LIGHTGLYPHDISPLAY
280
     1
  9
$TILEMODELIGHTSYNCH
280
     1
  9
$CMATERIAL
347
634D
  9
$SOLIDHIST
280
     0
  9
$SHOWHIST
280
     1
  9
$DWFFRAME
280
     2
  9
$DGNFRAME
280
     0
  9
$REALWORLDSCALE
290
     1
  9
$INTERFERECOLOR
 62
     1
  9
$INTERFEREOBJVS
345
636F
  9
$INTERFEREVPVS
346
636C
  9
$CSHADOW
280
     0
  9
$SHADOWPLANELOCATION
 40
0.0
  0
ENDSEC
  0
SECTION
  2
CLASSES
  0
CLASS
  1
ACDBDICTIONARYWDFLT
  2
AcDbDictionaryWithDefault
  3
ObjectDBX Classes
 90
        0
 91
        1
280
     0
281
     0
  0
CLASS
  1
DICTIONARYVAR
  2
AcDbDictionaryVar
  3
ObjectDBX Classes
 90
        0
 91
       20
280
     0
281
     0
  0
CLASS
  1
TABLESTYLE
  2
AcDbTableStyle
  3
ObjectDBX Classes
 90
     4095
 91
        1
280
     0
281
     0
  0
CLASS
  1
SORTENTSTABLE
  2
AcDbSortentsTable
  3
ObjectDBX Classes
 90
        0
 91
        1
280
     0
281
     0
  0
CLASS
  1
DIMASSOC
  2
AcDbDimAssoc
  3
"AcDbDimAssoc|Product Desc:     AcDim ARX App For Dimension|Company:          Autodesk, Inc.|WEB Address:      www.autodesk.com"
 90
        0
 91
        0
280
     0
281
     0
  0
CLASS
  1
MATERIAL
  2
AcDbMaterial
  3
ObjectDBX Classes
 90
     1153
 91
        3
280
     0
281
     0
  0
CLASS
  1
VISUALSTYLE
  2
AcDbVisualStyle
  3
ObjectDBX Classes
 90
     4095
 91
       24
280
     0
281
     0
  0
CLASS
  1
SCALE
  2
AcDbScale
  3
ObjectDBX Classes
 90
     1153
 91
       17
280
     0
281
     0
  0
CLASS
  1
MLEADERSTYLE
  2
AcDbMLeaderStyle
  3
ACDB_MLEADERSTYLE_CLASS
 90
     4095
 91
        1
280
     0
281
     0
  0
CLASS
  1
ACDBSECTIONVIEWSTYLE
  2
AcDbSectionViewStyle
  3
ObjectDBX Classes
 90
     1025
 91
        1
280
     0
281
     0
  0
CLASS
  1
ACDBDETAILVIEWSTYLE
  2
AcDbDetailViewStyle
  3
ObjectDBX Classes
 90
     1025
 91
        1
280
     0
281
     0
  0
CLASS
  1
CELLSTYLEMAP
  2
AcDbCellStyleMap
  3
ObjectDBX Classes
 90
     1152
 91
        2
280
     0
281
     0
  0
ENDSEC
  0
SECTION
  2
TABLES
  0
TABLE
  2
VPORT
  5
8
330
0
100
AcDbSymbolTable
 70
     1
1001
ACAD
1000
DbSaveVer
1071
        5
  0
VPORT
  5
634B
330
8
100
AcDbSymbolTableRecord
100
AcDbViewportTableRecord
  2
*Active
 70
     0
 10
0.0
 20
0.0
 11
1.0
 21
1.0
 12
3723.94303963935
 22
-68.52933311700645
 13
0.0
 23
0.0
 14
10.0
 24
10.0
 15
10.0
 25
10.0
 16
0.0
 26
0.0
 36
1.0
 17
0.0
 27
0.0
 37
0.0
 40
575.0730483042689
 41
2.292712066905615
 42
50.0
 43
0.0
 44
0.0
 50
0.0
 51
0.0
 71
     0
 72
 20000
 73
     1
 74
     3
 75
     0
 76
     0
 77
     0
 78
     0
281
     0
 65
     1
110
0.0
120
0.0
130
0.0
111
1.0
121
0.0
131
0.0
112
0.0
122
1.0
132
0.0
 79
     0
146
0.0
348
636B
 60
     3
 61
     5
292
     1
282
     1
141
0.0
142
0.0
 63
   250
421
  3355443
1001
ACAD_NAV_VCDISPLAY
1070
     3
  0
ENDTAB
  0
TABLE
  2
LTYPE
  5
5
330
0
100
AcDbSymbolTable
 70
     2
  0
LTYPE
  5
14
330
5
100
AcDbSymbolTableRecord
100
AcDbLinetypeTableRecord
  2
ByBlock
 70
     0
  3

 72
    65
 73
     0
 40
0.0
  0
LTYPE
  5
15
330
5
100
AcDbSymbolTableRecord
100
AcDbLinetypeTableRecord
  2
ByLayer
 70
     0
  3

 72
    65
 73
     0
 40
0.0
  0
LTYPE
  5
16
330
5
100
AcDbSymbolTableRecord
100
AcDbLinetypeTableRecord
  2
Continuous
 70
     0
  3
Solid line
 72
    65
 73
     0
 40
0.0
  0
LTYPE
  5
2F
330
5
100
AcDbSymbolTableRecord
100
AcDbLinetypeTableRecord
  2
ACAD_ISO12W100
 70
     0
  3
ISO dash double-dot __ . . __ . . __ . . __ . .
 72
    65
 73
     6
 40
21.0
 49
12.0
 74
     0
 49
-3.0
 74
     0
 49
0.0
 74
     0
 49
-3.0
 74
     0
 49
0.0
 74
     0
 49
-3.0
 74
     0
  0
ENDTAB
  0
TABLE
  2
LAYER
  5
2
102
{ACAD_XDICTIONARY
360
5A86
102
}
330
0
100
AcDbSymbolTable
 70
     4
  0
LAYER
  5
10
102
{ACAD_XDICTIONARY
360
639E
102
}
330
2
100
AcDbSymbolTableRecord
100
AcDbLayerTableRecord
  2
0
 70
     0
 62
     7
  6
Continuous
370
    -3
390
F
347
635D
348
0
  0
LAYER
  5
33
102
{ACAD_XDICTIONARY
360
63A0
102
}
330
2
100
AcDbSymbolTableRecord
100
AcDbLayerTableRecord
  2
图层4
 70
     0
 62
     2
  6
ACAD_ISO12W100
370
    20
390
F
347
635D
348
0
1001
AcadStringInfo
1000
MIFCodePage
1070
     5
  0
LAYER
  5
36
102
{ACAD_XDICTIONARY
360
63A2
102
}
330
2
100
AcDbSymbolTableRecord
100
AcDbLayerTableRecord
  2
图层7
 70
     0
 62
     7
  6
Continuous
370
    15
390
F
347
635D
348
0
1001
AcadStringInfo
1000
MIFCodePage
1070
     5
  0
LAYER
  5
A53
330
2
100
AcDbSymbolTableRecord
100
AcDbLayerTableRecord
  2
Defpoints
 70
     0
 62
     7
  6
Continuous
290
     0
370
    -3
390
F
347
635D
348
0
  0
ENDTAB
  0
TABLE
  2
STYLE
  5
3
330
0
100
AcDbSymbolTable
 70
     3
  0
STYLE
  5
11
330
3
100
AcDbSymbolTableRecord
100
AcDbTextStyleTableRecord
  2
Standard
 70
     0
 40
0.0
 41
1.0
 50
0.0
 71
     0
 42
2.5
  3
ARIAL.TTF
  4

1001
ACAD
1000
Arial
1071
       34
  0
STYLE
  5
619C
330
3
100
AcDbSymbolTableRecord
100
AcDbTextStyleTableRecord
  2
GN3
 70
     0
 40
0.156
 41
1.0
 50
0.0
 71
     0
 42
0.2
  3
ARIAL.TTF
  4

1001
ACAD
1000
Arial
1071
       34
  0
STYLE
  5
619D
330
3
100
AcDbSymbolTableRecord
100
AcDbTextStyleTableRecord
  2
GN4
 70
     0
 40
0.188
 41
1.0
 50
0.0
 71
     0
 42
0.2
  3
ROMAND
  4

  0
ENDTAB
  0
TABLE
  2
VIEW
  5
6
330
0
100
AcDbSymbolTable
 70
     0
  0
ENDTAB
  0
TABLE
  2
UCS
  5
7
330
0
100
AcDbSymbolTable
 70
     0
  0
ENDTAB
  0
TABLE
  2
APPID
  5
9
330
0
100
AcDbSymbolTable
 70
    14
  0
APPID
  5
12
330
9
100
AcDbSymbolTableRecord
100
AcDbRegAppTableRecord
  2
ACAD
 70
     0
  0
APPID
  5
A80
330
9
100
AcDbSymbolTableRecord
100
AcDbRegAppTableRecord
  2
ACAD_EXEMPT_FROM_CAD_STANDARDS
 70
     0
  0
APPID
  5
1A2D
330
9
100
AcDbSymbolTableRecord
100
AcDbRegAppTableRecord
  2
ACAD_PSEXT
 70
     0
  0
APPID
  5
2392
330
9
100
AcDbSymbolTableRecord
100
AcDbRegAppTableRecord
  2
ACAD_DSTYLE_DIMTEXT_FILL
 70
     0
  0
APPID
  5
2393
330
9
100
AcDbSymbolTableRecord
100
AcDbRegAppTableRecord
  2
ACAD_DSTYLE_DIMEXT_LENGTH
 70
     0
  0
APPID
  5
2394
330
9
100
AcDbSymbolTableRecord
100
AcDbRegAppTableRecord
  2
ACAD_DSTYLE_DIMEXT_ENABLED
 70
     0
  0
APPID
  5
2395
330
9
100
AcDbSymbolTableRecord
100
AcDbRegAppTableRecord
  2
ACAD_DSTYLE_DIM_LINETYPE
 70
     0
  0
APPID
  5
2396
330
9
100
AcDbSymbolTableRecord
100
AcDbRegAppTableRecord
  2
ACAD_DSTYLE_DIM_EXT1_LINETYPE
 70
     0
  0
APPID
  5
2397
330
9
100
AcDbSymbolTableRecord
100
AcDbRegAppTableRecord
  2
ACAD_DSTYLE_DIM_EXT2_LINETYPE
 70
     0
  0
APPID
  5
2453
330
9
100
AcDbSymbolTableRecord
100
AcDbRegAppTableRecord
  2
ACAD_DSTYLE_DIMJOGGED_JOGANGLE_SYMBOL
 70
     0
  0
APPID
  5
24B7
330
9
100
AcDbSymbolTableRecord
100
AcDbRegAppTableRecord
  2
ACAD_DSTYLE_DIMARC_LENGTH_SYMBOL
 70
     0
  0
APPID
  5
619F
330
9
100
AcDbSymbolTableRecord
100
AcDbRegAppTableRecord
  2
PSP
 70
     0
  0
APPID
  5
6396
330
9
100
AcDbSymbolTableRecord
100
AcDbRegAppTableRecord
  2
AcadStringInfo
 70
     0
  0
APPID
  5
63A4
330
9
100
AcDbSymbolTableRecord
100
AcDbRegAppTableRecord
  2
ACAD_NAV_VCDISPLAY
 70
     0
  0
ENDTAB
  0
TABLE
  2
DIMSTYLE
  5
A
330
0
100
AcDbSymbolTable
 70
     1
100
AcDbDimStyleTable
 71
     1
340
27
  0
DIMSTYLE
105
27
102
{ACAD_REACTORS
330
6157
330
6164
330
62B0
330
62C6
102
}
330
A
100
AcDbSymbolTableRecord
100
AcDbDimStyleTableRecord
  2
ISO-25
 70
     0
 40
4.0
 41
2.5
 42
0.625
 43
3.75
 44
1.25
 49
1.25
 73
     0
 74
     0
 77
     1
 78
     8
140
3.0
141
2.5
143
0.03937007874016
147
0.625
171
     3
172
     1
176
   256
177
   256
178
   256
271
     1
272
     1
274
     3
283
     0
284
     8
340
11
371
    -1
372
    -1
1001
ACAD_DSTYLE_DIMJOGGED_JOGANGLE_SYMBOL
1070
   384
1040
0.7853981633974483
  0
ENDTAB
  0
TABLE
  2
BLOCK_RECORD
  5
1
330
0
100
AcDbSymbolTable
 70
     5
  0
BLOCK_RECORD
  5
1F
102
{ACAD_XDICTIONARY
360
ADA
102
}
330
1
100
AcDbSymbolTableRecord
100
AcDbBlockTableRecord
  2
*Model_Space
340
22
 70
     0
280
     1
281
     0
  0
BLOCK_RECORD
  5
1B
330
1
100
AcDbSymbolTableRecord
100
AcDbBlockTableRecord
  2
*Paper_Space
340
1E
 70
     0
280
     1
281
     0
  0
BLOCK_RECORD
  5
23
330
1
100
AcDbSymbolTableRecord
100
AcDbBlockTableRecord
  2
*Paper_Space0
340
26
 70
     0
280
     1
281
     0
  0
BLOCK_RECORD
  5
6158
330
1
100
AcDbSymbolTableRecord
100
AcDbBlockTableRecord
  2
*D1
340
0
 70
     0
280
     1
281
     0
  0
BLOCK_RECORD
  5
6165
330
1
100
AcDbSymbolTableRecord
100
AcDbBlockTableRecord
  2
*D2
340
0
 70
     0
280
     1
281
     0
  0
BLOCK_RECORD
  5
62B1
330
1
100
AcDbSymbolTableRecord
100
AcDbBlockTableRecord
  2
*D3
340
0
 70
     0
280
     1
281
     0
  0
BLOCK_RECORD
  5
62C7
330
1
100
AcDbSymbolTableRecord
100
AcDbBlockTableRecord
  2
*D4
340
0
 70
     0
280
     1
281
     0
  0
ENDTAB
  0
ENDSEC
  0
SECTION
  2
BLOCKS
  0
BLOCK
  5
20
330
1F
100
AcDbEntity
  8
0
100
AcDbBlockBegin
  2
*Model_Space
 70
     0
 10
0.0
 20
0.0
 30
0.0
  3
*Model_Space
  1

  0
ENDBLK
  5
21
330
1F
100
AcDbEntity
  8
0
100
AcDbBlockEnd
  0
BLOCK
  5
1C
330
1B
100
AcDbEntity
 67
     1
  8
0
100
AcDbBlockBegin
  2
*Paper_Space
 70
     0
 10
0.0
 20
0.0
 30
0.0
  3
*Paper_Space
  1

  0
ENDBLK
  5
1D
330
1B
100
AcDbEntity
 67
     1
  8
0
100
AcDbBlockEnd
  0
BLOCK
  5
24
330
23
100
AcDbEntity
 67
     1
  8
0
100
AcDbBlockBegin
  2
*Paper_Space0
 70
     0
 10
0.0
 20
0.0
 30
0.0
  3
*Paper_Space0
  1

  0
ENDBLK
  5
25
330
23
100
AcDbEntity
 67
     1
  8
0
100
AcDbBlockEnd
  0
BLOCK
  5
6162
330
6158
100
AcDbEntity
  8
0
100
AcDbBlockBegin
  2
*D1
 70
     1
 10
0.0
 20
0.0
 30
0.0
  3
*D1
  1

  0
LINE
  5
6341
330
6158
100
AcDbEntity
  8
0
440
 16777216
100
AcDbLine
 10
3499.36901716173
 20
-189.6614790920981
 30
0.0
 11
3499.36901716173
 21
-171.0774521955402
 31
0.0
  0
LINE
  5
6342
330
6158
100
AcDbEntity
  8
0
440
 16777216
100
AcDbLine
 10
3633.56901716173
 20
-189.6614790920981
 30
0.0
 11
3633.56901716173
 21
-171.0774521955402
 31
0.0
  0
LINE
  5
6343
330
6158
100
AcDbEntity
  8
0
440
 16777216
100
AcDbLine
 10
3509.369017161731
 20
-176.0774521955402
 30
0.0
 11
3623.56901716173
 21
-176.0774521955402
 31
0.0
  0
SOLID
  5
6344
330
6158
100
AcDbEntity
  8
0
440
 16777216
100
AcDbTrace
 10
3509.369017161731
 20
-174.4107855288735
 30
0.0
 11
3509.369017161731
 21
-177.7441188622068
 31
0.0
 12
3499.36901716173
 22
-176.0774521955402
 32
0.0
 13
3499.36901716173
 23
-176.0774521955402
 33
0.0
  0
SOLID
  5
6345
330
6158
100
AcDbEntity
  8
0
440
 16777216
100
AcDbTrace
 10
3623.56901716173
 20
-174.4107855288735
 30
0.0
 11
3623.56901716173
 21
-177.7441188622068
 31
0.0
 12
3633.56901716173
 22
-176.0774521955402
 32
0.0
 13
3633.56901716173
 23
-176.0774521955402
 33
0.0
  0
MTEXT
  5
6346
330
6158
100
AcDbEntity
  8
0
440
 16777216
100
AcDbMText
 10
3566.46901716173
 20
-167.4464835734392
 30
0.0
 40
12.0
 41
0.0
 46
0.0
 71
     5
 72
     1
  1
134.2
 73
     1
 44
1.0
  0
POINT
  5
6347
330
6158
100
AcDbEntity
  8
Defpoints
 62
     0
440
 16777216
100
AcDbPoint
 10
3499.36901716173
 20
-192.1614790920981
 30
0.0
  0
POINT
  5
6348
330
6158
100
AcDbEntity
  8
Defpoints
 62
     0
440
 16777216
100
AcDbPoint
 10
3633.56901716173
 20
-192.1614790920981
 30
0.0
  0
POINT
  5
6349
330
6158
100
AcDbEntity
  8
Defpoints
 62
     0
440
 16777216
100
AcDbPoint
 10
3633.56901716173
 20
-176.0774521955402
 30
0.0
  0
ENDBLK
  5
6163
330
6158
100
AcDbEntity
  8
0
100
AcDbBlockEnd
  0
BLOCK
  5
616F
330
6165
100
AcDbEntity
  8
0
100
AcDbBlockBegin
  2
*D2
 70
     1
 10
0.0
 20
0.0
 30
0.0
  3
*D2
  1

  0
LINE
  5
632F
330
6165
100
AcDbEntity
  8
0
440
 16777216
100
AcDbLine
 10
3479.36901716173
 20
-330.6268496582705
 30
0.0
 11
3479.36901716173
 21
-353.9926979926385
 31
0.0
  0
LINE
  5
6330
330
6165
100
AcDbEntity
  8
0
440
 16777216
100
AcDbLine
 10
3653.56901716173
 20
-330.6268496582705
 30
0.0
 11
3653.56901716173
 21
-353.9926979926385
 31
0.0
  0
LINE
  5
6331
330
6165
100
AcDbEntity
  8
0
440
 16777216
100
AcDbLine
 10
3489.36901716173
 20
-348.9926979926385
 30
0.0
 11
3643.56901716173
 21
-348.9926979926385
 31
0.0
  0
SOLID
  5
6332
330
6165
100
AcDbEntity
  8
0
440
 16777216
100
AcDbTrace
 10
3489.36901716173
 20
-347.3260313259718
 30
0.0
 11
3489.36901716173
 21
-350.6593646593052
 31
0.0
 12
3479.36901716173
 22
-348.9926979926385
 32
0.0
 13
3479.36901716173
 23
-348.9926979926385
 33
0.0
  0
SOLID
  5
6333
330
6165
100
AcDbEntity
  8
0
440
 16777216
100
AcDbTrace
 10
3643.56901716173
 20
-347.3260313259718
 30
0.0
 11
3643.56901716173
 21
-350.6593646593052
 31
0.0
 12
3653.56901716173
 22
-348.9926979926385
 32
0.0
 13
3653.56901716173
 23
-348.9926979926385
 33
0.0
  0
MTEXT
  5
6334
330
6165
100
AcDbEntity
  8
0
440
 16777216
100
AcDbMText
 10
3566.46901716173
 20
-340.4681413759945
 30
0.0
 40
12.0
 41
0.0
 46
0.0
 71
     5
 72
     1
  1
174.2
 73
     1
 44
1.0
  0
POINT
  5
6335
330
6165
100
AcDbEntity
  8
Defpoints
 62
     0
440
 16777216
100
AcDbPoint
 10
3479.36901716173
 20
-328.1268496582705
 30
0.0
  0
POINT
  5
6336
330
6165
100
AcDbEntity
  8
Defpoints
 62
     0
440
 16777216
100
AcDbPoint
 10
3653.56901716173
 20
-328.1268496582705
 30
0.0
  0
POINT
  5
6337
330
6165
100
AcDbEntity
  8
Defpoints
 62
     0
440
 16777216
100
AcDbPoint
 10
3653.56901716173
 20
-348.9926979926385
 30
0.0
  0
ENDBLK
  5
6170
330
6165
100
AcDbEntity
  8
0
100
AcDbBlockEnd
  0
BLOCK
  5
62BB
330
62B1
100
AcDbEntity
  8
0
100
AcDbBlockBegin
  2
*D3
 70
     1
 10
0.0
 20
0.0
 30
0.0
  3
*D3
  1

  0
LINE
  5
6326
330
62B1
100
AcDbEntity
  8
0
440
 16777216
100
AcDbLine
 10
3941.771077912792
 20
216.9187465491206
 30
0.0
 11
3968.282778645959
 21
216.9187465491206
 31
0.0
  0
LINE
  5
6327
330
62B1
100
AcDbEntity
  8
0
440
 16777216
100
AcDbLine
 10
3942.032371298276
 20
-147.0812534508794
 30
0.0
 11
3968.282778645959
 21
-147.0812534508794
 31
0.0
  0
LINE
  5
6328
330
62B1
100
AcDbEntity
  8
0
440
 16777216
100
AcDbLine
 10
3963.282778645959
 20
206.9187465491206
 30
0.0
 11
3963.282778645959
 21
-137.0812534508794
 31
0.0
  0
SOLID
  5
6329
330
62B1
100
AcDbEntity
  8
0
440
 16777216
100
AcDbTrace
 10
3961.616111979293
 20
206.9187465491206
 30
0.0
 11
3964.949445312625
 21
206.9187465491206
 31
0.0
 12
3963.282778645959
 22
216.9187465491206
 32
0.0
 13
3963.282778645959
 23
216.9187465491206
 33
0.0
  0
SOLID
  5
632A
330
62B1
100
AcDbEntity
  8
0
440
 16777216
100
AcDbTrace
 10
3961.616111979293
 20
-137.0812534508794
 30
0.0
 11
3964.949445312625
 21
-137.0812534508794
 31
0.0
 12
3963.282778645959
 22
-147.0812534508794
 32
0.0
 13
3963.282778645959
 23
-147.0812534508794
 33
0.0
  0
MTEXT
  5
632B
330
62B1
100
AcDbEntity
  8
0
440
 16777216
100
AcDbMText
 10
3954.651810023858
 20
34.91874654912122
 30
0.0
 40
12.0
 41
0.0
 46
0.0
 71
     5
 72
     1
  1
364
 11
0.0000000000000001
 21
1.0
 31
0.0
 73
     1
 44
1.0
  0
POINT
  5
632C
330
62B1
100
AcDbEntity
  8
Defpoints
 62
     0
440
 16777216
100
AcDbPoint
 10
3939.271077912792
 20
216.9187465491206
 30
0.0
  0
POINT
  5
632D
330
62B1
100
AcDbEntity
  8
Defpoints
 62
     0
440
 16777216
100
AcDbPoint
 10
3939.532371298275
 20
-147.0812534508794
 30
0.0
  0
POINT
  5
632E
330
62B1
100
AcDbEntity
  8
Defpoints
 62
     0
440
 16777216
100
AcDbPoint
 10
3963.282778645959
 20
-147.0812534508794
 30
0.0
  0
ENDBLK
  5
62BC
330
62B1
100
AcDbEntity
  8
0
100
AcDbBlockEnd
  0
BLOCK
  5
62D1
330
62C7
100
AcDbEntity
  8
0
100
AcDbBlockBegin
  2
*D4
 70
     1
 10
0.0
 20
0.0
 30
0.0
  3
*D4
  1

  0
LINE
  5
6338
330
62C7
100
AcDbEntity
  8
0
440
 16777216
100
AcDbLine
 10
3658.726605275901
 20
-192.1614790920981
 30
0.0
 11
3682.103314268182
 21
-192.1614790920981
 31
0.0
  0
LINE
  5
6339
330
62C7
100
AcDbEntity
  8
0
440
 16777216
100
AcDbLine
 10
3658.726605275901
 20
-314.1614790920981
 30
0.0
 11
3682.103314268182
 21
-314.1614790920981
 31
0.0
  0
LINE
  5
633A
330
62C7
100
AcDbEntity
  8
0
440
 16777216
100
AcDbLine
 10
3677.103314268182
 20
-202.1614790920982
 30
0.0
 11
3677.103314268182
 21
-304.1614790920981
 31
0.0
  0
SOLID
  5
633B
330
62C7
100
AcDbEntity
  8
0
440
 16777216
100
AcDbTrace
 10
3675.436647601515
 20
-202.1614790920982
 30
0.0
 11
3678.769980934848
 21
-202.1614790920982
 31
0.0
 12
3677.103314268182
 22
-192.1614790920981
 32
0.0
 13
3677.103314268182
 23
-192.1614790920981
 33
0.0
  0
SOLID
  5
633C
330
62C7
100
AcDbEntity
  8
0
440
 16777216
100
AcDbTrace
 10
3675.436647601515
 20
-304.1614790920981
 30
0.0
 11
3678.769980934848
 21
-304.1614790920981
 31
0.0
 12
3677.103314268182
 22
-314.1614790920981
 32
0.0
 13
3677.103314268182
 23
-314.1614790920981
 33
0.0
  0
MTEXT
  5
633D
330
62C7
100
AcDbEntity
  8
0
440
 16777216
100
AcDbMText
 10
3668.578757651538
 20
-253.1614790920975
 30
0.0
 40
12.0
 41
0.0
 46
0.0
 71
     5
 72
     1
  1
122
 11
0.0000000000000001
 21
1.0
 31
0.0
 73
     1
 44
1.0
  0
POINT
  5
633E
330
62C7
100
AcDbEntity
  8
Defpoints
 62
     0
440
 16777216
100
AcDbPoint
 10
3656.226605275901
 20
-192.1614790920981
 30
0.0
  0
POINT
  5
633F
330
62C7
100
AcDbEntity
  8
Defpoints
 62
     0
440
 16777216
100
AcDbPoint
 10
3656.226605275901
 20
-314.1614790920981
 30
0.0
  0
POINT
  5
6340
330
62C7
100
AcDbEntity
  8
Defpoints
 62
     0
440
 16777216
100
AcDbPoint
 10
3677.103314268182
 20
-314.1614790920981
 30
0.0
  0
ENDBLK
  5
62D2
330
62C7
100
AcDbEntity
  8
0
100
AcDbBlockEnd
  0
ENDSEC
  0
SECTION
  2
ENTITIES
  0
MTEXT
  5
2A25
330
1F
100
AcDbEntity
  8
图层4
100
AcDbMText
 10
822.7618402478558
 20
-251.3371268114134
 30
0.0
 40
2.5
 41
5.1924
 46
0.0
 71
     1
 72
     1
  1

 73
     1
 44
1.0
  0
MTEXT
  5
5A44
330
1F
100
AcDbEntity
  8
图层7
100
AcDbMText
 10
2120.797915954988
 20
-224.4562975655251
 30
0.0
 40
6.0
 41
2.21116251478825
 46
0.0
 71
     1
 72
     1
  1

 73
     1
 44
1.0
  0
ARC
  5
5A94
330
1F
100
AcDbEntity
  8
0
100
AcDbCircle
 10
3499.36901716173
 20
-47.08125345087944
 30
0.0
 40
20.0
100
AcDbArc
 50
11.53695903280736
 51
348.4630409671843
  0
ARC
  5
5A95
330
1F
100
AcDbEntity
  8
0
100
AcDbCircle
 10
3633.56901716173
 20
-47.08125345087944
 30
0.0
 40
20.0
100
AcDbArc
 50
191.5369590328157
 51
168.4630409671926
  0
ARC
  5
5A98
330
1F
100
AcDbEntity
  8
0
100
AcDbCircle
 10
3633.56901716173
 20
-47.08125345087944
 30
0.0
 40
10.0
100
AcDbArc
 50
203.5781784782064
 51
156.4218215217936
  0
LINE
  5
5A9A
330
1F
100
AcDbEntity
  8
0
100
AcDbLine
 10
3493.369017161729
 20
-51.08125345087945
 30
0.0
 11
3639.56901716173
 21
-51.08125345087945
 31
0.0
  0
LINE
  5
5ABA
330
1F
100
AcDbEntity
  8
0
100
AcDbLine
 10
3518.26901716173
 20
-192.1614790920981
 30
0.0
 11
3480.46901716173
 21
-192.1614790920981
 31
0.0
  0
LINE
  5
5AD0
330
1F
100
AcDbEntity
  8
0
100
AcDbLine
 10
3479.36901716173
 20
-192.1614790920981
 30
0.0
 11
3519.36901716173
 21
-192.1614790920981
 31
0.0
  0
LINE
  5
5AD1
330
1F
100
AcDbEntity
  8
0
100
AcDbLine
 10
3519.36901716173
 20
-192.1614790920981
 30
0.0
 11
3519.36901716173
 21
-197.1614790920981
 31
0.0
  0
LINE
  5
5AD2
330
1F
100
AcDbEntity
  8
0
100
AcDbLine
 10
3651.56901716173
 20
-199.1614790920981
 30
0.0
 11
3481.369017161731
 21
-199.1614790920981
 31
0.0
  0
LINE
  5
5AD3
330
1F
100
AcDbEntity
  8
0
100
AcDbLine
 10
3479.36901716173
 20
-192.1614790920981
 30
0.0
 11
3479.36901716173
 21
-197.1614790920981
 31
0.0
  0
ARC
  5
5ADB
330
1F
100
AcDbEntity
  8
0
100
AcDbCircle
 10
3481.369017161731
 20
-197.1614790920981
 30
0.0
 40
2.0
100
AcDbArc
 50
180.0
 51
270.0
  0
ARC
  5
5ADC
330
1F
100
AcDbEntity
  8
0
100
AcDbCircle
 10
3517.36901716173
 20
-197.1614790920981
 30
0.0
 40
2.0
100
AcDbArc
 50
270.0
 51
0.0
  0
LINE
  5
5AE1
330
1F
100
AcDbEntity
  8
0
100
AcDbLine
 10
3489.36901716173
 20
-199.1614790920981
 30
0.0
 11
3489.36901716173
 21
-314.1614790920982
 31
0.0
  0
LINE
  5
5AE2
330
1F
100
AcDbEntity
  8
0
100
AcDbLine
 10
3509.369017161731
 20
-199.1614790920981
 30
0.0
 11
3509.369017161731
 21
-314.1614790920982
 31
0.0
  0
LINE
  5
5AEF
330
1F
100
AcDbEntity
  8
0
100
AcDbLine
 10
3489.36901716173
 20
-314.1614790920982
 30
0.0
 11
3643.56901716173
 21
-314.1614790920981
 31
0.0
  0
LINE
  5
5AF0
330
1F
100
AcDbEntity
  8
0
100
AcDbLine
 10
3509.369017161731
 20
-306.1614790920981
 30
0.0
 11
3623.569017161731
 21
-306.1614790920982
 31
0.0
  0
LINE
  5
5AF1
330
1F
100
AcDbEntity
  8
0
100
AcDbLine
 10
3643.56901716173
 20
-199.1614790920981
 30
0.0
 11
3643.56901716173
 21
-314.1614790920982
 31
0.0
  0
LINE
  5
5AF3
330
1F
100
AcDbEntity
  8
0
100
AcDbLine
 10
3623.56901716173
 20
-199.1614790920981
 30
0.0
 11
3623.569017161731
 21
-314.1614790920982
 31
0.0
  0
LINE
  5
5B20
330
1F
100
AcDbEntity
  8
0
100
AcDbLine
 10
3611.46901716173
 20
-43.08125345087989
 30
0.0
 11
3609.697114753231
 21
-41.70271732340313
 31
0.0
  0
ARC
  5
5B23
330
1F
100
AcDbEntity
  8
0
100
AcDbCircle
 10
3608.46901716173
 20
-43.28125345087971
 30
0.0
 40
2.0
100
AcDbArc
 50
52.11716343380484
 51
90.0
  0
CIRCLE
  5
5BB8
330
1F
100
AcDbEntity
  8
0
100
AcDbCircle
 10
3566.46901716173
 20
-253.0762677720633
 30
0.0
 40
13.59999999999998
  0
CIRCLE
  5
5BB9
330
1F
100
AcDbEntity
  8
0
100
AcDbCircle
 10
3566.46901716173
 20
-253.0762677720633
 30
0.0
 40
38.0
  0
LINE
  5
5BBA
330
1F
100
AcDbEntity
  8
0
100
AcDbLine
 10
3552.86901716173
 20
-253.0762677720633
 30
0.0
 11
3528.47115482049
 21
-252.673207607637
 31
0.0
  0
LINE
  5
5BBB
330
1F
100
AcDbEntity
  8
0
100
AcDbLine
 10
3552.869702302599
 20
-252.9397563724952
 30
0.0
 11
3528.508592005817
 21
-251.3424506011026
 31
0.0
  0
LINE
  5
5BBC
330
1F
100
AcDbEntity
  8
0
100
AcDbLine
 10
3552.869180416637
 20
-253.009630644313
 30
0.0
 11
3528.484702862134
 21
-251.9845410711333
 31
0.0
  0
LINE
  5
5BBD
330
1F
100
AcDbEntity
  8
0
100
AcDbLine
 10
3552.871161123022
 20
-252.8347907533099
 30
0.0
 11
3528.550087367742
 21
-250.595388234765
 31
0.0
  0
LINE
  5
5BBE
330
1F
100
AcDbEntity
  8
0
100
AcDbLine
 10
3552.86901716173
 20
-253.0762677720633
 30
0.0
 11
3528.47115482049
 21
-253.4793279364895
 31
0.0
  0
LINE
  5
5BBF
330
1F
100
AcDbEntity
  8
0
100
AcDbLine
 10
3552.869702302599
 20
-253.2127791716312
 30
0.0
 11
3528.508592005817
 21
-254.810084943024
 31
0.0
  0
LINE
  5
5BC0
330
1F
100
AcDbEntity
  8
0
100
AcDbLine
 10
3552.869180416637
 20
-253.1429048998135
 30
0.0
 11
3528.484702862134
 21
-254.1679944729932
 31
0.0
  0
LINE
  5
5BC1
330
1F
100
AcDbEntity
  8
0
100
AcDbLine
 10
3552.871161123022
 20
-253.3177447908166
 30
0.0
 11
3528.550087367742
 21
-255.5571473093615
 31
0.0
  0
LINE
  5
5BC2
330
1F
100
AcDbEntity
  8
0
100
AcDbLine
 10
3554.691071670261
 20
-259.8762677720634
 30
0.0
 11
3533.360373002498
 21
-271.726138601037
 31
0.0
  0
LINE
  5
5BC3
330
1F
100
AcDbEntity
  8
0
100
AcDbLine
 10
3554.623409319875
 20
-259.7577028616962
 30
0.0
 11
3532.727416052771
 21
-270.5549506344506
 31
0.0
  0
LINE
  5
5BC4
330
1F
100
AcDbEntity
  8
0
100
AcDbLine
 10
3554.657894489282
 20
-259.8184766991436
 30
0.0
 11
3533.027772682483
 21
-271.1229618648659
 31
0.0
  0
LINE
  5
5BC5
330
1F
100
AcDbEntity
  8
0
100
AcDbLine
 10
3554.572189885829
 20
-259.6660705587466
 30
0.0
 11
3532.389820907169
 21
-269.8872279660283
 31
0.0
  0
LINE
  5
5BC6
330
1F
100
AcDbEntity
  8
0
100
AcDbLine
 10
3554.691071670261
 20
-259.8762677720634
 30
0.0
 11
3533.763433166925
 21
-272.4242592843303
 31
0.0
  0
LINE
  5
5BC7
330
1F
100
AcDbEntity
  8
0
100
AcDbLine
 10
3554.759920719443
 20
-259.9941475415609
 30
0.0
 11
3534.461233223732
 21
-273.558010065589
 31
0.0
  0
LINE
  5
5BC8
330
1F
100
AcDbEntity
  8
0
100
AcDbLine
 10
3554.724531617033
 20
-259.9338955900768
 30
0.0
 11
3534.119499383412
 21
-273.0138879788557
 31
0.0
  0
LINE
  5
5BC9
330
1F
100
AcDbEntity
  8
0
100
AcDbLine
 10
3554.813666904582
 20
-260.0843210240874
 30
0.0
 11
3534.870700444467
 21
-274.1842373720866
 31
0.0
  0
LINE
  5
5BCA
330
1F
100
AcDbEntity
  8
0
100
AcDbLine
 10
3559.66901716173
 20
-264.8542132635313
 30
0.0
 11
3547.121025649463
 21
-285.7818517668685
 31
0.0
  0
LINE
  5
5BCB
330
1F
100
AcDbEntity
  8
0
100
AcDbLine
 10
3559.551137392232
 20
-264.7853642143501
 30
0.0
 11
3545.987274868204
 21
-285.0840517100616
 31
0.0
  0
LINE
  5
5BCC
330
1F
100
AcDbEntity
  8
0
100
AcDbLine
 10
3559.611389343717
 20
-264.8207533167607
 30
0.0
 11
3546.531396954937
 21
-285.4257855503812
 31
0.0
  0
LINE
  5
5BCD
330
1F
100
AcDbEntity
  8
0
100
AcDbLine
 10
3559.460963909706
 20
-264.7316180292111
 30
0.0
 11
3545.361047561707
 21
-284.6745844893268
 31
0.0
  0
LINE
  5
5BCE
330
1F
100
AcDbEntity
  8
0
100
AcDbLine
 10
3559.66901716173
 20
-264.8542132635313
 30
0.0
 11
3547.819146332757
 21
-286.1849119312948
 31
0.0
  0
LINE
  5
5BCF
330
1F
100
AcDbEntity
  8
0
100
AcDbLine
 10
3559.787582072097
 20
-264.9218756139181
 30
0.0
 11
3548.990334299343
 21
-286.8178688810223
 31
0.0
  0
LINE
  5
5BD0
330
1F
100
AcDbEntity
  8
0
100
AcDbLine
 10
3559.72680823465
 20
-264.887390444511
 30
0.0
 11
3548.422323068927
 21
-286.5175122513102
 31
0.0
  0
LINE
  5
5BD1
330
1F
100
AcDbEntity
  8
0
100
AcDbLine
 10
3559.879214375047
 20
-264.9730950479644
 30
0.0
 11
3549.658056967765
 21
-287.155464026625
 31
0.0
  0
LINE
  5
5BD2
330
1F
100
AcDbEntity
  8
0
100
AcDbLine
 10
3566.46901716173
 20
-266.6762677720627
 30
0.0
 11
3566.065956997304
 21
-291.074130113304
 31
0.0
  0
LINE
  5
5BD3
330
1F
100
AcDbEntity
  8
0
100
AcDbLine
 10
3566.332505762161
 20
-266.6755826311947
 30
0.0
 11
3564.735199990769
 21
-291.0366929279764
 31
0.0
  0
LINE
  5
5BD4
330
1F
100
AcDbEntity
  8
0
100
AcDbLine
 10
3566.40238003398
 20
-266.6761045171571
 30
0.0
 11
3565.3772904608
 21
-291.0605820716593
 31
0.0
  0
LINE
  5
5BD5
330
1F
100
AcDbEntity
  8
0
100
AcDbLine
 10
3566.227540142977
 20
-266.6741238107708
 30
0.0
 11
3563.988137624432
 21
-290.9951975660516
 31
0.0
  0
LINE
  5
5BD6
330
1F
100
AcDbEntity
  8
0
100
AcDbLine
 10
3566.46901716173
 20
-266.6762677720627
 30
0.0
 11
3566.872077326156
 21
-291.074130113304
 31
0.0
  0
LINE
  5
5BD7
330
1F
100
AcDbEntity
  8
0
100
AcDbLine
 10
3566.605528561298
 20
-266.6755826311947
 30
0.0
 11
3568.202834332691
 21
-291.0366929279764
 31
0.0
  0
LINE
  5
5BD8
330
1F
100
AcDbEntity
  8
0
100
AcDbLine
 10
3566.535654289481
 20
-266.6761045171571
 30
0.0
 11
3567.560743862659
 21
-291.0605820716593
 31
0.0
  0
LINE
  5
5BD9
330
1F
100
AcDbEntity
  8
0
100
AcDbLine
 10
3566.710494180483
 20
-266.6741238107708
 30
0.0
 11
3568.949896699028
 21
-290.9951975660516
 31
0.0
  0
LINE
  5
5BDA
330
1F
100
AcDbEntity
  8
0
100
AcDbLine
 10
3573.26901716173
 20
-264.8542132635313
 30
0.0
 11
3585.118887990704
 21
-286.1849119312948
 31
0.0
  0
LINE
  5
5BDB
330
1F
100
AcDbEntity
  8
0
100
AcDbLine
 10
3573.150452251363
 20
-264.9218756139181
 30
0.0
 11
3583.947700024117
 21
-286.8178688810223
 31
0.0
  0
LINE
  5
5BDC
330
1F
100
AcDbEntity
  8
0
100
AcDbLine
 10
3573.21122608881
 20
-264.887390444511
 30
0.0
 11
3584.515711254533
 21
-286.5175122513102
 31
0.0
  0
LINE
  5
5BDD
330
1F
100
AcDbEntity
  8
0
100
AcDbLine
 10
3573.058819948413
 20
-264.9730950479644
 30
0.0
 11
3583.279977355695
 21
-287.155464026625
 31
0.0
  0
LINE
  5
5BDE
330
1F
100
AcDbEntity
  8
0
100
AcDbLine
 10
3573.26901716173
 20
-264.8542132635313
 30
0.0
 11
3585.817008673997
 21
-285.7818517668685
 31
0.0
  0
LINE
  5
5BDF
330
1F
100
AcDbEntity
  8
0
100
AcDbLine
 10
3573.386896931228
 20
-264.7853642143501
 30
0.0
 11
3586.950759455256
 21
-285.0840517100616
 31
0.0
  0
LINE
  5
5BE0
330
1F
100
AcDbEntity
  8
0
100
AcDbLine
 10
3573.326644979744
 20
-264.8207533167607
 30
0.0
 11
3586.406637368523
 21
-285.4257855503812
 31
0.0
  0
LINE
  5
5BE1
330
1F
100
AcDbEntity
  8
0
100
AcDbLine
 10
3573.477070413754
 20
-264.7316180292111
 30
0.0
 11
3587.576986761753
 21
-284.6745844893268
 31
0.0
  0
LINE
  5
5BE2
330
1F
100
AcDbEntity
  8
0
100
AcDbLine
 10
3578.246962653198
 20
-259.8762677720634
 30
0.0
 11
3599.174601156535
 21
-272.4242592843303
 31
0.0
  0
LINE
  5
5BE3
330
1F
100
AcDbEntity
  8
0
100
AcDbLine
 10
3578.178113604017
 20
-259.9941475415609
 30
0.0
 11
3598.476801099729
 21
-273.558010065589
 31
0.0
  0
LINE
  5
5BE4
330
1F
100
AcDbEntity
  8
0
100
AcDbLine
 10
3578.213502706427
 20
-259.9338955900768
 30
0.0
 11
3598.818534940047
 21
-273.0138879788557
 31
0.0
  0
LINE
  5
5BE5
330
1F
100
AcDbEntity
  8
0
100
AcDbLine
 10
3578.124367418877
 20
-260.0843210240874
 30
0.0
 11
3598.067333878994
 21
-274.1842373720866
 31
0.0
  0
LINE
  5
5BE6
330
1F
100
AcDbEntity
  8
0
100
AcDbLine
 10
3578.246962653198
 20
-259.8762677720634
 30
0.0
 11
3599.577661320961
 21
-271.726138601037
 31
0.0
  0
LINE
  5
5BE7
330
1F
100
AcDbEntity
  8
0
100
AcDbLine
 10
3578.314625003585
 20
-259.7577028616962
 30
0.0
 11
3600.210618270689
 21
-270.5549506344506
 31
0.0
  0
LINE
  5
5BE8
330
1F
100
AcDbEntity
  8
0
100
AcDbLine
 10
3578.280139834177
 20
-259.8184766991436
 30
0.0
 11
3599.910261640977
 21
-271.1229618648659
 31
0.0
  0
LINE
  5
5BE9
330
1F
100
AcDbEntity
  8
0
100
AcDbLine
 10
3578.365844437631
 20
-259.6660705587466
 30
0.0
 11
3600.548213416291
 21
-269.8872279660283
 31
0.0
  0
LINE
  5
5BEA
330
1F
100
AcDbEntity
  8
0
100
AcDbLine
 10
3580.06901716173
 20
-253.0762677720633
 30
0.0
 11
3604.46687950297
 21
-253.4793279364895
 31
0.0
  0
LINE
  5
5BEB
330
1F
100
AcDbEntity
  8
0
100
AcDbLine
 10
3580.068332020861
 20
-253.2127791716312
 30
0.0
 11
3604.429442317643
 21
-254.810084943024
 31
0.0
  0
LINE
  5
5BEC
330
1F
100
AcDbEntity
  8
0
100
AcDbLine
 10
3580.068853906824
 20
-253.1429048998135
 30
0.0
 11
3604.453331461325
 21
-254.1679944729932
 31
0.0
  0
LINE
  5
5BED
330
1F
100
AcDbEntity
  8
0
100
AcDbLine
 10
3580.066873200438
 20
-253.3177447908166
 30
0.0
 11
3604.387946955718
 21
-255.5571473093615
 31
0.0
  0
LINE
  5
5BEE
330
1F
100
AcDbEntity
  8
0
100
AcDbLine
 10
3580.06901716173
 20
-253.0762677720633
 30
0.0
 11
3604.46687950297
 21
-252.673207607637
 31
0.0
  0
LINE
  5
5BEF
330
1F
100
AcDbEntity
  8
0
100
AcDbLine
 10
3580.068332020861
 20
-252.9397563724952
 30
0.0
 11
3604.429442317643
 21
-251.3424506011026
 31
0.0
  0
LINE
  5
5BF0
330
1F
100
AcDbEntity
  8
0
100
AcDbLine
 10
3580.068853906824
 20
-253.009630644313
 30
0.0
 11
3604.453331461325
 21
-251.9845410711333
 31
0.0
  0
LINE
  5
5BF1
330
1F
100
AcDbEntity
  8
0
100
AcDbLine
 10
3580.066873200438
 20
-252.8347907533099
 30
0.0
 11
3604.387946955718
 21
-250.595388234765
 31
0.0
  0
LINE
  5
5BF2
330
1F
100
AcDbEntity
  8
0
100
AcDbLine
 10
3578.246962653198
 20
-246.2762677720631
 30
0.0
 11
3599.577661320961
 21
-234.4263969430896
 31
0.0
  0
LINE
  5
5BF3
330
1F
100
AcDbEntity
  8
0
100
AcDbLine
 10
3578.314625003585
 20
-246.3948326824303
 30
0.0
 11
3600.210618270689
 21
-235.5975849096759
 31
0.0
  0
LINE
  5
5BF4
330
1F
100
AcDbEntity
  8
0
100
AcDbLine
 10
3578.280139834177
 20
-246.3340588449829
 30
0.0
 11
3599.910261640977
 21
-235.0295736792606
 31
0.0
  0
LINE
  5
5BF5
330
1F
100
AcDbEntity
  8
0
100
AcDbLine
 10
3578.365844437631
 20
-246.48646498538
 30
0.0
 11
3600.548213416291
 21
-236.2653075780983
 31
0.0
  0
LINE
  5
5BF6
330
1F
100
AcDbEntity
  8
0
100
AcDbLine
 10
3578.246962653198
 20
-246.2762677720631
 30
0.0
 11
3599.174601156535
 21
-233.7282762597962
 31
0.0
  0
LINE
  5
5BF7
330
1F
100
AcDbEntity
  8
0
100
AcDbLine
 10
3578.178113604017
 20
-246.1583880025656
 30
0.0
 11
3598.476801099729
 21
-232.5945254785375
 31
0.0
  0
LINE
  5
5BF8
330
1F
100
AcDbEntity
  8
0
100
AcDbLine
 10
3578.213502706427
 20
-246.2186399540498
 30
0.0
 11
3598.818534940047
 21
-233.1386475652708
 31
0.0
  0
LINE
  5
5BF9
330
1F
100
AcDbEntity
  8
0
100
AcDbLine
 10
3578.124367418877
 20
-246.0682145200391
 30
0.0
 11
3598.067333878993
 21
-231.9682981720399
 31
0.0
  0
LINE
  5
5BFA
330
1F
100
AcDbEntity
  8
0
100
AcDbLine
 10
3573.26901716173
 20
-241.2983222805952
 30
0.0
 11
3585.817008673997
 21
-220.370683777258
 31
0.0
  0
LINE
  5
5BFB
330
1F
100
AcDbEntity
  8
0
100
AcDbLine
 10
3573.386896931228
 20
-241.3671713297764
 30
0.0
 11
3586.950759455256
 21
-221.068483834065
 31
0.0
  0
LINE
  5
5BFC
330
1F
100
AcDbEntity
  8
0
100
AcDbLine
 10
3573.326644979744
 20
-241.3317822273658
 30
0.0
 11
3586.406637368523
 21
-220.7267499937453
 31
0.0
  0
LINE
  5
5BFD
330
1F
100
AcDbEntity
  8
0
100
AcDbLine
 10
3573.477070413754
 20
-241.4209175149155
 30
0.0
 11
3587.576986761753
 21
-221.4779510547998
 31
0.0
  0
LINE
  5
5BFE
330
1F
100
AcDbEntity
  8
0
100
AcDbLine
 10
3573.26901716173
 20
-241.2983222805952
 30
0.0
 11
3585.118887990704
 21
-219.9676236128317
 31
0.0
  0
LINE
  5
5BFF
330
1F
100
AcDbEntity
  8
0
100
AcDbLine
 10
3573.150452251363
 20
-241.2306599302084
 30
0.0
 11
3583.947700024117
 21
-219.3346666631043
 31
0.0
  0
LINE
  5
5C00
330
1F
100
AcDbEntity
  8
0
100
AcDbLine
 10
3573.21122608881
 20
-241.2651450996155
 30
0.0
 11
3584.515711254533
 21
-219.6350232928163
 31
0.0
  0
LINE
  5
5C01
330
1F
100
AcDbEntity
  8
0
100
AcDbLine
 10
3573.058819948413
 20
-241.1794404961621
 30
0.0
 11
3583.279977355695
 21
-218.9970715175014
 31
0.0
  0
LINE
  5
5C02
330
1F
100
AcDbEntity
  8
0
100
AcDbLine
 10
3566.46901716173
 20
-239.4762677720638
 30
0.0
 11
3566.872077326156
 21
-215.0784054308234
 31
0.0
  0
LINE
  5
5C03
330
1F
100
AcDbEntity
  8
0
100
AcDbLine
 10
3566.605528561298
 20
-239.4769529129318
 30
0.0
 11
3568.202834332691
 21
-215.1158426161502
 31
0.0
  0
LINE
  5
5C04
330
1F
100
AcDbEntity
  8
0
100
AcDbLine
 10
3566.535654289481
 20
-239.4764310269694
 30
0.0
 11
3567.560743862659
 21
-215.0919534724673
 31
0.0
  0
LINE
  5
5C05
330
1F
100
AcDbEntity
  8
0
100
AcDbLine
 10
3566.710494180483
 20
-239.4784117333558
 30
0.0
 11
3568.949896699028
 21
-215.1573379780749
 31
0.0
  0
LINE
  5
5C06
330
1F
100
AcDbEntity
  8
0
100
AcDbLine
 10
3566.46901716173
 20
-239.4762677720638
 30
0.0
 11
3566.065956997304
 21
-215.0784054308234
 31
0.0
  0
LINE
  5
5C07
330
1F
100
AcDbEntity
  8
0
100
AcDbLine
 10
3566.332505762161
 20
-239.4769529129318
 30
0.0
 11
3564.735199990769
 21
-215.1158426161502
 31
0.0
  0
LINE
  5
5C08
330
1F
100
AcDbEntity
  8
0
100
AcDbLine
 10
3566.40238003398
 20
-239.4764310269694
 30
0.0
 11
3565.3772904608
 21
-215.0919534724673
 31
0.0
  0
LINE
  5
5C09
330
1F
100
AcDbEntity
  8
0
100
AcDbLine
 10
3566.227540142977
 20
-239.4784117333558
 30
0.0
 11
3563.988137624432
 21
-215.1573379780749
 31
0.0
  0
LINE
  5
5C0A
330
1F
100
AcDbEntity
  8
0
100
AcDbLine
 10
3559.66901716173
 20
-241.2983222805952
 30
0.0
 11
3547.819146332756
 21
-219.9676236128317
 31
0.0
  0
LINE
  5
5C0B
330
1F
100
AcDbEntity
  8
0
100
AcDbLine
 10
3559.787582072097
 20
-241.2306599302084
 30
0.0
 11
3548.990334299343
 21
-219.3346666631043
 31
0.0
  0
LINE
  5
5C0C
330
1F
100
AcDbEntity
  8
0
100
AcDbLine
 10
3559.72680823465
 20
-241.2651450996155
 30
0.0
 11
3548.422323068927
 21
-219.6350232928163
 31
0.0
  0
LINE
  5
5C0D
330
1F
100
AcDbEntity
  8
0
100
AcDbLine
 10
3559.879214375047
 20
-241.1794404961621
 30
0.0
 11
3549.658056967765
 21
-218.9970715175014
 31
0.0
  0
LINE
  5
5C0E
330
1F
100
AcDbEntity
  8
0
100
AcDbLine
 10
3559.66901716173
 20
-241.2983222805952
 30
0.0
 11
3547.121025649463
 21
-220.370683777258
 31
0.0
  0
LINE
  5
5C0F
330
1F
100
AcDbEntity
  8
0
100
AcDbLine
 10
3559.551137392232
 20
-241.3671713297764
 30
0.0
 11
3545.987274868204
 21
-221.068483834065
 31
0.0
  0
LINE
  5
5C10
330
1F
100
AcDbEntity
  8
0
100
AcDbLine
 10
3559.611389343717
 20
-241.3317822273658
 30
0.0
 11
3546.531396954937
 21
-220.7267499937462
 31
0.0
  0
LINE
  5
5C11
330
1F
100
AcDbEntity
  8
0
100
AcDbLine
 10
3559.460963909706
 20
-241.4209175149155
 30
0.0
 11
3545.361047561707
 21
-221.4779510547998
 31
0.0
  0
LINE
  5
5C12
330
1F
100
AcDbEntity
  8
0
100
AcDbLine
 10
3554.691071670261
 20
-246.2762677720631
 30
0.0
 11
3533.763433166925
 21
-233.7282762597962
 31
0.0
  0
LINE
  5
5C13
330
1F
100
AcDbEntity
  8
0
100
AcDbLine
 10
3554.759920719443
 20
-246.1583880025656
 30
0.0
 11
3534.461233223731
 21
-232.5945254785375
 31
0.0
  0
LINE
  5
5C14
330
1F
100
AcDbEntity
  8
0
100
AcDbLine
 10
3554.724531617033
 20
-246.2186399540498
 30
0.0
 11
3534.119499383412
 21
-233.1386475652708
 31
0.0
  0
LINE
  5
5C15
330
1F
100
AcDbEntity
  8
0
100
AcDbLine
 10
3554.813666904582
 20
-246.0682145200391
 30
0.0
 11
3534.870700444467
 21
-231.9682981720399
 31
0.0
  0
LINE
  5
5C16
330
1F
100
AcDbEntity
  8
0
100
AcDbLine
 10
3554.691071670261
 20
-246.2762677720631
 30
0.0
 11
3533.360373002498
 21
-234.4263969430905
 31
0.0
  0
LINE
  5
5C17
330
1F
100
AcDbEntity
  8
0
100
AcDbLine
 10
3554.623409319875
 20
-246.3948326824303
 30
0.0
 11
3532.727416052771
 21
-235.5975849096759
 31
0.0
  0
LINE
  5
5C18
330
1F
100
AcDbEntity
  8
0
100
AcDbLine
 10
3554.657894489282
 20
-246.3340588449838
 30
0.0
 11
3533.027772682483
 21
-235.0295736792606
 31
0.0
  0
LINE
  5
5C19
330
1F
100
AcDbEntity
  8
0
100
AcDbLine
 10
3554.572189885829
 20
-246.48646498538
 30
0.0
 11
3532.389820907168
 21
-236.2653075780983
 31
0.0
  0
CIRCLE
  5
5C1A
330
1F
100
AcDbEntity
  8
0
100
AcDbCircle
 10
3566.46901716173
 20
-253.0762677720633
 30
0.0
 40
47.74731545217522
  0
CIRCLE
  5
5C1B
330
1F
100
AcDbEntity
  8
0
100
AcDbCircle
 10
3566.46901716173
 20
-253.0762677720633
 30
0.0
 40
46.74749960864749
  0
LINE
  5
5C1C
330
1F
100
AcDbEntity
  8
0
100
AcDbLine
 10
3518.207723776247
 20
-11.28125345087972
 30
0.0
 11
3614.207723776247
 21
-11.28125345087972
 31
0.0
  0
LINE
  5
5C1E
330
1F
100
AcDbEntity
  8
0
100
AcDbLine
 10
3533.207723776247
 20
-151.2812534508797
 30
0.0
 11
3599.207723776248
 21
-151.2812534508797
 31
0.0
  0
LINE
  5
5C23
330
1F
100
AcDbEntity
  8
0
100
AcDbLine
 10
3527.207723776247
 20
-51.08125345087944
 30
0.0
 11
3527.207723776247
 21
-145.2812534508797
 31
0.0
  0
LINE
  5
5C25
330
1F
100
AcDbEntity
  8
0
100
AcDbLine
 10
3605.207723776246
 20
-51.08125345087944
 30
0.0
 11
3605.207723776247
 21
-145.2812534508797
 31
0.0
  0
ARC
  5
5C2A
330
1F
100
AcDbEntity
  8
0
100
AcDbCircle
 10
3533.207723776247
 20
-145.2812534508797
 30
0.0
 40
6.0
100
AcDbArc
 50
180.0
 51
270.0
  0
ARC
  5
5C2B
330
1F
100
AcDbEntity
  8
0
100
AcDbCircle
 10
3599.207723776248
 20
-145.2812534508797
 30
0.0
 40
6.0
100
AcDbArc
 50
270.0
 51
0.0
  0
LINE
  5
5C2C
330
1F
100
AcDbEntity
  8
0
100
AcDbLine
 10
3518.207723776247
 20
-11.28125345087972
 30
0.0
 11
3518.207723776247
 21
-38.28125345087972
 31
0.0
  0
LINE
  5
5C2D
330
1F
100
AcDbEntity
  8
0
100
AcDbLine
 10
3614.207723776247
 20
-11.28125345087972
 30
0.0
 11
3614.207723776247
 21
-38.28125345087972
 31
0.0
  0
ARC
  5
5C34
330
1F
100
AcDbEntity
  8
0
100
AcDbCircle
 10
3611.207723776247
 20
-38.28125345087972
 30
0.0
 40
3.0
100
AcDbArc
 50
270.0
 51
0.0
  0
ARC
  5
5C35
330
1F
100
AcDbEntity
  8
0
100
AcDbCircle
 10
3521.207723776247
 20
-38.28125345087972
 30
0.0
 40
3.0
100
AcDbArc
 50
180.0
 51
270.0
  0
LINE
  5
5C3B
330
1F
100
AcDbEntity
  8
0
100
AcDbLine
 10
3518.207723776247
 20
-11.35889911748643
 30
0.0
 11
3518.285369442853
 21
-11.28125345087972
 31
0.0
  0
LINE
  5
5D89
330
1F
100
AcDbEntity
  8
0
100
AcDbLine
 10
3557.46901716173
 20
212.7187465491207
 30
0.0
 11
3575.46901716173
 21
212.7187465491207
 31
0.0
  0
LINE
  5
5D8A
330
1F
100
AcDbEntity
  8
0
100
AcDbLine
 10
3575.46901716173
 20
212.7187465491207
 30
0.0
 11
3575.46901716173
 21
194.2187465491207
 31
0.0
  0
LINE
  5
5D8B
330
1F
100
AcDbEntity
  8
0
100
AcDbLine
 10
3575.46901716173
 20
194.2187465491207
 30
0.0
 11
3557.46901716173
 21
194.2187465491207
 31
0.0
  0
LINE
  5
5D8D
330
1F
100
AcDbEntity
  8
0
100
AcDbLine
 10
3557.46901716173
 20
194.2187465491207
 30
0.0
 11
3557.46901716173
 21
212.7187465491207
 31
0.0
  0
LINE
  5
5DC0
330
1F
100
AcDbEntity
  8
0
100
AcDbLine
 10
3525.207723776247
 20
-41.28125345087972
 30
0.0
 11
3525.207723776247
 21
-41.28125345087972
 31
0.0
  0
LINE
  5
5DE5
330
1F
100
AcDbEntity
  8
0
100
AcDbLine
 10
3614.66901716173
 20
-192.1614790920981
 30
0.0
 11
3652.46901716173
 21
-192.1614790920981
 31
0.0
  0
LINE
  5
5DFB
330
1F
100
AcDbEntity
  8
0
100
AcDbLine
 10
3653.56901716173
 20
-192.1614790920981
 30
0.0
 11
3613.56901716173
 21
-192.1614790920981
 31
0.0
  0
LINE
  5
5DFC
330
1F
100
AcDbEntity
  8
0
100
AcDbLine
 10
3613.56901716173
 20
-192.1614790920981
 30
0.0
 11
3613.56901716173
 21
-197.1614790920981
 31
0.0
  0
LINE
  5
5DFE
330
1F
100
AcDbEntity
  8
0
100
AcDbLine
 10
3653.56901716173
 20
-192.1614790920981
 30
0.0
 11
3653.56901716173
 21
-197.1614790920981
 31
0.0
  0
ARC
  5
5E06
330
1F
100
AcDbEntity
  8
0
100
AcDbCircle
 10
3651.56901716173
 20
-197.1614790920981
 30
0.0
 40
2.0
100
AcDbArc
 50
270.0
 51
0.0
  0
ARC
  5
5E07
330
1F
100
AcDbEntity
  8
0
100
AcDbCircle
 10
3615.56901716173
 20
-197.1614790920981
 30
0.0
 40
2.0
100
AcDbArc
 50
180.0
 51
270.0
  0
CIRCLE
  5
5E15
330
1F
100
AcDbEntity
  8
0
100
AcDbCircle
 10
3566.46901716173
 20
-253.0762677720633
 30
0.0
 40
9.0
  0
LINE
  5
5F71
330
1F
100
AcDbEntity
  8
0
100
AcDbLine
 10
3559.46901716173
 20
194.2187465491207
 30
0.0
 11
3559.46901716173
 21
-11.28125345087972
 31
0.0
  0
LINE
  5
5F72
330
1F
100
AcDbEntity
  8
0
100
AcDbLine
 10
3573.46901716173
 20
194.2187465491207
 30
0.0
 11
3573.46901716173
 21
-11.28125345087972
 31
0.0
  0
ARC
  5
5F74
330
1F
100
AcDbEntity
  8
0
100
AcDbCircle
 10
3499.369017161729
 20
-47.08125345087944
 30
0.0
 40
10.0
100
AcDbArc
 50
23.5781784782176
 51
336.4218215217824
  0
LINE
  5
5F7B
330
1F
100
AcDbEntity
  8
0
100
AcDbLine
 10
3639.56901716173
 20
-43.08125345087944
 30
0.0
 11
3493.369017161729
 21
-43.08125345087944
 31
0.0
  0
LINE
  5
5F7C
330
1F
100
AcDbEntity
  8
0
100
AcDbLine
 10
3493.369017161729
 20
-43.08125345087944
 30
0.0
 11
3493.369017161729
 21
-51.08125345087945
 31
0.0
  0
LINE
  5
5F7D
330
1F
100
AcDbEntity
  8
0
100
AcDbLine
 10
3639.56901716173
 20
-43.08125345087944
 30
0.0
 11
3639.56901716173
 21
-51.08125345087945
 31
0.0
  0
LINE
  5
5F82
330
1F
100
AcDbEntity
  8
0
100
AcDbLine
 10
3521.207723776247
 20
-41.28125345087972
 30
0.0
 11
3611.207723776247
 21
-41.28125345087972
 31
0.0
  0
LINE
  5
5F83
330
1F
100
AcDbEntity
  8
0
100
AcDbLine
 10
3520.946430390764
 20
-43.08125345087989
 30
0.0
 11
3522.718332799262
 21
-41.70271732340313
 31
0.0
  0
ARC
  5
5F84
330
1F
100
AcDbEntity
  8
0
100
AcDbCircle
 10
3523.946430390764
 20
-43.28125345087971
 30
0.0
 40
2.0
100
AcDbArc
 50
90.0
 51
127.8828365662042
  0
DIMENSION
  5
6157
330
1F
100
AcDbEntity
  8
0
100
AcDbDimension
280
     0
  2
*D1
 10
3633.56901716173
 20
-176.0774521955402
 30
0.0
 11
3566.46901716173
 21
-167.4464835734392
 31
0.0
 70
    32
 71
     5
 42
134.1999999999998
 73
     0
 74
     0
 75
     0
  3
ISO-25
100
AcDbAlignedDimension
 13
3499.36901716173
 23
-192.1614790920981
 33
0.0
 14
3633.56901716173
 24
-192.1614790920981
 34
0.0
100
AcDbRotatedDimension
  0
DIMENSION
  5
6164
330
1F
100
AcDbEntity
  8
0
100
AcDbDimension
280
     0
  2
*D2
 10
3653.56901716173
 20
-348.9926979926385
 30
0.0
 11
3566.46901716173
 21
-348.9926979926385
 31
0.0
 70
   160
 71
     5
 42
174.1999999999998
 73
     0
 74
     0
 75
     0
  3
ISO-25
100
AcDbAlignedDimension
 13
3479.36901716173
 23
-328.1268496582705
 33
0.0
 14
3653.56901716173
 24
-328.1268496582705
 34
0.0
100
AcDbRotatedDimension
  0
LINE
  5
624F
330
1F
100
AcDbEntity
  8
0
100
AcDbLine
 10
3819.635870749963
 20
-67.08125345087942
 30
0.0
 11
3824.635870749963
 21
-67.08125345087942
 31
0.0
  0
ARC
  5
6250
330
1F
100
AcDbEntity
  8
0
100
AcDbCircle
 10
3824.635870749963
 20
-65.08125345087941
 30
0.0
 40
2.0
100
AcDbArc
 50
270.0
 51
0.0
  0
LINE
  5
6251
330
1F
100
AcDbEntity
  8
0
100
AcDbLine
 10
3819.635870749963
 20
-27.08125345087943
 30
0.0
 11
3824.635870749963
 21
-27.08125345087943
 31
0.0
  0
ARC
  5
6252
330
1F
100
AcDbEntity
  8
0
100
AcDbCircle
 10
3824.635870749963
 20
-29.08125345087942
 30
0.0
 40
2.0
100
AcDbArc
 50
0.0
 51
90.0
  0
LINE
  5
6253
330
1F
100
AcDbEntity
  8
0
100
AcDbLine
 10
3941.335870749963
 20
-37.08125345087943
 30
0.0
 11
3941.335870749963
 21
-57.08125345087943
 31
0.0
  0
LINE
  5
6254
330
1F
100
AcDbEntity
  8
0
100
AcDbLine
 10
3932.247164135446
 20
-7.081253450879422
 30
0.0
 11
3836.247164135446
 21
-7.081253450879422
 31
0.0
  0
LINE
  5
6255
330
1F
100
AcDbEntity
  8
0
100
AcDbLine
 10
3917.247164135446
 20
-147.0812534508794
 30
0.0
 11
3851.247164135446
 21
-147.0812534508794
 31
0.0
  0
LINE
  5
6256
330
1F
100
AcDbEntity
  8
0
100
AcDbLine
 10
3923.247164135446
 20
-57.08125345087943
 30
0.0
 11
3923.247164135446
 21
-141.0812534508794
 31
0.0
  0
LINE
  5
6257
330
1F
100
AcDbEntity
  8
0
100
AcDbLine
 10
3845.247164135446
 20
-57.08125345087943
 30
0.0
 11
3845.247164135446
 21
-141.0812534508794
 31
0.0
  0
ARC
  5
6258
330
1F
100
AcDbEntity
  8
0
100
AcDbCircle
 10
3917.247164135446
 20
-141.0812534508794
 30
0.0
 40
6.0
100
AcDbArc
 50
270.0
 51
0.0
  0
ARC
  5
6259
330
1F
100
AcDbEntity
  8
0
100
AcDbCircle
 10
3851.247164135446
 20
-141.0812534508794
 30
0.0
 40
6.0
100
AcDbArc
 50
180.0
 51
270.0
  0
LINE
  5
625A
330
1F
100
AcDbEntity
  8
0
100
AcDbLine
 10
3932.247164135446
 20
-7.081253450879422
 30
0.0
 11
3932.247164135446
 21
-34.08125345087942
 31
0.0
  0
LINE
  5
625B
330
1F
100
AcDbEntity
  8
0
100
AcDbLine
 10
3836.247164135446
 20
-7.081253450879422
 30
0.0
 11
3836.247164135446
 21
-34.08125345087942
 31
0.0
  0
ARC
  5
625C
330
1F
100
AcDbEntity
  8
0
100
AcDbCircle
 10
3839.247164135446
 20
-34.08125345087942
 30
0.0
 40
3.0
100
AcDbArc
 50
180.0
 51
270.0
  0
ARC
  5
625D
330
1F
100
AcDbEntity
  8
0
100
AcDbCircle
 10
3929.247164135446
 20
-34.08125345087942
 30
0.0
 40
3.0
100
AcDbArc
 50
270.0
 51
0.0
  0
LINE
  5
625E
330
1F
100
AcDbEntity
  8
0
100
AcDbLine
 10
3892.985870749964
 20
216.9187465491206
 30
0.0
 11
3874.985870749963
 21
216.9187465491206
 31
0.0
  0
LINE
  5
625F
330
1F
100
AcDbEntity
  8
0
100
AcDbLine
 10
3874.985870749963
 20
216.9187465491206
 30
0.0
 11
3874.985870749963
 21
198.4187465491206
 31
0.0
  0
LINE
  5
6260
330
1F
100
AcDbEntity
  8
0
100
AcDbLine
 10
3874.985870749963
 20
198.4187465491206
 30
0.0
 11
3892.985870749964
 21
198.4187465491206
 31
0.0
  0
LINE
  5
6261
330
1F
100
AcDbEntity
  8
0
100
AcDbLine
 10
3892.985870749964
 20
198.4187465491206
 30
0.0
 11
3892.985870749964
 21
216.9187465491206
 31
0.0
  0
LINE
  5
6262
330
1F
100
AcDbEntity
  8
0
100
AcDbLine
 10
3890.985870749963
 20
-7.081253450879422
 30
0.0
 11
3890.985870749963
 21
198.4187465491206
 31
0.0
  0
LINE
  5
6263
330
1F
100
AcDbEntity
  8
0
100
AcDbLine
 10
3876.985870749962
 20
-7.081253450879451
 30
0.0
 11
3876.985870749964
 21
198.4187465491206
 31
0.0
  0
LINE
  5
6264
330
1F
100
AcDbEntity
  8
0
100
AcDbLine
 10
3826.635870749963
 20
-37.08125345087943
 30
0.0
 11
3941.335870749963
 21
-37.08125345087943
 31
0.0
  0
LINE
  5
6265
330
1F
100
AcDbEntity
  8
0
100
AcDbLine
 10
3819.635870749963
 20
-27.08125345087943
 30
0.0
 11
3819.635870749963
 21
-67.08125345087942
 31
0.0
  0
LINE
  5
6266
330
1F
100
AcDbEntity
  8
0
100
AcDbLine
 10
3826.635870749963
 20
-29.08125345087942
 30
0.0
 11
3826.635870749963
 21
-65.08125345087941
 31
0.0
  0
LINE
  5
6267
330
1F
100
AcDbEntity
  8
0
100
AcDbLine
 10
3941.335870749963
 20
-57.08125345087943
 30
0.0
 11
3826.635870749964
 21
-57.08125345087943
 31
0.0
  0
DIMENSION
  5
62B0
330
1F
100
AcDbEntity
  8
0
100
AcDbDimension
280
     0
  2
*D3
 10
3963.282778645959
 20
-147.0812534508794
 30
0.0
 11
3954.651810023858
 21
34.91874654912122
 31
0.0
 70
    32
 71
     5
 42
364.0
 73
     0
 74
     0
 75
     0
  3
ISO-25
100
AcDbAlignedDimension
 13
3939.271077912792
 23
216.9187465491206
 33
0.0
 14
3939.532371298275
 24
-147.0812534508794
 34
0.0
 50
90.0
100
AcDbRotatedDimension
  0
DIMENSION
  5
62C6
330
1F
100
AcDbEntity
  8
0
100
AcDbDimension
280
     0
  2
*D4
 10
3677.103314268182
 20
-314.1614790920981
 30
0.0
 11
3668.578757651538
 21
-253.1614790920975
 31
0.0
 70
    32
 71
     5
 42
121.9999999999999
 73
     0
 74
     0
 75
     0
  3
ISO-25
100
AcDbAlignedDimension
 13
3656.226605275901
 23
-192.1614790920981
 33
0.0
 14
3656.226605275901
 24
-314.1614790920981
 34
0.0
 50
90.0
100
AcDbRotatedDimension
  0
ENDSEC
  0
SECTION
  2
OBJECTS
  0
DICTIONARY
  5
C
330
0
100
AcDbDictionary
281
     1
  3
ACAD_CIP_PREVIOUS_PRODUCT_INFO
350
639D
  3
ACAD_COLOR
350
970
  3
ACAD_DETAILVIEWSTYLE
350
6394
  3
ACAD_GROUP
350
D
  3
ACAD_LAYOUT
350
1A
  3
ACAD_MATERIAL
350
96F
  3
ACAD_MLEADERSTYLE
350
6390
  3
ACAD_MLINESTYLE
350
17
  3
ACAD_PLOTSETTINGS
350
19
  3
ACAD_PLOTSTYLENAME
350
E
  3
ACAD_SCALELIST
350
637E
  3
ACAD_SECTIONVIEWSTYLE
350
6392
  3
ACAD_TABLESTYLE
350
971
  3
ACAD_VISUALSTYLE
350
6365
  3
AcadDim
350
55AE
  3
ACDB_RECOMPOSE_DATA
350
63CC
  3
AcDbVariableDictionary
350
7B
  0
DICTIONARY
  5
5A86
330
2
100
AcDbDictionary
280
     1
281
     1
  3
ACAD_LAYERFILTERS
360
6156
  3
ACLYDICTIONARY
360
6155
  0
DICTIONARY
  5
639E
330
10
100
AcDbDictionary
280
     1
281
     1
  3
ADSK_XREC_LAYER_RECONCILED
360
639F
  0
DICTIONARY
  5
63A0
330
33
100
AcDbDictionary
280
     1
281
     1
  3
ADSK_XREC_LAYER_RECONCILED
360
63A1
  0
DICTIONARY
  5
63A2
330
36
100
AcDbDictionary
280
     1
281
     1
  3
ADSK_XREC_LAYER_RECONCILED
360
63A3
  0
DICTIONARY
  5
ADA
330
1F
100
AcDbDictionary
280
     1
281
     1
  3
ACAD_SORTENTS
360
ADB
  0
XRECORD
  5
639D
102
{ACAD_REACTORS
330
C
102
}
330
C
100
AcDbXrecord
280
     1
300
ACD
300
2017
300
ACD_F_S
  0
DICTIONARY
  5
970
102
{ACAD_REACTORS
330
C
102
}
330
C
100
AcDbDictionary
281
     1
  0
DICTIONARY
  5
6394
102
{ACAD_REACTORS
330
C
102
}
330
C
100
AcDbDictionary
281
     1
  3
Imperial24
350
6395
  0
DICTIONARY
  5
D
102
{ACAD_REACTORS
330
C
102
}
330
C
100
AcDbDictionary
281
     1
  0
DICTIONARY
  5
1A
102
{ACAD_REACTORS
330
C
102
}
330
C
100
AcDbDictionary
281
     1
  3
Model
350
22
  3
布局1
350
1E
  3
布局2
350
26
1001
AcadStringInfo
1000
MIFCodePage
1070
     5
  0
DICTIONARY
  5
96F
102
{ACAD_REACTORS
330
C
102
}
330
C
100
AcDbDictionary
281
     1
  3
ByBlock
350
6355
  3
ByLayer
350
634D
  3
Global
350
635D
  0
DICTIONARY
  5
6390
102
{ACAD_REACTORS
330
C
102
}
330
C
100
AcDbDictionary
281
     1
  3
Standard
350
6391
  0
DICTIONARY
  5
17
102
{ACAD_REACTORS
330
C
102
}
330
C
100
AcDbDictionary
281
     1
  3
Standard
350
18
  0
DICTIONARY
  5
19
102
{ACAD_REACTORS
330
C
102
}
330
C
100
AcDbDictionary
281
     1
  0
ACDBDICTIONARYWDFLT
  5
E
102
{ACAD_REACTORS
330
C
102
}
330
C
100
AcDbDictionary
281
     1
  3
Normal
350
F
100
AcDbDictionaryWithDefault
340
F
  0
DICTIONARY
  5
637E
102
{ACAD_REACTORS
330
C
102
}
330
C
100
AcDbDictionary
281
     1
  3
A0
350
637F
  3
A1
350
6380
  3
A2
350
6381
  3
A3
350
6382
  3
A4
350
6383
  3
A5
350
6384
  3
A6
350
6385
  3
A7
350
6386
  3
A8
350
6387
  3
A9
350
6388
  3
B0
350
6389
  3
B1
350
638A
  3
B2
350
638B
  3
B3
350
638C
  3
B4
350
638D
  3
B5
350
638E
  3
B6
350
638F
  0
DICTIONARY
  5
6392
102
{ACAD_REACTORS
330
C
102
}
330
C
100
AcDbDictionary
281
     1
  3
Imperial24
350
6393
  0
DICTIONARY
  5
971
102
{ACAD_REACTORS
330
C
102
}
330
C
100
AcDbDictionary
281
     1
  3
Standard
350
972
  0
DICTIONARY
  5
6365
102
{ACAD_REACTORS
330
C
102
}
330
C
100
AcDbDictionary
281
     1
  3
2dWireframe
350
636B
  3
Basic
350
636A
  3
Brighten
350
6371
  3
ColorChange
350
6375
  3
Conceptual
350
636E
  3
Dim
350
6370
  3
EdgeColorOff
350
637D
  3
Facepattern
350
6374
  3
Flat
350
6366
  3
FlatWithEdges
350
6367
  3
Gouraud
350
6368
  3
GouraudWithEdges
350
6369
  3
Hidden
350
636D
  3
JitterOff
350
637B
  3
Linepattern
350
6373
  3
OverhangOff
350
637C
  3
Realistic
350
636F
  3
Shaded
350
637A
  3
Shaded with edges
350
6379
  3
Shades of Gray
350
6376
  3
Sketchy
350
6377
  3
Thicken
350
6372
  3
Wireframe
350
636C
  3
X-Ray
350
6378
  0
XRECORD
  5
55AE
102
{ACAD_REACTORS
330
C
102
}
330
C
100
AcDbXrecord
280
     1
 90
   990106
  3

 60
     0
 61
     0
 62
     1
 63
     3
 64
     0
 65
     0
 66
     0
 67
     3
 68
     1
 69
     0
 70
     0
 71
     0
 72
     0
 40
2.21116251478825
170
     0
340
5A44
  0
XRECORD
  5
63CC
102
{ACAD_REACTORS
330
C
102
}
330
C
100
AcDbXrecord
280
     1
 90
        1
330
972
330
6393
330
6395
  0
DICTIONARY
  5
7B
102
{ACAD_REACTORS
330
C
102
}
330
C
100
AcDbDictionary
281
     1
  3
CANNOSCALE
350
63B6
  3
CMLEADERSTYLE
350
63B2
  3
CTABLESTYLE
350
AFB
  3
CVIEWDETAILSTYLE
350
63B3
  3
CVIEWSECTIONSTYLE
350
63B4
  3
DIMASSOC
350
AFC
  3
LAYEREVAL
350
63B8
  3
LAYERNOTIFY
350
63B9
  3
LIGHTINGUNITS
350
63B7
  3
MSLTSCALE
350
63B5
  3
PROJECTNAME
350
AFD
  3
SORTENTS
350
7C
  0
DICTIONARY
  5
6156
102
{ACAD_REACTORS
330
5A86
102
}
330
5A86
100
AcDbDictionary
281
     1
  0
DICTIONARY
  5
6155
102
{ACAD_REACTORS
330
5A86
102
}
330
5A86
100
AcDbDictionary
281
     1
1001
ACAD
1000
<All
  0
XRECORD
  5
639F
102
{ACAD_REACTORS
330
639E
102
}
330
639E
100
AcDbXrecord
280
     1
290
     1
  0
XRECORD
  5
63A1
102
{ACAD_REACTORS
330
63A0
102
}
330
63A0
100
AcDbXrecord
280
     1
290
     1
  0
XRECORD
  5
63A3
102
{ACAD_REACTORS
330
63A2
102
}
330
63A2
100
AcDbXrecord
280
     1
290
     1
  0
SORTENTSTABLE
  5
ADB
102
{ACAD_REACTORS
330
ADA
102
}
330
ADA
100
AcDbSortentsTable
330
1F
331
5BF6
  5
5BF7
331
5ABA
  5
5ABA
331
5BFA
  5
5BFB
331
5BBB
  5
5BBC
331
5BFE
  5
5BFF
331
5BBF
  5
5BC0
331
5C3B
  5
5D89
331
5AD2
  5
5AD2
331
5C02
  5
5C03
331
5BC3
  5
5BC4
331
5D8B
  5
5D8D
331
5C06
  5
5C07
331
5BC7
  5
5BC8
331
5C0A
  5
5C0B
331
5BCB
  5
5BCC
331
5C0E
  5
5C0F
331
5BCF
  5
5BD0
331
5DC0
  5
5DC1
331
5BD0
  5
5BD1
331
5C13
  5
5C14
331
5BD4
  5
5BD5
331
5C17
  5
5C18
331
5BD8
  5
5BD9
331
5A44
  5
5A6B
331
5C1B
  5
5C1C
331
5BDC
  5
5BDD
331
5AEF
  5
5AEF
331
5DFC
  5
5DFE
331
5BE0
  5
5BE1
331
5AF3
  5
5AF3
331
5BE4
  5
5BE5
331
5C23
  5
5C24
331
5BE8
  5
5BE9
331
5A94
  5
5A94
331
5BEC
  5
5BED
331
5C2C
  5
5C2D
331
5B20
  5
5B20
331
5C34
  5
5C35
331
5BF3
  5
5BF4
331
5BF7
  5
5BF8
331
5BB8
  5
5BB9
331
5BFB
  5
5BFC
331
5BBC
  5
5BBD
331
5BFF
  5
5C00
331
5BC0
  5
5BC1
331
5AD3
  5
5AD3
331
5C03
  5
5C04
331
5BC4
  5
5BC5
331
5C07
  5
5C08
331
5BC8
  5
5BC9
331
5ADB
  5
5ADB
331
5C0B
  5
5C0C
331
5BCC
  5
5BCD
331
5C0F
  5
5C10
331
5C10
  5
5C11
331
5BD1
  5
5BD2
331
5C14
  5
5C15
331
5BD5
  5
5BD6
331
5DE5
  5
5DFB
331
5C18
  5
5C19
331
5BD9
  5
5BDA
331
5C1C
  5
5C1E
331
5BDD
  5
5BDE
331
5AF0
  5
5AF0
331
5BE1
  5
5BE2
331
5BE5
  5
5BE6
331
5A95
  5
5A95
331
5BE9
  5
5BEA
331
5BED
  5
5BEE
331
5A98
  5
5A98
331
5C2D
  5
5C2E
331
5BF0
  5
5BF1
331
5C35
  5
5C3B
331
5BF4
  5
5BF5
331
5BF8
  5
5BF9
331
5BB9
  5
5BBA
331
5BFC
  5
5BFD
331
5BBD
  5
5BBE
331
5AD0
  5
5AD0
331
5C00
  5
5C01
331
5BC1
  5
5BC2
331
5D89
  5
5D8A
331
5C04
  5
5C05
331
5BC5
  5
5BC6
331
5D8D
  5
5DC0
331
5BC9
  5
5BCA
331
5ADC
  5
5ADC
331
2A25
  5
2DBA
331
5C08
  5
5C09
331
5C0C
  5
5C0D
331
5BCD
  5
5BCE
331
5AE1
  5
5AE1
331
5C11
  5
5C12
331
5BD2
  5
5BD3
331
5C15
  5
5C16
331
5BD6
  5
5BD7
331
5C19
  5
5C1A
331
5BDA
  5
5BDB
331
5BDE
  5
5BDF
331
5DFE
  5
5E06
331
5AF1
  5
5AF1
331
5BE2
  5
5BE3
331
5BE6
  5
5BE7
331
5E06
  5
5E07
331
5C25
  5
5C26
331
5BEA
  5
5BEB
331
5BEE
  5
5BEF
331
5C2A
  5
5C2B
331
5E15
  5
5E3E
331
5BF1
  5
5BF2
331
5F71
  5
5F72
331
5BF5
  5
5BF6
331
5BF9
  5
5BFA
331
5BBA
  5
5BBB
331
5BFD
  5
5BFE
331
5BBE
  5
5BBF
331
5AD1
  5
5AD1
331
5C01
  5
5C02
331
5BC2
  5
5BC3
331
5D8A
  5
5D8B
331
5C05
  5
5C06
331
5BC6
  5
5BC7
331
5C09
  5
5C0A
331
5BCA
  5
5BCB
331
5C0D
  5
5C0E
331
5BCE
  5
5BCF
331
5AE2
  5
5AE2
331
5C12
  5
5C13
331
5BD3
  5
5BD4
331
5C16
  5
5C17
331
5BD7
  5
5BD8
331
5C1A
  5
5C1B
331
5BDB
  5
5BDC
331
5C1E
  5
5C23
331
5BDF
  5
5BE0
331
5DFB
  5
5DFC
331
5BE3
  5
5BE4
331
5BE7
  5
5BE8
331
5E07
  5
5E15
331
5BEB
  5
5BEC
331
5BEF
  5
5BF0
331
5C2B
  5
5C2C
331
5A9A
  5
5A9A
331
5B23
  5
5B23
331
5BF2
  5
5BF3
331
5F72
  5
5F73
  0
ACDBDETAILVIEWSTYLE
  5
6395
102
{ACAD_XDICTIONARY
360
63CA
102
}
102
{ACAD_REACTORS
330
6394
102
}
330
6394
100
AcDbModelDocViewStyle
 70
     0
  3
Imperial24
290
     0
100
AcDbDetailViewStyle
 70
     0
 71
     0
 90
        3
 71
     1
340
11
 62
   256
 40
0.24
340
0
 62
   256
 40
0.24
300

 40
0.36
280
     3
 71
     2
340
16
 90
       25
 62
   256
 71
     3
340
11
 62
   256
 40
0.24
 90
        1
 40
0.75
 90
        1
300
%<\AcVar ViewType \f "%tc1">% %<\AcVar ViewDetailId>%\PSCALE %<\AcVar ViewScale \f "%sn">%
 71
     4
340
16
 90
       25
 62
   256
340
16
 90
       25
 62
   256
280
     0
  0
LAYOUT
  5
22
102
{ACAD_REACTORS
330
1A
102
}
330
1A
100
AcDbPlotSettings
  1

  2
EPSON Stylus Photo EX3
  4
A3
  6

 40
3.757083177566528
 41
14.76376056671142
 42
3.757080078125
 43
3.757080078125
 44
296.9683227539062
 45
420.0172119140624
 46
0.0
 47
0.0
 48
-2.01420720382157
 49
-1.687121371913349
140
421.216483444302
141
291.759802880008
142
1.0
143
1.054133289698709
 70
 11952
 72
     1
 73
     1
 74
     4
  7

 75
     0
147
0.9486466367889953
 76
     0
 77
     2
 78
   300
148
2.01420720382157
149
1.687121371913349
100
AcDbLayout
  1
Model
 70
     1
 71
     0
 10
0.0
 20
0.0
 11
12.0
 21
9.0
 12
0.0
 22
0.0
 32
0.0
 14
0.0
 24
0.0
 34
0.0
 15
0.0
 25
0.0
 35
0.0
146
0.0
 13
0.0
 23
0.0
 33
0.0
 16
1.0
 26
0.0
 36
0.0
 17
0.0
 27
1.0
 37
0.0
 76
     0
330
1F
331
634B
  0
LAYOUT
  5
1E
102
{ACAD_REACTORS
330
1A
102
}
330
1A
100
AcDbPlotSettings
  1

  2
Star AR-3200+
  4

  6

 40
0.0
 41
0.0
 42
0.0
 43
0.0
 44
0.0
 45
0.0
 46
0.0
 47
0.0
 48
0.0
 49
0.0
140
0.0
141
0.0
142
1.0
143
1.0
 70
   688
 72
     0
 73
     0
 74
     5
  7

 75
    16
147
1.0
 76
     0
 77
     2
 78
   300
148
0.0
149
0.0
100
AcDbLayout
  1
布局1
 70
     1
 71
     1
 10
0.0
 20
0.0
 11
420.0
 21
297.0
 12
0.0
 22
0.0
 32
0.0
 14
1.000000000000000E+20
 24
1.000000000000000E+20
 34
1.000000000000000E+20
 15
-1.000000000000000E+20
 25
-1.000000000000000E+20
 35
-1.000000000000000E+20
146
0.0
 13
0.0
 23
0.0
 33
0.0
 16
1.0
 26
0.0
 36
0.0
 17
0.0
 27
1.0
 37
0.0
 76
     0
330
1B
1001
AcadStringInfo
1000
MIFCodePage
1070
     5
  0
LAYOUT
  5
26
102
{ACAD_REACTORS
330
1A
102
}
330
1A
100
AcDbPlotSettings
  1

  2
Star AR-3200+
  4

  6

 40
0.0
 41
0.0
 42
0.0
 43
0.0
 44
0.0
 45
0.0
 46
0.0
 47
0.0
 48
0.0
 49
0.0
140
0.0
141
0.0
142
1.0
143
1.0
 70
   688
 72
     0
 73
     0
 74
     5
  7

 75
    16
147
1.0
 76
     0
 77
     2
 78
   300
148
0.0
149
0.0
100
AcDbLayout
  1
布局2
 70
     1
 71
     2
 10
0.0
 20
0.0
 11
12.0
 21
9.0
 12
0.0
 22
0.0
 32
0.0
 14
0.0
 24
0.0
 34
0.0
 15
0.0
 25
0.0
 35
0.0
146
0.0
 13
0.0
 23
0.0
 33
0.0
 16
1.0
 26
0.0
 36
0.0
 17
0.0
 27
1.0
 37
0.0
 76
     0
330
23
1001
AcadStringInfo
1000
MIFCodePage
1070
     5
  0
MATERIAL
  5
6355
102
{ACAD_XDICTIONARY
360
6356
102
}
102
{ACAD_REACTORS
330
96F
102
}
330
96F
100
AcDbMaterial
  1
ByBlock
 72
     0
 43
0.0008202099737533
 43
0.0
 43
0.0
 43
0.0
 43
0.0
 43
0.0008202099737533
 43
0.0
 43
0.0
 43
0.0
 43
0.0
 43
1.0
 43
0.0
 43
0.0
 43
0.0
 43
0.0
 43
1.0
 77
     0
 47
0.0008202099737533
 47
0.0
 47
0.0
 47
0.0
 47
0.0
 47
0.0008202099737533
 47
0.0
 47
0.0
 47
0.0
 47
0.0
 47
1.0
 47
0.0
 47
0.0
 47
0.0
 47
0.0
 47
1.0
171
     0
 49
0.0008202099737533
 49
0.0
 49
0.0
 49
0.0
 49
0.0
 49
0.0008202099737533
 49
0.0
 49
0.0
 49
0.0
 49
0.0
 49
1.0
 49
0.0
 49
0.0
 49
0.0
 49
0.0
 49
1.0
175
     0
142
0.0008202099737533
142
0.0
142
0.0
142
0.0
142
0.0
142
0.0008202099737533
142
0.0
142
0.0
142
0.0
142
0.0
142
1.0
142
0.0
142
0.0
142
0.0
142
0.0
142
1.0
179
     0
144
0.0008202099737533
144
0.0
144
0.0
144
0.0
144
0.0
144
0.0008202099737533
144
0.0
144
0.0
144
0.0
144
0.0
144
1.0
144
0.0
144
0.0
144
0.0
144
0.0
144
1.0
147
0.0008202099737533
147
0.0
147
0.0
147
0.0
147
0.0
147
0.0008202099737533
147
0.0
147
0.0
147
0.0
147
0.0
147
1.0
147
0.0
147
0.0
147
0.0
147
0.0
147
1.0
  0
MATERIAL
  5
634D
102
{ACAD_XDICTIONARY
360
634E
102
}
102
{ACAD_REACTORS
330
96F
102
}
330
96F
100
AcDbMaterial
  1
ByLayer
 72
     0
 43
0.0008202099737533
 43
0.0
 43
0.0
 43
0.0
 43
0.0
 43
0.0008202099737533
 43
0.0
 43
0.0
 43
0.0
 43
0.0
 43
1.0
 43
0.0
 43
0.0
 43
0.0
 43
0.0
 43
1.0
 77
     0
 47
0.0008202099737533
 47
0.0
 47
0.0
 47
0.0
 47
0.0
 47
0.0008202099737533
 47
0.0
 47
0.0
 47
0.0
 47
0.0
 47
1.0
 47
0.0
 47
0.0
 47
0.0
 47
0.0
 47
1.0
171
     0
 49
0.0008202099737533
 49
0.0
 49
0.0
 49
0.0
 49
0.0
 49
0.0008202099737533
 49
0.0
 49
0.0
 49
0.0
 49
0.0
 49
1.0
 49
0.0
 49
0.0
 49
0.0
 49
0.0
 49
1.0
175
     0
142
0.0008202099737533
142
0.0
142
0.0
142
0.0
142
0.0
142
0.0008202099737533
142
0.0
142
0.0
142
0.0
142
0.0
142
1.0
142
0.0
142
0.0
142
0.0
142
0.0
142
1.0
179
     0
144
0.0008202099737533
144
0.0
144
0.0
144
0.0
144
0.0
144
0.0008202099737533
144
0.0
144
0.0
144
0.0
144
0.0
144
1.0
144
0.0
144
0.0
144
0.0
144
0.0
144
1.0
147
0.0008202099737533
147
0.0
147
0.0
147
0.0
147
0.0
147
0.0008202099737533
147
0.0
147
0.0
147
0.0
147
0.0
147
1.0
147
0.0
147
0.0
147
0.0
147
0.0
147
1.0
  0
MATERIAL
  5
635D
102
{ACAD_XDICTIONARY
360
635E
102
}
102
{ACAD_REACTORS
330
96F
102
}
330
96F
100
AcDbMaterial
  1
Global
 72
     0
 43
0.0008202099737533
 43
0.0
 43
0.0
 43
0.0
 43
0.0
 43
0.0008202099737533
 43
0.0
 43
0.0
 43
0.0
 43
0.0
 43
1.0
 43
0.0
 43
0.0
 43
0.0
 43
0.0
 43
1.0
 77
     0
 47
0.0008202099737533
 47
0.0
 47
0.0
 47
0.0
 47
0.0
 47
0.0008202099737533
 47
0.0
 47
0.0
 47
0.0
 47
0.0
 47
1.0
 47
0.0
 47
0.0
 47
0.0
 47
0.0
 47
1.0
171
     0
 49
0.0008202099737533
 49
0.0
 49
0.0
 49
0.0
 49
0.0
 49
0.0008202099737533
 49
0.0
 49
0.0
 49
0.0
 49
0.0
 49
1.0
 49
0.0
 49
0.0
 49
0.0
 49
0.0
 49
1.0
175
     0
142
0.0008202099737533
142
0.0
142
0.0
142
0.0
142
0.0
142
0.0008202099737533
142
0.0
142
0.0
142
0.0
142
0.0
142
1.0
142
0.0
142
0.0
142
0.0
142
0.0
142
1.0
179
     0
144
0.0008202099737533
144
0.0
144
0.0
144
0.0
144
0.0
144
0.0008202099737533
144
0.0
144
0.0
144
0.0
144
0.0
144
1.0
144
0.0
144
0.0
144
0.0
144
0.0
144
1.0
147
0.0008202099737533
147
0.0
147
0.0
147
0.0
147
0.0
147
0.0008202099737533
147
0.0
147
0.0
147
0.0
147
0.0
147
1.0
147
0.0
147
0.0
147
0.0
147
0.0
147
1.0
  0
MLEADERSTYLE
  5
6391
102
{ACAD_REACTORS
330
6390
102
}
330
6390
100
AcDbMLeaderStyle
179
     2
170
     2
171
     1
172
     0
 90
        2
 40
0.0
 41
0.0
173
     1
 91
-1056964608
340
14
 92
       -2
290
     1
 42
0.09
291
     1
 43
0.36
  3
Standard
 44
0.18
300

342
11
174
     1
178
     6
175
     1
176
     0
 93
-1056964608
 45
0.18
292
     0
297
     0
 46
0.18
 94
-1056964608
 47
1.0
 49
1.0
140
1.0
293
     1
141
0.0
294
     1
177
     0
142
1.0
295
     1
296
     0
143
0.125
271
     0
272
     9
273
     9
298
     1
  0
MLINESTYLE
  5
18
102
{ACAD_REACTORS
330
17
102
}
330
17
100
AcDbMlineStyle
  2
STANDARD
 70
     0
  3

 62
   256
 51
90.0
 52
90.0
 71
     2
 49
0.5
 62
   256
  6
BYLAYER
 49
-0.5
 62
   256
  6
BYLAYER
  0
ACDBPLACEHOLDER
  5
F
102
{ACAD_REACTORS
330
E
102
}
330
E
  0
SCALE
  5
637F
102
{ACAD_REACTORS
330
637E
102
}
330
637E
100
AcDbScale
 70
     0
300
1:1
140
1.0
141
1.0
290
     1
  0
SCALE
  5
6380
102
{ACAD_REACTORS
330
637E
102
}
330
637E
100
AcDbScale
 70
     0
300
1/128" = 1'-0"
140
0.0078125
141
12.0
290
     0
  0
SCALE
  5
6381
102
{ACAD_REACTORS
330
637E
102
}
330
637E
100
AcDbScale
 70
     0
300
1/64" = 1'-0"
140
0.015625
141
12.0
290
     0
  0
SCALE
  5
6382
102
{ACAD_REACTORS
330
637E
102
}
330
637E
100
AcDbScale
 70
     0
300
1/32" = 1'-0"
140
0.03125
141
12.0
290
     0
  0
SCALE
  5
6383
102
{ACAD_REACTORS
330
637E
102
}
330
637E
100
AcDbScale
 70
     0
300
1/16" = 1'-0"
140
0.0625
141
12.0
290
     0
  0
SCALE
  5
6384
102
{ACAD_REACTORS
330
637E
102
}
330
637E
100
AcDbScale
 70
     0
300
3/32" = 1'-0"
140
0.09375
141
12.0
290
     0
  0
SCALE
  5
6385
102
{ACAD_REACTORS
330
637E
102
}
330
637E
100
AcDbScale
 70
     0
300
1/8" = 1'-0"
140
0.125
141
12.0
290
     0
  0
SCALE
  5
6386
102
{ACAD_REACTORS
330
637E
102
}
330
637E
100
AcDbScale
 70
     0
300
3/16" = 1'-0"
140
0.1875
141
12.0
290
     0
  0
SCALE
  5
6387
102
{ACAD_REACTORS
330
637E
102
}
330
637E
100
AcDbScale
 70
     0
300
1/4" = 1'-0"
140
0.25
141
12.0
290
     0
  0
SCALE
  5
6388
102
{ACAD_REACTORS
330
637E
102
}
330
637E
100
AcDbScale
 70
     0
300
3/8" = 1'-0"
140
0.375
141
12.0
290
     0
  0
SCALE
  5
6389
102
{ACAD_REACTORS
330
637E
102
}
330
637E
100
AcDbScale
 70
     0
300
1/2" = 1'-0"
140
0.5
141
12.0
290
     0
  0
SCALE
  5
638A
102
{ACAD_REACTORS
330
637E
102
}
330
637E
100
AcDbScale
 70
     0
300
3/4" = 1'-0"
140
0.75
141
12.0
290
     0
  0
SCALE
  5
638B
102
{ACAD_REACTORS
330
637E
102
}
330
637E
100
AcDbScale
 70
     0
300
1" = 1'-0"
140
1.0
141
12.0
290
     0
  0
SCALE
  5
638C
102
{ACAD_REACTORS
330
637E
102
}
330
637E
100
AcDbScale
 70
     0
300
1-1/2" = 1'-0"
140
1.5
141
12.0
290
     0
  0
SCALE
  5
638D
102
{ACAD_REACTORS
330
637E
102
}
330
637E
100
AcDbScale
 70
     0
300
3" = 1'-0"
140
3.0
141
12.0
290
     0
  0
SCALE
  5
638E
102
{ACAD_REACTORS
330
637E
102
}
330
637E
100
AcDbScale
 70
     0
300
6" = 1'-0"
140
6.0
141
12.0
290
     0
  0
SCALE
  5
638F
102
{ACAD_REACTORS
330
637E
102
}
330
637E
100
AcDbScale
 70
     0
300
1'-0" = 1'-0"
140
12.0
141
12.0
290
     0
  0
ACDBSECTIONVIEWSTYLE
  5
6393
102
{ACAD_XDICTIONARY
360
63C8
102
}
102
{ACAD_REACTORS
330
6392
102
}
330
6392
100
AcDbModelDocViewStyle
 70
     0
  3
Imperial24
290
     0
100
AcDbSectionViewStyle
 70
     0
 71
     0
 90
       78
 71
     1
340
11
 62
   256
 40
0.24
340
0
340
0
 62
   256
 40
0.24
300
I, O, Q, S, X, Z
 40
0.48
 90
        3
 40
0.18
 90
        1
 71
     2
340
16
 90
       25
 62
   256
340
16
 90
       50
 62
   256
 40
0.24
 40
0.0
 40
0.24
 71
     3
340
11
 62
   256
 40
0.24
 90
        1
 40
0.75
 90
        1
300
%<\AcVar ViewType \f "%tc1">% %<\AcVar ViewSectionStartId>%-%<\AcVar ViewSectionEndId>%\PSCALE %<\AcVar ViewScale \f "%sn">%
 71
     4
 62
   256
 62
   257
300
ANSI31
 40
1.0
 90
        0
290
     0
290
     0
 90
        6
 40
0.0
 40
1.570796326794896
 40
0.2617993877991494
 40
1.308996938995747
 40
-0.2617993877991494
 40
1.832595714594046
  0
TABLESTYLE
  5
972
102
{ACAD_XDICTIONARY
360
63C6
102
}
102
{ACAD_REACTORS
330
971
102
}
330
971
100
AcDbTableStyle
280
     0
  3
Standard
 70
     0
 71
     0
 40
0.06
 41
0.06
280
     0
281
     0
  7
Standard
140
0.18
170
     2
 62
     0
 63
     7
283
     0
 90
        4
 91
        0
  1

274
    -2
284
     1
 64
     0
275
    -2
285
     1
 65
     0
276
    -2
286
     1
 66
     0
277
    -2
287
     1
 67
     0
278
    -2
288
     1
 68
     0
279
    -2
289
     1
 69
     0
  7
Standard
140
0.25
170
     5
 62
     0
 63
     7
283
     0
 90
        4
 91
        0
  1

274
    -2
284
     1
 64
     0
275
    -2
285
     1
 65
     0
276
    -2
286
     1
 66
     0
277
    -2
287
     1
 67
     0
278
    -2
288
     1
 68
     0
279
    -2
289
     1
 69
     0
  7
Standard
140
0.18
170
     5
 62
     0
 63
     7
283
     0
 90
        4
 91
        0
  1

274
    -2
284
     1
 64
     0
275
    -2
285
     1
 65
     0
276
    -2
286
     1
 66
     0
277
    -2
287
     1
 67
     0
278
    -2
288
     1
 68
     0
279
    -2
289
     1
 69
     0
  0
VISUALSTYLE
  5
636B
102
{ACAD_REACTORS
330
6365
102
}
330
6365
100
AcDbVisualStyle
  2
2dWireframe
 70
     4
177
     3
291
     0
 70
    58
 90
        0
176
     1
 90
        2
176
     1
 90
        0
176
     1
 90
        0
176
     1
 40
0.6
176
     1
 40
30.0
176
     1
 62
     7
420
 16777215
176
     1
 90
        1
176
     1
 90
        4
176
     1
 62
     7
176
     1
 62
   257
176
     1
 90
        1
176
     1
 90
        1
176
     1
 40
1.0
176
     1
 90
        0
176
     1
 62
   257
176
     1
 40
1.0
176
     1
 90
        1
176
     1
 90
        6
176
     1
 90
        2
176
     1
 62
     7
176
     1
 90
        5
176
     1
 90
        0
176
     1
 90
        0
176
     1
290
     0
176
     1
 90
        1
176
     1
 40
0.0
176
     1
 90
        0
176
     1
290
     1
176
     1
290
     1
176
     1
290
     0
176
     1
290
     0
176
     1
290
     0
176
     1
290
     0
176
     1
290
     0
176
     1
290
     0
176
     1
290
     0
176
     1
 90
       50
176
     1
 40
0.0
176
     1
 40
1.0
176
     1
 90
        0
176
     1
 62
    18
420
        0
176
     1
 90
       50
176
     1
 90
        3
176
     1
 62
     5
420
      255
176
     1
290
     0
176
     1
 90
       50
176
     1
 90
       50
176
     1
 90
       50
176
     1
290
     0
176
     1
 90
       50
176
     1
 62
   256
176
     0
 40
1.0
176
     0
 90
        2
176
     1
  1
strokes_ogs.tif
176
     1
290
     0
176
     1
 40
1.0
176
     1
 40
1.0
176
     1
  0
VISUALSTYLE
  5
636A
102
{ACAD_REACTORS
330
6365
102
}
330
6365
100
AcDbVisualStyle
  2
Basic
 70
     7
177
     3
291
     1
 70
    58
 90
        1
176
     1
 90
        0
176
     1
 90
        1
176
     1
 90
        0
176
     1
 40
0.6
176
     1
 40
30.0
176
     1
 62
     7
420
 16777215
176
     1
 90
        0
176
     1
 90
        4
176
     1
 62
     7
176
     1
 62
   257
176
     1
 90
        1
176
     1
 90
        1
176
     1
 40
1.0
176
     1
 90
        8
176
     1
 62
     7
176
     1
 40
1.0
176
     1
 90
        1
176
     1
 90
        6
176
     1
 90
        2
176
     1
 62
     7
176
     1
 90
        5
176
     1
 90
        0
176
     1
 90
        0
176
     1
290
     0
176
     1
 90
        1
176
     1
 40
0.0
176
     1
 90
        0
176
     1
290
     0
176
     1
290
     1
176
     1
290
     1
176
     1
290
     0
176
     1
290
     0
176
     1
290
     0
176
     1
290
     0
176
     1
290
     0
176
     1
290
     0
176
     1
 90
       50
176
     1
 40
0.0
176
     1
 40
1.0
176
     1
 90
        0
176
     1
 62
    18
420
        0
176
     1
 90
       50
176
     1
 90
        3
176
     1
 62
     5
420
      255
176
     1
290
     0
176
     1
 90
       50
176
     1
 90
       50
176
     1
 90
       50
176
     1
290
     0
176
     1
 90
       50
176
     1
 62
   256
176
     0
 40
1.0
176
     0
 90
        2
176
     1
  1
strokes_ogs.tif
176
     1
290
     0
176
     1
 40
1.0
176
     1
 40
1.0
176
     1
  0
VISUALSTYLE
  5
6371
102
{ACAD_REACTORS
330
6365
102
}
330
6365
100
AcDbVisualStyle
  2
Brighten
 70
    12
177
     3
291
     1
 70
    58
 90
        2
176
     1
 90
        2
176
     1
 90
        0
176
     1
 90
        0
176
     1
 40
0.6
176
     1
 40
30.0
176
     1
 62
     7
420
 16777215
176
     1
 90
        1
176
     1
 90
        4
176
     1
 62
     7
176
     1
 62
   257
176
     1
 90
        1
176
     1
 90
        1
176
     1
 40
1.0
176
     1
 90
        8
176
     1
 62
     7
176
     1
 40
1.0
176
     1
 90
        1
176
     1
 90
        6
176
     1
 90
        2
176
     1
 62
     7
176
     1
 90
        5
176
     1
 90
        0
176
     1
 90
        0
176
     1
290
     0
176
     1
 90
        1
176
     1
 40
50.0
176
     1
 90
        0
176
     1
290
     0
176
     1
290
     1
176
     1
290
     1
176
     1
290
     0
176
     1
290
     0
176
     1
290
     0
176
     1
290
     0
176
     1
290
     0
176
     1
290
     0
176
     1
 90
       50
176
     1
 40
0.0
176
     1
 40
1.0
176
     1
 90
        0
176
     1
 62
    18
420
        0
176
     1
 90
       50
176
     1
 90
        3
176
     1
 62
     5
420
      255
176
     1
290
     0
176
     1
 90
       50
176
     1
 90
       50
176
     1
 90
       50
176
     1
290
     0
176
     1
 90
       50
176
     1
 62
   256
176
     0
 40
1.0
176
     0
 90
        2
176
     1
  1
strokes_ogs.tif
176
     1
290
     0
176
     1
 40
1.0
176
     1
 40
1.0
176
     1
  0
VISUALSTYLE
  5
6375
102
{ACAD_REACTORS
330
6365
102
}
330
6365
100
AcDbVisualStyle
  2
ColorChange
 70
    16
177
     3
291
     1
 70
    58
 90
        2
176
     1
 90
        2
176
     1
 90
        3
176
     1
 90
        0
176
     1
 40
0.6
176
     1
 40
30.0
176
     1
 62
     8
420
  8421504
176
     1
 90
        1
176
     1
 90
        4
176
     1
 62
     7
176
     1
 62
   257
176
     1
 90
        1
176
     1
 90
        1
176
     1
 40
1.0
176
     1
 90
        8
176
     1
 62
     8
420
  8421504
176
     1
 40
1.0
176
     1
 90
        1
176
     1
 90
        6
176
     1
 90
        2
176
     1
 62
     7
176
     1
 90
        5
176
     1
 90
        0
176
     1
 90
        0
176
     1
290
     0
176
     1
 90
        1
176
     1
 40
0.0
176
     1
 90
        0
176
     1
290
     0
176
     1
290
     1
176
     1
290
     1
176
     1
290
     0
176
     1
290
     0
176
     1
290
     0
176
     1
290
     0
176
     1
290
     0
176
     1
290
     0
176
     1
 90
       50
176
     1
 40
0.0
176
     1
 40
1.0
176
     1
 90
        0
176
     1
 62
    18
420
        0
176
     1
 90
       50
176
     1
 90
        3
176
     1
 62
     5
420
      255
176
     1
290
     0
176
     1
 90
       50
176
     1
 90
       50
176
     1
 90
       50
176
     1
290
     0
176
     1
 90
       50
176
     1
 62
   256
176
     0
 40
1.0
176
     0
 90
        2
176
     1
  1
strokes_ogs.tif
176
     1
290
     0
176
     1
 40
1.0
176
     1
 40
1.0
176
     1
  0
VISUALSTYLE
  5
636E
102
{ACAD_REACTORS
330
6365
102
}
330
6365
100
AcDbVisualStyle
  2
Conceptual
 70
     9
177
     3
291
     0
 70
    58
 90
        3
176
     1
 90
        2
176
     1
 90
        0
176
     1
 90
        0
176
     1
 40
0.6
176
     1
 40
30.0
176
     1
 62
     7
420
 16777215
176
     1
 90
        2
176
     1
 90
        2
176
     1
 62
     7
176
     1
 62
   257
176
     1
 90
        1
176
     1
 90
        1
176
     1
 40
179.0
176
     1
 90
        8
176
     1
 62
     7
176
     1
 40
1.0
176
     1
 90
        1
176
     1
 90
        6
176
     1
 90
        2
176
     1
 62
     7
176
     1
 90
        3
176
     1
 90
        0
176
     1
 90
        0
176
     1
290
     0
176
     1
 90
        1
176
     1
 40
0.0
176
     1
 90
        0
176
     1
290
     0
176
     1
290
     1
176
     1
290
     1
176
     1
290
     0
176
     1
290
     0
176
     1
290
     0
176
     1
290
     0
176
     1
290
     0
176
     1
290
     0
176
     1
 90
       50
176
     1
 40
0.0
176
     1
 40
1.0
176
     1
 90
        0
176
     1
 62
    18
420
        0
176
     1
 90
       50
176
     1
 90
        3
176
     1
 62
     5
420
      255
176
     1
290
     0
176
     1
 90
       50
176
     1
 90
       50
176
     1
 90
       50
176
     1
290
     0
176
     1
 90
       50
176
     1
 62
   256
176
     0
 40
1.0
176
     0
 90
        2
176
     1
  1
strokes_ogs.tif
176
     1
290
     0
176
     1
 40
1.0
176
     1
 40
1.0
176
     1
  0
VISUALSTYLE
  5
6370
102
{ACAD_REACTORS
330
6365
102
}
330
6365
100
AcDbVisualStyle
  2
Dim
 70
    11
177
     3
291
     1
 70
    58
 90
        2
176
     1
 90
        2
176
     1
 90
        0
176
     1
 90
        0
176
     1
 40
0.6
176
     1
 40
30.0
176
     1
 62
     7
420
 16777215
176
     1
 90
        1
176
     1
 90
        4
176
     1
 62
     7
176
     1
 62
   257
176
     1
 90
        1
176
     1
 90
        1
176
     1
 40
1.0
176
     1
 90
        8
176
     1
 62
     7
176
     1
 40
1.0
176
     1
 90
        1
176
     1
 90
        6
176
     1
 90
        2
176
     1
 62
     7
176
     1
 90
        5
176
     1
 90
        0
176
     1
 90
        0
176
     1
290
     0
176
     1
 90
        1
176
     1
 40
-50.0
176
     1
 90
        0
176
     1
290
     0
176
     1
290
     1
176
     1
290
     1
176
     1
290
     0
176
     1
290
     0
176
     1
290
     0
176
     1
290
     0
176
     1
290
     0
176
     1
290
     0
176
     1
 90
       50
176
     1
 40
0.0
176
     1
 40
1.0
176
     1
 90
        0
176
     1
 62
    18
420
        0
176
     1
 90
       50
176
     1
 90
        3
176
     1
 62
     5
420
      255
176
     1
290
     0
176
     1
 90
       50
176
     1
 90
       50
176
     1
 90
       50
176
     1
290
     0
176
     1
 90
       50
176
     1
 62
   256
176
     0
 40
1.0
176
     0
 90
        2
176
     1
  1
strokes_ogs.tif
176
     1
290
     0
176
     1
 40
1.0
176
     1
 40
1.0
176
     1
  0
VISUALSTYLE
  5
637D
102
{ACAD_REACTORS
330
6365
102
}
330
6365
100
AcDbVisualStyle
  2
EdgeColorOff
 70
    22
177
     3
291
     1
 70
    58
 90
        2
176
     0
 90
        2
176
     0
 90
        0
176
     0
 90
        0
176
     0
 40
0.6
176
     0
 40
30.0
176
     0
 62
     7
420
 16777215
176
     0
 90
        1
176
     0
 90
        4
176
     0
 62
     7
176
     0
 62
   257
176
     0
 90
        1
176
     0
 90
        1
176
     0
 40
1.0
176
     0
 90
        8
176
     2
 62
     7
176
     0
 40
1.0
176
     0
 90
        1
176
     0
 90
        6
176
     0
 90
        2
176
     0
 62
     7
176
     0
 90
        5
176
     0
 90
        0
176
     0
 90
        0
176
     0
290
     0
176
     0
 90
        1
176
     0
 40
0.0
176
     0
 90
        0
176
     0
290
     0
176
     0
290
     1
176
     0
290
     1
176
     0
290
     0
176
     0
290
     0
176
     0
290
     0
176
     0
290
     0
176
     0
290
     0
176
     0
290
     0
176
     0
 90
       50
176
     0
 40
0.0
176
     0
 40
1.0
176
     0
 90
        0
176
     0
 62
    18
420
        0
176
     0
 90
       50
176
     0
 90
        3
176
     0
 62
     5
420
      255
176
     0
290
     0
176
     0
 90
       50
176
     0
 90
       50
176
     0
 90
       50
176
     0
290
     0
176
     0
 90
       50
176
     0
 62
   256
176
     0
 40
1.0
176
     0
 90
        2
176
     0
  1
strokes_ogs.tif
176
     0
290
     0
176
     0
 40
1.0
176
     0
 40
1.0
176
     0
  0
VISUALSTYLE
  5
6374
102
{ACAD_REACTORS
330
6365
102
}
330
6365
100
AcDbVisualStyle
  2
Facepattern
 70
    15
177
     3
291
     1
 70
    58
 90
        2
176
     1
 90
        2
176
     1
 90
        0
176
     1
 90
        0
176
     1
 40
0.6
176
     1
 40
30.0
176
     1
 62
     7
420
 16777215
176
     1
 90
        1
176
     1
 90
        4
176
     1
 62
     7
176
     1
 62
   257
176
     1
 90
        1
176
     1
 90
        1
176
     1
 40
1.0
176
     1
 90
        8
176
     1
 62
     7
176
     1
 40
1.0
176
     1
 90
        1
176
     1
 90
        6
176
     1
 90
        2
176
     1
 62
     7
176
     1
 90
        5
176
     1
 90
        0
176
     1
 90
        0
176
     1
290
     0
176
     1
 90
        1
176
     1
 40
0.0
176
     1
 90
        0
176
     1
290
     0
176
     1
290
     1
176
     1
290
     1
176
     1
290
     0
176
     1
290
     0
176
     1
290
     0
176
     1
290
     0
176
     1
290
     0
176
     1
290
     0
176
     1
 90
       50
176
     1
 40
0.0
176
     1
 40
1.0
176
     1
 90
        0
176
     1
 62
    18
420
        0
176
     1
 90
       50
176
     1
 90
        3
176
     1
 62
     5
420
      255
176
     1
290
     0
176
     1
 90
       50
176
     1
 90
       50
176
     1
 90
       50
176
     1
290
     0
176
     1
 90
       50
176
     1
 62
   256
176
     0
 40
1.0
176
     0
 90
        2
176
     1
  1
strokes_ogs.tif
176
     1
290
     0
176
     1
 40
1.0
176
     1
 40
1.0
176
     1
  0
VISUALSTYLE
  5
6366
102
{ACAD_REACTORS
330
6365
102
}
330
6365
100
AcDbVisualStyle
  2
Flat
 70
     0
177
     3
291
     1
 70
    58
 90
        2
176
     1
 90
        1
176
     1
 90
        1
176
     1
 90
        2
176
     1
 40
0.6
176
     1
 40
30.0
176
     1
 62
     7
420
 16777215
176
     1
 90
        0
176
     1
 90
        0
176
     1
 62
     7
176
     1
 62
   257
176
     1
 90
        1
176
     1
 90
        1
176
     1
 40
1.0
176
     1
 90
        8
176
     1
 62
     7
176
     1
 40
1.0
176
     1
 90
        1
176
     1
 90
        6
176
     1
 90
        2
176
     1
 62
     7
176
     1
 90
        5
176
     1
 90
        0
176
     1
 90
        0
176
     1
290
     0
176
     1
 90
       13
176
     1
 40
0.0
176
     1
 90
        0
176
     1
290
     0
176
     1
290
     1
176
     1
290
     1
176
     1
290
     0
176
     1
290
     0
176
     1
290
     0
176
     1
290
     0
176
     1
290
     0
176
     1
290
     0
176
     1
 90
       50
176
     1
 40
0.0
176
     1
 40
1.0
176
     1
 90
        0
176
     1
 62
    18
420
        0
176
     1
 90
       50
176
     1
 90
        3
176
     1
 62
     5
420
      255
176
     1
290
     0
176
     1
 90
       50
176
     1
 90
       50
176
     1
 90
       50
176
     1
290
     0
176
     1
 90
       50
176
     1
 62
   256
176
     0
 40
1.0
176
     0
 90
        2
176
     1
  1
strokes_ogs.tif
176
     1
290
     0
176
     1
 40
1.0
176
     1
 40
1.0
176
     1
  0
VISUALSTYLE
  5
6367
102
{ACAD_REACTORS
330
6365
102
}
330
6365
100
AcDbVisualStyle
  2
FlatWithEdges
 70
     1
177
     3
291
     1
 70
    58
 90
        2
176
     1
 90
        1
176
     1
 90
        1
176
     1
 90
        2
176
     1
 40
0.6
176
     1
 40
30.0
176
     1
 62
     7
420
 16777215
176
     1
 90
        1
176
     1
 90
        0
176
     1
 62
     7
176
     1
 62
   257
176
     1
 90
        1
176
     1
 90
        1
176
     1
 40
1.0
176
     1
 90
        0
176
     1
 62
   257
176
     1
 40
1.0
176
     1
 90
        1
176
     1
 90
        6
176
     1
 90
        2
176
     1
 62
     7
176
     1
 90
        5
176
     1
 90
        0
176
     1
 90
        0
176
     1
290
     0
176
     1
 90
       13
176
     1
 40
0.0
176
     1
 90
        0
176
     1
290
     0
176
     1
290
     1
176
     1
290
     1
176
     1
290
     0
176
     1
290
     0
176
     1
290
     0
176
     1
290
     0
176
     1
290
     0
176
     1
290
     0
176
     1
 90
       50
176
     1
 40
0.0
176
     1
 40
1.0
176
     1
 90
        0
176
     1
 62
    18
420
        0
176
     1
 90
       50
176
     1
 90
        3
176
     1
 62
     5
420
      255
176
     1
290
     0
176
     1
 90
       50
176
     1
 90
       50
176
     1
 90
       50
176
     1
290
     0
176
     1
 90
       50
176
     1
 62
   256
176
     0
 40
1.0
176
     0
 90
        2
176
     1
  1
strokes_ogs.tif
176
     1
290
     0
176
     1
 40
1.0
176
     1
 40
1.0
176
     1
  0
VISUALSTYLE
  5
6368
102
{ACAD_REACTORS
330
6365
102
}
330
6365
100
AcDbVisualStyle
  2
Gouraud
 70
     2
177
     3
291
     1
 70
    58
 90
        2
176
     1
 90
        2
176
     1
 90
        1
176
     1
 90
        2
176
     1
 40
0.6
176
     1
 40
30.0
176
     1
 62
     7
420
 16777215
176
     1
 90
        0
176
     1
 90
        0
176
     1
 62
     7
176
     1
 62
   257
176
     1
 90
        1
176
     1
 90
        1
176
     1
 40
1.0
176
     1
 90
        0
176
     1
 62
     7
176
     1
 40
1.0
176
     1
 90
        1
176
     1
 90
        6
176
     1
 90
        2
176
     1
 62
     7
176
     1
 90
        5
176
     1
 90
        0
176
     1
 90
        0
176
     1
290
     0
176
     1
 90
       13
176
     1
 40
0.0
176
     1
 90
        0
176
     1
290
     0
176
     1
290
     1
176
     1
290
     1
176
     1
290
     0
176
     1
290
     0
176
     1
290
     0
176
     1
290
     0
176
     1
290
     0
176
     1
290
     0
176
     1
 90
       50
176
     1
 40
0.0
176
     1
 40
1.0
176
     1
 90
        0
176
     1
 62
    18
420
        0
176
     1
 90
       50
176
     1
 90
        3
176
     1
 62
     5
420
      255
176
     1
290
     0
176
     1
 90
       50
176
     1
 90
       50
176
     1
 90
       50
176
     1
290
     0
176
     1
 90
       50
176
     1
 62
   256
176
     0
 40
1.0
176
     0
 90
        2
176
     1
  1
strokes_ogs.tif
176
     1
290
     0
176
     1
 40
1.0
176
     1
 40
1.0
176
     1
  0
VISUALSTYLE
  5
6369
102
{ACAD_REACTORS
330
6365
102
}
330
6365
100
AcDbVisualStyle
  2
GouraudWithEdges
 70
     3
177
     3
291
     1
 70
    58
 90
        2
176
     1
 90
        2
176
     1
 90
        1
176
     1
 90
        2
176
     1
 40
0.6
176
     1
 40
30.0
176
     1
 62
     7
420
 16777215
176
     1
 90
        1
176
     1
 90
        0
176
     1
 62
     7
176
     1
 62
   257
176
     1
 90
        1
176
     1
 90
        1
176
     1
 40
1.0
176
     1
 90
        0
176
     1
 62
   257
176
     1
 40
1.0
176
     1
 90
        1
176
     1
 90
        6
176
     1
 90
        2
176
     1
 62
     7
176
     1
 90
        5
176
     1
 90
        0
176
     1
 90
        0
176
     1
290
     0
176
     1
 90
       13
176
     1
 40
0.0
176
     1
 90
        0
176
     1
290
     0
176
     1
290
     1
176
     1
290
     1
176
     1
290
     0
176
     1
290
     0
176
     1
290
     0
176
     1
290
     0
176
     1
290
     0
176
     1
290
     0
176
     1
 90
       50
176
     1
 40
0.0
176
     1
 40
1.0
176
     1
 90
        0
176
     1
 62
    18
420
        0
176
     1
 90
       50
176
     1
 90
        3
176
     1
 62
     5
420
      255
176
     1
290
     0
176
     1
 90
       50
176
     1
 90
       50
176
     1
 90
       50
176
     1
290
     0
176
     1
 90
       50
176
     1
 62
   256
176
     0
 40
1.0
176
     0
 90
        2
176
     1
  1
strokes_ogs.tif
176
     1
290
     0
176
     1
 40
1.0
176
     1
 40
1.0
176
     1
  0
VISUALSTYLE
  5
636D
102
{ACAD_REACTORS
330
6365
102
}
330
6365
100
AcDbVisualStyle
  2
Hidden
 70
     6
177
     3
291
     0
 70
    58
 90
        1
176
     1
 90
        2
176
     1
 90
        2
176
     1
 90
        0
176
     1
 40
0.6
176
     1
 40
30.0
176
     1
 62
     7
420
 16777215
176
     1
 90
        2
176
     1
 90
        2
176
     1
 62
     7
176
     1
 62
   257
176
     1
 90
        2
176
     1
 90
        1
176
     1
 40
40.0
176
     1
 90
        0
176
     1
 62
   257
176
     1
 40
1.0
176
     1
 90
        1
176
     1
 90
        6
176
     1
 90
        2
176
     1
 62
     7
176
     1
 90
        3
176
     1
 90
        0
176
     1
 90
        0
176
     1
290
     0
176
     1
 90
        1
176
     1
 40
0.0
176
     1
 90
        0
176
     1
290
     0
176
     1
290
     1
176
     1
290
     1
176
     1
290
     0
176
     1
290
     0
176
     1
290
     0
176
     1
290
     0
176
     1
290
     0
176
     1
290
     0
176
     1
 90
       50
176
     1
 40
0.0
176
     1
 40
1.0
176
     1
 90
        0
176
     1
 62
    18
420
        0
176
     1
 90
       50
176
     1
 90
        3
176
     1
 62
     5
420
      255
176
     1
290
     0
176
     1
 90
       50
176
     1
 90
       50
176
     1
 90
       50
176
     1
290
     0
176
     1
 90
       50
176
     1
 62
   256
176
     0
 40
1.0
176
     0
 90
        2
176
     1
  1
strokes_ogs.tif
176
     1
290
     0
176
     1
 40
1.0
176
     1
 40
1.0
176
     1
  0
VISUALSTYLE
  5
637B
102
{ACAD_REACTORS
330
6365
102
}
330
6365
100
AcDbVisualStyle
  2
JitterOff
 70
    20
177
     3
291
     1
 70
    58
 90
        2
176
     0
 90
        2
176
     0
 90
        0
176
     0
 90
        0
176
     0
 40
0.6
176
     0
 40
30.0
176
     0
 62
     7
420
 16777215
176
     0
 90
        1
176
     0
 90
        4
176
     0
 62
     7
176
     0
 62
   257
176
     0
 90
        1
176
     0
 90
        1
176
     0
 40
1.0
176
     0
 90
       10
176
     2
 62
     7
176
     0
 40
1.0
176
     0
 90
        1
176
     0
 90
        6
176
     0
 90
        2
176
     0
 62
     7
176
     0
 90
        5
176
     0
 90
        0
176
     0
 90
        0
176
     0
290
     0
176
     0
 90
        1
176
     0
 40
0.0
176
     0
 90
        0
176
     0
290
     0
176
     0
290
     1
176
     0
290
     1
176
     0
290
     0
176
     0
290
     0
176
     0
290
     0
176
     0
290
     0
176
     0
290
     0
176
     0
290
     0
176
     0
 90
       50
176
     0
 40
0.0
176
     0
 40
1.0
176
     0
 90
        0
176
     0
 62
    18
420
        0
176
     0
 90
       50
176
     0
 90
        3
176
     0
 62
     5
420
      255
176
     0
290
     0
176
     0
 90
       50
176
     0
 90
       50
176
     0
 90
       50
176
     0
290
     0
176
     0
 90
       50
176
     0
 62
   256
176
     0
 40
1.0
176
     0
 90
        2
176
     0
  1
strokes_ogs.tif
176
     0
290
     0
176
     0
 40
1.0
176
     0
 40
1.0
176
     0
  0
VISUALSTYLE
  5
6373
102
{ACAD_REACTORS
330
6365
102
}
330
6365
100
AcDbVisualStyle
  2
Linepattern
 70
    14
177
     3
291
     1
 70
    58
 90
        2
176
     1
 90
        2
176
     1
 90
        0
176
     1
 90
        0
176
     1
 40
0.6
176
     1
 40
30.0
176
     1
 62
     7
420
 16777215
176
     1
 90
        1
176
     1
 90
        4
176
     1
 62
     7
176
     1
 62
   257
176
     1
 90
        7
176
     1
 90
        7
176
     1
 40
1.0
176
     1
 90
        8
176
     1
 62
     7
176
     1
 40
1.0
176
     1
 90
        1
176
     1
 90
        6
176
     1
 90
        2
176
     1
 62
     7
176
     1
 90
        5
176
     1
 90
        0
176
     1
 90
        0
176
     1
290
     0
176
     1
 90
        1
176
     1
 40
0.0
176
     1
 90
        0
176
     1
290
     0
176
     1
290
     1
176
     1
290
     1
176
     1
290
     0
176
     1
290
     0
176
     1
290
     0
176
     1
290
     0
176
     1
290
     0
176
     1
290
     0
176
     1
 90
       50
176
     1
 40
0.0
176
     1
 40
1.0
176
     1
 90
        0
176
     1
 62
    18
420
        0
176
     1
 90
       50
176
     1
 90
        3
176
     1
 62
     5
420
      255
176
     1
290
     0
176
     1
 90
       50
176
     1
 90
       50
176
     1
 90
       50
176
     1
290
     0
176
     1
 90
       50
176
     1
 62
   256
176
     0
 40
1.0
176
     0
 90
        2
176
     1
  1
strokes_ogs.tif
176
     1
290
     0
176
     1
 40
1.0
176
     1
 40
1.0
176
     1
  0
VISUALSTYLE
  5
637C
102
{ACAD_REACTORS
330
6365
102
}
330
6365
100
AcDbVisualStyle
  2
OverhangOff
 70
    21
177
     3
291
     1
 70
    58
 90
        2
176
     0
 90
        2
176
     0
 90
        0
176
     0
 90
        0
176
     0
 40
0.6
176
     0
 40
30.0
176
     0
 62
     7
420
 16777215
176
     0
 90
        1
176
     0
 90
        4
176
     0
 62
     7
176
     0
 62
   257
176
     0
 90
        1
176
     0
 90
        1
176
     0
 40
1.0
176
     0
 90
        9
176
     2
 62
     7
176
     0
 40
1.0
176
     0
 90
        1
176
     0
 90
        6
176
     0
 90
        2
176
     0
 62
     7
176
     0
 90
        5
176
     0
 90
        0
176
     0
 90
        0
176
     0
290
     0
176
     0
 90
        1
176
     0
 40
0.0
176
     0
 90
        0
176
     0
290
     0
176
     0
290
     1
176
     0
290
     1
176
     0
290
     0
176
     0
290
     0
176
     0
290
     0
176
     0
290
     0
176
     0
290
     0
176
     0
290
     0
176
     0
 90
       50
176
     0
 40
0.0
176
     0
 40
1.0
176
     0
 90
        0
176
     0
 62
    18
420
        0
176
     0
 90
       50
176
     0
 90
        3
176
     0
 62
     5
420
      255
176
     0
290
     0
176
     0
 90
       50
176
     0
 90
       50
176
     0
 90
       50
176
     0
290
     0
176
     0
 90
       50
176
     0
 62
   256
176
     0
 40
1.0
176
     0
 90
        2
176
     0
  1
strokes_ogs.tif
176
     0
290
     0
176
     0
 40
1.0
176
     0
 40
1.0
176
     0
  0
VISUALSTYLE
  5
636F
102
{ACAD_REACTORS
330
6365
102
}
330
6365
100
AcDbVisualStyle
  2
Realistic
 70
     8
177
     3
291
     0
 70
    58
 90
        2
176
     1
 90
        3
176
     1
 90
        0
176
     1
 90
        2
176
     1
 40
0.6
176
     1
 40
30.0
176
     1
 62
     7
420
 16777215
176
     1
 90
        0
176
     1
 90
        0
176
     1
 62
     7
176
     1
 62
   257
176
     1
 90
        1
176
     1
 90
        1
176
     1
 40
1.0
176
     1
 90
        8
176
     1
 62
   257
176
     1
 40
1.0
176
     1
 90
        1
176
     1
 90
        6
176
     1
 90
        2
176
     1
 62
     7
176
     1
 90
        3
176
     1
 90
        0
176
     1
 90
        0
176
     1
290
     0
176
     1
 90
       13
176
     1
 40
0.0
176
     1
 90
        0
176
     1
290
     0
176
     1
290
     1
176
     1
290
     1
176
     1
290
     0
176
     1
290
     0
176
     1
290
     0
176
     1
290
     0
176
     1
290
     0
176
     1
290
     0
176
     1
 90
       50
176
     1
 40
0.0
176
     1
 40
1.0
176
     1
 90
        0
176
     1
 62
    18
420
        0
176
     1
 90
       50
176
     1
 90
        3
176
     1
 62
     5
420
      255
176
     1
290
     0
176
     1
 90
       50
176
     1
 90
       50
176
     1
 90
       50
176
     1
290
     0
176
     1
 90
       50
176
     1
 62
   256
176
     0
 40
1.0
176
     0
 90
        2
176
     1
  1
strokes_ogs.tif
176
     1
290
     0
176
     1
 40
1.0
176
     1
 40
1.0
176
     1
  0
VISUALSTYLE
  5
637A
102
{ACAD_REACTORS
330
6365
102
}
330
6365
100
AcDbVisualStyle
  2
Shaded
 70
    27
177
     3
291
     0
 70
    58
 90
        2
176
     1
 90
        2
176
     1
 90
        1
176
     1
 90
        2
176
     1
 40
0.6
176
     1
 40
30.0
176
     1
 62
     7
420
 16777215
176
     1
 90
        0
176
     1
 90
        4
176
     1
 62
     7
176
     1
 62
   257
176
     1
 90
        1
176
     1
 90
        1
176
     1
 40
1.0
176
     1
 90
        8
176
     1
 62
   257
176
     1
 40
1.0
176
     1
 90
        1
176
     1
 90
        6
176
     1
 90
        2
176
     1
 62
     8
420
  7895160
176
     1
 90
        3
176
     1
 90
        0
176
     1
 90
        0
176
     1
290
     0
176
     1
 90
        5
176
     1
 40
0.0
176
     1
 90
        0
176
     1
290
     0
176
     1
290
     1
176
     1
290
     1
176
     1
290
     0
176
     1
290
     0
176
     1
290
     0
176
     1
290
     0
176
     1
290
     0
176
     1
290
     0
176
     1
 90
       50
176
     1
 40
0.0
176
     1
 40
1.0
176
     1
 90
        0
176
     1
 62
    18
420
        0
176
     1
 90
       50
176
     1
 90
        3
176
     1
 62
     5
420
      255
176
     1
290
     0
176
     1
 90
       50
176
     1
 90
       50
176
     1
 90
       50
176
     1
290
     0
176
     1
 90
       50
176
     1
 62
   256
176
     0
 40
1.0
176
     0
 90
        2
176
     1
  1
strokes_ogs.tif
176
     1
290
     0
176
     1
 40
1.0
176
     1
 40
1.0
176
     1
  0
VISUALSTYLE
  5
6379
102
{ACAD_REACTORS
330
6365
102
}
330
6365
100
AcDbVisualStyle
  2
Shaded with edges
 70
    26
177
     3
291
     0
 70
    58
 90
        2
176
     1
 90
        2
176
     1
 90
        1
176
     1
 90
        2
176
     1
 40
0.6
176
     1
 40
30.0
176
     1
 62
     7
420
 16777215
176
     1
 90
        1
176
     1
 90
        2
176
     1
 62
     7
176
     1
 62
   257
176
     1
 90
        2
176
     1
 90
        1
176
     1
 40
1.0
176
     1
 90
        8
176
     1
 62
   257
176
     1
 40
1.0
176
     1
 90
        1
176
     1
 90
        6
176
     1
 90
        2
176
     1
 62
     7
176
     1
 90
        3
176
     1
 90
        0
176
     1
 90
        0
176
     1
290
     0
176
     1
 90
        5
176
     1
 40
0.0
176
     1
 90
        0
176
     1
290
     0
176
     1
290
     1
176
     1
290
     1
176
     1
290
     0
176
     1
290
     0
176
     1
290
     0
176
     1
290
     0
176
     1
290
     0
176
     1
290
     0
176
     1
 90
       50
176
     1
 40
0.0
176
     1
 40
1.0
176
     1
 90
        0
176
     1
 62
    18
420
        0
176
     1
 90
       50
176
     1
 90
        3
176
     1
 62
     5
420
      255
176
     1
290
     0
176
     1
 90
       50
176
     1
 90
       50
176
     1
 90
       50
176
     1
290
     0
176
     1
 90
       50
176
     1
 62
   256
176
     0
 40
1.0
176
     0
 90
        2
176
     1
  1
strokes_ogs.tif
176
     1
290
     0
176
     1
 40
1.0
176
     1
 40
1.0
176
     1
  0
VISUALSTYLE
  5
6376
102
{ACAD_REACTORS
330
6365
102
}
330
6365
100
AcDbVisualStyle
  2
Shades of Gray
 70
    23
177
     3
291
     0
 70
    58
 90
        2
176
     1
 90
        2
176
     1
 90
        3
176
     1
 90
        0
176
     1
 40
0.6
176
     1
 40
30.0
176
     1
 62
     7
420
 16777215
176
     1
 90
        2
176
     1
 90
        2
176
     1
 62
     7
176
     1
 62
     7
176
     1
 90
        1
176
     1
 90
        1
176
     1
 40
40.0
176
     1
 90
        8
176
     1
 62
     7
176
     1
 40
1.0
176
     1
 90
        1
176
     1
 90
        6
176
     1
 90
        2
176
     1
 62
     7
176
     1
 90
        3
176
     1
 90
        0
176
     1
 90
        0
176
     1
290
     0
176
     1
 90
        1
176
     1
 40
0.0
176
     1
 90
        0
176
     1
290
     0
176
     1
290
     1
176
     1
290
     1
176
     1
290
     0
176
     1
290
     0
176
     1
290
     0
176
     1
290
     0
176
     1
290
     0
176
     1
290
     0
176
     1
 90
       50
176
     1
 40
0.0
176
     1
 40
1.0
176
     1
 90
        0
176
     1
 62
    18
420
        0
176
     1
 90
       50
176
     1
 90
        3
176
     1
 62
     5
420
      255
176
     1
290
     0
176
     1
 90
       50
176
     1
 90
       50
176
     1
 90
       50
176
     1
290
     0
176
     1
 90
       50
176
     1
 62
   256
176
     0
 40
1.0
176
     0
 90
        2
176
     1
  1
strokes_ogs.tif
176
     1
290
     0
176
     1
 40
1.0
176
     1
 40
1.0
176
     1
  0
VISUALSTYLE
  5
6377
102
{ACAD_REACTORS
330
6365
102
}
330
6365
100
AcDbVisualStyle
  2
Sketchy
 70
    24
177
     3
291
     0
 70
    58
 90
        1
176
     1
 90
        2
176
     1
 90
        2
176
     1
 90
        0
176
     1
 40
0.6
176
     1
 40
30.0
176
     1
 62
     7
420
 16777215
176
     1
 90
        2
176
     1
 90
        2
176
     1
 62
     7
176
     1
 62
     7
176
     1
 90
        1
176
     1
 90
        1
176
     1
 40
40.0
176
     1
 90
       11
176
     1
 62
     7
176
     1
 40
1.0
176
     1
 90
        1
176
     1
 90
        6
176
     1
 90
        2
176
     1
 62
     7
176
     1
 90
        6
176
     1
 90
        0
176
     1
 90
        0
176
     1
290
     0
176
     1
 90
        1
176
     1
 40
0.0
176
     1
 90
        0
176
     1
290
     0
176
     1
290
     1
176
     1
290
     1
176
     1
290
     0
176
     1
290
     0
176
     1
290
     0
176
     1
290
     0
176
     1
290
     0
176
     1
290
     0
176
     1
 90
       50
176
     1
 40
0.0
176
     1
 40
1.0
176
     1
 90
        0
176
     1
 62
    18
420
        0
176
     1
 90
       50
176
     1
 90
        3
176
     1
 62
     5
420
      255
176
     1
290
     0
176
     1
 90
       50
176
     1
 90
       50
176
     1
 90
       50
176
     1
290
     0
176
     1
 90
       50
176
     1
 62
   256
176
     0
 40
1.0
176
     0
 90
        2
176
     1
  1
strokes_ogs.tif
176
     1
290
     0
176
     1
 40
1.0
176
     1
 40
1.0
176
     1
  0
VISUALSTYLE
  5
6372
102
{ACAD_REACTORS
330
6365
102
}
330
6365
100
AcDbVisualStyle
  2
Thicken
 70
    13
177
     3
291
     1
 70
    58
 90
        2
176
     1
 90
        2
176
     1
 90
        0
176
     1
 90
        0
176
     1
 40
0.6
176
     1
 40
30.0
176
     1
 62
     7
420
 16777215
176
     1
 90
        1
176
     1
 90
        4
176
     1
 62
     7
176
     1
 62
   257
176
     1
 90
        1
176
     1
 90
        1
176
     1
 40
1.0
176
     1
 90
       12
176
     1
 62
     7
176
     1
 40
1.0
176
     1
 90
        1
176
     1
 90
        6
176
     1
 90
        2
176
     1
 62
     7
176
     1
 90
        5
176
     1
 90
        0
176
     1
 90
        0
176
     1
290
     0
176
     1
 90
        1
176
     1
 40
0.0
176
     1
 90
        0
176
     1
290
     0
176
     1
290
     1
176
     1
290
     1
176
     1
290
     0
176
     1
290
     0
176
     1
290
     0
176
     1
290
     0
176
     1
290
     0
176
     1
290
     0
176
     1
 90
       50
176
     1
 40
0.0
176
     1
 40
1.0
176
     1
 90
        0
176
     1
 62
    18
420
        0
176
     1
 90
       50
176
     1
 90
        3
176
     1
 62
     5
420
      255
176
     1
290
     0
176
     1
 90
       50
176
     1
 90
       50
176
     1
 90
       50
176
     1
290
     0
176
     1
 90
       50
176
     1
 62
   256
176
     0
 40
1.0
176
     0
 90
        2
176
     1
  1
strokes_ogs.tif
176
     1
290
     0
176
     1
 40
1.0
176
     1
 40
1.0
176
     1
  0
VISUALSTYLE
  5
636C
102
{ACAD_REACTORS
330
6365
102
}
330
6365
100
AcDbVisualStyle
  2
Wireframe
 70
     5
177
     3
291
     0
 70
    58
 90
        0
176
     1
 90
        2
176
     1
 90
        0
176
     1
 90
        0
176
     1
 40
0.6
176
     1
 40
30.0
176
     1
 62
     7
420
 16777215
176
     1
 90
        1
176
     1
 90
        4
176
     1
 62
     7
176
     1
 62
   257
176
     1
 90
        1
176
     1
 90
        1
176
     1
 40
1.0
176
     1
 90
        0
176
     1
 62
   257
176
     1
 40
1.0
176
     1
 90
        1
176
     1
 90
        6
176
     1
 90
        2
176
     1
 62
     7
176
     1
 90
        3
176
     1
 90
        0
176
     1
 90
        0
176
     1
290
     0
176
     1
 90
        1
176
     1
 40
0.0
176
     1
 90
        0
176
     1
290
     0
176
     1
290
     1
176
     1
290
     1
176
     1
290
     0
176
     1
290
     0
176
     1
290
     0
176
     1
290
     0
176
     1
290
     0
176
     1
290
     0
176
     1
 90
       50
176
     1
 40
0.0
176
     1
 40
1.0
176
     1
 90
        0
176
     1
 62
    18
420
        0
176
     1
 90
       50
176
     1
 90
        3
176
     1
 62
     5
420
      255
176
     1
290
     0
176
     1
 90
       50
176
     1
 90
       50
176
     1
 90
       50
176
     1
290
     0
176
     1
 90
       50
176
     1
 62
   256
176
     0
 40
1.0
176
     0
 90
        2
176
     1
  1
strokes_ogs.tif
176
     1
290
     0
176
     1
 40
1.0
176
     1
 40
1.0
176
     1
  0
VISUALSTYLE
  5
6378
102
{ACAD_REACTORS
330
6365
102
}
330
6365
100
AcDbVisualStyle
  2
X-Ray
 70
    25
177
     3
291
     0
 70
    58
 90
        2
176
     1
 90
        2
176
     1
 90
        1
176
     1
 90
        1
176
     1
 40
0.5
176
     1
 40
30.0
176
     1
 62
     7
420
 16777215
176
     1
 90
        1
176
     1
 90
        0
176
     1
 62
     7
176
     1
 62
   257
176
     1
 90
        1
176
     1
 90
        1
176
     1
 40
1.0
176
     1
 90
        8
176
     1
 62
     7
176
     1
 40
1.0
176
     1
 90
        1
176
     1
 90
        6
176
     1
 90
        2
176
     1
 62
     7
176
     1
 90
        3
176
     1
 90
        0
176
     1
 90
        0
176
     1
290
     0
176
     1
 90
       13
176
     1
 40
0.0
176
     1
 90
        0
176
     1
290
     0
176
     1
290
     1
176
     1
290
     1
176
     1
290
     0
176
     1
290
     0
176
     1
290
     0
176
     1
290
     0
176
     1
290
     0
176
     1
290
     0
176
     1
 90
       50
176
     1
 40
0.0
176
     1
 40
1.0
176
     1
 90
        0
176
     1
 62
    18
420
        0
176
     1
 90
       50
176
     1
 90
        3
176
     1
 62
     5
420
      255
176
     1
290
     0
176
     1
 90
       50
176
     1
 90
       50
176
     1
 90
       50
176
     1
290
     0
176
     1
 90
       50
176
     1
 62
   256
176
     0
 40
1.0
176
     0
 90
        2
176
     1
  1
strokes_ogs.tif
176
     1
290
     0
176
     1
 40
1.0
176
     1
 40
1.0
176
     1
  0
DICTIONARYVAR
  5
63B6
102
{ACAD_REACTORS
330
7B
102
}
330
7B
100
DictionaryVariables
280
     0
  1
1:1
  0
DICTIONARYVAR
  5
63B2
102
{ACAD_REACTORS
330
7B
102
}
330
7B
100
DictionaryVariables
280
     0
  1
STANDARD
  0
DICTIONARYVAR
  5
AFB
102
{ACAD_REACTORS
330
7B
102
}
330
7B
100
DictionaryVariables
280
     0
  1
STANDARD
  0
DICTIONARYVAR
  5
63B3
102
{ACAD_REACTORS
330
7B
102
}
330
7B
100
DictionaryVariables
280
     0
  1
Imperial24
  0
DICTIONARYVAR
  5
63B4
102
{ACAD_REACTORS
330
7B
102
}
330
7B
100
DictionaryVariables
280
     0
  1
Imperial24
  0
DICTIONARYVAR
  5
AFC
102
{ACAD_REACTORS
330
7B
102
}
330
7B
100
DictionaryVariables
280
     0
  1
1
  0
DICTIONARYVAR
  5
63B8
102
{ACAD_REACTORS
330
7B
102
}
330
7B
100
DictionaryVariables
280
     0
  1
1
  0
DICTIONARYVAR
  5
63B9
102
{ACAD_REACTORS
330
7B
102
}
330
7B
100
DictionaryVariables
280
     0
  1
15
  0
DICTIONARYVAR
  5
63B7
102
{ACAD_REACTORS
330
7B
102
}
330
7B
100
DictionaryVariables
280
     0
  1
0
  0
DICTIONARYVAR
  5
63B5
102
{ACAD_REACTORS
330
7B
102
}
330
7B
100
DictionaryVariables
280
     0
  1
0
  0
DICTIONARYVAR
  5
AFD
102
{ACAD_REACTORS
330
7B
102
}
330
7B
100
DictionaryVariables
280
     0
  1

  0
DICTIONARYVAR
  5
7C
102
{ACAD_REACTORS
330
7B
102
}
330
7B
100
DictionaryVariables
280
     0
  1
96
  0
DICTIONARY
  5
63CA
330
6395
100
AcDbDictionary
280
     1
281
     1
  3
ACAD_XREC_ROUNDTRIP
360
63CB
  0
DICTIONARY
  5
6356
330
6355
100
AcDbDictionary
280
     1
281
     1
  3
BUMPTILE
360
6358
  3
DIFFUSETILE
360
6357
  3
OPACITYTILE
360
635B
  3
REFLECTIONTILE
360
635A
  3
REFRACTIONTILE
360
635C
  3
SPECULARTILE
360
6359
  0
DICTIONARY
  5
634E
330
634D
100
AcDbDictionary
280
     1
281
     1
  3
BUMPTILE
360
6350
  3
DIFFUSETILE
360
634F
  3
OPACITYTILE
360
6353
  3
REFLECTIONTILE
360
6352
  3
REFRACTIONTILE
360
6354
  3
SPECULARTILE
360
6351
  0
DICTIONARY
  5
635E
330
635D
100
AcDbDictionary
280
     1
281
     1
  3
BUMPTILE
360
6360
  3
DIFFUSETILE
360
635F
  3
OPACITYTILE
360
6363
  3
REFLECTIONTILE
360
6362
  3
REFRACTIONTILE
360
6364
  3
SPECULARTILE
360
6361
  0
DICTIONARY
  5
63C8
330
6393
100
AcDbDictionary
280
     1
281
     1
  3
ACAD_XREC_ROUNDTRIP
360
63C9
  0
DICTIONARY
  5
63C6
330
972
100
AcDbDictionary
280
     1
281
     1
  3
ACAD_ROUNDTRIP_2008_TABLESTYLE_CELLSTYLEMAP
360
63C7
  0
XRECORD
  5
63CB
102
{ACAD_REACTORS
330
63CA
102
}
330
63CA
100
AcDbXrecord
280
     1
102
DISPLAYNAME
  1
Imperial24
102
FLAGS
 90
        0
  0
XRECORD
  5
6358
102
{ACAD_REACTORS
330
6356
102
}
330
6356
100
AcDbXrecord
280
     1
270
     1
271
     1
  0
XRECORD
  5
6357
102
{ACAD_REACTORS
330
6356
102
}
330
6356
100
AcDbXrecord
280
     1
270
     1
271
     1
  0
XRECORD
  5
635B
102
{ACAD_REACTORS
330
6356
102
}
330
6356
100
AcDbXrecord
280
     1
270
     1
271
     1
  0
XRECORD
  5
635A
102
{ACAD_REACTORS
330
6356
102
}
330
6356
100
AcDbXrecord
280
     1
270
     1
271
     1
  0
XRECORD
  5
635C
102
{ACAD_REACTORS
330
6356
102
}
330
6356
100
AcDbXrecord
280
     1
270
     1
271
     1
  0
XRECORD
  5
6359
102
{ACAD_REACTORS
330
6356
102
}
330
6356
100
AcDbXrecord
280
     1
270
     1
271
     1
  0
XRECORD
  5
6350
102
{ACAD_REACTORS
330
634E
102
}
330
634E
100
AcDbXrecord
280
     1
270
     1
271
     1
  0
XRECORD
  5
634F
102
{ACAD_REACTORS
330
634E
102
}
330
634E
100
AcDbXrecord
280
     1
270
     1
271
     1
  0
XRECORD
  5
6353
102
{ACAD_REACTORS
330
634E
102
}
330
634E
100
AcDbXrecord
280
     1
270
     1
271
     1
  0
XRECORD
  5
6352
102
{ACAD_REACTORS
330
634E
102
}
330
634E
100
AcDbXrecord
280
     1
270
     1
271
     1
  0
XRECORD
  5
6354
102
{ACAD_REACTORS
330
634E
102
}
330
634E
100
AcDbXrecord
280
     1
270
     1
271
     1
  0
XRECORD
  5
6351
102
{ACAD_REACTORS
330
634E
102
}
330
634E
100
AcDbXrecord
280
     1
270
     1
271
     1
  0
XRECORD
  5
6360
102
{ACAD_REACTORS
330
635E
102
}
330
635E
100
AcDbXrecord
280
     1
270
     1
271
     1
  0
XRECORD
  5
635F
102
{ACAD_REACTORS
330
635E
102
}
330
635E
100
AcDbXrecord
280
     1
270
     1
271
     1
  0
XRECORD
  5
6363
102
{ACAD_REACTORS
330
635E
102
}
330
635E
100
AcDbXrecord
280
     1
270
     1
271
     1
  0
XRECORD
  5
6362
102
{ACAD_REACTORS
330
635E
102
}
330
635E
100
AcDbXrecord
280
     1
270
     1
271
     1
  0
XRECORD
  5
6364
102
{ACAD_REACTORS
330
635E
102
}
330
635E
100
AcDbXrecord
280
     1
270
     1
271
     1
  0
XRECORD
  5
6361
102
{ACAD_REACTORS
330
635E
102
}
330
635E
100
AcDbXrecord
280
     1
270
     1
271
     1
  0
XRECORD
  5
63C9
102
{ACAD_REACTORS
330
63C8
102
}
330
63C8
100
AcDbXrecord
280
     1
102
DISPLAYNAME
  1
Imperial24
102
FLAGS
 90
        0
  0
CELLSTYLEMAP
  5
63C7
102
{ACAD_REACTORS
330
63C6
102
}
330
63C6
100
AcDbCellStyleMap
 90
        3
300
CELLSTYLE
  1
TABLEFORMAT_BEGIN
 90
        5
170
     1
 91
        0
 92
    32768
 62
   257
 93
        1
300
CONTENTFORMAT
  1
CONTENTFORMAT_BEGIN
 90
        0
 91
        0
 92
        4
 93
        0
300

 40
0.0
140
1.0
 94
        5
 62
     0
340
11
144
0.25
309
CONTENTFORMAT_END
171
     0
 94
        6
 95
        1
302
GRIDFORMAT
  1
GRIDFORMAT_BEGIN
 90
        0
 91
        1
 62
     0
 92
       -2
340
0
 93
        0
 40
0.045
309
GRIDFORMAT_END
 95
        2
302
GRIDFORMAT
  1
GRIDFORMAT_BEGIN
 90
        0
 91
        1
 62
     0
 92
       -2
340
0
 93
        0
 40
0.045
309
GRIDFORMAT_END
 95
        4
302
GRIDFORMAT
  1
GRIDFORMAT_BEGIN
 90
        0
 91
        1
 62
     0
 92
       -2
340
0
 93
        0
 40
0.045
309
GRIDFORMAT_END
 95
        8
302
GRIDFORMAT
  1
GRIDFORMAT_BEGIN
 90
        0
 91
        1
 62
     0
 92
       -2
340
0
 93
        0
 40
0.045
309
GRIDFORMAT_END
 95
       16
302
GRIDFORMAT
  1
GRIDFORMAT_BEGIN
 90
        0
 91
        1
 62
     0
 92
       -2
340
0
 93
        0
 40
0.045
309
GRIDFORMAT_END
 95
       32
302
GRIDFORMAT
  1
GRIDFORMAT_BEGIN
 90
        0
 91
        1
 62
     0
 92
       -2
340
0
 93
        0
 40
0.045
309
GRIDFORMAT_END
309
TABLEFORMAT_END
  1
CELLSTYLE_BEGIN
 90
        1
 91
        1
300
_TITLE
309
CELLSTYLE_END
300
CELLSTYLE
  1
TABLEFORMAT_BEGIN
 90
        5
170
     1
 91
        0
 92
        0
 62
   257
 93
        1
300
CONTENTFORMAT
  1
CONTENTFORMAT_BEGIN
 90
        0
 91
        0
 92
        4
 93
        0
300

 40
0.0
140
1.0
 94
        5
 62
     0
340
11
144
0.18
309
CONTENTFORMAT_END
171
     0
 94
        6
 95
        1
302
GRIDFORMAT
  1
GRIDFORMAT_BEGIN
 90
        0
 91
        1
 62
     0
 92
       -2
340
0
 93
        0
 40
0.045
309
GRIDFORMAT_END
 95
        2
302
GRIDFORMAT
  1
GRIDFORMAT_BEGIN
 90
        0
 91
        1
 62
     0
 92
       -2
340
0
 93
        0
 40
0.045
309
GRIDFORMAT_END
 95
        4
302
GRIDFORMAT
  1
GRIDFORMAT_BEGIN
 90
        0
 91
        1
 62
     0
 92
       -2
340
0
 93
        0
 40
0.045
309
GRIDFORMAT_END
 95
        8
302
GRIDFORMAT
  1
GRIDFORMAT_BEGIN
 90
        0
 91
        1
 62
     0
 92
       -2
340
0
 93
        0
 40
0.045
309
GRIDFORMAT_END
 95
       16
302
GRIDFORMAT
  1
GRIDFORMAT_BEGIN
 90
        0
 91
        1
 62
     0
 92
       -2
340
0
 93
        0
 40
0.045
309
GRIDFORMAT_END
 95
       32
302
GRIDFORMAT
  1
GRIDFORMAT_BEGIN
 90
        0
 91
        1
 62
     0
 92
       -2
340
0
 93
        0
 40
0.045
309
GRIDFORMAT_END
309
TABLEFORMAT_END
  1
CELLSTYLE_BEGIN
 90
        2
 91
        1
300
_HEADER
309
CELLSTYLE_END
300
CELLSTYLE
  1
TABLEFORMAT_BEGIN
 90
        5
170
     1
 91
        0
 92
        0
 62
   257
 93
        1
300
CONTENTFORMAT
  1
CONTENTFORMAT_BEGIN
 90
        0
 91
        0
 92
        4
 93
        0
300

 40
0.0
140
1.0
 94
        2
 62
     0
340
11
144
0.18
309
CONTENTFORMAT_END
171
     0
 94
        6
 95
        1
302
GRIDFORMAT
  1
GRIDFORMAT_BEGIN
 90
        0
 91
        1
 62
     0
 92
       -2
340
0
 93
        0
 40
0.045
309
GRIDFORMAT_END
 95
        2
302
GRIDFORMAT
  1
GRIDFORMAT_BEGIN
 90
        0
 91
        1
 62
     0
 92
       -2
340
0
 93
        0
 40
0.045
309
GRIDFORMAT_END
 95
        4
302
GRIDFORMAT
  1
GRIDFORMAT_BEGIN
 90
        0
 91
        1
 62
     0
 92
       -2
340
0
 93
        0
 40
0.045
309
GRIDFORMAT_END
 95
        8
302
GRIDFORMAT
  1
GRIDFORMAT_BEGIN
 90
        0
 91
        1
 62
     0
 92
       -2
340
0
 93
        0
 40
0.045
309
GRIDFORMAT_END
 95
       16
302
GRIDFORMAT
  1
GRIDFORMAT_BEGIN
 90
        0
 91
        1
 62
     0
 92
       -2
340
0
 93
        0
 40
0.045
309
GRIDFORMAT_END
 95
       32
302
GRIDFORMAT
  1
GRIDFORMAT_BEGIN
 90
        0
 91
        1
 62
     0
 92
       -2
340
0
 93
        0
 40
0.045
309
GRIDFORMAT_END
309
TABLEFORMAT_END
  1
CELLSTYLE_BEGIN
 90
        3
 91
        2
300
_DATA
309
CELLSTYLE_END
  0
ENDSEC
  0
EOF
