  0
SECTION
  2
HEADER
  9
$ACADVER
  1
AC1014
  9
$ACADMAINTVER
 70
     9
  9
$DWGCODEPAGE
  3
ANSI_1252
  9
$INSBASE
 10
0.0
 20
0.0
 30
0.0
  9
$EXTMIN
 10
0.0
 20
0.0
 30
0.0
  9
$EXTMAX
 10
2100.0
 20
2970.0
 30
0.0
  9
$LIMMIN
 10
0.0
 20
0.0
  9
$LIMMAX
 10
0.0
 20
0.0
  9
$ORTHOMODE
 70
     0
  9
$REGENMODE
 70
     1
  9
$FILLMODE
 70
     1
  9
$QTEXTMODE
 70
     0
  9
$MIRRTEXT
 70
     1
  9
$DRAGMODE
 70
     2
  9
$LTSCALE
 40
1.0
  9
$OSMODE
 70
    37
  9
$ATTMODE
 70
     1
  9
$TEXTSIZE
 40
35.0
  9
$TRACEWID
 40
1.0
  9
$TEXTSTYLE
  7
STANDARD
  9
$CLAYER
  8
0
  9
$CELTYPE
  6
BYLAYER
  9
$CECOLOR
 62
   256
  9
$CELTSCALE
 40
1.0
  9
$DELOBJ
 70
     1
  9
$DISPSILH
 70
     0
  9
$DIMSCALE
 40
1.0
  9
$DIMASZ
 40
25.0
  9
$DIMEXO
 40
0.05
  9
$DIMDLI
 40
3.75
  9
$DIMRND
 40
0.0
  9
$DIMDLE
 40
0.0
  9
$DIMEXE
 40
10.0
  9
$DIMTP
 40
0.0
  9
$DIMTM
 40
0.0
  9
$DIMTXT
 40
35.0
  9
$DIMCEN
 40
2.5
  9
$DIMTSZ
 40
0.0
  9
$DIMTOL
 70
     0
  9
$DIMLIM
 70
     0
  9
$DIMTIH
 70
     1
  9
$DIMTOH
 70
     1
  9
$DIMSE1
 70
     0
  9
$DIMSE2
 70
     0
  9
$DIMTAD
 70
     1
  9
$DIMZIN
 70
     0
  9
$DIMBLK
  1

  9
$DIMASO
 70
     1
  9
$DIMSHO
 70
     1
  9
$DIMPOST
  1

  9
$DIMAPOST
  1

  9
$DIMALT
 70
     0
  9
$DIMALTD
 70
     3
  9
$DIMALTF
 40
0.0393700787
  9
$DIMLFAC
 40
1.0
  9
$DIMTOFL
 70
     1
  9
$DIMTVP
 40
0.0
  9
$DIMTIX
 70
     0
  9
$DIMSOXD
 70
     0
  9
$DIMSAH
 70
     0
  9
$DIMBLK1
  1

  9
$DIMBLK2
  1

  9
$DIMSTYLE
  2
ISO-25
  9
$DIMCLRD
 70
     0
  9
$DIMCLRE
 70
     0
  9
$DIMCLRT
 70
     0
  9
$DIMTFAC
 40
1.0
  9
$DIMGAP
 40
15.24
  9
$DIMJUST
 70
     0
  9
$DIMSD1
 70
     0
  9
$DIMSD2
 70
     0
  9
$DIMTOLJ
 70
     0
  9
$DIMTZIN
 70
     0
  9
$DIMALTZ
 70
     0
  9
$DIMALTTZ
 70
     0
  9
$DIMFIT
 70
     3
  9
$DIMUPT
 70
     0
  9
$DIMUNIT
 70
     2
  9
$DIMDEC
 70
     2
  9
$DIMTDEC
 70
     2
  9
$DIMALTU
 70
     2
  9
$DIMALTTD
 70
     3
  9
$DIMTXSTY
  7
STANDARD
  9
$DIMAUNIT
 70
     0
  9
$LUNITS
 70
     2
  9
$LUPREC
 70
     2
  9
$SKETCHINC
 40
1.0
  9
$FILLETRAD
 40
10.0
  9
$AUNITS
 70
     0
  9
$AUPREC
 70
     0
  9
$MENU
  1
.
  9
$ELEVATION
 40
0.0
  9
$PELEVATION
 40
0.0
  9
$THICKNESS
 40
0.0
  9
$LIMCHECK
 70
     0
  9
$CHAMFERA
 40
10.0
  9
$CHAMFERB
 40
10.0
  9
$CHAMFERC
 40
20.0
  9
$CHAMFERD
 40
0.0
  9
$SKPOLY
 70
     0
  9
$TDCREATE
 40
2454937.601091933
  9
$TDUPDATE
 40
2454937.601091945
  9
$TDINDWG
 40
0.0000000116
  9
$TDUSRTIMER
 40
0.0000000116
  9
$USRTIMER
 70
     1
  9
$ANGBASE
 50
0.0
  9
$ANGDIR
 70
     0
  9
$PDMODE
 70
     0
  9
$PDSIZE
 40
-1.0
  9
$PLINEWID
 40
0.0
  9
$COORDS
 70
     1
  9
$SPLFRAME
 70
     0
  9
$SPLINETYPE
 70
     6
  9
$SPLINESEGS
 70
     8
  9
$ATTDIA
 70
     0
  9
$ATTREQ
 70
     1
  9
$HANDLING
 70
     1
  9
$HANDSEED
  5
217
  9
$SURFTAB1
 70
     6
  9
$SURFTAB2
 70
     6
  9
$SURFTYPE
 70
     6
  9
$SURFU
 70
     6
  9
$SURFV
 70
     6
  9
$UCSNAME
  2

  9
$UCSORG
 10
0.0
 20
0.0
 30
0.0
  9
$UCSXDIR
 10
1.0
 20
0.0
 30
0.0
  9
$UCSYDIR
 10
0.0
 20
1.0
 30
0.0
  9
$PUCSNAME
  2

  9
$PUCSORG
 10
0.0
 20
0.0
 30
0.0
  9
$PUCSXDIR
 10
1.0
 20
0.0
 30
0.0
  9
$PUCSYDIR
 10
0.0
 20
1.0
 30
0.0
  9
$USERI1
 70
     0
  9
$USERI2
 70
     0
  9
$USERI3
 70
     0
  9
$USERI4
 70
     0
  9
$USERI5
 70
     0
  9
$USERR1
 40
0.0
  9
$USERR2
 40
0.0
  9
$USERR3
 40
0.0
  9
$USERR4
 40
0.0
  9
$USERR5
 40
0.0
  9
$WORLDVIEW
 70
     1
  9
$SHADEDGE
 70
     3
  9
$SHADEDIF
 70
    70
  9
$TILEMODE
 70
     1
  9
$MAXACTVP
 70
    64
  9
$PINSBASE
 10
0.0
 20
0.0
 30
0.0
  9
$PLIMCHECK
 70
     0
  9
$PEXTMIN
 10
1.0000000000E+20
 20
1.0000000000E+20
 30
1.0000000000E+20
  9
$PEXTMAX
 10
-1.0000000000E+20
 20
-1.0000000000E+20
 30
-1.0000000000E+20
  9
$PLIMMIN
 10
0.0
 20
0.0
  9
$PLIMMAX
 10
420.0
 20
297.0
  9
$UNITMODE
 70
     0
  9
$VISRETAIN
 70
     1
  9
$PLINEGEN
 70
     0
  9
$PSLTSCALE
 70
     1
  9
$TREEDEPTH
 70
  3020
  9
$PICKSTYLE
 70
     1
  9
$CMLSTYLE
  2
STANDARD
  9
$CMLJUST
 70
     0
  9
$CMLSCALE
 40
20.0
  9
$PROXYGRAPHICS
 70
     1
  9
$MEASUREMENT
 70
     1
  0
ENDSEC
  0
SECTION
  2
CLASSES
  0
CLASS
  1
ACDBDICTIONARYWDFLT
  2
AcDbDictionaryWithDefault
  3
ObjectDBX Classes
 90
        0
280
     0
281
     0
  0
CLASS
  1
XRECORD
  2
AcDbXrecord
  3
AutoCAD 2000
 90
        0
280
     0
281
     0
  0
CLASS
  1
LWPOLYLINE
  2
AcDbPolyline
  3
AutoCAD 2000
 90
        0
280
     0
281
     1
  0
CLASS
  1
HATCH
  2
AcDbHatch
  3
AutoCAD 2000
 90
        0
280
     0
281
     1
  0
CLASS
  1
ACDBPLACEHOLDER
  2
AcDbPlaceHolder
  3
ObjectDBX Classes
 90
        0
280
     0
281
     0
  0
CLASS
  1
LAYOUT
  2
AcDbLayout
  3
ObjectDBX Classes
 90
        0
280
     0
281
     0
  0
ENDSEC
  0
SECTION
  2
TABLES
  0
TABLE
  2
VPORT
  5
8
330
0
100
AcDbSymbolTable
 70
     1
  0
VPORT
  5
29
330
8
100
AcDbSymbolTableRecord
100
AcDbViewportTableRecord
  2
*ACTIVE
 70
     0
 10
0.0
 20
0.0
 11
1.0
 21
1.0
 12
1050.0
 22
1485.0
 13
0.0
 23
0.0
 14
10.0
 24
10.0
 15
10.0
 25
10.0
 16
0.0
 26
0.0
 36
1.0
 17
0.0
 27
0.0
 37
0.0
 40
2970.0
 41
0.7070707071
 42
50.0
 43
0.0
 44
0.0
 50
0.0
 51
0.0
 71
     0
 72
  2000
 73
     1
 74
     3
 75
     0
 76
     0
 77
     0
 78
     0
  0
ENDTAB
  0
TABLE
  2
LTYPE
  5
5
330
0
100
AcDbSymbolTable
 70
     6
  0
LTYPE
  5
14
330
5
100
AcDbSymbolTableRecord
100
AcDbLinetypeTableRecord
  2
BYBLOCK
 70
     0
  3

 72
    65
 73
     0
 40
0.0
  0
LTYPE
  5
15
330
5
100
AcDbSymbolTableRecord
100
AcDbLinetypeTableRecord
  2
BYLAYER
 70
     0
  3

 72
    65
 73
     0
 40
0.0
  0
LTYPE
  5
16
330
5
100
AcDbSymbolTableRecord
100
AcDbLinetypeTableRecord
  2
CONTINUOUS
 70
     0
  3
Solid line
 72
    65
 73
     0
 40
0.0
  0
LTYPE
  5
2A
330
5
100
AcDbSymbolTableRecord
100
AcDbLinetypeTableRecord
  2
HIDDEN
 70
     0
  3
Hidden __ __ __ __ __ __ __ __ __ __ __ __ __ __
 72
    65
 73
     2
 40
1.905
 49
1.27
 74
     0
 49
-0.635
 74
     0
  0
LTYPE
  5
2B
330
5
100
AcDbSymbolTableRecord
100
AcDbLinetypeTableRecord
  2
PHANTOM
 70
     0
  3
Phantom ______  __  __  ______  __  __  ______
 72
    65
 73
     6
 40
12.7
 49
6.35
 74
     0
 49
-1.27
 74
     0
 49
1.27
 74
     0
 49
-1.27
 74
     0
 49
1.27
 74
     0
 49
-1.27
 74
     0
  0
LTYPE
  5
2C
330
5
100
AcDbSymbolTableRecord
100
AcDbLinetypeTableRecord
  2
CENTER
 70
     0
  3
Center ____ _ ____ _ ____ _ ____ _ ____ _ ____
 72
    65
 73
     4
 40
10.16
 49
6.35
 74
     0
 49
-1.27
 74
     0
 49
1.27
 74
     0
 49
-1.27
 74
     0
  0
LTYPE
  5
2D
330
5
100
AcDbSymbolTableRecord
100
AcDbLinetypeTableRecord
  2
CENTERX2
 70
     0
  3
Center (2x) ________  __  ________  __  _____
 72
    65
 73
     4
 40
20.32
 49
12.7
 74
     0
 49
-2.54
 74
     0
 49
2.54
 74
     0
 49
-2.54
 74
     0
  0
LTYPE
  5
2E
330
5
100
AcDbSymbolTableRecord
100
AcDbLinetypeTableRecord
  2
DOT2
 70
     0
  3
Dot (.5x) ........................................
 72
    65
 73
     2
 40
0.635
 49
0.0
 74
     0
 49
-0.635
 74
     0
  0
ENDTAB
  0
TABLE
  2
LAYER
  5
2
330
0
100
AcDbSymbolTable
 70
     1
  0
LAYER
  5
10
330
2
100
AcDbSymbolTableRecord
100
AcDbLayerTableRecord
  2
0
 70
     0
 62
     7
  6
CONTINUOUS
  0
ENDTAB
  0
TABLE
  2
STYLE
  5
3
330
0
100
AcDbSymbolTable
 70
     6
  0
STYLE
  5
11
330
3
100
AcDbSymbolTableRecord
100
AcDbTextStyleTableRecord
  2
STANDARD
 70
     0
 40
0.0
 41
1.0
 50
0.0
 71
     0
 42
2.5
  3
txt
  4

  0
STYLE
  5
5E
330
3
100
AcDbSymbolTableRecord
100
AcDbTextStyleTableRecord
  2
SLDTEXTSTYLE0
 70
     0
 40
0.0
 41
0.605
 50
0.0
 71
     0
 42
0.2
  3
TXT
  4

  0
STYLE
  5
66
330
3
100
AcDbSymbolTableRecord
100
AcDbTextStyleTableRecord
  2
SLDTEXTSTYLE1
 70
     0
 40
0.0
 41
0.5160294118
 50
0.0
 71
     0
 42
0.2
  3
TXT
  4

  0
STYLE
  5
7B
330
3
100
AcDbSymbolTableRecord
100
AcDbTextStyleTableRecord
  2
SLDTEXTSTYLE2
 70
     0
 40
0.0
 41
0.5243333333
 50
0.0
 71
     0
 42
0.2
  3
TXT
  4

  0
STYLE
  5
7E
330
3
100
AcDbSymbolTableRecord
100
AcDbTextStyleTableRecord
  2
SLDTEXTSTYLE3
 70
     0
 40
0.0
 41
0.5646666667
 50
0.0
 71
     0
 42
0.2
  3
TXT
  4

  0
STYLE
  5
99
330
3
100
AcDbSymbolTableRecord
100
AcDbTextStyleTableRecord
  2
SLDTEXTSTYLE4
 70
     0
 40
0.0
 41
0.5584615385
 50
0.0
 71
     0
 42
0.2
  3
TXT
  4

  0
ENDTAB
  0
TABLE
  2
VIEW
  5
6
330
0
100
AcDbSymbolTable
 70
     0
  0
ENDTAB
  0
TABLE
  2
UCS
  5
7
330
0
100
AcDbSymbolTable
 70
     0
  0
ENDTAB
  0
TABLE
  2
APPID
  5
9
330
0
100
AcDbSymbolTable
 70
     1
  0
APPID
  5
12
330
9
100
AcDbSymbolTableRecord
100
AcDbRegAppTableRecord
  2
ACAD
 70
     0
  0
ENDTAB
  0
TABLE
  2
DIMSTYLE
  5
A
330
0
100
AcDbSymbolTable
 70
     3
  0
DIMSTYLE
105
27
330
A
100
AcDbSymbolTableRecord
100
AcDbDimStyleTableRecord
  2
ISO-25
 70
     0
  3

  4

  5

  6

  7

 40
1.0
 41
2.5
 42
0.625
 43
3.75
 44
1.25
 45
0.0
 46
0.0
 47
0.0
 48
0.0
140
2.5
141
2.5
142
0.0
143
0.0393700787
144
1.0
145
0.0
146
1.0
147
0.625
 71
     0
 72
     0
 73
     0
 74
     0
 75
     0
 76
     0
 77
     1
 78
     8
170
     0
171
     3
172
     1
173
     0
174
     0
175
     0
176
     0
177
     0
178
     0
270
     2
271
     2
272
     2
273
     2
274
     3
340
11
275
     0
280
     0
281
     0
282
     0
283
     0
284
     8
285
     0
286
     0
287
     3
288
     0
  0
DIMSTYLE
105
DD
102
{ACAD_REACTORS
330
DC
102
}
330
A
100
AcDbSymbolTableRecord
100
AcDbDimStyleTableRecord
  2
SLDDIMSTYLE0
 70
     0
  3

  4

  5

  6

  7

 40
1.0
 41
25.0
 42
0.0625
 43
0.38
 44
0.0
 45
0.0
 46
0.0
 47
0.0
 48
0.0
140
35.0
141
0.09
142
0.0
143
25.4
144
1.0
145
0.0
146
1.0
147
8.75
 71
     0
 72
     0
 73
     0
 74
     0
 75
     0
 76
     0
 77
     1
 78
    12
170
     0
171
     2
172
     0
173
     1
174
     0
175
     0
176
     0
177
     0
178
     0
270
     2
271
     1
272
     2
273
     2
274
     2
340
5E
275
     0
280
     0
281
     0
282
     0
283
     1
284
    12
285
     0
286
     0
287
     3
288
     0
  0
DIMSTYLE
105
E8
102
{ACAD_REACTORS
330
E7
330
F2
330
198
330
1CD
330
1D7
330
1E2
330
1EC
102
}
330
A
100
AcDbSymbolTableRecord
100
AcDbDimStyleTableRecord
  2
SLDDIMSTYLE1
 70
     0
  3

  4

  5

  6

  7

 40
1.0
 41
25.0
 42
0.0625
 43
0.38
 44
0.0
 45
0.0
 46
0.0
 47
0.0
 48
0.0
140
35.0
141
0.09
142
0.0
143
25.4
144
1.0
145
0.0
146
1.0
147
8.75
 71
     0
 72
     0
 73
     0
 74
     0
 75
     0
 76
     0
 77
     1
 78
    12
170
     0
171
     2
172
     0
173
     1
174
     0
175
     0
176
     0
177
     0
178
     0
270
     2
271
     2
272
     2
273
     2
274
     2
340
5E
275
     0
280
     0
281
     0
282
     0
283
     1
284
    12
285
     0
286
     0
287
     3
288
     0
  0
ENDTAB
  0
TABLE
  2
BLOCK_RECORD
  5
1
330
0
100
AcDbSymbolTable
 70
    11
  0
BLOCK_RECORD
  5
1F
330
1
100
AcDbSymbolTableRecord
100
AcDbBlockTableRecord
  2
*MODEL_SPACE
  0
BLOCK_RECORD
  5
1B
330
1
100
AcDbSymbolTableRecord
100
AcDbBlockTableRecord
  2
*PAPER_SPACE
  0
BLOCK_RECORD
  5
62
330
1
100
AcDbSymbolTableRecord
100
AcDbBlockTableRecord
  2
SW_NOTE_0
1001
ACAD
1000
DesignCenter Data
1002
{
1070
     1
1070
     0
1002
}
  0
BLOCK_RECORD
  5
77
330
1
100
AcDbSymbolTableRecord
100
AcDbBlockTableRecord
  2
SW_NOTE_1
1001
ACAD
1000
DesignCenter Data
1002
{
1070
     1
1070
     0
1002
}
  0
BLOCK_RECORD
  5
DE
330
1
100
AcDbSymbolTableRecord
100
AcDbBlockTableRecord
  2
*D3
  0
BLOCK_RECORD
  5
E9
330
1
100
AcDbSymbolTableRecord
100
AcDbBlockTableRecord
  2
*D4
  0
BLOCK_RECORD
  5
F3
330
1
100
AcDbSymbolTableRecord
100
AcDbBlockTableRecord
  2
*D5
  0
BLOCK_RECORD
  5
199
330
1
100
AcDbSymbolTableRecord
100
AcDbBlockTableRecord
  2
*D6
  0
BLOCK_RECORD
  5
1CE
330
1
100
AcDbSymbolTableRecord
100
AcDbBlockTableRecord
  2
*D7
  0
BLOCK_RECORD
  5
1D8
330
1
100
AcDbSymbolTableRecord
100
AcDbBlockTableRecord
  2
*D8
  0
BLOCK_RECORD
  5
1E3
330
1
100
AcDbSymbolTableRecord
100
AcDbBlockTableRecord
  2
*D9
  0
BLOCK_RECORD
  5
1ED
330
1
100
AcDbSymbolTableRecord
100
AcDbBlockTableRecord
  2
*D10
  0
ENDTAB
  0
ENDSEC
  0
SECTION
  2
BLOCKS
  0
BLOCK
  5
20
330
1F
100
AcDbEntity
  8
0
100
AcDbBlockBegin
  2
*MODEL_SPACE
 70
     0
 71
     0
 10
0.0
 20
0.0
 30
0.0
  3
*MODEL_SPACE
  1

  0
ENDBLK
  5
21
330
1F
100
AcDbEntity
  8
0
100
AcDbBlockEnd
  0
BLOCK
  5
1C
330
1B
100
AcDbEntity
 67
     1
  8
0
100
AcDbBlockBegin
  2
*PAPER_SPACE
 70
     0
 71
     0
 10
0.0
 20
0.0
 30
0.0
  3
*PAPER_SPACE
  1

  0
ENDBLK
  5
1D
330
1B
100
AcDbEntity
 67
     1
  8
0
100
AcDbBlockEnd
  0
BLOCK
  5
63
330
62
100
AcDbEntity
  8
0
100
AcDbBlockBegin
  2
SW_NOTE_0
 70
     0
 71
     0
 10
0.0
 20
0.0
 30
0.0
  3
SW_NOTE_0
  1

  0
MTEXT
  5
65
330
62
100
AcDbEntity
  8
0
  6
CONTINUOUS
 62
     0
100
AcDbMText
 10
0.0
 20
23.2032193159
 30
0.0
 40
18.0
 41
0.0
 71
     1
 72
     1
  1
Schutzvermerk nach
  7
SLDTEXTSTYLE0
  0
MTEXT
  5
67
330
62
100
AcDbEntity
  8
0
  6
CONTINUOUS
 62
     0
100
AcDbMText
 10
0.0
 20
-4.7967796857
 30
0.0
 40
18.0
 41
0.0
 71
     1
 72
     1
  1
   DIN 34 beachten.
  7
SLDTEXTSTYLE1
  0
ENDBLK
  5
64
330
62
100
AcDbEntity
  8
0
100
AcDbBlockEnd
  0
BLOCK
  5
78
330
77
100
AcDbEntity
  8
0
100
AcDbBlockBegin
  2
SW_NOTE_1
 70
     0
 71
     0
 10
0.0
 20
0.0
 30
0.0
  3
SW_NOTE_1
  1

  0
MTEXT
  5
7A
330
77
100
AcDbEntity
  8
0
  6
CONTINUOUS
 62
     0
100
AcDbMText
 10
0.0
 20
19.3360160966
 30
0.0
 40
15.0
 41
0.0
 71
     1
 72
     1
  1
Alape GmbH
  7
SLDTEXTSTYLE0
  0
MTEXT
  5
7C
330
77
100
AcDbEntity
  8
0
  6
CONTINUOUS
 62
     0
100
AcDbMText
 10
0.0
 20
-2.6639837842
 30
0.0
 40
15.0
 41
0.0
 71
     1
 72
     1
  1
Am Gräbicht 1 - 9
  7
SLDTEXTSTYLE2
  0
MTEXT
  5
7D
330
77
100
AcDbEntity
  8
0
  6
CONTINUOUS
 62
     0
100
AcDbMText
 10
0.0
 20
-24.663983665
 30
0.0
 40
15.0
 41
0.0
 71
     1
 72
     1
  1
D-38644    Goslar
  7
SLDTEXTSTYLE2
  0
MTEXT
  5
7F
330
77
100
AcDbEntity
  8
0
  6
CONTINUOUS
 62
     0
100
AcDbMText
 10
0.0
 20
-46.6639835458
 30
0.0
 40
15.0
 41
0.0
 71
     1
 72
     1
  1
Tel.: 05321-558 0
  7
SLDTEXTSTYLE3
  0
MTEXT
  5
80
330
77
100
AcDbEntity
  8
0
  6
CONTINUOUS
 62
     0
100
AcDbMText
 10
0.0
 20
-68.6639834266
 30
0.0
 40
15.0
 41
0.0
 71
     1
 72
     1
  1
info@alape.com
  7
SLDTEXTSTYLE0
  0
MTEXT
  5
81
330
77
100
AcDbEntity
  8
0
  6
CONTINUOUS
 62
     0
100
AcDbMText
 10
0.0
 20
-90.6639833074
 30
0.0
 40
15.0
 41
0.0
 71
     1
 72
     1
  1
www.alape.com
  7
SLDTEXTSTYLE0
  0
ENDBLK
  5
79
330
77
100
AcDbEntity
  8
0
100
AcDbBlockEnd
  0
BLOCK
  5
DF
330
DE
100
AcDbEntity
  8
0
100
AcDbBlockBegin
  2
*D3
 70
     1
 71
     0
 10
0.0
 20
0.0
 30
0.0
  3
*D3
  1

  0
SOLID
  5
E1
330
DE
100
AcDbEntity
  8
0
  6
CONTINUOUS
 62
     7
100
AcDbTrace
 10
628.1106382979
 20
2742.3375586929
 30
0.0
 11
603.1106382979
 21
2745.4375586929
 31
0.0
 12
603.1106382979
 22
2739.2375586929
 32
0.0
 13
603.1106382979
 23
2739.2375586929
 33
0.0
  0
SOLID
  5
E2
330
DE
100
AcDbEntity
  8
0
  6
CONTINUOUS
 62
     7
100
AcDbTrace
 10
440.6106382979
 20
2742.3375586929
 30
0.0
 11
465.6106382979
 21
2739.2375586929
 31
0.0
 12
465.6106382979
 22
2745.4375586929
 32
0.0
 13
465.6106382979
 23
2745.4375586929
 33
0.0
  0
LINE
  5
E3
330
DE
100
AcDbEntity
  8
0
  6
CONTINUOUS
 62
     7
100
AcDbLine
 10
628.1106382979
 20
2698.6055401495
 30
0.0
 11
628.1106382979
 21
2752.3375586929
 31
0.0
  0
LINE
  5
E4
330
DE
100
AcDbEntity
  8
0
  6
CONTINUOUS
 62
     7
100
AcDbLine
 10
440.6106382979
 20
2676.0184683005
 30
0.0
 11
440.6106382979
 21
2752.3375586929
 31
0.0
  0
LINE
  5
E5
330
DE
100
AcDbEntity
  8
0
  6
CONTINUOUS
 62
     7
100
AcDbLine
 10
628.1106382979
 20
2742.3375586929
 30
0.0
 11
440.6106382979
 21
2742.3375586929
 31
0.0
  0
MTEXT
  5
E6
330
DE
100
AcDbEntity
  8
0
  6
CONTINUOUS
 62
     7
100
AcDbMText
 10
490.2985524096
 20
2787.4549272566
 30
0.0
 40
35.0
 41
0.0
 71
     1
 72
     1
  1
187,5
  7
SLDTEXTSTYLE0
  0
ENDBLK
  5
E0
330
DE
100
AcDbEntity
  8
0
100
AcDbBlockEnd
  0
BLOCK
  5
EA
330
E9
100
AcDbEntity
  8
0
100
AcDbBlockBegin
  2
*D4
 70
     1
 71
     0
 10
0.0
 20
0.0
 30
0.0
  3
*D4
  1

  0
SOLID
  5
EC
330
E9
100
AcDbEntity
  8
0
  6
CONTINUOUS
 62
     7
100
AcDbTrace
 10
915.6181632979
 20
2675.9684683005
 30
0.0
 11
912.5181632979
 21
2650.9684683005
 31
0.0
 12
918.7181632979
 22
2650.9684683005
 32
0.0
 13
918.7181632979
 23
2650.9684683005
 33
0.0
  0
SOLID
  5
ED
330
E9
100
AcDbEntity
  8
0
  6
CONTINUOUS
 62
     7
100
AcDbTrace
 10
915.6181632979
 20
2575.9684683005
 30
0.0
 11
918.7181632979
 21
2600.9684683005
 31
0.0
 12
912.5181632979
 22
2600.9684683005
 32
0.0
 13
912.5181632979
 23
2600.9684683005
 33
0.0
  0
LINE
  5
EE
330
E9
100
AcDbEntity
  8
0
  6
CONTINUOUS
 62
     7
100
AcDbLine
 10
812.130308212
 20
2675.9684683005
 30
0.0
 11
925.6181632979
 21
2675.9684683005
 31
0.0
  0
LINE
  5
EF
330
E9
100
AcDbEntity
  8
0
  6
CONTINUOUS
 62
     7
100
AcDbLine
 10
810.6606382979
 20
2575.9684683005
 30
0.0
 11
925.6181632979
 21
2575.9684683005
 31
0.0
  0
LINE
  5
F0
330
E9
100
AcDbEntity
  8
0
  6
CONTINUOUS
 62
     7
100
AcDbLine
 10
915.6181632979
 20
2675.9684683005
 30
0.0
 11
915.6181632979
 21
2575.9684683005
 31
0.0
  0
MTEXT
  5
F1
330
E9
100
AcDbEntity
  8
0
  6
CONTINUOUS
 62
     7
100
AcDbMText
 10
870.5007947342
 20
2598.2246389322
 30
0.0
 40
35.0
 41
0.0
 71
     1
 72
     1
  1
100
  7
SLDTEXTSTYLE0
 11
-7.044197039909883E-15
 21
1.0
 31
0.0
  0
ENDBLK
  5
EB
330
E9
100
AcDbEntity
  8
0
100
AcDbBlockEnd
  0
BLOCK
  5
F4
330
F3
100
AcDbEntity
  8
0
100
AcDbBlockBegin
  2
*D5
 70
     1
 71
     0
 10
0.0
 20
0.0
 30
0.0
  3
*D5
  1

  0
SOLID
  5
F6
330
F3
100
AcDbEntity
  8
0
  6
CONTINUOUS
 62
     7
100
AcDbTrace
 10
915.6181632979
 20
2575.9684683005
 30
0.0
 11
912.5181632979
 21
2550.9684683005
 31
0.0
 12
918.7181632979
 22
2550.9684683005
 32
0.0
 13
918.7181632979
 23
2550.9684683005
 33
0.0
  0
SOLID
  5
F7
330
F3
100
AcDbEntity
  8
0
  6
CONTINUOUS
 62
     7
100
AcDbTrace
 10
915.6181632979
 20
2565.9684683005
 30
0.0
 11
918.7181632979
 21
2590.9684683005
 31
0.0
 12
912.5181632979
 22
2590.9684683005
 32
0.0
 13
912.5181632979
 23
2590.9684683005
 33
0.0
  0
LINE
  5
F8
330
F3
100
AcDbEntity
  8
0
  6
CONTINUOUS
 62
     7
100
AcDbLine
 10
797.6606382979
 20
2575.9684683005
 30
0.0
 11
925.6181632979
 21
2575.9684683005
 31
0.0
  0
LINE
  5
F9
330
F3
100
AcDbEntity
  8
0
  6
CONTINUOUS
 62
     7
100
AcDbLine
 10
797.6606382979
 20
2565.9684683005
 30
0.0
 11
925.6181632979
 21
2565.9684683005
 31
0.0
  0
LINE
  5
FA
330
F3
100
AcDbEntity
  8
0
  6
CONTINUOUS
 62
     7
100
AcDbLine
 10
915.6181632979
 20
2575.9684683005
 30
0.0
 11
915.6181632979
 21
2565.9684683005
 31
0.0
  0
LINE
  5
FB
330
F3
100
AcDbEntity
  8
0
  6
CONTINUOUS
 62
     7
100
AcDbLine
 10
915.6181632979
 20
2565.9684683005
 30
0.0
 11
915.6181632979
 21
2485.1406805625
 31
0.0
  0
MTEXT
  5
FC
330
F3
100
AcDbEntity
  8
0
  6
CONTINUOUS
 62
     7
100
AcDbMText
 10
870.5007947342
 20
2501.0156805625
 30
0.0
 40
35.0
 41
0.0
 71
     1
 72
     1
  1
10
  7
SLDTEXTSTYLE0
 11
-7.044197039909883E-15
 21
1.0
 31
0.0
  0
ENDBLK
  5
F5
330
F3
100
AcDbEntity
  8
0
100
AcDbBlockEnd
  0
BLOCK
  5
19A
330
199
100
AcDbEntity
  8
0
100
AcDbBlockBegin
  2
*D6
 70
     1
 71
     0
 10
0.0
 20
0.0
 30
0.0
  3
*D6
  1

  0
SOLID
  5
19C
330
199
100
AcDbEntity
  8
0
  6
CONTINUOUS
 62
     7
100
AcDbTrace
 10
1105.6787234043
 20
2743.2300372093
 30
0.0
 11
1130.6787234043
 21
2740.1300372093
 31
0.0
 12
1130.6787234043
 22
2746.3300372093
 32
0.0
 13
1130.6787234043
 23
2746.3300372093
 33
0.0
  0
SOLID
  5
19D
330
199
100
AcDbEntity
  8
0
  6
CONTINUOUS
 62
     7
100
AcDbTrace
 10
1480.6787234043
 20
2743.2300372093
 30
0.0
 11
1455.6787234043
 21
2746.3300372093
 31
0.0
 12
1455.6787234043
 22
2740.1300372093
 32
0.0
 13
1455.6787234043
 23
2740.1300372093
 33
0.0
  0
LINE
  5
19E
330
199
100
AcDbEntity
  8
0
  6
CONTINUOUS
 62
     7
100
AcDbLine
 10
1105.6787234043
 20
2676.0184683005
 30
0.0
 11
1105.6787234043
 21
2753.2300372093
 31
0.0
  0
LINE
  5
19F
330
199
100
AcDbEntity
  8
0
  6
CONTINUOUS
 62
     7
100
AcDbLine
 10
1480.6787234043
 20
2693.5251739571
 30
0.0
 11
1480.6787234043
 21
2753.2300372093
 31
0.0
  0
LINE
  5
1A0
330
199
100
AcDbEntity
  8
0
  6
CONTINUOUS
 62
     7
100
AcDbLine
 10
1105.6787234043
 20
2743.2300372093
 30
0.0
 11
1480.6787234043
 21
2743.2300372093
 31
0.0
  0
MTEXT
  5
1A1
330
199
100
AcDbEntity
  8
0
  6
CONTINUOUS
 62
     7
100
AcDbMText
 10
1263.6183944654
 20
2788.347405773
 30
0.0
 40
35.0
 41
0.0
 71
     1
 72
     1
  1
375
  7
SLDTEXTSTYLE0
  0
ENDBLK
  5
19B
330
199
100
AcDbEntity
  8
0
100
AcDbBlockEnd
  0
BLOCK
  5
1CF
330
1CE
100
AcDbEntity
  8
0
100
AcDbBlockBegin
  2
*D7
 70
     1
 71
     0
 10
0.0
 20
0.0
 30
0.0
  3
*D7
  1

  0
SOLID
  5
1D1
330
1CE
100
AcDbEntity
  8
0
  6
CONTINUOUS
 62
     7
100
AcDbTrace
 10
440.6106382979
 20
2252.330883196
 30
0.0
 11
465.6106382979
 21
2249.230883196
 31
0.0
 12
465.6106382979
 22
2255.430883196
 32
0.0
 13
465.6106382979
 23
2255.430883196
 33
0.0
  0
SOLID
  5
1D2
330
1CE
100
AcDbEntity
  8
0
  6
CONTINUOUS
 62
     7
100
AcDbTrace
 10
815.6106382979
 20
2252.330883196
 30
0.0
 11
790.6106382979
 21
2255.430883196
 31
0.0
 12
790.6106382979
 22
2249.230883196
 32
0.0
 13
790.6106382979
 23
2249.230883196
 33
0.0
  0
LINE
  5
1D3
330
1CE
100
AcDbEntity
  8
0
  6
CONTINUOUS
 62
     7
100
AcDbLine
 10
440.6106382979
 20
2181.7260528928
 30
0.0
 11
440.6106382979
 21
2262.330883196
 31
0.0
  0
LINE
  5
1D4
330
1CE
100
AcDbEntity
  8
0
  6
CONTINUOUS
 62
     7
100
AcDbLine
 10
815.6106382979
 20
2181.7260528928
 30
0.0
 11
815.6106382979
 21
2262.330883196
 31
0.0
  0
LINE
  5
1D5
330
1CE
100
AcDbEntity
  8
0
  6
CONTINUOUS
 62
     7
100
AcDbLine
 10
440.6106382979
 20
2252.330883196
 30
0.0
 11
815.6106382979
 21
2252.330883196
 31
0.0
  0
MTEXT
  5
1D6
330
1CE
100
AcDbEntity
  8
0
  6
CONTINUOUS
 62
     7
100
AcDbMText
 10
595.7071283047
 20
2297.4482517597
 30
0.0
 40
35.0
 41
0.0
 71
     1
 72
     1
  1
375
  7
SLDTEXTSTYLE0
  0
ENDBLK
  5
1D0
330
1CE
100
AcDbEntity
  8
0
100
AcDbBlockEnd
  0
BLOCK
  5
1D9
330
1D8
100
AcDbEntity
  8
0
100
AcDbBlockBegin
  2
*D8
 70
     1
 71
     0
 10
0.0
 20
0.0
 30
0.0
  3
*D8
  1

  0
SOLID
  5
1DB
330
1D8
100
AcDbEntity
  8
0
  6
CONTINUOUS
 62
     7
100
AcDbTrace
 10
906.4409486182
 20
2182.2063829787
 30
0.0
 11
909.5409486182
 21
2207.2063829787
 31
0.0
 12
903.3409486182
 22
2207.2063829787
 32
0.0
 13
903.3409486182
 23
2207.2063829787
 33
0.0
  0
SOLID
  5
1DC
330
1D8
100
AcDbEntity
  8
0
  6
CONTINUOUS
 62
     7
100
AcDbTrace
 10
906.4409486182
 20
2185.2063829787
 30
0.0
 11
903.3409486182
 21
2160.2063829787
 31
0.0
 12
909.5409486182
 22
2160.2063829787
 32
0.0
 13
909.5409486182
 23
2160.2063829787
 33
0.0
  0
LINE
  5
1DD
330
1D8
100
AcDbEntity
  8
0
  6
CONTINUOUS
 62
     7
100
AcDbLine
 10
812.130308212
 20
2182.2063829787
 30
0.0
 11
916.4409486182
 21
2182.2063829787
 31
0.0
  0
LINE
  5
1DE
330
1D8
100
AcDbEntity
  8
0
  6
CONTINUOUS
 62
     7
100
AcDbLine
 10
812.130308212
 20
2185.2063829787
 30
0.0
 11
916.4409486182
 21
2185.2063829787
 31
0.0
  0
LINE
  5
1DF
330
1D8
100
AcDbEntity
  8
0
  6
CONTINUOUS
 62
     7
100
AcDbLine
 10
906.4409486182
 20
2182.2063829787
 30
0.0
 11
906.4409486182
 21
2116.3860065011
 31
0.0
  0
LINE
  5
1E0
330
1D8
100
AcDbEntity
  8
0
  6
CONTINUOUS
 62
     7
100
AcDbLine
 10
906.4409486182
 20
2182.2063829787
 30
0.0
 11
906.4409486182
 21
2185.2063829787
 31
0.0
  0
MTEXT
  5
1E1
330
1D8
100
AcDbEntity
  8
0
  6
CONTINUOUS
 62
     7
100
AcDbMText
 10
861.3235800545
 20
2132.2610065011
 30
0.0
 40
35.0
 41
0.0
 71
     1
 72
     1
  1
3
  7
SLDTEXTSTYLE0
 11
6.123031769111886E-17
 21
1.0
 31
0.0
  0
ENDBLK
  5
1DA
330
1D8
100
AcDbEntity
  8
0
100
AcDbBlockEnd
  0
BLOCK
  5
1E4
330
1E3
100
AcDbEntity
  8
0
100
AcDbBlockBegin
  2
*D9
 70
     1
 71
     0
 10
0.0
 20
0.0
 30
0.0
  3
*D9
  1

  0
SOLID
  5
1E6
330
1E3
100
AcDbEntity
  8
0
  6
CONTINUOUS
 62
     7
100
AcDbTrace
 10
997.8997529279
 20
2185.2063829787
 30
0.0
 11
994.7997529279
 21
2160.2063829787
 31
0.0
 12
1000.9997529279
 22
2160.2063829787
 32
0.0
 13
1000.9997529279
 23
2160.2063829787
 33
0.0
  0
SOLID
  5
1E7
330
1E3
100
AcDbEntity
  8
0
  6
CONTINUOUS
 62
     7
100
AcDbTrace
 10
997.8997529279
 20
1435.2063829787
 30
0.0
 11
1000.9997529279
 21
1460.2063829787
 31
0.0
 12
994.7997529279
 22
1460.2063829787
 32
0.0
 13
994.7997529279
 23
1460.2063829787
 33
0.0
  0
LINE
  5
1E8
330
1E3
100
AcDbEntity
  8
0
  6
CONTINUOUS
 62
     7
100
AcDbLine
 10
812.130308212
 20
2185.2063829787
 30
0.0
 11
1007.8997529279
 21
2185.2063829787
 31
0.0
  0
LINE
  5
1E9
330
1E3
100
AcDbEntity
  8
0
  6
CONTINUOUS
 62
     7
100
AcDbLine
 10
812.130308212
 20
1435.2063829787
 30
0.0
 11
1007.8997529279
 21
1435.2063829787
 31
0.0
  0
LINE
  5
1EA
330
1E3
100
AcDbEntity
  8
0
  6
CONTINUOUS
 62
     7
100
AcDbLine
 10
997.8997529279
 20
2185.2063829787
 30
0.0
 11
997.8997529279
 21
1435.2063829787
 31
0.0
  0
MTEXT
  5
1EB
330
1E3
100
AcDbEntity
  8
0
  6
CONTINUOUS
 62
     7
100
AcDbMText
 10
952.7823843642
 20
1777.4270370035
 30
0.0
 40
35.0
 41
0.0
 71
     1
 72
     1
  1
750
  7
SLDTEXTSTYLE0
 11
-7.044197039909883E-15
 21
1.0
 31
0.0
  0
ENDBLK
  5
1E5
330
1E3
100
AcDbEntity
  8
0
100
AcDbBlockEnd
  0
BLOCK
  5
1EE
330
1ED
100
AcDbEntity
  8
0
100
AcDbBlockBegin
  2
*D10
 70
     1
 71
     0
 10
0.0
 20
0.0
 30
0.0
  3
*D10
  1

  0
SOLID
  5
1F0
330
1ED
100
AcDbEntity
  8
0
  6
CONTINUOUS
 62
     7
100
AcDbTrace
 10
906.4409486182
 20
1438.2063829787
 30
0.0
 11
903.3409486182
 21
1413.2063829787
 31
0.0
 12
909.5409486182
 22
1413.2063829787
 32
0.0
 13
909.5409486182
 23
1413.2063829787
 33
0.0
  0
SOLID
  5
1F1
330
1ED
100
AcDbEntity
  8
0
  6
CONTINUOUS
 62
     7
100
AcDbTrace
 10
906.4409486182
 20
1435.2063829787
 30
0.0
 11
909.5409486182
 21
1460.2063829787
 31
0.0
 12
903.3409486182
 22
1460.2063829787
 32
0.0
 13
903.3409486182
 23
1460.2063829787
 33
0.0
  0
LINE
  5
1F2
330
1ED
100
AcDbEntity
  8
0
  6
CONTINUOUS
 62
     7
100
AcDbLine
 10
812.130308212
 20
1438.2063829787
 30
0.0
 11
916.4409486182
 21
1438.2063829787
 31
0.0
  0
LINE
  5
1F3
330
1ED
100
AcDbEntity
  8
0
  6
CONTINUOUS
 62
     7
100
AcDbLine
 10
812.130308212
 20
1435.2063829787
 30
0.0
 11
916.4409486182
 21
1435.2063829787
 31
0.0
  0
LINE
  5
1F4
330
1ED
100
AcDbEntity
  8
0
  6
CONTINUOUS
 62
     7
100
AcDbLine
 10
906.4409486182
 20
1438.2063829787
 30
0.0
 11
906.4409486182
 21
1502.9118202772
 31
0.0
  0
LINE
  5
1F5
330
1ED
100
AcDbEntity
  8
0
  6
CONTINUOUS
 62
     7
100
AcDbLine
 10
906.4409486182
 20
1438.2063829787
 30
0.0
 11
906.4409486182
 21
1435.2063829787
 31
0.0
  0
MTEXT
  5
1F6
330
1ED
100
AcDbEntity
  8
0
  6
CONTINUOUS
 62
     7
100
AcDbMText
 10
861.3235800545
 20
1465.1220117666
 30
0.0
 40
35.0
 41
0.0
 71
     1
 72
     1
  1
3
  7
SLDTEXTSTYLE0
 11
-7.044197039909883E-15
 21
1.0
 31
0.0
  0
ENDBLK
  5
1EF
330
1ED
100
AcDbEntity
  8
0
100
AcDbBlockEnd
  0
ENDSEC
  0
SECTION
  2
ENTITIES
  0
LINE
  5
2F
330
1F
100
AcDbEntity
  8
0
  6
CONTINUOUS
 62
     7
100
AcDbLine
 10
178.0
 20
611.9648888889
 30
0.0
 11
178.0
 21
59.4648888889
 31
0.0
  0
LINE
  5
30
330
1F
100
AcDbEntity
  8
0
  6
CONTINUOUS
 62
     7
100
AcDbLine
 10
256.0
 20
441.9648888889
 30
0.0
 11
256.0
 21
59.4648888889
 31
0.0
  0
LINE
  5
31
330
1F
100
AcDbEntity
  8
0
  6
CONTINUOUS
 62
     7
100
AcDbLine
 10
506.0
 20
441.9648888889
 30
0.0
 11
506.0
 21
59.4648888889
 31
0.0
  0
LINE
  5
32
330
1F
100
AcDbEntity
  8
0
  6
CONTINUOUS
 62
     7
100
AcDbLine
 10
178.0
 20
97.3527580974
 30
0.0
 11
724.0
 21
97.3527580974
 31
0.0
  0
LINE
  5
33
330
1F
100
AcDbEntity
  8
0
  6
CONTINUOUS
 62
     7
100
AcDbLine
 10
724.0
 20
229.4648888889
 30
0.0
 11
2050.0
 21
229.4648888889
 31
0.0
  0
LINE
  5
34
330
1F
100
AcDbEntity
  8
0
  6
CONTINUOUS
 62
     7
100
AcDbLine
 10
2050.0
 20
441.9648888889
 30
0.0
 11
178.0
 21
441.9648888889
 31
0.0
  0
LINE
  5
35
330
1F
100
AcDbEntity
  8
0
  6
CONTINUOUS
 62
     7
100
AcDbLine
 10
178.0
 20
611.9648888889
 30
0.0
 11
2050.0
 21
611.9648888889
 31
0.0
  0
LINE
  5
36
330
1F
100
AcDbEntity
  8
0
  6
CONTINUOUS
 62
     7
100
AcDbLine
 10
1166.0
 20
97.3527580974
 30
0.0
 11
2050.0
 21
97.3527580974
 31
0.0
  0
LINE
  5
37
330
1F
100
AcDbEntity
  8
0
  6
CONTINUOUS
 62
     7
100
AcDbLine
 10
724.0
 20
59.4648888889
 30
0.0
 11
724.0
 21
611.9648888889
 31
0.0
  0
LINE
  5
38
330
1F
100
AcDbEntity
  8
0
  6
CONTINUOUS
 62
     7
100
AcDbLine
 10
1166.0
 20
611.9648888889
 30
0.0
 11
1166.0
 21
59.4648888889
 31
0.0
  0
LINE
  5
39
330
1F
100
AcDbEntity
  8
0
  6
CONTINUOUS
 62
     7
100
AcDbLine
 10
606.0
 20
441.9648888889
 30
0.0
 11
606.0
 21
59.4648888889
 31
0.0
  0
LINE
  5
3A
330
1F
100
AcDbEntity
  8
0
  6
CONTINUOUS
 62
     7
100
AcDbLine
 10
828.0
 20
271.9648888889
 30
0.0
 11
828.0
 21
441.9648888889
 31
0.0
  0
LINE
  5
3B
330
1F
100
AcDbEntity
  8
0
  6
CONTINUOUS
 62
     7
100
AcDbLine
 10
724.0
 20
144.4648888889
 30
0.0
 11
178.0
 21
144.4648888889
 31
0.0
  0
LINE
  5
3C
330
1F
100
AcDbEntity
  8
0
  6
CONTINUOUS
 62
     7
100
AcDbLine
 10
984.0
 20
611.9648888889
 30
0.0
 11
984.0
 21
229.4648888889
 31
0.0
  0
LINE
  5
3D
330
1F
100
AcDbEntity
  8
0
  6
CONTINUOUS
 62
     7
100
AcDbLine
 10
1608.0
 20
59.4648888889
 30
0.0
 11
1608.0
 21
97.3527580974
 31
0.0
  0
LINE
  5
3E
330
1F
100
AcDbEntity
  8
0
  6
CONTINUOUS
 62
     7
100
AcDbLine
 10
1686.0
 20
548.2148888889
 30
0.0
 11
1686.0
 21
611.9648888889
 31
0.0
  0
LINE
  5
3F
330
1F
100
AcDbEntity
  8
0
  6
CONTINUOUS
 62
     7
100
AcDbLine
 10
724.0
 20
526.9648888889
 30
0.0
 11
1166.0
 21
526.9648888889
 31
0.0
  0
LINE
  5
40
330
1F
100
AcDbEntity
  8
0
  6
CONTINUOUS
 62
     7
100
AcDbLine
 10
1920.0
 20
97.3527580974
 30
0.0
 11
1920.0
 21
229.4648888889
 31
0.0
  0
LINE
  5
41
330
1F
100
AcDbEntity
  8
0
  6
CONTINUOUS
 62
     7
100
AcDbLine
 10
2050.0
 20
548.2148888889
 30
0.0
 11
1166.0
 21
548.2148888889
 31
0.0
  0
LINE
  5
42
330
1F
100
AcDbEntity
  8
0
  6
CONTINUOUS
 62
     7
100
AcDbLine
 10
128.0
 20
2961.9648888889
 30
0.0
 11
128.0
 21
611.9648888889
 31
0.0
  0
LINE
  5
43
330
1F
100
AcDbEntity
  8
0
  6
CONTINUOUS
 62
     7
100
AcDbLine
 10
178.0
 20
2911.9648888889
 30
0.0
 11
178.0
 21
611.9648888889
 31
0.0
  0
LINE
  5
44
330
1F
100
AcDbEntity
  8
0
  6
CONTINUOUS
 62
     7
100
AcDbLine
 10
2050.0
 20
59.4648888889
 30
0.0
 11
2050.0
 21
611.9648888889
 31
0.0
  0
LINE
  5
45
330
1F
100
AcDbEntity
  8
0
  6
CONTINUOUS
 62
     7
100
AcDbLine
 10
178.0
 20
59.4648888889
 30
0.0
 11
2050.0
 21
59.4648888889
 31
0.0
  0
LINE
  5
46
330
1F
100
AcDbEntity
  8
0
  6
CONTINUOUS
 62
     7
100
AcDbLine
 10
724.0
 20
186.9648888889
 30
0.0
 11
178.0
 21
186.9648888889
 31
0.0
  0
LINE
  5
47
330
1F
100
AcDbEntity
  8
0
  6
CONTINUOUS
 62
     7
100
AcDbLine
 10
724.0
 20
229.4648888889
 30
0.0
 11
178.0
 21
229.4648888889
 31
0.0
  0
LINE
  5
48
330
1F
100
AcDbEntity
  8
0
  6
CONTINUOUS
 62
     7
100
AcDbLine
 10
1166.0
 20
271.9648888889
 30
0.0
 11
178.0
 21
271.9648888889
 31
0.0
  0
LINE
  5
49
330
1F
100
AcDbEntity
  8
0
  6
CONTINUOUS
 62
     7
100
AcDbLine
 10
1166.0
 20
314.4648888889
 30
0.0
 11
178.0
 21
314.4648888889
 31
0.0
  0
LINE
  5
4A
330
1F
100
AcDbEntity
  8
0
  6
CONTINUOUS
 62
     7
100
AcDbLine
 10
1166.0
 20
356.9648888889
 30
0.0
 11
178.0
 21
356.9648888889
 31
0.0
  0
LINE
  5
4B
330
1F
100
AcDbEntity
  8
0
  6
CONTINUOUS
 62
     7
100
AcDbLine
 10
1166.0
 20
399.4648888889
 30
0.0
 11
178.0
 21
399.4648888889
 31
0.0
  0
LINE
  5
4C
330
1F
100
AcDbEntity
  8
0
  6
CONTINUOUS
 62
     7
100
AcDbLine
 10
2050.0
 20
144.4648888889
 30
0.0
 11
1920.0
 21
144.4648888889
 31
0.0
  0
LINE
  5
4D
330
1F
100
AcDbEntity
  8
0
  6
CONTINUOUS
 62
     7
100
AcDbLine
 10
178.0
 20
1071.9648888889
 30
0.0
 11
128.0
 21
1071.9648888889
 31
0.0
  0
LINE
  5
4E
330
1F
100
AcDbEntity
  8
0
  6
CONTINUOUS
 62
     7
100
AcDbLine
 10
128.0
 20
1531.9648888889
 30
0.0
 11
178.0
 21
1531.9648888889
 31
0.0
  0
LINE
  5
4F
330
1F
100
AcDbEntity
  8
0
  6
CONTINUOUS
 62
     7
100
AcDbLine
 10
128.0
 20
1991.9648888889
 30
0.0
 11
178.0
 21
1991.9648888889
 31
0.0
  0
LINE
  5
50
330
1F
100
AcDbEntity
  8
0
  6
CONTINUOUS
 62
     7
100
AcDbLine
 10
128.0
 20
2451.9648888889
 30
0.0
 11
178.0
 21
2451.9648888889
 31
0.0
  0
LINE
  5
51
330
1F
100
AcDbEntity
  8
0
  6
CONTINUOUS
 62
     7
100
AcDbLine
 10
645.5
 20
2961.9648888889
 30
0.0
 11
645.5
 21
2911.9648888889
 31
0.0
  0
LINE
  5
52
330
1F
100
AcDbEntity
  8
0
  6
CONTINUOUS
 62
     7
100
AcDbLine
 10
1113.0
 20
2961.9648888889
 30
0.0
 11
1113.0
 21
2911.9648888889
 31
0.0
  0
LINE
  5
53
330
1F
100
AcDbEntity
  8
0
  6
CONTINUOUS
 62
     7
100
AcDbLine
 10
128.0
 20
2961.9648888889
 30
0.0
 11
2050.0
 21
2961.9648888889
 31
0.0
  0
LINE
  5
54
330
1F
100
AcDbEntity
  8
0
  6
CONTINUOUS
 62
     7
100
AcDbLine
 10
2050.0
 20
2911.9648888889
 30
0.0
 11
2050.0
 21
611.9648888889
 31
0.0
  0
LINE
  5
55
330
1F
100
AcDbEntity
  8
0
  6
CONTINUOUS
 62
     7
100
AcDbLine
 10
178.0
 20
2911.9648888889
 30
0.0
 11
2050.0
 21
2911.9648888889
 31
0.0
  0
LINE
  5
56
330
1F
100
AcDbEntity
  8
0
  6
CONTINUOUS
 62
     7
100
AcDbLine
 10
1580.5
 20
2961.9648888889
 30
0.0
 11
1580.5
 21
2911.9648888889
 31
0.0
  0
LINE
  5
57
330
1F
100
AcDbEntity
  8
0
  6
CONTINUOUS
 62
     7
100
AcDbLine
 10
2050.0
 20
2961.9648888889
 30
0.0
 11
2050.0
 21
2911.9648888889
 31
0.0
  0
LINE
  5
58
330
1F
100
AcDbEntity
  8
0
  6
CONTINUOUS
 62
     7
100
AcDbLine
 10
128.0
 20
611.9648888889
 30
0.0
 11
178.0
 21
611.9648888889
 31
0.0
  0
LINE
  5
59
330
1F
100
AcDbEntity
  8
0
  6
CONTINUOUS
 62
     7
100
AcDbLine
 10
2100.0
 20
2961.9648888889
 30
0.0
 11
2100.0
 21
9.4648888889
 31
0.0
  0
LINE
  5
5A
330
1F
100
AcDbEntity
  8
0
  6
CONTINUOUS
 62
     7
100
AcDbLine
 10
2100.0
 20
9.4648888889
 30
0.0
 11
3.0
 21
9.4648888889
 31
0.0
  0
LINE
  5
5B
330
1F
100
AcDbEntity
  8
0
  6
CONTINUOUS
 62
     7
100
AcDbLine
 10
3.0
 20
9.4648888889
 30
0.0
 11
3.0
 21
2961.9648888889
 31
0.0
  0
LINE
  5
5C
330
1F
100
AcDbEntity
  8
0
  6
CONTINUOUS
 62
     7
100
AcDbLine
 10
3.0
 20
2961.9648888889
 30
0.0
 11
2100.0
 21
2961.9648888889
 31
0.0
  0
ARC
  5
5D
330
1F
100
AcDbEntity
  8
0
  6
CONTINUOUS
 62
     7
100
AcDbCircle
 10
1144.2790264777
 20
179.5558961975
 30
0.0
 40
14.21146949138165
100
AcDbArc
 50
180.0
 51
0.0
  0
MTEXT
  5
5F
330
1F
100
AcDbEntity
  8
0
  6
CONTINUOUS
 62
     7
100
AcDbMText
 10
1001.866114271
 20
507.3657725829
 30
0.0
 40
18.0
 41
0.0
 71
     1
 72
     1
  1
Werkstückkanten
  7
SLDTEXTSTYLE0
  0
MTEXT
  5
60
330
1F
100
AcDbEntity
  8
0
  6
CONTINUOUS
 62
     7
100
AcDbMText
 10
741.2329342285
 20
508.0953097765
 30
0.0
 40
18.0
 41
0.0
 71
     1
 72
     1
  1
Allgemeintoleranzen
  7
SLDTEXTSTYLE0
  0
MTEXT
  5
61
330
1F
100
AcDbEntity
  8
0
  6
CONTINUOUS
 62
     7
100
AcDbMText
 10
1002.260503761
 20
595.4984997076
 30
0.0
 40
18.0
 41
0.0
 71
     1
 72
     1
  1
 Oberflächen
  7
SLDTEXTSTYLE0
  0
INSERT
  5
68
330
1F
100
AcDbEntity
  8
0
  6
CONTINUOUS
 62
     7
100
AcDbBlockReference
  2
SW_NOTE_0
 10
741.4609723973
 20
572.2099196998
 30
0.0
  0
MTEXT
  5
69
330
1F
100
AcDbEntity
  8
0
  6
CONTINUOUS
 62
     7
100
AcDbMText
 10
834.5570552235
 20
433.2295769538
 30
0.0
 40
18.0
 41
0.0
 71
     1
 72
     1
  1
Datum
  7
SLDTEXTSTYLE0
  0
MTEXT
  5
6A
330
1F
100
AcDbEntity
  8
0
  6
CONTINUOUS
 62
     7
100
AcDbMText
 10
990.0482574197
 20
433.1878737719
 30
0.0
 40
18.0
 41
0.0
 71
     1
 72
     1
  1
Name
  7
SLDTEXTSTYLE0
  0
MTEXT
  5
6B
330
1F
100
AcDbEntity
  8
0
  6
CONTINUOUS
 62
     7
100
AcDbMText
 10
729.9942931855
 20
388.5774933557
 30
0.0
 40
18.0
 41
0.0
 71
     1
 72
     1
  1
Bearb.
  7
SLDTEXTSTYLE0
  0
MTEXT
  5
6C
330
1F
100
AcDbEntity
  8
0
  6
CONTINUOUS
 62
     7
100
AcDbMText
 10
730.0241080765
 20
344.9741674525
 30
0.0
 40
18.0
 41
0.0
 71
     1
 72
     1
  1
Gepr.
  7
SLDTEXTSTYLE0
  0
MTEXT
  5
6D
330
1F
100
AcDbEntity
  8
0
  6
CONTINUOUS
 62
     7
100
AcDbMText
 10
730.0241080765
 20
302.6450473666
 30
0.0
 40
18.0
 41
0.0
 71
     1
 72
     1
  1
Freigabe
  7
SLDTEXTSTYLE0
  0
MTEXT
  5
6E
330
1F
100
AcDbEntity
  8
0
  6
CONTINUOUS
 62
     7
100
AcDbMText
 10
1173.1967557727
 20
594.7494385311
 30
0.0
 40
18.0
 41
0.0
 71
     1
 72
     1
  1
Maßstab
  7
SLDTEXTSTYLE0
  0
MTEXT
  5
6F
330
1F
100
AcDbEntity
  8
0
  6
CONTINUOUS
 62
     7
100
AcDbMText
 10
1695.0427154453
 20
594.0500090479
 30
0.0
 40
18.0
 41
0.0
 71
     1
 72
     1
  1
Gewicht
  7
SLDTEXTSTYLE0
  0
MTEXT
  5
70
330
1F
100
AcDbEntity
  8
0
  6
CONTINUOUS
 62
     7
100
AcDbMText
 10
1172.3498791808
 20
532.9840223793
 30
0.0
 40
18.0
 41
0.0
 71
     1
 72
     1
  1
Werkstoff
  7
SLDTEXTSTYLE0
  0
MTEXT
  5
71
330
1F
100
AcDbEntity
  8
0
  6
CONTINUOUS
 62
     7
100
AcDbMText
 10
1171.7968375726
 20
433.1282583672
 30
0.0
 40
18.0
 41
0.0
 71
     1
 72
     1
  1
Benennung
  7
SLDTEXTSTYLE0
  0
MTEXT
  5
72
330
1F
100
AcDbEntity
  8
0
  6
CONTINUOUS
 62
     7
100
AcDbMText
 10
1173.3614733249
 20
221.37483921
 30
0.0
 40
18.0
 41
0.0
 71
     1
 72
     1
  1
Zeichnungs-Nr.
  7
SLDTEXTSTYLE0
  0
MTEXT
  5
73
330
1F
100
AcDbEntity
  8
0
  6
CONTINUOUS
 62
     7
100
AcDbMText
 10
1929.1803388485
 20
212.6948179662
 30
0.0
 40
18.0
 41
0.0
 71
     1
 72
     1
  1
Blatt
  7
SLDTEXTSTYLE0
  0
MTEXT
  5
74
330
1F
100
AcDbEntity
  8
0
  6
CONTINUOUS
 62
     7
100
AcDbMText
 10
2018.0969978698
 20
127.6982546133
 30
0.0
 40
18.0
 41
0.0
 71
     1
 72
     1
  1
Bl.
  7
SLDTEXTSTYLE0
  0
MTEXT
  5
75
330
1F
100
AcDbEntity
  8
0
  6
CONTINUOUS
 62
     7
100
AcDbMText
 10
1174.6668592817
 20
87.4549030772
 30
0.0
 40
18.0
 41
0.0
 71
     1
 72
     1
  1
Ers. f.:
  7
SLDTEXTSTYLE0
  0
MTEXT
  5
76
330
1F
100
AcDbEntity
  8
0
  6
CONTINUOUS
 62
     7
100
AcDbMText
 10
1619.2007214728
 20
87.4435098117
 30
0.0
 40
18.0
 41
0.0
 71
     1
 72
     1
  1
Ers.d.:
  7
SLDTEXTSTYLE0
  0
INSERT
  5
82
330
1F
100
AcDbEntity
  8
0
  6
CONTINUOUS
 62
     7
100
AcDbBlockReference
  2
SW_NOTE_1
 10
737.2537837524
 20
187.7803307423
 30
0.0
  0
MTEXT
  5
83
330
1F
100
AcDbEntity
  8
0
  6
CONTINUOUS
 62
     7
100
AcDbMText
 10
188.9126280003
 20
87.9469530416
 30
0.0
 40
18.0
 41
0.0
 71
     1
 72
     1
  1
Zust.
  7
SLDTEXTSTYLE0
  0
MTEXT
  5
84
330
1F
100
AcDbEntity
  8
0
  6
CONTINUOUS
 62
     7
100
AcDbMText
 10
278.6703693015
 20
88.0638668116
 30
0.0
 40
18.0
 41
0.0
 71
     1
 72
     1
  1
Änder.-Mittlg.Nr.
  7
SLDTEXTSTYLE0
  0
MTEXT
  5
85
330
1F
100
AcDbEntity
  8
0
  6
CONTINUOUS
 62
     7
100
AcDbMText
 10
513.5123929092
 20
87.7900593302
 30
0.0
 40
18.0
 41
0.0
 71
     1
 72
     1
  1
Datum
  7
SLDTEXTSTYLE0
  0
MTEXT
  5
86
330
1F
100
AcDbEntity
  8
0
  6
CONTINUOUS
 62
     7
100
AcDbMText
 10
630.8647509777
 20
87.7900593302
 30
0.0
 40
18.0
 41
0.0
 71
     1
 72
     1
  1
Name
  7
SLDTEXTSTYLE0
  0
MTEXT
  5
87
330
1F
100
AcDbEntity
  8
0
  6
CONTINUOUS
 62
     7
100
AcDbMText
 10
398.422293125
 20
2950.5148166911
 30
0.0
 40
21.1666666667
 41
0.0
 71
     1
 72
     1
  1
1
  7
SLDTEXTSTYLE0
  0
MTEXT
  5
88
330
1F
100
AcDbEntity
  8
0
  6
CONTINUOUS
 62
     7
100
AcDbMText
 10
867.5407155486
 20
2949.8615395072
 30
0.0
 40
21.1666666667
 41
0.0
 71
     1
 72
     1
  1
2
  7
SLDTEXTSTYLE0
  0
MTEXT
  5
89
330
1F
100
AcDbEntity
  8
0
  6
CONTINUOUS
 62
     7
100
AcDbMText
 10
1335.3829425856
 20
2948.4080731089
 30
0.0
 40
21.1666666667
 41
0.0
 71
     1
 72
     1
  1
3
  7
SLDTEXTSTYLE0
  0
MTEXT
  5
8A
330
1F
100
AcDbEntity
  8
0
  6
CONTINUOUS
 62
     7
100
AcDbMText
 10
1800.9058849482
 20
2949.7146274766
 30
0.0
 40
21.1666666667
 41
0.0
 71
     1
 72
     1
  1
4
  7
SLDTEXTSTYLE0
  0
MTEXT
  5
8B
330
1F
100
AcDbEntity
  8
0
  6
CONTINUOUS
 62
     7
100
AcDbMText
 10
145.0802845236
 20
2702.8133151663
 30
0.0
 40
21.1666666667
 41
0.0
 71
     1
 72
     1
  1
A
  7
SLDTEXTSTYLE0
  0
MTEXT
  5
8C
330
1F
100
AcDbEntity
  8
0
  6
CONTINUOUS
 62
     7
100
AcDbMText
 10
144.5552754657
 20
2240.6320601449
 30
0.0
 40
21.1666666667
 41
0.0
 71
     1
 72
     1
  1
B
  7
SLDTEXTSTYLE0
  0
MTEXT
  5
8D
330
1F
100
AcDbEntity
  8
0
  6
CONTINUOUS
 62
     7
100
AcDbMText
 10
143.1025836798
 20
1783.958590071
 30
0.0
 40
21.1666666667
 41
0.0
 71
     1
 72
     1
  1
C
  7
SLDTEXTSTYLE0
  0
MTEXT
  5
8E
330
1F
100
AcDbEntity
  8
0
  6
CONTINUOUS
 62
     7
100
AcDbMText
 10
144.5389977141
 20
1321.7221356327
 30
0.0
 40
21.1666666667
 41
0.0
 71
     1
 72
     1
  1
D
  7
SLDTEXTSTYLE0
  0
MTEXT
  5
8F
330
1F
100
AcDbEntity
  8
0
  6
CONTINUOUS
 62
     7
100
AcDbMText
 10
143.8110602807
 20
864.6161860427
 30
0.0
 40
21.1666666667
 41
0.0
 71
     1
 72
     1
  1
E
  7
SLDTEXTSTYLE0
  0
MTEXT
  5
90
330
1F
100
AcDbEntity
  8
0
  6
CONTINUOUS
 62
     7
100
AcDbMText
 10
835.2552951786
 20
395.7395344926
 30
0.0
 40
25.0
 41
0.0
 71
     1
 72
     1
  1
27.02.2009
  7
SLDTEXTSTYLE0
  0
MTEXT
  5
91
330
1F
100
AcDbEntity
  8
0
  6
CONTINUOUS
 62
     7
100
AcDbMText
 10
990.4549606022
 20
395.2015019495
 30
0.0
 40
25.0
 41
0.0
 71
     1
 72
     1
  1
Matweber
  7
SLDTEXTSTYLE0
  0
MTEXT
  5
92
330
1F
100
AcDbEntity
  8
0
  6
CONTINUOUS
 62
     7
100
AcDbMText
 10
1322.8175848598
 20
410.2932391429
 30
0.0
 40
50.0
 41
0.0
 71
     1
 72
     1
  1
AB.ME750
  7
SLDTEXTSTYLE0
  0
MTEXT
  5
93
330
1F
100
AcDbEntity
  8
0
  6
CONTINUOUS
 62
     7
100
AcDbMText
 10
1367.2025742174
 20
516.9122828248
 30
0.0
 40
35.0
 41
0.0
 71
     1
 72
     1
  1
Baugruppe
  7
SLDTEXTSTYLE0
  0
MTEXT
  5
94
330
1F
100
AcDbEntity
  8
0
  6
CONTINUOUS
 62
     7
100
AcDbMText
 10
1404.6612035267
 20
187.4282814573
 30
0.0
 40
50.0
 41
0.0
 71
     1
 72
     1
  1
3213000
  7
SLDTEXTSTYLE0
  0
MTEXT
  5
95
330
1F
100
AcDbEntity
  8
0
  6
CONTINUOUS
 62
     7
100
AcDbMText
 10
1368.4246549826
 20
598.8729230486
 30
0.0
 40
30.0
 41
0.0
 71
     1
 72
     1
  1
1:10
  7
SLDTEXTSTYLE0
  0
MTEXT
  5
96
330
1F
100
AcDbEntity
  8
0
  6
CONTINUOUS
 62
     7
100
AcDbMText
 10
1831.7270293839
 20
597.6546326072
 30
0.0
 40
30.0
 41
0.0
 71
     1
 72
     1
  1
0
  7
SLDTEXTSTYLE0
  0
MTEXT
  5
97
330
1F
100
AcDbEntity
  8
0
  6
CONTINUOUS
 62
     7
100
AcDbMText
 10
1957.1087262161
 20
184.2445624829
 30
0.0
 40
25.0
 41
0.0
 71
     1
 72
     1
  1
1
  7
SLDTEXTSTYLE0
  0
MTEXT
  5
98
330
1F
100
AcDbEntity
  8
0
  6
CONTINUOUS
 62
     7
100
AcDbMText
 10
1960.3948365819
 20
134.4197998008
 30
0.0
 40
25.0
 41
0.0
 71
     1
 72
     1
  1
1
  7
SLDTEXTSTYLE0
  0
MTEXT
  5
9A
330
1F
100
AcDbEntity
  8
0
  6
CONTINUOUS
 62
     7
100
AcDbMText
 10
750.2400926104
 20
477.2187744315
 30
0.0
 40
18.0
 41
0.0
 71
     1
 72
     1
  1
DIN ISO 2768-mK
  7
SLDTEXTSTYLE4
  0
MTEXT
  5
9B
330
1F
100
AcDbEntity
  8
0
  6
CONTINUOUS
 62
     7
100
AcDbMText
 10
881.6074585385
 20
183.4834663212
 30
0.0
 40
70.0
 41
0.0
 71
     1
 72
     1
  1
Alape
  7
SLDTEXTSTYLE0
  0
LINE
  5
9C
330
1F
100
AcDbEntity
  8
0
  6
CENTERX2
 62
     7
100
AcDbLine
 10
628.1106382979
 20
2455.7140361527
 30
0.0
 11
628.1106382979
 21
2698.5555401495
 31
0.0
  0
LINE
  5
9D
330
1F
100
AcDbEntity
  8
0
  6
CONTINUOUS
 62
     7
100
AcDbLine
 10
658.1106382979
 20
2555.0626679222
 30
0.0
 11
658.1106382979
 21
2557.0626679222
 31
0.0
  0
LINE
  5
9E
330
1F
100
AcDbEntity
  8
0
  6
CONTINUOUS
 62
     7
100
AcDbLine
 10
598.1106382979
 20
2557.0626679222
 30
0.0
 11
598.1106382979
 21
2555.0626679222
 31
0.0
  0
LINE
  5
9F
330
1F
100
AcDbEntity
  8
0
  6
CONTINUOUS
 62
     7
100
AcDbLine
 10
597.1106382979
 20
2555.0626679222
 30
0.0
 11
597.1106382979
 21
2554.0626679222
 31
0.0
  0
LINE
  5
A0
330
1F
100
AcDbEntity
  8
0
  6
CONTINUOUS
 62
     7
100
AcDbLine
 10
659.1106382979
 20
2554.0626679222
 30
0.0
 11
659.1106382979
 21
2555.0626679222
 31
0.0
  0
ARC
  5
A1
330
1F
100
AcDbEntity
  8
0
  6
CONTINUOUS
 62
     7
100
AcDbCircle
 10
663.1106382979
 20
2536.5626679222
 30
0.0
 40
0.5000000000001137
100
AcDbArc
 50
270.0
 51
0.0
  0
ARC
  5
A2
330
1F
100
AcDbEntity
  8
0
  6
CONTINUOUS
 62
     7
100
AcDbCircle
 10
593.1106382979
 20
2536.5626679222
 30
0.0
 40
0.5000000000001137
100
AcDbArc
 50
180.0
 51
270.0
  0
ARC
  5
A3
330
1F
100
AcDbEntity
  8
0
  6
CONTINUOUS
 62
     7
100
AcDbCircle
 10
663.1106382979
 20
2553.5626679222
 30
0.0
 40
0.5000000000001137
100
AcDbArc
 50
0.0
 51
90.0
  0
ARC
  5
A4
330
1F
100
AcDbEntity
  8
0
  6
CONTINUOUS
 62
     7
100
AcDbCircle
 10
593.1106382979
 20
2553.5626679222
 30
0.0
 40
0.5000000000001137
100
AcDbArc
 50
90.0
 51
180.0
  0
LINE
  5
A5
330
1F
100
AcDbEntity
  8
0
  6
CONTINUOUS
 62
     7
100
AcDbLine
 10
663.6106382979
 20
2536.5626679222
 30
0.0
 11
663.6106382979
 21
2553.5626679222
 31
0.0
  0
LINE
  5
A6
330
1F
100
AcDbEntity
  8
0
  6
CONTINUOUS
 62
     7
100
AcDbLine
 10
592.6106382979
 20
2553.5626679222
 30
0.0
 11
592.6106382979
 21
2536.5626679222
 31
0.0
  0
LINE
  5
A7
330
1F
100
AcDbEntity
  8
0
  6
CONTINUOUS
 62
     7
100
AcDbLine
 10
649.0656382979
 20
2474.7932088271
 30
0.0
 11
649.0656382979
 21
2536.0626679222
 31
0.0
  0
LINE
  5
A8
330
1F
100
AcDbEntity
  8
0
  6
CONTINUOUS
 62
     7
100
AcDbLine
 10
607.1556382979
 20
2536.0626679222
 30
0.0
 11
607.1556382979
 21
2474.7932088271
 31
0.0
  0
LINE
  5
A9
330
1F
100
AcDbEntity
  8
0
  6
CONTINUOUS
 62
     7
100
AcDbLine
 10
647.5856382979
 20
2473.7932088271
 30
0.0
 11
647.5856382979
 21
2474.7932088271
 31
0.0
  0
LINE
  5
AA
330
1F
100
AcDbEntity
  8
0
  6
CONTINUOUS
 62
     7
100
AcDbLine
 10
608.6356382979
 20
2474.7932088271
 30
0.0
 11
608.6356382979
 21
2473.7932088271
 31
0.0
  0
LINE
  5
AB
330
1F
100
AcDbEntity
  8
0
  6
CONTINUOUS
 62
     7
100
AcDbLine
 10
448.5034296353
 20
2575.9684636186
 30
0.0
 11
458.6106382979
 21
2575.2447107605
 31
0.0
  0
LINE
  5
AC
330
1F
100
AcDbEntity
  8
0
  6
CONTINUOUS
 62
     7
100
AcDbLine
 10
588.1533642523
 20
2565.9684683005
 30
0.0
 11
588.2830553371
 21
2565.9591814344
 31
0.0
  0
LINE
  5
AD
330
1F
100
AcDbEntity
  8
0
  6
CONTINUOUS
 62
     7
100
AcDbLine
 10
667.9382212586
 20
2565.9591814344
 30
0.0
 11
668.0679123435
 21
2565.9684683005
 31
0.0
  0
LINE
  5
AE
330
1F
100
AcDbEntity
  8
0
  6
CONTINUOUS
 62
     7
100
AcDbLine
 10
797.6106382979
 20
2575.2447107605
 30
0.0
 11
807.7178469604
 21
2575.9684636186
 31
0.0
  0
ARC
  5
AF
330
1F
100
AcDbEntity
  8
0
  6
CONTINUOUS
 62
     7
100
AcDbCircle
 10
587.2234505057
 20
2557.1190422466
 30
0.0
 40
8.910000000000249
100
AcDbArc
 50
52.1480946784
 51
83.3152054855
  0
ARC
  5
B0
330
1F
100
AcDbEntity
  8
0
  6
CONTINUOUS
 62
     7
100
AcDbCircle
 10
668.9978260901
 20
2557.1190422466
 30
0.0
 40
8.910000000000307
100
AcDbArc
 50
96.6847945145
 51
127.8519053216
  0
LINE
  5
B1
330
1F
100
AcDbEntity
  8
0
  6
CONTINUOUS
 62
     7
100
AcDbLine
 10
592.6908280347
 20
2564.1543732946
 30
0.0
 11
600.4289025881
 21
2558.1408716352
 31
0.0
  0
LINE
  5
B2
330
1F
100
AcDbEntity
  8
0
  6
CONTINUOUS
 62
     7
100
AcDbLine
 10
655.7923740077
 20
2558.1408716352
 30
0.0
 11
663.530448561
 21
2564.1543732946
 31
0.0
  0
ARC
  5
B3
330
1F
100
AcDbEntity
  8
0
  6
CONTINUOUS
 62
     7
100
AcDbCircle
 10
604.1106382979
 20
2562.8784683005
 30
0.0
 40
5.999999999999626
100
AcDbArc
 50
232.1480946784
 51
255.7661053653
  0
ARC
  5
B4
330
1F
100
AcDbEntity
  8
0
  6
CONTINUOUS
 62
     7
100
AcDbCircle
 10
652.1106382979
 20
2562.8784683005
 30
0.0
 40
5.999999999999598
100
AcDbArc
 50
284.2338946347
 51
307.8519053216
  0
LINE
  5
B5
330
1F
100
AcDbEntity
  8
0
  6
CONTINUOUS
 62
     7
100
AcDbLine
 10
458.6106382979
 20
2565.9684683005
 30
0.0
 11
797.6106382979
 21
2565.9684683005
 31
0.0
  0
LINE
  5
B6
330
1F
100
AcDbEntity
  8
0
  6
CONTINUOUS
 62
     7
100
AcDbLine
 10
458.6106382979
 20
2575.6649680175
 30
0.0
 11
458.6106382979
 21
2565.9684683005
 31
0.0
  0
LINE
  5
B7
330
1F
100
AcDbEntity
  8
0
  6
CONTINUOUS
 62
     7
100
AcDbLine
 10
797.6106382979
 20
2575.6649680175
 30
0.0
 11
797.6106382979
 21
2565.9684683005
 31
0.0
  0
LINE
  5
B8
330
1F
100
AcDbEntity
  8
0
  6
CONTINUOUS
 62
     7
100
AcDbLine
 10
658.1106382979
 20
2557.0626679222
 30
0.0
 11
598.1106382979
 21
2557.0626679222
 31
0.0
  0
LINE
  5
B9
330
1F
100
AcDbEntity
  8
0
  6
CONTINUOUS
 62
     7
100
AcDbLine
 10
654.9277618706
 20
2555.0626679222
 30
0.0
 11
597.1106382979
 21
2555.0626679222
 31
0.0
  0
LINE
  5
BA
330
1F
100
AcDbEntity
  8
0
  6
CONTINUOUS
 62
     7
100
AcDbLine
 10
659.1106382979
 20
2555.0626679222
 30
0.0
 11
654.9277618706
 21
2555.0626679222
 31
0.0
  0
SPLINE
  5
BB
330
1F
100
AcDbEntity
  8
0
  6
CONTINUOUS
 62
     7
100
AcDbSpline
210
0.0
220
0.0
230
1.0
 70
    24
 71
     3
 72
    13
 73
     9
 74
     0
 42
0.00000001
 43
0.00000001
 40
0.0
 40
0.0
 40
0.0
 40
0.0
 40
0.0612198777271701
 40
0.2250641695306346
 40
0.3888840555049822
 40
0.5984598133956643
 40
0.8022900144693135
 40
1.0
 40
1.0
 40
1.0
 40
1.0
 10
593.1536704110941
 20
2536.062667922203
 30
0.0
 10
593.1423029703712
 20
2536.062667922203
 30
0.0
 10
593.1005125633834
 20
2536.062667922203
 30
0.0
 10
593.4024033578569
 20
2536.062667922203
 30
0.0
 10
594.1104572873693
 20
2536.062667922203
 30
0.0
 10
595.370968690414
 20
2536.062667922203
 30
0.0
 10
597.189148550727
 20
2536.062667922203
 30
0.0
 10
598.777588869579
 20
2536.062667922203
 30
0.0
 10
599.559703643974
 20
2536.062667922203
 30
0.0
  0
SPLINE
  5
BC
330
1F
100
AcDbEntity
  8
0
  6
CONTINUOUS
 62
     7
100
AcDbSpline
210
0.0
220
0.0
230
1.0
 70
    24
 71
     3
 72
    30
 73
    26
 74
     0
 42
0.00000001
 43
0.00000001
 40
0.0
 40
0.0
 40
0.0
 40
0.0
 40
0.0482992407774712
 40
0.0980934699448809
 40
0.149283319126642
 40
0.189307175704641
 40
0.2293250704290916
 40
0.2702005611111356
 40
0.3110699630797792
 40
0.3519454535879215
 40
0.3928148553822635
 40
0.4328387114800314
 40
0.4728566057248756
 40
0.5240517366809408
 40
0.5738460351365564
 40
0.6221399260719572
 40
0.67043916684923
 40
0.7202333960152602
 40
0.7714232451985878
 40
0.8114471017747783
 40
0.8514649965010505
 40
0.8923404871828251
 40
0.9332098891517411
 40
0.9740853796593382
 40
1.0
 40
1.0
 40
1.0
 40
1.0
 10
599.559703643974
 20
2536.062667922203
 30
0.0
 10
600.4236302385094
 20
2536.062667922203
 30
0.0
 10
602.1782242253194
 20
2536.062667922203
 30
0.0
 10
605.3691803867197
 20
2536.062667922203
 30
0.0
 10
608.6982918310291
 20
2536.062667922203
 30
0.0
 10
612.0447816163069
 20
2536.062667922203
 30
0.0
 10
615.292977182797
 20
2536.062667922203
 30
0.0
 10
618.6976086611279
 20
2536.062667922203
 30
0.0
 10
622.226999394696
 20
2536.062667922203
 30
0.0
 10
625.8183459796971
 20
2536.062667922203
 30
0.0
 10
629.4093338791693
 20
2536.062667922203
 30
0.0
 10
632.9613566535577
 20
2536.062667922203
 30
0.0
 10
636.7619493084806
 20
2536.062667922203
 30
0.0
 10
640.7341019493703
 20
2536.062667922203
 30
0.0
 10
644.7357128746277
 20
2536.062667922203
 30
0.0
 10
648.4055369053966
 20
2536.062667922203
 30
0.0
 10
651.7712729174308
 20
2536.062667922203
 30
0.0
 10
654.8364246250284
 20
2536.062667922203
 30
0.0
 10
657.3275529841096
 20
2536.062667922203
 30
0.0
 10
659.2735228685616
 20
2536.062667922203
 30
0.0
 10
660.7434249231034
 20
2536.062667922203
 30
0.0
 10
661.8892212499692
 20
2536.062667922203
 30
0.0
 10
662.6655350368328
 20
2536.062667922203
 30
0.0
 10
663.0773684993467
 20
2536.062667922203
 30
0.0
 10
663.0703351357591
 20
2536.062667922203
 30
0.0
 10
663.0676061846501
 20
2536.062667922203
 30
0.0
  0
SPLINE
  5
BD
330
1F
100
AcDbEntity
  8
0
  6
CONTINUOUS
 62
     7
100
AcDbSpline
210
0.0
220
0.0
230
1.0
 70
    24
 71
     3
 72
    13
 73
     9
 74
     0
 42
0.00000001
 43
0.00000001
 40
0.0
 40
0.0
 40
0.0
 40
0.0
 40
0.1977099855379158
 40
0.4015401866181662
 40
0.6111159445115136
 40
0.77493583048919
 40
0.9387801222981302
 40
0.9999999999999999
 40
0.9999999999999999
 40
0.9999999999999999
 40
0.9999999999999999
 10
599.5597036786266
 20
2554.062667922203
 30
0.0
 10
598.7775889051709
 20
2554.062667922203
 30
0.0
 10
597.1891485882301
 20
2554.062667922203
 30
0.0
 10
595.3709687301484
 20
2554.062667922203
 30
0.0
 10
594.1104573286266
 20
2554.062667922203
 30
0.0
 10
593.402403400001
 20
2554.062667922203
 30
0.0
 10
593.1005126058861
 20
2554.062667922203
 30
0.0
 10
593.1423030128099
 20
2554.062667922203
 30
0.0
 10
593.1536704535115
 20
2554.062667922203
 30
0.0
  0
SPLINE
  5
BE
330
1F
100
AcDbEntity
  8
0
  6
CONTINUOUS
 62
     7
100
AcDbSpline
210
0.0
220
0.0
230
1.0
 70
    24
 71
     3
 72
    30
 73
    26
 74
     0
 42
0.00000001
 43
0.00000001
 40
0.0
 40
0.0
 40
0.0
 40
0.0
 40
0.0259146203471466
 40
0.0667901108544119
 40
0.1076595128233522
 40
0.1485350035045571
 40
0.1885528982307934
 40
0.228576754806498
 40
0.2797666039905611
 40
0.329560833156503
 40
0.3778600739321473
 40
0.4261539648682028
 40
0.4759482633238439
 40
0.5271433942782484
 40
0.5671612885237536
 40
0.6071851446203211
 40
0.6480545464142796
 40
0.6889300369222681
 40
0.7297994388904854
 40
0.7706749295724155
 40
0.8106928242970715
 40
0.8507166808743456
 40
0.9019065300568923
 40
0.9517007592234187
 40
1.0
 40
1.0
 40
1.0
 40
1.0
 10
663.0676061422329
 20
2554.062667922203
 30
0.0
 10
663.0703350933437
 20
2554.062667922203
 30
0.0
 10
663.0773684569341
 20
2554.062667922203
 30
0.0
 10
662.6655349948932
 20
2554.062667922203
 30
0.0
 10
661.8892212089606
 20
2554.062667922203
 30
0.0
 10
660.7434248834909
 20
2554.062667922203
 30
0.0
 10
659.273522830743
 20
2554.062667922203
 30
0.0
 10
657.3275529486243
 20
2554.062667922203
 30
0.0
 10
654.836424592558
 20
2554.062667922203
 30
0.0
 10
651.7712728886526
 20
2554.062667922203
 30
0.0
 10
648.4055368807111
 20
2554.062667922203
 30
0.0
 10
644.7357128543911
 20
2554.062667922203
 30
0.0
 10
640.7341019339848
 20
2554.062667922203
 30
0.0
 10
636.7619492979171
 20
2554.062667922203
 30
0.0
 10
632.9613566476405
 20
2554.062667922203
 30
0.0
 10
629.4093338775695
 20
2554.062667922203
 30
0.0
 10
625.8183459824826
 20
2554.062667922203
 30
0.0
 10
622.226999401845
 20
2554.062667922203
 30
0.0
 10
618.6976086725574
 20
2554.062667922203
 30
0.0
 10
615.2929771983463
 20
2554.062667922203
 30
0.0
 10
612.0447816357882
 20
2554.062667922203
 30
0.0
 10
608.698291854554
 20
2554.062667922203
 30
0.0
 10
605.3691804142761
 20
2554.062667922203
 30
0.0
 10
602.1782242567707
 20
2554.062667922203
 30
0.0
 10
600.4236302721056
 20
2554.062667922203
 30
0.0
 10
599.5597036786266
 20
2554.062667922203
 30
0.0
  0
LINE
  5
BF
330
1F
100
AcDbEntity
  8
0
  6
CONTINUOUS
 62
     7
100
AcDbLine
 10
607.1556382979
 20
2474.7932088271
 30
0.0
 11
649.0656382979
 21
2474.7932088271
 31
0.0
  0
LINE
  5
C0
330
1F
100
AcDbEntity
  8
0
  6
CONTINUOUS
 62
     7
100
AcDbLine
 10
608.6356382979
 20
2473.7932088271
 30
0.0
 11
647.5856382979
 21
2473.7932088271
 31
0.0
  0
LINE
  5
C1
330
1F
100
AcDbEntity
  8
0
  6
CONTINUOUS
 62
     7
100
AcDbLine
 10
444.1409683838
 20
2675.9684683005
 30
0.0
 11
812.080308212
 21
2675.9684683005
 31
0.0
  0
LINE
  5
C2
330
1F
100
AcDbEntity
  8
0
  6
CONTINUOUS
 62
     7
100
AcDbLine
 10
812.080308212
 20
2675.9684683005
 30
0.0
 11
812.080308212
 21
2580.9684683005
 31
0.0
  0
LINE
  5
C3
330
1F
100
AcDbEntity
  8
0
  6
CONTINUOUS
 62
     7
100
AcDbLine
 10
444.1409683838
 20
2580.9684683005
 30
0.0
 11
812.080308212
 21
2580.9684683005
 31
0.0
  0
LINE
  5
C4
330
1F
100
AcDbEntity
  8
0
  6
CONTINUOUS
 62
     7
100
AcDbLine
 10
444.1409683838
 20
2580.9684683005
 30
0.0
 11
444.1409683838
 21
2675.9684683005
 31
0.0
  0
SPLINE
  5
C5
330
1F
100
AcDbEntity
  8
0
  6
CONTINUOUS
 62
     7
100
AcDbSpline
210
0.0
220
0.0
230
1.0
 70
     8
 71
     3
 72
    14
 73
    10
 74
     0
 42
0.00000001
 43
0.00000001
 40
0.0
 40
0.0
 40
0.0
 40
0.0
 40
0.25
 40
0.25
 40
0.5
 40
0.5
 40
0.75
 40
0.75
 40
1.0
 40
1.0
 40
1.0
 40
1.0
 10
812.0803082119824
 20
2580.968468300508
 30
0.0
 10
811.9578143847175
 20
2580.313855818905
 30
0.0
 10
811.8353632262973
 20
2579.659728878712
 30
0.0
 10
811.5904182406123
 20
2578.450373398653
 30
0.0
 10
811.4679457477697
 20
2577.895734700634
 30
0.0
 10
811.2230007620848
 20
2576.970134088517
 30
0.0
 10
811.1005282692422
 20
2576.599536358737
 30
0.0
 10
810.8555832835572
 20
2576.098604917167
 30
0.0
 10
810.7331321251371
 20
2575.968468300508
 30
0.0
 10
810.6106382978721
 20
2575.968468300508
 30
0.0
  0
LINE
  5
C6
330
1F
100
AcDbEntity
  8
0
  6
CONTINUOUS
 62
     7
100
AcDbLine
 10
445.6106382979
 20
2575.9684683005
 30
0.0
 11
810.6106382979
 21
2575.9684683005
 31
0.0
  0
SPLINE
  5
C7
330
1F
100
AcDbEntity
  8
0
  6
CONTINUOUS
 62
     7
100
AcDbSpline
210
0.0
220
0.0
230
1.0
 70
     8
 71
     3
 72
    14
 73
    10
 74
     0
 42
0.00000001
 43
0.00000001
 40
0.0
 40
0.0
 40
0.0
 40
0.0
 40
0.25
 40
0.25
 40
0.5
 40
0.5
 40
0.75
 40
0.75
 40
1.0
 40
1.0
 40
1.0
 40
1.0
 10
445.6106382978721
 20
2575.968468300508
 30
0.0
 10
445.4881444706072
 20
2575.968468300508
 30
0.0
 10
445.365693312187
 20
2576.098604917167
 30
0.0
 10
445.120748326502
 20
2576.599536358737
 30
0.0
 10
444.9982758336594
 20
2576.970134088517
 30
0.0
 10
444.7533308479746
 20
2577.895734700634
 30
0.0
 10
444.630858355132
 20
2578.450373398653
 30
0.0
 10
444.3859133694469
 20
2579.659728878712
 30
0.0
 10
444.2634622110268
 20
2580.313855818905
 30
0.0
 10
444.1409683837619
 20
2580.968468300508
 30
0.0
  0
SPLINE
  5
C8
330
1F
100
AcDbEntity
  8
0
  6
CONTINUOUS
 62
     7
100
AcDbSpline
210
0.0
220
0.0
230
1.0
 70
     8
 71
     3
 72
    10
 73
     6
 74
     0
 42
0.00000001
 43
0.00000001
 40
0.0
 40
0.0
 40
0.0
 40
0.0
 40
0.1603976954645364
 40
0.5801988477322652
 40
1.0
 40
1.0
 40
1.0
 40
1.0
 10
811.7769404039533
 20
2579.388605598945
 30
0.0
 10
811.862383558504
 20
2579.440218622777
 30
0.0
 10
812.1714529604878
 20
2579.626915924556
 30
0.0
 10
812.5143076528468
 20
2580.192483653379
 30
0.0
 10
812.5785280828637
 20
2580.709806751465
 30
0.0
 10
812.6106382978722
 20
2580.968468300508
 30
0.0
  0
SPLINE
  5
C9
330
1F
100
AcDbEntity
  8
0
  6
CONTINUOUS
 62
     7
100
AcDbSpline
210
0.0
220
0.0
230
1.0
 70
    24
 71
     3
 72
     8
 73
     4
 74
     0
 42
0.00000001
 43
0.00000001
 40
0.0
 40
0.0
 40
0.0
 40
0.0
 40
1.0
 40
1.0
 40
1.0
 40
1.0
 10
812.6106382978722
 20
2580.968468300508
 30
0.0
 10
813.6106382978722
 20
2580.968468300508
 30
0.0
 10
814.6106382978721
 20
2580.968468300508
 30
0.0
 10
815.610638297872
 20
2580.968468300508
 30
0.0
  0
SPLINE
  5
CA
330
1F
100
AcDbEntity
  8
0
  6
CONTINUOUS
 62
     7
100
AcDbSpline
210
0.0
220
0.0
230
1.0
 70
     8
 71
     3
 72
    14
 73
    10
 74
     0
 42
0.00000001
 43
0.00000001
 40
0.0
 40
0.0
 40
0.0
 40
0.0
 40
0.25
 40
0.25
 40
0.5
 40
0.5
 40
0.75
 40
0.75
 40
1.0
 40
1.0
 40
1.0
 40
1.0
 10
810.6106382978721
 20
2575.968468300508
 30
0.0
 10
811.2652507794754
 20
2575.968468300508
 30
0.0
 10
811.9193777196685
 20
2576.098604917167
 30
0.0
 10
813.1287331997266
 20
2576.599536358737
 30
0.0
 10
813.6833718977468
 20
2576.970134088517
 30
0.0
 10
814.6089725098631
 20
2577.895734700634
 30
0.0
 10
814.9795702396434
 20
2578.450373398653
 30
0.0
 10
815.4805016812137
 20
2579.659728878712
 30
0.0
 10
815.6106382978721
 20
2580.313855818905
 30
0.0
 10
815.6106382978721
 20
2580.968468300508
 30
0.0
  0
LINE
  5
CB
330
1F
100
AcDbEntity
  8
0
  6
CONTINUOUS
 62
     7
100
AcDbLine
 10
812.6106382979
 20
2580.9684683005
 30
0.0
 11
812.6106382979
 21
2675.9684683005
 31
0.0
  0
LINE
  5
CC
330
1F
100
AcDbEntity
  8
0
  6
CONTINUOUS
 62
     7
100
AcDbLine
 10
812.6106382979
 20
2675.9684683005
 30
0.0
 11
815.6106382979
 21
2675.9684683005
 31
0.0
  0
LINE
  5
CD
330
1F
100
AcDbEntity
  8
0
  6
CONTINUOUS
 62
     7
100
AcDbLine
 10
815.6106382979
 20
2580.9684683005
 30
0.0
 11
815.6106382979
 21
2675.9684683005
 31
0.0
  0
SPLINE
  5
CE
330
1F
100
AcDbEntity
  8
0
  6
CONTINUOUS
 62
     7
100
AcDbSpline
210
0.0
220
0.0
230
1.0
 70
     8
 71
     3
 72
    14
 73
    10
 74
     0
 42
0.00000001
 43
0.00000001
 40
0.0
 40
0.0
 40
0.0
 40
0.0
 40
0.25
 40
0.25
 40
0.5
 40
0.5
 40
0.75
 40
0.75
 40
1.0
 40
1.0
 40
1.0
 40
1.0
 10
440.6106382978721
 20
2580.968468300508
 30
0.0
 10
440.6106382978721
 20
2580.313855818905
 30
0.0
 10
440.7407749145305
 20
2579.659728878712
 30
0.0
 10
441.2417063561008
 20
2578.450373398653
 30
0.0
 10
441.6123040858812
 20
2577.895734700634
 30
0.0
 10
442.5379046979975
 20
2576.970134088517
 30
0.0
 10
443.0925433960176
 20
2576.599536358737
 30
0.0
 10
444.3018988760757
 20
2576.098604917167
 30
0.0
 10
444.9560258162687
 20
2575.968468300508
 30
0.0
 10
445.6106382978721
 20
2575.968468300508
 30
0.0
  0
SPLINE
  5
CF
330
1F
100
AcDbEntity
  8
0
  6
CONTINUOUS
 62
     7
100
AcDbSpline
210
0.0
220
0.0
230
1.0
 70
    24
 71
     3
 72
     8
 73
     4
 74
     0
 42
0.00000001
 43
0.00000001
 40
0.0
 40
0.0
 40
0.0
 40
0.0
 40
1.0
 40
1.0
 40
1.0
 40
1.0
 10
443.610638297872
 20
2580.968468300508
 30
0.0
 10
442.6106382978721
 20
2580.968468300508
 30
0.0
 10
441.6106382978721
 20
2580.968468300508
 30
0.0
 10
440.6106382978721
 20
2580.968468300508
 30
0.0
  0
SPLINE
  5
D0
330
1F
100
AcDbEntity
  8
0
  6
CONTINUOUS
 62
     7
100
AcDbSpline
210
0.0
220
0.0
230
1.0
 70
     8
 71
     3
 72
    10
 73
     6
 74
     0
 42
0.00000001
 43
0.00000001
 40
0.0
 40
0.0
 40
0.0
 40
0.0
 40
0.4198011522677362
 40
0.8396023045354739
 40
0.9999999999999999
 40
0.9999999999999999
 40
0.9999999999999999
 40
0.9999999999999999
 10
443.610638297872
 20
2580.968468300508
 30
0.0
 10
443.6427485128805
 20
2580.709806751465
 30
0.0
 10
443.7069689428974
 20
2580.192483653379
 30
0.0
 10
444.0498236352564
 20
2579.626915924556
 30
0.0
 10
444.3588930372403
 20
2579.440218622777
 30
0.0
 10
444.4443361917909
 20
2579.388605598945
 30
0.0
  0
LINE
  5
D1
330
1F
100
AcDbEntity
  8
0
  6
CONTINUOUS
 62
     7
100
AcDbLine
 10
440.6106382979
 20
2675.9684683005
 30
0.0
 11
440.6106382979
 21
2580.9684683005
 31
0.0
  0
LINE
  5
D2
330
1F
100
AcDbEntity
  8
0
  6
CONTINUOUS
 62
     7
100
AcDbLine
 10
443.6106382979
 20
2675.9684683005
 30
0.0
 11
440.6106382979
 21
2675.9684683005
 31
0.0
  0
LINE
  5
D3
330
1F
100
AcDbEntity
  8
0
  6
CONTINUOUS
 62
     7
100
AcDbLine
 10
443.6106382979
 20
2675.9684683005
 30
0.0
 11
443.6106382979
 21
2580.9684683005
 31
0.0
  0
SPLINE
  5
D4
330
1F
100
AcDbEntity
  8
0
  6
CONTINUOUS
 62
     7
100
AcDbSpline
210
0.0
220
0.0
230
1.0
 70
    24
 71
     1
 72
     4
 73
     2
 74
     0
 42
0.00000001
 43
0.00000001
 40
0.0
 40
0.0
 40
1.0
 40
1.0
 10
807.7031360914762
 20
2575.968468300508
 30
0.0
 10
797.610638297872
 20
2575.345568065586
 30
0.0
  0
SPLINE
  5
D5
330
1F
100
AcDbEntity
  8
0
  6
CONTINUOUS
 62
     7
100
AcDbSpline
210
0.0
220
0.0
230
1.0
 70
    24
 71
     1
 72
     4
 73
     2
 74
     0
 42
0.00000001
 43
0.00000001
 40
0.0
 40
0.0
 40
1.0
 40
1.0
 10
448.518140504268
 20
2575.968468300508
 30
0.0
 10
458.6106382978721
 20
2575.345568065586
 30
0.0
  0
LINE
  5
D6
330
1F
100
AcDbEntity
  8
0
  6
CONTINUOUS
 62
     7
100
AcDbLine
 10
592.6106382979
 20
2536.5626679222
 30
0.0
 11
663.6106382979
 21
2536.5626679222
 31
0.0
  0
LINE
  5
D7
330
1F
100
AcDbEntity
  8
0
  6
CONTINUOUS
 62
     7
100
AcDbLine
 10
663.6106382979
 20
2553.5626679222
 30
0.0
 11
592.6106382979
 21
2553.5626679222
 31
0.0
  0
LINE
  5
D8
330
1F
100
AcDbEntity
  8
0
  6
CONTINUOUS
 62
     7
100
AcDbLine
 10
628.1106382979
 20
2564.1543732946
 30
0.0
 11
663.530448561
 21
2564.1543732946
 31
0.0
  0
LINE
  5
D9
330
1F
100
AcDbEntity
  8
0
  6
CONTINUOUS
 62
     7
100
AcDbLine
 10
592.6908280347
 20
2564.1543732946
 30
0.0
 11
628.1106382979
 21
2564.1543732946
 31
0.0
  0
LINE
  5
DA
330
1F
100
AcDbEntity
  8
0
  6
CONTINUOUS
 62
     7
100
AcDbLine
 10
628.1106382979
 20
2558.1408716352
 30
0.0
 11
655.7923740077
 21
2558.1408716352
 31
0.0
  0
LINE
  5
DB
330
1F
100
AcDbEntity
  8
0
  6
CONTINUOUS
 62
     7
100
AcDbLine
 10
600.4289025881
 20
2558.1408716352
 30
0.0
 11
628.1106382979
 21
2558.1408716352
 31
0.0
  0
DIMENSION
  5
DC
330
1F
100
AcDbEntity
  8
0
  6
CONTINUOUS
 62
     7
100
AcDbDimension
  2
*D3
 10
440.6106382979
 20
2742.3375586929
 30
0.0
 11
539.6361694309
 21
2742.3375586929
 31
0.0
 70
   160
  3
SLDDIMSTYLE0
100
AcDbAlignedDimension
 13
628.1106382979
 23
2698.5555401495
 33
0.0
 14
440.6106382979
 24
2675.9684683005
 34
0.0
100
AcDbRotatedDimension
  0
DIMENSION
  5
E7
330
1F
100
AcDbEntity
  8
0
  6
CONTINUOUS
 62
     7
100
AcDbDimension
  2
*D4
 10
915.6181632979
 20
2575.9684683005
 30
0.0
 11
915.6181632979
 21
2631.0968516981
 31
0.0
 70
   160
  3
SLDDIMSTYLE1
100
AcDbAlignedDimension
 13
812.080308212
 23
2675.9684683005
 33
0.0
 14
810.6106382979
 24
2575.9684683005
 34
0.0
 50
90.0
100
AcDbRotatedDimension
  0
DIMENSION
  5
F2
330
1F
100
AcDbEntity
  8
0
  6
CONTINUOUS
 62
     7
100
AcDbDimension
  2
*D5
 10
915.6181632979
 20
2565.9684683005
 30
0.0
 11
915.6181632979
 21
2522.9304890732
 31
0.0
 70
   160
  3
SLDDIMSTYLE1
100
AcDbAlignedDimension
 13
797.6106382979
 23
2575.9684683005
 33
0.0
 14
797.6106382979
 24
2565.9684683005
 34
0.0
 50
90.0
100
AcDbRotatedDimension
  0
LWPOLYLINE
  5
FD
330
1F
100
AcDbEntity
  8
0
  6
CONTINUOUS
 62
     7
100
AcDbPolyline
 90
       65
 70
   128
 43
0.0
 10
1470.1552185724
 20
1001.0438431558
 10
1471.766890849
 20
1000.7481611673
 10
1474.8866756412
 20
1000.3236834471
 10
1478.0626166685
 20
1000.0810231101
 10
1481.2634758437
 20
1000.0224136281
 10
1484.4586665367
 20
1000.1483491907
 10
1487.617546701
 20
1000.4577098538
 10
1490.709909966
 20
1000.9477830701
 10
1493.7062553496
 20
1001.6143297368
 10
1496.577985277
 20
1002.4516560196
 10
1499.2976312695
 20
1003.4527048987
 10
1501.8390299568
 20
1004.609154041
 10
1504.177430939
 20
1005.9114928235
 10
1506.289524216
 20
1007.3490266523
 10
1508.1532353141
 20
1008.909565558
 10
1509.7476585832
 20
1010.5787236383
 10
1511.0540662093
 20
1012.3397160734
 10
1512.0566471576
 20
1014.1725902732
 10
1512.7441968851
 20
1016.0545337774
 10
1513.111552559
 20
1017.9617805174
 10
1513.159275159
 20
1019.8725347492
 10
1512.8912244331
 20
1021.7688362018
 10
1512.3128306839
 20
1023.6333606842
 10
1511.4293279868
 20
1025.4525352201
 10
1510.2463470497
 20
1027.2121207137
 10
1508.7724876029
 20
1028.8956368233
 10
1507.0209952549
 20
1030.485376061
 10
1505.0096857803
 20
1031.9641649573
 10
1502.7598266253
 20
1033.3165839418
 10
1500.2951770292
 20
1034.5292659262
 10
1497.6412016202
 20
1035.5908821663
 10
1494.8241776072
 20
1036.492085899
 10
1491.8715593721
 20
1037.2250593854
 10
1488.8118486586
 20
1037.7834781483
 10
1485.6744241709
 20
1038.1625277499
 10
1482.4893270732
 20
1038.358939835
 10
1479.2870115551
 20
1038.3710256256
 10
1476.098072552
 20
1038.1986943376
 10
1472.9531350296
 20
1037.8434746861
 10
1469.8822204929
 20
1037.3084693159
 10
1466.9146255641
 20
1036.5982916524
 10
1464.0786829025
 20
1035.7189882515
 10
1461.4015463006
 20
1034.6779440321
 10
1458.9090301453
 20
1033.4837863267
 10
1456.6255212426
 20
1032.1463200604
 10
1454.5739710531
 20
1030.6765539264
 10
1452.7762448456
 20
1029.0872149056
 10
1451.2527301993
 20
1027.3932135205
 10
1450.0215491033
 20
1025.6120968107
 10
1449.0975248047
 20
1023.7646231343
 10
1448.4904302658
 20
1021.8740897189
 10
1448.2038615646
 20
1019.9640415988
 10
1448.2361416345
 20
1018.0553922785
 10
1448.5829693726
 20
1016.1654657828
 10
1449.2387310515
 20
1014.3111345755
 10
1450.1983180709
 20
1012.5055480397
 10
1451.4555904977
 20
1010.7635042428
 10
1453.0008665837
 20
1009.1019464617
 10
1454.819680768
 20
1007.5386076244
 10
1456.8932268893
 20
1006.0902984585
 10
1459.199560823
 20
1004.7719098866
 10
1461.7143351592
 20
1003.5963332821
 10
1464.4119298316
 20
1002.5743273248
 10
1467.2657599785
 20
1001.714845664
 10
1470.1552185724
 20
1001.0438431558
  0
LINE
  5
FE
330
1F
100
AcDbEntity
  8
0
  6
CONTINUOUS
 62
     7
100
AcDbLine
 10
1471.8432596788
 20
1000.7377704292
 30
0.0
 11
1471.8432596788
 21
999.6369391419
 31
0.0
  0
ARC
  5
FF
330
1F
100
AcDbEntity
  8
0
  6
CONTINUOUS
 62
     7
100
AcDbCircle
 10
1473.1424917293
 20
999.1246217649
 30
0.0
 40
1.33550212647139
100
AcDbArc
 50
260.0720755325
 51
337.531107273
  0
LWPOLYLINE
  5
100
330
1F
100
AcDbEntity
  8
0
  6
CONTINUOUS
 62
     7
100
AcDbPolyline
 90
        6
 70
   128
 43
0.0
 10
1471.8432596788
 20
999.6369391419
 10
1471.8615688816
 20
999.2317381949
 10
1472.0121939995
 20
998.5709571997
 10
1472.3018643464
 20
998.1196786256
 10
1472.6792025002
 20
997.8582921488
 10
1472.9122388808
 20
997.809118228
  0
LINE
  5
101
330
1F
100
AcDbEntity
  8
0
  6
CONTINUOUS
 62
     7
100
AcDbLine
 10
1510.6947337253
 20
1010.677983161
 30
0.0
 11
1510.6581237117
 21
1011.2479947895
 31
0.0
  0
LINE
  5
102
330
1F
100
AcDbEntity
  8
0
  6
CONTINUOUS
 62
     7
100
AcDbLine
 10
1450.6993230968
 20
1011.2479947895
 30
0.0
 11
1450.6627130832
 21
1010.677983161
 31
0.0
  0
ARC
  5
103
330
1F
100
AcDbEntity
  8
0
  6
CONTINUOUS
 62
     7
100
AcDbCircle
 10
1480.5729385524
 20
1033.9297154204
 30
0.0
 40
36.71830974941407
100
AcDbArc
 50
259.076899175
 51
270.1650684351
  0
ARC
  5
104
330
1F
100
AcDbEntity
  8
0
  6
CONTINUOUS
 62
     7
100
AcDbCircle
 10
1476.3872348462
 20
1019.8243485648
 30
0.0
 40
22.04228563281256
100
AcDbArc
 50
226.6202688168
 51
259.2332858158
  0
LWPOLYLINE
  5
105
330
1F
100
AcDbEntity
  8
0
  6
CONTINUOUS
 62
     7
100
AcDbPolyline
 90
       13
 70
   128
 43
0.0
 10
1500.1043104869
 20
1003.7915270198
 10
1499.9918045947
 20
1003.6602911791
 10
1498.743447946
 20
1002.5313222015
 10
1497.2847985442
 20
1001.4810086804
 10
1495.6347148009
 20
1000.5234650421
 10
1493.8167064009
 20
999.6719425659
 10
1491.862229796
 20
998.9390297774
 10
1489.8165840619
 20
998.336201181
 10
1487.7593578394
 20
997.8742100762
 10
1485.7632557786
 20
997.5488254643
 10
1484.3023092054
 20
997.3817221834
 10
1482.7157216439
 20
997.2650850402
 10
1480.6787234043
 20
997.2115580535
  0
LINE
  5
106
330
1F
100
AcDbEntity
  8
0
  6
CONTINUOUS
 62
     7
100
AcDbLine
 10
1350.0764450529
 20
793.9717005324
 30
0.0
 11
1874.3745705519
 21
1096.6425658524
 31
0.0
  0
LINE
  5
107
330
1F
100
AcDbEntity
  8
0
  6
CONTINUOUS
 62
     7
100
AcDbLine
 10
1086.9828762566
 20
943.5660448857
 30
0.0
 11
1346.1159588106
 21
793.9717005324
 31
0.0
  0
LWPOLYLINE
  5
108
330
1F
100
AcDbEntity
  8
0
  6
CONTINUOUS
 62
     7
100
AcDbPolyline
 90
       60
 70
   128
 43
0.0
 10
1470.2975943409
 20
1002.739806847
 10
1473.536156098
 20
1002.2006357361
 10
1476.8556459967
 20
1001.8632435149
 10
1480.2184528901
 20
1001.731452972
 10
1483.5864748323
 20
1001.806757347
 10
1486.921550789
 20
1002.0883034113
 10
1490.1858930169
 20
1002.5729011354
 10
1493.3425152142
 20
1003.2550598334
 10
1496.3556515901
 20
1004.1270503747
 10
1499.1911621054
 20
1005.1789927582
 10
1501.8169192931
 20
1006.3989680561
 10
1504.203172275
 20
1007.773153461
 10
1506.3228838513
 20
1009.2859789031
 10
1508.1520368428
 20
1010.9203034656
 10
1509.6699062153
 20
1012.6576095983
 10
1510.8592939023
 20
1014.4782129284
 10
1511.7067236659
 20
1016.3614852927
 10
1512.2025937885
 20
1018.2860884628
 10
1512.3412858632
 20
1020.2302159158
 10
1512.1212284537
 20
1022.1718399108
 10
1511.5449148981
 20
1024.0889610721
 10
1510.6188750593
 20
1025.9598576508
 10
1509.3536013389
 20
1027.7633316413
 10
1507.7634297936
 20
1029.4789489625
 10
1505.8663777023
 20
1031.0872709847
 10
1503.6839394234
 20
1032.5700747767
 10
1501.2408428546
 20
1033.910559579
 10
1498.5647692562
 20
1035.0935371633
 10
1495.6860396114
 20
1036.1056039207
 10
1492.6372710773
 20
1036.9352927305
 10
1489.4530074197
 20
1037.573202887
 10
1486.1693276182
 20
1038.0121066132
 10
1482.8234370771
 20
1038.2470309546
 10
1479.453246073
 20
1038.2753141243
 10
1476.0969402167
 20
1038.0966356629
 10
1472.7925477948
 20
1037.7130200687
 10
1469.5775088937
 20
1037.1288138597
 10
1466.4882511888
 20
1036.3506363257
 10
1463.5597772043
 20
1035.3873045289
 10
1460.8252677207
 20
1034.2497334038
 10
1458.3157058229
 20
1032.9508120855
 10
1456.0595258502
 20
1031.5052578718
 10
1454.0822912231
 20
1029.9294494694
 10
1452.4064048001
 20
1028.2412414173
 10
1451.0508550438
 20
1026.4597617871
 10
1450.0310008748
 20
1024.6051954551
 10
1449.3583976482
 20
1022.6985553987
 10
1449.0406662274
 20
1020.7614446116
 10
1449.0814066364
 20
1018.8158113332
 10
1449.48015727
 20
1016.8837003658
 10
1450.2324001242
 20
1014.9870032988
 10
1451.3296119869
 20
1013.1472104678
 10
1452.7593610093
 20
1011.3851674608
 10
1454.5054475636
 20
1009.7208389291
 10
1456.5480877915
 20
1008.17308238
 10
1458.864137763
 20
1006.7594345136
 10
1461.4273557065
 20
1005.4959125251
 10
1464.2086993384
 20
1004.3968326236
 10
1467.1766549241
 20
1003.4746478235
 10
1470.2975943409
 20
1002.739806847
  0
ARC
  5
109
330
1F
100
AcDbEntity
  8
0
  6
CONTINUOUS
 62
     7
100
AcDbCircle
 10
1472.860577931
 20
1000.3099347838
 30
0.0
 40
1.266325881869476
100
AcDbArc
 50
254.1827703622
 51
317.0850936513
  0
LINE
  5
10A
330
1F
100
AcDbEntity
  8
0
  6
CONTINUOUS
 62
     7
100
AcDbLine
 10
1474.4511679281
 20
998.9179263969
 30
0.0
 11
1474.4511679281
 21
998.1012790636
 31
0.0
  0
LWPOLYLINE
  5
10B
330
1F
100
AcDbEntity
  8
0
  6
CONTINUOUS
 62
     7
100
AcDbPolyline
 90
        9
 70
   128
 43
0.0
 10
1473.7879916661
 20
999.4476790194
 10
1473.8007738008
 20
999.1480577841
 10
1473.8386218487
 20
998.9026456041
 10
1473.9000601709
 20
998.7210107337
 10
1473.9826933791
 20
998.6102348449
 10
1474.0832997279
 20
998.5746369241
 10
1474.1979567263
 20
998.6156048811
 10
1474.3221940691
 20
998.7315414364
 10
1474.4511679281
 20
998.9179263969
  0
LINE
  5
10C
330
1F
100
AcDbEntity
  8
0
  6
CONTINUOUS
 62
     7
100
AcDbLine
 10
1474.4511679281
 20
998.1012790636
 30
0.0
 11
1475.7475734323
 21
1000.2579058567
 31
0.0
  0
ARC
  5
10D
330
1F
100
AcDbEntity
  8
0
  6
CONTINUOUS
 62
     7
100
AcDbCircle
 10
1477.0261572711
 20
1021.2687423716
 30
0.0
 40
23.20427869713411
100
AcDbArc
 50
231.1398018929
 51
257.4065813988
  0
SPLINE
  5
10E
330
1F
100
AcDbEntity
  8
0
  6
CONTINUOUS
 62
     7
100
AcDbSpline
210
0.0
220
0.0
230
1.0
 70
     8
 71
     3
 72
     9
 73
     5
 74
     0
 42
0.00000001
 43
0.00000001
 40
0.0
 40
0.0
 40
0.0
 40
0.0
 40
0.7851932056086539
 40
1.0
 40
1.0
 40
1.0
 40
1.0
 10
1474.451167928093
 20
998.917926396912
 30
0.0
 10
1474.446463437698
 20
998.8246205664046
 30
0.0
 10
1474.440471930943
 20
998.7057888828894
 30
0.0
 10
1474.369739974723
 20
998.6178027015108
 30
0.0
 10
1474.354546269946
 20
998.5989026719382
 30
0.0
  0
LWPOLYLINE
  5
10F
330
1F
100
AcDbEntity
  8
0
  6
CONTINUOUS
 62
     7
100
AcDbPolyline
 90
       11
 70
   128
 43
0.0
 10
1474.4511679281
 20
998.1012790636
 10
1477.3227358277
 20
997.7286741823
 10
1480.2549180345
 20
997.5817171232
 10
1483.1947548193
 20
997.6630621574
 10
1486.0891481996
 20
997.9712400682
 10
1488.8858209708
 20
998.5006846875
 10
1491.534260913
 20
999.2418334298
 10
1493.9866331196
 20
1000.1813000066
 10
1496.1986439696
 20
1001.3021162039
 10
1498.1303411384
 20
1002.5840383539
 10
1499.0457205887
 20
1003.3363958943
  0
ARC
  5
110
330
1F
100
AcDbEntity
  8
0
  6
CONTINUOUS
 62
     7
100
AcDbCircle
 10
1484.2871317491
 20
1029.1372092945
 30
0.0
 40
35.97867652579216
100
AcDbArc
 50
285.6823019734
 51
299.3426798436
  0
LWPOLYLINE
  5
111
330
1F
100
AcDbEntity
  8
0
  6
CONTINUOUS
 62
     7
100
AcDbPolyline
 90
       13
 70
   128
 43
0.0
 10
1467.3451683997
 20
994.4978287141
 10
1465.8958440379
 20
994.9411664577
 10
1463.1555132718
 20
995.9523351147
 10
1460.6206261229
 20
997.1286161421
 10
1458.3209018254
 20
998.4562187202
 10
1456.2833025439
 20
999.9195779228
 10
1454.5317172671
 20
1001.5015372011
 10
1453.0866817308
 20
1003.183549529
 10
1451.9651376554
 20
1004.9458948498
 10
1451.1802341199
 20
1006.7679112759
 10
1450.7411734006
 20
1008.6282373307
 10
1450.6531030828
 20
1010.5050623921
 10
1450.6627130832
 20
1010.677983161
  0
LWPOLYLINE
  5
112
330
1F
100
AcDbEntity
  8
0
  6
CONTINUOUS
 62
     7
100
AcDbPolyline
 90
        9
 70
   128
 43
0.0
 10
1510.6947337253
 20
1010.677983161
 10
1510.7043437257
 20
1009.565961225
 10
1510.4403910979
 20
1007.6946412149
 10
1509.8275101277
 20
1005.8507657723
 10
1508.8728862841
 20
1004.0559526507
 10
1507.587711659
 20
1002.3312443931
 10
1505.9870537497
 20
1000.6968616269
 10
1504.0896788068
 20
999.1719659957
 10
1501.9178318165
 20
997.7744355065
  0
LWPOLYLINE
  5
113
330
1F
100
AcDbEntity
  8
0
  6
CONTINUOUS
 62
     7
100
AcDbPolyline
 90
       32
 70
   128
 43
0.0
 10
1510.6581237117
 20
1011.2479947895
 10
1510.667721991
 20
1010.1373291676
 10
1510.4040913016
 20
1008.2682915744
 10
1509.7919578519
 20
1006.4266650751
 10
1508.8384983467
 20
1004.6340410563
 10
1507.554891227
 20
1002.9114363959
 10
1505.9561856128
 20
1001.2790470583
 10
1504.0611248655
 20
999.7560113162
 10
1501.8919268399
 20
998.360185371
 10
1499.4740233993
 20
997.1079340057
 10
1496.8357622511
 20
996.0139387226
 10
1494.0080745949
 20
995.0910256163
 10
1491.0241124831
 20
994.350014999
 10
1487.9188601432
 20
993.7995945426
 10
1484.7287238199
 20
993.4462174239
 10
1481.4911049445
 20
993.2940266665
 10
1478.2439616384
 20
993.3448065677
 10
1475.0253636879
 20
993.5979617797
 10
1471.8730462111
 20
994.0505242891
 10
1468.8239672483
 20
994.6971882143
 10
1465.9138744626
 20
995.5303720119
 10
1463.176886031
 20
996.5403073638
 10
1460.6450906406
 20
997.7151537014
 10
1458.3481712774
 20
999.0411370254
 10
1456.3130572208
 20
1000.5027113938
 10
1454.5636083226
 20
1002.0827411835
 10
1453.1203352713
 20
1003.7627019897
 10
1452.0001591241
 20
1005.5228978081
 10
1451.216212922
 20
1007.3426919521
 10
1450.7776877174
 20
1009.200748999
 10
1450.6897248176
 20
1011.075284929
 10
1450.6993230968
 20
1011.2479947895
  0
LINE
  5
114
330
1F
100
AcDbEntity
  8
0
  6
CONTINUOUS
 62
     7
100
AcDbLine
 10
1350.5925222753
 20
873.5323084469
 30
0.0
 11
1875.9299674781
 21
1176.8031602609
 31
0.0
  0
LINE
  5
115
330
1F
100
AcDbEntity
  8
0
  6
CONTINUOUS
 62
     7
100
AcDbLine
 10
1875.9299674781
 20
1176.8031602609
 30
0.0
 11
1875.9299674781
 21
1099.2317831317
 31
0.0
  0
LINE
  5
116
330
1F
100
AcDbEntity
  8
0
  6
CONTINUOUS
 62
     7
100
AcDbLine
 10
1350.5925222753
 20
795.9609313178
 30
0.0
 11
1875.9299674781
 21
1099.2317831317
 31
0.0
  0
LINE
  5
117
330
1F
100
AcDbEntity
  8
0
  6
CONTINUOUS
 62
     7
100
AcDbLine
 10
1350.5925222753
 20
795.9609313178
 30
0.0
 11
1350.5925222753
 21
873.5323084469
 31
0.0
  0
LINE
  5
118
330
1F
100
AcDbEntity
  8
0
  6
CONTINUOUS
 62
     7
100
AcDbLine
 10
1348.4712019318
 20
797.1855434855
 30
0.0
 11
1348.4712019318
 21
874.7569206146
 31
0.0
  0
LINE
  5
119
330
1F
100
AcDbEntity
  8
0
  6
CONTINUOUS
 62
     7
100
AcDbLine
 10
1348.4712019318
 20
874.7569206146
 30
0.0
 11
1350.5925222753
 21
873.5323084469
 31
0.0
  0
SPLINE
  5
11A
330
1F
100
AcDbEntity
  8
0
  6
CONTINUOUS
 62
     7
100
AcDbSpline
210
0.0
220
0.0
230
1.0
 70
    24
 71
     3
 72
     8
 73
     4
 74
     0
 42
0.00000001
 43
0.00000001
 40
0.0
 40
0.0
 40
0.0
 40
0.0
 40
1.0
 40
1.0
 40
1.0
 40
1.0
 10
1348.471201931776
 20
797.185543485485
 30
0.0
 10
1349.178308712963
 20
796.7773394295737
 30
0.0
 10
1349.885415494149
 20
796.3691353736624
 30
0.0
 10
1350.592522275336
 20
795.9609313177509
 30
0.0
  0
LINE
  5
11B
330
1F
100
AcDbEntity
  8
0
  6
CONTINUOUS
 62
     7
100
AcDbLine
 10
1085.4274793304
 20
1023.7266392941
 30
0.0
 11
1345.5998815882
 21
873.5323084469
 31
0.0
  0
LINE
  5
11C
330
1F
100
AcDbEntity
  8
0
  6
CONTINUOUS
 62
     7
100
AcDbLine
 10
1345.5998815882
 20
873.5323084469
 30
0.0
 11
1345.5998815882
 21
795.9609313178
 31
0.0
  0
LINE
  5
11D
330
1F
100
AcDbEntity
  8
0
  6
CONTINUOUS
 62
     7
100
AcDbLine
 10
1085.4274793304
 20
946.155262165
 30
0.0
 11
1345.5998815882
 21
795.9609313178
 31
0.0
  0
LINE
  5
11E
330
1F
100
AcDbEntity
  8
0
  6
CONTINUOUS
 62
     7
100
AcDbLine
 10
1085.4274793304
 20
946.155262165
 30
0.0
 11
1085.4274793304
 21
1023.7266392941
 31
0.0
  0
LINE
  5
11F
330
1F
100
AcDbEntity
  8
0
  6
CONTINUOUS
 62
     7
100
AcDbLine
 10
1347.7212019318
 20
874.7569206146
 30
0.0
 11
1347.7212019318
 21
797.1855434855
 31
0.0
  0
SPLINE
  5
120
330
1F
100
AcDbEntity
  8
0
  6
CONTINUOUS
 62
     7
100
AcDbSpline
210
0.0
220
0.0
230
1.0
 70
    24
 71
     3
 72
     8
 73
     4
 74
     0
 42
0.00000001
 43
0.00000001
 40
0.0
 40
0.0
 40
0.0
 40
0.0
 40
1.0
 40
1.0
 40
1.0
 40
1.0
 10
1347.721201931776
 20
797.1855434854849
 30
0.0
 10
1347.01409515059
 20
796.7773394295737
 30
0.0
 10
1346.306988369403
 20
796.3691353736623
 30
0.0
 10
1345.599881588217
 20
795.9609313177509
 30
0.0
  0
LINE
  5
121
330
1F
100
AcDbEntity
  8
0
  6
CONTINUOUS
 62
     7
100
AcDbLine
 10
1347.7212019318
 20
874.7569206146
 30
0.0
 11
1345.5998815882
 21
873.5323084469
 31
0.0
  0
LINE
  5
122
330
1F
100
AcDbEntity
  8
0
  6
CONTINUOUS
 62
     7
100
AcDbLine
 10
1348.4712019318
 20
874.7569206146
 30
0.0
 11
1873.8086471346
 21
1178.0277724286
 31
0.0
  0
LINE
  5
123
330
1F
100
AcDbEntity
  8
0
  6
CONTINUOUS
 62
     7
100
AcDbLine
 10
1873.8086471346
 20
1178.0277724286
 30
0.0
 11
1875.9299674781
 21
1176.8031602609
 31
0.0
  0
LINE
  5
124
330
1F
100
AcDbEntity
  8
0
  6
CONTINUOUS
 62
     7
100
AcDbLine
 10
1087.5487996739
 20
1024.9512514619
 30
0.0
 11
1347.7212019318
 21
874.7569206146
 31
0.0
  0
LINE
  5
125
330
1F
100
AcDbEntity
  8
0
  6
CONTINUOUS
 62
     7
100
AcDbLine
 10
1087.5487996739
 20
1024.9512514619
 30
0.0
 11
1085.4274793304
 21
1023.7266392941
 31
0.0
  0
SPLINE
  5
126
330
1F
100
AcDbEntity
  8
0
  6
CONTINUOUS
 62
     7
100
AcDbSpline
210
0.0
220
0.0
230
1.0
 70
     8
 71
     3
 72
    10
 73
     6
 74
     0
 42
0.00000001
 43
0.00000001
 40
0.0
 40
0.0
 40
0.0
 40
0.0
 40
0.4999489370491055
 40
0.9998978740982113
 40
0.9999999999999999
 40
0.9999999999999999
 40
0.9999999999999999
 40
0.9999999999999999
 10
1875.929967478128
 20
1099.231783131734
 30
0.0
 10
1875.7828965317
 20
1098.694174847705
 30
0.0
 10
1875.488754638844
 20
1097.618958279646
 30
0.0
 10
1874.843678686821
 20
1096.766949748173
 30
0.0
 10
1874.374635210732
 20
1096.642663016201
 30
0.0
 10
1874.374539417539
 20
1096.642637633004
 30
0.0
  0
SPLINE
  5
127
330
1F
100
AcDbEntity
  8
0
  6
CONTINUOUS
 62
     7
100
AcDbSpline
210
0.0
220
0.0
230
1.0
 70
     8
 71
     3
 72
    14
 73
    10
 74
     0
 42
0.00000001
 43
0.00000001
 40
0.0
 40
0.0
 40
0.0
 40
0.0
 40
0.25
 40
0.25
 40
0.5
 40
0.5
 40
0.75
 40
0.75
 40
1.0
 40
1.0
 40
1.0
 40
1.0
 10
1348.096201931776
 20
794.5191727576695
 30
0.0
 10
1348.472466640654
 20
794.2019548105152
 30
0.0
 10
1348.848418191339
 20
793.9912143395517
 30
0.0
 10
1349.530359391757
 20
793.8065939569204
 30
0.0
 10
1349.835947046038
 20
793.8328025936653
 30
0.0
 10
1350.317243255141
 20
794.110771808313
 30
0.0
 10
1350.492694292763
 20
794.3623836763737
 30
0.0
 10
1350.673704051611
 20
795.0454019991046
 30
0.0
 10
1350.679138491248
 20
795.4764159876654
 30
0.0
 10
1350.592522275336
 20
795.9609313177508
 30
0.0
  0
SPLINE
  5
128
330
1F
100
AcDbEntity
  8
0
  6
CONTINUOUS
 62
     7
100
AcDbSpline
210
0.0
220
0.0
230
1.0
 70
    24
 71
     3
 72
     8
 73
     4
 74
     0
 42
0.00000001
 43
0.00000001
 40
0.0
 40
0.0
 40
0.0
 40
0.0
 40
1.0
 40
1.0
 40
1.0
 40
1.0
 10
1348.096201931776
 20
794.5191727576696
 30
0.0
 10
1348.096201931776
 20
795.3357135695553
 30
0.0
 10
1348.096201931776
 20
796.1522543814411
 30
0.0
 10
1348.096201931776
 20
796.9687951933269
 30
0.0
  0
SPLINE
  5
129
330
1F
100
AcDbEntity
  8
0
  6
CONTINUOUS
 62
     7
100
AcDbSpline
210
0.0
220
0.0
230
1.0
 70
     8
 71
     3
 72
    14
 73
    10
 74
     0
 42
0.00000001
 43
0.00000001
 40
0.0
 40
0.0
 40
0.0
 40
0.0
 40
0.25
 40
0.25
 40
0.5
 40
0.5
 40
0.75
 40
0.75
 40
1.0
 40
1.0
 40
1.0
 40
1.0
 10
1348.096201931776
 20
796.9687951933267
 30
0.0
 10
1348.194720924002
 20
796.8119338530762
 30
0.0
 10
1348.293167079364
 20
796.6976193041005
 30
0.0
 10
1348.462022203294
 20
796.563778629069
 30
0.0
 10
1348.532296586888
 20
796.5442658227772
 30
0.0
 10
1348.620893714291
 20
796.5954609866574
 30
0.0
 10
1348.639113451222
 20
796.6661094728922
 30
0.0
 10
1348.607595998523
 20
796.8793242800054
 30
0.0
 10
1348.557803061974
 20
797.021767369136
 30
0.0
 10
1348.471201931776
 20
797.1855434854849
 30
0.0
  0
SPLINE
  5
12A
330
1F
100
AcDbEntity
  8
0
  6
CONTINUOUS
 62
     7
100
AcDbSpline
210
0.0
220
0.0
230
1.0
 70
     8
 71
     3
 72
    14
 73
    10
 74
     0
 42
0.00000001
 43
0.00000001
 40
0.0
 40
0.0
 40
0.0
 40
0.0
 40
0.25
 40
0.25
 40
0.5
 40
0.5
 40
0.75
 40
0.75
 40
1.0
 40
1.0
 40
1.0
 40
1.0
 10
1345.599881588217
 20
795.9609313177509
 30
0.0
 10
1345.513265372304
 20
795.4764159876656
 30
0.0
 10
1345.518699811941
 20
795.0454019991048
 30
0.0
 10
1345.69970957079
 20
794.362383676374
 30
0.0
 10
1345.875160608412
 20
794.1107718083132
 30
0.0
 10
1346.356456817514
 20
793.8328025936654
 30
0.0
 10
1346.662044471795
 20
793.8065939569206
 30
0.0
 10
1347.343985672213
 20
793.9912143395518
 30
0.0
 10
1347.719937222898
 20
794.2019548105153
 30
0.0
 10
1348.096201931776
 20
794.5191727576696
 30
0.0
  0
SPLINE
  5
12B
330
1F
100
AcDbEntity
  8
0
  6
CONTINUOUS
 62
     7
100
AcDbSpline
210
0.0
220
0.0
230
1.0
 70
     8
 71
     3
 72
     9
 73
     5
 74
     0
 42
0.00000001
 43
0.00000001
 40
0.0
 40
0.0
 40
0.0
 40
0.0
 40
0.5000473102518262
 40
1.0
 40
1.0
 40
1.0
 40
1.0
 10
1086.98290739097
 20
943.5661166662475
 30
0.0
 10
1086.599281727392
 20
943.8663980485626
 30
0.0
 10
1085.832102991076
 20
944.4669039930181
 30
0.0
 10
1085.562345375746
 20
945.5925116095106
 30
0.0
 10
1085.427479330381
 20
946.155262164977
 30
0.0
  0
SPLINE
  5
12C
330
1F
100
AcDbEntity
  8
0
  6
CONTINUOUS
 62
     7
100
AcDbSpline
210
0.0
220
0.0
230
1.0
 70
     8
 71
     3
 72
    14
 73
    10
 74
     0
 42
0.00000001
 43
0.00000001
 40
0.0
 40
0.0
 40
0.0
 40
0.0
 40
0.25
 40
0.25
 40
0.5
 40
0.5
 40
0.75
 40
0.75
 40
1.0
 40
1.0
 40
1.0
 40
1.0
 10
1347.721201931776
 20
797.1855434854849
 30
0.0
 10
1347.634600801578
 20
797.0217673691362
 30
0.0
 10
1347.584807865029
 20
796.8793242800057
 30
0.0
 10
1347.553290412331
 20
796.6661094728923
 30
0.0
 10
1347.571510149261
 20
796.5954609866575
 30
0.0
 10
1347.660107276665
 20
796.5442658227776
 30
0.0
 10
1347.730381660258
 20
796.5637786290691
 30
0.0
 10
1347.899236784189
 20
796.6976193041006
 30
0.0
 10
1347.997682939551
 20
796.8119338530763
 30
0.0
 10
1348.096201931776
 20
796.9687951933269
 30
0.0
  0
LINE
  5
12D
330
1F
100
AcDbEntity
  8
0
  6
CONTINUOUS
 62
     7
100
AcDbLine
 10
1348.0962019318
 20
799.4180195288
 30
0.0
 11
1347.7212019318
 21
799.6345024208
 31
0.0
  0
LINE
  5
12E
330
1F
100
AcDbEntity
  8
0
  6
CONTINUOUS
 62
     7
100
AcDbLine
 10
1348.4712019318
 20
799.6345024208
 30
0.0
 11
1348.0962019318
 21
799.4180195288
 31
0.0
  0
LINE
  5
12F
330
1F
100
AcDbEntity
  8
0
  6
CONTINUOUS
 62
     7
100
AcDbLine
 10
1613.2612448767
 20
1245.5850526399
 30
0.0
 11
1802.0476068479
 21
1136.6010056646
 31
0.0
  0
LINE
  5
130
330
1F
100
AcDbEntity
  8
0
  6
CONTINUOUS
 62
     7
100
AcDbLine
 10
1159.3098399606
 20
983.5244846979
 30
0.0
 11
1613.2612448767
 21
1245.5850526399
 31
0.0
  0
LINE
  5
131
330
1F
100
AcDbEntity
  8
0
  6
CONTINUOUS
 62
     7
100
AcDbLine
 10
1194.1501022318
 20
963.4116294029
 30
0.0
 11
1442.9854988856
 21
1006.8704936985
 31
0.0
  0
LWPOLYLINE
  5
132
330
1F
100
AcDbEntity
  8
0
  6
CONTINUOUS
 62
     7
100
AcDbPolyline
 90
       10
 70
   128
 43
0.0
 10
1442.9854988856
 20
1006.8704936985
 10
1444.4829741529
 20
1004.7127186697
 10
1446.3500018451
 20
1002.6531970081
 10
1448.567519928
 20
1000.7129560785
 10
1451.1128879203
 20
998.9118054098
 10
1453.960118049
 20
997.268134443
 10
1457.0801405802
 20
995.7987247783
 10
1460.4411006162
 20
994.5185788378
 10
1464.0086833284
 20
993.4407666929
 10
1467.7464643059
 20
992.576292622
  0
LINE
  5
133
330
1F
100
AcDbEntity
  8
0
  6
CONTINUOUS
 62
     7
100
AcDbLine
 10
1348.0962019318
 20
799.4180195288
 30
0.0
 11
1348.4712019318
 21
800.0234035119
 31
0.0
  0
LINE
  5
134
330
1F
100
AcDbEntity
  8
0
  6
CONTINUOUS
 62
     7
100
AcDbLine
 10
1420.5334037622
 20
916.3575442371
 30
0.0
 11
1467.7464643059
 21
992.576292622
 31
0.0
  0
LWPOLYLINE
  5
135
330
1F
100
AcDbEntity
  8
0
  6
CONTINUOUS
 62
     7
100
AcDbPolyline
 90
       24
 70
   128
 43
0.0
 10
1467.7464643059
 20
992.576292622
 10
1471.4591370768
 20
991.955362157
 10
1475.2585520007
 20
991.5450003383
 10
1479.1089624163
 20
991.3490680407
 10
1482.9741418728
 20
991.3694086863
 10
1486.8177249655
 20
991.6058309008
 10
1490.6035494784
 20
992.0561103142
 10
1494.295996615
 20
992.7160104885
 10
1497.8603261164
 20
993.579322776
 10
1501.2630031143
 20
994.6379247337
 10
1504.4720136419
 20
995.8818565423
 10
1507.4571658369
 20
997.2994147132
 10
1510.190374
 20
998.8772622004
 10
1512.6459228385
 20
1000.6005538812
 10
1514.8007094077
 20
1002.4530762268
 10
1516.6344604742
 20
1004.4173998458
 10
1518.1299232556
 20
1006.4750434689
 10
1519.2730277431
 20
1008.6066478283
 10
1520.0530190784
 20
1010.7921577997
 10
1520.4625587404
 20
1013.0110110895
 10
1520.4977935898
 20
1015.2423316948
 10
1520.1583921206
 20
1017.4651263142
 10
1519.4475475797
 20
1019.6584818629
 10
1518.3719479229
 20
1021.8017622325
  0
LINE
  5
136
330
1F
100
AcDbEntity
  8
0
  6
CONTINUOUS
 62
     7
100
AcDbLine
 10
1518.3719479229
 20
1021.8017622325
 30
0.0
 11
1655.9822817211
 21
1052.2792883072
 31
0.0
  0
LINE
  5
137
330
1F
100
AcDbEntity
  8
0
  6
CONTINUOUS
 62
     7
100
AcDbLine
 10
1613.2612448767
 20
1245.5850526399
 30
0.0
 11
1493.9597873888
 21
1036.7066666749
 31
0.0
  0
LWPOLYLINE
  5
138
330
1F
100
AcDbEntity
  8
0
  6
CONTINUOUS
 62
     7
100
AcDbPolyline
 90
       15
 70
   128
 43
0.0
 10
1459.243417198
 20
1033.7294738997
 10
1456.8854331666
 20
1032.7903993887
 10
1453.9002809716
 20
1031.3728412177
 10
1451.1670728085
 20
1029.7949937306
 10
1448.71152397
 20
1028.0717020498
 10
1446.5567374008
 20
1026.2191797042
 10
1444.7229863343
 20
1024.2548560851
 10
1443.2275235529
 20
1022.1972124621
 10
1442.0844190654
 20
1020.0656081027
 10
1441.3044277302
 20
1017.8800981313
 10
1440.8948880681
 20
1015.6612448414
 10
1440.8596532187
 20
1013.4299242362
 10
1441.1990546879
 20
1011.2071296168
 10
1441.9098992288
 20
1009.0137740681
 10
1442.9854988856
 20
1006.8704936985
  0
LINE
  5
139
330
1F
100
AcDbEntity
  8
0
  6
CONTINUOUS
 62
     7
100
AcDbLine
 10
1087.5487996739
 20
1025.3842172459
 30
0.0
 11
1087.5487996739
 21
1024.9512514619
 31
0.0
  0
LINE
  5
13A
330
1F
100
AcDbEntity
  8
0
  6
CONTINUOUS
 62
     7
100
AcDbLine
 10
1085.4274793304
 20
1026.6088294137
 30
0.0
 11
1085.4274793304
 21
1023.7281442941
 31
0.0
  0
LINE
  5
13B
330
1F
100
AcDbEntity
  8
0
  6
CONTINUOUS
 62
     7
100
AcDbLine
 10
1087.5487996739
 20
1025.3842172459
 30
0.0
 11
1085.4274793304
 21
1026.6088294137
 31
0.0
  0
LINE
  5
13C
330
1F
100
AcDbEntity
  8
0
  6
CONTINUOUS
 62
     7
100
AcDbLine
 10
1612.8862448767
 20
1328.6550690599
 30
0.0
 11
1087.5487996739
 21
1025.3842172459
 31
0.0
  0
LINE
  5
13D
330
1F
100
AcDbEntity
  8
0
  6
CONTINUOUS
 62
     7
100
AcDbLine
 10
1612.8862448767
 20
1251.0836919308
 30
0.0
 11
1612.8862448767
 21
1328.6550690599
 31
0.0
  0
LINE
  5
13E
330
1F
100
AcDbEntity
  8
0
  6
CONTINUOUS
 62
     7
100
AcDbLine
 10
1610.7649245332
 20
1329.8796812276
 30
0.0
 11
1085.4274793304
 21
1026.6088294137
 31
0.0
  0
LINE
  5
13F
330
1F
100
AcDbEntity
  8
0
  6
CONTINUOUS
 62
     7
100
AcDbLine
 10
1612.8862448767
 20
1328.6550690599
 30
0.0
 11
1610.7649245332
 21
1329.8796812276
 31
0.0
  0
SPLINE
  5
140
330
1F
100
AcDbEntity
  8
0
  6
CONTINUOUS
 62
     7
100
AcDbSpline
210
0.0
220
0.0
230
1.0
 70
     8
 71
     3
 72
    14
 73
    10
 74
     0
 42
0.00000001
 43
0.00000001
 40
0.0
 40
0.0
 40
0.0
 40
0.0
 40
0.25
 40
0.25
 40
0.5
 40
0.5
 40
0.75
 40
0.75
 40
1.0
 40
1.0
 40
1.0
 40
1.0
 10
1612.886244876733
 20
1251.083691930758
 30
0.0
 10
1612.799630936106
 20
1250.819889260671
 30
0.0
 10
1612.749850809985
 20
1250.534999816221
 30
0.0
 10
1612.718333357288
 20
1249.958224138898
 30
0.0
 10
1612.736553094217
 20
1249.666564518905
 30
0.0
 10
1612.825150221621
 20
1249.113127142546
 30
0.0
 10
1612.895424605215
 20
1248.851527799328
 30
0.0
 10
1613.064279729145
 20
1248.390462351497
 30
0.0
 10
1613.162711311135
 20
1248.191161519259
 30
0.0
 10
1613.261244876733
 20
1248.034276975373
 30
0.0
  0
LWPOLYLINE
  5
141
330
1F
100
AcDbEntity
  8
0
  6
CONTINUOUS
 62
     7
100
AcDbPolyline
 90
        8
 70
   128
 43
0.0
 10
1518.3719479229
 20
1021.8017622325
 10
1516.8744726556
 20
1023.9595372613
 10
1515.0074449634
 20
1026.0190589229
 10
1512.7899268805
 20
1027.9592998525
 10
1510.2445588883
 20
1029.7604505212
 10
1507.3973287595
 20
1031.404121488
 10
1504.2773062283
 20
1032.8735311526
 10
1502.4122973115
 20
1033.6185250075
  0
LWPOLYLINE
  5
142
330
1F
100
AcDbEntity
  8
0
  6
CONTINUOUS
 62
     7
100
AcDbPolyline
 90
       28
 70
   128
 43
0.0
 10
1456.3738744006
 20
998.7558253213
 10
1458.9574555107
 20
997.4083316184
 10
1461.7639262229
 20
996.2186409495
 10
1464.7644883501
 20
995.1989611507
 10
1467.9283520643
 20
994.3597555167
 10
1471.2230518425
 20
993.7096354328
 10
1474.6147796065
 20
993.255272011
 10
1478.0687316396
 20
993.0013276347
 10
1481.5494657201
 20
992.9504081168
 10
1485.0212648062
 20
993.1030359607
 10
1488.4485035411
 20
993.4576449979
 10
1491.7960138176
 20
994.01059646
 10
1495.0294456504
 20
994.7562163167
 10
1498.1156196533
 20
995.6868534992
 10
1501.0228675048
 20
996.7929584107
 10
1503.7213569077
 20
998.0631809181
 10
1506.1833977093
 20
999.4844868195
 10
1508.3837260392
 20
1001.0422915931
 10
1510.2997635512
 20
1002.7206100537
 10
1511.9118491075
 20
1004.5022203829
 10
1513.2034405291
 20
1006.3688408479
 10
1514.1612843399
 20
1008.3013173966
 10
1514.7755517664
 20
1010.2798202046
 10
1515.0399395935
 20
1012.2840471558
 10
1514.9517348443
 20
1014.2934321696
 10
1514.511842619
 20
1016.2873562364
 10
1513.724776807
 20
1018.2453589973
 10
1513.2690163521
 20
1019.0927532905
  0
LWPOLYLINE
  5
143
330
1F
100
AcDbEntity
  8
0
  6
CONTINUOUS
 62
     7
100
AcDbPolyline
 90
       12
 70
   128
 43
0.0
 10
1448.0672512044
 20
1019.0561575901
 10
1447.1961624686
 20
1017.2721145938
 10
1446.5818950421
 20
1015.2936117858
 10
1446.317507215
 20
1013.2893848345
 10
1446.4057119642
 20
1011.2799998208
 10
1446.8456041895
 20
1009.2860757539
 10
1447.6326700015
 20
1007.3280729931
 10
1448.7588330398
 20
1005.4260832961
 10
1450.2125373478
 20
1003.5996236512
 10
1451.9788659521
 20
1001.8674360058
 10
1454.039693931
 20
1000.2472949493
 10
1456.3738744006
 20
998.7558253213
  0
LINE
  5
144
330
1F
100
AcDbEntity
  8
0
  6
CONTINUOUS
 62
     7
100
AcDbLine
 10
1613.6362448767
 20
1328.6550690599
 30
0.0
 11
1613.6362448767
 21
1251.0836919308
 31
0.0
  0
LINE
  5
145
330
1F
100
AcDbEntity
  8
0
  6
CONTINUOUS
 62
     7
100
AcDbLine
 10
1873.8086471346
 20
1178.4607382127
 30
0.0
 11
1613.6362448767
 21
1328.6550690599
 31
0.0
  0
LINE
  5
146
330
1F
100
AcDbEntity
  8
0
  6
CONTINUOUS
 62
     7
100
AcDbLine
 10
1873.8086471346
 20
1178.0277724286
 30
0.0
 11
1873.8086471346
 21
1178.4607382127
 31
0.0
  0
LINE
  5
147
330
1F
100
AcDbEntity
  8
0
  6
CONTINUOUS
 62
     7
100
AcDbLine
 10
1873.8086471346
 20
1178.4607382127
 30
0.0
 11
1875.9299674781
 21
1179.6853503804
 31
0.0
  0
LINE
  5
148
330
1F
100
AcDbEntity
  8
0
  6
CONTINUOUS
 62
     7
100
AcDbLine
 10
1875.9299674781
 20
1176.8046652609
 30
0.0
 11
1875.9299674781
 21
1179.6853503804
 31
0.0
  0
LINE
  5
149
330
1F
100
AcDbEntity
  8
0
  6
CONTINUOUS
 62
     7
100
AcDbLine
 10
1613.6362448767
 20
1328.6550690599
 30
0.0
 11
1615.7575652203
 21
1329.8796812276
 31
0.0
  0
LINE
  5
14A
330
1F
100
AcDbEntity
  8
0
  6
CONTINUOUS
 62
     7
100
AcDbLine
 10
1875.9299674781
 20
1179.6853503804
 30
0.0
 11
1615.7575652203
 21
1329.8796812276
 31
0.0
  0
SPLINE
  5
14B
330
1F
100
AcDbEntity
  8
0
  6
CONTINUOUS
 62
     7
100
AcDbSpline
210
0.0
220
0.0
230
1.0
 70
     8
 71
     3
 72
    14
 73
    10
 74
     0
 42
0.00000001
 43
0.00000001
 40
0.0
 40
0.0
 40
0.0
 40
0.0
 40
0.25
 40
0.25
 40
0.5
 40
0.5
 40
0.75
 40
0.75
 40
1.0
 40
1.0
 40
1.0
 40
1.0
 10
1613.261244876733
 20
1248.034276975373
 30
0.0
 10
1613.359778442331
 20
1248.191161519259
 30
0.0
 10
1613.458210024321
 20
1248.390462351497
 30
0.0
 10
1613.627065148251
 20
1248.851527799328
 30
0.0
 10
1613.697339531845
 20
1249.113127142546
 30
0.0
 10
1613.785936659248
 20
1249.666564518905
 30
0.0
 10
1613.804156396179
 20
1249.958224138898
 30
0.0
 10
1613.772638943481
 20
1250.534999816221
 30
0.0
 10
1613.722858817359
 20
1250.819889260671
 30
0.0
 10
1613.636244876733
 20
1251.083691930758
 30
0.0
  0
LINE
  5
14C
330
1F
100
AcDbEntity
  8
0
  6
CONTINUOUS
 62
     7
100
AcDbLine
 10
1472.5154160083
 20
999.0915569745
 30
0.0
 11
1472.5154160083
 21
1000.6463168818
 31
0.0
  0
LINE
  5
14D
330
1F
100
AcDbEntity
  8
0
  6
CONTINUOUS
 62
     7
100
AcDbLine
 10
1473.7879916661
 20
1000.4731703188
 30
0.0
 11
1473.7879916661
 21
999.4476790194
 31
0.0
  0
ARC
  5
14E
330
1F
100
AcDbEntity
  8
0
  6
CONTINUOUS
 62
     7
100
AcDbCircle
 10
1472.5445765075
 20
999.8143865013
 30
0.0
 40
0.723417486321227
100
AcDbArc
 50
194.1989956815
 51
267.6898176326
  0
LWPOLYLINE
  5
14F
330
1F
100
AcDbEntity
  8
0
  6
CONTINUOUS
 62
     7
100
AcDbPolyline
 90
        6
 70
   128
 43
0.0
 10
1472.9092855646
 20
997.7862246847
 10
1472.8034855721
 20
997.8386285544
 10
1472.681170871
 20
998.0063600714
 10
1472.5902828487
 20
998.2786712894
 10
1472.5343142809
 20
998.6450974409
 10
1472.5154160083
 20
999.0915569745
  0
ARC
  5
150
330
1F
100
AcDbEntity
  8
0
  6
CONTINUOUS
 62
     7
100
AcDbCircle
 10
1488.8174743735
 20
1015.4596056543
 30
0.0
 40
16.62251977678168
100
AcDbArc
 50
299.1136922614
 51
317.1091360948
  0
ARC
  5
151
330
1F
100
AcDbEntity
  8
0
  6
CONTINUOUS
 62
     7
100
AcDbCircle
 10
1476.4965391908
 20
1020.6909936533
 30
0.0
 40
23.10736439500147
100
AcDbArc
 50
225.6129688341
 51
259.7693708237
  0
ARC
  5
152
330
1F
100
AcDbEntity
  8
0
  6
CONTINUOUS
 62
     7
100
AcDbCircle
 10
1480.6558487218
 20
1032.3883880587
 30
0.0
 40
35.40072893847675
100
AcDbArc
 50
257.9675076117
 51
297.3231105206
  0
LINE
  5
153
330
1F
100
AcDbEntity
  8
0
  6
CONTINUOUS
 62
     7
100
AcDbLine
 10
1348.0962019318
 20
796.9687951933
 30
0.0
 11
1348.4712825876
 21
797.185324647
 31
0.0
  0
LINE
  5
154
330
1F
100
AcDbEntity
  8
0
  6
CONTINUOUS
 62
     7
100
AcDbLine
 10
1347.7211212759
 20
797.185324647
 30
0.0
 11
1348.0962019318
 21
796.9687951933
 31
0.0
  0
LINE
  5
155
330
1F
100
AcDbEntity
  8
0
  6
CONTINUOUS
 62
     7
100
AcDbLine
 10
1613.2612448767
 20
1248.0342769754
 30
0.0
 11
1157.1885196171
 21
984.7490968656
 31
0.0
  0
LINE
  5
156
330
1F
100
AcDbEntity
  8
0
  6
CONTINUOUS
 62
     7
100
AcDbLine
 10
1804.1689271914
 20
1137.8256178324
 30
0.0
 11
1613.2612448767
 21
1248.0342769754
 31
0.0
  0
LINE
  5
157
330
1F
100
AcDbEntity
  8
0
  6
CONTINUOUS
 62
     7
100
AcDbLine
 10
1612.8862448767
 20
1251.0836919308
 30
0.0
 11
1154.3598626242
 21
986.3820457893
 31
0.0
  0
LINE
  5
158
330
1F
100
AcDbEntity
  8
0
  6
CONTINUOUS
 62
     7
100
AcDbLine
 10
1806.9975841843
 20
1139.4585667561
 30
0.0
 11
1613.6362448767
 21
1251.0836919308
 31
0.0
  0
LINE
  5
159
330
1F
100
AcDbEntity
  8
0
  6
CENTERX2
 62
     7
100
AcDbLine
 10
1480.6787234043
 20
2457.7461826296
 30
0.0
 11
1480.6787234043
 21
2693.4751739571
 31
0.0
  0
LINE
  5
15A
330
1F
100
AcDbEntity
  8
0
  6
CONTINUOUS
 62
     7
100
AcDbLine
 10
1510.6787234043
 20
2555.0626679222
 30
0.0
 11
1510.6787234043
 21
2557.0626679222
 31
0.0
  0
LINE
  5
15B
330
1F
100
AcDbEntity
  8
0
  6
CONTINUOUS
 62
     7
100
AcDbLine
 10
1450.6787234043
 20
2557.0626679222
 30
0.0
 11
1450.6787234043
 21
2555.0626679222
 31
0.0
  0
LINE
  5
15C
330
1F
100
AcDbEntity
  8
0
  6
CONTINUOUS
 62
     7
100
AcDbLine
 10
1449.6787234043
 20
2555.0626679222
 30
0.0
 11
1449.6787234043
 21
2554.0626679222
 31
0.0
  0
LINE
  5
15D
330
1F
100
AcDbEntity
  8
0
  6
CONTINUOUS
 62
     7
100
AcDbLine
 10
1511.6787234043
 20
2554.0626679222
 30
0.0
 11
1511.6787234043
 21
2555.0626679222
 31
0.0
  0
ARC
  5
15E
330
1F
100
AcDbEntity
  8
0
  6
CONTINUOUS
 62
     7
100
AcDbCircle
 10
1515.6787234043
 20
2536.5626679222
 30
0.0
 40
0.5
100
AcDbArc
 50
270.0
 51
0.0
  0
ARC
  5
15F
330
1F
100
AcDbEntity
  8
0
  6
CONTINUOUS
 62
     7
100
AcDbCircle
 10
1445.6787234043
 20
2536.5626679222
 30
0.0
 40
0.5
100
AcDbArc
 50
180.0
 51
270.0
  0
ARC
  5
160
330
1F
100
AcDbEntity
  8
0
  6
CONTINUOUS
 62
     7
100
AcDbCircle
 10
1515.6787234043
 20
2553.5626679222
 30
0.0
 40
0.5
100
AcDbArc
 50
0.0
 51
90.0
  0
ARC
  5
161
330
1F
100
AcDbEntity
  8
0
  6
CONTINUOUS
 62
     7
100
AcDbCircle
 10
1445.6787234043
 20
2553.5626679222
 30
0.0
 40
0.5
100
AcDbArc
 50
90.0
 51
180.0
  0
LINE
  5
162
330
1F
100
AcDbEntity
  8
0
  6
CONTINUOUS
 62
     7
100
AcDbLine
 10
1516.1787234043
 20
2536.5626679222
 30
0.0
 11
1516.1787234043
 21
2553.5626679222
 31
0.0
  0
LINE
  5
163
330
1F
100
AcDbEntity
  8
0
  6
CONTINUOUS
 62
     7
100
AcDbLine
 10
1445.1787234043
 20
2553.5626679222
 30
0.0
 11
1445.1787234043
 21
2536.5626679222
 31
0.0
  0
LINE
  5
164
330
1F
100
AcDbEntity
  8
0
  6
CONTINUOUS
 62
     7
100
AcDbLine
 10
1501.6337234043
 20
2474.7932088271
 30
0.0
 11
1501.6337234043
 21
2536.0626679222
 31
0.0
  0
LINE
  5
165
330
1F
100
AcDbEntity
  8
0
  6
CONTINUOUS
 62
     7
100
AcDbLine
 10
1459.7237234043
 20
2536.0626679222
 30
0.0
 11
1459.7237234043
 21
2474.7932088271
 31
0.0
  0
LINE
  5
166
330
1F
100
AcDbEntity
  8
0
  6
CONTINUOUS
 62
     7
100
AcDbLine
 10
1500.1537234043
 20
2473.7932088271
 30
0.0
 11
1500.1537234043
 21
2474.7932088271
 31
0.0
  0
LINE
  5
167
330
1F
100
AcDbEntity
  8
0
  6
CONTINUOUS
 62
     7
100
AcDbLine
 10
1461.2037234043
 20
2474.7932088271
 30
0.0
 11
1461.2037234043
 21
2473.7932088271
 31
0.0
  0
LINE
  5
168
330
1F
100
AcDbEntity
  8
0
  6
CONTINUOUS
 62
     7
100
AcDbLine
 10
1113.6328836819
 20
2575.9684682975
 30
0.0
 11
1123.6787234043
 21
2575.661396932
 31
0.0
  0
LINE
  5
169
330
1F
100
AcDbEntity
  8
0
  6
CONTINUOUS
 62
     7
100
AcDbLine
 10
1440.782883582
 20
2565.9684683005
 30
0.0
 11
1440.8974145149
 21
2565.9649674314
 31
0.0
  0
LINE
  5
16A
330
1F
100
AcDbEntity
  8
0
  6
CONTINUOUS
 62
     7
100
AcDbLine
 10
1520.4600322936
 20
2565.9649674314
 30
0.0
 11
1520.5745632265
 21
2565.9684683005
 31
0.0
  0
LINE
  5
16B
330
1F
100
AcDbEntity
  8
0
  6
CONTINUOUS
 62
     7
100
AcDbLine
 10
1837.6787234043
 20
2575.661396932
 30
0.0
 11
1847.7245631266
 21
2575.9684682975
 31
0.0
  0
ARC
  5
16C
330
1F
100
AcDbEntity
  8
0
  6
CONTINUOUS
 62
     7
100
AcDbCircle
 10
1439.791535612
 20
2557.1190422466
 30
0.0
 40
8.910000000000307
100
AcDbArc
 50
52.1480946784
 51
83.3152054855
  0
ARC
  5
16D
330
1F
100
AcDbEntity
  8
0
  6
CONTINUOUS
 62
     7
100
AcDbCircle
 10
1521.5659111965
 20
2557.1190422466
 30
0.0
 40
8.910000000000261
100
AcDbArc
 50
96.6847945145
 51
127.8519053216
  0
LINE
  5
16E
330
1F
100
AcDbEntity
  8
0
  6
CONTINUOUS
 62
     7
100
AcDbLine
 10
1445.2589131411
 20
2564.1543732946
 30
0.0
 11
1452.9969876944
 21
2558.1408716352
 31
0.0
  0
LINE
  5
16F
330
1F
100
AcDbEntity
  8
0
  6
CONTINUOUS
 62
     7
100
AcDbLine
 10
1508.3604591141
 20
2558.1408716352
 30
0.0
 11
1516.0985336674
 21
2564.1543732946
 31
0.0
  0
ARC
  5
170
330
1F
100
AcDbEntity
  8
0
  6
CONTINUOUS
 62
     7
100
AcDbCircle
 10
1456.6787234043
 20
2562.8784683005
 30
0.0
 40
5.999999999999701
100
AcDbArc
 50
232.1480946784
 51
255.7661053653
  0
ARC
  5
171
330
1F
100
AcDbEntity
  8
0
  6
CONTINUOUS
 62
     7
100
AcDbCircle
 10
1504.6787234043
 20
2562.8784683005
 30
0.0
 40
5.999999999999598
100
AcDbArc
 50
284.2338946347
 51
307.8519053216
  0
LINE
  5
172
330
1F
100
AcDbEntity
  8
0
  6
CONTINUOUS
 62
     7
100
AcDbLine
 10
1123.6787234043
 20
2575.6649680175
 30
0.0
 11
1123.6787234043
 21
2565.9684683005
 31
0.0
  0
LINE
  5
173
330
1F
100
AcDbEntity
  8
0
  6
CONTINUOUS
 62
     7
100
AcDbLine
 10
1837.6787234043
 20
2575.6649680175
 30
0.0
 11
1837.6787234043
 21
2565.9684683005
 31
0.0
  0
LINE
  5
174
330
1F
100
AcDbEntity
  8
0
  6
CONTINUOUS
 62
     7
100
AcDbLine
 10
1123.6787234043
 20
2565.9684683005
 30
0.0
 11
1837.6787234043
 21
2565.9684683005
 31
0.0
  0
LINE
  5
175
330
1F
100
AcDbEntity
  8
0
  6
CONTINUOUS
 62
     7
100
AcDbLine
 10
1510.6787234043
 20
2557.0626679222
 30
0.0
 11
1450.6787234043
 21
2557.0626679222
 31
0.0
  0
LINE
  5
176
330
1F
100
AcDbEntity
  8
0
  6
CONTINUOUS
 62
     7
100
AcDbLine
 10
1511.6787234043
 20
2555.0626679222
 30
0.0
 11
1449.6787234043
 21
2555.0626679222
 31
0.0
  0
SPLINE
  5
177
330
1F
100
AcDbEntity
  8
0
  6
CONTINUOUS
 62
     7
100
AcDbSpline
210
0.0
220
0.0
230
1.0
 70
    24
 71
     3
 72
    27
 73
    23
 74
     0
 42
0.00000001
 43
0.00000001
 40
0.0
 40
0.0
 40
0.0
 40
0.0
 40
0.0172604344633771
 40
0.0634549674468148
 40
0.1096426194088221
 40
0.1687307582369359
 40
0.2262020912533304
 40
0.2819416914623748
 40
0.3376874663250111
 40
0.3951587193691002
 40
0.4542407621073135
 40
0.5004352956429345
 40
0.546622948160594
 40
0.5938004164660213
 40
0.6409708573314569
 40
0.688148325435853
 40
0.7353187661004221
 40
0.7815132990832372
 40
0.8277009510458734
 40
0.8867890898740025
 40
0.9442573168274631
 40
1.0
 40
1.0
 40
1.0
 40
1.0
 10
1445.721755517474
 20
2536.062667922203
 30
0.0
 10
1445.710392825633
 20
2536.062667922203
 30
0.0
 10
1445.66861987708
 20
2536.062667922203
 30
0.0
 10
1445.970208136615
 20
2536.062667922203
 30
0.0
 10
1446.679682474123
 20
2536.062667922203
 30
0.0
 10
1447.933559261272
 20
2536.062667922203
 30
0.0
 10
1449.776827029039
 20
2536.062667922203
 30
0.0
 10
1452.057236339701
 20
2536.062667922203
 30
0.0
 10
1454.765887296862
 20
2536.062667922203
 30
0.0
 10
1457.931742408329
 20
2536.062667922203
 30
0.0
 10
1461.267515625645
 20
2536.062667922203
 30
0.0
 10
1464.61259396277
 20
2536.062667922203
 30
0.0
 10
1467.86113736636
 20
2536.062667922203
 30
0.0
 10
1471.265672516021
 20
2536.062667922203
 30
0.0
 10
1474.795093764352
 20
2536.062667922203
 30
0.0
 10
1478.386415285035
 20
2536.062667922203
 30
0.0
 10
1481.977472436454
 20
2536.062667922203
 30
0.0
 10
1485.529248164187
 20
2536.062667922203
 30
0.0
 10
1489.330842248002
 20
2536.062667922203
 30
0.0
 10
1493.298192137629
 20
2536.062667922203
 30
0.0
 10
1497.317616800595
 20
2536.062667922203
 30
0.0
 10
1499.733701409445
 20
2536.062667922203
 30
0.0
 10
1500.923330913521
 20
2536.062667922203
 30
0.0
  0
SPLINE
  5
178
330
1F
100
AcDbEntity
  8
0
  6
CONTINUOUS
 62
     7
100
AcDbSpline
210
0.0
220
0.0
230
1.0
 70
    24
 71
     3
 72
    16
 73
    12
 74
     0
 42
0.00000001
 43
0.00000001
 40
0.0
 40
0.0
 40
0.0
 40
0.0
 40
0.1278230861370897
 40
0.2596026325966408
 40
0.3950756627308313
 40
0.5009980910041638
 40
0.606904741337566
 40
0.7150810041989029
 40
0.823241153387956
 40
0.9314174157890649
 40
1.0
 40
1.0
 40
1.0
 40
1.0
 10
1500.923330913521
 20
2536.062667922203
 30
0.0
 10
1502.054964903991
 20
2536.062667922203
 30
0.0
 10
1504.353259929874
 20
2536.062667922203
 30
0.0
 10
1507.400587908469
 20
2536.062667922203
 30
0.0
 10
1509.896446632014
 20
2536.062667922203
 30
0.0
 10
1511.841414343481
 20
2536.062667922203
 30
0.0
 10
1513.31156315182
 20
2536.062667922203
 30
0.0
 10
1514.457291986723
 20
2536.062667922203
 30
0.0
 10
1515.233624033605
 20
2536.062667922203
 30
0.0
 10
1515.645453035126
 20
2536.062667922203
 30
0.0
 10
1515.638420082638
 20
2536.062667922203
 30
0.0
 10
1515.635691291035
 20
2536.062667922203
 30
0.0
  0
SPLINE
  5
179
330
1F
100
AcDbEntity
  8
0
  6
CONTINUOUS
 62
     7
100
AcDbSpline
210
0.0
220
0.0
230
1.0
 70
    24
 71
     3
 72
    27
 73
    23
 74
     0
 42
0.00000001
 43
0.00000001
 40
0.0
 40
0.0
 40
0.0
 40
0.0
 40
0.0557426831734953
 40
0.1132109101277038
 40
0.1722990489554397
 40
0.2184867009181195
 40
0.2646812339015836
 40
0.3118516745656021
 40
0.3590291426712708
 40
0.4061995835369385
 40
0.4533770518428557
 40
0.4995647043599279
 40
0.5457592378968267
 40
0.6048412806347178
 40
0.6623125336801956
 40
0.7180583085430846
 40
0.7737979087523814
 40
0.8312692417688827
 40
0.8903573805979456
 40
0.9365450325592831
 40
0.9827395655440906
 40
1.0
 40
1.0
 40
1.0
 40
1.0
 10
1500.92333088895
 20
2554.062667922203
 30
0.0
 10
1499.733701386308
 20
2554.062667922203
 30
0.0
 10
1497.317616780374
 20
2554.062667922203
 30
0.0
 10
1493.298192122276
 20
2554.062667922203
 30
0.0
 10
1489.330842237489
 20
2554.062667922203
 30
0.0
 10
1485.529248158306
 20
2554.062667922203
 30
0.0
 10
1481.977472434909
 20
2554.062667922203
 30
0.0
 10
1478.38641528784
 20
2554.062667922203
 30
0.0
 10
1474.795093771519
 20
2554.062667922203
 30
0.0
 10
1471.265672527448
 20
2554.062667922203
 30
0.0
 10
1467.861137381942
 20
2554.062667922203
 30
0.0
 10
1464.612593982298
 20
2554.062667922203
 30
0.0
 10
1461.267515649239
 20
2554.062667922203
 30
0.0
 10
1457.931742435942
 20
2554.062667922203
 30
0.0
 10
1454.765887328326
 20
2554.062667922203
 30
0.0
 10
1452.057236374439
 20
2554.062667922203
 30
0.0
 10
1449.776827066557
 20
2554.062667922203
 30
0.0
 10
1447.933559301021
 20
2554.062667922203
 30
0.0
 10
1446.679682515396
 20
2554.062667922203
 30
0.0
 10
1445.970208178752
 20
2554.062667922203
 30
0.0
 10
1445.668619919583
 20
2554.062667922203
 30
0.0
 10
1445.710392868072
 20
2554.062667922203
 30
0.0
 10
1445.721755559891
 20
2554.062667922203
 30
0.0
  0
SPLINE
  5
17A
330
1F
100
AcDbEntity
  8
0
  6
CONTINUOUS
 62
     7
100
AcDbSpline
210
0.0
220
0.0
230
1.0
 70
    24
 71
     3
 72
    16
 73
    12
 74
     0
 42
0.00000001
 43
0.00000001
 40
0.0
 40
0.0
 40
0.0
 40
0.0
 40
0.0685825842268626
 40
0.1767588466263913
 40
0.284918995813143
 40
0.3930952586730049
 40
0.4990019090058018
 40
0.6049243372760673
 40
0.7403973674108675
 40
0.8721769138666514
 40
1.0
 40
1.0
 40
1.0
 40
1.0
 10
1515.635691248616
 20
2554.062667922203
 30
0.0
 10
1515.638420040218
 20
2554.062667922203
 30
0.0
 10
1515.645452992704
 20
2554.062667922203
 30
0.0
 10
1515.233623991669
 20
2554.062667922203
 30
0.0
 10
1514.457291945724
 20
2554.062667922203
 30
0.0
 10
1513.311563112208
 20
2554.062667922203
 30
0.0
 10
1511.841414305663
 20
2554.062667922203
 30
0.0
 10
1509.896446596522
 20
2554.062667922203
 30
0.0
 10
1507.400587876012
 20
2554.062667922203
 30
0.0
 10
1504.353259901093
 20
2554.062667922203
 30
0.0
 10
1502.054964878031
 20
2554.062667922203
 30
0.0
 10
1500.92333088895
 20
2554.062667922203
 30
0.0
  0
LINE
  5
17B
330
1F
100
AcDbEntity
  8
0
  6
CONTINUOUS
 62
     7
100
AcDbLine
 10
1459.7237234043
 20
2474.7932088271
 30
0.0
 11
1501.6337234043
 21
2474.7932088271
 31
0.0
  0
LINE
  5
17C
330
1F
100
AcDbEntity
  8
0
  6
CONTINUOUS
 62
     7
100
AcDbLine
 10
1461.2037234043
 20
2473.7932088271
 30
0.0
 11
1500.1537234043
 21
2473.7932088271
 31
0.0
  0
SPLINE
  5
17D
330
1F
100
AcDbEntity
  8
0
  6
CONTINUOUS
 62
     7
100
AcDbSpline
210
0.0
220
0.0
230
1.0
 70
     8
 71
     3
 72
    14
 73
    10
 74
     0
 42
0.00000001
 43
0.00000001
 40
0.0
 40
0.0
 40
0.0
 40
0.0
 40
0.25
 40
0.25
 40
0.5
 40
0.5
 40
0.75
 40
0.75
 40
1.0
 40
1.0
 40
1.0
 40
1.0
 10
1852.148393318366
 20
2580.968468300508
 30
0.0
 10
1852.025899491101
 20
2580.313855818905
 30
0.0
 10
1851.90344833268
 20
2579.659728878712
 30
0.0
 10
1851.658503346995
 20
2578.450373398653
 30
0.0
 10
1851.536030854153
 20
2577.895734700634
 30
0.0
 10
1851.291085868468
 20
2576.970134088517
 30
0.0
 10
1851.168613375625
 20
2576.599536358737
 30
0.0
 10
1850.923668389941
 20
2576.098604917167
 30
0.0
 10
1850.80121723152
 20
2575.968468300508
 30
0.0
 10
1850.678723404255
 20
2575.968468300508
 30
0.0
  0
LINE
  5
17E
330
1F
100
AcDbEntity
  8
0
  6
CONTINUOUS
 62
     7
100
AcDbLine
 10
1110.6787234043
 20
2575.9684683005
 30
0.0
 11
1850.6787234043
 21
2575.9684683005
 31
0.0
  0
SPLINE
  5
17F
330
1F
100
AcDbEntity
  8
0
  6
CONTINUOUS
 62
     7
100
AcDbSpline
210
0.0
220
0.0
230
1.0
 70
     8
 71
     3
 72
    14
 73
    10
 74
     0
 42
0.00000001
 43
0.00000001
 40
0.0
 40
0.0
 40
0.0
 40
0.0
 40
0.25
 40
0.25
 40
0.5
 40
0.5
 40
0.75
 40
0.75
 40
1.0
 40
1.0
 40
1.0
 40
1.0
 10
1109.209053490145
 20
2580.968468300508
 30
0.0
 10
1109.331525982988
 20
2580.31396983101
 30
0.0
 10
1109.45399847583
 20
2579.659728878712
 30
0.0
 10
1109.698943461515
 20
2578.450373398653
 30
0.0
 10
1109.821415954358
 20
2577.895734700633
 30
0.0
 10
1110.066360940043
 20
2576.970134088517
 30
0.0
 10
1110.188833432885
 20
2576.599536358737
 30
0.0
 10
1110.43377841857
 20
2576.098604917167
 30
0.0
 10
1110.556250911413
 20
2575.968468300508
 30
0.0
 10
1110.678723404255
 20
2575.968468300508
 30
0.0
  0
LINE
  5
180
330
1F
100
AcDbEntity
  8
0
  6
CONTINUOUS
 62
     7
100
AcDbLine
 10
1109.2090534901
 20
2580.9684683005
 30
0.0
 11
1852.1483933184
 21
2580.9684683005
 31
0.0
  0
LINE
  5
181
330
1F
100
AcDbEntity
  8
0
  6
CONTINUOUS
 62
     7
100
AcDbLine
 10
1109.2090534901
 20
2675.9684683005
 30
0.0
 11
1852.1483933184
 21
2675.9684683005
 31
0.0
  0
LINE
  5
182
330
1F
100
AcDbEntity
  8
0
  6
CONTINUOUS
 62
     7
100
AcDbLine
 10
1852.1483933184
 20
2675.9684683005
 30
0.0
 11
1852.1483933184
 21
2580.9684683005
 31
0.0
  0
LINE
  5
183
330
1F
100
AcDbEntity
  8
0
  6
CONTINUOUS
 62
     7
100
AcDbLine
 10
1109.2090534901
 20
2580.9684683005
 30
0.0
 11
1109.2090534901
 21
2675.9684683005
 31
0.0
  0
SPLINE
  5
184
330
1F
100
AcDbEntity
  8
0
  6
CONTINUOUS
 62
     7
100
AcDbSpline
210
0.0
220
0.0
230
1.0
 70
     8
 71
     3
 72
    14
 73
    10
 74
     0
 42
0.00000001
 43
0.00000001
 40
0.0
 40
0.0
 40
0.0
 40
0.0
 40
0.25
 40
0.25
 40
0.5
 40
0.5
 40
0.75
 40
0.75
 40
1.0
 40
1.0
 40
1.0
 40
1.0
 10
1110.678723404255
 20
2575.968468300508
 30
0.0
 10
1110.024224934757
 20
2575.968468300508
 30
0.0
 10
1109.369983982459
 20
2576.098604917167
 30
0.0
 10
1108.160628502401
 20
2576.599536358737
 30
0.0
 10
1107.60598980438
 20
2576.970134088517
 30
0.0
 10
1106.680389192264
 20
2577.895734700634
 30
0.0
 10
1106.309791462484
 20
2578.450373398653
 30
0.0
 10
1105.808860020913
 20
2579.659728878712
 30
0.0
 10
1105.678723404255
 20
2580.31396983101
 30
0.0
 10
1105.678723404255
 20
2580.968468300508
 30
0.0
  0
SPLINE
  5
185
330
1F
100
AcDbEntity
  8
0
  6
CONTINUOUS
 62
     7
100
AcDbSpline
210
0.0
220
0.0
230
1.0
 70
    24
 71
     3
 72
     8
 73
     4
 74
     0
 42
0.00000001
 43
0.00000001
 40
0.0
 40
0.0
 40
0.0
 40
0.0
 40
1.0
 40
1.0
 40
1.0
 40
1.0
 10
1108.678723404255
 20
2580.968468300508
 30
0.0
 10
1107.678723404255
 20
2580.968468300508
 30
0.0
 10
1106.678723404255
 20
2580.968468300508
 30
0.0
 10
1105.678723404255
 20
2580.968468300508
 30
0.0
  0
SPLINE
  5
186
330
1F
100
AcDbEntity
  8
0
  6
CONTINUOUS
 62
     7
100
AcDbSpline
210
0.0
220
0.0
230
1.0
 70
     8
 71
     3
 72
    10
 73
     6
 74
     0
 42
0.00000001
 43
0.00000001
 40
0.0
 40
0.0
 40
0.0
 40
0.0
 40
0.1603976954645434
 40
0.5801988477322677
 40
1.0
 40
1.0
 40
1.0
 40
1.0
 10
1109.512421298174
 20
2579.388605598945
 30
0.0
 10
1109.426978143623
 20
2579.440218622777
 30
0.0
 10
1109.11790874164
 20
2579.626915924556
 30
0.0
 10
1108.77505404928
 20
2580.192483653379
 30
0.0
 10
1108.710833619264
 20
2580.709806751465
 30
0.0
 10
1108.678723404255
 20
2580.968468300508
 30
0.0
  0
LINE
  5
187
330
1F
100
AcDbEntity
  8
0
  6
CONTINUOUS
 62
     7
100
AcDbLine
 10
1108.6787234043
 20
2675.9684683005
 30
0.0
 11
1108.6787234043
 21
2580.9684683005
 31
0.0
  0
LINE
  5
188
330
1F
100
AcDbEntity
  8
0
  6
CONTINUOUS
 62
     7
100
AcDbLine
 10
1108.6787234043
 20
2675.9684683005
 30
0.0
 11
1105.6787234043
 21
2675.9684683005
 31
0.0
  0
LINE
  5
189
330
1F
100
AcDbEntity
  8
0
  6
CONTINUOUS
 62
     7
100
AcDbLine
 10
1105.6787234043
 20
2675.9684683005
 30
0.0
 11
1105.6787234043
 21
2580.9684683005
 31
0.0
  0
SPLINE
  5
18A
330
1F
100
AcDbEntity
  8
0
  6
CONTINUOUS
 62
     7
100
AcDbSpline
210
0.0
220
0.0
230
1.0
 70
     8
 71
     3
 72
    14
 73
    10
 74
     0
 42
0.00000001
 43
0.00000001
 40
0.0
 40
0.0
 40
0.0
 40
0.0
 40
0.25
 40
0.25
 40
0.5
 40
0.5
 40
0.75
 40
0.75
 40
1.0
 40
1.0
 40
1.0
 40
1.0
 10
1850.678723404255
 20
2575.968468300508
 30
0.0
 10
1851.333335885859
 20
2575.968468300508
 30
0.0
 10
1851.987462826052
 20
2576.098604917167
 30
0.0
 10
1853.19681830611
 20
2576.599536358737
 30
0.0
 10
1853.75145700413
 20
2576.970134088517
 30
0.0
 10
1854.677057616246
 20
2577.895734700634
 30
0.0
 10
1855.047655346027
 20
2578.450373398653
 30
0.0
 10
1855.548586787597
 20
2579.659728878712
 30
0.0
 10
1855.678723404255
 20
2580.313855818905
 30
0.0
 10
1855.678723404255
 20
2580.968468300508
 30
0.0
  0
SPLINE
  5
18B
330
1F
100
AcDbEntity
  8
0
  6
CONTINUOUS
 62
     7
100
AcDbSpline
210
0.0
220
0.0
230
1.0
 70
     8
 71
     3
 72
    10
 73
     6
 74
     0
 42
0.00000001
 43
0.00000001
 40
0.0
 40
0.0
 40
0.0
 40
0.0
 40
0.1603976954644536
 40
0.5801988477322323
 40
1.0
 40
1.0
 40
1.0
 40
1.0
 10
1851.845025510337
 20
2579.388605598945
 30
0.0
 10
1851.930468664887
 20
2579.440218622777
 30
0.0
 10
1852.239538066871
 20
2579.626915924556
 30
0.0
 10
1852.58239275923
 20
2580.192483653379
 30
0.0
 10
1852.646613189247
 20
2580.709806751465
 30
0.0
 10
1852.678723404255
 20
2580.968468300508
 30
0.0
  0
SPLINE
  5
18C
330
1F
100
AcDbEntity
  8
0
  6
CONTINUOUS
 62
     7
100
AcDbSpline
210
0.0
220
0.0
230
1.0
 70
    24
 71
     3
 72
     8
 73
     4
 74
     0
 42
0.00000001
 43
0.00000001
 40
0.0
 40
0.0
 40
0.0
 40
0.0
 40
1.0
 40
1.0
 40
1.0
 40
1.0
 10
1852.678723404255
 20
2580.968468300508
 30
0.0
 10
1853.678723404255
 20
2580.968468300508
 30
0.0
 10
1854.678723404255
 20
2580.968468300508
 30
0.0
 10
1855.678723404255
 20
2580.968468300508
 30
0.0
  0
LINE
  5
18D
330
1F
100
AcDbEntity
  8
0
  6
CONTINUOUS
 62
     7
100
AcDbLine
 10
1852.6787234043
 20
2675.9684683005
 30
0.0
 11
1855.6787234043
 21
2675.9684683005
 31
0.0
  0
LINE
  5
18E
330
1F
100
AcDbEntity
  8
0
  6
CONTINUOUS
 62
     7
100
AcDbLine
 10
1855.6787234043
 20
2580.9684683005
 30
0.0
 11
1855.6787234043
 21
2675.9684683005
 31
0.0
  0
LINE
  5
18F
330
1F
100
AcDbEntity
  8
0
  6
CONTINUOUS
 62
     7
100
AcDbLine
 10
1852.6787234043
 20
2580.9684683005
 30
0.0
 11
1852.6787234043
 21
2675.9684683005
 31
0.0
  0
SPLINE
  5
190
330
1F
100
AcDbEntity
  8
0
  6
CONTINUOUS
 62
     7
100
AcDbSpline
210
0.0
220
0.0
230
1.0
 70
     8
 71
     3
 72
     8
 73
     4
 74
     0
 42
0.00000001
 43
0.00000001
 40
0.0
 40
0.0
 40
0.0
 40
0.0
 40
1.0
 40
1.0
 40
1.0
 40
1.0
 10
1847.724001945872
 20
2575.968468300508
 30
0.0
 10
1840.846535371493
 20
2575.760819895401
 30
0.0
 10
1833.969075834776
 20
2575.55317183924
 30
0.0
 10
1827.091624440553
 20
2575.345524184748
 30
0.0
  0
SPLINE
  5
191
330
1F
100
AcDbEntity
  8
0
  6
CONTINUOUS
 62
     7
100
AcDbSpline
210
0.0
220
0.0
230
1.0
 70
     8
 71
     3
 72
     8
 73
     4
 74
     0
 42
0.00000001
 43
0.00000001
 40
0.0
 40
0.0
 40
0.0
 40
0.0
 40
1.0
 40
1.0
 40
1.0
 40
1.0
 10
1113.633444862638
 20
2575.968468300508
 30
0.0
 10
1120.510911437015
 20
2575.760819895401
 30
0.0
 10
1127.38837097373
 20
2575.55317183924
 30
0.0
 10
1134.265822367951
 20
2575.345524184748
 30
0.0
  0
LINE
  5
192
330
1F
100
AcDbEntity
  8
0
  6
CONTINUOUS
 62
     7
100
AcDbLine
 10
1451.7199182886
 20
2536.5626679222
 30
0.0
 11
1516.1787234043
 21
2536.5626679222
 31
0.0
  0
LINE
  5
193
330
1F
100
AcDbEntity
  8
0
  6
CONTINUOUS
 62
     7
100
AcDbLine
 10
1445.1787234043
 20
2536.5626679222
 30
0.0
 11
1451.7199182886
 21
2536.5626679222
 31
0.0
  0
LINE
  5
194
330
1F
100
AcDbEntity
  8
0
  6
CONTINUOUS
 62
     7
100
AcDbLine
 10
1451.7199182886
 20
2553.5626679222
 30
0.0
 11
1445.1787234043
 21
2553.5626679222
 31
0.0
  0
LINE
  5
195
330
1F
100
AcDbEntity
  8
0
  6
CONTINUOUS
 62
     7
100
AcDbLine
 10
1516.1787234043
 20
2553.5626679222
 30
0.0
 11
1451.7199182886
 21
2553.5626679222
 31
0.0
  0
LINE
  5
196
330
1F
100
AcDbEntity
  8
0
  6
CONTINUOUS
 62
     7
100
AcDbLine
 10
1445.2589131411
 20
2564.1543732946
 30
0.0
 11
1516.0985336674
 21
2564.1543732946
 31
0.0
  0
LINE
  5
197
330
1F
100
AcDbEntity
  8
0
  6
CONTINUOUS
 62
     7
100
AcDbLine
 10
1452.9969876944
 20
2558.1408716352
 30
0.0
 11
1508.3604591141
 21
2558.1408716352
 31
0.0
  0
DIMENSION
  5
198
330
1F
100
AcDbEntity
  8
0
  6
CONTINUOUS
 62
     7
100
AcDbDimension
  2
*D6
 10
1480.6787234043
 20
2743.2300372093
 30
0.0
 11
1296.4906072313
 21
2743.2300372093
 31
0.0
 70
   160
  3
SLDDIMSTYLE1
100
AcDbAlignedDimension
 13
1105.6787234043
 23
2675.9684683005
 33
0.0
 14
1480.6787234043
 24
2693.4751739571
 34
0.0
 50
0.0
100
AcDbRotatedDimension
  0
CIRCLE
  5
1A2
330
1F
100
AcDbEntity
  8
0
  6
CONTINUOUS
 62
     7
100
AcDbCircle
 10
628.1106382979
 20
1810.2063829787
 30
0.0
 40
32.49999999999987
  0
CIRCLE
  5
1A3
330
1F
100
AcDbEntity
  8
0
  6
CONTINUOUS
 62
     7
100
AcDbCircle
 10
628.1106382979
 20
1810.2063829787
 30
0.0
 40
31.66487566133211
  0
LINE
  5
1A4
330
1F
100
AcDbEntity
  8
0
  6
CONTINUOUS
 62
     7
100
AcDbLine
 10
812.6106382979
 20
1438.7367130646
 30
0.0
 11
815.6106382979
 21
1438.7367130646
 31
0.0
  0
LINE
  5
1A5
330
1F
100
AcDbEntity
  8
0
  6
CONTINUOUS
 62
     7
100
AcDbLine
 10
815.6106382979
 20
1438.7367130646
 30
0.0
 11
815.6106382979
 21
2181.6760528928
 31
0.0
  0
LINE
  5
1A6
330
1F
100
AcDbEntity
  8
0
  6
CONTINUOUS
 62
     7
100
AcDbLine
 10
812.6106382979
 20
2181.6760528928
 30
0.0
 11
815.6106382979
 21
2181.6760528928
 31
0.0
  0
LINE
  5
1A7
330
1F
100
AcDbEntity
  8
0
  6
CONTINUOUS
 62
     7
100
AcDbLine
 10
812.6106382979
 20
1438.7367130646
 30
0.0
 11
812.6106382979
 21
2181.6760528928
 31
0.0
  0
LINE
  5
1A8
330
1F
100
AcDbEntity
  8
0
  6
CONTINUOUS
 62
     7
100
AcDbLine
 10
443.6106382979
 20
1438.7367130646
 30
0.0
 11
440.6106382979
 21
1438.7367130646
 31
0.0
  0
LINE
  5
1A9
330
1F
100
AcDbEntity
  8
0
  6
CONTINUOUS
 62
     7
100
AcDbLine
 10
440.6106382979
 20
2181.6760528928
 30
0.0
 11
440.6106382979
 21
1438.7367130646
 31
0.0
  0
LINE
  5
1AA
330
1F
100
AcDbEntity
  8
0
  6
CONTINUOUS
 62
     7
100
AcDbLine
 10
443.6106382979
 20
2181.6760528928
 30
0.0
 11
440.6106382979
 21
2181.6760528928
 31
0.0
  0
LINE
  5
1AB
330
1F
100
AcDbEntity
  8
0
  6
CONTINUOUS
 62
     7
100
AcDbLine
 10
443.6106382979
 20
2181.6760528928
 30
0.0
 11
443.6106382979
 21
1438.7367130646
 31
0.0
  0
LINE
  5
1AC
330
1F
100
AcDbEntity
  8
0
  6
CONTINUOUS
 62
     7
100
AcDbLine
 10
444.1409683838
 20
2182.2063829787
 30
0.0
 11
444.1409683838
 21
2185.2063829787
 31
0.0
  0
LINE
  5
1AD
330
1F
100
AcDbEntity
  8
0
  6
CONTINUOUS
 62
     7
100
AcDbLine
 10
812.080308212
 20
2182.2063829787
 30
0.0
 11
812.080308212
 21
2185.2063829787
 31
0.0
  0
LINE
  5
1AE
330
1F
100
AcDbEntity
  8
0
  6
CONTINUOUS
 62
     7
100
AcDbLine
 10
812.080308212
 20
2185.2063829787
 30
0.0
 11
444.1409683838
 21
2185.2063829787
 31
0.0
  0
LINE
  5
1AF
330
1F
100
AcDbEntity
  8
0
  6
CONTINUOUS
 62
     7
100
AcDbLine
 10
812.080308212
 20
2182.2063829787
 30
0.0
 11
444.1409683838
 21
2182.2063829787
 31
0.0
  0
LINE
  5
1B0
330
1F
100
AcDbEntity
  8
0
  6
CONTINUOUS
 62
     7
100
AcDbLine
 10
444.1409683838
 20
1438.2063829787
 30
0.0
 11
444.1409683838
 21
1435.2063829787
 31
0.0
  0
LINE
  5
1B1
330
1F
100
AcDbEntity
  8
0
  6
CONTINUOUS
 62
     7
100
AcDbLine
 10
812.080308212
 20
1438.2063829787
 30
0.0
 11
812.080308212
 21
1435.2063829787
 31
0.0
  0
LINE
  5
1B2
330
1F
100
AcDbEntity
  8
0
  6
CONTINUOUS
 62
     7
100
AcDbLine
 10
444.1409683838
 20
1438.2063829787
 30
0.0
 11
812.080308212
 21
1438.2063829787
 31
0.0
  0
LINE
  5
1B3
330
1F
100
AcDbEntity
  8
0
  6
CONTINUOUS
 62
     7
100
AcDbLine
 10
444.1409683838
 20
1435.2063829787
 30
0.0
 11
812.080308212
 21
1435.2063829787
 31
0.0
  0
LINE
  5
1B4
330
1F
100
AcDbEntity
  8
0
  6
CONTINUOUS
 62
     7
100
AcDbLine
 10
810.6106382979
 20
2180.2063829787
 30
0.0
 11
445.6106382979
 21
2180.2063829787
 31
0.0
  0
SPLINE
  5
1B5
330
1F
100
AcDbEntity
  8
0
  6
CONTINUOUS
 62
     7
100
AcDbSpline
210
0.0
220
0.0
230
1.0
 70
     8
 71
     3
 72
    14
 73
    10
 74
     0
 42
0.00000001
 43
0.00000001
 40
0.0
 40
0.0
 40
0.0
 40
0.0
 40
0.25
 40
0.25
 40
0.5
 40
0.5
 40
0.75
 40
0.75
 40
1.0
 40
1.0
 40
1.0
 40
1.0
 10
445.6106382978722
 20
2180.206382978723
 30
0.0
 10
445.4881476883475
 20
2180.468221093065
 30
0.0
 10
445.3656933121871
 20
2180.729878747441
 30
0.0
 10
445.1207483265021
 20
2181.213620939465
 30
0.0
 10
444.9982758336596
 20
2181.435476418673
 30
0.0
 10
444.7533308479746
 20
2181.805716663519
 30
0.0
 10
444.6308583551321
 20
2181.953955755432
 30
0.0
 10
444.3859133694471
 20
2182.15432833206
 30
0.0
 10
444.2634589932867
 20
2182.206382978723
 30
0.0
 10
444.140968383762
 20
2182.206382978723
 30
0.0
  0
SPLINE
  5
1B6
330
1F
100
AcDbEntity
  8
0
  6
CONTINUOUS
 62
     7
100
AcDbSpline
210
0.0
220
0.0
230
1.0
 70
     8
 71
     3
 72
    14
 73
    10
 74
     0
 42
0.00000001
 43
0.00000001
 40
0.0
 40
0.0
 40
0.0
 40
0.0
 40
0.25
 40
0.25
 40
0.5
 40
0.5
 40
0.75
 40
0.75
 40
1.0
 40
1.0
 40
1.0
 40
1.0
 10
810.610638297872
 20
2180.206382978723
 30
0.0
 10
810.7331107907144
 20
2180.468182366522
 30
0.0
 10
810.855583283557
 20
2180.729878747441
 30
0.0
 10
811.100528269242
 20
2181.213620939464
 30
0.0
 10
811.2230007620846
 20
2181.435476418673
 30
0.0
 10
811.4679457477696
 20
2181.805716663519
 30
0.0
 10
811.590418240612
 20
2181.953955755432
 30
0.0
 10
811.8353632262972
 20
2182.15432833206
 30
0.0
 10
811.9578357191396
 20
2182.206382978723
 30
0.0
 10
812.0803082119821
 20
2182.206382978723
 30
0.0
  0
LINE
  5
1B7
330
1F
100
AcDbEntity
  8
0
  6
CONTINUOUS
 62
     7
100
AcDbLine
 10
810.6106382979
 20
1440.2063829787
 30
0.0
 11
810.6106382979
 21
2180.2063829787
 31
0.0
  0
SPLINE
  5
1B8
330
1F
100
AcDbEntity
  8
0
  6
CONTINUOUS
 62
     7
100
AcDbSpline
210
0.0
220
0.0
230
1.0
 70
     8
 71
     3
 72
    14
 73
    10
 74
     0
 42
0.00000001
 43
0.00000001
 40
0.0
 40
0.0
 40
0.0
 40
0.0
 40
0.25
 40
0.25
 40
0.5
 40
0.5
 40
0.75
 40
0.75
 40
1.0
 40
1.0
 40
1.0
 40
1.0
 10
810.6106382978721
 20
1440.206382978723
 30
0.0
 10
810.8724376856713
 20
1440.08391048588
 30
0.0
 10
811.1341340665907
 20
1439.961437993038
 30
0.0
 10
811.617876258614
 20
1439.716493007352
 30
0.0
 10
811.839731737822
 20
1439.59402051451
 30
0.0
 10
812.2099719826685
 20
1439.349075528825
 30
0.0
 10
812.3582110745807
 20
1439.226603035982
 30
0.0
 10
812.5585836512088
 20
1438.981658050297
 30
0.0
 10
812.6106382978722
 20
1438.859185557455
 30
0.0
 10
812.6106382978722
 20
1438.736713064613
 30
0.0
  0
SPLINE
  5
1B9
330
1F
100
AcDbEntity
  8
0
  6
CONTINUOUS
 62
     7
100
AcDbSpline
210
0.0
220
0.0
230
1.0
 70
     8
 71
     3
 72
    14
 73
    10
 74
     0
 42
0.00000001
 43
0.00000001
 40
0.0
 40
0.0
 40
0.0
 40
0.0
 40
0.25
 40
0.25
 40
0.5
 40
0.5
 40
0.75
 40
0.75
 40
1.0
 40
1.0
 40
1.0
 40
1.0
 10
812.610638297872
 20
2181.676052892833
 30
0.0
 10
812.6106382978719
 20
2181.55358039999
 30
0.0
 10
812.5585836512087
 20
2181.431107907148
 30
0.0
 10
812.3582110745806
 20
2181.186162921463
 30
0.0
 10
812.2099719826683
 20
2181.06369042862
 30
0.0
 10
811.8397317378218
 20
2180.818745442935
 30
0.0
 10
811.6178762586137
 20
2180.696272950093
 30
0.0
 10
811.1341340665905
 20
2180.451327964408
 30
0.0
 10
810.8724376856711
 20
2180.328855471565
 30
0.0
 10
810.610638297872
 20
2180.206382978723
 30
0.0
  0
LINE
  5
1BA
330
1F
100
AcDbEntity
  8
0
  6
CONTINUOUS
 62
     7
100
AcDbLine
 10
445.6106382979
 20
2180.2063829787
 30
0.0
 11
445.6106382979
 21
1440.2063829787
 31
0.0
  0
SPLINE
  5
1BB
330
1F
100
AcDbEntity
  8
0
  6
CONTINUOUS
 62
     7
100
AcDbSpline
210
0.0
220
0.0
230
1.0
 70
     8
 71
     3
 72
    14
 73
    10
 74
     0
 42
0.00000001
 43
0.00000001
 40
0.0
 40
0.0
 40
0.0
 40
0.0
 40
0.25
 40
0.25
 40
0.5
 40
0.5
 40
0.75
 40
0.75
 40
1.0
 40
1.0
 40
1.0
 40
1.0
 10
443.610638297872
 20
1438.736713064613
 30
0.0
 10
443.6106382978722
 20
1438.859185557455
 30
0.0
 10
443.6626929445354
 20
1438.981658050297
 30
0.0
 10
443.8630655211635
 20
1439.226603035983
 30
0.0
 10
444.0113046130757
 20
1439.349075528825
 30
0.0
 10
444.3815448579222
 20
1439.59402051451
 30
0.0
 10
444.6034003371303
 20
1439.716493007353
 30
0.0
 10
445.0871425291536
 20
1439.961437993038
 30
0.0
 10
445.3488389100729
 20
1440.08391048588
 30
0.0
 10
445.6106382978721
 20
1440.206382978723
 30
0.0
  0
SPLINE
  5
1BC
330
1F
100
AcDbEntity
  8
0
  6
CONTINUOUS
 62
     7
100
AcDbSpline
210
0.0
220
0.0
230
1.0
 70
     8
 71
     3
 72
    14
 73
    10
 74
     0
 42
0.00000001
 43
0.00000001
 40
0.0
 40
0.0
 40
0.0
 40
0.0
 40
0.25
 40
0.25
 40
0.5
 40
0.5
 40
0.75
 40
0.75
 40
1.0
 40
1.0
 40
1.0
 40
1.0
 10
443.610638297872
 20
2181.676052892833
 30
0.0
 10
443.610638297872
 20
2181.553562283309
 30
0.0
 10
443.6626929445354
 20
2181.431107907148
 30
0.0
 10
443.8630655211635
 20
2181.186162921463
 30
0.0
 10
444.0113046130757
 20
2181.063690428621
 30
0.0
 10
444.3815448579223
 20
2180.818745442936
 30
0.0
 10
444.6034003371303
 20
2180.696272950093
 30
0.0
 10
445.0871425291536
 20
2180.451327964408
 30
0.0
 10
445.3488001835296
 20
2180.328873588247
 30
0.0
 10
445.6106382978721
 20
2180.206382978723
 30
0.0
  0
LINE
  5
1BD
330
1F
100
AcDbEntity
  8
0
  6
CONTINUOUS
 62
     7
100
AcDbLine
 10
445.6106382979
 20
1440.2063829787
 30
0.0
 11
810.6106382979
 21
1440.2063829787
 31
0.0
  0
SPLINE
  5
1BE
330
1F
100
AcDbEntity
  8
0
  6
CONTINUOUS
 62
     7
100
AcDbSpline
210
0.0
220
0.0
230
1.0
 70
     8
 71
     3
 72
    14
 73
    10
 74
     0
 42
0.00000001
 43
0.00000001
 40
0.0
 40
0.0
 40
0.0
 40
0.0
 40
0.25
 40
0.25
 40
0.5
 40
0.5
 40
0.75
 40
0.75
 40
1.0
 40
1.0
 40
1.0
 40
1.0
 10
812.0803082119824
 20
1438.206382978723
 30
0.0
 10
811.9578357191398
 20
1438.206382978723
 30
0.0
 10
811.8353632262973
 20
1438.258437625386
 30
0.0
 10
811.5904182406123
 20
1438.458810202015
 30
0.0
 10
811.4679457477697
 20
1438.607049293927
 30
0.0
 10
811.2230007620848
 20
1438.977289538773
 30
0.0
 10
811.1005282692422
 20
1439.199145017981
 30
0.0
 10
810.8555832835572
 20
1439.682887210005
 30
0.0
 10
810.7331107907147
 20
1439.944583590924
 30
0.0
 10
810.6106382978721
 20
1440.206382978723
 30
0.0
  0
SPLINE
  5
1BF
330
1F
100
AcDbEntity
  8
0
  6
CONTINUOUS
 62
     7
100
AcDbSpline
210
0.0
220
0.0
230
1.0
 70
     8
 71
     3
 72
    14
 73
    10
 74
     0
 42
0.00000001
 43
0.00000001
 40
0.0
 40
0.0
 40
0.0
 40
0.0
 40
0.25
 40
0.25
 40
0.5
 40
0.5
 40
0.75
 40
0.75
 40
1.0
 40
1.0
 40
1.0
 40
1.0
 10
445.6106382978721
 20
1440.206382978723
 30
0.0
 10
445.4881658050296
 20
1439.944583590924
 30
0.0
 10
445.365693312187
 20
1439.682887210004
 30
0.0
 10
445.1207483265021
 20
1439.199145017981
 30
0.0
 10
444.9982758336594
 20
1438.977289538773
 30
0.0
 10
444.7533308479746
 20
1438.607049293927
 30
0.0
 10
444.6308583551319
 20
1438.458810202014
 30
0.0
 10
444.3859133694469
 20
1438.258437625386
 30
0.0
 10
444.2634408766044
 20
1438.206382978723
 30
0.0
 10
444.1409683837619
 20
1438.206382978723
 30
0.0
  0
LINE
  5
1C0
330
1F
100
AcDbEntity
  8
0
  6
CONTINUOUS
 62
     7
100
AcDbLine
 10
807.6106382979
 20
1443.2063829787
 30
0.0
 11
448.6106382979
 21
1443.2063829787
 31
0.0
  0
LINE
  5
1C1
330
1F
100
AcDbEntity
  8
0
  6
CONTINUOUS
 62
     7
100
AcDbLine
 10
807.6106382979
 20
2177.2063829787
 30
0.0
 11
807.6106382979
 21
1443.2063829787
 31
0.0
  0
LINE
  5
1C2
330
1F
100
AcDbEntity
  8
0
  6
CONTINUOUS
 62
     7
100
AcDbLine
 10
448.6106382979
 20
2177.2063829787
 30
0.0
 11
807.6106382979
 21
2177.2063829787
 31
0.0
  0
LINE
  5
1C3
330
1F
100
AcDbEntity
  8
0
  6
CONTINUOUS
 62
     7
100
AcDbLine
 10
448.6106382979
 20
1443.2063829787
 30
0.0
 11
448.6106382979
 21
2177.2063829787
 31
0.0
  0
LINE
  5
1C4
330
1F
100
AcDbEntity
  8
0
  6
CONTINUOUS
 62
     7
100
AcDbLine
 10
448.6106382979
 20
2177.2063829787
 30
0.0
 11
610.6019917405
 21
1846.0040057451
 31
0.0
  0
ARC
  5
1C5
330
1F
100
AcDbEntity
  8
0
  6
CONTINUOUS
 62
     7
100
AcDbCircle
 10
628.1106382979
 20
1810.2063829787
 30
0.0
 40
39.85000000000009
100
AcDbArc
 50
116.0632947254
 51
243.9367052747
  0
LINE
  5
1C6
330
1F
100
AcDbEntity
  8
0
  6
CONTINUOUS
 62
     7
100
AcDbLine
 10
448.6106382979
 20
1443.2063829787
 30
0.0
 11
610.6019917405
 21
1774.4087602123
 31
0.0
  0
LINE
  5
1C7
330
1F
100
AcDbEntity
  8
0
  6
CONTINUOUS
 62
     7
100
AcDbLine
 10
645.6192848553
 20
1846.0040057451
 30
0.0
 11
807.6106382979
 21
2177.2063829787
 31
0.0
  0
ARC
  5
1C8
330
1F
100
AcDbEntity
  8
0
  6
CONTINUOUS
 62
     7
100
AcDbCircle
 10
628.1106382979
 20
1810.2063829787
 30
0.0
 40
39.85000000000009
100
AcDbArc
 50
63.9367052747
 51
116.0632947254
  0
LINE
  5
1C9
330
1F
100
AcDbEntity
  8
0
  6
CONTINUOUS
 62
     7
100
AcDbLine
 10
807.6106382979
 20
1443.2063829787
 30
0.0
 11
645.6192848553
 21
1774.4087602123
 31
0.0
  0
ARC
  5
1CA
330
1F
100
AcDbEntity
  8
0
  6
CONTINUOUS
 62
     7
100
AcDbCircle
 10
628.1106382979
 20
1810.2063829787
 30
0.0
 40
39.85000000000008
100
AcDbArc
 50
296.0632947254
 51
63.9367052747
  0
ARC
  5
1CB
330
1F
100
AcDbEntity
  8
0
  6
CONTINUOUS
 62
     7
100
AcDbCircle
 10
628.1106382979
 20
1810.2063829787
 30
0.0
 40
39.85000000000008
100
AcDbArc
 50
243.9367052747
 51
296.0632947254
  0
CIRCLE
  5
1CC
330
1F
100
AcDbEntity
  8
0
  6
CONTINUOUS
 62
     7
100
AcDbCircle
 10
628.1106382979
 20
1810.2063829787
 30
0.0
 40
34.37224709243515
  0
DIMENSION
  5
1CD
330
1F
100
AcDbEntity
  8
0
  6
CONTINUOUS
 62
     7
100
AcDbDimension
  2
*D7
 10
815.6106382979
 20
2252.330883196
 30
0.0
 11
628.5793410707
 21
2252.330883196
 31
0.0
 70
   160
  3
SLDDIMSTYLE1
100
AcDbAlignedDimension
 13
440.6106382979
 23
2181.6760528928
 33
0.0
 14
815.6106382979
 24
2181.6760528928
 34
0.0
100
AcDbRotatedDimension
  0
DIMENSION
  5
1D7
330
1F
100
AcDbEntity
  8
0
  6
CONTINUOUS
 62
     7
100
AcDbDimension
  2
*D8
 10
906.4409486182
 20
2185.2063829787
 30
0.0
 11
906.4409486182
 21
2143.2184107564
 31
0.0
 70
   160
  3
SLDDIMSTYLE1
100
AcDbAlignedDimension
 13
812.080308212
 23
2182.2063829787
 33
0.0
 14
812.080308212
 24
2185.2063829787
 34
0.0
 50
90.0
100
AcDbRotatedDimension
  0
DIMENSION
  5
1E2
330
1F
100
AcDbEntity
  8
0
  6
CONTINUOUS
 62
     7
100
AcDbDimension
  2
*D9
 10
997.8997529279
 20
1435.2063829787
 30
0.0
 11
997.8997529279
 21
1810.2992497694
 31
0.0
 70
   160
  3
SLDDIMSTYLE1
100
AcDbAlignedDimension
 13
812.080308212
 23
2185.2063829787
 33
0.0
 14
812.080308212
 24
1435.2063829787
 34
0.0
 50
90.0
100
AcDbRotatedDimension
  0
DIMENSION
  5
1EC
330
1F
100
AcDbEntity
  8
0
  6
CONTINUOUS
 62
     7
100
AcDbDimension
  2
*D10
 10
906.4409486182
 20
1435.2063829787
 30
0.0
 11
906.4409486182
 21
1476.0794160219
 31
0.0
 70
   160
  3
SLDDIMSTYLE1
100
AcDbAlignedDimension
 13
812.080308212
 23
1438.2063829787
 33
0.0
 14
812.080308212
 24
1435.2063829787
 34
0.0
 50
90.0
100
AcDbRotatedDimension
  0
ENDSEC
  0
SECTION
  2
OBJECTS
  0
DICTIONARY
  5
C
330
0
100
AcDbDictionary
  3
ACAD_GROUP
350
D
  3
ACAD_LAYOUT
350
1A
  3
ACAD_MLINESTYLE
350
17
  3
ACAD_PLOTSETTINGS
350
19
  3
ACDBHEADERROUNDTRIPXREC
350
1F7
  0
DICTIONARY
  5
D
102
{ACAD_REACTORS
330
C
102
}
330
C
100
AcDbDictionary
  0
DICTIONARY
  5
1A
102
{ACAD_REACTORS
330
C
102
}
330
C
100
AcDbDictionary
  0
DICTIONARY
  5
17
102
{ACAD_REACTORS
330
C
102
}
330
C
100
AcDbDictionary
  3
STANDARD
350
18
  0
DICTIONARY
  5
19
102
{ACAD_REACTORS
330
C
102
}
330
C
100
AcDbDictionary
  0
DICTIONARY
  5
1F7
102
{ACAD_REACTORS
330
C
102
}
330
C
100
AcDbDictionary
  3
CEPSNTYPE
350
200
  3
DIMSTYLEDATA
350
216
  3
FINGERPRINTGUID
350
201
  3
HYPERLINKBASE
350
1FA
  3
INSUNITS
350
1FF
  3
LAYOUTDICT
350
1FC
  3
LWETCUNION
350
1FE
  3
PLOTSETDICT
350
1FD
  3
PSVPSCALE
350
203
  3
PUCSBASE
350
206
  3
PUCSORGBACK
350
20C
  3
PUCSORGBOTTOM
350
208
  3
PUCSORGFRONT
350
20B
  3
PUCSORGLEFT
350
209
  3
PUCSORGRIGHT
350
20A
  3
PUCSORGTOP
350
207
  3
PUCSORTHOREF
350
204
  3
PUCSORTHOVIEW
350
205
  3
STYLESHEET
350
1FB
  3
TSTACKALIGN
350
1F8
  3
TSTACKSIZE
350
1F9
  3
UCSBASE
350
20F
  3
UCSORGBACK
350
215
  3
UCSORGBOTTOM
350
211
  3
UCSORGFRONT
350
214
  3
UCSORGLEFT
350
212
  3
UCSORGRIGHT
350
213
  3
UCSORGTOP
350
210
  3
UCSORTHOREF
350
20D
  3
UCSORTHOVIEW
350
20E
  3
VERSIONGUID
350
202
  0
MLINESTYLE
  5
18
102
{ACAD_REACTORS
330
17
102
}
330
17
100
AcDbMlineStyle
  2
Standard
 70
     0
  3

 62
   256
 51
90.0
 52
90.0
 71
     2
 49
0.5
 62
   256
  6
BYLAYER
 49
-0.5
 62
   256
  6
BYLAYER
  0
XRECORD
  5
200
102
{ACAD_REACTORS
330
1F7
102
}
330
1F7
100
AcDbXrecord
 90
        0
  0
XRECORD
  5
216
102
{ACAD_REACTORS
330
1F7
102
}
330
1F7
100
AcDbXrecord
1000
DSTYLE
1002
{
1070
   143
 40
0.0393700787
1070
    41
 40
25.0
1070
    44
 40
10.0
1070
    42
 40
0.05
1070
   147
 40
15.24
1070
    73
 70
     1
1070
    74
 70
     1
1070
   340
340
11
1070
   140
 40
35.0
1070
   284
 70
     0
1070
    78
 70
     0
1002
}
  0
XRECORD
  5
201
102
{ACAD_REACTORS
330
1F7
102
}
330
1F7
100
AcDbXrecord
  1
{919B916A-5DE3-47AB-82E8-10FDCE10D7B6}
  0
XRECORD
  5
1FA
102
{ACAD_REACTORS
330
1F7
102
}
330
1F7
100
AcDbXrecord
  1

  0
XRECORD
  5
1FF
102
{ACAD_REACTORS
330
1F7
102
}
330
1F7
100
AcDbXrecord
 90
        4
  0
XRECORD
  5
1FC
102
{ACAD_REACTORS
330
1F7
102
}
330
1F7
100
AcDbXrecord
340
1A
  0
XRECORD
  5
1FE
102
{ACAD_REACTORS
330
1F7
102
}
330
1F7
100
AcDbXrecord
 90
    10269
  0
XRECORD
  5
1FD
102
{ACAD_REACTORS
330
1F7
102
}
330
1F7
100
AcDbXrecord
340
19
  0
XRECORD
  5
203
102
{ACAD_REACTORS
330
1F7
102
}
330
1F7
100
AcDbXrecord
 40
0.0
  0
XRECORD
  5
206
102
{ACAD_REACTORS
330
1F7
102
}
330
1F7
100
AcDbXrecord
340
0
  0
XRECORD
  5
20C
102
{ACAD_REACTORS
330
1F7
102
}
330
1F7
100
AcDbXrecord
 10
0.0
 20
0.0
 30
0.0
  0
XRECORD
  5
208
102
{ACAD_REACTORS
330
1F7
102
}
330
1F7
100
AcDbXrecord
 10
0.0
 20
0.0
 30
0.0
  0
XRECORD
  5
20B
102
{ACAD_REACTORS
330
1F7
102
}
330
1F7
100
AcDbXrecord
 10
0.0
 20
0.0
 30
0.0
  0
XRECORD
  5
209
102
{ACAD_REACTORS
330
1F7
102
}
330
1F7
100
AcDbXrecord
 10
0.0
 20
0.0
 30
0.0
  0
XRECORD
  5
20A
102
{ACAD_REACTORS
330
1F7
102
}
330
1F7
100
AcDbXrecord
 10
0.0
 20
0.0
 30
0.0
  0
XRECORD
  5
207
102
{ACAD_REACTORS
330
1F7
102
}
330
1F7
100
AcDbXrecord
 10
0.0
 20
0.0
 30
0.0
  0
XRECORD
  5
204
102
{ACAD_REACTORS
330
1F7
102
}
330
1F7
100
AcDbXrecord
340
0
  0
XRECORD
  5
205
102
{ACAD_REACTORS
330
1F7
102
}
330
1F7
100
AcDbXrecord
 70
     0
  0
XRECORD
  5
1FB
102
{ACAD_REACTORS
330
1F7
102
}
330
1F7
100
AcDbXrecord
  1

  0
XRECORD
  5
1F8
102
{ACAD_REACTORS
330
1F7
102
}
330
1F7
100
AcDbXrecord
 90
        1
  0
XRECORD
  5
1F9
102
{ACAD_REACTORS
330
1F7
102
}
330
1F7
100
AcDbXrecord
 90
       70
  0
XRECORD
  5
20F
102
{ACAD_REACTORS
330
1F7
102
}
330
1F7
100
AcDbXrecord
340
0
  0
XRECORD
  5
215
102
{ACAD_REACTORS
330
1F7
102
}
330
1F7
100
AcDbXrecord
 10
0.0
 20
0.0
 30
0.0
  0
XRECORD
  5
211
102
{ACAD_REACTORS
330
1F7
102
}
330
1F7
100
AcDbXrecord
 10
0.0
 20
0.0
 30
0.0
  0
XRECORD
  5
214
102
{ACAD_REACTORS
330
1F7
102
}
330
1F7
100
AcDbXrecord
 10
0.0
 20
0.0
 30
0.0
  0
XRECORD
  5
212
102
{ACAD_REACTORS
330
1F7
102
}
330
1F7
100
AcDbXrecord
 10
0.0
 20
0.0
 30
0.0
  0
XRECORD
  5
213
102
{ACAD_REACTORS
330
1F7
102
}
330
1F7
100
AcDbXrecord
 10
0.0
 20
0.0
 30
0.0
  0
XRECORD
  5
210
102
{ACAD_REACTORS
330
1F7
102
}
330
1F7
100
AcDbXrecord
 10
0.0
 20
0.0
 30
0.0
  0
XRECORD
  5
20D
102
{ACAD_REACTORS
330
1F7
102
}
330
1F7
100
AcDbXrecord
340
0
  0
XRECORD
  5
20E
102
{ACAD_REACTORS
330
1F7
102
}
330
1F7
100
AcDbXrecord
 70
     0
  0
XRECORD
  5
202
102
{ACAD_REACTORS
330
1F7
102
}
330
1F7
100
AcDbXrecord
  1
{FAEB1C32-E019-11D5-929B-00C0DF256EC4}
  0
ENDSEC
  0
EOF
