  0
SECTION
  2
HEADER
  9
$ACADVER
  1
AC1027
  9
$ACADMAINTVER
 70
   125
  9
$DWGCODEPAGE
  3
ANSI_1252
  9
$LASTSAVEDBY
  1
fleminab
  9
$REQUIREDVERSIONS
160
                 0
  9
$INSBASE
 10
0.0
 20
0.0
 30
0.0
  9
$EXTMIN
 10
94.04454393126753
 20
-239.6813088933316
 30
-0.0000122060999417
  9
$EXTMAX
 10
1026.735160865414
 20
642.40678073807
 30
0.4000122079625868
  9
$LIMMIN
 10
0.0
 20
0.0
  9
$LIMMAX
 10
12.0
 20
9.0
  9
$ORTHOMODE
 70
     1
  9
$REGENMODE
 70
     1
  9
$FILLMODE
 70
     1
  9
$QTEXTMODE
 70
     0
  9
$MIRRTEXT
 70
     0
  9
$LTSCALE
 40
15.0
  9
$ATTMODE
 70
     1
  9
$TEXTSIZE
 40
5.0
  9
$TRACEWID
 40
0.05
  9
$TEXTSTYLE
  7
STANDARD
  9
$CLAYER
  8
DIM
  9
$CELTYPE
  6
BYLAYER
  9
$CECOLOR
 62
   256
  9
$CELTSCALE
 40
1.0
  9
$DISPSILH
 70
     0
  9
$DIMSCALE
 40
1.0
  9
$DIMASZ
 40
5.0
  9
$DIMEXO
 40
0.0625
  9
$DIMDLI
 40
0.38
  9
$DIMRND
 40
0.0
  9
$DIMDLE
 40
0.0
  9
$DIMEXE
 40
0.18
  9
$DIMTP
 40
0.0
  9
$DIMTM
 40
0.0
  9
$DIMTXT
 40
5.0
  9
$DIMCEN
 40
0.09
  9
$DIMTSZ
 40
0.0
  9
$DIMTOL
 70
     0
  9
$DIMLIM
 70
     0
  9
$DIMTIH
 70
     1
  9
$DIMTOH
 70
     1
  9
$DIMSE1
 70
     0
  9
$DIMSE2
 70
     0
  9
$DIMTAD
 70
     0
  9
$DIMZIN
 70
     0
  9
$DIMBLK
  1

  9
$DIMASO
 70
     1
  9
$DIMSHO
 70
     1
  9
$DIMPOST
  1

  9
$DIMAPOST
  1

  9
$DIMALT
 70
     0
  9
$DIMALTD
 70
     2
  9
$DIMALTF
 40
25.4
  9
$DIMLFAC
 40
1.0
  9
$DIMTOFL
 70
     0
  9
$DIMTVP
 40
0.0
  9
$DIMTIX
 70
     0
  9
$DIMSOXD
 70
     0
  9
$DIMSAH
 70
     0
  9
$DIMBLK1
  1

  9
$DIMBLK2
  1

  9
$DIMSTYLE
  2
STANDARD
  9
$DIMCLRD
 70
     0
  9
$DIMCLRE
 70
     0
  9
$DIMCLRT
 70
     1
  9
$DIMTFAC
 40
1.0
  9
$DIMGAP
 40
0.09
  9
$DIMJUST
 70
     0
  9
$DIMSD1
 70
     0
  9
$DIMSD2
 70
     0
  9
$DIMTOLJ
 70
     1
  9
$DIMTZIN
 70
     0
  9
$DIMALTZ
 70
     0
  9
$DIMALTTZ
 70
     0
  9
$DIMUPT
 70
     0
  9
$DIMDEC
 70
     2
  9
$DIMTDEC
 70
     2
  9
$DIMALTU
 70
     2
  9
$DIMALTTD
 70
     2
  9
$DIMTXSTY
  7
STANDARD
  9
$DIMAUNIT
 70
     0
  9
$DIMADEC
 70
     0
  9
$DIMALTRND
 40
0.0
  9
$DIMAZIN
 70
     0
  9
$DIMDSEP
 70
    46
  9
$DIMATFIT
 70
     3
  9
$DIMFRAC
 70
     0
  9
$DIMLDRBLK
  1

  9
$DIMLUNIT
 70
     2
  9
$DIMLWD
 70
    -2
  9
$DIMLWE
 70
    -2
  9
$DIMTMOVE
 70
     0
  9
$DIMFXL
 40
1.0
  9
$DIMFXLON
 70
     0
  9
$DIMJOGANG
 40
0.7853981633974483
  9
$DIMTFILL
 70
     0
  9
$DIMTFILLCLR
 70
     0
  9
$DIMARCSYM
 70
     0
  9
$DIMLTYPE
  6

  9
$DIMLTEX1
  6

  9
$DIMLTEX2
  6

  9
$DIMTXTDIRECTION
 70
     0
  9
$LUNITS
 70
     2
  9
$LUPREC
 70
     4
  9
$SKETCHINC
 40
0.1
  9
$FILLETRAD
 40
25.0
  9
$AUNITS
 70
     0
  9
$AUPREC
 70
     0
  9
$MENU
  1
acad
  9
$ELEVATION
 40
0.0
  9
$PELEVATION
 40
0.0
  9
$THICKNESS
 40
0.4
  9
$LIMCHECK
 70
     0
  9
$CHAMFERA
 40
0.5
  9
$CHAMFERB
 40
0.5
  9
$CHAMFERC
 40
1.0
  9
$CHAMFERD
 40
0.0
  9
$SKPOLY
 70
     0
  9
$TDCREATE
 40
2451093.796273148
  9
$TDUCREATE
 40
2451093.337950000
  9
$TDUPDATE
 40
2458096.473888889
  9
$TDUUPDATE
 40
2458096.015555556
  9
$TDINDWG
 40
6.4554545833
  9
$TDUSRTIMER
 40
6.4554545833
  9
$USRTIMER
 70
     1
  9
$ANGBASE
 50
0.0
  9
$ANGDIR
 70
     0
  9
$PDMODE
 70
     3
  9
$PDSIZE
 40
0.0
  9
$PLINEWID
 40
0.0
  9
$SPLFRAME
 70
     0
  9
$SPLINETYPE
 70
     6
  9
$SPLINESEGS
 70
     8
  9
$HANDSEED
  5
F814
  9
$SURFTAB1
 70
     6
  9
$SURFTAB2
 70
     6
  9
$SURFTYPE
 70
     6
  9
$SURFU
 70
     6
  9
$SURFV
 70
     6
  9
$UCSBASE
  2

  9
$UCSNAME
  2

  9
$UCSORG
 10
0.0
 20
0.0
 30
0.0
  9
$UCSXDIR
 10
1.0
 20
0.0
 30
0.0
  9
$UCSYDIR
 10
0.0
 20
1.0
 30
0.0
  9
$UCSORTHOREF
  2

  9
$UCSORTHOVIEW
 70
     0
  9
$UCSORGTOP
 10
0.0
 20
0.0
 30
0.0
  9
$UCSORGBOTTOM
 10
0.0
 20
0.0
 30
0.0
  9
$UCSORGLEFT
 10
0.0
 20
0.0
 30
0.0
  9
$UCSORGRIGHT
 10
0.0
 20
0.0
 30
0.0
  9
$UCSORGFRONT
 10
0.0
 20
0.0
 30
0.0
  9
$UCSORGBACK
 10
0.0
 20
0.0
 30
0.0
  9
$PUCSBASE
  2

  9
$PUCSNAME
  2

  9
$PUCSORG
 10
0.0
 20
0.0
 30
0.0
  9
$PUCSXDIR
 10
1.0
 20
0.0
 30
0.0
  9
$PUCSYDIR
 10
0.0
 20
1.0
 30
0.0
  9
$PUCSORTHOREF
  2

  9
$PUCSORTHOVIEW
 70
     0
  9
$PUCSORGTOP
 10
0.0
 20
0.0
 30
0.0
  9
$PUCSORGBOTTOM
 10
0.0
 20
0.0
 30
0.0
  9
$PUCSORGLEFT
 10
0.0
 20
0.0
 30
0.0
  9
$PUCSORGRIGHT
 10
0.0
 20
0.0
 30
0.0
  9
$PUCSORGFRONT
 10
0.0
 20
0.0
 30
0.0
  9
$PUCSORGBACK
 10
0.0
 20
0.0
 30
0.0
  9
$USERI1
 70
     0
  9
$USERI2
 70
     0
  9
$USERI3
 70
     0
  9
$USERI4
 70
     0
  9
$USERI5
 70
     0
  9
$USERR1
 40
0.0
  9
$USERR2
 40
0.0
  9
$USERR3
 40
0.0
  9
$USERR4
 40
0.0
  9
$USERR5
 40
0.0
  9
$WORLDVIEW
 70
     1
  9
$SHADEDGE
 70
     3
  9
$SHADEDIF
 70
    70
  9
$TILEMODE
 70
     1
  9
$MAXACTVP
 70
    48
  9
$PINSBASE
 10
0.0
 20
0.0
 30
0.0
  9
$PLIMCHECK
 70
     0
  9
$PEXTMIN
 10
0.0
 20
0.0
 30
0.0
  9
$PEXTMAX
 10
826.0
 20
559.4330351521971
 30
0.4
  9
$PLIMMIN
 10
-20.89987702549854
 20
-27.03612118711686
  9
$PLIMMAX
 10
846.9235074929212
 20
586.4764362206919
  9
$UNITMODE
 70
     0
  9
$VISRETAIN
 70
     1
  9
$PLINEGEN
 70
     0
  9
$PSLTSCALE
 70
     1
  9
$TREEDEPTH
 70
  3020
  9
$CMLSTYLE
  2
STANDARD
  9
$CMLJUST
 70
     0
  9
$CMLSCALE
 40
1.0
  9
$PROXYGRAPHICS
 70
     1
  9
$MEASUREMENT
 70
     0
  9
$CELWEIGHT
370
    -1
  9
$ENDCAPS
280
     0
  9
$JOINSTYLE
280
     0
  9
$LWDISPLAY
290
     0
  9
$INSUNITS
 70
     0
  9
$HYPERLINKBASE
  1

  9
$STYLESHEET
  1
Tommy.ctb
  9
$XEDIT
290
     1
  9
$CEPSNTYPE
380
     0
  9
$PSTYLEMODE
290
     1
  9
$FINGERPRINTGUID
  2
{5823CA6D-C734-11D3-94EF-0060B0FBE80E}
  9
$VERSIONGUID
  2
{19FA057F-9C4C-8641-8660-211BF630F8D9}
  9
$EXTNAMES
290
     1
  9
$PSVPSCALE
 40
0.0
  9
$OLESTARTUP
290
     0
  9
$SORTENTS
280
    96
  9
$INDEXCTL
280
     0
  9
$HIDETEXT
280
     0
  9
$XCLIPFRAME
280
     0
  9
$HALOGAP
280
     0
  9
$OBSCOLOR
 70
   257
  9
$OBSLTYPE
280
     0
  9
$INTERSECTIONDISPLAY
280
     0
  9
$INTERSECTIONCOLOR
 70
   257
  9
$DIMASSOC
280
     1
  9
$PROJECTNAME
  1

  9
$CAMERADISPLAY
290
     0
  9
$LENSLENGTH
 40
50.0
  9
$CAMERAHEIGHT
 40
0.0
  9
$STEPSPERSEC
 40
2.0
  9
$STEPSIZE
 40
6.0
  9
$3DDWFPREC
 40
2.0
  9
$PSOLWIDTH
 40
0.25
  9
$PSOLHEIGHT
 40
4.0
  9
$LOFTANG1
 40
1.570796326794896
  9
$LOFTANG2
 40
1.570796326794896
  9
$LOFTMAG1
 40
0.0
  9
$LOFTMAG2
 40
0.0
  9
$LOFTPARAM
 70
     7
  9
$LOFTNORMALS
280
     1
  9
$LATITUDE
 40
37.795
  9
$LONGITUDE
 40
-122.394
  9
$NORTHDIRECTION
 40
0.0
  9
$TIMEZONE
 70
 -8000
  9
$LIGHTGLYPHDISPLAY
280
     1
  9
$TILEMODELIGHTSYNCH
280
     1
  9
$CMATERIAL
347
F65C
  9
$SOLIDHIST
280
     0
  9
$SHOWHIST
280
     1
  9
$DWFFRAME
280
     2
  9
$DGNFRAME
280
     0
  9
$REALWORLDSCALE
290
     1
  9
$INTERFERECOLOR
 62
     1
  9
$INTERFEREOBJVS
345
F67E
  9
$INTERFEREVPVS
346
F7E4
  9
$CSHADOW
280
     0
  9
$SHADOWPLANELOCATION
 40
0.0
  0
ENDSEC
  0
SECTION
  2
CLASSES
  0
CLASS
  1
DICTIONARYVAR
  2
AcDbDictionaryVar
  3
ObjectDBX Classes
 90
        0
 91
       15
280
     0
281
     0
  0
CLASS
  1
ACDBDICTIONARYWDFLT
  2
AcDbDictionaryWithDefault
  3
ObjectDBX Classes
 90
        0
 91
        1
280
     0
281
     0
  0
CLASS
  1
TABLESTYLE
  2
AcDbTableStyle
  3
ObjectDBX Classes
 90
     4095
 91
        1
280
     0
281
     0
  0
CLASS
  1
SORTENTSTABLE
  2
AcDbSortentsTable
  3
ObjectDBX Classes
 90
        0
 91
        2
280
     0
281
     0
  0
CLASS
  1
MATERIAL
  2
AcDbMaterial
  3
ObjectDBX Classes
 90
     1153
 91
        3
280
     0
281
     0
  0
CLASS
  1
VISUALSTYLE
  2
AcDbVisualStyle
  3
ObjectDBX Classes
 90
     4095
 91
       26
280
     0
281
     0
  0
CLASS
  1
SCALE
  2
AcDbScale
  3
ObjectDBX Classes
 90
     1153
 91
       33
280
     0
281
     0
  0
CLASS
  1
MLEADERSTYLE
  2
AcDbMLeaderStyle
  3
ACDB_MLEADERSTYLE_CLASS
 90
     4095
 91
        1
280
     0
281
     0
  0
CLASS
  1
CELLSTYLEMAP
  2
AcDbCellStyleMap
  3
ObjectDBX Classes
 90
     1152
 91
        2
280
     0
281
     0
  0
CLASS
  1
ACDBSECTIONVIEWSTYLE
  2
AcDbSectionViewStyle
  3
ObjectDBX Classes
 90
     1025
 91
        1
280
     0
281
     0
  0
CLASS
  1
ACDBDETAILVIEWSTYLE
  2
AcDbDetailViewStyle
  3
ObjectDBX Classes
 90
     1025
 91
        1
280
     0
281
     0
  0
ENDSEC
  0
SECTION
  2
TABLES
  0
TABLE
  2
VPORT
  5
8
102
{ACAD_XDICTIONARY
360
F711
102
}
330
0
100
AcDbSymbolTable
 70
     1
1001
ACAD
1000
DbSaveVer
1071
        5
  0
VPORT
  5
F63E
330
8
100
AcDbSymbolTableRecord
100
AcDbViewportTableRecord
  2
*Active
 70
     0
 10
0.0
 20
0.0
 11
1.0
 21
1.0
 12
560.3898523983407
 22
201.3627359223693
 13
0.0
 23
0.0
 14
0.5
 24
0.5
 15
0.5
 25
0.5
 16
0.0
 26
0.0
 36
1.0
 17
0.0
 27
0.0
 37
0.0
 40
888.4037561442756
 41
2.292712066905615
 42
50.0
 43
0.0
 44
0.0
 50
0.0
 51
0.0
 71
     0
 72
   100
 73
     1
 74
     1
 75
     0
 76
     0
 77
     0
 78
     0
281
     0
 65
     1
110
0.0
120
0.0
130
0.0
111
1.0
121
0.0
131
0.0
112
0.0
122
1.0
132
0.0
 79
     0
146
0.0
348
F67A
 60
     3
 61
     5
292
     1
282
     1
141
0.0
142
0.0
 63
   250
421
  3355443
1001
ACAD_NAV_VCDISPLAY
1070
     3
  0
ENDTAB
  0
TABLE
  2
LTYPE
  5
5
330
0
100
AcDbSymbolTable
 70
     4
  0
LTYPE
  5
12
330
5
100
AcDbSymbolTableRecord
100
AcDbLinetypeTableRecord
  2
BYBLOCK
 70
     0
  3

 72
    65
 73
     0
 40
0.0
  0
LTYPE
  5
13
330
5
100
AcDbSymbolTableRecord
100
AcDbLinetypeTableRecord
  2
BYLAYER
 70
     0
  3

 72
    65
 73
     0
 40
0.0
  0
LTYPE
  5
14
330
5
100
AcDbSymbolTableRecord
100
AcDbLinetypeTableRecord
  2
CONTINUOUS
 70
     0
  3
Solid line
 72
    65
 73
     0
 40
0.0
  0
LTYPE
  5
32
330
5
100
AcDbSymbolTableRecord
100
AcDbLinetypeTableRecord
  2
CENTER2
 70
     0
  3
Center (.5x) ___ _ ___ _ ___ _ ___ _ ___ _ ___
 72
    65
 73
     4
 40
1.125
 49
0.75
 74
     0
 49
-0.125
 74
     0
 49
0.125
 74
     0
 49
-0.125
 74
     0
  0
LTYPE
  5
33
330
5
100
AcDbSymbolTableRecord
100
AcDbLinetypeTableRecord
  2
DASHED2
 70
     0
  3
Dashed (.5x) _ _ _ _ _ _ _ _ _ _ _ _ _ _ _ _ _
 72
    65
 73
     2
 40
0.375
 49
0.25
 74
     0
 49
-0.125
 74
     0
  0
LTYPE
  5
114
330
5
100
AcDbSymbolTableRecord
100
AcDbLinetypeTableRecord
  2
CENTER
 70
     0
  3
____ _ ____ _ ____ _ ____ _ ____ _ ____ _ ____
 72
    65
 73
     4
 40
2.0
 49
1.25
 74
     0
 49
-0.25
 74
     0
 49
0.25
 74
     0
 49
-0.25
 74
     0
  0
ENDTAB
  0
TABLE
  2
LAYER
  5
2
102
{ACAD_XDICTIONARY
360
CD00
102
}
330
0
100
AcDbSymbolTable
 70
     8
  0
LAYER
  5
E
102
{ACAD_XDICTIONARY
360
F6CA
102
}
330
2
100
AcDbSymbolTableRecord
100
AcDbLayerTableRecord
  2
0
 70
     0
 62
     7
  6
CONTINUOUS
370
    -3
390
5C1E
347
F66C
348
0
  0
LAYER
  5
34
102
{ACAD_XDICTIONARY
360
F6CC
102
}
330
2
100
AcDbSymbolTableRecord
100
AcDbLayerTableRecord
  2
SHEET
 70
     0
 62
     7
  6
CONTINUOUS
370
    -3
390
5C1E
347
F66C
348
0
  0
LAYER
  5
36
102
{ACAD_XDICTIONARY
360
F6CE
102
}
330
2
100
AcDbSymbolTableRecord
100
AcDbLayerTableRecord
  2
CL
 70
     0
 62
     2
  6
CENTER2
370
    -3
390
5C1E
347
F66C
348
0
  0
LAYER
  5
38
102
{ACAD_XDICTIONARY
360
F6D0
102
}
330
2
100
AcDbSymbolTableRecord
100
AcDbLayerTableRecord
  2
VP
 70
     1
 62
     4
  6
CONTINUOUS
370
    -3
390
5C1E
347
F66C
348
0
  0
LAYER
  5
39
102
{ACAD_XDICTIONARY
360
F6D2
102
}
330
2
100
AcDbSymbolTableRecord
100
AcDbLayerTableRecord
  2
SINK
 70
     0
 62
     4
  6
CONTINUOUS
370
    -3
390
5C1E
347
F66C
348
0
  0
LAYER
  5
E8
330
2
100
AcDbSymbolTableRecord
100
AcDbLayerTableRecord
  2
DEFPOINTS
 70
     0
 62
     7
  6
CONTINUOUS
290
     0
370
    -3
390
5C1E
347
F66C
348
0
  0
LAYER
  5
1D50
102
{ACAD_XDICTIONARY
360
F6D4
102
}
330
2
100
AcDbSymbolTableRecord
100
AcDbLayerTableRecord
  2
HATCH
 70
     0
 62
     3
  6
CONTINUOUS
370
    -3
390
5C1E
347
F66C
348
0
  0
LAYER
  5
43B1
102
{ACAD_XDICTIONARY
360
F6D6
102
}
330
2
100
AcDbSymbolTableRecord
100
AcDbLayerTableRecord
  2
DIM
 70
     0
 62
     1
  6
CONTINUOUS
370
    -3
390
5C1E
347
F66C
348
0
  0
ENDTAB
  0
TABLE
  2
STYLE
  5
3
330
0
100
AcDbSymbolTable
 70
     4
  0
STYLE
  5
F
330
3
100
AcDbSymbolTableRecord
100
AcDbTextStyleTableRecord
  2
STANDARD
 70
     0
 40
5.0
 41
1.0
 50
0.0
 71
     0
 42
5.0
  3
TIMES.TTF
  4

1001
ACAD
1000
Times New Roman
1071
       18
  0
STYLE
  5
3F
330
3
100
AcDbSymbolTableRecord
100
AcDbTextStyleTableRecord
  2
TITLE
 70
     0
 40
0.0
 41
1.0
 50
0.0
 71
     0
 42
4.0
  3
C:\R13\COM\fonts\eur_____.pfb
  4

  0
STYLE
  5
116
330
3
100
AcDbSymbolTableRecord
100
AcDbTextStyleTableRecord
  2
EUROROMAN
 70
     0
 40
0.5343811892451882
 41
1.0
 50
0.0
 71
     0
 42
0.5343811892451882
  3
eur_____.pfb
  4

  0
STYLE
  5
43B4
330
3
100
AcDbSymbolTableRecord
100
AcDbTextStyleTableRecord
  2
ROMANS
 70
     0
 40
5.0
 41
1.0
 50
0.0
 71
     0
 42
10.0
  3
romans
  4

  0
ENDTAB
  0
TABLE
  2
VIEW
  5
6
330
0
100
AcDbSymbolTable
 70
     3
  0
VIEW
  5
278
330
6
100
AcDbSymbolTableRecord
100
AcDbViewTableRecord
  2
P
 70
     0
 40
815.0
 10
608.7931217819457
 20
3.744870706040615
 41
1137.5
 11
0.0
 21
0.0
 31
1.0
 12
0.0
 22
0.0
 32
0.0
 42
50.0
 43
0.0
 44
0.0
 50
0.0
 71
     0
281
     0
 72
     0
 73
     0
348
F67A
  0
VIEW
  5
2F21
330
6
100
AcDbSymbolTableRecord
100
AcDbViewTableRecord
  2
E
 70
     0
 40
655.0725840874363
 10
622.5998899062656
 20
58.70190082387842
 41
1137.170295034238
 11
0.0
 21
0.0
 31
1.0
 12
0.0
 22
0.0
 32
0.0
 42
50.0
 43
0.0
 44
0.0
 50
0.0
 71
     0
281
     0
 72
     0
 73
     0
348
F67A
  0
ENDTAB
  0
TABLE
  2
UCS
  5
7
330
0
100
AcDbSymbolTable
 70
     0
  0
ENDTAB
  0
TABLE
  2
APPID
  5
9
330
0
100
AcDbSymbolTable
 70
     5
  0
APPID
  5
10
330
9
100
AcDbSymbolTableRecord
100
AcDbRegAppTableRecord
  2
ACAD
 70
     0
  0
APPID
  5
CCE5
330
9
100
AcDbSymbolTableRecord
100
AcDbRegAppTableRecord
  2
ACAD_EXEMPT_FROM_CAD_STANDARDS
 70
     0
  0
APPID
  5
CD9D
330
9
100
AcDbSymbolTableRecord
100
AcDbRegAppTableRecord
  2
ACAD_PSEXT
 70
     0
  0
APPID
  5
F6A9
330
9
100
AcDbSymbolTableRecord
100
AcDbRegAppTableRecord
  2
ACAD_MLEADERVER
 70
     0
  0
APPID
  5
F800
330
9
100
AcDbSymbolTableRecord
100
AcDbRegAppTableRecord
  2
ACAD_NAV_VCDISPLAY
 70
     0
  0
ENDTAB
  0
TABLE
  2
DIMSTYLE
  5
A
330
0
100
AcDbSymbolTable
 70
     1
100
AcDbDimStyleTable
 71
     1
340
1D
  0
DIMSTYLE
105
1D
102
{ACAD_REACTORS
330
F0AF
330
F0BD
330
F10D
330
F11B
330
F133
330
F141
330
F14F
330
F16B
330
F179
330
F187
330
F195
330
F1AE
330
F1BC
330
F1D4
330
F1E0
102
}
330
A
100
AcDbSymbolTableRecord
100
AcDbDimStyleTableRecord
  2
STANDARD
 70
     0
 41
5.0
140
5.0
178
     1
271
     2
272
     2
340
F
  0
ENDTAB
  0
TABLE
  2
BLOCK_RECORD
  5
1
330
0
100
AcDbSymbolTable
 70
    15
  0
BLOCK_RECORD
  5
18
102
{ACAD_XDICTIONARY
360
982C
102
}
330
1
100
AcDbSymbolTableRecord
100
AcDbBlockTableRecord
  2
*MODEL_SPACE
340
5C21
 70
     0
280
     1
281
     0
  0
BLOCK_RECORD
  5
15
102
{ACAD_XDICTIONARY
360
982A
102
}
330
1
100
AcDbSymbolTableRecord
100
AcDbBlockTableRecord
  2
*PAPER_SPACE
340
5C22
 70
     0
280
     1
281
     0
  0
BLOCK_RECORD
  5
F0B0
330
1
100
AcDbSymbolTableRecord
100
AcDbBlockTableRecord
  2
*D0
340
0
 70
     0
280
     1
281
     0
  0
BLOCK_RECORD
  5
F0BE
330
1
100
AcDbSymbolTableRecord
100
AcDbBlockTableRecord
  2
*D1
340
0
 70
     0
280
     1
281
     0
  0
BLOCK_RECORD
  5
F10E
330
1
100
AcDbSymbolTableRecord
100
AcDbBlockTableRecord
  2
*D2
340
0
 70
     0
280
     1
281
     0
  0
BLOCK_RECORD
  5
F11C
330
1
100
AcDbSymbolTableRecord
100
AcDbBlockTableRecord
  2
*D3
340
0
 70
     0
280
     1
281
     0
  0
BLOCK_RECORD
  5
F134
330
1
100
AcDbSymbolTableRecord
100
AcDbBlockTableRecord
  2
*D4
340
0
 70
     0
280
     1
281
     0
  0
BLOCK_RECORD
  5
F142
330
1
100
AcDbSymbolTableRecord
100
AcDbBlockTableRecord
  2
*D5
340
0
 70
     0
280
     1
281
     0
  0
BLOCK_RECORD
  5
F150
330
1
100
AcDbSymbolTableRecord
100
AcDbBlockTableRecord
  2
*D6
340
0
 70
     0
280
     1
281
     0
  0
BLOCK_RECORD
  5
F16C
330
1
100
AcDbSymbolTableRecord
100
AcDbBlockTableRecord
  2
*D7
340
0
 70
     0
280
     1
281
     0
  0
BLOCK_RECORD
  5
F17A
330
1
100
AcDbSymbolTableRecord
100
AcDbBlockTableRecord
  2
*D8
340
0
 70
     0
280
     1
281
     0
  0
BLOCK_RECORD
  5
F188
330
1
100
AcDbSymbolTableRecord
100
AcDbBlockTableRecord
  2
*D9
340
0
 70
     0
280
     1
281
     0
  0
BLOCK_RECORD
  5
F196
330
1
100
AcDbSymbolTableRecord
100
AcDbBlockTableRecord
  2
*D10
340
0
 70
     0
280
     1
281
     0
  0
BLOCK_RECORD
  5
F1AF
330
1
100
AcDbSymbolTableRecord
100
AcDbBlockTableRecord
  2
*D11
340
0
 70
     0
280
     1
281
     0
  0
BLOCK_RECORD
  5
F1BD
330
1
100
AcDbSymbolTableRecord
100
AcDbBlockTableRecord
  2
*D12
340
0
 70
     0
280
     1
281
     0
  0
BLOCK_RECORD
  5
F1D5
330
1
100
AcDbSymbolTableRecord
100
AcDbBlockTableRecord
  2
*D13
340
0
 70
     0
280
     1
281
     0
  0
BLOCK_RECORD
  5
F1E1
330
1
100
AcDbSymbolTableRecord
100
AcDbBlockTableRecord
  2
*D14
340
0
 70
     0
280
     1
281
     0
  0
ENDTAB
  0
ENDSEC
  0
SECTION
  2
BLOCKS
  0
BLOCK
  5
19
330
18
100
AcDbEntity
  8
0
100
AcDbBlockBegin
  2
*MODEL_SPACE
 70
     0
 10
0.0
 20
0.0
 30
0.0
  3
*MODEL_SPACE
  1

  0
ENDBLK
  5
1A
330
18
100
AcDbEntity
  8
0
100
AcDbBlockEnd
  0
BLOCK
  5
16
330
15
100
AcDbEntity
 67
     1
  8
0
100
AcDbBlockBegin
  2
*PAPER_SPACE
 70
     0
 10
0.0
 20
0.0
 30
0.0
  3
*PAPER_SPACE
  1

  0
ENDBLK
  5
17
330
15
100
AcDbEntity
 67
     1
  8
0
100
AcDbBlockEnd
  0
BLOCK
  5
F0BB
330
F0B0
100
AcDbEntity
  8
0
100
AcDbBlockBegin
  2
*D0
 70
     1
 10
0.0
 20
0.0
 30
0.0
  3
*D0
  1

  0
LINE
  5
F456
330
F0B0
100
AcDbEntity
  8
DIM
 62
     0
440
 16777216
370
    -2
100
AcDbLine
 10
156.2514344952382
 20
571.7828505155813
 30
0.0
 11
156.2514344952382
 21
638.430445129353
 31
0.0
  0
LINE
  5
F457
330
F0B0
100
AcDbEntity
  8
DIM
 62
     0
440
 16777216
370
    -2
100
AcDbLine
 10
957.8514344952385
 20
571.7828505155813
 30
0.0
 11
957.8514344952385
 21
638.430445129353
 31
0.0
  0
LINE
  5
F458
330
F0B0
100
AcDbEntity
  8
DIM
 62
     0
440
 16777216
370
    -2
100
AcDbLine
 10
161.2514344952382
 20
638.2504451293531
 30
0.0
 11
547.1651114959593
 21
638.2504451293531
 31
0.0
  0
LINE
  5
F459
330
F0B0
100
AcDbEntity
  8
DIM
 62
     0
440
 16777216
370
    -2
100
AcDbLine
 10
952.8514344952386
 20
638.2504451293531
 30
0.0
 11
566.9377574945174
 21
638.2504451293531
 31
0.0
  0
SOLID
  5
F45A
330
F0B0
100
AcDbEntity
  8
DIM
 62
     0
440
 16777216
100
AcDbTrace
 10
161.2514344952382
 20
639.0837784626865
 30
0.0
 11
161.2514344952382
 21
637.4171117960197
 31
0.0
 12
156.2514344952382
 22
638.2504451293531
 32
0.0
 13
156.2514344952382
 23
638.2504451293531
 33
0.0
  0
SOLID
  5
F45B
330
F0B0
100
AcDbEntity
  8
DIM
 62
     0
440
 16777216
100
AcDbTrace
 10
952.8514344952386
 20
639.0837784626865
 30
0.0
 11
952.8514344952386
 21
637.4171117960197
 31
0.0
 12
957.8514344952385
 22
638.2504451293531
 32
0.0
 13
957.8514344952385
 23
638.2504451293531
 33
0.0
  0
MTEXT
  5
F45C
330
F0B0
100
AcDbEntity
  8
DIM
 62
     1
440
 16777216
100
AcDbMText
 10
557.0514344952384
 20
638.2504451293531
 30
0.0
 40
5.0
 41
0.0
 46
0.0
 71
     5
 72
     1
  1
\A1;801.60
 73
     1
 44
1.0
  0
POINT
  5
F45D
330
F0B0
100
AcDbEntity
  8
DEFPOINTS
 62
     0
440
 16777216
100
AcDbPoint
 10
156.2514344952382
 20
571.7203505155813
 30
0.0
  0
POINT
  5
F45E
330
F0B0
100
AcDbEntity
  8
DEFPOINTS
 62
     0
440
 16777216
100
AcDbPoint
 10
957.8514344952385
 20
571.7203505155813
 30
0.0
  0
POINT
  5
F45F
330
F0B0
100
AcDbEntity
  8
DEFPOINTS
 62
     0
440
 16777216
100
AcDbPoint
 10
957.8514344952385
 20
638.2504451293531
 30
0.0
  0
ENDBLK
  5
F0BC
330
F0B0
100
AcDbEntity
  8
0
100
AcDbBlockEnd
  0
BLOCK
  5
F0C9
330
F0BE
100
AcDbEntity
  8
0
100
AcDbBlockBegin
  2
*D1
 70
     1
 10
0.0
 20
0.0
 30
0.0
  3
*D1
  1

  0
LINE
  5
F460
330
F0BE
100
AcDbEntity
  8
DIM
 62
     0
440
 16777216
370
    -2
100
AcDbLine
 10
557.0514344952376
 20
579.7828505155813
 30
0.0
 11
557.0514344952376
 21
618.1943458666117
 31
0.0
  0
LINE
  5
F461
330
F0BE
100
AcDbEntity
  8
DIM
 62
     0
440
 16777216
370
    -2
100
AcDbLine
 10
156.2514344952382
 20
571.7828505155813
 30
0.0
 11
156.2514344952382
 21
618.1943458666117
 31
0.0
  0
LINE
  5
F462
330
F0BE
100
AcDbEntity
  8
DIM
 62
     0
440
 16777216
370
    -2
100
AcDbLine
 10
552.0514344952375
 20
618.0143458666117
 30
0.0
 11
366.7035830172278
 21
618.0143458666117
 31
0.0
  0
LINE
  5
F463
330
F0BE
100
AcDbEntity
  8
DIM
 62
     0
440
 16777216
370
    -2
100
AcDbLine
 10
161.2514344952382
 20
618.0143458666117
 30
0.0
 11
346.599285973248
 21
618.0143458666117
 31
0.0
  0
SOLID
  5
F464
330
F0BE
100
AcDbEntity
  8
DIM
 62
     0
440
 16777216
100
AcDbTrace
 10
552.0514344952375
 20
618.8476791999451
 30
0.0
 11
552.0514344952375
 21
617.1810125332783
 31
0.0
 12
557.0514344952376
 22
618.0143458666117
 32
0.0
 13
557.0514344952376
 23
618.0143458666117
 33
0.0
  0
SOLID
  5
F465
330
F0BE
100
AcDbEntity
  8
DIM
 62
     0
440
 16777216
100
AcDbTrace
 10
161.2514344952382
 20
618.8476791999451
 30
0.0
 11
161.2514344952382
 21
617.1810125332783
 31
0.0
 12
156.2514344952382
 22
618.0143458666117
 32
0.0
 13
156.2514344952382
 23
618.0143458666117
 33
0.0
  0
MTEXT
  5
F466
330
F0BE
100
AcDbEntity
  8
DIM
 62
     1
440
 16777216
100
AcDbMText
 10
356.6514344952379
 20
618.0143458666117
 30
0.0
 40
5.0
 41
0.0
 46
0.0
 71
     5
 72
     1
  1
\A1;400.80
 73
     1
 44
1.0
  0
POINT
  5
F467
330
F0BE
100
AcDbEntity
  8
DEFPOINTS
 62
     0
440
 16777216
100
AcDbPoint
 10
557.0514344952376
 20
579.7203505155813
 30
0.0
  0
POINT
  5
F468
330
F0BE
100
AcDbEntity
  8
DEFPOINTS
 62
     0
440
 16777216
100
AcDbPoint
 10
156.2514344952382
 20
571.7203505155813
 30
0.0
  0
POINT
  5
F469
330
F0BE
100
AcDbEntity
  8
DEFPOINTS
 62
     0
440
 16777216
100
AcDbPoint
 10
156.2514344952382
 20
618.0143458666117
 30
0.0
  0
ENDBLK
  5
F0CA
330
F0BE
100
AcDbEntity
  8
0
100
AcDbBlockEnd
  0
BLOCK
  5
F119
330
F10E
100
AcDbEntity
  8
0
100
AcDbBlockBegin
  2
*D2
 70
     1
 10
0.0
 20
0.0
 30
0.0
  3
*D2
  1

  0
LINE
  5
F4A6
330
F10E
100
AcDbEntity
  8
DIM
 62
     0
440
 16777216
370
    -2
100
AcDbLine
 10
156.1889344952384
 20
579.7828505155813
 30
0.0
 11
107.5299111724106
 21
579.7828505155813
 31
0.0
  0
LINE
  5
F4A7
330
F10E
100
AcDbEntity
  8
DIM
 62
     0
440
 16777216
370
    -2
100
AcDbLine
 10
164.1889344952384
 20
119.7828505155812
 30
0.0
 11
107.5299111724105
 21
119.7828505155812
 31
0.0
  0
LINE
  5
F4A8
330
F10E
100
AcDbEntity
  8
DIM
 62
     0
440
 16777216
370
    -2
100
AcDbLine
 10
107.7099111724106
 20
574.7828505155813
 30
0.0
 11
107.7099111724106
 21
382.4233191529284
 31
0.0
  0
LINE
  5
F4A9
330
F10E
100
AcDbEntity
  8
DIM
 62
     0
440
 16777216
370
    -2
100
AcDbLine
 10
107.7099111724105
 20
124.7828505155812
 30
0.0
 11
107.7099111724106
 21
377.1423818782349
 31
0.0
  0
SOLID
  5
F4AA
330
F10E
100
AcDbEntity
  8
DIM
 62
     0
440
 16777216
100
AcDbTrace
 10
106.8765778390773
 20
574.7828505155813
 30
0.0
 11
108.543244505744
 21
574.7828505155813
 31
0.0
 12
107.7099111724106
 22
579.7828505155813
 32
0.0
 13
107.7099111724106
 23
579.7828505155813
 33
0.0
  0
SOLID
  5
F4AB
330
F10E
100
AcDbEntity
  8
DIM
 62
     0
440
 16777216
100
AcDbTrace
 10
106.8765778390772
 20
124.7828505155812
 30
0.0
 11
108.5432445057439
 21
124.7828505155812
 31
0.0
 12
107.7099111724105
 22
119.7828505155812
 32
0.0
 13
107.7099111724105
 23
119.7828505155812
 33
0.0
  0
MTEXT
  5
F4AC
330
F10E
100
AcDbEntity
  8
DIM
 62
     1
440
 16777216
100
AcDbMText
 10
107.7099111724105
 20
379.7828505155817
 30
0.0
 40
5.0
 41
0.0
 46
0.0
 71
     5
 72
     1
  1
\A1;460.00±1
 73
     1
 44
1.0
  0
POINT
  5
F4AD
330
F10E
100
AcDbEntity
  8
DEFPOINTS
 62
     0
440
 16777216
100
AcDbPoint
 10
156.2514344952384
 20
579.7828505155813
 30
0.0
  0
POINT
  5
F4AE
330
F10E
100
AcDbEntity
  8
DEFPOINTS
 62
     0
440
 16777216
100
AcDbPoint
 10
164.2514344952384
 20
119.7828505155812
 30
0.0
  0
POINT
  5
F4AF
330
F10E
100
AcDbEntity
  8
DEFPOINTS
 62
     0
440
 16777216
100
AcDbPoint
 10
107.7099111724105
 20
119.7828505155812
 30
0.0
  0
ENDBLK
  5
F11A
330
F10E
100
AcDbEntity
  8
0
100
AcDbBlockEnd
  0
BLOCK
  5
F127
330
F11C
100
AcDbEntity
  8
0
100
AcDbBlockBegin
  2
*D3
 70
     1
 10
0.0
 20
0.0
 30
0.0
  3
*D3
  1

  0
LINE
  5
F474
330
F11C
100
AcDbEntity
  8
DIM
 62
     0
440
 16777216
370
    -2
100
AcDbLine
 10
164.1889344952384
 20
119.7828505155812
 30
0.0
 11
140.0937025657384
 21
119.7828505155812
 31
0.0
  0
LINE
  5
F475
330
F11C
100
AcDbEntity
  8
DIM
 62
     0
440
 16777216
370
    -2
100
AcDbLine
 10
156.1889344952384
 20
379.7828505155814
 30
0.0
 11
140.0937025657384
 21
379.7828505155814
 31
0.0
  0
LINE
  5
F476
330
F11C
100
AcDbEntity
  8
DIM
 62
     0
440
 16777216
370
    -2
100
AcDbLine
 10
140.2737025657384
 20
124.7828505155812
 30
0.0
 11
140.2737025657384
 21
247.1423818782345
 31
0.0
  0
LINE
  5
F477
330
F11C
100
AcDbEntity
  8
DIM
 62
     0
440
 16777216
370
    -2
100
AcDbLine
 10
140.2737025657384
 20
374.7828505155813
 30
0.0
 11
140.2737025657384
 21
252.4233191529281
 31
0.0
  0
SOLID
  5
F478
330
F11C
100
AcDbEntity
  8
DIM
 62
     0
440
 16777216
100
AcDbTrace
 10
139.440369232405
 20
124.7828505155812
 30
0.0
 11
141.1070358990717
 21
124.7828505155812
 31
0.0
 12
140.2737025657384
 22
119.7828505155812
 32
0.0
 13
140.2737025657384
 23
119.7828505155812
 33
0.0
  0
SOLID
  5
F479
330
F11C
100
AcDbEntity
  8
DIM
 62
     0
440
 16777216
100
AcDbTrace
 10
139.4403692324051
 20
374.7828505155813
 30
0.0
 11
141.1070358990718
 21
374.7828505155813
 31
0.0
 12
140.2737025657384
 22
379.7828505155814
 32
0.0
 13
140.2737025657384
 23
379.7828505155814
 33
0.0
  0
MTEXT
  5
F47A
330
F11C
100
AcDbEntity
  8
DIM
 62
     1
440
 16777216
100
AcDbMText
 10
140.2737025657384
 20
249.7828505155813
 30
0.0
 40
5.0
 41
0.0
 46
0.0
 71
     5
 72
     1
  1
\A1;260.00
 73
     1
 44
1.0
  0
POINT
  5
F47B
330
F11C
100
AcDbEntity
  8
DEFPOINTS
 62
     0
440
 16777216
100
AcDbPoint
 10
164.2514344952384
 20
119.7828505155812
 30
0.0
  0
POINT
  5
F47C
330
F11C
100
AcDbEntity
  8
DEFPOINTS
 62
     0
440
 16777216
100
AcDbPoint
 10
156.2514344952384
 20
379.7828505155814
 30
0.0
  0
POINT
  5
F47D
330
F11C
100
AcDbEntity
  8
DEFPOINTS
 62
     0
440
 16777216
100
AcDbPoint
 10
140.2737025657384
 20
379.7828505155814
 30
0.0
  0
ENDBLK
  5
F128
330
F11C
100
AcDbEntity
  8
0
100
AcDbBlockEnd
  0
BLOCK
  5
F13F
330
F134
100
AcDbEntity
  8
0
100
AcDbBlockBegin
  2
*D4
 70
     1
 10
0.0
 20
0.0
 30
0.0
  3
*D4
  1

  0
LINE
  5
F135
330
F134
100
AcDbEntity
  8
DIM
 62
     0
440
 16777216
370
    -2
100
AcDbLine
 10
368.7764344952349
 20
429.8453505155803
 30
0.0
 11
368.7764344952349
 21
503.7412902524025
 31
0.0
  0
LINE
  5
F136
330
F134
100
AcDbEntity
  8
DIM
 62
     0
440
 16777216
370
    -2
100
AcDbLine
 10
557.0514344952377
 20
379.8453505155808
 30
0.0
 11
557.0514344952377
 21
503.7412902524025
 31
0.0
  0
LINE
  5
F137
330
F134
100
AcDbEntity
  8
DIM
 62
     0
440
 16777216
370
    -2
100
AcDbLine
 10
373.7764344952349
 20
503.5612902524026
 30
0.0
 11
453.3178061607013
 21
503.5612902524026
 31
0.0
  0
LINE
  5
F138
330
F134
100
AcDbEntity
  8
DIM
 62
     0
440
 16777216
370
    -2
100
AcDbLine
 10
552.0514344952377
 20
503.5612902524026
 30
0.0
 11
472.5100628297712
 21
503.5612902524026
 31
0.0
  0
SOLID
  5
F139
330
F134
100
AcDbEntity
  8
DIM
 62
     0
440
 16777216
100
AcDbTrace
 10
373.7764344952349
 20
504.3946235857359
 30
0.0
 11
373.7764344952349
 21
502.7279569190692
 31
0.0
 12
368.7764344952349
 22
503.5612902524026
 32
0.0
 13
368.7764344952349
 23
503.5612902524026
 33
0.0
  0
SOLID
  5
F13A
330
F134
100
AcDbEntity
  8
DIM
 62
     0
440
 16777216
100
AcDbTrace
 10
552.0514344952377
 20
504.3946235857359
 30
0.0
 11
552.0514344952377
 21
502.7279569190692
 31
0.0
 12
557.0514344952377
 22
503.5612902524026
 32
0.0
 13
557.0514344952377
 23
503.5612902524026
 33
0.0
  0
MTEXT
  5
F13B
330
F134
100
AcDbEntity
  8
DIM
 62
     1
440
 16777216
100
AcDbMText
 10
462.9139344952363
 20
503.5612902524026
 30
0.0
 40
5.0
 41
0.0
 46
0.0
 71
     5
 72
     1
  1
\A1;188.28
 73
     1
 44
1.0
  0
POINT
  5
F13C
330
F134
100
AcDbEntity
  8
DEFPOINTS
 62
     0
440
 16777216
100
AcDbPoint
 10
368.7764344952349
 20
429.7828505155803
 30
0.0
  0
POINT
  5
F13D
330
F134
100
AcDbEntity
  8
DEFPOINTS
 62
     0
440
 16777216
100
AcDbPoint
 10
557.0514344952377
 20
379.7828505155808
 30
0.0
  0
POINT
  5
F13E
330
F134
100
AcDbEntity
  8
DEFPOINTS
 62
     0
440
 16777216
100
AcDbPoint
 10
557.0514344952377
 20
503.5612902524026
 30
0.0
  0
ENDBLK
  5
F140
330
F134
100
AcDbEntity
  8
0
100
AcDbBlockEnd
  0
BLOCK
  5
F14D
330
F142
100
AcDbEntity
  8
0
100
AcDbBlockBegin
  2
*D5
 70
     1
 10
0.0
 20
0.0
 30
0.0
  3
*D5
  1

  0
LINE
  5
F143
330
F142
100
AcDbEntity
  8
DIM
 62
     0
440
 16777216
370
    -2
100
AcDbLine
 10
745.32643449524
 20
429.8453505155803
 30
0.0
 11
745.32643449524
 21
503.7412902524025
 31
0.0
  0
LINE
  5
F144
330
F142
100
AcDbEntity
  8
DIM
 62
     0
440
 16777216
370
    -2
100
AcDbLine
 10
557.0514344952377
 20
379.8453505155808
 30
0.0
 11
557.0514344952377
 21
503.7412902524025
 31
0.0
  0
LINE
  5
F145
330
F142
100
AcDbEntity
  8
DIM
 62
     0
440
 16777216
370
    -2
100
AcDbLine
 10
740.32643449524
 20
503.5612902524026
 30
0.0
 11
660.7850628297738
 21
503.5612902524026
 31
0.0
  0
LINE
  5
F146
330
F142
100
AcDbEntity
  8
DIM
 62
     0
440
 16777216
370
    -2
100
AcDbLine
 10
562.0514344952376
 20
503.5612902524026
 30
0.0
 11
641.5928061607039
 21
503.5612902524026
 31
0.0
  0
SOLID
  5
F147
330
F142
100
AcDbEntity
  8
DIM
 62
     0
440
 16777216
100
AcDbTrace
 10
740.32643449524
 20
504.3946235857359
 30
0.0
 11
740.32643449524
 21
502.7279569190692
 31
0.0
 12
745.32643449524
 22
503.5612902524026
 32
0.0
 13
745.32643449524
 23
503.5612902524026
 33
0.0
  0
SOLID
  5
F148
330
F142
100
AcDbEntity
  8
DIM
 62
     0
440
 16777216
100
AcDbTrace
 10
562.0514344952376
 20
504.3946235857359
 30
0.0
 11
562.0514344952376
 21
502.7279569190692
 31
0.0
 12
557.0514344952377
 22
503.5612902524026
 32
0.0
 13
557.0514344952377
 23
503.5612902524026
 33
0.0
  0
MTEXT
  5
F149
330
F142
100
AcDbEntity
  8
DIM
 62
     1
440
 16777216
100
AcDbMText
 10
651.1889344952388
 20
503.5612902524026
 30
0.0
 40
5.0
 41
0.0
 46
0.0
 71
     5
 72
     1
  1
\A1;188.28
 73
     1
 44
1.0
  0
POINT
  5
F14A
330
F142
100
AcDbEntity
  8
DEFPOINTS
 62
     0
440
 16777216
100
AcDbPoint
 10
745.32643449524
 20
429.7828505155803
 30
0.0
  0
POINT
  5
F14B
330
F142
100
AcDbEntity
  8
DEFPOINTS
 62
     0
440
 16777216
100
AcDbPoint
 10
557.0514344952377
 20
379.7828505155808
 30
0.0
  0
POINT
  5
F14C
330
F142
100
AcDbEntity
  8
DEFPOINTS
 62
     0
440
 16777216
100
AcDbPoint
 10
557.0514344952377
 20
503.5612902524026
 30
0.0
  0
ENDBLK
  5
F14E
330
F142
100
AcDbEntity
  8
0
100
AcDbBlockEnd
  0
BLOCK
  5
F15B
330
F150
100
AcDbEntity
  8
0
100
AcDbBlockBegin
  2
*D6
 70
     1
 10
0.0
 20
0.0
 30
0.0
  3
*D6
  1

  0
LINE
  5
F151
330
F150
100
AcDbEntity
  8
DIM
 62
     0
440
 16777216
370
    -2
100
AcDbLine
 10
368.8389344952349
 20
429.7828505155803
 30
0.0
 11
460.1793498345984
 21
429.7828505155802
 31
0.0
  0
LINE
  5
F152
330
F150
100
AcDbEntity
  8
DIM
 62
     0
440
 16777216
370
    -2
100
AcDbLine
 10
438.8389344952362
 20
379.7828505155812
 30
0.0
 11
460.1793498345983
 21
379.7828505155812
 31
0.0
  0
LINE
  5
F153
330
F150
100
AcDbEntity
  8
DIM
 62
     0
440
 16777216
370
    -2
100
AcDbLine
 10
459.9993498345984
 20
424.7828505155802
 30
0.0
 11
459.9993498345984
 21
407.4233191529275
 31
0.0
  0
LINE
  5
F154
330
F150
100
AcDbEntity
  8
DIM
 62
     0
440
 16777216
370
    -2
100
AcDbLine
 10
459.9993498345984
 20
384.7828505155812
 30
0.0
 11
459.9993498345984
 21
402.142381878234
 31
0.0
  0
SOLID
  5
F155
330
F150
100
AcDbEntity
  8
DIM
 62
     0
440
 16777216
100
AcDbTrace
 10
459.1660165012651
 20
424.7828505155802
 30
0.0
 11
460.8326831679317
 21
424.7828505155802
 31
0.0
 12
459.9993498345984
 22
429.7828505155802
 32
0.0
 13
459.9993498345984
 23
429.7828505155802
 33
0.0
  0
SOLID
  5
F156
330
F150
100
AcDbEntity
  8
DIM
 62
     0
440
 16777216
100
AcDbTrace
 10
459.1660165012651
 20
384.7828505155812
 30
0.0
 11
460.8326831679317
 21
384.7828505155812
 31
0.0
 12
459.9993498345983
 22
379.7828505155812
 32
0.0
 13
459.9993498345983
 23
379.7828505155812
 33
0.0
  0
MTEXT
  5
F157
330
F150
100
AcDbEntity
  8
DIM
 62
     1
440
 16777216
100
AcDbMText
 10
459.9993498345983
 20
404.7828505155808
 30
0.0
 40
5.0
 41
0.0
 46
0.0
 71
     5
 72
     1
  1
\A1;50.00
 73
     1
 44
1.0
  0
POINT
  5
F158
330
F150
100
AcDbEntity
  8
DEFPOINTS
 62
     0
440
 16777216
100
AcDbPoint
 10
368.7764344952349
 20
429.7828505155803
 30
0.0
  0
POINT
  5
F159
330
F150
100
AcDbEntity
  8
DEFPOINTS
 62
     0
440
 16777216
100
AcDbPoint
 10
438.7764344952362
 20
379.7828505155812
 30
0.0
  0
POINT
  5
F15A
330
F150
100
AcDbEntity
  8
DEFPOINTS
 62
     0
440
 16777216
100
AcDbPoint
 10
459.9993498345983
 20
379.7828505155812
 30
0.0
  0
ENDBLK
  5
F15C
330
F150
100
AcDbEntity
  8
0
100
AcDbBlockEnd
  0
BLOCK
  5
F177
330
F16C
100
AcDbEntity
  8
0
100
AcDbBlockBegin
  2
*D7
 70
     1
 10
0.0
 20
0.0
 30
0.0
  3
*D7
  1

  0
LINE
  5
F4E2
330
F16C
100
AcDbEntity
  8
DIM
 62
     0
440
 16777216
370
    -2
100
AcDbLine
 10
938.1139344952387
 20
549.7828505155812
 30
0.0
 11
992.6602506051521
 21
549.7828505155812
 31
0.0
  0
LINE
  5
F4E3
330
F16C
100
AcDbEntity
  8
DIM
 62
     0
440
 16777216
370
    -2
100
AcDbLine
 10
958.1139344952379
 20
379.7828505155803
 30
0.0
 11
992.6602506051521
 21
379.7828505155803
 31
0.0
  0
LINE
  5
F4E4
330
F16C
100
AcDbEntity
  8
DIM
 62
     0
440
 16777216
370
    -2
100
AcDbLine
 10
992.4802506051522
 20
544.7828505155812
 30
0.0
 11
992.4802506051522
 21
467.4233191529275
 31
0.0
  0
LINE
  5
F4E5
330
F16C
100
AcDbEntity
  8
DIM
 62
     0
440
 16777216
370
    -2
100
AcDbLine
 10
992.4802506051522
 20
384.7828505155803
 30
0.0
 11
992.4802506051522
 21
462.1423818782339
 31
0.0
  0
SOLID
  5
F4E6
330
F16C
100
AcDbEntity
  8
DIM
 62
     0
440
 16777216
100
AcDbTrace
 10
991.6469172718187
 20
544.7828505155812
 30
0.0
 11
993.3135839384855
 21
544.7828505155812
 31
0.0
 12
992.4802506051522
 22
549.7828505155812
 32
0.0
 13
992.4802506051522
 23
549.7828505155812
 33
0.0
  0
SOLID
  5
F4E7
330
F16C
100
AcDbEntity
  8
DIM
 62
     0
440
 16777216
100
AcDbTrace
 10
991.6469172718187
 20
384.7828505155803
 30
0.0
 11
993.3135839384855
 21
384.7828505155803
 31
0.0
 12
992.4802506051522
 22
379.7828505155803
 32
0.0
 13
992.4802506051522
 23
379.7828505155803
 33
0.0
  0
MTEXT
  5
F4E8
330
F16C
100
AcDbEntity
  8
DIM
 62
     1
440
 16777216
100
AcDbMText
 10
992.480250605152
 20
464.7828505155809
 30
0.0
 40
5.0
 41
0.0
 46
0.0
 71
     5
 72
     1
  1
\A1;170.00
 73
     1
 44
1.0
  0
POINT
  5
F4E9
330
F16C
100
AcDbEntity
  8
DEFPOINTS
 62
     0
440
 16777216
100
AcDbPoint
 10
938.0514344952388
 20
549.7828505155812
 30
0.0
  0
POINT
  5
F4EA
330
F16C
100
AcDbEntity
  8
DEFPOINTS
 62
     0
440
 16777216
100
AcDbPoint
 10
958.0514344952378
 20
379.7828505155803
 30
0.0
  0
POINT
  5
F4EB
330
F16C
100
AcDbEntity
  8
DEFPOINTS
 62
     0
440
 16777216
100
AcDbPoint
 10
992.4802506051522
 20
379.7828505155803
 30
0.0
  0
ENDBLK
  5
F178
330
F16C
100
AcDbEntity
  8
0
100
AcDbBlockEnd
  0
BLOCK
  5
F185
330
F17A
100
AcDbEntity
  8
0
100
AcDbBlockBegin
  2
*D8
 70
     1
 10
0.0
 20
0.0
 30
0.0
  3
*D8
  1

  0
LINE
  5
F4EC
330
F17A
100
AcDbEntity
  8
DIM
 62
     0
440
 16777216
370
    -2
100
AcDbLine
 10
918.1139344952388
 20
569.7828505155812
 30
0.0
 11
1016.680148959955
 21
569.7828505155812
 31
0.0
  0
LINE
  5
F4ED
330
F17A
100
AcDbEntity
  8
DIM
 62
     0
440
 16777216
370
    -2
100
AcDbLine
 10
958.1139344952379
 20
379.7828505155803
 30
0.0
 11
1016.680148959955
 21
379.7828505155803
 31
0.0
  0
LINE
  5
F4EE
330
F17A
100
AcDbEntity
  8
DIM
 62
     0
440
 16777216
370
    -2
100
AcDbLine
 10
1016.500148959955
 20
564.7828505155812
 30
0.0
 11
1016.500148959955
 21
477.4233191529275
 31
0.0
  0
LINE
  5
F4EF
330
F17A
100
AcDbEntity
  8
DIM
 62
     0
440
 16777216
370
    -2
100
AcDbLine
 10
1016.500148959955
 20
384.7828505155803
 30
0.0
 11
1016.500148959955
 21
472.142381878234
 31
0.0
  0
SOLID
  5
F4F0
330
F17A
100
AcDbEntity
  8
DIM
 62
     0
440
 16777216
100
AcDbTrace
 10
1015.666815626622
 20
564.7828505155812
 30
0.0
 11
1017.333482293289
 21
564.7828505155812
 31
0.0
 12
1016.500148959955
 22
569.7828505155812
 32
0.0
 13
1016.500148959955
 23
569.7828505155812
 33
0.0
  0
SOLID
  5
F4F1
330
F17A
100
AcDbEntity
  8
DIM
 62
     0
440
 16777216
100
AcDbTrace
 10
1015.666815626622
 20
384.7828505155803
 30
0.0
 11
1017.333482293289
 21
384.7828505155803
 31
0.0
 12
1016.500148959955
 22
379.7828505155803
 32
0.0
 13
1016.500148959955
 23
379.7828505155803
 33
0.0
  0
MTEXT
  5
F4F2
330
F17A
100
AcDbEntity
  8
DIM
 62
     1
440
 16777216
100
AcDbMText
 10
1016.500148959955
 20
474.7828505155809
 30
0.0
 40
5.0
 41
0.0
 46
0.0
 71
     5
 72
     1
  1
\A1;190.00
 73
     1
 44
1.0
  0
POINT
  5
F4F3
330
F17A
100
AcDbEntity
  8
DEFPOINTS
 62
     0
440
 16777216
100
AcDbPoint
 10
918.0514344952388
 20
569.7828505155812
 30
0.0
  0
POINT
  5
F4F4
330
F17A
100
AcDbEntity
  8
DEFPOINTS
 62
     0
440
 16777216
100
AcDbPoint
 10
958.0514344952378
 20
379.7828505155803
 30
0.0
  0
POINT
  5
F4F5
330
F17A
100
AcDbEntity
  8
DEFPOINTS
 62
     0
440
 16777216
100
AcDbPoint
 10
1016.500148959955
 20
379.7828505155803
 30
0.0
  0
ENDBLK
  5
F186
330
F17A
100
AcDbEntity
  8
0
100
AcDbBlockEnd
  0
BLOCK
  5
F193
330
F188
100
AcDbEntity
  8
0
100
AcDbBlockBegin
  2
*D9
 70
     1
 10
0.0
 20
0.0
 30
0.0
  3
*D9
  1

  0
LINE
  5
F4F6
330
F188
100
AcDbEntity
  8
DIM
 62
     0
440
 16777216
370
    -2
100
AcDbLine
 10
938.1139344952369
 20
159.7828505155812
 30
0.0
 11
992.6602506051519
 21
159.7828505155812
 31
0.0
  0
LINE
  5
F4F7
330
F188
100
AcDbEntity
  8
DIM
 62
     0
440
 16777216
370
    -2
100
AcDbLine
 10
958.1139344952379
 20
379.7828505155803
 30
0.0
 11
992.6602506051521
 21
379.7828505155803
 31
0.0
  0
LINE
  5
F4F8
330
F188
100
AcDbEntity
  8
DIM
 62
     0
440
 16777216
370
    -2
100
AcDbLine
 10
992.480250605152
 20
164.7828505155812
 30
0.0
 11
992.4802506051522
 21
267.142381878234
 31
0.0
  0
LINE
  5
F4F9
330
F188
100
AcDbEntity
  8
DIM
 62
     0
440
 16777216
370
    -2
100
AcDbLine
 10
992.4802506051522
 20
374.7828505155803
 30
0.0
 11
992.4802506051522
 21
272.4233191529275
 31
0.0
  0
SOLID
  5
F4FA
330
F188
100
AcDbEntity
  8
DIM
 62
     0
440
 16777216
100
AcDbTrace
 10
991.6469172718187
 20
164.7828505155812
 30
0.0
 11
993.3135839384855
 21
164.7828505155812
 31
0.0
 12
992.480250605152
 22
159.7828505155812
 32
0.0
 13
992.480250605152
 23
159.7828505155812
 33
0.0
  0
SOLID
  5
F4FB
330
F188
100
AcDbEntity
  8
DIM
 62
     0
440
 16777216
100
AcDbTrace
 10
991.6469172718187
 20
374.7828505155803
 30
0.0
 11
993.3135839384855
 21
374.7828505155803
 31
0.0
 12
992.4802506051522
 22
379.7828505155803
 32
0.0
 13
992.4802506051522
 23
379.7828505155803
 33
0.0
  0
MTEXT
  5
F4FC
330
F188
100
AcDbEntity
  8
DIM
 62
     1
440
 16777216
100
AcDbMText
 10
992.480250605152
 20
269.7828505155809
 30
0.0
 40
5.0
 41
0.0
 46
0.0
 71
     5
 72
     1
  1
\A1;220.00
 73
     1
 44
1.0
  0
POINT
  5
F4FD
330
F188
100
AcDbEntity
  8
DEFPOINTS
 62
     0
440
 16777216
100
AcDbPoint
 10
938.051434495237
 20
159.7828505155812
 30
0.0
  0
POINT
  5
F4FE
330
F188
100
AcDbEntity
  8
DEFPOINTS
 62
     0
440
 16777216
100
AcDbPoint
 10
958.0514344952378
 20
379.7828505155803
 30
0.0
  0
POINT
  5
F4FF
330
F188
100
AcDbEntity
  8
DEFPOINTS
 62
     0
440
 16777216
100
AcDbPoint
 10
992.4802506051522
 20
379.7828505155803
 30
0.0
  0
ENDBLK
  5
F194
330
F188
100
AcDbEntity
  8
0
100
AcDbBlockEnd
  0
BLOCK
  5
F1A1
330
F196
100
AcDbEntity
  8
0
100
AcDbBlockBegin
  2
*D10
 70
     1
 10
0.0
 20
0.0
 30
0.0
  3
*D10
  1

  0
LINE
  5
F500
330
F196
100
AcDbEntity
  8
DIM
 62
     0
440
 16777216
370
    -2
100
AcDbLine
 10
918.113934495237
 20
139.7828505155812
 30
0.0
 11
1016.680148959955
 21
139.7828505155812
 31
0.0
  0
LINE
  5
F501
330
F196
100
AcDbEntity
  8
DIM
 62
     0
440
 16777216
370
    -2
100
AcDbLine
 10
958.1139344952379
 20
379.7828505155803
 30
0.0
 11
1016.680148959955
 21
379.7828505155803
 31
0.0
  0
LINE
  5
F502
330
F196
100
AcDbEntity
  8
DIM
 62
     0
440
 16777216
370
    -2
100
AcDbLine
 10
1016.500148959955
 20
144.7828505155812
 30
0.0
 11
1016.500148959955
 21
257.142381878234
 31
0.0
  0
LINE
  5
F503
330
F196
100
AcDbEntity
  8
DIM
 62
     0
440
 16777216
370
    -2
100
AcDbLine
 10
1016.500148959955
 20
374.7828505155803
 30
0.0
 11
1016.500148959955
 21
262.4233191529275
 31
0.0
  0
SOLID
  5
F504
330
F196
100
AcDbEntity
  8
DIM
 62
     0
440
 16777216
100
AcDbTrace
 10
1015.666815626622
 20
144.7828505155812
 30
0.0
 11
1017.333482293289
 21
144.7828505155812
 31
0.0
 12
1016.500148959955
 22
139.7828505155812
 32
0.0
 13
1016.500148959955
 23
139.7828505155812
 33
0.0
  0
SOLID
  5
F505
330
F196
100
AcDbEntity
  8
DIM
 62
     0
440
 16777216
100
AcDbTrace
 10
1015.666815626622
 20
374.7828505155803
 30
0.0
 11
1017.333482293289
 21
374.7828505155803
 31
0.0
 12
1016.500148959955
 22
379.7828505155803
 32
0.0
 13
1016.500148959955
 23
379.7828505155803
 33
0.0
  0
MTEXT
  5
F506
330
F196
100
AcDbEntity
  8
DIM
 62
     1
440
 16777216
100
AcDbMText
 10
1016.500148959955
 20
259.7828505155809
 30
0.0
 40
5.0
 41
0.0
 46
0.0
 71
     5
 72
     1
  1
\A1;240.00
 73
     1
 44
1.0
  0
POINT
  5
F507
330
F196
100
AcDbEntity
  8
DEFPOINTS
 62
     0
440
 16777216
100
AcDbPoint
 10
918.0514344952369
 20
139.7828505155812
 30
0.0
  0
POINT
  5
F508
330
F196
100
AcDbEntity
  8
DEFPOINTS
 62
     0
440
 16777216
100
AcDbPoint
 10
958.0514344952378
 20
379.7828505155803
 30
0.0
  0
POINT
  5
F509
330
F196
100
AcDbEntity
  8
DEFPOINTS
 62
     0
440
 16777216
100
AcDbPoint
 10
1016.500148959955
 20
379.7828505155803
 30
0.0
  0
ENDBLK
  5
F1A2
330
F196
100
AcDbEntity
  8
0
100
AcDbBlockEnd
  0
BLOCK
  5
F1BA
330
F1AF
100
AcDbEntity
  8
0
100
AcDbBlockBegin
  2
*D11
 70
     1
 10
0.0
 20
0.0
 30
0.0
  3
*D11
  1

  0
LINE
  5
F51C
330
F1AF
100
AcDbEntity
  8
DIM
 62
     0
440
 16777216
370
    -2
100
AcDbLine
 10
938.051434495237
 20
159.7203505155812
 30
0.0
 11
938.051434495237
 21
80.20191071746451
 31
0.0
  0
LINE
  5
F51D
330
F1AF
100
AcDbEntity
  8
DIM
 62
     0
440
 16777216
370
    -2
100
AcDbLine
 10
557.0514344952377
 20
119.7203505155812
 30
0.0
 11
557.0514344952377
 21
80.20191071746451
 31
0.0
  0
LINE
  5
F51E
330
F1AF
100
AcDbEntity
  8
DIM
 62
     0
440
 16777216
370
    -2
100
AcDbLine
 10
933.0514344952369
 20
80.38191071746451
 30
0.0
 11
757.5116579992027
 21
80.38191071746451
 31
0.0
  0
LINE
  5
F51F
330
F1AF
100
AcDbEntity
  8
DIM
 62
     0
440
 16777216
370
    -2
100
AcDbLine
 10
562.0514344952376
 20
80.38191071746451
 30
0.0
 11
737.5912109912719
 21
80.38191071746451
 31
0.0
  0
SOLID
  5
F520
330
F1AF
100
AcDbEntity
  8
DIM
 62
     0
440
 16777216
100
AcDbTrace
 10
933.0514344952369
 20
81.21524405079783
 30
0.0
 11
933.0514344952369
 21
79.54857738413117
 31
0.0
 12
938.051434495237
 22
80.38191071746451
 32
0.0
 13
938.051434495237
 23
80.38191071746451
 33
0.0
  0
SOLID
  5
F521
330
F1AF
100
AcDbEntity
  8
DIM
 62
     0
440
 16777216
100
AcDbTrace
 10
562.0514344952376
 20
81.21524405079783
 30
0.0
 11
562.0514344952376
 21
79.54857738413117
 31
0.0
 12
557.0514344952377
 22
80.38191071746451
 32
0.0
 13
557.0514344952377
 23
80.38191071746451
 33
0.0
  0
MTEXT
  5
F522
330
F1AF
100
AcDbEntity
  8
DIM
 62
     1
440
 16777216
100
AcDbMText
 10
747.5514344952373
 20
80.38191071746451
 30
0.0
 40
5.0
 41
0.0
 46
0.0
 71
     5
 72
     1
  1
\A1;381.00
 73
     1
 44
1.0
  0
POINT
  5
F523
330
F1AF
100
AcDbEntity
  8
DEFPOINTS
 62
     0
440
 16777216
100
AcDbPoint
 10
938.051434495237
 20
159.7828505155812
 30
0.0
  0
POINT
  5
F524
330
F1AF
100
AcDbEntity
  8
DEFPOINTS
 62
     0
440
 16777216
100
AcDbPoint
 10
557.0514344952377
 20
119.7828505155812
 30
0.0
  0
POINT
  5
F525
330
F1AF
100
AcDbEntity
  8
DEFPOINTS
 62
     0
440
 16777216
100
AcDbPoint
 10
557.0514344952377
 20
80.38191071746451
 30
0.0
  0
ENDBLK
  5
F1BB
330
F1AF
100
AcDbEntity
  8
0
100
AcDbBlockEnd
  0
BLOCK
  5
F1C8
330
F1BD
100
AcDbEntity
  8
0
100
AcDbBlockBegin
  2
*D12
 70
     1
 10
0.0
 20
0.0
 30
0.0
  3
*D12
  1

  0
LINE
  5
F512
330
F1BD
100
AcDbEntity
  8
DIM
 62
     0
440
 16777216
370
    -2
100
AcDbLine
 10
918.0514344952369
 20
139.7203505155812
 30
0.0
 11
918.0514344952369
 21
98.57652533060837
 31
0.0
  0
LINE
  5
F513
330
F1BD
100
AcDbEntity
  8
DIM
 62
     0
440
 16777216
370
    -2
100
AcDbLine
 10
557.0514344952377
 20
119.7203505155812
 30
0.0
 11
557.0514344952377
 21
98.57652533060837
 31
0.0
  0
LINE
  5
F514
330
F1BD
100
AcDbEntity
  8
DIM
 62
     0
440
 16777216
370
    -2
100
AcDbLine
 10
913.051434495237
 20
98.75652533060838
 30
0.0
 11
747.4116579992027
 21
98.75652533060838
 31
0.0
  0
LINE
  5
F515
330
F1BD
100
AcDbEntity
  8
DIM
 62
     0
440
 16777216
370
    -2
100
AcDbLine
 10
562.0514344952376
 20
98.75652533060838
 30
0.0
 11
727.4912109912719
 21
98.75652533060838
 31
0.0
  0
SOLID
  5
F516
330
F1BD
100
AcDbEntity
  8
DIM
 62
     0
440
 16777216
100
AcDbTrace
 10
913.051434495237
 20
99.58985866394172
 30
0.0
 11
913.051434495237
 21
97.92319199727506
 31
0.0
 12
918.0514344952369
 22
98.75652533060838
 32
0.0
 13
918.0514344952369
 23
98.75652533060838
 33
0.0
  0
SOLID
  5
F517
330
F1BD
100
AcDbEntity
  8
DIM
 62
     0
440
 16777216
100
AcDbTrace
 10
562.0514344952376
 20
99.58985866394172
 30
0.0
 11
562.0514344952376
 21
97.92319199727506
 31
0.0
 12
557.0514344952377
 22
98.75652533060838
 32
0.0
 13
557.0514344952377
 23
98.75652533060838
 33
0.0
  0
MTEXT
  5
F518
330
F1BD
100
AcDbEntity
  8
DIM
 62
     1
440
 16777216
100
AcDbMText
 10
737.4514344952373
 20
98.75652533060838
 30
0.0
 40
5.0
 41
0.0
 46
0.0
 71
     5
 72
     1
  1
\A1;361.00
 73
     1
 44
1.0
  0
POINT
  5
F519
330
F1BD
100
AcDbEntity
  8
DEFPOINTS
 62
     0
440
 16777216
100
AcDbPoint
 10
918.0514344952369
 20
139.7828505155812
 30
0.0
  0
POINT
  5
F51A
330
F1BD
100
AcDbEntity
  8
DEFPOINTS
 62
     0
440
 16777216
100
AcDbPoint
 10
557.0514344952377
 20
119.7828505155812
 30
0.0
  0
POINT
  5
F51B
330
F1BD
100
AcDbEntity
  8
DEFPOINTS
 62
     0
440
 16777216
100
AcDbPoint
 10
557.0514344952377
 20
98.75652533060838
 30
0.0
  0
ENDBLK
  5
F1C9
330
F1BD
100
AcDbEntity
  8
0
100
AcDbBlockEnd
  0
BLOCK
  5
F1DE
330
F1D5
100
AcDbEntity
  8
0
100
AcDbBlockBegin
  2
*D13
 70
     1
 10
0.0
 20
0.0
 30
0.0
  3
*D13
  1

  0
LINE
  5
F50A
330
F1D5
100
AcDbEntity
  8
DIM
 62
     0
440
 16777216
370
    -2
100
AcDbLine
 10
972.7882257796725
 20
117.7647496038946
 30
0.0
 11
967.7882257796724
 21
117.7647496038945
 31
0.0
  0
LINE
  5
F50B
330
F1D5
100
AcDbEntity
  8
DIM
 62
     0
440
 16777216
370
    -2
100
AcDbLine
 10
967.7882257796724
 20
117.7647496038945
 30
0.0
 11
937.1487478404549
 21
143.6492637167767
 31
0.0
  0
MTEXT
  5
F50C
330
F1D5
100
AcDbEntity
  8
DIM
 62
     1
440
 16777216
100
AcDbMText
 10
983.4514053038253
 20
117.7647496038946
 30
0.0
 40
5.0
 41
0.0
 46
0.0
 71
     5
 72
     1
  1
\A1;R20.00
 73
     1
 44
1.0
  0
SOLID
  5
F50D
330
F1D5
100
AcDbEntity
  8
DIM
 62
     0
440
 16777216
100
AcDbTrace
 10
937.6865340670818
 20
144.285840828284
 30
0.0
 11
936.6109616138281
 21
143.0126866052695
 31
0.0
 12
933.3292851714114
 22
146.8759810765376
 32
0.0
 13
933.3292851714114
 23
146.8759810765376
 33
0.0
  0
LINE
  5
F50E
330
F1D5
100
AcDbEntity
  8
DIM
 62
     0
440
 16777216
370
    -2
100
AcDbLine
 10
917.9614344952373
 20
159.7828505155812
 30
0.0
 11
918.1414344952374
 21
159.7828505155812
 31
0.0
  0
LINE
  5
F50F
330
F1D5
100
AcDbEntity
  8
DIM
 62
     0
440
 16777216
370
    -2
100
AcDbLine
 10
918.0514344952372
 20
159.6928505155811
 30
0.0
 11
918.0514344952372
 21
159.8728505155812
 31
0.0
  0
POINT
  5
F510
330
F1D5
100
AcDbEntity
  8
DEFPOINTS
 62
     0
440
 16777216
100
AcDbPoint
 10
933.3292851714114
 20
146.8759810765376
 30
0.0
  0
POINT
  5
F511
330
F1D5
100
AcDbEntity
  8
DEFPOINTS
 62
     0
440
 16777216
100
AcDbPoint
 10
918.0514344952372
 20
159.7828505155812
 30
0.0
  0
ENDBLK
  5
F1DF
330
F1D5
100
AcDbEntity
  8
0
100
AcDbBlockEnd
  0
BLOCK
  5
F1EC
330
F1E1
100
AcDbEntity
  8
0
100
AcDbBlockBegin
  2
*D14
 70
     1
 10
0.0
 20
0.0
 30
0.0
  3
*D14
  1

  0
LINE
  5
F202
330
F1E1
100
AcDbEntity
  8
DIM
 62
     0
440
 16777216
370
    -2
100
AcDbLine
 10
957.9139344952332
 20
-7.65439339767272
 30
0.0
 11
991.8921534230554
 21
-7.65439339767273
 31
0.0
  0
LINE
  5
F203
330
F1E1
100
AcDbEntity
  8
DIM
 62
     0
440
 16777216
370
    -2
100
AcDbLine
 10
801.1043408204095
 20
-224.6543933976748
 30
0.0
 11
991.8921534230555
 21
-224.6543933976749
 31
0.0
  0
LINE
  5
F204
330
F1E1
100
AcDbEntity
  8
DIM
 62
     0
440
 16777216
370
    -2
100
AcDbLine
 10
991.7121534230554
 20
-12.65439339767273
 30
0.0
 11
991.7121534230554
 21
-113.513924760327
 31
0.0
  0
LINE
  5
F205
330
F1E1
100
AcDbEntity
  8
DIM
 62
     0
440
 16777216
370
    -2
100
AcDbLine
 10
991.7121534230554
 20
-219.6543933976748
 30
0.0
 11
991.7121534230554
 21
-118.7948620350205
 31
0.0
  0
SOLID
  5
F206
330
F1E1
100
AcDbEntity
  8
DIM
 62
     0
440
 16777216
100
AcDbTrace
 10
990.8788200897221
 20
-12.65439339767273
 30
0.0
 11
992.5454867563889
 21
-12.65439339767273
 31
0.0
 12
991.7121534230554
 22
-7.65439339767273
 32
0.0
 13
991.7121534230554
 23
-7.65439339767273
 33
0.0
  0
SOLID
  5
F207
330
F1E1
100
AcDbEntity
  8
DIM
 62
     0
440
 16777216
100
AcDbTrace
 10
990.8788200897221
 20
-219.6543933976748
 30
0.0
 11
992.5454867563889
 21
-219.6543933976748
 31
0.0
 12
991.7121534230554
 22
-224.6543933976749
 32
0.0
 13
991.7121534230554
 23
-224.6543933976749
 33
0.0
  0
MTEXT
  5
F208
330
F1E1
100
AcDbEntity
  8
DIM
 62
     1
440
 16777216
100
AcDbMText
 10
991.7121534230554
 20
-116.1543933976736
 30
0.0
 40
5.0
 41
0.0
 46
0.0
 71
     5
 72
     1
  1
\A1;217.00±1
 73
     1
 44
1.0
  0
POINT
  5
F209
330
F1E1
100
AcDbEntity
  8
DEFPOINTS
 62
     0
440
 16777216
100
AcDbPoint
 10
957.8514344952333
 20
-7.65439339767272
 30
0.0
  0
POINT
  5
F20A
330
F1E1
100
AcDbEntity
  8
DEFPOINTS
 62
     0
440
 16777216
100
AcDbPoint
 10
801.0418408204094
 20
-224.6543933976748
 30
0.0
  0
POINT
  5
F20B
330
F1E1
100
AcDbEntity
  8
DEFPOINTS
 62
     0
440
 16777216
100
AcDbPoint
 10
991.7121534230554
 20
-224.6543933976749
 30
0.0
  0
ENDBLK
  5
F1ED
330
F1E1
100
AcDbEntity
  8
0
100
AcDbBlockEnd
  0
ENDSEC
  0
SECTION
  2
ENTITIES
  0
ARC
  5
EF41
330
18
100
AcDbEntity
  8
SINK
100
AcDbCircle
 39
0.4
 10
919.851434495237
 20
157.7828505155812
 30
0.0
 40
8.0
100
AcDbArc
 50
270.0
 51
0.0
  0
ARC
  5
EF42
330
18
100
AcDbEntity
  8
SINK
100
AcDbCircle
 39
0.4
 10
592.8014344952377
 20
179.7828505155839
 30
0.0
 40
20.0
100
AcDbArc
 50
180.0
 51
270.0
  0
LINE
  5
EF43
330
18
100
AcDbEntity
  8
SINK
100
AcDbLine
 39
0.4
 10
592.8014344952377
 20
159.7828505155839
 30
0.0
 11
897.8514344952406
 21
159.7828505155812
 31
0.0
  0
LINE
  5
EF44
330
18
100
AcDbEntity
  8
SINK
100
AcDbLine
 39
0.4
 10
592.8014344952377
 20
549.7828505155839
 30
0.0
 11
897.8514344952406
 21
549.7828505155812
 31
0.0
  0
ARC
  5
EF45
330
18
100
AcDbEntity
  8
SINK
100
AcDbCircle
 39
0.4
 10
897.8514344952406
 20
529.7828505155812
 30
0.0
 40
20.0
100
AcDbArc
 50
0.0
 51
90.0
  0
CIRCLE
  5
EF46
330
18
100
AcDbEntity
  8
SINK
100
AcDbCircle
 39
0.4
 10
745.3264344952391
 20
429.7828505155803
 30
0.0
 40
45.0
  0
CIRCLE
  5
EF47
330
18
100
AcDbEntity
  8
SINK
100
AcDbCircle
 39
0.4
 10
745.3264344952391
 20
429.7828505155803
 30
0.0
 40
57.5
  0
CIRCLE
  5
EF48
330
18
100
AcDbEntity
  8
SINK
100
AcDbCircle
 39
0.4
 10
745.3264344952391
 20
429.7828505155803
 30
0.0
 40
59.5
  0
ARC
  5
EF49
330
18
100
AcDbEntity
  8
SINK
100
AcDbCircle
 39
0.4
 10
194.2514344952384
 20
157.7828505155812
 30
0.0
 40
8.0
100
AcDbArc
 50
180.0
 51
270.0
  0
LINE
  5
EF4A
330
18
100
AcDbEntity
  8
SINK
100
AcDbLine
 39
0.4
 10
919.851434495237
 20
149.7828505155812
 30
0.0
 11
194.2514344952384
 21
149.7828505155812
 31
0.0
  0
LINE
  5
EF4B
330
18
100
AcDbEntity
  8
SINK
100
AcDbLine
 39
0.4
 10
521.3014344952377
 20
159.7828505155839
 30
0.0
 11
216.2514344952348
 21
159.7828505155812
 31
0.0
  0
CIRCLE
  5
EF4C
330
18
100
AcDbEntity
  8
SINK
100
AcDbCircle
 39
0.4
 10
368.7764344952362
 20
429.7828505155803
 30
0.0
 40
59.5
  0
CIRCLE
  5
EF4D
330
18
100
AcDbEntity
  8
SINK
100
AcDbCircle
 39
0.4
 10
368.7764344952362
 20
429.7828505155803
 30
0.0
 40
57.5
  0
CIRCLE
  5
EF4E
330
18
100
AcDbEntity
  8
SINK
100
AcDbCircle
 39
0.4
 10
368.7764344952362
 20
429.7828505155803
 30
0.0
 40
45.0
  0
ARC
  5
EF4F
330
18
100
AcDbEntity
  8
SINK
100
AcDbCircle
 39
0.4
 10
521.3014344952377
 20
179.7828505155839
 30
0.0
 40
20.0
100
AcDbArc
 50
270.0
 51
0.0
  0
ARC
  5
EF50
330
18
100
AcDbEntity
  8
SINK
100
AcDbCircle
 39
0.4
 10
216.2514344952348
 20
529.7828505155812
 30
0.0
 40
20.0
100
AcDbArc
 50
90.0
 51
180.0
  0
LINE
  5
EF51
330
18
100
AcDbEntity
  8
SINK
100
AcDbLine
 39
0.4
 10
521.3014344952377
 20
549.7828505155839
 30
0.0
 11
216.2514344952348
 21
549.7828505155812
 31
0.0
  0
LINE
  5
EF52
330
18
100
AcDbEntity
  8
SINK
100
AcDbLine
 10
949.8514344952369
 20
119.7828505155812
 30
0.0
 11
164.2514344952384
 21
119.7828505155812
 31
0.0
  0
LINE
  5
EF53
330
18
100
AcDbEntity
  8
SINK
  6
DASHED2
100
AcDbLine
 10
917.851434495237
 20
139.7828505155812
 30
0.0
 11
196.2514344952384
 21
139.7828505155812
 31
0.0
  0
ARC
  5
EF54
330
18
100
AcDbEntity
  8
SINK
  6
DASHED2
100
AcDbCircle
 10
918.0514344952369
 20
159.7828505155812
 30
0.0
 40
20.0
100
AcDbArc
 50
270.0
 51
0.0
  0
LINE
  5
EF56
330
18
100
AcDbEntity
  8
SINK
  6
DASHED2
100
AcDbLine
 10
917.8514344952388
 20
569.7828505155812
 30
0.0
 11
196.2514344952384
 21
569.782850515583
 31
0.0
  0
ARC
  5
EF57
330
18
100
AcDbEntity
  8
SINK
  6
DASHED2
100
AcDbCircle
 10
196.2514344952384
 20
549.782850515583
 30
0.0
 40
20.0
100
AcDbArc
 50
90.0
 51
180.0
  0
LINE
  5
EF5A
330
18
100
AcDbEntity
  8
SINK
100
AcDbLine
 10
919.8514344952405
 20
559.7828505155803
 30
0.0
 11
194.2514344952348
 21
559.7828505155803
 31
0.0
  0
LINE
  5
EF5B
330
18
100
AcDbEntity
  8
SINK
100
AcDbLine
 10
572.8014344952376
 20
179.7828505155839
 30
0.0
 11
572.8014344952376
 21
529.7828505155839
 31
0.0
  0
LINE
  5
EF5C
330
18
100
AcDbEntity
  8
SINK
100
AcDbLine
 10
541.3014344952377
 20
179.7828505155839
 30
0.0
 11
541.3014344952377
 21
529.7828505155839
 31
0.0
  0
LINE
  5
EF5D
330
18
100
AcDbEntity
  8
SINK
100
AcDbLine
 10
196.2514344952384
 20
179.7828505155821
 30
0.0
 11
196.2514344952348
 21
529.7828505155812
 31
0.0
  0
LINE
  5
EF5E
330
18
100
AcDbEntity
  8
SINK
100
AcDbLine
 10
156.2514344952384
 20
127.7828505155812
 30
0.0
 11
156.2514344952384
 21
579.7828505155813
 31
0.0
  0
LINE
  5
EF5F
330
18
100
AcDbEntity
  8
SINK
  6
DASHED2
100
AcDbLine
 10
176.2514344952384
 20
159.7828505155812
 30
0.0
 11
176.2514344952384
 21
549.782850515583
 31
0.0
  0
ARC
  5
EF60
330
18
100
AcDbEntity
  8
SINK
  6
DASHED2
100
AcDbCircle
 10
196.2514344952384
 20
159.7828505155812
 30
0.0
 40
20.0
100
AcDbArc
 50
180.0
 51
270.0
  0
LINE
  5
EF61
330
18
100
AcDbEntity
  8
SINK
100
AcDbLine
 10
186.2514344952384
 20
157.7828505155812
 30
0.0
 11
186.2514344952348
 21
551.7828505155803
 31
0.0
  0
ARC
  5
EF62
330
18
100
AcDbEntity
  8
SINK
100
AcDbCircle
 10
216.2514344952384
 20
179.7828505155821
 30
0.0
 40
20.0
100
AcDbArc
 50
180.0
 51
270.0
  0
ARC
  5
EF63
330
18
100
AcDbEntity
  8
SINK
100
AcDbCircle
 10
164.2514344952384
 20
127.7828505155812
 30
0.0
 40
8.0
100
AcDbArc
 50
180.0
 51
270.0
  0
ARC
  5
EF64
330
18
100
AcDbEntity
  8
SINK
100
AcDbCircle
 10
194.2514344952348
 20
551.7828505155803
 30
0.0
 40
8.0
100
AcDbArc
 50
90.0
 51
180.0
  0
ARC
  5
EF65
330
18
100
AcDbEntity
  8
SINK
100
AcDbCircle
 10
521.3014344952377
 20
529.7828505155839
 30
0.0
 40
20.0
100
AcDbArc
 50
0.0
 51
90.0
  0
ARC
  5
EF66
330
18
100
AcDbEntity
  8
SINK
100
AcDbCircle
 10
592.8014344952377
 20
529.7828505155839
 30
0.0
 40
20.0
100
AcDbArc
 50
90.0
 51
180.0
  0
LINE
  5
EF67
330
18
100
AcDbEntity
  8
SINK
100
AcDbLine
 10
927.851434495237
 20
157.7828505155812
 30
0.0
 11
927.8514344952405
 21
551.7828505155803
 31
0.0
  0
LINE
  5
EF68
330
18
100
AcDbEntity
  8
SINK
100
AcDbLine
 10
917.851434495237
 20
179.7828505155821
 30
0.0
 11
917.8514344952406
 21
529.7828505155812
 31
0.0
  0
LINE
  5
EF69
330
18
100
AcDbEntity
  8
SINK
100
AcDbLine
 10
957.8514344952369
 20
127.7828505155812
 30
0.0
 11
957.8514344952385
 21
579.7828505155813
 31
0.0
  0
LINE
  5
EF6A
330
18
100
AcDbEntity
  8
SINK
  6
DASHED2
100
AcDbLine
 10
938.051434495237
 20
159.7828505155812
 30
0.0
 11
938.0514344952388
 21
549.7828505155812
 31
0.0
  0
ARC
  5
EF6B
330
18
100
AcDbEntity
  8
SINK
  6
DASHED2
100
AcDbCircle
 10
918.0514344952388
 20
549.7828505155812
 30
0.0
 40
20.0
100
AcDbArc
 50
0.0
 51
90.0
  0
ARC
  5
EF6C
330
18
100
AcDbEntity
  8
SINK
100
AcDbCircle
 10
949.8514344952369
 20
127.7828505155812
 30
0.0
 40
8.0
100
AcDbArc
 50
270.0
 51
0.0
  0
ARC
  5
EF6D
330
18
100
AcDbEntity
  8
SINK
100
AcDbCircle
 10
897.8514344952369
 20
179.7828505155821
 30
0.0
 40
20.0
100
AcDbArc
 50
270.0
 51
0.0
  0
ARC
  5
EF6E
330
18
100
AcDbEntity
  8
SINK
100
AcDbCircle
 10
919.8514344952405
 20
551.7828505155803
 30
0.0
 40
8.0
100
AcDbArc
 50
0.0
 51
90.0
  0
LINE
  5
EF6F
102
{ACAD_REACTORS
330
F20D
102
}
330
18
100
AcDbEntity
  8
SINK
100
AcDbLine
 39
0.4
 10
541.1017756850511
 20
-19.93650404080472
 30
0.0
 11
526.3302824815479
 21
-188.7754439467617
 31
0.0
  0
ARC
  5
EF70
102
{ACAD_REACTORS
330
F20D
102
}
330
18
100
AcDbEntity
  8
SINK
100
AcDbCircle
 39
0.4
 10
506.4063885197125
 20
-187.0323290918086
 30
0.0
 40
20.0
100
AcDbArc
 50
273.0000000000056
 51
355.0000000000232
  0
LINE
  5
EF71
102
{ACAD_REACTORS
330
F20D
102
}
330
18
100
AcDbEntity
  8
SINK
100
AcDbLine
 39
0.4
 10
546.0501492648642
 20
-32.21861468393581
 30
0.0
 11
531.8796382502829
 21
-194.1882967374986
 31
0.0
  0
ARC
  5
EF72
102
{ACAD_REACTORS
330
F20D
102
}
330
18
100
AcDbEntity
  8
SINK
100
AcDbCircle
 39
0.4
 10
551.0311227553235
 20
-32.65439339767363
 30
0.0
 40
5.0
100
AcDbArc
 50
90.0
 51
175.0000000000231
  0
ARC
  5
EF73
102
{ACAD_REACTORS
330
F20D
102
}
330
18
100
AcDbEntity
  8
SINK
100
AcDbCircle
 39
0.4
 10
506.97477079799
 20
-192.0094031688077
 30
0.0
 40
25.0
100
AcDbArc
 50
273.0000000000056
 51
355.0000000000232
  0
ARC
  5
EF74
102
{ACAD_REACTORS
330
F20D
102
}
330
18
100
AcDbEntity
  8
SINK
100
AcDbCircle
 39
0.4
 10
543.5922624302808
 20
-20.15439339767363
 30
0.0
 40
2.5
100
AcDbArc
 50
90.0
 51
175.0000000000231
  0
LINE
  5
EF75
102
{ACAD_REACTORS
330
F20D
102
}
330
18
100
AcDbEntity
  8
SINK
100
AcDbLine
 39
0.4
 10
189.4171490655432
 20
-17.65439339767454
 30
0.0
 11
193.9606065601953
 21
-17.65439339767454
 31
0.0
  0
ARC
  5
EF76
102
{ACAD_REACTORS
330
F20D
102
}
330
18
100
AcDbEntity
  8
SINK
100
AcDbCircle
 39
0.4
 10
189.4171490655432
 20
-15.15439339767454
 30
0.0
 40
2.5
100
AcDbArc
 50
185.0000000000292
 51
270.0
  0
ARC
  5
EF77
102
{ACAD_REACTORS
330
F20D
102
}
330
18
100
AcDbEntity
  8
SINK
100
AcDbCircle
 39
0.4
 10
193.9606065601953
 20
-20.15439339767454
 30
0.0
 40
2.5
100
AcDbArc
 50
5.000000000029218
 51
90.0
  0
ARC
  5
EF78
102
{ACAD_REACTORS
330
F20D
102
}
330
18
100
AcDbEntity
  8
SINK
100
AcDbCircle
 39
0.4
 10
183.9606065601953
 20
-10.15439339767454
 30
0.0
 40
2.5
100
AcDbArc
 50
5.000000000029218
 51
90.0
  0
LINE
  5
EF79
102
{ACAD_REACTORS
330
F20D
102
}
330
18
100
AcDbEntity
  8
SINK
100
AcDbLine
 39
0.4
 10
186.4510933054267
 20
-9.93650404080472
 30
0.0
 11
186.9266623203117
 21
-15.37228275454345
 31
0.0
  0
LINE
  5
EF7A
102
{ACAD_REACTORS
330
F20D
102
}
330
18
100
AcDbEntity
  8
SINK
100
AcDbLine
 39
0.4
 10
196.4510933054267
 20
-19.93650404080472
 30
0.0
 11
211.2225865089264
 21
-188.7754439467571
 31
0.0
  0
LINE
  5
EF7B
102
{ACAD_REACTORS
330
F20D
102
}
330
18
100
AcDbEntity
  8
SINK
100
AcDbLine
 39
0.4
 10
199.3722037696031
 20
-122.1672289025418
 30
0.0
 11
205.6732307401895
 21
-194.1882967375004
 31
0.0
  0
ARC
  5
EF7C
102
{ACAD_REACTORS
330
F20D
102
}
330
18
100
AcDbEntity
  8
SINK
100
AcDbCircle
 39
0.4
 10
231.1464804707617
 20
-187.0323290918049
 30
0.0
 40
20.0
100
AcDbArc
 50
184.9999999999769
 51
266.9999999999944
  0
LINE
  5
EF7D
330
18
100
AcDbEntity
  8
SINK
100
AcDbLine
 39
0.4
 10
193.9606065601953
 20
-17.65439339767454
 30
0.0
 11
543.5922624302808
 21
-17.65439339767545
 31
0.0
  0
LINE
  5
EF7E
330
18
100
AcDbEntity
  8
SINK
100
AcDbLine
 39
0.4
 10
570.5106065601945
 20
-17.65439339767545
 30
0.0
 11
920.142262430282
 21
-17.65439339767545
 31
0.0
  0
LINE
  5
EF7F
102
{ACAD_REACTORS
330
F20D
102
}
330
18
100
AcDbEntity
  8
SINK
100
AcDbLine
 39
0.4
 10
543.5922624302808
 20
-17.65439339767363
 30
0.0
 11
570.5106065601945
 21
-17.65439339767545
 31
0.0
  0
LINE
  5
EF80
102
{ACAD_REACTORS
330
F20D
102
}
330
18
100
AcDbEntity
  8
SINK
100
AcDbLine
 39
0.4
 10
551.0311227553235
 20
-27.65439339767363
 30
0.0
 11
563.07174623515
 21
-27.65439339767363
 31
0.0
  0
LINE
  5
EF81
330
18
100
AcDbEntity
  8
SINK
100
AcDbLine
 10
183.9606065601953
 20
-7.654393397674539
 30
0.0
 11
930.1422624302837
 21
-7.654393397674539
 31
0.0
  0
ARC
  5
EF82
102
{ACAD_REACTORS
330
F20D
102
}
330
18
100
AcDbEntity
  8
SINK
100
AcDbCircle
 10
160.5409093353379
 20
-11.65439339767363
 30
0.0
 40
4.0
100
AcDbArc
 50
90.0
 51
176.0000000000165
  0
LINE
  5
EF83
102
{ACAD_REACTORS
330
F20D
102
}
330
18
100
AcDbEntity
  8
SINK
100
AcDbLine
 10
160.5409093353379
 20
-7.654393397673629
 30
0.0
 11
183.9606065601953
 21
-7.654393397674539
 31
0.0
  0
LINE
  5
EF84
102
{ACAD_REACTORS
330
F20D
102
}
330
18
100
AcDbEntity
  8
SINK
100
AcDbLine
 10
156.2514344952402
 20
-15.65439339767363
 30
0.0
 11
176.2514344952384
 21
-15.65439339766908
 31
0.0
  0
ARC
  5
EF85
102
{ACAD_REACTORS
330
F20D
102
}
330
18
100
AcDbEntity
  8
SINK
100
AcDbCircle
 10
195.1748047032966
 20
-116.6543933976736
 30
0.0
 40
1.0
100
AcDbArc
 50
187.9999999999909
 51
262.4959809550703
  0
ARC
  5
EF86
102
{ACAD_REACTORS
330
F20D
102
}
330
18
100
AcDbEntity
  8
SINK
100
AcDbCircle
 10
194.3912302791401
 20
-122.6030076162806
 30
0.0
 40
5.0
100
AcDbArc
 50
5.000000000029218
 51
82.49598095517534
  0
ARC
  5
EF87
102
{ACAD_REACTORS
330
F20D
102
}
330
18
100
AcDbEntity
  8
SINK
100
AcDbCircle
 10
175.9050008061591
 20
-22.65439339767363
 30
0.0
 40
5.0
100
AcDbArc
 50
7.999999999990921
 51
86.02697916392882
  0
LINE
  5
EF88
102
{ACAD_REACTORS
330
F20D
102
}
330
18
100
AcDbEntity
  8
SINK
100
AcDbLine
 39
0.4
 10
156.2514344952402
 20
-15.65439339767363
 30
0.0
 11
156.5506531342986
 21
-11.37536750269737
 31
0.0
  0
LINE
  5
EF8D
330
18
100
AcDbEntity
  8
CL
100
AcDbLine
 39
0.4
 10
156.251434495242
 20
-5.15439339767272
 30
0.0
 11
156.251434495242
 21
-10.15439339767363
 31
0.0
  0
LINE
  5
EF8E
102
{ACAD_REACTORS
330
F20D
102
}
330
18
100
AcDbEntity
  8
SINK
100
AcDbLine
 39
0.4
 10
176.2514344952384
 20
-15.65439339766908
 30
0.0
 11
176.2514344952384
 21
-17.66640946635743
 31
0.0
  0
LINE
  5
EF8F
102
{ACAD_REACTORS
330
F20D
102
}
330
18
100
AcDbEntity
  8
SINK
100
AcDbLine
 39
0.4
 10
180.8563411498677
 20
-21.95852789287255
 30
0.0
 11
194.1845366345557
 21
-116.7935664986335
 31
0.0
  0
LINE
  5
EF90
330
18
100
AcDbEntity
  8
CL
100
AcDbLine
 39
0.4
 10
158.7514344952402
 20
-7.65439339767272
 30
0.0
 11
153.7514344952402
 21
-7.65439339767272
 31
0.0
  0
LINE
  5
EF92
330
18
100
AcDbEntity
  8
CL
100
AcDbLine
 39
0.4
 10
131.2514344952366
 20
379.7828505155812
 30
0.0
 11
298.7764344952362
 21
379.7828505155822
 31
0.0
  0
LINE
  5
EF93
330
18
100
AcDbEntity
  8
CL
100
AcDbLine
 39
0.4
 10
438.7764344952362
 20
379.7828505155812
 30
0.0
 11
675.3264344952391
 21
379.7828505155803
 31
0.0
  0
LINE
  5
EF98
330
18
100
AcDbEntity
  8
CL
100
AcDbLine
 39
0.4
 10
815.3264344952392
 20
379.7828505155803
 30
0.0
 11
982.8514344952369
 21
379.7828505155803
 31
0.0
  0
LINE
  5
EF99
330
18
100
AcDbEntity
  8
CL
100
AcDbLine
 39
0.4
 10
557.0514344952377
 20
604.7828505155812
 30
0.0
 11
557.0514344952377
 21
94.78285051558215
 31
0.0
  0
LINE
  5
EF9A
330
18
100
AcDbEntity
  8
CL
100
AcDbLine
 39
0.4
 10
298.7764344952362
 20
429.7828505155803
 30
0.0
 11
438.7764344952362
 21
429.7828505155803
 31
0.0
  0
LINE
  5
EF9B
330
18
100
AcDbEntity
  8
CL
100
AcDbLine
 39
0.4
 10
675.3264344952409
 20
429.7828505155803
 30
0.0
 11
815.3264344952392
 21
429.7828505155803
 31
0.0
  0
LINE
  5
EF9C
330
18
100
AcDbEntity
  8
CL
100
AcDbLine
 39
0.4
 10
368.7764344952352
 20
359.7828505155803
 30
0.0
 11
368.7764344952346
 21
499.7828505155803
 31
0.0
  0
LINE
  5
EF9D
330
18
100
AcDbEntity
  8
CL
100
AcDbLine
 39
0.4
 10
745.3264344952391
 20
359.7828505155812
 30
0.0
 11
745.3264344952409
 21
499.7828505155812
 31
0.0
  0
LINE
  5
EF9E
330
18
100
AcDbEntity
  8
CL
100
AcDbLine
 39
0.4
 10
298.7764344952362
 20
429.7828505155803
 30
0.0
 11
298.7764344952362
 21
379.7828505155812
 31
0.0
  0
LINE
  5
EF9F
330
18
100
AcDbEntity
  8
CL
100
AcDbLine
 39
0.4
 10
438.7764344952362
 20
429.7828505155803
 30
0.0
 11
438.7764344952362
 21
379.7828505155812
 31
0.0
  0
LINE
  5
EFA0
330
18
100
AcDbEntity
  8
CL
100
AcDbLine
 39
0.4
 10
815.3264344952392
 20
429.7828505155803
 30
0.0
 11
815.3264344952392
 21
379.7828505155812
 31
0.0
  0
LINE
  5
EFA1
330
18
100
AcDbEntity
  8
CL
100
AcDbLine
 39
0.4
 10
675.3264344952391
 20
429.7828505155803
 30
0.0
 11
675.3264344952391
 21
379.7828505155812
 31
0.0
  0
LINE
  5
EFC3
102
{ACAD_REACTORS
330
F20D
102
}
330
18
100
AcDbEntity
  8
SINK
100
AcDbLine
 39
0.4
 10
300.3860023806034
 20
-220.7021890536598
 30
0.0
 11
229.2696992864081
 21
-216.975141537675
 31
0.0
  0
ARC
  5
EFC4
102
{ACAD_REACTORS
330
F20D
102
}
330
18
100
AcDbEntity
  8
SINK
100
AcDbCircle
 39
0.4
 10
230.5780981924824
 20
-192.0094031688104
 30
0.0
 40
25.0
100
AcDbArc
 50
184.9999999999769
 51
266.9999999999944
  0
ARC
  5
EFC5
102
{ACAD_REACTORS
330
F20D
102
}
330
18
100
AcDbEntity
  8
SINK
100
AcDbCircle
 39
0.4
 10
300.1243225993882
 20
-225.6953367274327
 30
0.0
 40
5.0
100
AcDbArc
 50
75.00000000000555
 51
86.99999999999441
  0
LINE
  5
EFC6
102
{ACAD_REACTORS
330
F20D
102
}
330
18
100
AcDbEntity
  8
SINK
100
AcDbLine
 39
0.4
 10
437.1668666098672
 20
-220.7021890536598
 30
0.0
 11
508.2831697040643
 21
-216.9751415376723
 31
0.0
  0
LINE
  5
EFC7
102
{ACAD_REACTORS
330
F20D
102
}
330
18
100
AcDbEntity
  8
SINK
100
AcDbLine
 39
0.4
 10
428.6597724579539
 20
-211.1343035063337
 30
0.0
 11
507.4531076445715
 21
-207.0049197869002
 31
0.0
  0
LINE
  5
EFC8
102
{ACAD_REACTORS
330
F20D
102
}
330
18
100
AcDbEntity
  8
SINK
100
AcDbLine
 39
0.4
 10
308.8930965325186
 20
-211.1343035063337
 30
0.0
 11
230.0997613459027
 21
-207.0049197868966
 31
0.0
  0
LINE
  5
EFC9
102
{ACAD_REACTORS
330
F20D
102
}
330
18
100
AcDbEntity
  8
SINK
100
AcDbLine
 39
0.4
 10
436.1344511655685
 20
-220.8657075959873
 30
0.0
 11
426.6994478861803
 21
-223.3938091052841
 31
0.0
  0
ARC
  5
EFCA
102
{ACAD_REACTORS
330
F20D
102
}
330
18
100
AcDbEntity
  8
SINK
100
AcDbCircle
 39
0.4
 10
437.4285463910807
 20
-225.6953367274327
 30
0.0
 40
5.0
100
AcDbArc
 50
93.00000000000558
 51
104.9999999999944
  0
LINE
  5
EFCB
102
{ACAD_REACTORS
330
F20D
102
}
330
18
100
AcDbEntity
  8
SINK
100
AcDbLine
 39
0.4
 10
301.4184178249003
 20
-220.8657075959873
 30
0.0
 11
310.8534211042921
 21
-223.3938091052851
 31
0.0
  0
LINE
  5
EFCC
102
{ACAD_REACTORS
330
F20D
102
}
330
18
100
AcDbEntity
  8
SINK
100
AcDbLine
 39
0.4
 10
309.5478673574622
 20
-211.4258262599023
 30
0.0
 11
311.0869658042544
 21
-212.9649247066936
 31
0.0
  0
ARC
  5
EFCD
102
{ACAD_REACTORS
330
F20D
102
}
330
18
100
AcDbEntity
  8
SINK
100
AcDbCircle
 39
0.4
 10
308.8407605762756
 20
-212.132933041089
 30
0.0
 40
1.0
100
AcDbArc
 50
45.00000000000023
 51
86.99999999999441
  0
LINE
  5
EFCE
102
{ACAD_REACTORS
330
F20D
102
}
330
18
100
AcDbEntity
  8
SINK
100
AcDbLine
 39
0.4
 10
428.0050016330084
 20
-211.4258262599023
 30
0.0
 11
426.4659031862162
 21
-212.9649247066936
 31
0.0
  0
ARC
  5
EFCF
102
{ACAD_REACTORS
330
F20D
102
}
330
18
100
AcDbEntity
  8
SINK
100
AcDbCircle
 39
0.4
 10
428.7121084141968
 20
-212.132933041089
 30
0.0
 40
1.0
100
AcDbArc
 50
93.00000000000558
 51
134.9999999999997
  0
ARC
  5
EFD0
102
{ACAD_REACTORS
330
F20D
102
}
330
18
100
AcDbEntity
  8
SINK
100
AcDbCircle
 39
0.4
 10
309.5593258787782
 20
-228.2234382367306
 30
0.0
 40
5.0
100
AcDbArc
 50
45.54567459977138
 51
75.00000000000555
  0
LINE
  5
EFD1
330
18
100
AcDbEntity
  8
SINK
100
AcDbLine
 39
0.4
 10
309.0468192239192
 20
-211.1543933976745
 30
0.0
 11
428.5361649598841
 21
-211.1543933976745
 31
0.0
  0
LINE
  5
EFD2
330
18
100
AcDbEntity
  8
SINK
100
AcDbLine
 39
0.4
 10
311.3511816025735
 20
-213.1543933976745
 30
0.0
 11
426.2016873878989
 21
-213.1543933976745
 31
0.0
  0
LINE
  5
EFD3
330
18
100
AcDbEntity
  8
SINK
100
AcDbLine
 39
0.4
 10
414.10010107465
 20
-216.5037583030635
 30
0.0
 11
323.4527679158224
 21
-216.5037583030635
 31
0.0
  0
LINE
  5
EFD4
102
{ACAD_REACTORS
330
F20D
102
}
330
18
100
AcDbEntity
  8
SINK
100
AcDbLine
 39
0.4
 10
311.5352535403387
 20
-213.223743751796
 30
0.0
 11
323.0874462992421
 21
-216.3191444723525
 31
0.0
  0
LINE
  5
EFD5
102
{ACAD_REACTORS
330
F20D
102
}
330
18
100
AcDbEntity
  8
SINK
100
AcDbLine
 39
0.4
 10
323.8261913043995
 20
-217.2153138248977
 30
0.0
 11
324.3463824227171
 21
-224.6543933976745
 31
0.0
  0
ARC
  5
EFD6
102
{ACAD_REACTORS
330
F20D
102
}
330
18
100
AcDbEntity
  8
SINK
100
AcDbCircle
 39
0.4
 10
311.7940725854411
 20
-212.257817925507
 30
0.0
 40
1.0
100
AcDbArc
 50
225.0000000000002
 51
255.0000000000056
  0
ARC
  5
EFD7
102
{ACAD_REACTORS
330
F20D
102
}
330
18
100
AcDbEntity
  8
SINK
100
AcDbCircle
 39
0.4
 10
322.8286272541396
 20
-217.2850702986416
 30
0.0
 40
1.0
100
AcDbArc
 50
3.99999999998344
 51
75.00000000000555
  0
ARC
  5
EFD8
102
{ACAD_REACTORS
330
F20D
102
}
330
18
100
AcDbEntity
  8
SINK
100
AcDbCircle
 39
0.4
 10
427.9935431116924
 20
-228.2234382367296
 30
0.0
 40
5.0
100
AcDbArc
 50
104.9999999999944
 51
134.4543254002286
  0
LINE
  5
EFD9
102
{ACAD_REACTORS
330
F20D
102
}
330
18
100
AcDbEntity
  8
SINK
100
AcDbLine
 39
0.4
 10
426.0176154501338
 20
-213.223743751796
 30
0.0
 11
414.4654226912304
 21
-216.3191444723525
 31
0.0
  0
ARC
  5
EFDA
102
{ACAD_REACTORS
330
F20D
102
}
330
18
100
AcDbEntity
  8
SINK
100
AcDbCircle
 39
0.4
 10
414.7242417363328
 20
-217.2850702986416
 30
0.0
 40
1.0
100
AcDbArc
 50
104.9999999999944
 51
176.0000000000165
  0
ARC
  5
EFDB
102
{ACAD_REACTORS
330
F20D
102
}
330
18
100
AcDbEntity
  8
SINK
100
AcDbCircle
 39
0.4
 10
425.7587964050314
 20
-212.257817925507
 30
0.0
 40
1.0
100
AcDbArc
 50
284.9999999999944
 51
314.9999999999998
  0
LINE
  5
EFDC
102
{ACAD_REACTORS
330
F20D
102
}
330
18
100
AcDbEntity
  8
SINK
100
AcDbLine
 39
0.4
 10
413.7266776860729
 20
-217.2153138248968
 30
0.0
 11
413.2064865677554
 21
-224.6543933976745
 31
0.0
  0
LINE
  5
EFDD
330
18
100
AcDbEntity
  8
CL
100
AcDbLine
 39
0.4
 10
368.7764344952362
 20
-196.1543933976745
 30
0.0
 11
368.7764344952362
 21
-239.6543933976746
 31
0.0
  0
LINE
  5
EFDE
102
{ACAD_REACTORS
330
F20D
102
}
330
18
100
AcDbEntity
  8
SINK
100
AcDbLine
 39
0.4
 10
313.0610281700652
 20
-224.6543933976745
 30
0.0
 11
324.3463824227171
 21
-224.6543933976745
 31
0.0
  0
LINE
  5
EFDF
102
{ACAD_REACTORS
330
F20D
102
}
330
18
100
AcDbEntity
  8
SINK
100
AcDbLine
 39
0.4
 10
413.2064865677554
 20
-224.6543933976745
 30
0.0
 11
424.4918408204036
 21
-224.6543933976745
 31
0.0
  0
LINE
  5
EFE0
330
18
100
AcDbEntity
  8
SINK
100
AcDbLine
 39
0.4
 10
324.3463824227171
 20
-224.6543933976745
 30
0.0
 11
413.2064865677554
 21
-224.6543933976745
 31
0.0
  0
LINE
  5
EFE1
102
{ACAD_REACTORS
330
F20D
102
}
330
18
100
AcDbEntity
  8
SINK
100
AcDbLine
 39
0.4
 10
573.0010933054241
 20
-19.93650404080472
 30
0.0
 11
587.7725865089274
 21
-188.7754439467617
 31
0.0
  0
LINE
  5
EFE2
102
{ACAD_REACTORS
330
F20D
102
}
330
18
100
AcDbEntity
  8
SINK
100
AcDbLine
 39
0.4
 10
568.0527197256093
 20
-32.21861468393581
 30
0.0
 11
582.2232307401924
 21
-194.1882967374986
 31
0.0
  0
ARC
  5
EFE3
102
{ACAD_REACTORS
330
F20D
102
}
330
18
100
AcDbEntity
  8
SINK
100
AcDbCircle
 39
0.4
 10
563.07174623515
 20
-32.65439339767363
 30
0.0
 40
5.0
100
AcDbArc
 50
4.999999999976907
 51
90.0
  0
ARC
  5
EFE4
102
{ACAD_REACTORS
330
F20D
102
}
330
18
100
AcDbEntity
  8
SINK
100
AcDbCircle
 39
0.4
 10
607.1280981924852
 20
-192.0094031688077
 30
0.0
 40
25.0
100
AcDbArc
 50
184.9999999999769
 51
266.9999999999944
  0
ARC
  5
EFE5
102
{ACAD_REACTORS
330
F20D
102
}
330
18
100
AcDbEntity
  8
SINK
100
AcDbCircle
 39
0.4
 10
570.5106065601945
 20
-20.15439339767363
 30
0.0
 40
2.5
100
AcDbArc
 50
5.000000000029218
 51
90.0
  0
LINE
  5
EFE6
102
{ACAD_REACTORS
330
F20D
102
}
330
18
100
AcDbEntity
  8
SINK
100
AcDbLine
 39
0.4
 10
924.6857199249321
 20
-17.65439339767454
 30
0.0
 11
920.14226243028
 21
-17.65439339767454
 31
0.0
  0
ARC
  5
EFE7
102
{ACAD_REACTORS
330
F20D
102
}
330
18
100
AcDbEntity
  8
SINK
100
AcDbCircle
 39
0.4
 10
924.6857199249321
 20
-15.15439339767454
 30
0.0
 40
2.5
100
AcDbArc
 50
270.0
 51
354.9999999999708
  0
ARC
  5
EFE8
102
{ACAD_REACTORS
330
F20D
102
}
330
18
100
AcDbEntity
  8
SINK
100
AcDbCircle
 39
0.4
 10
920.14226243028
 20
-20.15439339767454
 30
0.0
 40
2.5
100
AcDbArc
 50
90.0
 51
174.9999999999707
  0
ARC
  5
EFE9
102
{ACAD_REACTORS
330
F20D
102
}
330
18
100
AcDbEntity
  8
SINK
100
AcDbCircle
 39
0.4
 10
930.14226243028
 20
-10.15439339767454
 30
0.0
 40
2.5
100
AcDbArc
 50
90.0
 51
174.9999999999707
  0
LINE
  5
EFEA
102
{ACAD_REACTORS
330
F20D
102
}
330
18
100
AcDbEntity
  8
SINK
100
AcDbLine
 39
0.4
 10
927.6517756850486
 20
-9.93650404080472
 30
0.0
 11
927.1762066701636
 21
-15.37228275454345
 31
0.0
  0
LINE
  5
EFEB
102
{ACAD_REACTORS
330
F20D
102
}
330
18
100
AcDbEntity
  8
SINK
100
AcDbLine
 39
0.4
 10
917.6517756850486
 20
-19.93650404080472
 30
0.0
 11
902.8802824815489
 21
-188.775443946758
 31
0.0
  0
ARC
  5
EFEC
102
{ACAD_REACTORS
330
F20D
102
}
330
18
100
AcDbEntity
  8
SINK
100
AcDbCircle
 39
0.4
 10
882.9563885197137
 20
-187.0323290918058
 30
0.0
 40
20.0
100
AcDbArc
 50
273.0000000000056
 51
355.0000000000232
  0
LINE
  5
EFED
102
{ACAD_REACTORS
330
F20D
102
}
330
18
100
AcDbEntity
  8
SINK
100
AcDbLine
 39
0.4
 10
915.6015084434372
 20
-112.2134453211302
 30
0.0
 11
908.4296382502857
 21
-194.1882967375004
 31
0.0
  0
ARC
  5
EFEE
102
{ACAD_REACTORS
330
F20D
102
}
330
18
100
AcDbEntity
  8
SINK
100
AcDbCircle
 39
0.4
 10
883.5247707979929
 20
-192.0094031688095
 30
0.0
 40
25.0
100
AcDbArc
 50
273.0000000000056
 51
355.0000000000232
  0
LINE
  5
EFEF
330
18
100
AcDbEntity
  8
SINK
100
AcDbLine
 39
0.4
 10
920.14226243028
 20
-17.65439339767454
 30
0.0
 11
570.5106065601945
 21
-17.65439339767545
 31
0.0
  0
ARC
  5
EFF0
102
{ACAD_REACTORS
330
F20D
102
}
330
18
100
AcDbEntity
  8
SINK
100
AcDbCircle
 10
953.5619596551374
 20
-11.65439339767363
 30
0.0
 40
4.0
100
AcDbArc
 50
3.99999999998344
 51
90.0
  0
LINE
  5
EFF1
102
{ACAD_REACTORS
330
F20D
102
}
330
18
100
AcDbEntity
  8
SINK
100
AcDbLine
 10
953.5619596551374
 20
-7.654393397673629
 30
0.0
 11
930.14226243028
 21
-7.654393397674539
 31
0.0
  0
LINE
  5
EFF2
102
{ACAD_REACTORS
330
F20D
102
}
330
18
100
AcDbEntity
  8
SINK
100
AcDbLine
 10
957.8514344952351
 20
-15.65439339767363
 30
0.0
 11
937.8514344952369
 21
-15.65439339767363
 31
0.0
  0
ARC
  5
EFF3
102
{ACAD_REACTORS
330
F20D
102
}
330
18
100
AcDbEntity
  8
SINK
100
AcDbCircle
 10
938.1978681843163
 20
-22.65439339767363
 30
0.0
 40
5.0
100
AcDbArc
 50
93.97302083607115
 51
172.0000000000091
  0
LINE
  5
EFF4
102
{ACAD_REACTORS
330
F20D
102
}
330
18
100
AcDbEntity
  8
SINK
100
AcDbLine
 39
0.4
 10
957.8514344952351
 20
-15.65439339767363
 30
0.0
 11
957.5522158561767
 21
-11.37536750269737
 31
0.0
  0
LINE
  5
EFF5
330
18
100
AcDbEntity
  8
CL
100
AcDbLine
 39
0.4
 10
957.8514344952333
 20
-5.15439339767272
 30
0.0
 11
957.8514344952333
 21
-10.15439339767363
 31
0.0
  0
LINE
  5
EFF6
102
{ACAD_REACTORS
330
F20D
102
}
330
18
100
AcDbEntity
  8
SINK
100
AcDbLine
 39
0.4
 10
937.8514344952369
 20
-15.65439339767363
 30
0.0
 11
937.8514344952352
 21
-17.66640946635743
 31
0.0
  0
LINE
  5
EFF7
102
{ACAD_REACTORS
330
F20D
102
}
330
18
100
AcDbEntity
  8
SINK
100
AcDbLine
 39
0.4
 10
933.2465278406075
 20
-21.95852789287346
 30
0.0
 11
921.3237407029433
 21
-106.7935664986325
 31
0.0
  0
LINE
  5
EFF8
330
18
100
AcDbEntity
  8
CL
100
AcDbLine
 39
0.4
 10
955.351434495235
 20
-7.65439339767272
 30
0.0
 11
960.3514344952351
 21
-7.65439339767272
 31
0.0
  0
ARC
  5
EFF9
102
{ACAD_REACTORS
330
F20D
102
}
330
18
100
AcDbEntity
  8
SINK
100
AcDbCircle
 39
0.4
 10
920.3334726342024
 20
-106.6543933976727
 30
0.0
 40
1.0
100
AcDbArc
 50
272.3785467818824
 51
352.0000000000091
  0
ARC
  5
EFFA
102
{ACAD_REACTORS
330
F20D
102
}
330
18
100
AcDbEntity
  8
SINK
100
AcDbCircle
 39
0.4
 10
920.5824819338983
 20
-112.6492240348689
 30
0.0
 40
5.0
100
AcDbArc
 50
92.37854678188236
 51
174.9999999999707
  0
LINE
  5
EFFB
102
{ACAD_REACTORS
330
F20D
102
}
330
18
100
AcDbEntity
  8
SINK
100
AcDbLine
 39
0.4
 10
813.716866609872
 20
-220.7021890536598
 30
0.0
 11
884.8331697040672
 21
-216.9751415376741
 31
0.0
  0
ARC
  5
EFFC
102
{ACAD_REACTORS
330
F20D
102
}
330
18
100
AcDbEntity
  8
SINK
100
AcDbCircle
 39
0.4
 10
813.9785463910872
 20
-225.6953367274327
 30
0.0
 40
5.0
100
AcDbArc
 50
93.00000000000558
 51
104.9999999999944
  0
LINE
  5
EFFD
102
{ACAD_REACTORS
330
F20D
102
}
330
18
100
AcDbEntity
  8
SINK
100
AcDbLine
 39
0.4
 10
676.9360023806081
 20
-220.7021890536598
 30
0.0
 11
605.819699286411
 21
-216.9751415376723
 31
0.0
  0
LINE
  5
EFFE
102
{ACAD_REACTORS
330
F20D
102
}
330
18
100
AcDbEntity
  8
SINK
100
AcDbLine
 39
0.4
 10
685.4430965325215
 20
-211.1343035063337
 30
0.0
 11
606.6497613459038
 21
-207.0049197869002
 31
0.0
  0
ARC
  5
EFFF
102
{ACAD_REACTORS
330
F20D
102
}
330
18
100
AcDbEntity
  8
SINK
100
AcDbCircle
 39
0.4
 10
607.6964804707628
 20
-187.0323290918086
 30
0.0
 40
20.0
100
AcDbArc
 50
184.9999999999769
 51
266.9999999999944
  0
LINE
  5
F000
102
{ACAD_REACTORS
330
F20D
102
}
330
18
100
AcDbEntity
  8
SINK
100
AcDbLine
 39
0.4
 10
805.2097724579567
 20
-211.1343035063337
 30
0.0
 11
884.0031076445725
 21
-207.0049197868975
 31
0.0
  0
LINE
  5
F001
102
{ACAD_REACTORS
330
F20D
102
}
330
18
100
AcDbEntity
  8
SINK
100
AcDbLine
 39
0.4
 10
677.9684178249068
 20
-220.8657075959873
 30
0.0
 11
687.403421104295
 21
-223.3938091052841
 31
0.0
  0
ARC
  5
F002
102
{ACAD_REACTORS
330
F20D
102
}
330
18
100
AcDbEntity
  8
SINK
100
AcDbCircle
 39
0.4
 10
676.6743225993947
 20
-225.6953367274327
 30
0.0
 40
5.0
100
AcDbArc
 50
75.00000000000555
 51
86.99999999999441
  0
LINE
  5
F003
102
{ACAD_REACTORS
330
F20D
102
}
330
18
100
AcDbEntity
  8
SINK
100
AcDbLine
 39
0.4
 10
812.684451165575
 20
-220.8657075959873
 30
0.0
 11
803.2494478861831
 21
-223.3938091052851
 31
0.0
  0
LINE
  5
F004
102
{ACAD_REACTORS
330
F20D
102
}
330
18
100
AcDbEntity
  8
SINK
100
AcDbLine
 39
0.4
 10
804.5550016330132
 20
-211.4258262599023
 30
0.0
 11
803.015903186221
 21
-212.9649247066936
 31
0.0
  0
ARC
  5
F005
102
{ACAD_REACTORS
330
F20D
102
}
330
18
100
AcDbEntity
  8
SINK
100
AcDbCircle
 39
0.4
 10
805.2621084141998
 20
-212.132933041089
 30
0.0
 40
1.0
100
AcDbArc
 50
93.00000000000558
 51
134.9999999998892
  0
LINE
  5
F006
102
{ACAD_REACTORS
330
F20D
102
}
330
18
100
AcDbEntity
  8
SINK
100
AcDbLine
 39
0.4
 10
686.097867357467
 20
-211.4258262599023
 30
0.0
 11
687.6369658042591
 21
-212.9649247066936
 31
0.0
  0
ARC
  5
F007
102
{ACAD_REACTORS
330
F20D
102
}
330
18
100
AcDbEntity
  8
SINK
100
AcDbCircle
 39
0.4
 10
685.3907605762785
 20
-212.132933041089
 30
0.0
 40
1.0
100
AcDbArc
 50
45.00000000011077
 51
86.99999999999441
  0
ARC
  5
F008
102
{ACAD_REACTORS
330
F20D
102
}
330
18
100
AcDbEntity
  8
SINK
100
AcDbCircle
 39
0.4
 10
804.5435431116972
 20
-228.2234382367306
 30
0.0
 40
5.0
100
AcDbArc
 50
104.9999999999944
 51
134.4543254002286
  0
LINE
  5
F009
330
18
100
AcDbEntity
  8
SINK
100
AcDbLine
 39
0.4
 10
805.0560497665561
 20
-211.1543933976745
 30
0.0
 11
685.5667040305912
 21
-211.1543933976745
 31
0.0
  0
LINE
  5
F00A
330
18
100
AcDbEntity
  8
SINK
100
AcDbLine
 39
0.4
 10
802.7516873879019
 20
-213.1543933976745
 30
0.0
 11
687.9011816025764
 21
-213.1543933976745
 31
0.0
  0
LINE
  5
F00B
330
18
100
AcDbEntity
  8
SINK
100
AcDbLine
 39
0.4
 10
700.0027679158253
 20
-216.5037583030635
 30
0.0
 11
790.650101074653
 21
-216.5037583030635
 31
0.0
  0
LINE
  5
F00C
102
{ACAD_REACTORS
330
F20D
102
}
330
18
100
AcDbEntity
  8
SINK
100
AcDbLine
 39
0.4
 10
802.5676154501367
 20
-213.223743751796
 30
0.0
 11
791.0154226912333
 21
-216.3191444723525
 31
0.0
  0
LINE
  5
F00D
102
{ACAD_REACTORS
330
F20D
102
}
330
18
100
AcDbEntity
  8
SINK
100
AcDbLine
 39
0.4
 10
790.2766776860759
 20
-217.2153138248977
 30
0.0
 11
789.7564865677582
 21
-224.6543933976745
 31
0.0
  0
ARC
  5
F00E
102
{ACAD_REACTORS
330
F20D
102
}
330
18
100
AcDbEntity
  8
SINK
100
AcDbCircle
 39
0.4
 10
802.3087964050343
 20
-212.257817925507
 30
0.0
 40
1.0
100
AcDbArc
 50
284.9999999999944
 51
314.9999999998892
  0
ARC
  5
F00F
102
{ACAD_REACTORS
330
F20D
102
}
330
18
100
AcDbEntity
  8
SINK
100
AcDbCircle
 39
0.4
 10
791.2742417363357
 20
-217.2850702986416
 30
0.0
 40
1.0
100
AcDbArc
 50
104.9999999999944
 51
176.0000000000165
  0
ARC
  5
F010
102
{ACAD_REACTORS
330
F20D
102
}
330
18
100
AcDbEntity
  8
SINK
100
AcDbCircle
 39
0.4
 10
686.1093258787828
 20
-228.2234382367296
 30
0.0
 40
5.0
100
AcDbArc
 50
45.54567459977138
 51
75.00000000000555
  0
LINE
  5
F011
102
{ACAD_REACTORS
330
F20D
102
}
330
18
100
AcDbEntity
  8
SINK
100
AcDbLine
 39
0.4
 10
688.0852535403415
 20
-213.223743751796
 30
0.0
 11
699.637446299245
 21
-216.3191444723525
 31
0.0
  0
ARC
  5
F012
102
{ACAD_REACTORS
330
F20D
102
}
330
18
100
AcDbEntity
  8
SINK
100
AcDbCircle
 39
0.4
 10
699.3786272541425
 20
-217.2850702986416
 30
0.0
 40
1.0
100
AcDbArc
 50
3.99999999998344
 51
75.00000000000555
  0
ARC
  5
F013
102
{ACAD_REACTORS
330
F20D
102
}
330
18
100
AcDbEntity
  8
SINK
100
AcDbCircle
 39
0.4
 10
688.3440725854439
 20
-212.257817925507
 30
0.0
 40
1.0
100
AcDbArc
 50
225.0000000001108
 51
255.0000000000056
  0
LINE
  5
F014
102
{ACAD_REACTORS
330
F20D
102
}
330
18
100
AcDbEntity
  8
SINK
100
AcDbLine
 39
0.4
 10
700.3761913044023
 20
-217.2153138248968
 30
0.0
 11
700.8963824227199
 21
-224.6543933976745
 31
0.0
  0
LINE
  5
F015
330
18
100
AcDbEntity
  8
CL
100
AcDbLine
 39
0.4
 10
745.3264344952391
 20
-196.1543933976745
 30
0.0
 11
745.3264344952391
 21
-239.6543933976746
 31
0.0
  0
LINE
  5
F016
102
{ACAD_REACTORS
330
F20D
102
}
330
18
100
AcDbEntity
  8
SINK
100
AcDbLine
 39
0.4
 10
801.0418408204101
 20
-224.6543933976745
 30
0.0
 11
789.7564865677582
 21
-224.6543933976745
 31
0.0
  0
LINE
  5
F017
102
{ACAD_REACTORS
330
F20D
102
}
330
18
100
AcDbEntity
  8
SINK
100
AcDbLine
 39
0.4
 10
700.8963824227199
 20
-224.6543933976745
 30
0.0
 11
689.6110281700718
 21
-224.6543933976745
 31
0.0
  0
LINE
  5
F018
330
18
100
AcDbEntity
  8
SINK
100
AcDbLine
 39
0.4
 10
789.7564865677582
 20
-224.6543933976745
 30
0.0
 11
700.8963824227199
 21
-224.6543933976745
 31
0.0
  0
LINE
  5
F019
330
18
100
AcDbEntity
  8
CL
  6
Continuous
100
AcDbLine
 39
0.4
 10
131.2514344952366
 20
379.7828505155812
 30
0.0
 11
131.2514344952366
 21
399.7828505155812
 31
0.0
  0
LINE
  5
F01A
102
{ACAD_REACTORS
330
F01F
102
}
330
18
100
AcDbEntity
  8
CL
  6
Continuous
100
AcDbLine
 39
0.4
 10
133.2514344952366
 20
397.2828505155812
 30
0.0
 11
131.2514344952366
 21
404.7828505155812
 31
0.0
  0
LINE
  5
F01B
102
{ACAD_REACTORS
330
F01F
102
}
330
18
100
AcDbEntity
  8
CL
  6
Continuous
100
AcDbLine
 39
0.4
 10
131.2514344952366
 20
399.7828505155812
 30
0.0
 11
133.2514344952366
 21
397.2828505155812
 31
0.0
  0
LINE
  5
F01C
102
{ACAD_REACTORS
330
F01F
102
}
330
18
100
AcDbEntity
  8
CL
  6
Continuous
100
AcDbLine
 39
0.4
 10
129.2514344952366
 20
397.2828505155812
 30
0.0
 11
131.2514344952366
 21
399.7828505155812
 31
0.0
  0
LINE
  5
F01D
102
{ACAD_REACTORS
330
F01F
102
}
330
18
100
AcDbEntity
  8
CL
  6
Continuous
100
AcDbLine
 39
0.4
 10
131.2514344952366
 20
404.7828505155812
 30
0.0
 11
129.2514344952366
 21
397.2828505155812
 31
0.0
  0
MTEXT
  5
F01E
330
18
100
AcDbEntity
  8
CL
100
AcDbMText
 10
128.520997030239
 20
414.7574480709672
 30
0.0
 40
5.0
 41
5.4034
 46
0.0
 71
     1
 72
     5
  1
A
 73
     1
 44
1.0
  0
HATCH
  5
F01F
330
18
100
AcDbEntity
  8
CL
100
AcDbHatch
 10
0.0
 20
0.0
 30
0.0
210
0.0
220
0.0
230
1.0
  2
SOLID
 70
     1
 71
     1
 91
        1
 92
        1
 93
        4
 72
     1
 10
133.2514344952366
 20
397.2828505155812
 11
131.2514344952366
 21
404.7828505155812
 72
     1
 10
131.2514344952366
 20
404.7828505155812
 11
129.2514344952366
 21
397.2828505155812
 72
     1
 10
129.2514344952366
 20
397.2828505155812
 11
131.2514344952366
 21
399.7828505155812
 72
     1
 10
131.2514344952366
 20
399.7828505155812
 11
133.2514344952366
 21
397.2828505155812
 97
        4
330
F01A
330
F01D
330
F01C
330
F01B
 75
     0
 76
     1
 98
        1
 10
-1641.374722154559
 20
1828.00056251617
450
        0
451
        0
460
0.0
461
0.0
452
        0
462
0.0
453
        0
470

  0
LINE
  5
F020
330
18
100
AcDbEntity
  8
CL
  6
Continuous
100
AcDbLine
 39
0.4
 10
982.8514344952369
 20
379.7828505155803
 30
0.0
 11
982.8514344952369
 21
399.7828505155803
 31
0.0
  0
LINE
  5
F021
102
{ACAD_REACTORS
330
F026
102
}
330
18
100
AcDbEntity
  8
CL
  6
Continuous
100
AcDbLine
 39
0.4
 10
984.851434495237
 20
397.2828505155803
 30
0.0
 11
982.8514344952369
 21
404.7828505155803
 31
0.0
  0
LINE
  5
F022
102
{ACAD_REACTORS
330
F026
102
}
330
18
100
AcDbEntity
  8
CL
  6
Continuous
100
AcDbLine
 39
0.4
 10
982.8514344952369
 20
399.7828505155803
 30
0.0
 11
984.851434495237
 21
397.2828505155803
 31
0.0
  0
LINE
  5
F023
102
{ACAD_REACTORS
330
F026
102
}
330
18
100
AcDbEntity
  8
CL
  6
Continuous
100
AcDbLine
 39
0.4
 10
980.8514344952369
 20
397.2828505155803
 30
0.0
 11
982.8514344952369
 21
399.7828505155803
 31
0.0
  0
LINE
  5
F024
102
{ACAD_REACTORS
330
F026
102
}
330
18
100
AcDbEntity
  8
CL
  6
Continuous
100
AcDbLine
 39
0.4
 10
982.8514344952369
 20
404.7828505155803
 30
0.0
 11
980.8514344952369
 21
397.2828505155803
 31
0.0
  0
MTEXT
  5
F025
330
18
100
AcDbEntity
  8
CL
100
AcDbMText
 10
980.1209970302394
 20
414.7574480709663
 30
0.0
 40
5.0
 41
5.4034
 46
0.0
 71
     1
 72
     5
  1
A
 73
     1
 44
1.0
  0
HATCH
  5
F026
330
18
100
AcDbEntity
  8
CL
100
AcDbHatch
 10
0.0
 20
0.0
 30
0.0
210
0.0
220
0.0
230
1.0
  2
SOLID
 70
     1
 71
     1
 91
        1
 92
        1
 93
        4
 72
     1
 10
984.851434495237
 20
397.2828505155803
 11
982.8514344952369
 21
404.7828505155803
 72
     1
 10
982.8514344952369
 20
404.7828505155803
 11
980.8514344952369
 21
397.2828505155803
 72
     1
 10
980.8514344952369
 20
397.2828505155803
 11
982.8514344952369
 21
399.7828505155803
 72
     1
 10
982.8514344952369
 20
399.7828505155803
 11
984.851434495237
 21
397.2828505155803
 97
        4
330
F021
330
F024
330
F023
330
F022
 75
     0
 76
     1
 98
        1
 10
-789.774722154559
 20
1828.000562516169
450
        0
451
        0
460
0.0
461
0.0
452
        0
462
0.0
453
        0
470

  0
MTEXT
  5
F055
330
18
100
AcDbEntity
  8
CL
100
AcDbMText
 10
819.7426307138654
 20
-51.76459700075702
 30
0.0
 40
5.0
 41
54.4938
 46
0.0
 71
     1
 72
     5
  1
SECTION  A - A
 73
     1
 44
1.0
  0
DIMENSION
  5
F0AF
330
18
100
AcDbEntity
  8
DIM
100
AcDbDimension
280
     0
  2
*D0
 10
957.8514344952385
 20
638.2504451293531
 30
0.0
 11
557.0514344952384
 21
638.2504451293531
 31
0.0
 70
    32
 71
     5
 42
801.6000000000003
 73
     0
 74
     0
 75
     0
  3
STANDARD
100
AcDbAlignedDimension
 13
156.2514344952382
 23
571.7203505155813
 33
0.0
 14
957.8514344952385
 24
571.7203505155813
 34
0.0
100
AcDbRotatedDimension
  0
DIMENSION
  5
F0BD
330
18
100
AcDbEntity
  8
DIM
100
AcDbDimension
280
     0
  2
*D1
 10
156.2514344952382
 20
618.0143458666117
 30
0.0
 11
356.6514344952379
 21
618.0143458666117
 31
0.0
 70
    32
 71
     5
 42
400.7999999999993
 73
     0
 74
     0
 75
     0
  3
STANDARD
100
AcDbAlignedDimension
 13
557.0514344952376
 23
579.7203505155813
 33
0.0
 14
156.2514344952382
 24
571.7203505155813
 34
0.0
100
AcDbRotatedDimension
  0
DIMENSION
  5
F10D
330
18
100
AcDbEntity
  8
DIM
100
AcDbDimension
280
     0
  2
*D2
 10
107.7099111724105
 20
119.7828505155812
 30
0.0
 11
107.7099111724105
 21
379.7828505155817
 31
0.0
 70
   160
 71
     5
 42
460.0
 73
     0
 74
     0
 75
     0
  3
STANDARD
100
AcDbAlignedDimension
 13
156.2514344952384
 23
579.7828505155813
 33
0.0
 14
164.2514344952384
 24
119.7828505155812
 34
0.0
 50
90.0
100
AcDbRotatedDimension
1001
ACAD
1000
DSTYLE
1002
{
1070
   272
1070
     0
1070
    47
1040
1.0
1070
   147
1040
0.09
1070
    48
1040
1.0
1070
    72
1070
     0
1070
    71
1070
     1
1002
}
  0
DIMENSION
  5
F11B
330
18
100
AcDbEntity
  8
DIM
100
AcDbDimension
280
     0
  2
*D3
 10
140.2737025657384
 20
379.7828505155814
 30
0.0
 11
140.2737025657384
 21
249.7828505155813
 31
0.0
 70
   160
 71
     5
 42
260.0000000000001
 73
     0
 74
     0
 75
     0
  3
STANDARD
100
AcDbAlignedDimension
 13
164.2514344952384
 23
119.7828505155812
 33
0.0
 14
156.2514344952384
 24
379.7828505155814
 34
0.0
 50
90.0
100
AcDbRotatedDimension
  0
DIMENSION
  5
F133
330
18
100
AcDbEntity
  8
DIM
100
AcDbDimension
280
     0
  2
*D4
 10
557.0514344952377
 20
503.5612902524026
 30
0.0
 11
462.9139344952363
 21
503.5612902524026
 31
0.0
 70
    32
 71
     5
 42
188.2750000000028
 73
     0
 74
     0
 75
     0
  3
STANDARD
100
AcDbAlignedDimension
 13
368.7764344952349
 23
429.7828505155803
 33
0.0
 14
557.0514344952377
 24
379.7828505155808
 34
0.0
100
AcDbRotatedDimension
  0
DIMENSION
  5
F141
330
18
100
AcDbEntity
  8
DIM
100
AcDbDimension
280
     0
  2
*D5
 10
557.0514344952377
 20
503.5612902524026
 30
0.0
 11
651.1889344952388
 21
503.5612902524026
 31
0.0
 70
    32
 71
     5
 42
188.2750000000023
 73
     0
 74
     0
 75
     0
  3
STANDARD
100
AcDbAlignedDimension
 13
745.32643449524
 23
429.7828505155803
 33
0.0
 14
557.0514344952377
 24
379.7828505155808
 34
0.0
100
AcDbRotatedDimension
  0
DIMENSION
  5
F14F
330
18
100
AcDbEntity
  8
DIM
100
AcDbDimension
280
     0
  2
*D6
 10
459.9993498345983
 20
379.7828505155812
 30
0.0
 11
459.9993498345983
 21
404.7828505155808
 31
0.0
 70
    32
 71
     5
 42
49.99999999999904
 73
     0
 74
     0
 75
     0
  3
STANDARD
100
AcDbAlignedDimension
 13
368.7764344952349
 23
429.7828505155803
 33
0.0
 14
438.7764344952362
 24
379.7828505155812
 34
0.0
 50
90.0
100
AcDbRotatedDimension
  0
DIMENSION
  5
F16B
330
18
100
AcDbEntity
  8
DIM
100
AcDbDimension
280
     0
  2
*D7
 10
992.4802506051522
 20
379.7828505155803
 30
0.0
 11
992.480250605152
 21
464.7828505155809
 31
0.0
 70
    32
 71
     5
 42
170.0000000000009
 73
     0
 74
     0
 75
     0
  3
STANDARD
100
AcDbAlignedDimension
 13
938.0514344952388
 23
549.7828505155812
 33
0.0
 14
958.0514344952378
 24
379.7828505155803
 34
0.0
 50
90.0
100
AcDbRotatedDimension
  0
DIMENSION
  5
F179
330
18
100
AcDbEntity
  8
DIM
100
AcDbDimension
280
     0
  2
*D8
 10
1016.500148959955
 20
379.7828505155803
 30
0.0
 11
1016.500148959955
 21
474.7828505155809
 31
0.0
 70
    32
 71
     5
 42
190.0000000000009
 73
     0
 74
     0
 75
     0
  3
STANDARD
100
AcDbAlignedDimension
 13
918.0514344952388
 23
569.7828505155812
 33
0.0
 14
958.0514344952378
 24
379.7828505155803
 34
0.0
 50
90.0
100
AcDbRotatedDimension
  0
DIMENSION
  5
F187
330
18
100
AcDbEntity
  8
DIM
100
AcDbDimension
280
     0
  2
*D9
 10
992.4802506051522
 20
379.7828505155803
 30
0.0
 11
992.480250605152
 21
269.7828505155809
 31
0.0
 70
    32
 71
     5
 42
219.9999999999991
 73
     0
 74
     0
 75
     0
  3
STANDARD
100
AcDbAlignedDimension
 13
938.051434495237
 23
159.7828505155812
 33
0.0
 14
958.0514344952378
 24
379.7828505155803
 34
0.0
 50
90.0
100
AcDbRotatedDimension
  0
DIMENSION
  5
F195
330
18
100
AcDbEntity
  8
DIM
100
AcDbDimension
280
     0
  2
*D10
 10
1016.500148959955
 20
379.7828505155803
 30
0.0
 11
1016.500148959955
 21
259.7828505155809
 31
0.0
 70
    32
 71
     5
 42
239.9999999999991
 73
     0
 74
     0
 75
     0
  3
STANDARD
100
AcDbAlignedDimension
 13
918.0514344952369
 23
139.7828505155812
 33
0.0
 14
958.0514344952378
 24
379.7828505155803
 34
0.0
 50
90.0
100
AcDbRotatedDimension
  0
DIMENSION
  5
F1AE
330
18
100
AcDbEntity
  8
DIM
100
AcDbDimension
280
     0
  2
*D11
 10
557.0514344952377
 20
80.38191071746451
 30
0.0
 11
747.5514344952373
 21
80.38191071746451
 31
0.0
 70
    32
 71
     5
 42
380.9999999999993
 73
     0
 74
     0
 75
     0
  3
STANDARD
100
AcDbAlignedDimension
 13
938.051434495237
 23
159.7828505155812
 33
0.0
 14
557.0514344952377
 24
119.7828505155812
 34
0.0
100
AcDbRotatedDimension
  0
DIMENSION
  5
F1BC
330
18
100
AcDbEntity
  8
DIM
100
AcDbDimension
280
     0
  2
*D12
 10
557.0514344952377
 20
98.75652533060838
 30
0.0
 11
737.4514344952373
 21
98.75652533060838
 31
0.0
 70
   160
 71
     5
 42
360.9999999999993
 73
     0
 74
     0
 75
     0
  3
STANDARD
100
AcDbAlignedDimension
 13
918.0514344952369
 23
139.7828505155812
 33
0.0
 14
557.0514344952377
 24
119.7828505155812
 34
0.0
100
AcDbRotatedDimension
  0
DIMENSION
  5
F1D4
330
18
100
AcDbEntity
  8
DIM
100
AcDbDimension
280
     0
  2
*D13
 10
918.0514344952372
 20
159.7828505155812
 30
0.0
 11
983.4514053038253
 21
117.7647496038946
 31
0.0
 70
   164
 71
     5
 42
19.99999999999966
 73
     0
 74
     0
 75
     0
  3
STANDARD
100
AcDbRadialDimension
 15
933.3292851714114
 25
146.8759810765376
 35
0.0
 40
0.0
1001
ACAD
1000
DSTYLE
1002
{
1070
   288
1070
     1
1002
}
  0
DIMENSION
  5
F1E0
330
18
100
AcDbEntity
  8
DIM
100
AcDbDimension
280
     0
  2
*D14
 10
991.7121534230554
 20
-224.6543933976749
 30
0.0
 11
991.7121534230554
 21
-116.1543933976736
 31
0.0
 70
    32
 71
     5
 42
217.0000000000021
 73
     0
 74
     0
 75
     0
  3
STANDARD
100
AcDbAlignedDimension
 13
957.8514344952333
 23
-7.65439339767272
 33
0.0
 14
801.0418408204094
 24
-224.6543933976748
 34
0.0
 50
90.0
100
AcDbRotatedDimension
1001
ACAD
1000
DSTYLE
1002
{
1070
   272
1070
     0
1070
    47
1040
1.0
1070
   147
1040
0.09
1070
    48
1040
1.0
1070
    72
1070
     0
1070
    71
1070
     1
1002
}
  0
HATCH
  5
F20D
330
18
100
AcDbEntity
  8
HATCH
100
AcDbHatch
 10
0.0
 20
0.0
 30
0.0
210
0.0
220
0.0
230
1.0
  2
ANSI34
 70
     0
 71
     1
 91
        3
 92
        1
 93
       30
 72
     1
 10
313.0610281700652
 20
-224.6543933976745
 11
324.3463824227171
 21
-224.6543933976745
 72
     1
 10
324.3463824227171
 20
-224.6543933976745
 11
323.8261913043995
 21
-217.2153138248977
 72
     2
 10
322.8286272541396
 20
-217.2850702986416
 40
1.0
 50
3.99999999998344
 51
75.00000000000555
 73
     1
 72
     1
 10
323.0874462992421
 20
-216.3191444723525
 11
311.5352535403387
 21
-213.223743751796
 72
     2
 10
311.7940725854411
 20
-212.257817925507
 40
1.0
 50
104.9999999999944
 51
134.9999999999997
 73
     0
 72
     1
 10
311.0869658042544
 20
-212.9649247066936
 11
309.5478673574622
 21
-211.4258262599023
 72
     2
 10
308.8407605762756
 20
-212.132933041089
 40
1.0
 50
45.00000000000023
 51
86.99999999999441
 73
     1
 72
     1
 10
308.8930965325186
 20
-211.1343035063337
 11
230.0997613459027
 21
-207.0049197868966
 72
     2
 10
231.1464804707617
 20
-187.0323290918049
 40
20.0
 50
93.00000000000562
 51
175.0000000000231
 73
     0
 72
     1
 10
211.2225865089264
 20
-188.7754439467571
 11
196.4510933054267
 21
-19.93650404080472
 72
     2
 10
193.9606065601953
 20
-20.15439339767454
 40
2.5
 50
5.000000000029218
 51
90.0
 73
     1
 72
     1
 10
193.9606065601953
 20
-17.65439339767454
 11
189.4171490655432
 21
-17.65439339767454
 72
     2
 10
189.4171490655432
 20
-15.15439339767454
 40
2.5
 50
90.0
 51
174.9999999999707
 73
     0
 72
     1
 10
186.9266623203117
 20
-15.37228275454345
 11
186.4510933054267
 21
-9.93650404080472
 72
     2
 10
183.9606065601953
 20
-10.15439339767454
 40
2.5
 50
5.000000000029218
 51
90.0
 73
     1
 72
     1
 10
183.9606065601953
 20
-7.654393397674539
 11
160.5409093353379
 21
-7.654393397673629
 72
     2
 10
160.5409093353379
 20
-11.65439339767363
 40
4.0
 50
90.0
 51
176.0000000000165
 73
     1
 72
     1
 10
156.5506531342986
 20
-11.37536750269737
 11
156.2514344952402
 21
-15.65439339767363
 72
     1
 10
156.2514344952402
 20
-15.65439339767363
 11
176.2514344952384
 21
-15.65439339766908
 72
     1
 10
176.2514344952384
 20
-15.65439339766908
 11
176.2514344952384
 21
-17.66640946635743
 72
     2
 10
175.9050008061591
 20
-22.65439339767363
 40
5.0
 50
273.9730208360712
 51
352.0000000000091
 73
     0
 72
     1
 10
180.8563411498677
 20
-21.95852789287255
 11
194.1845366345557
 21
-116.7935664986335
 72
     2
 10
195.1748047032966
 20
-116.6543933976736
 40
1.0
 50
187.9999999999909
 51
262.4959809550703
 73
     1
 72
     2
 10
194.3912302791401
 20
-122.6030076162806
 40
5.0
 50
277.5040190448247
 51
354.9999999999708
 73
     0
 72
     1
 10
199.3722037696031
 20
-122.1672289025418
 11
205.6732307401895
 21
-194.1882967375004
 72
     2
 10
230.5780981924824
 20
-192.0094031688104
 40
25.0
 50
184.9999999999769
 51
266.9999999999944
 73
     1
 72
     1
 10
229.2696992864081
 20
-216.975141537675
 11
300.3860023806034
 21
-220.7021890536598
 72
     2
 10
300.1243225993882
 20
-225.6953367274327
 40
5.0
 50
273.0000000000056
 51
284.9999999999944
 73
     0
 72
     1
 10
301.4184178249003
 20
-220.8657075959873
 11
310.8534211042921
 21
-223.3938091052851
 72
     2
 10
309.5593258787782
 20
-228.2234382367306
 40
5.0
 50
284.9999999999944
 51
314.4543254002286
 73
     0
 97
       30
330
EFDE
330
EFD5
330
EFD7
330
EFD4
330
EFD6
330
EFCC
330
EFCD
330
EFC8
330
EF7C
330
EF7A
330
EF77
330
EF75
330
EF76
330
EF79
330
EF78
330
EF83
330
EF82
330
EF88
330
EF84
330
EF8E
330
EF87
330
EF8F
330
EF85
330
EF86
330
EF7B
330
EFC4
330
EFC3
330
EFC5
330
EFCB
330
EFD0
 92
        1
 93
       38
 72
     1
 10
413.2064865677554
 20
-224.6543933976745
 11
424.4918408204036
 21
-224.6543933976745
 72
     2
 10
427.9935431116924
 20
-228.2234382367296
 40
5.0
 50
225.5456745997714
 51
255.0000000000056
 73
     0
 72
     1
 10
426.6994478861803
 20
-223.3938091052841
 11
436.1344511655685
 21
-220.8657075959873
 72
     2
 10
437.4285463910807
 20
-225.6953367274327
 40
5.0
 50
255.0000000000056
 51
266.9999999999944
 73
     0
 72
     1
 10
437.1668666098672
 20
-220.7021890536598
 11
508.2831697040643
 21
-216.9751415376723
 72
     2
 10
506.97477079799
 20
-192.0094031688077
 40
25.0
 50
273.0000000000056
 51
355.0000000000232
 73
     1
 72
     1
 10
531.8796382502829
 20
-194.1882967374986
 11
546.0501492648642
 21
-32.21861468393581
 72
     2
 10
551.0311227553235
 20
-32.65439339767363
 40
5.0
 50
184.9999999999769
 51
270.0
 73
     0
 72
     1
 10
551.0311227553235
 20
-27.65439339767363
 11
563.07174623515
 21
-27.65439339767363
 72
     2
 10
563.07174623515
 20
-32.65439339767363
 40
5.0
 50
270.0
 51
355.0000000000232
 73
     0
 72
     1
 10
568.0527197256093
 20
-32.21861468393581
 11
582.2232307401924
 21
-194.1882967374986
 72
     2
 10
607.1280981924852
 20
-192.0094031688077
 40
25.0
 50
184.9999999999769
 51
266.9999999999944
 73
     1
 72
     1
 10
605.819699286411
 20
-216.9751415376723
 11
676.9360023806081
 21
-220.7021890536598
 72
     2
 10
676.6743225993947
 20
-225.6953367274327
 40
5.0
 50
273.0000000000056
 51
284.9999999999944
 73
     0
 72
     1
 10
677.9684178249068
 20
-220.8657075959873
 11
687.403421104295
 21
-223.3938091052841
 72
     2
 10
686.1093258787828
 20
-228.2234382367296
 40
5.0
 50
284.9999999999944
 51
314.4543254002286
 73
     0
 72
     1
 10
689.6110281700718
 20
-224.6543933976745
 11
700.8963824227199
 21
-224.6543933976745
 72
     1
 10
700.8963824227199
 20
-224.6543933976745
 11
700.3761913044023
 21
-217.2153138248968
 72
     2
 10
699.3786272541425
 20
-217.2850702986416
 40
1.0
 50
3.99999999998344
 51
75.00000000000555
 73
     1
 72
     1
 10
699.637446299245
 20
-216.3191444723525
 11
688.0852535403415
 21
-213.223743751796
 72
     2
 10
688.3440725854439
 20
-212.257817925507
 40
1.0
 50
104.9999999999944
 51
134.9999999998892
 73
     0
 72
     1
 10
687.6369658042591
 20
-212.9649247066936
 11
686.097867357467
 21
-211.4258262599023
 72
     2
 10
685.3907605762785
 20
-212.132933041089
 40
1.0
 50
45.00000000011077
 51
86.99999999999441
 73
     1
 72
     1
 10
685.4430965325215
 20
-211.1343035063337
 11
606.6497613459038
 21
-207.0049197869002
 72
     2
 10
607.6964804707628
 20
-187.0323290918086
 40
20.0
 50
93.00000000000562
 51
175.0000000000231
 73
     0
 72
     1
 10
587.7725865089274
 20
-188.7754439467617
 11
573.0010933054241
 21
-19.93650404080472
 72
     2
 10
570.5106065601945
 20
-20.15439339767363
 40
2.5
 50
5.000000000029218
 51
90.0
 73
     1
 72
     1
 10
570.5106065601945
 20
-17.65439339767545
 11
543.5922624302808
 21
-17.65439339767363
 72
     2
 10
543.5922624302808
 20
-20.15439339767363
 40
2.5
 50
90.0
 51
175.0000000000231
 73
     1
 72
     1
 10
541.1017756850511
 20
-19.93650404080472
 11
526.3302824815479
 21
-188.7754439467617
 72
     2
 10
506.4063885197125
 20
-187.0323290918086
 40
20.0
 50
4.99999999997689
 51
86.99999999999439
 73
     0
 72
     1
 10
507.4531076445715
 20
-207.0049197869002
 11
428.6597724579539
 21
-211.1343035063337
 72
     2
 10
428.7121084141968
 20
-212.132933041089
 40
1.0
 50
93.00000000000558
 51
134.9999999999997
 73
     1
 72
     1
 10
428.0050016330084
 20
-211.4258262599023
 11
426.4659031862162
 21
-212.9649247066936
 72
     2
 10
425.7587964050314
 20
-212.257817925507
 40
1.0
 50
45.00000000000025
 51
75.00000000000561
 73
     0
 72
     1
 10
426.0176154501338
 20
-213.223743751796
 11
414.4654226912304
 21
-216.3191444723525
 72
     2
 10
414.7242417363328
 20
-217.2850702986416
 40
1.0
 50
104.9999999999944
 51
176.0000000000165
 73
     1
 72
     1
 10
413.7266776860729
 20
-217.2153138248968
 11
413.2064865677554
 21
-224.6543933976745
 97
       38
330
EFDF
330
EFD8
330
EFC9
330
EFCA
330
EFC6
330
EF73
330
EF71
330
EF72
330
EF80
330
EFE3
330
EFE2
330
EFE4
330
EFFD
330
F002
330
F001
330
F010
330
F017
330
F014
330
F012
330
F011
330
F013
330
F006
330
F007
330
EFFE
330
EFFF
330
EFE1
330
EFE5
330
EF7F
330
EF74
330
EF6F
330
EF70
330
EFC7
330
EFCF
330
EFCE
330
EFDB
330
EFD9
330
EFDA
330
EFDC
 92
        1
 93
       30
 72
     1
 10
801.0418408204101
 20
-224.6543933976745
 11
789.7564865677582
 21
-224.6543933976745
 72
     1
 10
789.7564865677582
 20
-224.6543933976745
 11
790.2766776860759
 21
-217.2153138248977
 72
     2
 10
791.2742417363357
 20
-217.2850702986416
 40
1.0
 50
183.9999999999834
 51
255.0000000000056
 73
     0
 72
     1
 10
791.0154226912333
 20
-216.3191444723525
 11
802.5676154501367
 21
-213.223743751796
 72
     2
 10
802.3087964050343
 20
-212.257817925507
 40
1.0
 50
284.9999999999944
 51
314.9999999998892
 73
     1
 72
     1
 10
803.015903186221
 20
-212.9649247066936
 11
804.5550016330132
 21
-211.4258262599023
 72
     2
 10
805.2621084141998
 20
-212.132933041089
 40
1.0
 50
225.0000000001108
 51
266.9999999999944
 73
     0
 72
     1
 10
805.2097724579567
 20
-211.1343035063337
 11
884.0031076445725
 21
-207.0049197868975
 72
     2
 10
882.9563885197137
 20
-187.0323290918058
 40
20.0
 50
273.0000000000056
 51
355.0000000000232
 73
     1
 72
     1
 10
902.8802824815489
 20
-188.775443946758
 11
917.6517756850486
 21
-19.93650404080472
 72
     2
 10
920.14226243028
 20
-20.15439339767454
 40
2.5
 50
185.0000000000292
 51
270.0
 73
     0
 72
     1
 10
920.14226243028
 20
-17.65439339767454
 11
924.6857199249321
 21
-17.65439339767454
 72
     2
 10
924.6857199249321
 20
-15.15439339767454
 40
2.5
 50
270.0
 51
354.9999999999708
 73
     1
 72
     1
 10
927.1762066701636
 20
-15.37228275454345
 11
927.6517756850486
 21
-9.93650404080472
 72
     2
 10
930.14226243028
 20
-10.15439339767454
 40
2.5
 50
185.0000000000292
 51
270.0
 73
     0
 72
     1
 10
930.14226243028
 20
-7.654393397674539
 11
953.5619596551374
 21
-7.654393397673629
 72
     2
 10
953.5619596551374
 20
-11.65439339767363
 40
4.0
 50
270.0
 51
356.0000000000166
 73
     0
 72
     1
 10
957.5522158561767
 20
-11.37536750269737
 11
957.8514344952351
 21
-15.65439339767363
 72
     1
 10
957.8514344952351
 20
-15.65439339767363
 11
937.8514344952369
 21
-15.65439339767363
 72
     1
 10
937.8514344952369
 20
-15.65439339767363
 11
937.8514344952352
 21
-17.66640946635743
 72
     2
 10
938.1978681843163
 20
-22.65439339767363
 40
5.0
 50
93.97302083607115
 51
172.0000000000091
 73
     1
 72
     1
 10
933.2465278406075
 20
-21.95852789287346
 11
921.3237407029433
 21
-106.7935664986325
 72
     2
 10
920.3334726342024
 20
-106.6543933976727
 40
1.0
 50
7.999999999990902
 51
87.62145321811763
 73
     0
 72
     2
 10
920.5824819338983
 20
-112.6492240348689
 40
5.0
 50
92.37854678188236
 51
174.9999999999707
 73
     1
 72
     1
 10
915.6015084434372
 20
-112.2134453211302
 11
908.4296382502857
 21
-194.1882967375004
 72
     2
 10
883.5247707979929
 20
-192.0094031688095
 40
25.0
 50
4.99999999997689
 51
86.99999999999439
 73
     0
 72
     1
 10
884.8331697040672
 20
-216.9751415376741
 11
813.716866609872
 21
-220.7021890536598
 72
     2
 10
813.9785463910872
 20
-225.6953367274327
 40
5.0
 50
93.00000000000558
 51
104.9999999999944
 73
     1
 72
     1
 10
812.684451165575
 20
-220.8657075959873
 11
803.2494478861831
 21
-223.3938091052851
 72
     2
 10
804.5435431116972
 20
-228.2234382367306
 40
5.0
 50
104.9999999999944
 51
134.4543254002286
 73
     1
 97
       30
330
F016
330
F00D
330
F00F
330
F00C
330
F00E
330
F004
330
F005
330
F000
330
EFEC
330
EFEB
330
EFE8
330
EFE6
330
EFE7
330
EFEA
330
EFE9
330
EFF1
330
EFF0
330
EFF4
330
EFF2
330
EFF6
330
EFF3
330
EFF7
330
EFF9
330
EFFA
330
EFED
330
EFEE
330
EFFB
330
EFFC
330
F003
330
F008
 75
     0
 76
     1
 52
0.0
 41
10.0
 77
     0
 78
     4
 53
45.0
 43
0.0
 44
0.0
 45
-5.303300858899105
 46
5.303300858899106
 79
     0
 53
45.0
 43
1.76776695
 44
0.0
 45
-5.303300858899105
 46
5.303300858899106
 79
     0
 53
45.0
 43
3.535533909999999
 44
0.0
 45
-5.303300858899105
 46
5.303300858899106
 79
     0
 53
45.0
 43
5.30330086
 44
0.0
 45
-5.303300858899105
 46
5.303300858899106
 79
     0
 98
        1
 10
0.0
 20
0.0
1001
ACAD
1010
0.0
1020
0.0
1030
0.0
  0
LINE
  5
F44D
330
18
100
AcDbEntity
  8
SINK
100
AcDbLine
 10
957.8514344952386
 20
579.7828505155812
 30
0.0
 11
156.2514344952384
 21
579.7828505155813
 31
0.0
  0
VIEWPORT
  5
3D
330
15
100
AcDbEntity
 67
     1
  8
0
100
AcDbViewport
 10
648.4705430962849
 20
279.7201575167876
 30
0.0
 40
1402.280494834415
 41
611.625208012718
 68
     1
 69
     1
 12
648.4705430962849
 22
279.7201575167876
 13
0.0
 23
0.0
 14
0.5
 24
0.5
 15
0.5
 25
0.5
 16
0.0
 26
0.0
 36
1.0
 17
0.0
 27
0.0
 37
0.0
 42
50.0
 43
0.0
 44
0.0
 45
611.625208012718
 50
0.0
 51
0.0
 72
   100
 90
    32800
  1

281
     0
 71
     1
 74
     0
110
0.0
120
0.0
130
0.0
111
1.0
121
0.0
131
0.0
112
0.0
122
1.0
132
0.0
 79
     0
146
0.0
170
     0
 61
     5
348
F67A
292
     1
282
     1
141
0.0
142
0.0
 63
   250
421
  3355443
  0
VIEWPORT
  5
91
330
15
100
AcDbEntity
 67
     1
  8
VP
100
AcDbViewport
 10
413.0
 20
268.0
 30
0.0
 40
826.0
 41
536.0
 68
     2
 69
     2
 12
764.3823244817857
 22
220.606061364062
 13
0.0
 23
0.0
 14
0.5
 24
0.5
 15
0.5
 25
0.5
 16
0.0
 26
0.0
 36
1.0
 17
0.0
 27
0.0
 37
0.0
 42
50.0
 43
0.0
 44
0.0
 45
1072.000002202059
 50
0.0
 51
0.0
 72
   100
 90
    32800
  1

281
     0
 71
     1
 74
     0
110
0.0
120
0.0
130
0.0
111
1.0
121
0.0
131
0.0
112
0.0
122
1.0
132
0.0
 79
     0
146
0.0
170
     0
 61
     5
348
F67A
292
     1
282
     1
141
0.0
142
0.0
 63
   250
421
  3355443
  0
TEXT
  5
C3
330
15
100
AcDbEntity
 67
     1
  8
SHEET
100
AcDbText
 10
643.6074401272232
 20
29.1462164538458
 30
0.0
 40
7.0
  1
CARRON PHOENIX LIMITED
 41
1.25
  7
TITLE
100
AcDbText
  0
TEXT
  5
C4
330
15
100
AcDbEntity
 67
     1
  8
SHEET
100
AcDbText
 10
686.277084038376
 20
9.996084583200172
 30
0.0
 40
3.0
  1
T. PATON
100
AcDbText
  0
TEXT
  5
C5
330
15
100
AcDbEntity
 67
     1
  8
SHEET
100
AcDbText
 10
632.8414978404748
 20
9.996084583200172
 30
0.0
 40
3.0
  1
SCALE
100
AcDbText
  0
TEXT
  5
C6
330
15
100
AcDbEntity
 67
     1
  8
SHEET
100
AcDbText
 10
661.9584781159993
 20
20.99891592694101
 30
0.0
 40
4.0
  1
FALKIRK
 41
1.25
  7
TITLE
100
AcDbText
  0
TEXT
  5
C7
330
15
100
AcDbEntity
 67
     1
  8
SHEET
100
AcDbText
 10
660.8840537883387
 20
9.996084583200172
 30
0.0
 40
3.0
  1
DRN.
100
AcDbText
  0
TEXT
  5
C8
330
15
100
AcDbEntity
 67
     1
  8
SHEET
100
AcDbText
 10
741.4796427340283
 20
20.99891592694101
 30
0.0
 40
4.0
  1
SCOTLAND
 41
1.25
  7
TITLE
100
AcDbText
  0
TEXT
  5
C9
330
15
100
AcDbEntity
 67
     1
  8
SHEET
100
AcDbText
 10
742.6114569712799
 20
9.996084583200172
 30
0.0
 40
3.0
  1
11/05/07
100
AcDbText
  0
TEXT
  5
CA
330
15
100
AcDbEntity
 67
     1
  8
SHEET
100
AcDbText
 10
718.9266097362026
 20
9.996084583200172
 30
0.0
 40
3.0
  1
DATE
100
AcDbText
  0
TEXT
  5
CB
330
15
100
AcDbEntity
 67
     1
  8
SHEET
100
AcDbText
 10
768.4372487231684
 20
9.996084583200172
 30
0.0
 40
3.0
  1
DWG. No.
100
AcDbText
  0
TEXT
  5
CD
330
15
100
AcDbEntity
 67
     1
  8
SHEET
100
AcDbText
 10
660.9822896471446
 20
55.45675693379304
 30
0.0
 40
8.0
  1
KDL 2031 UNDERMOUNT
  7
TITLE
100
AcDbText
  0
TEXT
  5
CE
330
15
100
AcDbEntity
 67
     1
  8
SHEET
100
AcDbText
 10
628.4372487231686
 20
64.52122657551583
 30
0.0
 40
3.5
  1
TITLE
100
AcDbText
  0
LINE
  5
D0
330
15
100
AcDbEntity
 67
     1
  8
SHEET
100
AcDbLine
 10
626.0
 20
38.0
 30
0.0
 11
826.0
 21
38.0
 31
0.0
  0
LINE
  5
D1
330
15
100
AcDbEntity
 67
     1
  8
SHEET
100
AcDbLine
 10
626.0
 20
16.0
 30
0.0
 11
826.0
 21
16.0
 31
0.0
  0
LINE
  5
D2
330
15
100
AcDbEntity
 67
     1
  8
SHEET
100
AcDbLine
 10
626.0
 20
70.0
 30
0.0
 11
826.0
 21
70.0
 31
0.0
  0
LINE
  5
D3
330
15
100
AcDbEntity
 67
     1
  8
SHEET
100
AcDbLine
 10
626.0
 20
0.0
 30
0.0
 11
626.0
 21
70.0
 31
0.0
  0
LINE
  5
D4
330
15
100
AcDbEntity
 67
     1
  8
SHEET
100
AcDbLine
 10
766.0
 20
8.0
 30
0.0
 11
626.0
 21
8.0
 31
0.0
  0
TEXT
  5
D5
330
15
100
AcDbEntity
 67
     1
  8
SHEET
100
AcDbText
 10
636.0230835199595
 20
1.996084583200172
 30
0.0
 40
3.0
  1
1 : 2
100
AcDbText
  0
LINE
  5
D6
330
15
100
AcDbEntity
 67
     1
  8
SHEET
100
AcDbLine
 10
656.0
 20
16.0
 30
0.0
 11
656.0
 21
0.0
 31
0.0
  0
TEXT
  5
D7
330
15
100
AcDbEntity
 67
     1
  8
SHEET
100
AcDbText
 10
718.9266097362026
 20
1.996084583200172
 30
0.0
 40
3.0
  1
DATE
100
AcDbText
  0
LINE
  5
D8
330
15
100
AcDbEntity
 67
     1
  8
SHEET
100
AcDbLine
 10
716.0
 20
16.0
 30
0.0
 11
716.0
 21
0.0
 31
0.0
  0
LINE
  5
D9
330
15
100
AcDbEntity
 67
     1
  8
SHEET
100
AcDbLine
 10
736.0
 20
16.0
 30
0.0
 11
736.0
 21
0.0
 31
0.0
  0
LINE
  5
DA
330
15
100
AcDbEntity
 67
     1
  8
SHEET
100
AcDbLine
 10
766.0
 20
16.0
 30
0.0
 11
766.0
 21
0.0
 31
0.0
  0
TEXT
  5
14C
330
15
100
AcDbEntity
 67
     1
  8
SHEET
100
AcDbText
 10
394.3111155747608
 20
542.7165616792604
 30
0.0
 40
3.0
  1
UNTOLERANCED DIMENSIONS +/-2
  7
EUROROMAN
100
AcDbText
  0
TEXT
  5
14D
330
15
100
AcDbEntity
 67
     1
  8
SHEET
100
AcDbText
 10
394.3111155747608
 20
547.7165616792603
 30
0.0
 40
3.0
  1
UNLESS OTHERWISE SPECIFIED ALL
  7
EUROROMAN
100
AcDbText
  0
TEXT
  5
170
330
15
100
AcDbEntity
 67
     1
  8
SHEET
100
AcDbText
 10
645.7143374186281
 20
544.5964358029121
 30
0.0
 40
4.0
  1
THIRD ANGLE PROJECTION
 41
1.25
  7
TITLE
100
AcDbText
  0
TEXT
  5
171
330
15
100
AcDbEntity
 67
     1
  8
SHEET
100
AcDbText
 10
482.2548096935725
 20
542.0929519229177
 30
0.0
 40
3.0
  1
UNLESS OTHERWISE SPECIFIED
  7
TITLE
100
AcDbText
  0
TEXT
  5
172
330
15
100
AcDbEntity
 67
     1
  8
SHEET
100
AcDbText
 10
478.2731496697663
 20
547.7365066104174
 30
0.0
 40
3.0
  1
ALL DIMENSIONS IN MILLIMETRES
  7
TITLE
100
AcDbText
  0
TEXT
  5
173
330
15
100
AcDbEntity
 67
     1
  8
SHEET
100
AcDbText
 10
581.9291848841144
 20
542.0929519229177
 30
0.0
 40
3.0
  1
IF IN DOUBT ASK
  7
TITLE
100
AcDbText
  0
TEXT
  5
174
330
15
100
AcDbEntity
 67
     1
  8
SHEET
100
AcDbText
 10
560.6918259577939
 20
547.7365066104174
 30
0.0
 40
3.0
  1
DO NOT SCALE FROM THIS DRAWING
  7
TITLE
100
AcDbText
  0
LINE
  5
175
330
15
100
AcDbEntity
 67
     1
  8
SHEET
100
AcDbLine
 10
776.0
 20
551.4999604751336
 30
0.0
 11
811.0
 21
553.9999604751336
 31
0.0
  0
LINE
  5
176
330
15
100
AcDbEntity
 67
     1
  8
SHEET
  6
CENTER
100
AcDbLine
 10
741.0
 20
546.4999604751336
 30
0.0
 11
816.0
 21
546.4999604751336
 31
0.0
  0
LINE
  5
177
330
15
100
AcDbEntity
 67
     1
  8
SHEET
100
AcDbLine
 10
776.0
 20
541.4999604751336
 30
0.0
 11
811.0
 21
538.9999604751336
 31
0.0
  0
CIRCLE
  5
178
330
15
100
AcDbEntity
 67
     1
  8
SHEET
100
AcDbCircle
 10
751.0
 20
546.4999604751336
 30
0.0
 40
5.0
  0
CIRCLE
  5
179
330
15
100
AcDbEntity
 67
     1
  8
SHEET
100
AcDbCircle
 10
751.0
 20
546.4999604751336
 30
0.0
 40
7.5
  0
LINE
  5
17A
330
15
100
AcDbEntity
 67
     1
  8
SHEET
  6
CENTER
100
AcDbLine
 10
751.0
 20
536.4999604751337
 30
0.0
 11
751.0
 21
556.4999604751336
 31
0.0
  0
LINE
  5
17B
330
15
100
AcDbEntity
 67
     1
  8
SHEET
100
AcDbLine
 10
776.0
 20
541.4999604751336
 30
0.0
 11
776.0
 21
551.4999604751336
 31
0.0
  0
LINE
  5
17C
330
15
100
AcDbEntity
 67
     1
  8
SHEET
100
AcDbLine
 10
811.0
 20
538.9999604751336
 30
0.0
 11
811.0
 21
553.9999604751336
 31
0.0
  0
LINE
  5
1184
330
15
100
AcDbEntity
 67
     1
  8
SHEET
100
AcDbLine
 10
676.0
 20
16.0
 30
0.0
 11
676.0
 21
0.0
 31
0.0
  0
TEXT
  5
2F5D
330
15
100
AcDbEntity
 67
     1
  8
SHEET
100
AcDbText
 10
689.1696353061774
 20
45.22399627243316
 30
0.0
 40
5.0
  1
MACHINE DIMENSIONS
  7
TITLE
100
AcDbText
  0
LINE
  5
4B8C
330
15
100
AcDbEntity
 67
     1
  8
SHEET
100
AcDbLine
 10
48.10977352972173
 20
559.0
 30
0.0
 11
48.10977352972173
 21
534.0
 31
0.0
  0
TEXT
  5
4B8F
330
15
100
AcDbEntity
 67
     1
  8
SHEET
100
AcDbText
 10
0.8543636042879256
 20
544.3549735064748
 30
0.0
 40
4.5
  1
AMENDMENTS
  7
TITLE
100
AcDbText
  0
LINE
  5
4B90
330
15
100
AcDbEntity
 67
     1
  8
SHEET
100
AcDbLine
 10
0.0
 20
559.0
 30
0.0
 11
826.0
 21
559.0
 31
0.0
  0
LINE
  5
4B97
330
15
100
AcDbEntity
 67
     1
  8
SHEET
100
AcDbLine
 10
0.0
 20
534.0
 30
0.0
 11
826.0
 21
534.0
 31
0.0
  0
LINE
  5
4B98
330
15
100
AcDbEntity
 67
     1
  8
SHEET
100
AcDbLine
 10
0.0
 20
0.0
 30
0.0
 11
0.0
 21
559.0
 31
0.0
  0
LINE
  5
4B9A
330
15
100
AcDbEntity
 67
     1
  8
SHEET
100
AcDbLine
 10
826.0
 20
0.0
 30
0.0
 11
826.0
 21
559.0
 31
0.0
  0
LINE
  5
4B9B
330
15
100
AcDbEntity
 67
     1
  8
SHEET
100
AcDbLine
 10
0.0
 20
0.0
 30
0.0
 11
826.0
 21
0.0
 31
0.0
  0
LINE
  5
577F
330
15
100
AcDbEntity
 67
     1
  8
SHEET
100
AcDbLine
 10
642.2710003186031
 20
437.5741859439248
 30
0.0
 11
826.0
 21
437.5717653225401
 31
0.0
  0
TEXT
  5
5780
330
15
100
AcDbEntity
 67
     1
  8
SHEET
100
AcDbText
 10
673.0291929433374
 20
487.4780727994376
 30
0.0
 40
2.5
  1
L
  7
ROMANS
100
AcDbText
  0
TEXT
  5
5799
330
15
100
AcDbEntity
 67
     1
  8
SHEET
  6
Continuous
100
AcDbText
 10
643.0947205781563
 20
440.072819308127
 30
0.0
 40
5.0
  1
SCALE 1 : 1
 72
     1
 11
662.2710003186035
 21
440.072819308127
 31
0.0
100
AcDbText
  0
TEXT
  5
579B
330
15
100
AcDbEntity
 67
     1
  8
SHEET
100
AcDbText
 10
644.5882541782881
 20
487.4726883680669
 30
0.0
 40
2.5
  1
SINK LENGTH
  7
ROMANS
100
AcDbText
  0
TEXT
  5
57E6
330
15
100
AcDbEntity
 67
     1
  8
SHEET
100
AcDbText
 10
691.7061955545217
 20
442.2512006541418
 30
0.0
 40
3.75
  1
SECTION A-A
  7
ROMANS
 72
     4
 11
710.7240526973789
 21
444.1262006541418
 31
0.0
100
AcDbText
  0
TEXT
  5
57F3
330
15
100
AcDbEntity
 67
     1
  8
SHEET
100
AcDbText
 10
738.350979939491
 20
442.3286335765225
 30
0.0
 40
2.5
  1
VIEW OF FOREDGE SECTION
  7
ROMANS
 72
     4
 11
764.4224085109195
 21
443.5786335765225
 31
0.0
100
AcDbText
  0
TEXT
  5
5802
330
15
100
AcDbEntity
 67
     1
  8
DIM
100
AcDbText
 10
721.9481677431963
 20
481.7579551733882
 30
0.0
 40
2.5
  1
381
  7
ROMANS
 72
     4
 11
725.162453457482
 21
483.0079551733883
 31
0.0
100
AcDbText
  0
TEXT
  5
5803
330
15
100
AcDbEntity
 67
     1
  8
SHEET
100
AcDbText
 10
712.3666910761096
 20
523.7220098944651
 30
0.0
 40
2.5
  1
TO 1mm THROUGHOUT SINK PERIMETER.
  7
ROMANS
 72
     4
 11
751.2952625046811
 21
524.9720098944651
 31
0.0
100
AcDbText
  0
TEXT
  5
5804
330
15
100
AcDbEntity
 67
     1
  8
SHEET
100
AcDbText
 10
726.5809366534194
 20
528.9728221660213
 30
0.0
 40
2.5
  1
RIM THICKNESS TO BE PARALLEL
  7
ROMANS
 72
     4
 11
758.4261747486574
 21
530.2228221660214
 31
0.0
100
AcDbText
  0
TEXT
  5
5809
330
15
100
AcDbEntity
 67
     1
  8
SHEET
100
AcDbText
 10
697.9729964251102
 20
478.9214239055382
 30
0.0
 40
2.5
  1
CUT EDGE
  7
ROMANS
 72
     4
 11
707.5563297584436
 21
480.1714239055383
 31
0.0
100
AcDbText
  0
TEXT
  5
580A
330
15
100
AcDbEntity
 67
     1
  8
SHEET
100
AcDbText
 10
698.7050202218159
 20
484.4391042393088
 30
0.0
 40
2.5
  1
TO FLASH
  7
ROMANS
 72
     4
 11
707.6931154599111
 21
485.6891042393089
 31
0.0
100
AcDbText
  0
LWPOLYLINE
  5
580B
330
15
100
AcDbEntity
 67
     1
  8
CL
100
AcDbPolyline
 90
        2
 70
     0
 43
0.0
 10
673.1331995168569
 20
494.111682012712
 10
673.1331995168569
 20
455.3840309224624
  0
LWPOLYLINE
  5
580C
330
15
100
AcDbEntity
 67
     1
  8
DIM
100
AcDbPolyline
 90
        2
 70
     0
 43
0.0
 10
687.732134106779
 20
480.8714448789281
 10
689.5629298143052
 20
484.9890852612612
  0
LWPOLYLINE
  5
580D
330
15
100
AcDbEntity
 67
     1
  8
DIM
100
AcDbPolyline
 90
        2
 70
     0
 43
0.0
 10
687.732134106779
 20
480.8714448789281
 10
686.8167362530158
 20
482.9302650700948
  0
LINE
  5
580E
330
15
100
AcDbEntity
 67
     1
  8
DIM
100
AcDbLine
 10
673.1331995168568
 20
482.9302650700948
 30
0.0
 11
686.8167362530158
 21
482.9302650700948
 31
0.0
  0
SOLID
  5
580F
330
15
100
AcDbEntity
 67
     1
  8
DIM
100
AcDbTrace
 10
675.633199516857
 20
483.3469317367614
 30
0.0
 11
675.633199516857
 21
482.5135984034282
 31
0.0
 12
673.1331995168569
 22
482.9302650700948
 32
0.0
 13
673.1331995168569
 23
482.9302650700948
 33
0.0
  0
LINE
  5
5810
330
15
100
AcDbEntity
 67
     1
  8
DIM
100
AcDbLine
 10
696.9719212195456
 20
482.9302650700948
 30
0.0
 11
690.4783276680683
 21
482.9302650700948
 31
0.0
  0
LWPOLYLINE
  5
5811
330
15
100
AcDbEntity
 67
     1
  8
DIM
100
AcDbPolyline
 90
        2
 70
     0
 43
0.0
 10
690.4783276680683
 20
482.9302650700948
 10
689.5629298143052
 20
484.9890852612612
  0
TEXT
  5
5812
330
15
100
AcDbEntity
 67
     1
  8
SHEET
100
AcDbText
 10
671.0190562664717
 20
488.6970284475963
 30
0.0
 40
2.5
  1
C
 41
1.5
  7
ROMANS
100
AcDbText
  0
TEXT
  5
5813
330
15
100
AcDbEntity
 67
     1
  8
DIM
100
AcDbText
 10
731.907370148907
 20
482.4772940926262
 30
0.0
 40
2.5
  1
-0
  7
ROMANS
 72
     4
 11
734.704989196526
 21
483.7272940926262
 31
0.0
100
AcDbText
  0
TEXT
  5
5814
330
15
100
AcDbEntity
 67
     1
  8
DIM
100
AcDbText
 10
732.6515032290245
 20
485.2919409924338
 30
0.0
 40
2.5
  1
+1
  7
ROMANS
 72
     4
 11
735.0919794195007
 21
486.5419409924337
 31
0.0
100
AcDbText
  0
LWPOLYLINE
  5
5816
330
15
100
AcDbEntity
 67
     1
  8
DIM
100
AcDbPolyline
 90
        2
 70
     0
 43
0.0
 10
780.6417768091598
 20
501.7027864878675
 10
780.6417768091599
 20
455.3840309224624
  0
LINE
  5
581A
330
15
100
AcDbEntity
 67
     1
  8
DIM
100
AcDbLine
 10
780.64177680916
 20
482.9302650700948
 30
0.0
 11
788.0593881050413
 21
482.9302650700948
 31
0.0
  0
SOLID
  5
581B
330
15
100
AcDbEntity
 67
     1
  8
DIM
100
AcDbTrace
 10
783.1417768091601
 20
483.3469317367613
 30
0.0
 11
783.1417768091601
 21
482.5135984034281
 31
0.0
 12
780.64177680916
 22
482.9302650700948
 32
0.0
 13
780.64177680916
 23
482.9302650700948
 33
0.0
  0
SOLID
  5
581D
330
15
100
AcDbEntity
 67
     1
  8
DIM
100
AcDbTrace
 10
758.1417768091595
 20
483.3469317367614
 30
0.0
 11
758.1417768091595
 21
482.5135984034282
 31
0.0
 12
760.6417768091595
 22
482.9302650700948
 32
0.0
 13
760.6417768091595
 23
482.9302650700948
 33
0.0
  0
LINE
  5
581E
330
15
100
AcDbEntity
 67
     1
  8
DIM
100
AcDbLine
 10
760.6417768091595
 20
482.9302650700948
 30
0.0
 11
741.0302427167841
 21
482.9302650700947
 31
0.0
  0
TEXT
  5
5827
330
15
100
AcDbEntity
 67
     1
  8
SHEET
100
AcDbText
 10
788.5575164109777
 20
486.5913114298082
 30
0.0
 40
2.5
  1
EQUAL EDGE
  7
ROMANS
 72
     4
 11
800.5218021252634
 21
487.7222638107605
 31
0.0
100
AcDbText
  0
TEXT
  5
5828
330
15
100
AcDbEntity
 67
     1
  8
SHEET
100
AcDbText
 10
794.6226670108488
 20
481.9540312500349
 30
0.0
 40
1.875
  1
+
  7
ROMANS
 72
     4
 11
795.7833812965631
 21
482.7576026786064
 31
0.0
100
AcDbText
  0
TEXT
  5
5829
330
15
100
AcDbEntity
 67
     1
  8
SHEET
100
AcDbText
 10
794.6226670108488
 20
480.5420391978338
 30
0.0
 40
1.875
  1
-
  7
ROMANS
 72
     4
 11
795.7833812965631
 21
481.3456106264053
 31
0.0
100
AcDbText
  0
TEXT
  5
582A
330
15
100
AcDbEntity
 67
     1
  8
SHEET
100
AcDbText
 10
792.2828733234279
 20
480.9545834769899
 30
0.0
 40
2.5
  1
1
  7
ROMANS
 72
     4
 11
793.2947780853327
 21
482.2045834769899
 31
0.0
100
AcDbText
  0
TEXT
  5
582B
330
15
100
AcDbEntity
 67
     1
  8
SHEET
100
AcDbText
 10
801.0523317358716
 20
480.9545834769899
 30
0.0
 40
2.5
  1
WIDTH
  7
ROMANS
 72
     4
 11
806.3499507834906
 21
482.2045834769899
 31
0.0
100
AcDbText
  0
LINE
  5
5834
330
15
100
AcDbEntity
 67
     1
  8
SHEET
100
AcDbLine
 10
771.5636066681484
 20
503.5006908234253
 30
0.0
 11
777.0073878758735
 21
521.8934741805521
 31
0.0
  0
SOLID
  5
5835
330
15
100
AcDbEntity
 67
     1
  8
SHEET
100
AcDbTrace
 10
772.695040615803
 20
505.1212176581596
 30
0.0
 11
771.4964377254315
 21
505.4759726598057
 31
0.0
 12
771.0314741656795
 22
501.7027864878678
 32
0.0
 13
771.0314741656795
 23
501.7027864878678
 33
0.0
  0
LINE
  5
5A42
330
15
100
AcDbEntity
 67
     1
  8
DIM
 62
     1
100
AcDbLine
 10
780.7042768091597
 20
509.7027864878675
 30
0.0
 11
794.5929035724154
 21
509.7027864878675
 31
0.0
  0
LINE
  5
5A43
330
15
100
AcDbEntity
 67
     1
  8
DIM
 62
     1
100
AcDbLine
 10
780.7042768091597
 20
501.7027864878675
 30
0.0
 11
794.5929035724154
 21
501.7027864878675
 31
0.0
  0
LINE
  5
5A44
330
15
100
AcDbEntity
 67
     1
  8
DIM
 62
     1
100
AcDbLine
 10
794.4129035724155
 20
514.7027864878675
 30
0.0
 11
794.4129035724155
 21
519.7027864878675
 31
0.0
  0
LINE
  5
5A45
330
15
100
AcDbEntity
 67
     1
  8
DIM
 62
     1
100
AcDbLine
 10
794.4129035724155
 20
496.7027864878676
 30
0.0
 11
794.4129035724155
 21
491.7027864878675
 31
0.0
  0
SOLID
  5
5A47
330
15
100
AcDbEntity
 67
     1
  8
DIM
 62
     1
100
AcDbTrace
 10
793.5795702390821
 20
514.7027864878675
 30
0.0
 11
795.2462369057489
 21
514.7027864878675
 31
0.0
 12
794.4129035724155
 22
509.7027864878675
 32
0.0
 13
794.4129035724155
 23
509.7027864878675
 33
0.0
  0
SOLID
  5
5A48
330
15
100
AcDbEntity
 67
     1
  8
DIM
 62
     1
100
AcDbTrace
 10
793.5795702390821
 20
496.7027864878676
 30
0.0
 11
795.2462369057489
 21
496.7027864878676
 31
0.0
 12
794.4129035724155
 22
501.7027864878675
 32
0.0
 13
794.4129035724155
 23
501.7027864878675
 33
0.0
  0
MTEXT
  5
5A49
330
15
100
AcDbEntity
 67
     1
  8
DIM
  6
ByBlock
 62
     1
100
AcDbMText
 10
795.9059938510781
 20
506.0279548961471
 30
0.0
 40
3.0
 41
0.0
 46
0.0
 71
     5
 72
     5
  1
\A1;8.00\S+2^ -0;
 73
     1
 44
1.0
  0
LINE
  5
5B7C
330
15
100
AcDbEntity
 67
     1
  8
SHEET
100
AcDbLine
 10
103.1097735297217
 20
559.0
 30
0.0
 11
103.1097735297217
 21
534.0
 31
0.0
  0
TEXT
  5
5B7D
330
15
100
AcDbEntity
 67
     1
  8
SHEET
100
AcDbText
 10
49.8179114701345
 20
542.5018345610635
 30
0.0
 40
3.0
  1
TP  COD1357  11/05/07
  7
EUROROMAN
100
AcDbText
  0
TEXT
  5
5B7E
330
15
100
AcDbEntity
 67
     1
  8
SHEET
100
AcDbText
 10
49.8179114701345
 20
547.5018345610635
 30
0.0
 40
3.0
  1
ISSUED TO PRODUCTION
  7
EUROROMAN
100
AcDbText
  0
TEXT
  5
5B7F
330
15
100
AcDbEntity
 67
     1
  8
SHEET
100
AcDbText
 10
48.9473677858723
 20
555.6444888966905
 30
0.0
 40
3.0
  1
A
  7
EUROROMAN
100
AcDbText
  0
LINE
  5
5B80
330
15
100
AcDbEntity
 67
     1
  8
SHEET
100
AcDbLine
 10
53.10977352972173
 20
559.0
 30
0.0
 11
53.10977352972173
 21
555.0
 31
0.0
  0
LINE
  5
5B81
330
15
100
AcDbEntity
 67
     1
  8
SHEET
100
AcDbLine
 10
53.10977352972173
 20
555.0
 30
0.0
 11
48.10977352972173
 21
555.0
 31
0.0
  0
LINE
  5
621A
330
15
100
AcDbEntity
 67
     1
  8
DIM
100
AcDbLine
 39
0.4
 10
760.6417768091595
 20
499.0726989622004
 30
0.0
 11
760.6417768091596
 21
455.3840309224624
 31
0.0
  0
TEXT
  5
B32E
330
15
100
AcDbEntity
 67
     1
  8
SHEET
100
AcDbText
 10
792.4529422835921
 20
5.462957233071165
 30
0.0
 40
2.5
  1
KDU318--X
100
AcDbText
  0
TEXT
  5
D171
330
15
100
AcDbEntity
 67
     1
  8
SHEET
100
AcDbText
 10
647.6834922735262
 20
468.7441088789074
 30
0.0
 40
2.5
  1
SINK WIDTH
  7
ROMANS
100
AcDbText
  0
TEXT
  5
D172
330
15
100
AcDbEntity
 67
     1
  8
DIM
100
AcDbText
 10
718.7970901671811
 20
464.9628040380365
 30
0.0
 40
2.5
  1
190 &
  7
ROMANS
 72
     4
 11
725.3447092148002
 21
466.2128040380365
 31
0.0
100
AcDbText
  0
TEXT
  5
D173
330
15
100
AcDbEntity
 67
     1
  8
SHEET
100
AcDbText
 10
698.7050202218159
 20
464.9045117572592
 30
0.0
 40
2.5
  1
TO FLASH
  7
ROMANS
 72
     4
 11
707.6931154599111
 21
466.1545117572592
 31
0.0
100
AcDbText
  0
TEXT
  5
D174
330
15
100
AcDbEntity
 67
     1
  8
SHEET
100
AcDbText
 10
697.9729964251102
 20
459.3868314234886
 30
0.0
 40
2.5
  1
CUT EDGE
  7
ROMANS
 72
     4
 11
707.5563297584436
 21
460.6368314234885
 31
0.0
100
AcDbText
  0
LWPOLYLINE
  5
D175
330
15
100
AcDbEntity
 67
     1
  8
DIM
100
AcDbPolyline
 90
        2
 70
     0
 43
0.0
 10
687.732134106779
 20
461.3368523968786
 10
689.5629298143052
 20
465.4544927792115
  0
LWPOLYLINE
  5
D177
330
15
100
AcDbEntity
 67
     1
  8
DIM
100
AcDbPolyline
 90
        2
 70
     0
 43
0.0
 10
687.732134106779
 20
461.3368523968786
 10
686.8167362530158
 20
463.3956725880451
  0
LINE
  5
D178
330
15
100
AcDbEntity
 67
     1
  8
DIM
100
AcDbLine
 10
673.1331995168569
 20
463.3956725880451
 30
0.0
 11
686.8167362530158
 21
463.3956725880451
 31
0.0
  0
SOLID
  5
D179
330
15
100
AcDbEntity
 67
     1
  8
DIM
100
AcDbTrace
 10
675.633199516857
 20
463.8123392547116
 30
0.0
 11
675.633199516857
 21
462.9790059213783
 31
0.0
 12
673.1331995168569
 22
463.3956725880451
 32
0.0
 13
673.1331995168569
 23
463.3956725880451
 33
0.0
  0
LINE
  5
D17A
330
15
100
AcDbEntity
 67
     1
  8
DIM
100
AcDbLine
 10
696.9719212195456
 20
463.3956725880451
 30
0.0
 11
690.4783276680683
 21
463.3956725880451
 31
0.0
  0
LWPOLYLINE
  5
D17B
330
15
100
AcDbEntity
 67
     1
  8
DIM
100
AcDbPolyline
 90
        2
 70
     0
 43
0.0
 10
690.4783276680683
 20
463.3956725880451
 10
689.5629298143052
 20
465.4544927792115
  0
TEXT
  5
D17C
330
15
100
AcDbEntity
 67
     1
  8
DIM
100
AcDbText
 10
731.9073720745701
 20
462.9427016105766
 30
0.0
 40
2.5
  1
-0
  7
ROMANS
 72
     4
 11
734.7049911221891
 21
464.1927016105766
 31
0.0
100
AcDbText
  0
TEXT
  5
D17D
330
15
100
AcDbEntity
 67
     1
  8
DIM
100
AcDbText
 10
732.6515051546877
 20
465.757348510384
 30
0.0
 40
2.5
  1
+1
  7
ROMANS
 72
     4
 11
735.0919813451638
 21
467.0073485103841
 31
0.0
100
AcDbText
  0
LINE
  5
D17E
330
15
100
AcDbEntity
 67
     1
  8
DIM
100
AcDbLine
 10
780.64177680916
 20
463.2049086101964
 30
0.0
 11
788.3759021870471
 21
463.2049086101964
 31
0.0
  0
SOLID
  5
D17F
330
15
100
AcDbEntity
 67
     1
  8
DIM
100
AcDbTrace
 10
783.1417768091601
 20
463.6215752768631
 30
0.0
 11
783.1417768091601
 21
462.7882419435299
 31
0.0
 12
780.64177680916
 22
463.2049086101964
 32
0.0
 13
780.64177680916
 23
463.2049086101964
 33
0.0
  0
SOLID
  5
D180
330
15
100
AcDbEntity
 67
     1
  8
DIM
100
AcDbTrace
 10
758.1417768091596
 20
463.7215362120579
 30
0.0
 11
758.1417768091596
 21
462.8882028787246
 31
0.0
 12
760.6417768091596
 22
463.3048695453914
 32
0.0
 13
760.6417768091596
 23
463.3048695453914
 33
0.0
  0
LINE
  5
D181
330
15
100
AcDbEntity
 67
     1
  8
DIM
100
AcDbLine
 10
760.6417768091596
 20
463.3048695453914
 30
0.0
 11
739.4105248396729
 21
463.3048695453914
 31
0.0
  0
TEXT
  5
D182
330
15
100
AcDbEntity
 67
     1
  8
SHEET
100
AcDbText
 10
788.5575164109777
 20
465.1143624189601
 30
0.0
 40
2.5
  1
EQUAL EDGE
  7
ROMANS
 72
     4
 11
800.5218021252634
 21
466.2453147999126
 31
0.0
100
AcDbText
  0
TEXT
  5
D183
330
15
100
AcDbEntity
 67
     1
  8
SHEET
100
AcDbText
 10
794.6226670108488
 20
460.477082239187
 30
0.0
 40
1.875
  1
+
  7
ROMANS
 72
     4
 11
795.7833812965631
 21
461.2806536677585
 31
0.0
100
AcDbText
  0
TEXT
  5
D184
330
15
100
AcDbEntity
 67
     1
  8
SHEET
100
AcDbText
 10
794.6226670108488
 20
459.0650901869858
 30
0.0
 40
1.875
  1
-
  7
ROMANS
 72
     4
 11
795.7833812965631
 21
459.8686616155573
 31
0.0
100
AcDbText
  0
TEXT
  5
D185
330
15
100
AcDbEntity
 67
     1
  8
SHEET
100
AcDbText
 10
792.2828733234279
 20
459.4776344661419
 30
0.0
 40
2.5
  1
1
  7
ROMANS
 72
     4
 11
793.2947780853327
 21
460.7276344661419
 31
0.0
100
AcDbText
  0
TEXT
  5
D186
330
15
100
AcDbEntity
 67
     1
  8
SHEET
100
AcDbText
 10
801.0523317358716
 20
459.4776344661419
 30
0.0
 40
2.5
  1
WIDTH
  7
ROMANS
 72
     4
 11
806.3499507834906
 21
460.7276344661419
 31
0.0
100
AcDbText
  0
TEXT
  5
D18F
330
15
100
AcDbEntity
 67
     1
  8
SHEET
100
AcDbText
 10
673.0291929433374
 20
467.9434803173879
 30
0.0
 40
2.5
  1
L
  7
ROMANS
100
AcDbText
  0
TEXT
  5
D190
330
15
100
AcDbEntity
 67
     1
  8
SHEET
100
AcDbText
 10
671.0190562664717
 20
469.1624359655467
 30
0.0
 40
2.5
  1
C
 41
1.5
  7
ROMANS
100
AcDbText
  0
LINE
  5
D193
330
15
100
AcDbEntity
 67
     1
  8
DIM
100
AcDbLine
 39
0.4
 10
780.64177680916
 20
482.9302650700948
 30
0.0
 11
780.64177680916
 21
482.0216394411636
 31
0.0
  0
LINE
  5
F335
330
15
100
AcDbEntity
 67
     1
  8
SINK
100
AcDbLine
 39
0.4
 10
726.0397729732443
 20
499.7027864878649
 30
0.0
 11
742.9326047442081
 21
499.702786487865
 31
0.0
  0
LINE
  5
F336
330
15
100
AcDbEntity
 67
     1
  8
SINK
100
AcDbLine
 10
726.0397729732443
 20
509.7027864878659
 30
0.0
 11
752.9326047442099
 21
509.7027864878659
 31
0.0
  0
LINE
  5
F337
102
{ACAD_REACTORS
330
F34C
102
}
330
15
100
AcDbEntity
 67
     1
  8
SINK
100
AcDbLine
 39
0.4
 10
747.4760622388584
 20
499.7027864878659
 30
0.0
 11
742.9326047442063
 21
499.7027864878659
 31
0.0
  0
ARC
  5
F338
102
{ACAD_REACTORS
330
F34C
102
}
330
15
100
AcDbEntity
 67
     1
  8
SINK
100
AcDbCircle
 39
0.4
 10
747.4760622388584
 20
502.2027864878658
 30
0.0
 40
2.5
100
AcDbArc
 50
270.0
 51
354.9999999999708
  0
ARC
  5
F339
102
{ACAD_REACTORS
330
F34C
102
}
330
15
100
AcDbEntity
 67
     1
  8
SINK
100
AcDbCircle
 39
0.4
 10
742.9326047442063
 20
497.2027864878659
 30
0.0
 40
2.5
100
AcDbArc
 50
90.0
 51
174.9999999999707
  0
ARC
  5
F33A
102
{ACAD_REACTORS
330
F34C
102
}
330
15
100
AcDbEntity
 67
     1
  8
SINK
100
AcDbCircle
 39
0.4
 10
752.9326047442062
 20
507.2027864878659
 30
0.0
 40
2.5
100
AcDbArc
 50
90.0
 51
174.9999999999707
  0
LINE
  5
F33B
102
{ACAD_REACTORS
330
F34C
102
}
330
15
100
AcDbEntity
 67
     1
  8
SINK
100
AcDbLine
 39
0.4
 10
750.4421179989748
 20
507.4206758447357
 30
0.0
 11
749.9665489840898
 21
501.9848971309969
 31
0.0
  0
LINE
  5
F33C
102
{ACAD_REACTORS
330
F34C
102
}
330
15
100
AcDbEntity
 67
     1
  8
SINK
100
AcDbLine
 39
0.4
 10
740.4421179989748
 20
497.4206758447357
 30
0.0
 11
738.0141600292573
 21
469.6689892619458
 31
0.0
  0
LINE
  5
F33D
330
15
100
AcDbEntity
 67
     1
  8
SINK
100
AcDbLine
 39
0.4
 10
742.9326047442063
 20
499.7027864878659
 30
0.0
 11
726.039772973244
 21
499.7027864878658
 31
0.0
  0
ARC
  5
F33E
102
{ACAD_REACTORS
330
F34C
102
}
330
15
100
AcDbEntity
 67
     1
  8
SINK
100
AcDbCircle
 10
776.3523019690636
 20
505.7027864878668
 30
0.0
 40
4.0
100
AcDbArc
 50
3.999999999983515
 51
90.0
  0
LINE
  5
F33F
102
{ACAD_REACTORS
330
F34C
102
}
330
15
100
AcDbEntity
 67
     1
  8
SINK
100
AcDbLine
 10
776.3523019690636
 20
509.7027864878667
 30
0.0
 11
752.9326047442062
 21
509.7027864878659
 31
0.0
  0
LINE
  5
F340
102
{ACAD_REACTORS
330
F34C
102
}
330
15
100
AcDbEntity
 67
     1
  8
SINK
100
AcDbLine
 10
780.6417768091614
 20
501.7027864878668
 30
0.0
 11
760.6417768091631
 21
501.7027864878668
 31
0.0
  0
ARC
  5
F341
102
{ACAD_REACTORS
330
F34C
102
}
330
15
100
AcDbEntity
 67
     1
  8
SINK
100
AcDbCircle
 10
760.9882104982424
 20
494.7027864878668
 30
0.0
 40
5.0
100
AcDbArc
 50
93.97302083607115
 51
172.0000000000088
  0
LINE
  5
F342
102
{ACAD_REACTORS
330
F34C
102
}
330
15
100
AcDbEntity
 67
     1
  8
SINK
100
AcDbLine
 39
0.4
 10
780.6417768091614
 20
501.7027864878668
 30
0.0
 11
780.3425581701029
 21
505.981812382843
 31
0.0
  0
LINE
  5
F343
330
15
100
AcDbEntity
 67
     1
  8
CL
100
AcDbLine
 39
0.4
 10
780.6417768091595
 20
512.2027864878678
 30
0.0
 11
780.6417768091595
 21
507.2027864878668
 31
0.0
  0
LINE
  5
F344
102
{ACAD_REACTORS
330
F34C
102
}
330
15
100
AcDbEntity
 67
     1
  8
SINK
100
AcDbLine
 39
0.4
 10
760.6417768091631
 20
501.7027864878668
 30
0.0
 11
760.6417768091613
 21
499.690770419183
 31
0.0
  0
LINE
  5
F345
102
{ACAD_REACTORS
330
F34C
102
}
330
15
100
AcDbEntity
 67
     1
  8
SINK
100
AcDbLine
 39
0.4
 10
756.0368701545338
 20
495.398651992667
 30
0.0
 11
752.4208018777468
 21
469.6689892619458
 31
0.0
  0
LINE
  5
F346
330
15
100
AcDbEntity
 67
     1
  8
CL
100
AcDbLine
 39
0.4
 10
778.1417768091613
 20
509.7027864878677
 30
0.0
 11
783.1417768091613
 21
509.7027864878677
 31
0.0
  0
LINE
  5
F347
102
{ACAD_REACTORS
330
F34C
102
}
330
15
100
AcDbEntity
 67
     1
  8
SINK
100
AcDbLine
 39
0.4
 10
738.0141600292573
 20
469.6689892619458
 30
0.0
 11
741.3669705590503
 21
468.9729027775767
 31
0.0
  0
LINE
  5
F348
102
{ACAD_REACTORS
330
F34C
102
}
330
15
100
AcDbEntity
 67
     1
  8
SINK
100
AcDbLine
 39
0.4
 10
741.3669705590503
 20
468.9729027775767
 30
0.0
 11
746.417981904195
 21
470.5390962706625
 31
0.0
  0
LINE
  5
F349
102
{ACAD_REACTORS
330
F34C
102
}
330
15
100
AcDbEntity
 67
     1
  8
SINK
100
AcDbLine
 39
0.4
 10
746.417981904195
 20
470.5390962706625
 30
0.0
 11
750.0756088041292
 21
468.1027957688599
 31
0.0
  0
LINE
  5
F34A
102
{ACAD_REACTORS
330
F34C
102
}
330
15
100
AcDbEntity
 67
     1
  8
SINK
100
AcDbLine
 39
0.4
 10
750.0756088041292
 20
468.1027957688599
 30
0.0
 11
752.4208018777468
 21
469.6689892619458
 31
0.0
  0
HATCH
  5
F34C
330
15
100
AcDbEntity
 67
     1
  8
HATCH
100
AcDbHatch
 10
0.0
 20
0.0
 30
0.0
210
0.0
220
0.0
230
1.0
  2
ANSI34
 70
     0
 71
     1
 91
        1
 92
        1
 93
       17
 72
     1
 10
750.0756088041292
 20
468.1027957688599
 11
752.4208018777468
 21
469.6689892619458
 72
     1
 10
752.4208018777468
 20
469.6689892619458
 11
756.0368701545338
 21
495.398651992667
 72
     2
 10
760.9882104982424
 20
494.7027864878668
 40
5.0
 50
187.9999999999912
 51
266.0269791639288
 73
     0
 72
     1
 10
760.6417768091613
 20
499.690770419183
 11
760.6417768091631
 21
501.7027864878668
 72
     1
 10
760.6417768091631
 20
501.7027864878668
 11
780.6417768091614
 21
501.7027864878668
 72
     1
 10
780.6417768091614
 20
501.7027864878668
 11
780.3425581701029
 21
505.981812382843
 72
     2
 10
776.3523019690636
 20
505.7027864878668
 40
4.0
 50
3.999999999983515
 51
90.0
 73
     1
 72
     1
 10
776.3523019690636
 20
509.7027864878667
 11
752.9326047442062
 21
509.7027864878659
 72
     2
 10
752.9326047442062
 20
507.2027864878659
 40
2.5
 50
90.0
 51
174.9999999999707
 73
     1
 72
     1
 10
750.4421179989748
 20
507.4206758447357
 11
749.9665489840898
 21
501.9848971309969
 72
     2
 10
747.4760622388584
 20
502.2027864878658
 40
2.5
 50
5.000000000029204
 51
90.0
 73
     0
 72
     1
 10
747.4760622388584
 20
499.7027864878659
 11
742.9326047442063
 21
499.7027864878659
 72
     2
 10
742.9326047442063
 20
497.2027864878659
 40
2.5
 50
90.0
 51
174.9999999999707
 73
     1
 72
     1
 10
740.4421179989748
 20
497.4206758447357
 11
738.0141600292573
 21
469.6689892619458
 72
     1
 10
738.0141600292573
 20
469.6689892619458
 11
741.3669705590503
 21
468.9729027775767
 72
     1
 10
741.3669705590503
 20
468.9729027775767
 11
746.417981904195
 21
470.5390962706625
 72
     1
 10
746.417981904195
 20
470.5390962706625
 11
750.0756088041292
 21
468.1027957688599
 97
       17
330
F34A
330
F345
330
F341
330
F344
330
F340
330
F342
330
F33E
330
F33F
330
F33A
330
F33B
330
F338
330
F337
330
F339
330
F33C
330
F347
330
F348
330
F349
 75
     0
 76
     1
 52
0.0
 41
10.0
 77
     0
 78
     4
 53
45.0
 43
0.0
 44
0.0
 45
-5.303300858899105
 46
5.303300858899106
 79
     0
 53
45.0
 43
1.76776695
 44
0.0
 45
-5.303300858899105
 46
5.303300858899106
 79
     0
 53
45.0
 43
3.535533909999999
 44
0.0
 45
-5.303300858899105
 46
5.303300858899106
 79
     0
 53
45.0
 43
5.30330086
 44
0.0
 45
-5.303300858899105
 46
5.303300858899106
 79
     0
 98
        1
 10
0.0
 20
0.0
1001
ACAD
1010
0.0
1020
0.0
1030
0.0
  0
TEXT
  5
F360
330
15
100
AcDbEntity
 67
     1
  8
DIM
100
AcDbText
 10
721.7732806433716
 20
461.0591000864288
 30
0.0
 40
2.5
  1
240
  7
ROMANS
 72
     4
 11
725.3447092148002
 21
462.3091000864288
 31
0.0
100
AcDbText
  0
LINE
  5
F597
330
15
100
AcDbEntity
 67
     1
  8
SHEET
100
AcDbLine
 10
642.2710003186033
 20
533.9999999999998
 30
0.0
 11
642.2710003186031
 21
437.5741859439248
 31
0.0
  0
LINE
  5
F6C3
330
15
100
AcDbEntity
 67
     1
  8
SHEET
100
AcDbLine
 10
158.1097735297217
 20
559.0
 30
0.0
 11
158.1097735297217
 21
534.0
 31
0.0
  0
TEXT
  5
F6C4
330
15
100
AcDbEntity
 67
     1
  8
SHEET
100
AcDbText
 10
104.8179114701345
 20
536.7421744225273
 30
0.0
 40
3.0
  1
TP  COD1809  13/02/09
  7
EUROROMAN
100
AcDbText
  0
TEXT
  5
F6C5
330
15
100
AcDbEntity
 67
     1
  8
SHEET
100
AcDbText
 10
104.8179114701345
 20
549.9016935855941
 30
0.0
 40
3.0
  1
REMOVE REFERENCE TO
  7
EUROROMAN
100
AcDbText
  0
TEXT
  5
F6C6
330
15
100
AcDbEntity
 67
     1
  8
SHEET
100
AcDbText
 10
103.9473677858723
 20
555.6444888966905
 30
0.0
 40
3.0
  1
B
  7
EUROROMAN
100
AcDbText
  0
LINE
  5
F6C7
330
15
100
AcDbEntity
 67
     1
  8
SHEET
100
AcDbLine
 10
108.1097735297217
 20
559.0
 30
0.0
 11
108.1097735297217
 21
555.0
 31
0.0
  0
LINE
  5
F6C8
330
15
100
AcDbEntity
 67
     1
  8
SHEET
100
AcDbLine
 10
108.1097735297217
 20
555.0
 30
0.0
 11
103.1097735297217
 21
555.0
 31
0.0
  0
TEXT
  5
F6C9
330
15
100
AcDbEntity
 67
     1
  8
SHEET
100
AcDbText
 10
104.8179114701345
 20
544.1420334470579
 30
0.0
 40
3.0
  1
BADGE IN B.O.M.s
  7
EUROROMAN
100
AcDbText
  0
LINE
  5
F701
330
15
100
AcDbEntity
 67
     1
  8
SHEET
100
AcDbLine
 10
213.1097735297217
 20
559.0
 30
0.0
 11
213.1097735297217
 21
534.0
 31
0.0
  0
TEXT
  5
F702
330
15
100
AcDbEntity
 67
     1
  8
SHEET
100
AcDbText
 10
159.8179114701345
 20
537.6677071493761
 30
0.0
 40
3.0
  1
TP  COD2091  22/03/10
  7
EUROROMAN
100
AcDbText
  0
TEXT
  5
F703
330
15
100
AcDbEntity
 67
     1
  8
SHEET
100
AcDbText
 10
159.8179114701345
 20
549.5290497572309
 30
0.0
 40
3.0
  1
WEDGES TO BE GLUED
  7
EUROROMAN
100
AcDbText
  0
TEXT
  5
F704
330
15
100
AcDbEntity
 67
     1
  8
SHEET
100
AcDbText
 10
158.9473677858723
 20
555.6444888966905
 30
0.0
 40
3.0
  1
C
  7
EUROROMAN
100
AcDbText
  0
LINE
  5
F705
330
15
100
AcDbEntity
 67
     1
  8
SHEET
100
AcDbLine
 10
163.1097735297217
 20
559.0
 30
0.0
 11
163.1097735297217
 21
555.0
 31
0.0
  0
LINE
  5
F706
330
15
100
AcDbEntity
 67
     1
  8
SHEET
100
AcDbLine
 10
163.1097735297217
 20
555.0
 30
0.0
 11
158.1097735297217
 21
555.0
 31
0.0
  0
TEXT
  5
F707
330
15
100
AcDbEntity
 67
     1
  8
SHEET
100
AcDbText
 10
159.8179114701345
 20
543.7592840476882
 30
0.0
 40
3.0
  1
BETWEEN BOWLS
  7
EUROROMAN
100
AcDbText
  0
ENDSEC
  0
SECTION
  2
OBJECTS
  0
DICTIONARY
  5
C
330
0
100
AcDbDictionary
281
     1
  3
ACAD_CIP_PREVIOUS_PRODUCT_INFO
350
F7F8
  3
ACAD_COLOR
350
CCCA
  3
ACAD_DETAILVIEWSTYLE
350
F7ED
  3
ACAD_GROUP
350
D
  3
ACAD_LAYOUT
350
5C1F
  3
ACAD_MATERIAL
350
CCC9
  3
ACAD_MLEADERSTYLE
350
F6A7
  3
ACAD_MLINESTYLE
350
1B
  3
ACAD_PLOTSETTINGS
350
5C20
  3
ACAD_PLOTSTYLENAME
350
5C1D
  3
ACAD_SCALELIST
350
F685
  3
ACAD_SECTIONVIEWSTYLE
350
F7EB
  3
ACAD_TABLESTYLE
350
CCCB
  3
ACAD_VISUALSTYLE
350
F674
  3
AcadDim
350
EB0A
  3
ACDB_RECOMPOSE_DATA
350
F813
  3
ACDBVARIABLEDICTIONARY
350
2C7C
  0
DICTIONARY
  5
F711
330
8
100
AcDbDictionary
280
     1
281
     1
  0
DICTIONARY
  5
CD00
330
2
100
AcDbDictionary
280
     1
281
     1
  3
ACAD_LAYERSTATES
360
CD01
  0
DICTIONARY
  5
F6CA
330
E
100
AcDbDictionary
280
     1
281
     1
  3
ADSK_XREC_LAYER_RECONCILED
360
F6CB
  0
DICTIONARY
  5
F6CC
330
34
100
AcDbDictionary
280
     1
281
     1
  3
ADSK_XREC_LAYER_RECONCILED
360
F6CD
  0
DICTIONARY
  5
F6CE
330
36
100
AcDbDictionary
280
     1
281
     1
  3
ADSK_XREC_LAYER_RECONCILED
360
F6CF
  0
DICTIONARY
  5
F6D0
330
38
100
AcDbDictionary
280
     1
281
     1
  3
ADSK_XREC_LAYER_RECONCILED
360
F6D1
  0
DICTIONARY
  5
F6D2
330
39
100
AcDbDictionary
280
     1
281
     1
  3
ADSK_XREC_LAYER_RECONCILED
360
F6D3
  0
DICTIONARY
  5
F6D4
330
1D50
100
AcDbDictionary
280
     1
281
     1
  3
ADSK_XREC_LAYER_RECONCILED
360
F6D5
  0
DICTIONARY
  5
F6D6
330
43B1
100
AcDbDictionary
280
     1
281
     1
  3
ADSK_XREC_LAYER_RECONCILED
360
F6D7
  0
DICTIONARY
  5
982C
330
18
100
AcDbDictionary
280
     1
281
     1
  3
ACAD_LAYOUTSELFREF
360
982D
  3
ACAD_SORTENTS
360
D018
  0
DICTIONARY
  5
982A
330
15
100
AcDbDictionary
280
     1
281
     1
  3
ACAD_LAYOUTSELFREF
360
982B
  3
ACAD_SORTENTS
360
D1D6
  0
XRECORD
  5
F7F8
102
{ACAD_REACTORS
330
C
102
}
330
C
100
AcDbXrecord
280
     1
300
ACD
300
2017
300
ACD_F_S
  0
DICTIONARY
  5
CCCA
102
{ACAD_REACTORS
330
C
102
}
330
C
100
AcDbDictionary
281
     1
  0
DICTIONARY
  5
F7ED
102
{ACAD_REACTORS
330
C
102
}
330
C
100
AcDbDictionary
281
     1
  3
Imperial24
350
F7EE
  0
DICTIONARY
  5
D
102
{ACAD_REACTORS
330
C
102
}
330
0
100
AcDbDictionary
281
     1
  0
DICTIONARY
  5
5C1F
102
{ACAD_REACTORS
330
C
102
}
330
C
100
AcDbDictionary
281
     1
  3
Layout1
350
5C22
  3
Model
350
5C21
  0
DICTIONARY
  5
CCC9
102
{ACAD_REACTORS
330
C
102
}
330
C
100
AcDbDictionary
281
     1
  3
ByBlock
350
F664
  3
ByLayer
350
F65C
  3
Global
350
F66C
  0
DICTIONARY
  5
F6A7
102
{ACAD_REACTORS
330
C
102
}
330
C
100
AcDbDictionary
281
     1
  3
Standard
350
F6A8
  0
DICTIONARY
  5
1B
102
{ACAD_REACTORS
330
C
102
}
330
0
100
AcDbDictionary
281
     1
  3
STANDARD
350
1C
  0
DICTIONARY
  5
5C20
102
{ACAD_REACTORS
330
C
102
}
330
C
100
AcDbDictionary
281
     1
  0
ACDBDICTIONARYWDFLT
  5
5C1D
102
{ACAD_REACTORS
330
C
102
}
330
C
100
AcDbDictionary
281
     1
  3
Normal
350
5C1E
100
AcDbDictionaryWithDefault
340
5C1E
  0
DICTIONARY
  5
F685
102
{ACAD_REACTORS
330
C
102
}
330
C
100
AcDbDictionary
281
     1
  3
A0
350
F686
  3
A1
350
F687
  3
A2
350
F688
  3
A3
350
F689
  3
A4
350
F68A
  3
A5
350
F68B
  3
A6
350
F68C
  3
A7
350
F68D
  3
A8
350
F68E
  3
A9
350
F68F
  3
B0
350
F690
  3
B1
350
F691
  3
B2
350
F692
  3
B3
350
F693
  3
B4
350
F694
  3
B5
350
F695
  3
B6
350
F696
  3
B7
350
F697
  3
B8
350
F698
  3
B9
350
F699
  3
C0
350
F69A
  3
C1
350
F69B
  3
C2
350
F69C
  3
C3
350
F69D
  3
C4
350
F69E
  3
C5
350
F69F
  3
C6
350
F6A0
  3
C7
350
F6A1
  3
C8
350
F6A2
  3
C9
350
F6A3
  3
D0
350
F6A4
  3
D1
350
F6A5
  3
D2
350
F6A6
  0
DICTIONARY
  5
F7EB
102
{ACAD_REACTORS
330
C
102
}
330
C
100
AcDbDictionary
281
     1
  3
Imperial24
350
F7EC
  0
DICTIONARY
  5
CCCB
102
{ACAD_REACTORS
330
C
102
}
330
C
100
AcDbDictionary
281
     1
  3
Standard
350
CCCC
  0
DICTIONARY
  5
F674
102
{ACAD_REACTORS
330
C
102
}
330
C
100
AcDbDictionary
281
     1
  3
2dWireframe
350
F67A
  3
3D Hidden
350
F67C
  3
3dWireframe
350
F67B
  3
Basic
350
F679
  3
Brighten
350
F680
  3
ColorChange
350
F684
  3
Conceptual
350
F67D
  3
Dim
350
F67F
  3
EdgeColorOff
350
F6EA
  3
Facepattern
350
F683
  3
Flat
350
F675
  3
FlatWithEdges
350
F676
  3
Gouraud
350
F677
  3
GouraudWithEdges
350
F678
  3
Hidden
350
F7E5
  3
JitterOff
350
F6E8
  3
Linepattern
350
F682
  3
OverhangOff
350
F6E9
  3
Realistic
350
F67E
  3
Shaded
350
F7EA
  3
Shaded with edges
350
F7E9
  3
Shades of Gray
350
F7E6
  3
Sketchy
350
F7E7
  3
Thicken
350
F681
  3
Wireframe
350
F7E4
  3
X-Ray
350
F7E8
  0
XRECORD
  5
EB0A
102
{ACAD_REACTORS
330
C
102
}
330
C
100
AcDbXrecord
280
     1
 90
   990106
  3

 60
     0
 61
     0
 62
     1
 63
     3
 64
     0
 65
     0
 66
     0
 67
     3
 68
     1
 69
     0
 70
     0
 71
     0
 72
     0
 40
0.0
170
     0
  0
XRECORD
  5
F813
102
{ACAD_REACTORS
330
C
102
}
330
C
100
AcDbXrecord
280
     1
 90
        1
330
CCCC
330
F7EC
330
F7EE
  0
DICTIONARY
  5
2C7C
102
{ACAD_REACTORS
330
C
102
}
330
C
100
AcDbDictionary
281
     1
  3
CANNOSCALE
350
F6E5
  3
CMLEADERSTYLE
350
F6E3
  3
CTABLESTYLE
350
CCD1
  3
CVIEWDETAILSTYLE
350
F80A
  3
CVIEWSECTIONSTYLE
350
F80B
  3
DIMASSOC
350
CCC6
  3
LAYEREVAL
350
F80C
  3
LAYERNOTIFY
350
F80D
  3
LIGHTINGUNITS
350
F6E6
  3
MSLTSCALE
350
F6E4
  3
SORTENTS
350
2C7D
  0
DICTIONARY
  5
CD01
102
{ACAD_REACTORS
330
CD00
102
}
330
CD00
100
AcDbDictionary
281
     1
  0
XRECORD
  5
F6CB
102
{ACAD_REACTORS
330
F6CA
102
}
330
F6CA
100
AcDbXrecord
280
     1
290
     1
  0
XRECORD
  5
F6CD
102
{ACAD_REACTORS
330
F6CC
102
}
330
F6CC
100
AcDbXrecord
280
     1
290
     1
  0
XRECORD
  5
F6CF
102
{ACAD_REACTORS
330
F6CE
102
}
330
F6CE
100
AcDbXrecord
280
     1
290
     1
  0
XRECORD
  5
F6D1
102
{ACAD_REACTORS
330
F6D0
102
}
330
F6D0
100
AcDbXrecord
280
     1
290
     1
  0
XRECORD
  5
F6D3
102
{ACAD_REACTORS
330
F6D2
102
}
330
F6D2
100
AcDbXrecord
280
     1
290
     1
  0
XRECORD
  5
F6D5
102
{ACAD_REACTORS
330
F6D4
102
}
330
F6D4
100
AcDbXrecord
280
     1
290
     1
  0
XRECORD
  5
F6D7
102
{ACAD_REACTORS
330
F6D6
102
}
330
F6D6
100
AcDbXrecord
280
     1
290
     1
  0
XRECORD
  5
982D
102
{ACAD_REACTORS
330
982C
102
}
330
982C
100
AcDbXrecord
280
     1
340
18
  0
SORTENTSTABLE
  5
D018
102
{ACAD_REACTORS
330
982C
102
}
330
982C
100
AcDbSortentsTable
330
18
331
EFF9
  5
EFFD
331
EFFD
  5
F001
331
EFF1
  5
EFF5
331
EFF5
  5
EFF9
331
EF98
  5
EF9A
331
EF9C
  5
EFA0
331
EF5D
  5
EF5F
331
EF90
  5
EF93
331
EF51
  5
EF51
331
F44D
  5
EF53
331
EFE9
  5
EFED
331
EFED
  5
EFF1
331
F020
  5
F024
331
EFE1
  5
EFE5
331
F024
  5
F0A0
331
EFE5
  5
EFE9
331
EF4A
  5
EF4A
331
EF4E
  5
EF4E
331
EF42
  5
EF42
331
EF8D
  5
EF8F
331
EF81
  5
EF83
331
EF46
  5
EF46
331
EF85
  5
EF87
331
EFDA
  5
EFDE
331
F019
  5
F01D
331
EFDE
  5
EFE2
331
EFD2
  5
EFD6
331
F01D
  5
F021
331
F011
  5
F015
331
EFD6
  5
EFDA
331
F015
  5
F019
331
EF79
  5
EF7B
331
EF7D
  5
EF7F
331
EF71
  5
EF73
331
F141
  5
F16B
331
EF75
  5
EF77
331
EFCA
  5
EFCE
331
F009
  5
F00D
331
EFCE
  5
EFD2
331
F00D
  5
F011
331
F001
  5
F005
331
EFC6
  5
EFCA
331
F005
  5
F009
331
EF6A
  5
EF6C
331
EF6E
  5
EF70
331
EF62
  5
EF64
331
EF66
  5
EF68
331
EFA1
  5
EFC6
331
EFFA
  5
EFFE
331
EFFE
  5
F002
331
EFF2
  5
EFF6
331
EFF6
  5
EFFA
331
EF5A
  5
EF5C
331
EF5E
  5
EF60
331
EF99
  5
EF9D
331
EF9D
  5
EFA1
331
EF52
  5
EF52
331
EF56
  5
EF5A
331
F1AE
  5
F1D4
331
F20D
  5
F455
331
EFEA
  5
EFEE
331
EFEE
  5
EFF2
331
EFE2
  5
EFE6
331
F055
  5
F0BD
331
F021
  5
F025
331
EFE6
  5
EFEA
331
F025
  5
F0A1
331
EF4B
  5
EF4B
331
EF8E
  5
EF90
331
EF4F
  5
EF4F
331
EF82
  5
EF84
331
EF43
  5
EF43
331
EF86
  5
EF88
331
EF47
  5
EF47
331
F01A
  5
F01E
331
EFDB
  5
EFDF
331
F01E
  5
F022
331
EFDF
  5
EFE3
331
F012
  5
F016
331
EFD3
  5
EFD7
331
F016
  5
F01A
331
EFD7
  5
EFDB
331
EF7A
  5
EF7C
331
EF7E
  5
EF80
331
EF72
  5
EF74
331
EF76
  5
EF78
331
F187
  5
F1AE
331
EFCB
  5
EFCF
331
F00A
  5
F00E
331
EFCF
  5
EFD3
331
F00E
  5
F012
331
EFC3
  5
EFC7
331
F002
  5
F006
331
EFC7
  5
EFCB
331
F006
  5
F00A
331
EF6B
  5
EF6D
331
EF6F
  5
EF71
331
EF63
  5
EF65
331
EF67
  5
EF69
331
F133
  5
F14F
331
EFFB
  5
EFFF
331
EFFF
  5
F003
331
EFF3
  5
EFF7
331
EFF7
  5
EFFB
331
EF9A
  5
EF9E
331
EF5B
  5
EF5D
331
EF9E
  5
EFB3
331
EF5F
  5
EF61
331
EF92
  5
EF98
331
EF53
  5
EF56
331
EF57
  5
EF5B
331
F11B
  5
F141
331
EFEB
  5
EFEF
331
EFEF
  5
EFF3
331
F022
  5
F026
331
EFE3
  5
EFE7
331
F026
  5
F0AF
331
EFE7
  5
EFEB
331
EF48
  5
EF48
331
EF8F
  5
EF92
331
EF4C
  5
EF4C
331
EF83
  5
EF85
331
EF87
  5
EF8D
331
EF44
  5
EF44
331
F14F
  5
F179
331
F01B
  5
F01F
331
EFD8
  5
EFDC
331
EFDC
  5
EFE0
331
F01F
  5
F023
331
F013
  5
F017
331
EFD0
  5
EFD4
331
EFD4
  5
EFD8
331
F017
  5
F01B
331
EF7B
  5
EF7D
331
EF7F
  5
EF81
331
EF73
  5
EF75
331
EF77
  5
EF79
331
F00B
  5
F00F
331
EFC8
  5
EFCC
331
EFCC
  5
EFD0
331
F00F
  5
F013
331
F003
  5
F007
331
EFC4
  5
EFC8
331
F007
  5
F00B
331
EF68
  5
EF6A
331
EF6C
  5
EF6E
331
EF60
  5
EF62
331
EF64
  5
EF66
331
F1BC
  5
F1E0
331
EFF8
  5
EFFC
331
EFFC
  5
F000
331
EFF0
  5
EFF4
331
F0AF
  5
F10D
331
EFF4
  5
EFF8
331
EF9B
  5
EF9F
331
EF9F
  5
EFB4
331
EF5C
  5
EF5E
331
EF50
  5
EF50
331
EF93
  5
EF99
331
F16B
  5
F187
331
EF54
  5
EF57
331
EFE8
  5
EFEC
331
EFEC
  5
EFF0
331
EFE0
  5
EFE4
331
F023
  5
F055
331
EFE4
  5
EFE8
331
EF88
  5
EF8E
331
EF49
  5
EF49
331
EF4D
  5
EF4D
331
EF80
  5
EF82
331
EF41
  5
EF41
331
EF84
  5
EF86
331
EF45
  5
EF45
331
F10D
  5
F133
331
F195
  5
F1BC
331
F1E0
  5
F44D
331
F018
  5
F01C
331
EFD9
  5
EFDD
331
F01C
  5
F020
331
EFDD
  5
EFE1
331
F010
  5
F014
331
EFD1
  5
EFD5
331
F014
  5
F018
331
EFD5
  5
EFD9
331
EF78
  5
EF7A
331
EF7C
  5
EF7E
331
EF70
  5
EF72
331
EF74
  5
EF76
331
F0BD
  5
F11B
331
F179
  5
F195
331
F1D4
  5
F20D
331
EFC9
  5
EFCD
331
F008
  5
F00C
331
EFCD
  5
EFD1
331
F00C
  5
F010
331
F000
  5
F004
331
EFC5
  5
EFC9
331
F004
  5
F008
331
EF69
  5
EF6B
331
EF6D
  5
EF6F
331
EFA0
  5
EFC5
331
EF61
  5
EF63
331
EF65
  5
EF67
  0
XRECORD
  5
982B
102
{ACAD_REACTORS
330
982A
102
}
330
982A
100
AcDbXrecord
280
     1
340
15
  0
SORTENTSTABLE
  5
D1D6
102
{ACAD_REACTORS
330
982A
102
}
330
982A
100
AcDbSortentsTable
330
15
331
5A48
  5
5A48
331
5804
  5
5804
331
5811
  5
5811
331
D178
  5
D17B
331
D184
  5
D18F
331
C4
  5
C4
331
D1
  5
D1
331
170
  5
170
331
C9
  5
C9
331
579B
  5
579B
331
581E
  5
581E
331
580D
  5
580D
331
17C
  5
17C
331
5A49
  5
5A49
331
5816
  5
5816
331
D185
  5
D190
331
D179
  5
D17C
331
D6
  5
D6
331
C5
  5
C5
331
580A
  5
580A
331
5827
  5
5827
331
171
  5
171
331
5802
  5
5802
331
D193
  5
D1B7
331
D182
  5
D185
331
D171
  5
D174
331
5B7E
  5
5B7E
331
CE
  5
CE
331
5780
  5
5780
331
3D
  5
3D
331
580B
  5
580B
331
D7
  5
D7
331
D17E
  5
D181
331
17A
  5
17A
331
D190
  5
D1B6
331
5803
  5
5803
331
D183
  5
D186
331
5799
  5
5799
331
2F5D
  5
2F5D
331
4B97
  5
4B97
331
5B7F
  5
5B7F
331
C3
  5
C3
331
176
  5
176
331
5B80
  5
5B80
331
621A
  5
621A
331
5814
  5
5814
331
582A
  5
582A
331
D4
  5
D4
331
57F3
  5
57F3
331
D17F
  5
D182
331
4B8F
  5
4B8F
331
17B
  5
17B
331
D177
  5
D17A
331
5B7C
  5
5B7C
331
5A47
  5
5A47
331
581D
  5
581D
331
177
  5
177
331
D180
  5
D183
331
178
  5
178
331
DA
  5
DA
331
5B81
  5
5B81
331
4B8C
  5
4B8C
331
582B
  5
582B
331
581A
  5
581A
331
5809
  5
5809
331
D5
  5
D5
331
D17C
  5
D17F
331
5812
  5
5812
331
D181
  5
D184
331
D174
  5
D178
331
174
  5
174
331
4B9A
  5
4B9A
331
5B7D
  5
5B7D
331
5A44
  5
5A44
331
D2
  5
D2
331
CD
  5
CD
331
179
  5
179
331
5834
  5
5834
331
CA
  5
CA
331
91
  5
91
331
14C
  5
14C
331
581B
  5
581B
331
5828
  5
5828
331
580E
  5
580E
331
D17D
  5
D180
331
5813
  5
5813
331
D17A
  5
D17D
331
577F
  5
577F
331
D186
  5
D193
331
D175
  5
D179
331
4B9B
  5
4B9B
331
5A45
  5
5A45
331
C6
  5
C6
331
D3
  5
D3
331
175
  5
175
331
D8
  5
D8
331
CB
  5
CB
331
D172
  5
D175
331
172
  5
172
331
B32E
  5
B32E
331
14D
  5
14D
331
580F
  5
580F
331
D18F
  5
D1B5
331
5A42
  5
5A42
331
5829
  5
5829
331
5835
  5
5835
331
57E6
  5
57E6
331
5810
  5
5810
331
4B98
  5
4B98
331
D0
  5
D0
331
C7
  5
C7
331
D17B
  5
D17E
331
C8
  5
C8
331
D9
  5
D9
331
4B90
  5
4B90
331
D173
  5
D177
331
5A43
  5
5A43
331
580C
  5
580C
331
1184
  5
1184
331
173
  5
173
  0
ACDBDETAILVIEWSTYLE
  5
F7EE
102
{ACAD_XDICTIONARY
360
F811
102
}
102
{ACAD_REACTORS
330
F7ED
102
}
330
F7ED
100
AcDbModelDocViewStyle
 70
     0
  3
Imperial24
290
     0
100
AcDbDetailViewStyle
 70
     0
 71
     0
 90
        3
 71
     1
340
F
 62
   256
 40
0.24
340
0
 62
   256
 40
0.24
300

 40
0.36
280
     3
 71
     2
340
14
 90
       25
 62
   256
 71
     3
340
F
 62
   256
 40
0.24
 90
        1
 40
0.75
 90
        1
300
%<\AcVar ViewType \f "%tc1">% %<\AcVar ViewDetailId>%\PSCALE %<\AcVar ViewScale \f "%sn">%
 71
     4
340
14
 90
       25
 62
   256
340
14
 90
       25
 62
   256
280
     0
  0
LAYOUT
  5
5C22
102
{ACAD_XDICTIONARY
360
CD03
102
}
102
{ACAD_REACTORS
330
5C1F
102
}
330
5C1F
100
AcDbPlotSettings
  1

  2
pdfFactory Pro
  4
A4
  6

 40
7.143749713897705
 41
7.143725872039794
 42
7.14373779296875
 43
7.14373779296875
 44
209.9733276367187
 45
297.0106506347656
 46
2.099437514849242
 47
0.0
 48
1.0
 49
1.0
140
283.535793
141
174.335932
142
1.0
143
2.921859477644063
 70
   692
 72
     1
 73
     1
 74
     1
  7
Carron Phoenix.ctb
 75
     0
147
0.342247807483991
 76
     0
 77
     2
 78
   300
148
0.0268790493087181
149
0.0288269791640232
100
AcDbLayout
  1
Layout1
 70
     1
 71
     1
 10
-20.89987702549854
 20
-27.03612118711686
 11
846.9235074929212
 21
586.4764362206919
 12
0.0
 22
0.0
 32
0.0
 14
0.0
 24
0.0
 34
0.0
 15
826.0
 25
559.4330351521971
 35
0.4
146
0.0
 13
0.0
 23
0.0
 33
0.0
 16
1.0
 26
0.0
 36
0.0
 17
0.0
 27
1.0
 37
0.0
 76
     0
330
15
331
3D
1001
ACAD_PSEXT
1000
pdfFactory Pro
1000
pdfFactory 2
1000
FPP2:
1000

1070
     0
  0
LAYOUT
  5
5C21
102
{ACAD_REACTORS
330
5C1F
102
}
330
5C1F
100
AcDbPlotSettings
  1

  2
AXISL3.pc3
  4
User1288
  6
P
 40
4.995332999999999
 41
16.933336
 42
4.995331
 43
16.933334
 44
296.925995
 45
209.804001
 46
0.0
 47
0.0
 48
80.83892073203015
 49
-120.0534720337518
140
1131.834676316042
141
462.3709243868811
142
1.0
143
4.0
 70
 11952
 72
     1
 73
     0
 74
     4
  7
Tommy.ctb
 75
    18
147
0.25
 76
     0
 77
     2
 78
   300
148
-80.83892073203015
149
120.0534720337518
100
AcDbLayout
  1
Model
 70
     1
 71
     0
 10
0.0
 20
0.0
 11
12.0
 21
9.0
 12
0.0
 22
0.0
 32
0.0
 14
0.0
 24
0.0
 34
0.0
 15
0.0
 25
0.0
 35
0.0
146
0.0
 13
0.0
 23
0.0
 33
0.0
 16
1.0
 26
0.0
 36
0.0
 17
0.0
 27
1.0
 37
0.0
 76
     0
330
18
331
F63E
  0
MATERIAL
  5
F664
102
{ACAD_XDICTIONARY
360
F665
102
}
102
{ACAD_REACTORS
330
CCC9
102
}
330
CCC9
100
AcDbMaterial
  1
ByBlock
 72
     0
 43
0.0208333333333333
 43
0.0
 43
0.0
 43
0.0
 43
0.0
 43
0.0208333333333333
 43
0.0
 43
0.0
 43
0.0
 43
0.0
 43
1.0
 43
0.0
 43
0.0
 43
0.0
 43
0.0
 43
1.0
 77
     0
 47
0.0208333333333333
 47
0.0
 47
0.0
 47
0.0
 47
0.0
 47
0.0208333333333333
 47
0.0
 47
0.0
 47
0.0
 47
0.0
 47
1.0
 47
0.0
 47
0.0
 47
0.0
 47
0.0
 47
1.0
171
     0
 49
0.0208333333333333
 49
0.0
 49
0.0
 49
0.0
 49
0.0
 49
0.0208333333333333
 49
0.0
 49
0.0
 49
0.0
 49
0.0
 49
1.0
 49
0.0
 49
0.0
 49
0.0
 49
0.0
 49
1.0
175
     0
142
0.0208333333333333
142
0.0
142
0.0
142
0.0
142
0.0
142
0.0208333333333333
142
0.0
142
0.0
142
0.0
142
0.0
142
1.0
142
0.0
142
0.0
142
0.0
142
0.0
142
1.0
179
     0
144
0.0208333333333333
144
0.0
144
0.0
144
0.0
144
0.0
144
0.0208333333333333
144
0.0
144
0.0
144
0.0
144
0.0
144
1.0
144
0.0
144
0.0
144
0.0
144
0.0
144
1.0
147
0.0208333333333333
147
0.0
147
0.0
147
0.0
147
0.0
147
0.0208333333333333
147
0.0
147
0.0
147
0.0
147
0.0
147
1.0
147
0.0
147
0.0
147
0.0
147
0.0
147
1.0
  0
MATERIAL
  5
F65C
102
{ACAD_XDICTIONARY
360
F65D
102
}
102
{ACAD_REACTORS
330
CCC9
102
}
330
CCC9
100
AcDbMaterial
  1
ByLayer
 72
     0
 43
0.0208333333333333
 43
0.0
 43
0.0
 43
0.0
 43
0.0
 43
0.0208333333333333
 43
0.0
 43
0.0
 43
0.0
 43
0.0
 43
1.0
 43
0.0
 43
0.0
 43
0.0
 43
0.0
 43
1.0
 77
     0
 47
0.0208333333333333
 47
0.0
 47
0.0
 47
0.0
 47
0.0
 47
0.0208333333333333
 47
0.0
 47
0.0
 47
0.0
 47
0.0
 47
1.0
 47
0.0
 47
0.0
 47
0.0
 47
0.0
 47
1.0
171
     0
 49
0.0208333333333333
 49
0.0
 49
0.0
 49
0.0
 49
0.0
 49
0.0208333333333333
 49
0.0
 49
0.0
 49
0.0
 49
0.0
 49
1.0
 49
0.0
 49
0.0
 49
0.0
 49
0.0
 49
1.0
175
     0
142
0.0208333333333333
142
0.0
142
0.0
142
0.0
142
0.0
142
0.0208333333333333
142
0.0
142
0.0
142
0.0
142
0.0
142
1.0
142
0.0
142
0.0
142
0.0
142
0.0
142
1.0
179
     0
144
0.0208333333333333
144
0.0
144
0.0
144
0.0
144
0.0
144
0.0208333333333333
144
0.0
144
0.0
144
0.0
144
0.0
144
1.0
144
0.0
144
0.0
144
0.0
144
0.0
144
1.0
147
0.0208333333333333
147
0.0
147
0.0
147
0.0
147
0.0
147
0.0208333333333333
147
0.0
147
0.0
147
0.0
147
0.0
147
1.0
147
0.0
147
0.0
147
0.0
147
0.0
147
1.0
  0
MATERIAL
  5
F66C
102
{ACAD_XDICTIONARY
360
F66D
102
}
102
{ACAD_REACTORS
330
CCC9
102
}
330
CCC9
100
AcDbMaterial
  1
Global
 72
     0
 43
0.0208333333333333
 43
0.0
 43
0.0
 43
0.0
 43
0.0
 43
0.0208333333333333
 43
0.0
 43
0.0
 43
0.0
 43
0.0
 43
1.0
 43
0.0
 43
0.0
 43
0.0
 43
0.0
 43
1.0
 77
     0
 47
0.0208333333333333
 47
0.0
 47
0.0
 47
0.0
 47
0.0
 47
0.0208333333333333
 47
0.0
 47
0.0
 47
0.0
 47
0.0
 47
1.0
 47
0.0
 47
0.0
 47
0.0
 47
0.0
 47
1.0
171
     0
 49
0.0208333333333333
 49
0.0
 49
0.0
 49
0.0
 49
0.0
 49
0.0208333333333333
 49
0.0
 49
0.0
 49
0.0
 49
0.0
 49
1.0
 49
0.0
 49
0.0
 49
0.0
 49
0.0
 49
1.0
175
     0
142
0.0208333333333333
142
0.0
142
0.0
142
0.0
142
0.0
142
0.0208333333333333
142
0.0
142
0.0
142
0.0
142
0.0
142
1.0
142
0.0
142
0.0
142
0.0
142
0.0
142
1.0
179
     0
144
0.0208333333333333
144
0.0
144
0.0
144
0.0
144
0.0
144
0.0208333333333333
144
0.0
144
0.0
144
0.0
144
0.0
144
1.0
144
0.0
144
0.0
144
0.0
144
0.0
144
1.0
147
0.0208333333333333
147
0.0
147
0.0
147
0.0
147
0.0
147
0.0208333333333333
147
0.0
147
0.0
147
0.0
147
0.0
147
1.0
147
0.0
147
0.0
147
0.0
147
0.0
147
1.0
  0
MLEADERSTYLE
  5
F6A8
102
{ACAD_REACTORS
330
F6A7
102
}
330
F6A7
100
AcDbMLeaderStyle
179
     2
170
     2
171
     1
172
     0
 90
        2
 40
0.0
 41
0.0
173
     1
 91
-1056964608
340
12
 92
       -2
290
     1
 42
0.09
291
     1
 43
0.36
  3
Standard
 44
0.18
300

342
F
174
     1
178
     6
175
     1
176
     0
 93
-1056964608
 45
0.18
292
     0
297
     0
 46
0.18
 94
-1056964608
 47
1.0
 49
1.0
140
1.0
293
     1
141
0.0
294
     1
177
     0
142
1.0
295
     0
296
     0
143
0.125
271
     0
272
     9
273
     9
298
     0
  0
MLINESTYLE
  5
1C
102
{ACAD_REACTORS
330
1B
102
}
330
0
100
AcDbMlineStyle
  2
STANDARD
 70
     0
  3

 62
   256
 51
90.0
 52
90.0
 71
     2
 49
0.5
 62
   256
  6
BYLAYER
 49
-0.5
 62
   256
  6
BYLAYER
  0
ACDBPLACEHOLDER
  5
5C1E
102
{ACAD_REACTORS
330
5C1D
102
}
330
5C1D
  0
SCALE
  5
F686
102
{ACAD_REACTORS
330
F685
102
}
330
F685
100
AcDbScale
 70
     0
300
1:1
140
1.0
141
1.0
290
     1
  0
SCALE
  5
F687
102
{ACAD_REACTORS
330
F685
102
}
330
F685
100
AcDbScale
 70
     0
300
1:2
140
1.0
141
2.0
290
     0
  0
SCALE
  5
F688
102
{ACAD_REACTORS
330
F685
102
}
330
F685
100
AcDbScale
 70
     0
300
1:4
140
1.0
141
4.0
290
     0
  0
SCALE
  5
F689
102
{ACAD_REACTORS
330
F685
102
}
330
F685
100
AcDbScale
 70
     0
300
1:5
140
1.0
141
5.0
290
     0
  0
SCALE
  5
F68A
102
{ACAD_REACTORS
330
F685
102
}
330
F685
100
AcDbScale
 70
     0
300
1:8
140
1.0
141
8.0
290
     0
  0
SCALE
  5
F68B
102
{ACAD_REACTORS
330
F685
102
}
330
F685
100
AcDbScale
 70
     0
300
1:10
140
1.0
141
10.0
290
     0
  0
SCALE
  5
F68C
102
{ACAD_REACTORS
330
F685
102
}
330
F685
100
AcDbScale
 70
     0
300
1:16
140
1.0
141
16.0
290
     0
  0
SCALE
  5
F68D
102
{ACAD_REACTORS
330
F685
102
}
330
F685
100
AcDbScale
 70
     0
300
1:20
140
1.0
141
20.0
290
     0
  0
SCALE
  5
F68E
102
{ACAD_REACTORS
330
F685
102
}
330
F685
100
AcDbScale
 70
     0
300
1:30
140
1.0
141
30.0
290
     0
  0
SCALE
  5
F68F
102
{ACAD_REACTORS
330
F685
102
}
330
F685
100
AcDbScale
 70
     0
300
1:40
140
1.0
141
40.0
290
     0
  0
SCALE
  5
F690
102
{ACAD_REACTORS
330
F685
102
}
330
F685
100
AcDbScale
 70
     0
300
1:50
140
1.0
141
50.0
290
     0
  0
SCALE
  5
F691
102
{ACAD_REACTORS
330
F685
102
}
330
F685
100
AcDbScale
 70
     0
300
1:100
140
1.0
141
100.0
290
     0
  0
SCALE
  5
F692
102
{ACAD_REACTORS
330
F685
102
}
330
F685
100
AcDbScale
 70
     0
300
2:1
140
2.0
141
1.0
290
     0
  0
SCALE
  5
F693
102
{ACAD_REACTORS
330
F685
102
}
330
F685
100
AcDbScale
 70
     0
300
4:1
140
4.0
141
1.0
290
     0
  0
SCALE
  5
F694
102
{ACAD_REACTORS
330
F685
102
}
330
F685
100
AcDbScale
 70
     0
300
8:1
140
8.0
141
1.0
290
     0
  0
SCALE
  5
F695
102
{ACAD_REACTORS
330
F685
102
}
330
F685
100
AcDbScale
 70
     0
300
10:1
140
10.0
141
1.0
290
     0
  0
SCALE
  5
F696
102
{ACAD_REACTORS
330
F685
102
}
330
F685
100
AcDbScale
 70
     0
300
100:1
140
100.0
141
1.0
290
     0
  0
SCALE
  5
F697
102
{ACAD_REACTORS
330
F685
102
}
330
F685
100
AcDbScale
 70
     0
300
1/128" = 1'-0"
140
0.0078125
141
12.0
290
     0
  0
SCALE
  5
F698
102
{ACAD_REACTORS
330
F685
102
}
330
F685
100
AcDbScale
 70
     0
300
1/64" = 1'-0"
140
0.015625
141
12.0
290
     0
  0
SCALE
  5
F699
102
{ACAD_REACTORS
330
F685
102
}
330
F685
100
AcDbScale
 70
     0
300
1/32" = 1'-0"
140
0.03125
141
12.0
290
     0
  0
SCALE
  5
F69A
102
{ACAD_REACTORS
330
F685
102
}
330
F685
100
AcDbScale
 70
     0
300
1/16" = 1'-0"
140
0.0625
141
12.0
290
     0
  0
SCALE
  5
F69B
102
{ACAD_REACTORS
330
F685
102
}
330
F685
100
AcDbScale
 70
     0
300
3/32" = 1'-0"
140
0.09375
141
12.0
290
     0
  0
SCALE
  5
F69C
102
{ACAD_REACTORS
330
F685
102
}
330
F685
100
AcDbScale
 70
     0
300
1/8" = 1'-0"
140
0.125
141
12.0
290
     0
  0
SCALE
  5
F69D
102
{ACAD_REACTORS
330
F685
102
}
330
F685
100
AcDbScale
 70
     0
300
3/16" = 1'-0"
140
0.1875
141
12.0
290
     0
  0
SCALE
  5
F69E
102
{ACAD_REACTORS
330
F685
102
}
330
F685
100
AcDbScale
 70
     0
300
1/4" = 1'-0"
140
0.25
141
12.0
290
     0
  0
SCALE
  5
F69F
102
{ACAD_REACTORS
330
F685
102
}
330
F685
100
AcDbScale
 70
     0
300
3/8" = 1'-0"
140
0.375
141
12.0
290
     0
  0
SCALE
  5
F6A0
102
{ACAD_REACTORS
330
F685
102
}
330
F685
100
AcDbScale
 70
     0
300
1/2" = 1'-0"
140
0.5
141
12.0
290
     0
  0
SCALE
  5
F6A1
102
{ACAD_REACTORS
330
F685
102
}
330
F685
100
AcDbScale
 70
     0
300
3/4" = 1'-0"
140
0.75
141
12.0
290
     0
  0
SCALE
  5
F6A2
102
{ACAD_REACTORS
330
F685
102
}
330
F685
100
AcDbScale
 70
     0
300
1" = 1'-0"
140
1.0
141
12.0
290
     0
  0
SCALE
  5
F6A3
102
{ACAD_REACTORS
330
F685
102
}
330
F685
100
AcDbScale
 70
     0
300
1-1/2" = 1'-0"
140
1.5
141
12.0
290
     0
  0
SCALE
  5
F6A4
102
{ACAD_REACTORS
330
F685
102
}
330
F685
100
AcDbScale
 70
     0
300
3" = 1'-0"
140
3.0
141
12.0
290
     0
  0
SCALE
  5
F6A5
102
{ACAD_REACTORS
330
F685
102
}
330
F685
100
AcDbScale
 70
     0
300
6" = 1'-0"
140
6.0
141
12.0
290
     0
  0
SCALE
  5
F6A6
102
{ACAD_REACTORS
330
F685
102
}
330
F685
100
AcDbScale
 70
     0
300
1'-0" = 1'-0"
140
12.0
141
12.0
290
     0
  0
ACDBSECTIONVIEWSTYLE
  5
F7EC
102
{ACAD_XDICTIONARY
360
F80F
102
}
102
{ACAD_REACTORS
330
F7EB
102
}
330
F7EB
100
AcDbModelDocViewStyle
 70
     0
  3
Imperial24
290
     0
100
AcDbSectionViewStyle
 70
     0
 71
     0
 90
       78
 71
     1
340
F
 62
   256
 40
0.24
340
0
340
0
 62
   256
 40
0.24
300
I, O, Q, S, X, Z
 40
0.48
 90
        3
 40
0.18
 90
        1
 71
     2
340
14
 90
       25
 62
   256
340
14
 90
       50
 62
   256
 40
0.24
 40
0.0
 40
0.24
 71
     3
340
F
 62
   256
 40
0.24
 90
        1
 40
0.75
 90
        1
300
%<\AcVar ViewType \f "%tc1">% %<\AcVar ViewSectionStartId>%-%<\AcVar ViewSectionEndId>%\PSCALE %<\AcVar ViewScale \f "%sn">%
 71
     4
 62
   256
 62
   257
300
ANSI31
 40
1.0
 90
        0
290
     0
290
     0
 90
        6
 40
0.0
 40
1.570796326794896
 40
0.2617993877991494
 40
1.308996938995747
 40
-0.2617993877991494
 40
1.832595714594046
  0
TABLESTYLE
  5
CCCC
102
{ACAD_XDICTIONARY
360
F6E0
102
}
102
{ACAD_REACTORS
330
CCCB
102
}
330
CCCB
100
AcDbTableStyle
280
     0
  3
Standard
 70
     0
 71
     0
 40
0.06
 41
0.06
280
     0
281
     0
  7
STANDARD
140
0.18
170
     2
 62
     0
 63
     7
283
     0
 90
        4
 91
        0
  1

274
    -2
284
     1
 64
     0
275
    -2
285
     1
 65
     0
276
    -2
286
     1
 66
     0
277
    -2
287
     1
 67
     0
278
    -2
288
     1
 68
     0
279
    -2
289
     1
 69
     0
  7
STANDARD
140
0.25
170
     5
 62
     0
 63
     7
283
     0
 90
        4
 91
        0
  1

274
    -2
284
     1
 64
     0
275
    -2
285
     1
 65
     0
276
    -2
286
     1
 66
     0
277
    -2
287
     1
 67
     0
278
    -2
288
     1
 68
     0
279
    -2
289
     1
 69
     0
  7
STANDARD
140
0.18
170
     5
 62
     0
 63
     7
283
     0
 90
        4
 91
        0
  1

274
    -2
284
     1
 64
     0
275
    -2
285
     1
 65
     0
276
    -2
286
     1
 66
     0
277
    -2
287
     1
 67
     0
278
    -2
288
     1
 68
     0
279
    -2
289
     1
 69
     0
  0
VISUALSTYLE
  5
F67A
102
{ACAD_REACTORS
330
F674
102
}
330
F674
100
AcDbVisualStyle
  2
2dWireframe
 70
     4
177
     3
291
     0
 70
    58
 90
        0
176
     1
 90
        2
176
     1
 90
        0
176
     1
 90
        0
176
     1
 40
0.6
176
     1
 40
30.0
176
     1
 62
     7
420
 16777215
176
     1
 90
        1
176
     1
 90
        4
176
     1
 62
     7
176
     1
 62
   257
176
     1
 90
        1
176
     1
 90
        1
176
     1
 40
1.0
176
     1
 90
        0
176
     1
 62
   257
176
     1
 40
1.0
176
     1
 90
        1
176
     1
 90
        6
176
     1
 90
        2
176
     1
 62
     7
176
     1
 90
        5
176
     1
 90
        0
176
     1
 90
        0
176
     1
290
     0
176
     1
 90
        1
176
     1
 40
0.0
176
     1
 90
        0
176
     1
290
     1
176
     1
290
     1
176
     1
290
     0
176
     1
290
     0
176
     1
290
     0
176
     1
290
     0
176
     1
290
     0
176
     1
290
     0
176
     1
290
     0
176
     1
 90
       50
176
     1
 40
0.0
176
     1
 40
1.0
176
     1
 90
        0
176
     1
 62
    18
420
        0
176
     1
 90
       50
176
     1
 90
        3
176
     1
 62
     5
420
      255
176
     1
290
     0
176
     1
 90
       50
176
     1
 90
       50
176
     1
 90
       50
176
     1
290
     0
176
     1
 90
       50
176
     1
 62
   256
176
     0
 40
1.0
176
     0
 90
        2
176
     1
  1
strokes_ogs.tif
176
     1
290
     0
176
     1
 40
1.0
176
     1
 40
1.0
176
     1
  0
VISUALSTYLE
  5
F67C
102
{ACAD_REACTORS
330
F674
102
}
330
F674
100
AcDbVisualStyle
  2
3D Hidden
 70
     6
177
     3
291
     0
 70
    58
 90
        1
176
     1
 90
        2
176
     1
 90
        2
176
     1
 90
        0
176
     1
 40
0.6
176
     1
 40
30.0
176
     1
 62
     7
420
 16777215
176
     1
 90
        2
176
     1
 90
        2
176
     1
 62
     7
176
     1
 62
   257
176
     1
 90
        2
176
     1
 90
        1
176
     1
 40
40.0
176
     1
 90
        0
176
     1
 62
   257
176
     1
 40
1.0
176
     1
 90
        1
176
     1
 90
        6
176
     1
 90
        2
176
     1
 62
     7
176
     1
 90
        3
176
     1
 90
        0
176
     1
 90
        0
176
     1
290
     0
176
     1
 90
        1
176
     1
 40
0.0
176
     1
 90
        0
176
     1
290
     0
176
     1
290
     1
176
     1
290
     1
176
     1
290
     0
176
     1
290
     0
176
     1
290
     0
176
     1
290
     0
176
     1
290
     0
176
     1
290
     0
176
     1
 90
       50
176
     1
 40
0.0
176
     1
 40
1.0
176
     1
 90
        0
176
     1
 62
    18
420
        0
176
     1
 90
       50
176
     1
 90
        3
176
     1
 62
     5
420
      255
176
     1
290
     0
176
     1
 90
       50
176
     1
 90
       50
176
     1
 90
       50
176
     1
290
     0
176
     1
 90
       50
176
     1
 62
   256
176
     0
 40
1.0
176
     0
 90
        2
176
     1
  1
strokes_ogs.tif
176
     1
290
     0
176
     1
 40
1.0
176
     1
 40
1.0
176
     1
  0
VISUALSTYLE
  5
F67B
102
{ACAD_REACTORS
330
F674
102
}
330
F674
100
AcDbVisualStyle
  2
3dWireframe
 70
     5
177
     3
291
     0
 70
    58
 90
        0
176
     1
 90
        2
176
     1
 90
        0
176
     1
 90
        0
176
     1
 40
0.6
176
     1
 40
30.0
176
     1
 62
     7
420
 16777215
176
     1
 90
        1
176
     1
 90
        4
176
     1
 62
     7
176
     1
 62
   257
176
     1
 90
        1
176
     1
 90
        1
176
     1
 40
1.0
176
     1
 90
        0
176
     1
 62
   257
176
     1
 40
1.0
176
     1
 90
        1
176
     1
 90
        6
176
     1
 90
        2
176
     1
 62
     7
176
     1
 90
        5
176
     1
 90
        0
176
     1
 90
        0
176
     1
290
     0
176
     1
 90
        1
176
     1
 40
0.0
176
     1
 90
        0
176
     1
290
     0
176
     1
290
     1
176
     1
290
     1
176
     1
290
     0
176
     1
290
     0
176
     1
290
     0
176
     1
290
     0
176
     1
290
     0
176
     1
290
     0
176
     1
 90
       50
176
     1
 40
0.0
176
     1
 40
1.0
176
     1
 90
        0
176
     1
 62
    18
420
        0
176
     1
 90
       50
176
     1
 90
        3
176
     1
 62
     5
420
      255
176
     1
290
     0
176
     1
 90
       50
176
     1
 90
       50
176
     1
 90
       50
176
     1
290
     0
176
     1
 90
       50
176
     1
 62
   256
176
     0
 40
1.0
176
     0
 90
        2
176
     1
  1
strokes_ogs.tif
176
     1
290
     0
176
     1
 40
1.0
176
     1
 40
1.0
176
     1
  0
VISUALSTYLE
  5
F679
102
{ACAD_REACTORS
330
F674
102
}
330
F674
100
AcDbVisualStyle
  2
Basic
 70
     7
177
     3
291
     1
 70
    58
 90
        1
176
     1
 90
        0
176
     1
 90
        1
176
     1
 90
        0
176
     1
 40
0.6
176
     1
 40
30.0
176
     1
 62
     7
420
 16777215
176
     1
 90
        0
176
     1
 90
        4
176
     1
 62
     7
176
     1
 62
   257
176
     1
 90
        1
176
     1
 90
        1
176
     1
 40
1.0
176
     1
 90
        8
176
     1
 62
     7
176
     1
 40
1.0
176
     1
 90
        1
176
     1
 90
        6
176
     1
 90
        2
176
     1
 62
     7
176
     1
 90
        5
176
     1
 90
        0
176
     1
 90
        0
176
     1
290
     0
176
     1
 90
        1
176
     1
 40
0.0
176
     1
 90
        0
176
     1
290
     0
176
     1
290
     1
176
     1
290
     1
176
     1
290
     0
176
     1
290
     0
176
     1
290
     0
176
     1
290
     0
176
     1
290
     0
176
     1
290
     0
176
     1
 90
       50
176
     1
 40
0.0
176
     1
 40
1.0
176
     1
 90
        0
176
     1
 62
    18
420
        0
176
     1
 90
       50
176
     1
 90
        3
176
     1
 62
     5
420
      255
176
     1
290
     0
176
     1
 90
       50
176
     1
 90
       50
176
     1
 90
       50
176
     1
290
     0
176
     1
 90
       50
176
     1
 62
   256
176
     0
 40
1.0
176
     0
 90
        2
176
     1
  1
strokes_ogs.tif
176
     1
290
     0
176
     1
 40
1.0
176
     1
 40
1.0
176
     1
  0
VISUALSTYLE
  5
F680
102
{ACAD_REACTORS
330
F674
102
}
330
F674
100
AcDbVisualStyle
  2
Brighten
 70
    12
177
     3
291
     1
 70
    58
 90
        2
176
     1
 90
        2
176
     1
 90
        0
176
     1
 90
        0
176
     1
 40
0.6
176
     1
 40
30.0
176
     1
 62
     7
420
 16777215
176
     1
 90
        1
176
     1
 90
        4
176
     1
 62
     7
176
     1
 62
   257
176
     1
 90
        1
176
     1
 90
        1
176
     1
 40
1.0
176
     1
 90
        8
176
     1
 62
     7
176
     1
 40
1.0
176
     1
 90
        1
176
     1
 90
        6
176
     1
 90
        2
176
     1
 62
     7
176
     1
 90
        5
176
     1
 90
        0
176
     1
 90
        0
176
     1
290
     0
176
     1
 90
        1
176
     1
 40
50.0
176
     1
 90
        0
176
     1
290
     0
176
     1
290
     1
176
     1
290
     1
176
     1
290
     0
176
     1
290
     0
176
     1
290
     0
176
     1
290
     0
176
     1
290
     0
176
     1
290
     0
176
     1
 90
       50
176
     1
 40
0.0
176
     1
 40
1.0
176
     1
 90
        0
176
     1
 62
    18
420
        0
176
     1
 90
       50
176
     1
 90
        3
176
     1
 62
     5
420
      255
176
     1
290
     0
176
     1
 90
       50
176
     1
 90
       50
176
     1
 90
       50
176
     1
290
     0
176
     1
 90
       50
176
     1
 62
   256
176
     0
 40
1.0
176
     0
 90
        2
176
     1
  1
strokes_ogs.tif
176
     1
290
     0
176
     1
 40
1.0
176
     1
 40
1.0
176
     1
  0
VISUALSTYLE
  5
F684
102
{ACAD_REACTORS
330
F674
102
}
330
F674
100
AcDbVisualStyle
  2
ColorChange
 70
    16
177
     3
291
     1
 70
    58
 90
        2
176
     1
 90
        2
176
     1
 90
        3
176
     1
 90
        0
176
     1
 40
0.6
176
     1
 40
30.0
176
     1
 62
     8
420
  8421504
176
     1
 90
        1
176
     1
 90
        4
176
     1
 62
     7
176
     1
 62
   257
176
     1
 90
        1
176
     1
 90
        1
176
     1
 40
1.0
176
     1
 90
        8
176
     1
 62
     8
420
  8421504
176
     1
 40
1.0
176
     1
 90
        1
176
     1
 90
        6
176
     1
 90
        2
176
     1
 62
     7
176
     1
 90
        5
176
     1
 90
        0
176
     1
 90
        0
176
     1
290
     0
176
     1
 90
        1
176
     1
 40
0.0
176
     1
 90
        0
176
     1
290
     0
176
     1
290
     1
176
     1
290
     1
176
     1
290
     0
176
     1
290
     0
176
     1
290
     0
176
     1
290
     0
176
     1
290
     0
176
     1
290
     0
176
     1
 90
       50
176
     1
 40
0.0
176
     1
 40
1.0
176
     1
 90
        0
176
     1
 62
    18
420
        0
176
     1
 90
       50
176
     1
 90
        3
176
     1
 62
     5
420
      255
176
     1
290
     0
176
     1
 90
       50
176
     1
 90
       50
176
     1
 90
       50
176
     1
290
     0
176
     1
 90
       50
176
     1
 62
   256
176
     0
 40
1.0
176
     0
 90
        2
176
     1
  1
strokes_ogs.tif
176
     1
290
     0
176
     1
 40
1.0
176
     1
 40
1.0
176
     1
  0
VISUALSTYLE
  5
F67D
102
{ACAD_REACTORS
330
F674
102
}
330
F674
100
AcDbVisualStyle
  2
Conceptual
 70
     9
177
     3
291
     0
 70
    58
 90
        3
176
     1
 90
        2
176
     1
 90
        0
176
     1
 90
        0
176
     1
 40
0.6
176
     1
 40
30.0
176
     1
 62
     7
420
 16777215
176
     1
 90
        2
176
     1
 90
        2
176
     1
 62
     7
176
     1
 62
   257
176
     1
 90
        1
176
     1
 90
        1
176
     1
 40
40.0
176
     1
 90
        8
176
     1
 62
     7
176
     1
 40
1.0
176
     1
 90
        1
176
     1
 90
        6
176
     1
 90
        2
176
     1
 62
     7
176
     1
 90
        3
176
     1
 90
        0
176
     1
 90
        0
176
     1
290
     0
176
     1
 90
        1
176
     1
 40
0.0
176
     1
 90
        0
176
     1
290
     0
176
     1
290
     1
176
     1
290
     1
176
     1
290
     0
176
     1
290
     0
176
     1
290
     0
176
     1
290
     0
176
     1
290
     0
176
     1
290
     0
176
     1
 90
       50
176
     1
 40
0.0
176
     1
 40
1.0
176
     1
 90
        0
176
     1
 62
    18
420
        0
176
     1
 90
       50
176
     1
 90
        3
176
     1
 62
     5
420
      255
176
     1
290
     0
176
     1
 90
       50
176
     1
 90
       50
176
     1
 90
       50
176
     1
290
     0
176
     1
 90
       50
176
     1
 62
   256
176
     0
 40
1.0
176
     0
 90
        2
176
     1
  1
strokes_ogs.tif
176
     1
290
     0
176
     1
 40
1.0
176
     1
 40
1.0
176
     1
  0
VISUALSTYLE
  5
F67F
102
{ACAD_REACTORS
330
F674
102
}
330
F674
100
AcDbVisualStyle
  2
Dim
 70
    11
177
     3
291
     1
 70
    58
 90
        2
176
     1
 90
        2
176
     1
 90
        0
176
     1
 90
        0
176
     1
 40
0.6
176
     1
 40
30.0
176
     1
 62
     7
420
 16777215
176
     1
 90
        1
176
     1
 90
        4
176
     1
 62
     7
176
     1
 62
   257
176
     1
 90
        1
176
     1
 90
        1
176
     1
 40
1.0
176
     1
 90
        8
176
     1
 62
     7
176
     1
 40
1.0
176
     1
 90
        1
176
     1
 90
        6
176
     1
 90
        2
176
     1
 62
     7
176
     1
 90
        5
176
     1
 90
        0
176
     1
 90
        0
176
     1
290
     0
176
     1
 90
        1
176
     1
 40
-50.0
176
     1
 90
        0
176
     1
290
     0
176
     1
290
     1
176
     1
290
     1
176
     1
290
     0
176
     1
290
     0
176
     1
290
     0
176
     1
290
     0
176
     1
290
     0
176
     1
290
     0
176
     1
 90
       50
176
     1
 40
0.0
176
     1
 40
1.0
176
     1
 90
        0
176
     1
 62
    18
420
        0
176
     1
 90
       50
176
     1
 90
        3
176
     1
 62
     5
420
      255
176
     1
290
     0
176
     1
 90
       50
176
     1
 90
       50
176
     1
 90
       50
176
     1
290
     0
176
     1
 90
       50
176
     1
 62
   256
176
     0
 40
1.0
176
     0
 90
        2
176
     1
  1
strokes_ogs.tif
176
     1
290
     0
176
     1
 40
1.0
176
     1
 40
1.0
176
     1
  0
VISUALSTYLE
  5
F6EA
102
{ACAD_REACTORS
330
F674
102
}
330
F674
100
AcDbVisualStyle
  2
EdgeColorOff
 70
    22
177
     3
291
     1
 70
    58
 90
        2
176
     0
 90
        2
176
     0
 90
        0
176
     0
 90
        0
176
     0
 40
0.6
176
     0
 40
30.0
176
     0
 62
     7
420
 16777215
176
     0
 90
        1
176
     0
 90
        4
176
     0
 62
     7
176
     0
 62
   257
176
     0
 90
        1
176
     0
 90
        1
176
     0
 40
1.0
176
     0
 90
        8
176
     2
 62
     7
176
     0
 40
1.0
176
     0
 90
        1
176
     0
 90
        6
176
     0
 90
        2
176
     0
 62
     7
176
     0
 90
        5
176
     0
 90
        0
176
     0
 90
        0
176
     0
290
     0
176
     0
 90
        1
176
     0
 40
0.0
176
     0
 90
        0
176
     0
290
     0
176
     1
290
     1
176
     1
290
     1
176
     1
290
     0
176
     1
290
     0
176
     1
290
     0
176
     1
290
     0
176
     1
290
     0
176
     1
290
     0
176
     1
 90
       50
176
     1
 40
0.0
176
     1
 40
1.0
176
     1
 90
        0
176
     1
 62
    18
420
        0
176
     1
 90
       50
176
     1
 90
        3
176
     1
 62
     5
420
      255
176
     1
290
     0
176
     1
 90
       50
176
     1
 90
       50
176
     1
 90
       50
176
     1
290
     0
176
     1
 90
       50
176
     1
 62
   256
176
     0
 40
1.0
176
     0
 90
        2
176
     1
  1
strokes_ogs.tif
176
     1
290
     0
176
     1
 40
1.0
176
     1
 40
1.0
176
     1
  0
VISUALSTYLE
  5
F683
102
{ACAD_REACTORS
330
F674
102
}
330
F674
100
AcDbVisualStyle
  2
Facepattern
 70
    15
177
     3
291
     1
 70
    58
 90
        2
176
     1
 90
        2
176
     1
 90
        0
176
     1
 90
        0
176
     1
 40
0.6
176
     1
 40
30.0
176
     1
 62
     7
420
 16777215
176
     1
 90
        1
176
     1
 90
        4
176
     1
 62
     7
176
     1
 62
   257
176
     1
 90
        1
176
     1
 90
        1
176
     1
 40
1.0
176
     1
 90
        8
176
     1
 62
     7
176
     1
 40
1.0
176
     1
 90
        1
176
     1
 90
        6
176
     1
 90
        2
176
     1
 62
     7
176
     1
 90
        5
176
     1
 90
        0
176
     1
 90
        0
176
     1
290
     0
176
     1
 90
        1
176
     1
 40
0.0
176
     1
 90
        0
176
     1
290
     0
176
     1
290
     1
176
     1
290
     1
176
     1
290
     0
176
     1
290
     0
176
     1
290
     0
176
     1
290
     0
176
     1
290
     0
176
     1
290
     0
176
     1
 90
       50
176
     1
 40
0.0
176
     1
 40
1.0
176
     1
 90
        0
176
     1
 62
    18
420
        0
176
     1
 90
       50
176
     1
 90
        3
176
     1
 62
     5
420
      255
176
     1
290
     0
176
     1
 90
       50
176
     1
 90
       50
176
     1
 90
       50
176
     1
290
     0
176
     1
 90
       50
176
     1
 62
   256
176
     0
 40
1.0
176
     0
 90
        2
176
     1
  1
strokes_ogs.tif
176
     1
290
     0
176
     1
 40
1.0
176
     1
 40
1.0
176
     1
  0
VISUALSTYLE
  5
F675
102
{ACAD_REACTORS
330
F674
102
}
330
F674
100
AcDbVisualStyle
  2
Flat
 70
     0
177
     3
291
     1
 70
    58
 90
        2
176
     1
 90
        1
176
     1
 90
        1
176
     1
 90
        2
176
     1
 40
0.6
176
     1
 40
30.0
176
     1
 62
     7
420
 16777215
176
     1
 90
        0
176
     1
 90
        4
176
     1
 62
     7
176
     1
 62
   257
176
     1
 90
        1
176
     1
 90
        1
176
     1
 40
1.0
176
     1
 90
        8
176
     1
 62
     7
176
     1
 40
1.0
176
     1
 90
        1
176
     1
 90
        6
176
     1
 90
        2
176
     1
 62
     7
176
     1
 90
        5
176
     1
 90
        0
176
     1
 90
        0
176
     1
290
     0
176
     1
 90
       13
176
     1
 40
0.0
176
     1
 90
        0
176
     1
290
     0
176
     1
290
     1
176
     1
290
     1
176
     1
290
     0
176
     1
290
     0
176
     1
290
     0
176
     1
290
     0
176
     1
290
     0
176
     1
290
     0
176
     1
 90
       50
176
     1
 40
0.0
176
     1
 40
1.0
176
     1
 90
        0
176
     1
 62
    18
420
        0
176
     1
 90
       50
176
     1
 90
        3
176
     1
 62
     5
420
      255
176
     1
290
     0
176
     1
 90
       50
176
     1
 90
       50
176
     1
 90
       50
176
     1
290
     0
176
     1
 90
       50
176
     1
 62
   256
176
     0
 40
1.0
176
     0
 90
        2
176
     1
  1
strokes_ogs.tif
176
     1
290
     0
176
     1
 40
1.0
176
     1
 40
1.0
176
     1
  0
VISUALSTYLE
  5
F676
102
{ACAD_REACTORS
330
F674
102
}
330
F674
100
AcDbVisualStyle
  2
FlatWithEdges
 70
     1
177
     3
291
     1
 70
    58
 90
        2
176
     1
 90
        1
176
     1
 90
        1
176
     1
 90
        2
176
     1
 40
0.6
176
     1
 40
30.0
176
     1
 62
     7
420
 16777215
176
     1
 90
        1
176
     1
 90
        4
176
     1
 62
     7
176
     1
 62
   257
176
     1
 90
        1
176
     1
 90
        1
176
     1
 40
1.0
176
     1
 90
        0
176
     1
 62
   257
176
     1
 40
1.0
176
     1
 90
        1
176
     1
 90
        6
176
     1
 90
        2
176
     1
 62
     7
176
     1
 90
        5
176
     1
 90
        0
176
     1
 90
        0
176
     1
290
     0
176
     1
 90
       13
176
     1
 40
0.0
176
     1
 90
        0
176
     1
290
     0
176
     1
290
     1
176
     1
290
     1
176
     1
290
     0
176
     1
290
     0
176
     1
290
     0
176
     1
290
     0
176
     1
290
     0
176
     1
290
     0
176
     1
 90
       50
176
     1
 40
0.0
176
     1
 40
1.0
176
     1
 90
        0
176
     1
 62
    18
420
        0
176
     1
 90
       50
176
     1
 90
        3
176
     1
 62
     5
420
      255
176
     1
290
     0
176
     1
 90
       50
176
     1
 90
       50
176
     1
 90
       50
176
     1
290
     0
176
     1
 90
       50
176
     1
 62
   256
176
     0
 40
1.0
176
     0
 90
        2
176
     1
  1
strokes_ogs.tif
176
     1
290
     0
176
     1
 40
1.0
176
     1
 40
1.0
176
     1
  0
VISUALSTYLE
  5
F677
102
{ACAD_REACTORS
330
F674
102
}
330
F674
100
AcDbVisualStyle
  2
Gouraud
 70
     2
177
     3
291
     1
 70
    58
 90
        2
176
     1
 90
        2
176
     1
 90
        1
176
     1
 90
        2
176
     1
 40
0.6
176
     1
 40
30.0
176
     1
 62
     7
420
 16777215
176
     1
 90
        0
176
     1
 90
        4
176
     1
 62
     7
176
     1
 62
   257
176
     1
 90
        1
176
     1
 90
        1
176
     1
 40
1.0
176
     1
 90
        0
176
     1
 62
     7
176
     1
 40
1.0
176
     1
 90
        1
176
     1
 90
        6
176
     1
 90
        2
176
     1
 62
     7
176
     1
 90
        5
176
     1
 90
        0
176
     1
 90
        0
176
     1
290
     0
176
     1
 90
       13
176
     1
 40
0.0
176
     1
 90
        0
176
     1
290
     0
176
     1
290
     1
176
     1
290
     1
176
     1
290
     0
176
     1
290
     0
176
     1
290
     0
176
     1
290
     0
176
     1
290
     0
176
     1
290
     0
176
     1
 90
       50
176
     1
 40
0.0
176
     1
 40
1.0
176
     1
 90
        0
176
     1
 62
    18
420
        0
176
     1
 90
       50
176
     1
 90
        3
176
     1
 62
     5
420
      255
176
     1
290
     0
176
     1
 90
       50
176
     1
 90
       50
176
     1
 90
       50
176
     1
290
     0
176
     1
 90
       50
176
     1
 62
   256
176
     0
 40
1.0
176
     0
 90
        2
176
     1
  1
strokes_ogs.tif
176
     1
290
     0
176
     1
 40
1.0
176
     1
 40
1.0
176
     1
  0
VISUALSTYLE
  5
F678
102
{ACAD_REACTORS
330
F674
102
}
330
F674
100
AcDbVisualStyle
  2
GouraudWithEdges
 70
     3
177
     3
291
     1
 70
    58
 90
        2
176
     1
 90
        2
176
     1
 90
        1
176
     1
 90
        2
176
     1
 40
0.6
176
     1
 40
30.0
176
     1
 62
     7
420
 16777215
176
     1
 90
        1
176
     1
 90
        4
176
     1
 62
     7
176
     1
 62
   257
176
     1
 90
        1
176
     1
 90
        1
176
     1
 40
1.0
176
     1
 90
        0
176
     1
 62
   257
176
     1
 40
1.0
176
     1
 90
        1
176
     1
 90
        6
176
     1
 90
        2
176
     1
 62
     7
176
     1
 90
        5
176
     1
 90
        0
176
     1
 90
        0
176
     1
290
     0
176
     1
 90
       13
176
     1
 40
0.0
176
     1
 90
        0
176
     1
290
     0
176
     1
290
     1
176
     1
290
     1
176
     1
290
     0
176
     1
290
     0
176
     1
290
     0
176
     1
290
     0
176
     1
290
     0
176
     1
290
     0
176
     1
 90
       50
176
     1
 40
0.0
176
     1
 40
1.0
176
     1
 90
        0
176
     1
 62
    18
420
        0
176
     1
 90
       50
176
     1
 90
        3
176
     1
 62
     5
420
      255
176
     1
290
     0
176
     1
 90
       50
176
     1
 90
       50
176
     1
 90
       50
176
     1
290
     0
176
     1
 90
       50
176
     1
 62
   256
176
     0
 40
1.0
176
     0
 90
        2
176
     1
  1
strokes_ogs.tif
176
     1
290
     0
176
     1
 40
1.0
176
     1
 40
1.0
176
     1
  0
VISUALSTYLE
  5
F7E5
102
{ACAD_REACTORS
330
F674
102
}
330
F674
100
AcDbVisualStyle
  2
Hidden
 70
     6
177
     3
291
     0
 70
    58
 90
        1
176
     1
 90
        2
176
     1
 90
        2
176
     1
 90
        0
176
     1
 40
0.6
176
     1
 40
30.0
176
     1
 62
     7
420
 16777215
176
     1
 90
        2
176
     1
 90
        2
176
     1
 62
     7
176
     1
 62
   257
176
     1
 90
        2
176
     1
 90
        1
176
     1
 40
40.0
176
     1
 90
        0
176
     1
 62
   257
176
     1
 40
1.0
176
     1
 90
        1
176
     1
 90
        6
176
     1
 90
        2
176
     1
 62
     7
176
     1
 90
        3
176
     1
 90
        0
176
     1
 90
        0
176
     1
290
     0
176
     1
 90
        1
176
     1
 40
0.0
176
     1
 90
        0
176
     1
290
     0
176
     1
290
     1
176
     1
290
     1
176
     1
290
     0
176
     1
290
     0
176
     1
290
     0
176
     1
290
     0
176
     1
290
     0
176
     1
290
     0
176
     1
 90
       50
176
     1
 40
0.0
176
     1
 40
1.0
176
     1
 90
        0
176
     1
 62
    18
420
        0
176
     1
 90
       50
176
     1
 90
        3
176
     1
 62
     5
420
      255
176
     1
290
     0
176
     1
 90
       50
176
     1
 90
       50
176
     1
 90
       50
176
     1
290
     0
176
     1
 90
       50
176
     1
 62
   256
176
     0
 40
1.0
176
     0
 90
        2
176
     1
  1
strokes_ogs.tif
176
     1
290
     0
176
     1
 40
1.0
176
     1
 40
1.0
176
     1
  0
VISUALSTYLE
  5
F6E8
102
{ACAD_REACTORS
330
F674
102
}
330
F674
100
AcDbVisualStyle
  2
JitterOff
 70
    20
177
     3
291
     1
 70
    58
 90
        2
176
     0
 90
        2
176
     0
 90
        0
176
     0
 90
        0
176
     0
 40
0.6
176
     0
 40
30.0
176
     0
 62
     7
420
 16777215
176
     0
 90
        1
176
     0
 90
        4
176
     0
 62
     7
176
     0
 62
   257
176
     0
 90
        1
176
     0
 90
        1
176
     0
 40
1.0
176
     0
 90
       10
176
     2
 62
     7
176
     0
 40
1.0
176
     0
 90
        1
176
     0
 90
        6
176
     0
 90
        2
176
     0
 62
     7
176
     0
 90
        5
176
     0
 90
        0
176
     0
 90
        0
176
     0
290
     0
176
     0
 90
        1
176
     0
 40
0.0
176
     0
 90
        0
176
     0
290
     0
176
     1
290
     1
176
     1
290
     1
176
     1
290
     0
176
     1
290
     0
176
     1
290
     0
176
     1
290
     0
176
     1
290
     0
176
     1
290
     0
176
     1
 90
       50
176
     1
 40
0.0
176
     1
 40
1.0
176
     1
 90
        0
176
     1
 62
    18
420
        0
176
     1
 90
       50
176
     1
 90
        3
176
     1
 62
     5
420
      255
176
     1
290
     0
176
     1
 90
       50
176
     1
 90
       50
176
     1
 90
       50
176
     1
290
     0
176
     1
 90
       50
176
     1
 62
   256
176
     0
 40
1.0
176
     0
 90
        2
176
     1
  1
strokes_ogs.tif
176
     1
290
     0
176
     1
 40
1.0
176
     1
 40
1.0
176
     1
  0
VISUALSTYLE
  5
F682
102
{ACAD_REACTORS
330
F674
102
}
330
F674
100
AcDbVisualStyle
  2
Linepattern
 70
    14
177
     3
291
     1
 70
    58
 90
        2
176
     1
 90
        2
176
     1
 90
        0
176
     1
 90
        0
176
     1
 40
0.6
176
     1
 40
30.0
176
     1
 62
     7
420
 16777215
176
     1
 90
        1
176
     1
 90
        4
176
     1
 62
     7
176
     1
 62
   257
176
     1
 90
        7
176
     1
 90
        7
176
     1
 40
1.0
176
     1
 90
        8
176
     1
 62
     7
176
     1
 40
1.0
176
     1
 90
        1
176
     1
 90
        6
176
     1
 90
        2
176
     1
 62
     7
176
     1
 90
        5
176
     1
 90
        0
176
     1
 90
        0
176
     1
290
     0
176
     1
 90
        1
176
     1
 40
0.0
176
     1
 90
        0
176
     1
290
     0
176
     1
290
     1
176
     1
290
     1
176
     1
290
     0
176
     1
290
     0
176
     1
290
     0
176
     1
290
     0
176
     1
290
     0
176
     1
290
     0
176
     1
 90
       50
176
     1
 40
0.0
176
     1
 40
1.0
176
     1
 90
        0
176
     1
 62
    18
420
        0
176
     1
 90
       50
176
     1
 90
        3
176
     1
 62
     5
420
      255
176
     1
290
     0
176
     1
 90
       50
176
     1
 90
       50
176
     1
 90
       50
176
     1
290
     0
176
     1
 90
       50
176
     1
 62
   256
176
     0
 40
1.0
176
     0
 90
        2
176
     1
  1
strokes_ogs.tif
176
     1
290
     0
176
     1
 40
1.0
176
     1
 40
1.0
176
     1
  0
VISUALSTYLE
  5
F6E9
102
{ACAD_REACTORS
330
F674
102
}
330
F674
100
AcDbVisualStyle
  2
OverhangOff
 70
    21
177
     3
291
     1
 70
    58
 90
        2
176
     0
 90
        2
176
     0
 90
        0
176
     0
 90
        0
176
     0
 40
0.6
176
     0
 40
30.0
176
     0
 62
     7
420
 16777215
176
     0
 90
        1
176
     0
 90
        4
176
     0
 62
     7
176
     0
 62
   257
176
     0
 90
        1
176
     0
 90
        1
176
     0
 40
1.0
176
     0
 90
        9
176
     2
 62
     7
176
     0
 40
1.0
176
     0
 90
        1
176
     0
 90
        6
176
     0
 90
        2
176
     0
 62
     7
176
     0
 90
        5
176
     0
 90
        0
176
     0
 90
        0
176
     0
290
     0
176
     0
 90
        1
176
     0
 40
0.0
176
     0
 90
        0
176
     0
290
     0
176
     1
290
     1
176
     1
290
     1
176
     1
290
     0
176
     1
290
     0
176
     1
290
     0
176
     1
290
     0
176
     1
290
     0
176
     1
290
     0
176
     1
 90
       50
176
     1
 40
0.0
176
     1
 40
1.0
176
     1
 90
        0
176
     1
 62
    18
420
        0
176
     1
 90
       50
176
     1
 90
        3
176
     1
 62
     5
420
      255
176
     1
290
     0
176
     1
 90
       50
176
     1
 90
       50
176
     1
 90
       50
176
     1
290
     0
176
     1
 90
       50
176
     1
 62
   256
176
     0
 40
1.0
176
     0
 90
        2
176
     1
  1
strokes_ogs.tif
176
     1
290
     0
176
     1
 40
1.0
176
     1
 40
1.0
176
     1
  0
VISUALSTYLE
  5
F67E
102
{ACAD_REACTORS
330
F674
102
}
330
F674
100
AcDbVisualStyle
  2
Realistic
 70
     8
177
     3
291
     0
 70
    58
 90
        2
176
     1
 90
        2
176
     1
 90
        0
176
     1
 90
        0
176
     1
 40
0.6
176
     1
 40
30.0
176
     1
 62
     7
420
 16777215
176
     1
 90
        1
176
     1
 90
        0
176
     1
 62
     7
176
     1
 62
   257
176
     1
 90
        1
176
     1
 90
        1
176
     1
 40
1.0
176
     1
 90
        8
176
     1
 62
     8
420
  7895160
176
     1
 40
1.0
176
     1
 90
        1
176
     1
 90
        6
176
     1
 90
        2
176
     1
 62
     7
176
     1
 90
        5
176
     1
 90
        0
176
     1
 90
        0
176
     1
290
     0
176
     1
 90
       13
176
     1
 40
0.0
176
     1
 90
        0
176
     1
290
     0
176
     1
290
     1
176
     1
290
     1
176
     1
290
     0
176
     1
290
     0
176
     1
290
     0
176
     1
290
     0
176
     1
290
     0
176
     1
290
     0
176
     1
 90
       50
176
     1
 40
0.0
176
     1
 40
1.0
176
     1
 90
        0
176
     1
 62
    18
420
        0
176
     1
 90
       50
176
     1
 90
        3
176
     1
 62
     5
420
      255
176
     1
290
     0
176
     1
 90
       50
176
     1
 90
       50
176
     1
 90
       50
176
     1
290
     0
176
     1
 90
       50
176
     1
 62
   256
176
     0
 40
1.0
176
     0
 90
        2
176
     1
  1
strokes_ogs.tif
176
     1
290
     0
176
     1
 40
1.0
176
     1
 40
1.0
176
     1
  0
VISUALSTYLE
  5
F7EA
102
{ACAD_REACTORS
330
F674
102
}
330
F674
100
AcDbVisualStyle
  2
Shaded
 70
    27
177
     3
291
     0
 70
    58
 90
        2
176
     1
 90
        2
176
     1
 90
        1
176
     1
 90
        2
176
     1
 40
0.6
176
     1
 40
30.0
176
     1
 62
     7
420
 16777215
176
     1
 90
        0
176
     1
 90
        4
176
     1
 62
     7
176
     1
 62
   257
176
     1
 90
        1
176
     1
 90
        1
176
     1
 40
1.0
176
     1
 90
        8
176
     1
 62
   257
176
     1
 40
1.0
176
     1
 90
        1
176
     1
 90
        6
176
     1
 90
        2
176
     1
 62
     8
420
  7895160
176
     1
 90
        3
176
     1
 90
        0
176
     1
 90
        0
176
     1
290
     0
176
     1
 90
        5
176
     1
 40
0.0
176
     1
 90
        0
176
     1
290
     0
176
     1
290
     1
176
     1
290
     1
176
     1
290
     0
176
     1
290
     0
176
     1
290
     0
176
     1
290
     0
176
     1
290
     0
176
     1
290
     0
176
     1
 90
       50
176
     1
 40
0.0
176
     1
 40
1.0
176
     1
 90
        0
176
     1
 62
    18
420
        0
176
     1
 90
       50
176
     1
 90
        3
176
     1
 62
     5
420
      255
176
     1
290
     0
176
     1
 90
       50
176
     1
 90
       50
176
     1
 90
       50
176
     1
290
     0
176
     1
 90
       50
176
     1
 62
   256
176
     0
 40
1.0
176
     0
 90
        2
176
     1
  1
strokes_ogs.tif
176
     1
290
     0
176
     1
 40
1.0
176
     1
 40
1.0
176
     1
  0
VISUALSTYLE
  5
F7E9
102
{ACAD_REACTORS
330
F674
102
}
330
F674
100
AcDbVisualStyle
  2
Shaded with edges
 70
    26
177
     3
291
     0
 70
    58
 90
        2
176
     1
 90
        2
176
     1
 90
        1
176
     1
 90
        2
176
     1
 40
0.6
176
     1
 40
30.0
176
     1
 62
     7
420
 16777215
176
     1
 90
        1
176
     1
 90
        2
176
     1
 62
     7
176
     1
 62
   257
176
     1
 90
        2
176
     1
 90
        1
176
     1
 40
1.0
176
     1
 90
        8
176
     1
 62
   257
176
     1
 40
1.0
176
     1
 90
        1
176
     1
 90
        6
176
     1
 90
        2
176
     1
 62
     7
176
     1
 90
        3
176
     1
 90
        0
176
     1
 90
        0
176
     1
290
     0
176
     1
 90
        5
176
     1
 40
0.0
176
     1
 90
        0
176
     1
290
     0
176
     1
290
     1
176
     1
290
     1
176
     1
290
     0
176
     1
290
     0
176
     1
290
     0
176
     1
290
     0
176
     1
290
     0
176
     1
290
     0
176
     1
 90
       50
176
     1
 40
0.0
176
     1
 40
1.0
176
     1
 90
        0
176
     1
 62
    18
420
        0
176
     1
 90
       50
176
     1
 90
        3
176
     1
 62
     5
420
      255
176
     1
290
     0
176
     1
 90
       50
176
     1
 90
       50
176
     1
 90
       50
176
     1
290
     0
176
     1
 90
       50
176
     1
 62
   256
176
     0
 40
1.0
176
     0
 90
        2
176
     1
  1
strokes_ogs.tif
176
     1
290
     0
176
     1
 40
1.0
176
     1
 40
1.0
176
     1
  0
VISUALSTYLE
  5
F7E6
102
{ACAD_REACTORS
330
F674
102
}
330
F674
100
AcDbVisualStyle
  2
Shades of Gray
 70
    23
177
     3
291
     0
 70
    58
 90
        2
176
     1
 90
        2
176
     1
 90
        3
176
     1
 90
        0
176
     1
 40
0.6
176
     1
 40
30.0
176
     1
 62
     7
420
 16777215
176
     1
 90
        2
176
     1
 90
        2
176
     1
 62
     7
176
     1
 62
     7
176
     1
 90
        1
176
     1
 90
        1
176
     1
 40
40.0
176
     1
 90
        8
176
     1
 62
     7
176
     1
 40
1.0
176
     1
 90
        1
176
     1
 90
        6
176
     1
 90
        2
176
     1
 62
     7
176
     1
 90
        3
176
     1
 90
        0
176
     1
 90
        0
176
     1
290
     0
176
     1
 90
        1
176
     1
 40
0.0
176
     1
 90
        0
176
     1
290
     0
176
     1
290
     1
176
     1
290
     1
176
     1
290
     0
176
     1
290
     0
176
     1
290
     0
176
     1
290
     0
176
     1
290
     0
176
     1
290
     0
176
     1
 90
       50
176
     1
 40
0.0
176
     1
 40
1.0
176
     1
 90
        0
176
     1
 62
    18
420
        0
176
     1
 90
       50
176
     1
 90
        3
176
     1
 62
     5
420
      255
176
     1
290
     0
176
     1
 90
       50
176
     1
 90
       50
176
     1
 90
       50
176
     1
290
     0
176
     1
 90
       50
176
     1
 62
   256
176
     0
 40
1.0
176
     0
 90
        2
176
     1
  1
strokes_ogs.tif
176
     1
290
     0
176
     1
 40
1.0
176
     1
 40
1.0
176
     1
  0
VISUALSTYLE
  5
F7E7
102
{ACAD_REACTORS
330
F674
102
}
330
F674
100
AcDbVisualStyle
  2
Sketchy
 70
    24
177
     3
291
     0
 70
    58
 90
        1
176
     1
 90
        2
176
     1
 90
        2
176
     1
 90
        0
176
     1
 40
0.6
176
     1
 40
30.0
176
     1
 62
     7
420
 16777215
176
     1
 90
        2
176
     1
 90
        2
176
     1
 62
     7
176
     1
 62
     7
176
     1
 90
        1
176
     1
 90
        1
176
     1
 40
40.0
176
     1
 90
       11
176
     1
 62
     7
176
     1
 40
1.0
176
     1
 90
        1
176
     1
 90
        6
176
     1
 90
        2
176
     1
 62
     7
176
     1
 90
        6
176
     1
 90
        0
176
     1
 90
        0
176
     1
290
     0
176
     1
 90
        1
176
     1
 40
0.0
176
     1
 90
        0
176
     1
290
     0
176
     1
290
     1
176
     1
290
     1
176
     1
290
     0
176
     1
290
     0
176
     1
290
     0
176
     1
290
     0
176
     1
290
     0
176
     1
290
     0
176
     1
 90
       50
176
     1
 40
0.0
176
     1
 40
1.0
176
     1
 90
        0
176
     1
 62
    18
420
        0
176
     1
 90
       50
176
     1
 90
        3
176
     1
 62
     5
420
      255
176
     1
290
     0
176
     1
 90
       50
176
     1
 90
       50
176
     1
 90
       50
176
     1
290
     0
176
     1
 90
       50
176
     1
 62
   256
176
     0
 40
1.0
176
     0
 90
        2
176
     1
  1
strokes_ogs.tif
176
     1
290
     0
176
     1
 40
1.0
176
     1
 40
1.0
176
     1
  0
VISUALSTYLE
  5
F681
102
{ACAD_REACTORS
330
F674
102
}
330
F674
100
AcDbVisualStyle
  2
Thicken
 70
    13
177
     3
291
     1
 70
    58
 90
        2
176
     1
 90
        2
176
     1
 90
        0
176
     1
 90
        0
176
     1
 40
0.6
176
     1
 40
30.0
176
     1
 62
     7
420
 16777215
176
     1
 90
        1
176
     1
 90
        4
176
     1
 62
     7
176
     1
 62
   257
176
     1
 90
        1
176
     1
 90
        1
176
     1
 40
1.0
176
     1
 90
       12
176
     1
 62
     7
176
     1
 40
1.0
176
     1
 90
        1
176
     1
 90
        6
176
     1
 90
        2
176
     1
 62
     7
176
     1
 90
        5
176
     1
 90
        0
176
     1
 90
        0
176
     1
290
     0
176
     1
 90
        1
176
     1
 40
0.0
176
     1
 90
        0
176
     1
290
     0
176
     1
290
     1
176
     1
290
     1
176
     1
290
     0
176
     1
290
     0
176
     1
290
     0
176
     1
290
     0
176
     1
290
     0
176
     1
290
     0
176
     1
 90
       50
176
     1
 40
0.0
176
     1
 40
1.0
176
     1
 90
        0
176
     1
 62
    18
420
        0
176
     1
 90
       50
176
     1
 90
        3
176
     1
 62
     5
420
      255
176
     1
290
     0
176
     1
 90
       50
176
     1
 90
       50
176
     1
 90
       50
176
     1
290
     0
176
     1
 90
       50
176
     1
 62
   256
176
     0
 40
1.0
176
     0
 90
        2
176
     1
  1
strokes_ogs.tif
176
     1
290
     0
176
     1
 40
1.0
176
     1
 40
1.0
176
     1
  0
VISUALSTYLE
  5
F7E4
102
{ACAD_REACTORS
330
F674
102
}
330
F674
100
AcDbVisualStyle
  2
Wireframe
 70
     5
177
     3
291
     0
 70
    58
 90
        0
176
     1
 90
        2
176
     1
 90
        0
176
     1
 90
        0
176
     1
 40
0.6
176
     1
 40
30.0
176
     1
 62
     7
420
 16777215
176
     1
 90
        1
176
     1
 90
        4
176
     1
 62
     7
176
     1
 62
   257
176
     1
 90
        1
176
     1
 90
        1
176
     1
 40
1.0
176
     1
 90
        0
176
     1
 62
   257
176
     1
 40
1.0
176
     1
 90
        1
176
     1
 90
        6
176
     1
 90
        2
176
     1
 62
     7
176
     1
 90
        3
176
     1
 90
        0
176
     1
 90
        0
176
     1
290
     0
176
     1
 90
        1
176
     1
 40
0.0
176
     1
 90
        0
176
     1
290
     0
176
     1
290
     1
176
     1
290
     1
176
     1
290
     0
176
     1
290
     0
176
     1
290
     0
176
     1
290
     0
176
     1
290
     0
176
     1
290
     0
176
     1
 90
       50
176
     1
 40
0.0
176
     1
 40
1.0
176
     1
 90
        0
176
     1
 62
    18
420
        0
176
     1
 90
       50
176
     1
 90
        3
176
     1
 62
     5
420
      255
176
     1
290
     0
176
     1
 90
       50
176
     1
 90
       50
176
     1
 90
       50
176
     1
290
     0
176
     1
 90
       50
176
     1
 62
   256
176
     0
 40
1.0
176
     0
 90
        2
176
     1
  1
strokes_ogs.tif
176
     1
290
     0
176
     1
 40
1.0
176
     1
 40
1.0
176
     1
  0
VISUALSTYLE
  5
F7E8
102
{ACAD_REACTORS
330
F674
102
}
330
F674
100
AcDbVisualStyle
  2
X-Ray
 70
    25
177
     3
291
     0
 70
    58
 90
        2
176
     1
 90
        2
176
     1
 90
        1
176
     1
 90
        1
176
     1
 40
0.5
176
     1
 40
30.0
176
     1
 62
     7
420
 16777215
176
     1
 90
        1
176
     1
 90
        0
176
     1
 62
     7
176
     1
 62
   257
176
     1
 90
        1
176
     1
 90
        1
176
     1
 40
1.0
176
     1
 90
        8
176
     1
 62
     7
176
     1
 40
1.0
176
     1
 90
        1
176
     1
 90
        6
176
     1
 90
        2
176
     1
 62
     7
176
     1
 90
        3
176
     1
 90
        0
176
     1
 90
        0
176
     1
290
     0
176
     1
 90
       13
176
     1
 40
0.0
176
     1
 90
        0
176
     1
290
     0
176
     1
290
     1
176
     1
290
     1
176
     1
290
     0
176
     1
290
     0
176
     1
290
     0
176
     1
290
     0
176
     1
290
     0
176
     1
290
     0
176
     1
 90
       50
176
     1
 40
0.0
176
     1
 40
1.0
176
     1
 90
        0
176
     1
 62
    18
420
        0
176
     1
 90
       50
176
     1
 90
        3
176
     1
 62
     5
420
      255
176
     1
290
     0
176
     1
 90
       50
176
     1
 90
       50
176
     1
 90
       50
176
     1
290
     0
176
     1
 90
       50
176
     1
 62
   256
176
     0
 40
1.0
176
     0
 90
        2
176
     1
  1
strokes_ogs.tif
176
     1
290
     0
176
     1
 40
1.0
176
     1
 40
1.0
176
     1
  0
DICTIONARYVAR
  5
F6E5
102
{ACAD_REACTORS
330
2C7C
102
}
330
2C7C
100
DictionaryVariables
280
     0
  1
1:1
  0
DICTIONARYVAR
  5
F6E3
102
{ACAD_REACTORS
330
2C7C
102
}
330
2C7C
100
DictionaryVariables
280
     0
  1
STANDARD
  0
DICTIONARYVAR
  5
CCD1
102
{ACAD_REACTORS
330
2C7C
102
}
330
2C7C
100
DictionaryVariables
280
     0
  1
STANDARD
  0
DICTIONARYVAR
  5
F80A
102
{ACAD_REACTORS
330
2C7C
102
}
330
2C7C
100
DictionaryVariables
280
     0
  1
Imperial24
  0
DICTIONARYVAR
  5
F80B
102
{ACAD_REACTORS
330
2C7C
102
}
330
2C7C
100
DictionaryVariables
280
     0
  1
Imperial24
  0
DICTIONARYVAR
  5
CCC6
102
{ACAD_REACTORS
330
2C7C
102
}
330
2C7C
100
DictionaryVariables
280
     0
  1
1
  0
DICTIONARYVAR
  5
F80C
102
{ACAD_REACTORS
330
2C7C
102
}
330
2C7C
100
DictionaryVariables
280
     0
  1
1
  0
DICTIONARYVAR
  5
F80D
102
{ACAD_REACTORS
330
2C7C
102
}
330
2C7C
100
DictionaryVariables
280
     0
  1
15
  0
DICTIONARYVAR
  5
F6E6
102
{ACAD_REACTORS
330
2C7C
102
}
330
2C7C
100
DictionaryVariables
280
     0
  1
0
  0
DICTIONARYVAR
  5
F6E4
102
{ACAD_REACTORS
330
2C7C
102
}
330
2C7C
100
DictionaryVariables
280
     0
  1
0
  0
DICTIONARYVAR
  5
2C7D
102
{ACAD_REACTORS
330
2C7C
102
}
330
2C7C
100
DictionaryVariables
280
     0
  1
96
  0
DICTIONARY
  5
F811
330
F7EE
100
AcDbDictionary
280
     1
281
     1
  3
ACAD_XREC_ROUNDTRIP
360
F812
  0
DICTIONARY
  5
CD03
330
5C22
100
AcDbDictionary
280
     1
281
     1
  0
DICTIONARY
  5
F665
330
F664
100
AcDbDictionary
280
     1
281
     1
  3
BUMPTILE
360
F667
  3
DIFFUSETILE
360
F666
  3
OPACITYTILE
360
F66A
  3
REFLECTIONTILE
360
F669
  3
REFRACTIONTILE
360
F66B
  3
SPECULARTILE
360
F668
  0
DICTIONARY
  5
F65D
330
F65C
100
AcDbDictionary
280
     1
281
     1
  3
BUMPTILE
360
F65F
  3
DIFFUSETILE
360
F65E
  3
OPACITYTILE
360
F662
  3
REFLECTIONTILE
360
F661
  3
REFRACTIONTILE
360
F663
  3
SPECULARTILE
360
F660
  0
DICTIONARY
  5
F66D
330
F66C
100
AcDbDictionary
280
     1
281
     1
  3
BUMPTILE
360
F66F
  3
DIFFUSETILE
360
F66E
  3
OPACITYTILE
360
F672
  3
REFLECTIONTILE
360
F671
  3
REFRACTIONTILE
360
F673
  3
SPECULARTILE
360
F670
  0
DICTIONARY
  5
F80F
330
F7EC
100
AcDbDictionary
280
     1
281
     1
  3
ACAD_XREC_ROUNDTRIP
360
F810
  0
DICTIONARY
  5
F6E0
330
CCCC
100
AcDbDictionary
280
     1
281
     1
  3
ACAD_ROUNDTRIP_2008_TABLESTYLE_CELLSTYLEMAP
360
F80E
  0
XRECORD
  5
F812
102
{ACAD_REACTORS
330
F811
102
}
330
F811
100
AcDbXrecord
280
     1
102
DISPLAYNAME
  1
Imperial24
102
FLAGS
 90
        0
  0
XRECORD
  5
F667
102
{ACAD_REACTORS
330
F665
102
}
330
F665
100
AcDbXrecord
280
     1
270
     1
271
     1
  0
XRECORD
  5
F666
102
{ACAD_REACTORS
330
F665
102
}
330
F665
100
AcDbXrecord
280
     1
270
     1
271
     1
  0
XRECORD
  5
F66A
102
{ACAD_REACTORS
330
F665
102
}
330
F665
100
AcDbXrecord
280
     1
270
     1
271
     1
  0
XRECORD
  5
F669
102
{ACAD_REACTORS
330
F665
102
}
330
F665
100
AcDbXrecord
280
     1
270
     1
271
     1
  0
XRECORD
  5
F66B
102
{ACAD_REACTORS
330
F665
102
}
330
F665
100
AcDbXrecord
280
     1
270
     1
271
     1
  0
XRECORD
  5
F668
102
{ACAD_REACTORS
330
F665
102
}
330
F665
100
AcDbXrecord
280
     1
270
     1
271
     1
  0
XRECORD
  5
F65F
102
{ACAD_REACTORS
330
F65D
102
}
330
F65D
100
AcDbXrecord
280
     1
270
     1
271
     1
  0
XRECORD
  5
F65E
102
{ACAD_REACTORS
330
F65D
102
}
330
F65D
100
AcDbXrecord
280
     1
270
     1
271
     1
  0
XRECORD
  5
F662
102
{ACAD_REACTORS
330
F65D
102
}
330
F65D
100
AcDbXrecord
280
     1
270
     1
271
     1
  0
XRECORD
  5
F661
102
{ACAD_REACTORS
330
F65D
102
}
330
F65D
100
AcDbXrecord
280
     1
270
     1
271
     1
  0
XRECORD
  5
F663
102
{ACAD_REACTORS
330
F65D
102
}
330
F65D
100
AcDbXrecord
280
     1
270
     1
271
     1
  0
XRECORD
  5
F660
102
{ACAD_REACTORS
330
F65D
102
}
330
F65D
100
AcDbXrecord
280
     1
270
     1
271
     1
  0
XRECORD
  5
F66F
102
{ACAD_REACTORS
330
F66D
102
}
330
F66D
100
AcDbXrecord
280
     1
270
     1
271
     1
  0
XRECORD
  5
F66E
102
{ACAD_REACTORS
330
F66D
102
}
330
F66D
100
AcDbXrecord
280
     1
270
     1
271
     1
  0
XRECORD
  5
F672
102
{ACAD_REACTORS
330
F66D
102
}
330
F66D
100
AcDbXrecord
280
     1
270
     1
271
     1
  0
XRECORD
  5
F671
102
{ACAD_REACTORS
330
F66D
102
}
330
F66D
100
AcDbXrecord
280
     1
270
     1
271
     1
  0
XRECORD
  5
F673
102
{ACAD_REACTORS
330
F66D
102
}
330
F66D
100
AcDbXrecord
280
     1
270
     1
271
     1
  0
XRECORD
  5
F670
102
{ACAD_REACTORS
330
F66D
102
}
330
F66D
100
AcDbXrecord
280
     1
270
     1
271
     1
  0
XRECORD
  5
F810
102
{ACAD_REACTORS
330
F80F
102
}
330
F80F
100
AcDbXrecord
280
     1
102
DISPLAYNAME
  1
Imperial24
102
FLAGS
 90
        0
  0
CELLSTYLEMAP
  5
F80E
102
{ACAD_REACTORS
330
F6E0
102
}
330
F6E0
100
AcDbCellStyleMap
 90
        3
300
CELLSTYLE
  1
TABLEFORMAT_BEGIN
 90
        5
170
     1
 91
        0
 92
    32768
 62
   257
 93
        1
300
CONTENTFORMAT
  1
CONTENTFORMAT_BEGIN
 90
        0
 91
        0
 92
        4
 93
        0
300

 40
0.0
140
1.0
 94
        5
 62
     0
340
F
144
0.25
309
CONTENTFORMAT_END
171
     0
 94
        6
 95
        1
302
GRIDFORMAT
  1
GRIDFORMAT_BEGIN
 90
        0
 91
        1
 62
     0
 92
       -2
340
0
 93
        0
 40
0.045
309
GRIDFORMAT_END
 95
        2
302
GRIDFORMAT
  1
GRIDFORMAT_BEGIN
 90
        0
 91
        1
 62
     0
 92
       -2
340
0
 93
        0
 40
0.045
309
GRIDFORMAT_END
 95
        4
302
GRIDFORMAT
  1
GRIDFORMAT_BEGIN
 90
        0
 91
        1
 62
     0
 92
       -2
340
0
 93
        0
 40
0.045
309
GRIDFORMAT_END
 95
        8
302
GRIDFORMAT
  1
GRIDFORMAT_BEGIN
 90
        0
 91
        1
 62
     0
 92
       -2
340
0
 93
        0
 40
0.045
309
GRIDFORMAT_END
 95
       16
302
GRIDFORMAT
  1
GRIDFORMAT_BEGIN
 90
        0
 91
        1
 62
     0
 92
       -2
340
0
 93
        0
 40
0.045
309
GRIDFORMAT_END
 95
       32
302
GRIDFORMAT
  1
GRIDFORMAT_BEGIN
 90
        0
 91
        1
 62
     0
 92
       -2
340
0
 93
        0
 40
0.045
309
GRIDFORMAT_END
309
TABLEFORMAT_END
  1
CELLSTYLE_BEGIN
 90
        1
 91
        1
300
_TITLE
309
CELLSTYLE_END
300
CELLSTYLE
  1
TABLEFORMAT_BEGIN
 90
        5
170
     1
 91
        0
 92
        0
 62
   257
 93
        1
300
CONTENTFORMAT
  1
CONTENTFORMAT_BEGIN
 90
        0
 91
        0
 92
        4
 93
        0
300

 40
0.0
140
1.0
 94
        5
 62
     0
340
F
144
0.18
309
CONTENTFORMAT_END
171
     0
 94
        6
 95
        1
302
GRIDFORMAT
  1
GRIDFORMAT_BEGIN
 90
        0
 91
        1
 62
     0
 92
       -2
340
0
 93
        0
 40
0.045
309
GRIDFORMAT_END
 95
        2
302
GRIDFORMAT
  1
GRIDFORMAT_BEGIN
 90
        0
 91
        1
 62
     0
 92
       -2
340
0
 93
        0
 40
0.045
309
GRIDFORMAT_END
 95
        4
302
GRIDFORMAT
  1
GRIDFORMAT_BEGIN
 90
        0
 91
        1
 62
     0
 92
       -2
340
0
 93
        0
 40
0.045
309
GRIDFORMAT_END
 95
        8
302
GRIDFORMAT
  1
GRIDFORMAT_BEGIN
 90
        0
 91
        1
 62
     0
 92
       -2
340
0
 93
        0
 40
0.045
309
GRIDFORMAT_END
 95
       16
302
GRIDFORMAT
  1
GRIDFORMAT_BEGIN
 90
        0
 91
        1
 62
     0
 92
       -2
340
0
 93
        0
 40
0.045
309
GRIDFORMAT_END
 95
       32
302
GRIDFORMAT
  1
GRIDFORMAT_BEGIN
 90
        0
 91
        1
 62
     0
 92
       -2
340
0
 93
        0
 40
0.045
309
GRIDFORMAT_END
309
TABLEFORMAT_END
  1
CELLSTYLE_BEGIN
 90
        2
 91
        1
300
_HEADER
309
CELLSTYLE_END
300
CELLSTYLE
  1
TABLEFORMAT_BEGIN
 90
        5
170
     1
 91
        0
 92
        0
 62
   257
 93
        1
300
CONTENTFORMAT
  1
CONTENTFORMAT_BEGIN
 90
        0
 91
        0
 92
        4
 93
        0
300

 40
0.0
140
1.0
 94
        2
 62
     0
340
F
144
0.18
309
CONTENTFORMAT_END
171
     0
 94
        6
 95
        1
302
GRIDFORMAT
  1
GRIDFORMAT_BEGIN
 90
        0
 91
        1
 62
     0
 92
       -2
340
0
 93
        0
 40
0.045
309
GRIDFORMAT_END
 95
        2
302
GRIDFORMAT
  1
GRIDFORMAT_BEGIN
 90
        0
 91
        1
 62
     0
 92
       -2
340
0
 93
        0
 40
0.045
309
GRIDFORMAT_END
 95
        4
302
GRIDFORMAT
  1
GRIDFORMAT_BEGIN
 90
        0
 91
        1
 62
     0
 92
       -2
340
0
 93
        0
 40
0.045
309
GRIDFORMAT_END
 95
        8
302
GRIDFORMAT
  1
GRIDFORMAT_BEGIN
 90
        0
 91
        1
 62
     0
 92
       -2
340
0
 93
        0
 40
0.045
309
GRIDFORMAT_END
 95
       16
302
GRIDFORMAT
  1
GRIDFORMAT_BEGIN
 90
        0
 91
        1
 62
     0
 92
       -2
340
0
 93
        0
 40
0.045
309
GRIDFORMAT_END
 95
       32
302
GRIDFORMAT
  1
GRIDFORMAT_BEGIN
 90
        0
 91
        1
 62
     0
 92
       -2
340
0
 93
        0
 40
0.045
309
GRIDFORMAT_END
309
TABLEFORMAT_END
  1
CELLSTYLE_BEGIN
 90
        3
 91
        2
300
_DATA
309
CELLSTYLE_END
  0
ENDSEC
  0
SECTION
  2
ACDSDATA
 70
     2
 71
     8
  0
ACDSSCHEMA
 90
        0
  1
AcDb_Thumbnail_Schema
  2
AcDbDs::ID
280
    10
 91
        8
  2
Thumbnail_Data
280
    15
 91
        0
101
ACDSRECORD
 95
        0
 90
        1
  2
AcDbDs::TreatedAsObjectData
280
     1
291
     1
101
ACDSRECORD
 95
        0
 90
        2
  2
AcDbDs::Legacy
280
     1
291
     1
101
ACDSRECORD
  1
AcDbDs::ID
 90
        3
  2
AcDs:Indexable
280
     1
291
     1
101
ACDSRECORD
  1
AcDbDs::ID
 90
        4
  2
AcDbDs::HandleAttribute
280
     7
282
     1
  0
ACDSSCHEMA
 90
        1
  1
AcDbDs::TreatedAsObjectDataSchema
  2
AcDbDs::TreatedAsObjectData
280
     1
 91
        0
  0
ACDSSCHEMA
 90
        2
  1
AcDbDs::LegacySchema
  2
AcDbDs::Legacy
280
     1
 91
        0
  0
ACDSSCHEMA
 90
        3
  1
AcDbDs::IndexedPropertySchema
  2
AcDs:Indexable
280
     1
 91
        0
  0
ACDSSCHEMA
 90
        4
  1
AcDbDs::HandleAttributeSchema
  2
AcDbDs::HandleAttribute
280
     7
 91
        1
284
     1
  0
ACDSRECORD
 90
        0
  2
AcDbDs::ID
280
    10
320
5C22
  2
Thumbnail_Data
280
    15
 94
     2184
310
89504E470D0A1A0A0000000D4948445200000100000000B5080300000087DCD12600000300504C5445FFFFFF000000C8C8C80000000000000000000000000000000000000000000000000000330000660000990000CC0000FF0033000033330033660033990033CC0033FF0066000066330066660066990066CC0066FF0099
310
000099330099660099990099CC0099FF00CC0000CC3300CC6600CC9900CCCC00CCFF00FF0000FF3300FF6600FF9900FFCC00FFFF3300003300333300663300993300CC3300FF3333003333333333663333993333CC3333FF3366003366333366663366993366CC3366FF3399003399333399663399993399CC3399FF33CC00
310
33CC3333CC6633CC9933CCCC33CCFF33FF0033FF3333FF6633FF9933FFCC33FFFF6600006600336600666600996600CC6600FF6633006633336633666633996633CC6633FF6666006666336666666666996666CC6666FF6699006699336699666699996699CC6699FF66CC0066CC3366CC6666CC9966CCCC66CCFF66FF0066
310
FF3366FF6666FF9966FFCC66FFFF9900009900339900669900999900CC9900FF9933009933339933669933999933CC9933FF9966009966339966669966999966CC9966FF9999009999339999669999999999CC9999FF99CC0099CC3399CC6699CC9999CCCC99CCFF99FF0099FF3399FF6699FF9999FFCC99FFFFCC0000CC00
310
33CC0066CC0099CC00CCCC00FFCC3300CC3333CC3366CC3399CC33CCCC33FFCC6600CC6633CC6666CC6699CC66CCCC66FFCC9900CC9933CC9966CC9999CC99CCCC99FFCCCC00CCCC33CCCC66CCCC99CCCCCCCCCCFFCCFF00CCFF33CCFF66CCFF99CCFFCCCCFFFFFF0000FF0033FF0066FF0099FF00CCFF00FFFF3300FF3333
310
FF3366FF3399FF33CCFF33FFFF6600FF6633FF6666FF6699FF66CCFF66FFFF9900FF9933FF9966FF9999FF99CCFF99FFFFCC00FFCC33FFCC66FFCC99FFCCCCFFCCFFFFFF00FFFF33FFFF66FFFF99FFFFCCFFFFFF0000000D0D0D1A1A1A2828283535354343435050505D5D5D6B6B6B787878868686939393A1A1A1AEAEAEBB
310
BBBBC9C9C9D6D6D6E4E4E4F1F1F1FFFFFF000000000000000000000000000000000000000000000000000000000000B0E2D235000005434944415478DAEDDD4D92AB201000E03E8E9BBEFFAE4FC2CAE5540E3189A0828242ABC84F53F5E665127B229F0D2846039FBFBE0B7CA0F3220002200002F02DE3B774F6B3F70C18F7
310
19D059D900B83A239CFC3E7A350BDDD6A3BBEA7AED13015CBB2DE55874F547B37EEB761F4F9AC0BEC27004C205082566D2F373BF167A31F0440A80FBEA76E90B4D20D830C30DD67DF550D2D281ED5A4634810D40A007BDD607DC0610D907F8EBE407385AD508A032073C1906E387C13A7769E2DB189C358106008E377B6F00
310
D061068496A37E01F4625D03A8DE00D094612E8AA8C70C58EBFF4D8045A033009D05447D0158F9BF7480DD35015D7FEA03C0777C38D51F1B07383840263703E6DDC24601D4A837B1C198BA3C370362E7032A6D02644A1080089A06504E4A983EE0D70B00B9BBC18C3E805E294C0067281C6E02E06E9EE86AF0DFD43ADAF58D
310
02F02EC095C205D08F7512FDF60111AE8F02CF27F21580B909903D0AD86F7E7D14207E96E703D88F02E06C842BA3003D9EC87764806714703300FA0008FDA5973AC112000EA25A02802700E65E04D9851FCA03B0A7C2F7E707D201ECFF58D550ACBA278CA4FE13973703A0F533B12846CCE6EDE201EE3F37680360BE0CC004
310
0078B60F5801309960CD80E440B4F3BF0C80EF6A21279115A3F1204C08BA17AE17402FAF389D07AE005031C0B41D15607AE7D90A006800100001681CE0F6B992EA000E3280186155012C073C8900476135014C35A0F94134C054C360584500BF67F5A6F45625047012E6005C99577D1CC03C49CBEE6B1CC059583D19605693
310
CC0E7C34801B866180C20F86E6E7C8AA55048013E687AB2403E6A7823509006CC3B00D00D80F6A31005EB82A00D45282FB773E002B6C7D5827C0B2C5D5B2DACA5D5D2FC0F297D492019502805B93DF6F3100FBB0B201D49B00AA70005CA7BDF43018076087CD6E5502CC63BF5A3A73E5EEB9FA01B6613503A099F7B31E9D67
310
8037AC4E005303B51CD4C401F8C24200AFEE0A4FA3FA34CA2B5F59D6552DFB40FB652918866B98F7CFDFF0299B7B86413A9E1132A7BF92E7040FC20ADB0FA0D32931C59B1455954C890940EFD3E202200002200002200002200002200002901DA088738392012F03BC3D23F4CB42C900011000011000011000011080CE0130
310
1300160A009CCBA61800E6DD4A0448AB0C9A8F8124660E029475D99C0390E3C2C9EF5B1675E124CD1B25E3A5B348055D3A4BCBB5C39C77E25C3C0D082502147AF97C4600C89601345D29020F9624007A0500904A00B87C0F0DE205D13418D0636990EF6E72C4CE0000E81EE0FD26700300EFA2DA8600B286D59501272F369F
310
0187B56C07A0D02200022000022000022000022000021003A0D4749BFE8C65F7AD30EF02E0FA552D998AFE6284070F8A129B009AAFEB616D485E9873A39502FA00FCDDA89EB7217961EE7D460AE804915713FD8F0180D0370042690090170004A019008C0973EF27542C40F2276434C0901E5624003000A021004CCF005D8F
310
8600866C0050200008402E804100B04C00C806002502200CD9019E9B11E164000E7D67008000F06A820D01247EEC5B2F9FDA74B019005391760052DBC0BCB800A40240DF00433CC0C82F0D01749F0109B9701DC05F157506C00A8B01486C0C370098335D8735594F8AD971E961E5011881B56C2E8BD9BE7C31AC40804055D4
310
5945DC98394E9DD73F1AE004E2A64E708FB13DA7CB8CE37E68FA5D80D3DEECA13001786F47A8B83232149EC800011000017811C0ED0EC3DDE483A38000BC0620C3A0F9927998BE707E163134EBEBB0CB813E33A0DD3E60DCD562F3CC6883B505A0337C0F609A40E8A0610BD05FD90374F6D305E8B70880000840E7007F7D17
310
F8745EFE013C83B4C9EE3BD4340000000049454E44AE426082
  0
ENDSEC
  0
EOF
