  0
SECTION
  2
HEADER
  9
$ACADVER
  1
AC1032
  9
$ACADMAINTVER
 90
      174
  9
$DWGCODEPAGE
  3
ANSI_1252
  9
$LASTSAVEDBY
  1
pengb
  9
$REQUIREDVERSIONS
160
                 0
  9
$INSBASE
 10
0.0
 20
0.0
 30
0.0
  9
$EXTMIN
 10
46.2070906002
 20
52.37442970029999
 30
0.0
  9
$EXTMAX
 10
668.381879987076
 20
256.9492196897732
 30
0.0
  9
$LIMMIN
 10
0.0
 20
0.0
  9
$LIMMAX
 10
420.0
 20
297.0
  9
$ORTHOMODE
 70
     0
  9
$REGENMODE
 70
     1
  9
$FILLMODE
 70
     1
  9
$QTEXTMODE
 70
     0
  9
$MIRRTEXT
 70
     1
  9
$LTSCALE
 40
1.0
  9
$ATTMODE
 70
     1
  9
$TEXTSIZE
 40
3.5
  9
$TRACEWID
 40
1.0
  9
$TEXTSTYLE
  7
Standard
  9
$CLAYER
  8
0
  9
$CELTYPE
  6
ByLayer
  9
$CECOLOR
 62
   256
  9
$CELTSCALE
 40
1.0
  9
$DISPSILH
 70
     0
  9
$DIMSCALE
 40
1.0
  9
$DIMASZ
 40
3.302
  9
$DIMEXO
 40
1.0
  9
$DIMDLI
 40
3.75
  9
$DIMRND
 40
0.0
  9
$DIMDLE
 40
0.0
  9
$DIMEXE
 40
1.0
  9
$DIMTP
 40
0.0
  9
$DIMTM
 40
0.0
  9
$DIMTXT
 40
3.5
  9
$DIMCEN
 40
2.5
  9
$DIMTSZ
 40
0.0
  9
$DIMTOL
 70
     0
  9
$DIMLIM
 70
     0
  9
$DIMTIH
 70
     1
  9
$DIMTOH
 70
     1
  9
$DIMSE1
 70
     0
  9
$DIMSE2
 70
     0
  9
$DIMTAD
 70
     1
  9
$DIMZIN
 70
     1
  9
$DIMBLK
  1

  9
$DIMASO
 70
     1
  9
$DIMSHO
 70
     1
  9
$DIMPOST
  1

  9
$DIMAPOST
  1

  9
$DIMALT
 70
     0
  9
$DIMALTD
 70
     3
  9
$DIMALTF
 40
0.0393700787
  9
$DIMLFAC
 40
1.0
  9
$DIMTOFL
 70
     1
  9
$DIMTVP
 40
0.0
  9
$DIMTIX
 70
     0
  9
$DIMSOXD
 70
     0
  9
$DIMSAH
 70
     0
  9
$DIMBLK1
  1

  9
$DIMBLK2
  1

  9
$DIMSTYLE
  2
ISO-25
  9
$DIMCLRD
 70
     0
  9
$DIMCLRE
 70
     0
  9
$DIMCLRT
 70
     0
  9
$DIMTFAC
 40
1.0
  9
$DIMGAP
 40
1.524
  9
$DIMJUST
 70
     0
  9
$DIMSD1
 70
     0
  9
$DIMSD2
 70
     0
  9
$DIMTOLJ
 70
     0
  9
$DIMTZIN
 70
     1
  9
$DIMALTZ
 70
     0
  9
$DIMALTTZ
 70
     0
  9
$DIMUPT
 70
     0
  9
$DIMDEC
 70
     2
  9
$DIMTDEC
 70
     2
  9
$DIMALTU
 70
     2
  9
$DIMALTTD
 70
     3
  9
$DIMTXSTY
  7
Standard
  9
$DIMAUNIT
 70
     0
  9
$DIMADEC
 70
     2
  9
$DIMALTRND
 40
0.0
  9
$DIMAZIN
 70
     0
  9
$DIMDSEP
 70
    44
  9
$DIMATFIT
 70
     3
  9
$DIMFRAC
 70
     0
  9
$DIMLDRBLK
  1

  9
$DIMLUNIT
 70
     2
  9
$DIMLWD
 70
    -2
  9
$DIMLWE
 70
    -2
  9
$DIMTMOVE
 70
     0
  9
$DIMFXL
 40
1.0
  9
$DIMFXLON
 70
     0
  9
$DIMJOGANG
 40
0.7853981633974483
  9
$DIMTFILL
 70
     0
  9
$DIMTFILLCLR
 70
     0
  9
$DIMARCSYM
 70
     0
  9
$DIMLTYPE
  6

  9
$DIMLTEX1
  6

  9
$DIMLTEX2
  6

  9
$DIMTXTDIRECTION
 70
     0
  9
$LUNITS
 70
     2
  9
$LUPREC
 70
     2
  9
$SKETCHINC
 40
1.0
  9
$FILLETRAD
 40
10.0
  9
$AUNITS
 70
     0
  9
$AUPREC
 70
     2
  9
$MENU
  1
.
  9
$ELEVATION
 40
0.0
  9
$PELEVATION
 40
0.0
  9
$THICKNESS
 40
0.0
  9
$LIMCHECK
 70
     0
  9
$CHAMFERA
 40
0.0
  9
$CHAMFERB
 40
0.0
  9
$CHAMFERC
 40
0.0
  9
$CHAMFERD
 40
0.0
  9
$SKPOLY
 70
     0
  9
$TDCREATE
 40
2459982.567141204
  9
$TDUCREATE
 40
2459982.108808449
  9
$TDUPDATE
 40
2460005.706307871
  9
$TDUUPDATE
 40
2460005.247974537
  9
$TDINDWG
 40
0.0025810301
  9
$TDUSRTIMER
 40
0.0025810301
  9
$USRTIMER
 70
     1
  9
$ANGBASE
 50
0.0
  9
$ANGDIR
 70
     0
  9
$PDMODE
 70
     0
  9
$PDSIZE
 40
-1.0
  9
$PLINEWID
 40
0.0
  9
$SPLFRAME
 70
     0
  9
$SPLINETYPE
 70
     6
  9
$SPLINESEGS
 70
     8
  9
$HANDSEED
  5
31E
  9
$SURFTAB1
 70
     6
  9
$SURFTAB2
 70
     6
  9
$SURFTYPE
 70
     6
  9
$SURFU
 70
     6
  9
$SURFV
 70
     6
  9
$UCSBASE
  2

  9
$UCSNAME
  2

  9
$UCSORG
 10
0.0
 20
0.0
 30
0.0
  9
$UCSXDIR
 10
1.0
 20
0.0
 30
0.0
  9
$UCSYDIR
 10
0.0
 20
1.0
 30
0.0
  9
$UCSORTHOREF
  2

  9
$UCSORTHOVIEW
 70
     0
  9
$UCSORGTOP
 10
0.0
 20
0.0
 30
0.0
  9
$UCSORGBOTTOM
 10
0.0
 20
0.0
 30
0.0
  9
$UCSORGLEFT
 10
0.0
 20
0.0
 30
0.0
  9
$UCSORGRIGHT
 10
0.0
 20
0.0
 30
0.0
  9
$UCSORGFRONT
 10
0.0
 20
0.0
 30
0.0
  9
$UCSORGBACK
 10
0.0
 20
0.0
 30
0.0
  9
$PUCSBASE
  2

  9
$PUCSNAME
  2

  9
$PUCSORG
 10
0.0
 20
0.0
 30
0.0
  9
$PUCSXDIR
 10
1.0
 20
0.0
 30
0.0
  9
$PUCSYDIR
 10
0.0
 20
1.0
 30
0.0
  9
$PUCSORTHOREF
  2

  9
$PUCSORTHOVIEW
 70
     0
  9
$PUCSORGTOP
 10
0.0
 20
0.0
 30
0.0
  9
$PUCSORGBOTTOM
 10
0.0
 20
0.0
 30
0.0
  9
$PUCSORGLEFT
 10
0.0
 20
0.0
 30
0.0
  9
$PUCSORGRIGHT
 10
0.0
 20
0.0
 30
0.0
  9
$PUCSORGFRONT
 10
0.0
 20
0.0
 30
0.0
  9
$PUCSORGBACK
 10
0.0
 20
0.0
 30
0.0
  9
$USERI1
 70
     0
  9
$USERI2
 70
     0
  9
$USERI3
 70
     0
  9
$USERI4
 70
     0
  9
$USERI5
 70
     0
  9
$USERR1
 40
0.0
  9
$USERR2
 40
0.0
  9
$USERR3
 40
0.0
  9
$USERR4
 40
0.0
  9
$USERR5
 40
0.0
  9
$WORLDVIEW
 70
     1
  9
$SHADEDGE
 70
     3
  9
$SHADEDIF
 70
    70
  9
$TILEMODE
 70
     1
  9
$MAXACTVP
 70
    64
  9
$PINSBASE
 10
0.0
 20
0.0
 30
0.0
  9
$PLIMCHECK
 70
     0
  9
$PEXTMIN
 10
1.000000000000000E+20
 20
1.000000000000000E+20
 30
1.000000000000000E+20
  9
$PEXTMAX
 10
-1.000000000000000E+20
 20
-1.000000000000000E+20
 30
-1.000000000000000E+20
  9
$PLIMMIN
 10
0.0
 20
0.0
  9
$PLIMMAX
 10
420.0
 20
297.0
  9
$UNITMODE
 70
     0
  9
$VISRETAIN
 70
     1
  9
$PLINEGEN
 70
     0
  9
$PSLTSCALE
 70
     1
  9
$TREEDEPTH
 70
  3020
  9
$CMLSTYLE
  2
Standard
  9
$CMLJUST
 70
     0
  9
$CMLSCALE
 40
20.0
  9
$PROXYGRAPHICS
 70
     1
  9
$MEASUREMENT
 70
     1
  9
$CELWEIGHT
370
    -1
  9
$ENDCAPS
280
     0
  9
$JOINSTYLE
280
     0
  9
$LWDISPLAY
290
     1
  9
$INSUNITS
 70
     4
  9
$HYPERLINKBASE
  1

  9
$STYLESHEET
  1

  9
$XEDIT
290
     1
  9
$CEPSNTYPE
380
     0
  9
$PSTYLEMODE
290
     1
  9
$FINGERPRINTGUID
  2
{251DAB95-238A-411E-BB2F-B57C9FF2E513}
  9
$VERSIONGUID
  2
{D63BBFE6-9012-264C-A8F4-CD7646000441}
  9
$EXTNAMES
290
     1
  9
$PSVPSCALE
 40
0.0
  9
$OLESTARTUP
290
     0
  9
$SORTENTS
280
   127
  9
$INDEXCTL
280
     0
  9
$HIDETEXT
280
     0
  9
$XCLIPFRAME
280
     2
  9
$HALOGAP
280
     0
  9
$OBSCOLOR
 70
   257
  9
$OBSLTYPE
280
     0
  9
$INTERSECTIONDISPLAY
280
     0
  9
$INTERSECTIONCOLOR
 70
   257
  9
$DIMASSOC
280
     1
  9
$PROJECTNAME
  1

  9
$CAMERADISPLAY
290
     0
  9
$LENSLENGTH
 40
50.0
  9
$CAMERAHEIGHT
 40
0.0
  9
$STEPSPERSEC
 40
2.0
  9
$STEPSIZE
 40
6.0
  9
$3DDWFPREC
 40
2.0
  9
$PSOLWIDTH
 40
0.25
  9
$PSOLHEIGHT
 40
4.0
  9
$LOFTANG1
 40
1.570796326794896
  9
$LOFTANG2
 40
1.570796326794896
  9
$LOFTMAG1
 40
0.0
  9
$LOFTMAG2
 40
0.0
  9
$LOFTPARAM
 70
     7
  9
$LOFTNORMALS
280
     1
  9
$LATITUDE
 40
37.795
  9
$LONGITUDE
 40
-122.394
  9
$NORTHDIRECTION
 40
0.0
  9
$TIMEZONE
 70
 -8000
  9
$LIGHTGLYPHDISPLAY
280
     1
  9
$TILEMODELIGHTSYNCH
280
     1
  9
$CMATERIAL
347
160
  9
$SOLIDHIST
280
     0
  9
$SHOWHIST
280
     1
  9
$DWFFRAME
280
     2
  9
$DGNFRAME
280
     0
  9
$REALWORLDSCALE
290
     1
  9
$INTERFERECOLOR
 62
     1
  9
$INTERFEREOBJVS
345
182
  9
$INTERFEREVPVS
346
17F
  9
$CSHADOW
280
     0
  9
$SHADOWPLANELOCATION
 40
0.0
  0
ENDSEC
  0
SECTION
  2
CLASSES
  0
CLASS
  1
ACDBDICTIONARYWDFLT
  2
AcDbDictionaryWithDefault
  3
ObjectDBX Classes
 90
        0
 91
        1
280
     0
281
     0
  0
CLASS
  1
VISUALSTYLE
  2
AcDbVisualStyle
  3
ObjectDBX Classes
 90
     4095
 91
       24
280
     0
281
     0
  0
CLASS
  1
MATERIAL
  2
AcDbMaterial
  3
ObjectDBX Classes
 90
     1153
 91
        3
280
     0
281
     0
  0
CLASS
  1
SCALE
  2
AcDbScale
  3
ObjectDBX Classes
 90
     1153
 91
       33
280
     0
281
     0
  0
CLASS
  1
TABLESTYLE
  2
AcDbTableStyle
  3
ObjectDBX Classes
 90
     4095
 91
        1
280
     0
281
     0
  0
CLASS
  1
MLEADERSTYLE
  2
AcDbMLeaderStyle
  3
ACDB_MLEADERSTYLE_CLASS
 90
     4095
 91
        1
280
     0
281
     0
  0
CLASS
  1
SUN
  2
AcDbSun
  3
SCENEOE
 90
     1153
 91
        0
280
     0
281
     0
  0
CLASS
  1
ACDBSECTIONVIEWSTYLE
  2
AcDbSectionViewStyle
  3
ObjectDBX Classes
 90
     1025
 91
        1
280
     0
281
     0
  0
CLASS
  1
ACDBDETAILVIEWSTYLE
  2
AcDbDetailViewStyle
  3
ObjectDBX Classes
 90
     1025
 91
        1
280
     0
281
     0
  0
CLASS
  1
ACDB_ALDIMOBJECTCONTEXTDATA_CLASS
  2
AcDbAlignedDimensionObjectContextData
  3
ObjectDBX Classes
 90
     1153
 91
       17
280
     0
281
     0
  0
CLASS
  1
DICTIONARYVAR
  2
AcDbDictionaryVar
  3
ObjectDBX Classes
 90
        0
 91
       18
280
     0
281
     0
  0
CLASS
  1
CELLSTYLEMAP
  2
AcDbCellStyleMap
  3
ObjectDBX Classes
 90
     1152
 91
        1
280
     0
281
     0
  0
ENDSEC
  0
SECTION
  2
TABLES
  0
TABLE
  2
VPORT
  5
8
330
0
100
AcDbSymbolTable
 70
     1
  0
VPORT
  5
29
330
8
100
AcDbSymbolTableRecord
100
AcDbViewportTableRecord
  2
*Active
 70
     0
 10
0.0
 20
0.0
 11
1.0
 21
1.0
 12
264.3781880410671
 22
194.2166336115905
 13
0.0
 23
0.0
 14
10.0
 24
10.0
 15
10.0
 25
10.0
 16
0.0
 26
0.0
 36
1.0
 17
0.0
 27
0.0
 37
0.0
 40
297.6392427772326
 41
1.910336239103362
 42
50.0
 43
0.0
 44
0.0
 50
0.0
 51
0.0
 71
     0
 72
  2000
 73
     1
 74
     3
 75
     0
 76
     0
 77
     0
 78
     0
281
     0
 65
     1
110
0.0
120
0.0
130
0.0
111
1.0
121
0.0
131
0.0
112
0.0
122
1.0
132
0.0
 79
     0
146
0.0
348
17E
 60
     3
 61
     5
292
     1
282
     1
141
0.0
142
0.0
 63
   250
421
  3355443
1001
ACAD_NAV_VCDISPLAY
1070
     3
  0
ENDTAB
  0
TABLE
  2
LTYPE
  5
5
330
0
100
AcDbSymbolTable
 70
     6
  0
LTYPE
  5
14
330
5
100
AcDbSymbolTableRecord
100
AcDbLinetypeTableRecord
  2
ByBlock
 70
     0
  3

 72
    65
 73
     0
 40
0.0
  0
LTYPE
  5
15
330
5
100
AcDbSymbolTableRecord
100
AcDbLinetypeTableRecord
  2
ByLayer
 70
     0
  3

 72
    65
 73
     0
 40
0.0
  0
LTYPE
  5
16
330
5
100
AcDbSymbolTableRecord
100
AcDbLinetypeTableRecord
  2
Continuous
 70
     0
  3
Solid line
 72
    65
 73
     0
 40
0.0
  0
LTYPE
  5
6E
330
5
100
AcDbSymbolTableRecord
100
AcDbLinetypeTableRecord
  2
HIDDEN
 70
     0
  3
Hidden __ __ __ __ __ __ __ __ __ __ __ __ __ __
 72
    65
 73
     2
 40
1.905
 49
1.27
 74
     0
 49
-0.635
 74
     0
  0
LTYPE
  5
6F
330
5
100
AcDbSymbolTableRecord
100
AcDbLinetypeTableRecord
  2
PHANTOM
 70
     0
  3
Phantom ______  __  __  ______  __  __  ______
 72
    65
 73
     6
 40
12.7
 49
6.349999999999999
 74
     0
 49
-1.27
 74
     0
 49
1.27
 74
     0
 49
-1.27
 74
     0
 49
1.27
 74
     0
 49
-1.27
 74
     0
  0
LTYPE
  5
70
330
5
100
AcDbSymbolTableRecord
100
AcDbLinetypeTableRecord
  2
CENTER
 70
     0
  3
Center ____ _ ____ _ ____ _ ____ _ ____ _ ____
 72
    65
 73
     4
 40
10.16
 49
6.349999999999999
 74
     0
 49
-1.27
 74
     0
 49
1.27
 74
     0
 49
-1.27
 74
     0
  0
LTYPE
  5
71
330
5
100
AcDbSymbolTableRecord
100
AcDbLinetypeTableRecord
  2
CENTERX2
 70
     0
  3
Center (2x) ________  __  ________  __  _____
 72
    65
 73
     4
 40
20.32
 49
12.7
 74
     0
 49
-2.54
 74
     0
 49
2.54
 74
     0
 49
-2.54
 74
     0
  0
LTYPE
  5
72
330
5
100
AcDbSymbolTableRecord
100
AcDbLinetypeTableRecord
  2
DOT2
 70
     0
  3
Dot (.5x) ........................................
 72
    65
 73
     2
 40
0.635
 49
0.0
 74
     0
 49
-0.635
 74
     0
  0
ENDTAB
  0
TABLE
  2
LAYER
  5
2
102
{ACAD_XDICTIONARY
360
1EA
102
}
330
0
100
AcDbSymbolTable
 70
     4
  0
LAYER
  5
10
102
{ACAD_XDICTIONARY
360
301
102
}
330
2
100
AcDbSymbolTableRecord
100
AcDbLayerTableRecord
  2
0
 70
     0
 62
     7
  6
Continuous
370
    -3
390
F
347
170
348
0
  0
LAYER
  5
73
102
{ACAD_XDICTIONARY
360
303
102
}
330
2
100
AcDbSymbolTableRecord
100
AcDbLayerTableRecord
  2
FORMAT
 70
     0
 62
     7
  6
Continuous
370
    -3
390
F
347
170
348
0
  0
LAYER
  5
19E
330
2
100
AcDbSymbolTableRecord
100
AcDbLayerTableRecord
  2
Defpoints
 70
     0
 62
     7
  6
Continuous
290
     0
370
    -3
390
F
347
170
348
0
  0
LAYER
  5
1E2
102
{ACAD_XDICTIONARY
360
305
102
}
330
2
100
AcDbSymbolTableRecord
100
AcDbLayerTableRecord
  2
DIMENSION
 70
     0
 62
   255
  6
Continuous
370
    -3
390
F
347
170
348
0
  0
ENDTAB
  0
TABLE
  2
STYLE
  5
3
330
0
100
AcDbSymbolTable
 70
     2
  0
STYLE
  5
11
330
3
100
AcDbSymbolTableRecord
100
AcDbTextStyleTableRecord
  2
Standard
 70
     0
 40
0.0
 41
1.0
 50
0.0
 71
     0
 42
3.5
  3
txt
  4

  0
STYLE
  5
96
330
3
100
AcDbSymbolTableRecord
100
AcDbTextStyleTableRecord
  2
SLDTEXTSTYLE0
 70
     0
 40
0.0
 41
0.75
 50
0.0
 71
     0
 42
3.5
  3
TXT
  4

  0
ENDTAB
  0
TABLE
  2
VIEW
  5
6
330
0
100
AcDbSymbolTable
 70
     0
  0
ENDTAB
  0
TABLE
  2
UCS
  5
7
330
0
100
AcDbSymbolTable
 70
     0
  0
ENDTAB
  0
TABLE
  2
APPID
  5
9
330
0
100
AcDbSymbolTable
 70
     7
  0
APPID
  5
12
330
9
100
AcDbSymbolTableRecord
100
AcDbRegAppTableRecord
  2
ACAD
 70
     0
  0
APPID
  5
1E4
330
9
100
AcDbSymbolTableRecord
100
AcDbRegAppTableRecord
  2
ACAD_PSEXT
 70
     0
  0
APPID
  5
1E5
330
9
100
AcDbSymbolTableRecord
100
AcDbRegAppTableRecord
  2
AcadAnnotative
 70
     0
  0
APPID
  5
1E6
330
9
100
AcDbSymbolTableRecord
100
AcDbRegAppTableRecord
  2
ACAD_DSTYLE_DIMJAG
 70
     0
  0
APPID
  5
1E7
330
9
100
AcDbSymbolTableRecord
100
AcDbRegAppTableRecord
  2
ACAD_DSTYLE_DIMTALN
 70
     0
  0
APPID
  5
1E8
330
9
100
AcDbSymbolTableRecord
100
AcDbRegAppTableRecord
  2
ACAD_NAV_VCDISPLAY
 70
     0
  0
APPID
  5
1E9
330
9
100
AcDbSymbolTableRecord
100
AcDbRegAppTableRecord
  2
ACAD_DSTYLE_DIMBREAK
 70
     0
  0
ENDTAB
  0
TABLE
  2
DIMSTYLE
  5
A
330
0
100
AcDbSymbolTable
 70
     3
100
AcDbDimStyleTable
 71
     2
340
1E3
340
27
  0
DIMSTYLE
105
27
330
A
100
AcDbSymbolTableRecord
100
AcDbDimStyleTableRecord
  2
ISO-25
 70
     0
 41
2.5
 42
0.625
 43
3.75
 44
1.25
 73
     0
 74
     0
 77
     1
 78
     8
140
2.5
141
2.5
143
0.0393700787
147
0.625
171
     3
172
     1
271
     2
272
     2
274
     3
278
    44
283
     0
284
     8
340
11
  0
DIMSTYLE
105
97
330
A
100
AcDbSymbolTableRecord
100
AcDbDimStyleTableRecord
  2
SLDDIMSTYLE0
 70
     0
 41
3.302
 44
0.0
 45
0.000000001
 73
     0
 74
     0
 77
     1
 78
     4
 79
     1
140
3.5
147
0.875
173
     1
271
     2
272
     2
276
     2
284
    12
340
96
341
98
343
98
344
98
  0
DIMSTYLE
105
1E3
102
{ACAD_REACTORS
330
1ED
330
1C9
330
1B9
330
1AB
330
14C
330
95
330
11B
330
A2
330
154
102
}
330
A
100
AcDbSymbolTableRecord
100
AcDbDimStyleTableRecord
  2
RG Dimension Lines
 70
     0
 40
12.0
 41
3.5
 42
1.0
 43
10.0
 44
5.0
 49
5.0
 77
     2
140
8.0
141
0.0
147
4.0
172
     1
176
   256
177
   256
178
     7
271
     0
272
     0
290
     1
340
11
341
98
342
98
371
     0
372
     0
1001
ACAD_DSTYLE_DIMBREAK
1070
   391
1040
0.125
1001
AcadAnnotative
1000
AnnotativeData
1002
{
1070
     1
1070
     1
1002
}
1001
ACAD_DSTYLE_DIMJAG
1070
   388
1040
1.5
1001
ACAD_DSTYLE_DIMTALN
1070
   392
1070
     0
  0
ENDTAB
  0
TABLE
  2
BLOCK_RECORD
  5
1
330
0
100
AcDbSymbolTable
 70
    22
  0
BLOCK_RECORD
  5
1F
330
1
100
AcDbSymbolTableRecord
100
AcDbBlockTableRecord
  2
*Model_Space
340
22
 70
     0
280
     1
281
     0
  0
BLOCK_RECORD
  5
1B
330
1
100
AcDbSymbolTableRecord
100
AcDbBlockTableRecord
  2
*Paper_Space
340
1E
 70
     0
280
     1
281
     0
  0
BLOCK_RECORD
  5
23
330
1
100
AcDbSymbolTableRecord
100
AcDbBlockTableRecord
  2
*Paper_Space0
340
26
 70
     0
280
     1
281
     0
  0
BLOCK_RECORD
  5
98
330
1
100
AcDbSymbolTableRecord
100
AcDbBlockTableRecord
  2
_None
340
0
 70
     0
280
     1
281
     0
  0
BLOCK_RECORD
  5
9B
330
1
100
AcDbSymbolTableRecord
100
AcDbBlockTableRecord
  2
_D
340
0
 70
     0
280
     1
281
     0
  0
BLOCK_RECORD
  5
A3
330
1
100
AcDbSymbolTableRecord
100
AcDbBlockTableRecord
  2
_D_1
340
0
 70
     0
280
     1
281
     0
  0
BLOCK_RECORD
  5
11C
330
1
100
AcDbSymbolTableRecord
100
AcDbBlockTableRecord
  2
_D_2
340
0
 70
     0
280
     1
281
     0
  0
BLOCK_RECORD
  5
14D
330
1
100
AcDbSymbolTableRecord
100
AcDbBlockTableRecord
  2
_D_3
340
0
 70
     0
280
     1
281
     0
  0
BLOCK_RECORD
  5
155
330
1
100
AcDbSymbolTableRecord
100
AcDbBlockTableRecord
  2
_D_4
340
0
 70
     0
280
     1
281
     0
  0
BLOCK_RECORD
  5
19F
330
1
100
AcDbSymbolTableRecord
100
AcDbBlockTableRecord
  2
*D7
340
0
 70
     0
280
     1
281
     0
  0
BLOCK_RECORD
  5
1AC
330
1
100
AcDbSymbolTableRecord
100
AcDbBlockTableRecord
  2
*D8
340
0
 70
     0
280
     1
281
     0
  0
BLOCK_RECORD
  5
1BA
330
1
100
AcDbSymbolTableRecord
100
AcDbBlockTableRecord
  2
*D9
340
0
 70
     0
280
     1
281
     0
  0
BLOCK_RECORD
  5
1CA
330
1
100
AcDbSymbolTableRecord
100
AcDbBlockTableRecord
  2
*D10
340
0
 70
     0
280
     1
281
     0
  0
BLOCK_RECORD
  5
1D8
330
1
100
AcDbSymbolTableRecord
100
AcDbBlockTableRecord
  2
*D11
340
0
 70
     0
280
     1
281
     0
  0
BLOCK_RECORD
  5
1FB
330
1
100
AcDbSymbolTableRecord
100
AcDbBlockTableRecord
  2
*D13
340
0
 70
     0
280
     1
281
     0
  0
BLOCK_RECORD
  5
26C
330
1
100
AcDbSymbolTableRecord
100
AcDbBlockTableRecord
  2
*D14
340
0
 70
     0
280
     1
281
     0
  0
BLOCK_RECORD
  5
27C
330
1
100
AcDbSymbolTableRecord
100
AcDbBlockTableRecord
  2
*D15
340
0
 70
     0
280
     1
281
     0
  0
BLOCK_RECORD
  5
28D
330
1
100
AcDbSymbolTableRecord
100
AcDbBlockTableRecord
  2
*D16
340
0
 70
     0
280
     1
281
     0
  0
BLOCK_RECORD
  5
29B
330
1
100
AcDbSymbolTableRecord
100
AcDbBlockTableRecord
  2
*D17
340
0
 70
     0
280
     1
281
     0
  0
BLOCK_RECORD
  5
2A9
330
1
100
AcDbSymbolTableRecord
100
AcDbBlockTableRecord
  2
*D18
340
0
 70
     0
280
     1
281
     0
  0
BLOCK_RECORD
  5
2B7
330
1
100
AcDbSymbolTableRecord
100
AcDbBlockTableRecord
  2
*D19
340
0
 70
     0
280
     1
281
     0
  0
BLOCK_RECORD
  5
2C7
330
1
100
AcDbSymbolTableRecord
100
AcDbBlockTableRecord
  2
*D20
340
0
 70
     0
280
     1
281
     0
  0
BLOCK_RECORD
  5
2D5
330
1
100
AcDbSymbolTableRecord
100
AcDbBlockTableRecord
  2
*D21
340
0
 70
     0
280
     1
281
     0
  0
ENDTAB
  0
ENDSEC
  0
SECTION
  2
BLOCKS
  0
BLOCK
  5
20
330
1F
100
AcDbEntity
  8
0
100
AcDbBlockBegin
  2
*Model_Space
 70
     0
 10
0.0
 20
0.0
 30
0.0
  3
*Model_Space
  1

  0
ENDBLK
  5
21
330
1F
100
AcDbEntity
  8
0
100
AcDbBlockEnd
  0
BLOCK
  5
1C
330
1B
100
AcDbEntity
 67
     1
  8
0
100
AcDbBlockBegin
  2
*Paper_Space
 70
     0
 10
0.0
 20
0.0
 30
0.0
  3
*Paper_Space
  1

  0
ENDBLK
  5
1D
330
1B
100
AcDbEntity
 67
     1
  8
0
100
AcDbBlockEnd
  0
BLOCK
  5
24
330
23
100
AcDbEntity
 67
     1
  8
0
100
AcDbBlockBegin
  2
*Paper_Space0
 70
     0
 10
0.0
 20
0.0
 30
0.0
  3
*Paper_Space0
  1

  0
ENDBLK
  5
25
330
23
100
AcDbEntity
 67
     1
  8
0
100
AcDbBlockEnd
  0
BLOCK
  5
99
330
98
100
AcDbEntity
  8
0
100
AcDbBlockBegin
  2
_None
 70
     0
 10
0.0
 20
0.0
 30
0.0
  3
_None
  1

  0
ENDBLK
  5
9A
330
98
100
AcDbEntity
  8
0
100
AcDbBlockEnd
  0
BLOCK
  5
9C
330
9B
100
AcDbEntity
  8
0
100
AcDbBlockBegin
  2
_D
 70
     0
 10
0.0
 20
0.0
 30
0.0
  3
_D
  1

  0
LINE
  5
9E
330
9B
100
AcDbEntity
  8
0
  6
Continuous
 62
     7
440
 16777216
370
     0
100
AcDbLine
 10
88.2703341863
 20
97.85672996770001
 30
0.0
 11
61.20709060020001
 21
97.85672996770001
 31
0.0
  0
LINE
  5
9F
330
9B
100
AcDbEntity
  8
0
  6
Continuous
 62
     7
440
 16777216
370
     0
100
AcDbLine
 10
74.3541739816
 20
127.8567299677
 30
0.0
 11
61.20709060020001
 21
127.8567299677
 31
0.0
  0
LINE
  5
A0
330
9B
100
AcDbEntity
  8
0
  6
Continuous
 62
     7
440
 16777216
370
     0
100
AcDbLine
 10
62.2070906002
 20
97.85672996770001
 30
0.0
 11
62.2070906002
 21
127.8567299677
 31
0.0
  0
MTEXT
  5
A1
330
9B
100
AcDbEntity
  8
0
  6
Continuous
 62
     7
440
 16777216
370
    18
100
AcDbMText
 10
57.6953536857
 20
107.4268609321
 30
0.0
 40
3.5
 41
0.0
 46
0.0
 71
     1
 72
     1
  1
30.00
  7
SLDTEXTSTYLE0
 11
0.0000000000000001
 21
1.0
 31
0.0
 73
     1
 44
1.0
  0
ENDBLK
  5
9D
330
9B
100
AcDbEntity
  8
0
100
AcDbBlockEnd
  0
BLOCK
  5
A4
330
A3
100
AcDbEntity
  8
0
100
AcDbBlockBegin
  2
_D_1
 70
     0
 10
0.0
 20
0.0
 30
0.0
  3
_D_1
  1

  0
LINE
  5
A6
330
A3
100
AcDbEntity
  8
0
  6
Continuous
 62
     7
440
 16777216
370
     0
100
AcDbLine
 10
162.5187622904
 20
113.4567299677
 30
0.0
 11
172.5221025741
 21
113.4567299677
 31
0.0
  0
LINE
  5
A7
330
A3
100
AcDbEntity
  8
0
  6
Continuous
 62
     7
440
 16777216
370
     0
100
AcDbLine
 10
162.5187622904
 20
121.4567299677
 30
0.0
 11
172.5221025741
 21
121.4567299677
 31
0.0
  0
LINE
  5
A8
330
A3
100
AcDbEntity
  8
0
  6
Continuous
 62
     7
440
 16777216
370
     0
100
AcDbLine
 10
171.5221025741
 20
113.4567299677
 30
0.0
 11
171.5221025741
 21
97.1940093667
 31
0.0
  0
LINE
  5
A9
330
A3
100
AcDbEntity
  8
0
  6
Continuous
 62
     7
440
 16777216
370
     0
100
AcDbLine
 10
171.5221025741
 20
113.4567299677
 30
0.0
 11
171.5221025741
 21
121.4567299677
 31
0.0
  0
MTEXT
  5
AA
330
A3
100
AcDbEntity
  8
0
  6
Continuous
 62
     7
440
 16777216
370
    18
100
AcDbMText
 10
167.0103656595
 20
97.1940093667
 30
0.0
 40
3.5
 41
0.0
 46
0.0
 71
     1
 72
     1
  1
8.00
  7
SLDTEXTSTYLE0
 11
0.0000000000000003
 21
1.0
 31
0.0
 73
     1
 44
1.0
  0
ENDBLK
  5
A5
330
A3
100
AcDbEntity
  8
0
100
AcDbBlockEnd
  0
BLOCK
  5
11D
330
11C
100
AcDbEntity
  8
0
100
AcDbBlockBegin
  2
_D_2
 70
     0
 10
0.0
 20
0.0
 30
0.0
  3
_D_2
  1

  0
LINE
  5
11F
330
11C
100
AcDbEntity
  8
0
  6
Continuous
 62
     7
440
 16777216
370
     0
100
AcDbLine
 10
161.5124491551
 20
210.6418378927
 30
0.0
 11
161.4829422754
 21
245.9764046504
 31
0.0
  0
LINE
  5
120
330
11C
100
AcDbEntity
  8
0
  6
Continuous
 62
     7
440
 16777216
370
     0
100
AcDbLine
 10
77.1592182192
 20
214.4851303299
 30
0.0
 11
77.1329795833
 21
245.9059664243
 31
0.0
  0
LINE
  5
121
330
11C
100
AcDbEntity
  8
0
  6
Continuous
 62
     7
440
 16777216
370
     0
100
AcDbLine
 10
161.4837773464
 20
244.9764049991
 30
0.0
 11
77.13381465419999
 21
244.905966773
 31
0.0
  0
MTEXT
  5
122
330
11C
100
AcDbEntity
  8
0
  6
Continuous
 62
     7
440
 16777216
370
    18
100
AcDbMText
 10
112.4468027936
 20
249.4471941207
 30
0.0
 40
3.5
 41
0.0
 46
0.0
 71
     1
 72
     1
  1
85.00
  7
SLDTEXTSTYLE0
 11
0.9999996513282123
 21
0.0008350709273053
 31
0.0
 73
     1
 44
1.0
  0
ENDBLK
  5
11E
330
11C
100
AcDbEntity
  8
0
100
AcDbBlockEnd
  0
BLOCK
  5
14E
330
14D
100
AcDbEntity
  8
0
100
AcDbBlockBegin
  2
_D_3
 70
     0
 10
0.0
 20
0.0
 30
0.0
  3
_D_3
  1

  0
LINE
  5
150
330
14D
100
AcDbEntity
  8
0
  6
Continuous
 62
     7
440
 16777216
370
     0
100
AcDbLine
 10
207.8742787286
 20
77.8550318006
 30
0.0
 11
207.8742787286
 21
63.3744297003
 31
0.0
  0
LINE
  5
151
330
14D
100
AcDbEntity
  8
0
  6
Continuous
 62
     7
440
 16777216
370
     0
100
AcDbLine
 10
271.8742787286
 20
77.8550318006
 30
0.0
 11
271.8742787286
 21
63.3744297003
 31
0.0
  0
LINE
  5
152
330
14D
100
AcDbEntity
  8
0
  6
Continuous
 62
     7
440
 16777216
370
     0
100
AcDbLine
 10
207.8742787286
 20
64.3744297003
 30
0.0
 11
271.8742787286
 21
64.3744297003
 31
0.0
  0
MTEXT
  5
153
330
14D
100
AcDbEntity
  8
0
  6
Continuous
 62
     7
440
 16777216
370
    18
100
AcDbMText
 10
234.2296600402
 20
68.88616661489999
 30
0.0
 40
3.5
 41
0.0
 46
0.0
 71
     1
 72
     1
  1
64.00
  7
SLDTEXTSTYLE0
 73
     1
 44
1.0
  0
ENDBLK
  5
14F
330
14D
100
AcDbEntity
  8
0
100
AcDbBlockEnd
  0
BLOCK
  5
156
330
155
100
AcDbEntity
  8
0
100
AcDbBlockBegin
  2
_D_4
 70
     0
 10
0.0
 20
0.0
 30
0.0
  3
_D_4
  1

  0
LINE
  5
158
330
155
100
AcDbEntity
  8
0
  6
Continuous
 62
     7
440
 16777216
370
     0
100
AcDbLine
 10
217.4642786972
 20
130.3207751489
 30
0.0
 11
217.4642786972
 21
140.4205189436
 31
0.0
  0
LINE
  5
159
330
155
100
AcDbEntity
  8
0
  6
Continuous
 62
     7
440
 16777216
370
     0
100
AcDbLine
 10
262.4642786972
 20
129.7857759506999
 30
0.0
 11
262.4642786972
 21
140.4205189436
 31
0.0
  0
LINE
  5
15A
330
155
100
AcDbEntity
  8
0
  6
Continuous
 62
     7
440
 16777216
370
     0
100
AcDbLine
 10
217.4642786972
 20
139.4205189436
 30
0.0
 11
262.4642786972
 21
139.4205189436
 31
0.0
  0
MTEXT
  5
15B
330
155
100
AcDbEntity
  8
0
  6
Continuous
 62
     7
440
 16777216
370
    18
100
AcDbMText
 10
235.8171233148
 20
143.9322558581
 30
0.0
 40
3.5
 41
0.0
 46
0.0
 71
     1
 72
     1
  1
45.00
  7
SLDTEXTSTYLE0
 73
     1
 44
1.0
  0
ENDBLK
  5
157
330
155
100
AcDbEntity
  8
0
100
AcDbBlockEnd
  0
BLOCK
  5
1A0
330
19F
100
AcDbEntity
  8
0
100
AcDbBlockBegin
  2
*D7
 70
     1
 10
0.0
 20
0.0
 30
0.0
  3
*D7
  1

  0
LINE
  5
1A2
330
19F
100
AcDbEntity
  8
0
 62
     0
440
 16777216
370
    -2
100
AcDbLine
 10
235.2410378134
 20
82.5567299677
 30
0.0
 11
235.2410378134
 21
128.8567299677
 31
0.0
  0
LINE
  5
1A3
330
19F
100
AcDbEntity
  8
0
 62
     0
440
 16777216
370
    -2
100
AcDbLine
 10
271.8742787286
 20
82.5567299677
 30
0.0
 11
271.8742787286
 21
128.8567299677
 31
0.0
  0
LINE
  5
1A4
330
19F
100
AcDbEntity
  8
0
 62
     0
440
 16777216
370
    -2
100
AcDbLine
 10
238.5430378134
 20
127.8567299677
 30
0.0
 11
268.5722787286
 21
127.8567299677
 31
0.0
  0
SOLID
  5
1A5
330
19F
100
AcDbEntity
  8
0
 62
     0
440
 16777216
100
AcDbTrace
 10
238.5430378134
 20
128.4070633010333
 30
0.0
 11
238.5430378134
 21
127.3063966343666
 31
0.0
 12
235.2410378134
 22
127.8567299677
 32
0.0
 13
235.2410378134
 23
127.8567299677
 33
0.0
  0
SOLID
  5
1A6
330
19F
100
AcDbEntity
  8
0
 62
     0
440
 16777216
100
AcDbTrace
 10
268.5722787286
 20
128.4070633010333
 30
0.0
 11
268.5722787286
 21
127.3063966343666
 31
0.0
 12
271.8742787286
 22
127.8567299677
 32
0.0
 13
271.8742787286
 23
127.8567299677
 33
0.0
  0
MTEXT
  5
1A7
330
19F
100
AcDbEntity
  8
0
 62
     0
440
 16777216
100
AcDbMText
 10
253.557658271
 20
131.4223966343666
 30
0.0
 40
3.5
 41
0.0
 46
0.0
 71
     5
 72
     1
  1
36,63
 73
     1
 44
1.0
  0
POINT
  5
1A8
330
19F
100
AcDbEntity
  8
Defpoints
 62
     0
440
 16777216
100
AcDbPoint
 10
235.2410378134
 20
81.5567299677
 30
0.0
  0
POINT
  5
1A9
330
19F
100
AcDbEntity
  8
Defpoints
 62
     0
440
 16777216
100
AcDbPoint
 10
271.8742787286
 20
81.5567299677
 30
0.0
  0
POINT
  5
1AA
330
19F
100
AcDbEntity
  8
Defpoints
 62
     0
440
 16777216
100
AcDbPoint
 10
271.8742787286
 20
127.8567299677
 30
0.0
  0
ENDBLK
  5
1A1
330
19F
100
AcDbEntity
  8
0
100
AcDbBlockEnd
  0
BLOCK
  5
1AD
330
1AC
100
AcDbEntity
  8
0
100
AcDbBlockBegin
  2
*D8
 70
     1
 10
0.0
 20
0.0
 30
0.0
  3
*D8
  1

  0
LINE
  5
1AF
330
1AC
100
AcDbEntity
  8
0
 62
     0
440
 16777216
370
    -2
100
AcDbLine
 10
263.2642786972001
 20
127.8567299677
 30
0.0
 11
292.3882223225622
 21
127.8567299677001
 31
0.0
  0
LINE
  5
1B0
330
1AC
100
AcDbEntity
  8
0
 62
     0
440
 16777216
370
    -2
100
AcDbLine
 10
272.8742787286001
 20
81.55672996770004
 30
0.0
 11
292.3882223225622
 21
81.55672996770006
 31
0.0
  0
LINE
  5
1B1
330
1AC
100
AcDbEntity
  8
0
 62
     0
440
 16777216
370
    -2
100
AcDbLine
 10
291.3882223225622
 20
124.5547299677
 30
0.0
 11
291.3882223225622
 21
108.2723966343667
 31
0.0
  0
LINE
  5
1B2
330
1AC
100
AcDbEntity
  8
0
 62
     0
440
 16777216
370
    -2
100
AcDbLine
 10
291.3882223225622
 20
84.85872996770005
 30
0.0
 11
291.3882223225622
 21
101.1410633010334
 31
0.0
  0
SOLID
  5
1B3
330
1AC
100
AcDbEntity
  8
0
 62
     0
440
 16777216
100
AcDbTrace
 10
290.8378889892289
 20
124.5547299677
 30
0.0
 11
291.9385556558956
 21
124.5547299677
 31
0.0
 12
291.3882223225622
 22
127.8567299677001
 32
0.0
 13
291.3882223225622
 23
127.8567299677001
 33
0.0
  0
SOLID
  5
1B4
330
1AC
100
AcDbEntity
  8
0
 62
     0
440
 16777216
100
AcDbTrace
 10
290.8378889892289
 20
84.85872996770005
 30
0.0
 11
291.9385556558956
 21
84.85872996770005
 31
0.0
 12
291.3882223225622
 22
81.55672996770006
 32
0.0
 13
291.3882223225622
 23
81.55672996770006
 33
0.0
  0
MTEXT
  5
1B5
330
1AC
100
AcDbEntity
  8
0
 62
     0
440
 16777216
100
AcDbMText
 10
291.3882223225622
 20
104.7067299676999
 30
0.0
 40
3.5
 41
0.0
 46
0.0
 71
     5
 72
     1
  1
46,30
 73
     1
 44
1.0
  0
POINT
  5
1B6
330
1AC
100
AcDbEntity
  8
Defpoints
 62
     0
440
 16777216
100
AcDbPoint
 10
262.2642786972001
 20
127.8567299677
 30
0.0
  0
POINT
  5
1B7
330
1AC
100
AcDbEntity
  8
Defpoints
 62
     0
440
 16777216
100
AcDbPoint
 10
271.8742787286001
 20
81.55672996770004
 30
0.0
  0
POINT
  5
1B8
330
1AC
100
AcDbEntity
  8
Defpoints
 62
     0
440
 16777216
100
AcDbPoint
 10
291.3882223225622
 20
81.55672996770006
 30
0.0
  0
ENDBLK
  5
1AE
330
1AC
100
AcDbEntity
  8
0
100
AcDbBlockEnd
  0
BLOCK
  5
1BB
330
1BA
100
AcDbEntity
  8
0
100
AcDbBlockBegin
  2
*D9
 70
     1
 10
0.0
 20
0.0
 30
0.0
  3
*D9
  1

  0
LINE
  5
1BD
330
1BA
100
AcDbEntity
  8
0
 62
     0
440
 16777216
370
    -2
100
AcDbLine
 10
206.8742787286001
 20
86.35672996770002
 30
0.0
 11
196.9419861970242
 21
86.35672996770002
 31
0.0
  0
LINE
  5
1BE
330
1BA
100
AcDbEntity
  8
0
 62
     0
440
 16777216
370
    -2
100
AcDbLine
 10
206.8742787286001
 20
81.55672996770004
 30
0.0
 11
196.9419861970242
 21
81.55672996770004
 31
0.0
  0
LINE
  5
1BF
330
1BA
100
AcDbEntity
  8
0
 62
     0
440
 16777216
370
    -2
100
AcDbLine
 10
197.9419861970242
 20
89.65872996770004
 30
0.0
 11
197.9419861970242
 21
92.96072996770003
 31
0.0
  0
LINE
  5
1C0
330
1BA
100
AcDbEntity
  8
0
 62
     0
440
 16777216
370
    -2
100
AcDbLine
 10
197.9419861970242
 20
78.25472996770002
 30
0.0
 11
197.9419861970242
 21
74.95272996770004
 31
0.0
  0
LINE
  5
1C1
330
1BA
100
AcDbEntity
  8
0
 62
     0
440
 16777216
370
    -2
100
AcDbLine
 10
197.9419861970242
 20
74.95272996770004
 30
0.0
 11
185.9179861970242
 21
74.95272996770004
 31
0.0
  0
LINE
  5
1C2
330
1BA
100
AcDbEntity
  8
0
 62
     0
440
 16777216
370
    -2
100
AcDbLine
 10
197.9419861970242
 20
86.35672996770002
 30
0.0
 11
197.9419861970242
 21
81.55672996770004
 31
0.0
  0
SOLID
  5
1C3
330
1BA
100
AcDbEntity
  8
0
 62
     0
440
 16777216
100
AcDbTrace
 10
197.3916528636909
 20
89.65872996770004
 30
0.0
 11
198.4923195303575
 21
89.65872996770004
 31
0.0
 12
197.9419861970242
 22
86.35672996770002
 32
0.0
 13
197.9419861970242
 23
86.35672996770002
 33
0.0
  0
SOLID
  5
1C4
330
1BA
100
AcDbEntity
  8
0
 62
     0
440
 16777216
100
AcDbTrace
 10
197.3916528636909
 20
78.25472996770002
 30
0.0
 11
198.4923195303575
 21
78.25472996770002
 31
0.0
 12
197.9419861970242
 22
81.55672996770004
 32
0.0
 13
197.9419861970242
 23
81.55672996770004
 33
0.0
  0
MTEXT
  5
1C5
330
1BA
100
AcDbEntity
  8
0
 62
     0
440
 16777216
100
AcDbMText
 10
191.1679861970242
 20
78.51839663436663
 30
0.0
 40
3.5
 41
0.0
 46
0.0
 71
     5
 72
     1
  1
4,80
 73
     1
 44
1.0
  0
POINT
  5
1C6
330
1BA
100
AcDbEntity
  8
Defpoints
 62
     0
440
 16777216
100
AcDbPoint
 10
207.8742787286001
 20
86.35672996770002
 30
0.0
  0
POINT
  5
1C7
330
1BA
100
AcDbEntity
  8
Defpoints
 62
     0
440
 16777216
100
AcDbPoint
 10
207.8742787286001
 20
81.55672996770004
 30
0.0
  0
POINT
  5
1C8
330
1BA
100
AcDbEntity
  8
Defpoints
 62
     0
440
 16777216
100
AcDbPoint
 10
197.9419861970242
 20
81.55672996770004
 30
0.0
  0
ENDBLK
  5
1BC
330
1BA
100
AcDbEntity
  8
0
100
AcDbBlockEnd
  0
BLOCK
  5
1CB
330
1CA
100
AcDbEntity
  8
0
100
AcDbBlockBegin
  2
*D10
 70
     1
 10
0.0
 20
0.0
 30
0.0
  3
*D10
  1

  0
LINE
  5
1CD
330
1CA
100
AcDbEntity
  8
0
 62
     0
440
 16777216
370
    -2
100
AcDbLine
 10
76.31885895980002
 20
96.55672996770007
 30
0.0
 11
61.20709060020003
 21
96.55672996770007
 31
0.0
  0
LINE
  5
1CE
330
1CA
100
AcDbEntity
  8
0
 62
     0
440
 16777216
370
    -2
100
AcDbLine
 10
66.81885895980002
 20
81.55672996770004
 30
0.0
 11
61.20709060020003
 21
81.55672996770004
 31
0.0
  0
LINE
  5
1CF
330
1CA
100
AcDbEntity
  8
0
 62
     0
440
 16777216
370
    -2
100
AcDbLine
 10
62.20709060020003
 20
93.25472996770004
 30
0.0
 11
62.20709060020003
 21
84.85872996770003
 31
0.0
  0
LINE
  5
1D0
330
1CA
100
AcDbEntity
  8
0
 62
     0
440
 16777216
370
    -2
100
AcDbLine
 10
62.20709060020003
 20
81.55672996770004
 30
0.0
 11
62.20709060020004
 21
78.25472996770002
 31
0.0
  0
LINE
  5
1D1
330
1CA
100
AcDbEntity
  8
0
 62
     0
440
 16777216
370
    -2
100
AcDbLine
 10
62.20709060020004
 20
78.25472996770002
 30
0.0
 11
48.43309060020004
 21
78.25472996770002
 31
0.0
  0
SOLID
  5
1D2
330
1CA
100
AcDbEntity
  8
0
 62
     0
440
 16777216
100
AcDbTrace
 10
61.6567572668667
 20
93.25472996770004
 30
0.0
 11
62.75742393353336
 21
93.25472996770004
 31
0.0
 12
62.20709060020003
 22
96.55672996770007
 32
0.0
 13
62.20709060020003
 23
96.55672996770007
 33
0.0
  0
SOLID
  5
1D3
330
1CA
100
AcDbEntity
  8
0
 62
     0
440
 16777216
100
AcDbTrace
 10
61.6567572668667
 20
84.85872996770003
 30
0.0
 11
62.75742393353336
 21
84.85872996770003
 31
0.0
 12
62.20709060020003
 22
81.55672996770004
 32
0.0
 13
62.20709060020003
 23
81.55672996770004
 33
0.0
  0
MTEXT
  5
1D4
330
1CA
100
AcDbEntity
  8
0
 62
     0
440
 16777216
100
AcDbMText
 10
54.55809060020005
 20
81.82039663436666
 30
0.0
 40
3.5
 41
0.0
 46
0.0
 71
     5
 72
     1
  1
15,00
 73
     1
 44
1.0
  0
POINT
  5
1D5
330
1CA
100
AcDbEntity
  8
Defpoints
 62
     0
440
 16777216
100
AcDbPoint
 10
77.31885895980003
 20
96.55672996770007
 30
0.0
  0
POINT
  5
1D6
330
1CA
100
AcDbEntity
  8
Defpoints
 62
     0
440
 16777216
100
AcDbPoint
 10
67.81885895980003
 20
81.55672996770004
 30
0.0
  0
POINT
  5
1D7
330
1CA
100
AcDbEntity
  8
Defpoints
 62
     0
440
 16777216
100
AcDbPoint
 10
62.20709060020003
 20
81.55672996770004
 30
0.0
  0
ENDBLK
  5
1CC
330
1CA
100
AcDbEntity
  8
0
100
AcDbBlockEnd
  0
BLOCK
  5
1D9
330
1D8
100
AcDbEntity
  8
0
100
AcDbBlockBegin
  2
*D11
 70
     1
 10
0.0
 20
0.0
 30
0.0
  3
*D11
  1

  0
LINE
  5
1DA
330
1D8
100
AcDbEntity
  8
DIMENSION
440
 16777216
370
     0
100
AcDbLine
 10
1092.625159377854
 20
969.7937323929265
 30
0.0
 11
1092.569709633547
 21
979.7935786580374
 31
0.0
  0
LINE
  5
1DB
330
1D8
100
AcDbEntity
  8
DIMENSION
440
 16777216
370
     0
100
AcDbLine
 10
1454.657182624691
 20
971.8012215670347
 30
0.0
 11
1454.601732880384
 21
981.8010678321458
 31
0.0
  0
LINE
  5
1DC
330
1D8
100
AcDbEntity
  8
DIMENSION
440
 16777216
370
     0
100
AcDbLine
 10
1092.597434505701
 20
974.793655525482
 30
0.0
 11
1454.629457752537
 21
976.8011446995902
 31
0.0
  0
MTEXT
  5
1DD
330
1D8
100
AcDbEntity
  8
DIMENSION
 62
     7
440
 16777216
100
AcDbMText
 10
1273.568105608173
 20
983.9741418578535
 30
0.0
 40
8.0
 41
0.0
 46
0.0
 71
     5
 72
     1
  1
\A1;362
 73
     1
 44
1.0
  0
POINT
  5
1DE
330
1D8
100
AcDbEntity
  8
Defpoints
 62
     0
440
 16777216
100
AcDbPoint
 10
1092.771920384362
 20
943.3267482592359
 30
0.0
  0
POINT
  5
1DF
330
1D8
100
AcDbEntity
  8
Defpoints
 62
     0
440
 16777216
100
AcDbPoint
 10
1454.803943631198
 20
945.3342374333443
 30
0.0
  0
POINT
  5
1E0
330
1D8
100
AcDbEntity
  8
Defpoints
 62
     0
440
 16777216
100
AcDbPoint
 10
1454.629457752537
 20
976.8011446995902
 30
0.0
  0
ENDBLK
  5
1E1
330
1D8
100
AcDbEntity
  8
0
100
AcDbBlockEnd
  0
BLOCK
  5
1FC
330
1FB
100
AcDbEntity
  8
0
100
AcDbBlockBegin
  2
*D13
 70
     1
 10
0.0
 20
0.0
 30
0.0
  3
*D13
  1

  0
LINE
  5
1FE
330
1FB
100
AcDbEntity
  8
DIMENSION
440
 16777216
370
     0
100
AcDbLine
 10
306.2030957337317
 20
211.6820963606057
 30
0.0
 11
306.1476459894249
 21
221.6819426257168
 31
0.0
  0
LINE
  5
1FF
330
1FB
100
AcDbEntity
  8
DIMENSION
440
 16777216
370
     0
100
AcDbLine
 10
668.2351189805684
 20
213.689585534714
 30
0.0
 11
668.1796692362614
 21
223.6894317998251
 31
0.0
  0
LINE
  5
200
330
1FB
100
AcDbEntity
  8
DIMENSION
440
 16777216
370
     0
100
AcDbLine
 10
306.1753708615783
 20
216.6820194931613
 30
0.0
 11
668.207394108415
 21
218.6895086672695
 31
0.0
  0
MTEXT
  5
201
330
1FB
100
AcDbEntity
  8
DIMENSION
 62
     7
440
 16777216
100
AcDbMText
 10
487.1465724193081
 20
225.7668431476652
 30
0.0
 40
8.0
 41
0.0
 46
0.0
 71
     5
 72
     1
  1
\A1;362
 73
     1
 44
1.0
  0
POINT
  5
202
330
1FB
100
AcDbEntity
  8
Defpoints
 62
     0
440
 16777216
100
AcDbPoint
 10
306.3498567402393
 20
185.2151122269151
 30
0.0
  0
POINT
  5
203
330
1FB
100
AcDbEntity
  8
Defpoints
 62
     0
440
 16777216
100
AcDbPoint
 10
668.381879987076
 20
187.2226014010234
 30
0.0
  0
POINT
  5
204
330
1FB
100
AcDbEntity
  8
Defpoints
 62
     0
440
 16777216
100
AcDbPoint
 10
668.207394108415
 20
218.6895086672695
 30
0.0
  0
ENDBLK
  5
1FD
330
1FB
100
AcDbEntity
  8
0
100
AcDbBlockEnd
  0
BLOCK
  5
26D
330
26C
100
AcDbEntity
  8
0
100
AcDbBlockBegin
  2
*D14
 70
     1
 10
0.0
 20
0.0
 30
0.0
  3
*D14
  1

  0
LINE
  5
26F
330
26C
100
AcDbEntity
  8
DIMENSION
440
 16777216
370
     0
100
AcDbLine
 10
67.20709060020006
 20
96.55672996770007
 30
0.0
 11
57.20709060020006
 21
96.55672996770007
 31
0.0
  0
LINE
  5
270
330
26C
100
AcDbEntity
  8
DIMENSION
440
 16777216
370
     0
100
AcDbLine
 10
66.81885895980002
 20
81.55672996770004
 30
0.0
 11
57.20709060020006
 21
81.55672996770004
 31
0.0
  0
LINE
  5
271
330
26C
100
AcDbEntity
  8
DIMENSION
440
 16777216
370
     0
100
AcDbLine
 10
62.20709060020006
 20
96.55672996770007
 30
0.0
 11
62.20709060020006
 21
81.55672996770004
 31
0.0
  0
LINE
  5
272
330
26C
100
AcDbEntity
  8
DIMENSION
440
 16777216
370
     0
100
AcDbLine
 10
62.20709060020006
 20
81.55672996770004
 30
0.0
 11
62.20709060020007
 21
78.05672996770003
 31
0.0
  0
LINE
  5
273
330
26C
100
AcDbEntity
  8
DIMENSION
440
 16777216
370
     0
100
AcDbLine
 10
62.20709060020007
 20
78.05672996770003
 30
0.0
 11
47.5404239335334
 21
78.05672996770003
 31
0.0
  0
MTEXT
  5
274
330
26C
100
AcDbEntity
  8
DIMENSION
 62
     7
440
 16777216
100
AcDbMText
 10
52.87375726686674
 20
86.05672996770001
 30
0.0
 40
8.0
 41
0.0
 46
0.0
 71
     5
 72
     1
  1
\A1;15
 73
     1
 44
1.0
  0
POINT
  5
275
330
26C
100
AcDbEntity
  8
Defpoints
 62
     0
440
 16777216
100
AcDbPoint
 10
77.31885895980003
 20
96.55672996770007
 30
0.0
  0
POINT
  5
276
330
26C
100
AcDbEntity
  8
Defpoints
 62
     0
440
 16777216
100
AcDbPoint
 10
67.81885895980003
 20
81.55672996770004
 30
0.0
  0
POINT
  5
277
330
26C
100
AcDbEntity
  8
Defpoints
 62
     0
440
 16777216
100
AcDbPoint
 10
62.20709060020006
 20
81.55672996770004
 30
0.0
  0
ENDBLK
  5
26E
330
26C
100
AcDbEntity
  8
0
100
AcDbBlockEnd
  0
BLOCK
  5
27D
330
27C
100
AcDbEntity
  8
0
100
AcDbBlockBegin
  2
*D15
 70
     1
 10
0.0
 20
0.0
 30
0.0
  3
*D15
  1

  0
LINE
  5
27F
330
27C
100
AcDbEntity
  8
DIMENSION
440
 16777216
370
     0
100
AcDbLine
 10
202.9419861970243
 20
86.35672996770002
 30
0.0
 11
192.9419861970243
 21
86.35672996770002
 31
0.0
  0
LINE
  5
280
330
27C
100
AcDbEntity
  8
DIMENSION
440
 16777216
370
     0
100
AcDbLine
 10
202.9419861970243
 20
81.55672996770004
 30
0.0
 11
192.9419861970243
 21
81.55672996770004
 31
0.0
  0
LINE
  5
281
330
27C
100
AcDbEntity
  8
DIMENSION
440
 16777216
370
     0
100
AcDbLine
 10
197.9419861970243
 20
86.35672996770002
 30
0.0
 11
197.9419861970243
 21
89.85672996770004
 31
0.0
  0
LINE
  5
282
330
27C
100
AcDbEntity
  8
DIMENSION
440
 16777216
370
     0
100
AcDbLine
 10
197.9419861970243
 20
81.55672996770004
 30
0.0
 11
197.9419861970243
 21
74.55672996770004
 31
0.0
  0
LINE
  5
283
330
27C
100
AcDbEntity
  8
DIMENSION
440
 16777216
370
     0
100
AcDbLine
 10
197.9419861970243
 20
74.55672996770004
 30
0.0
 11
188.6086528636909
 21
74.55672996770004
 31
0.0
  0
LINE
  5
284
330
27C
100
AcDbEntity
  8
DIMENSION
440
 16777216
370
     0
100
AcDbLine
 10
197.9419861970243
 20
86.35672996770002
 30
0.0
 11
197.9419861970243
 21
81.55672996770004
 31
0.0
  0
MTEXT
  5
285
330
27C
100
AcDbEntity
  8
DIMENSION
 62
     7
440
 16777216
100
AcDbMText
 10
191.2753195303576
 20
82.55672996769996
 30
0.0
 40
8.0
 41
0.0
 46
0.0
 71
     5
 72
     1
  1
\A1;5
 73
     1
 44
1.0
  0
POINT
  5
286
330
27C
100
AcDbEntity
  8
Defpoints
 62
     0
440
 16777216
100
AcDbPoint
 10
207.8742787286001
 20
86.35672996770002
 30
0.0
  0
POINT
  5
287
330
27C
100
AcDbEntity
  8
Defpoints
 62
     0
440
 16777216
100
AcDbPoint
 10
207.8742787286001
 20
81.55672996770004
 30
0.0
  0
POINT
  5
288
330
27C
100
AcDbEntity
  8
Defpoints
 62
     0
440
 16777216
100
AcDbPoint
 10
197.9419861970243
 20
81.55672996770004
 30
0.0
  0
ENDBLK
  5
27E
330
27C
100
AcDbEntity
  8
0
100
AcDbBlockEnd
  0
BLOCK
  5
28E
330
28D
100
AcDbEntity
  8
0
100
AcDbBlockBegin
  2
*D16
 70
     1
 10
0.0
 20
0.0
 30
0.0
  3
*D16
  1

  0
LINE
  5
290
330
28D
100
AcDbEntity
  8
DIMENSION
440
 16777216
370
     0
100
AcDbLine
 10
286.3882223225624
 20
127.8567299677
 30
0.0
 11
296.3882223225624
 21
127.8567299677001
 31
0.0
  0
LINE
  5
291
330
28D
100
AcDbEntity
  8
DIMENSION
440
 16777216
370
     0
100
AcDbLine
 10
286.3882223225624
 20
81.55672996770004
 30
0.0
 11
296.3882223225624
 21
81.55672996770006
 31
0.0
  0
LINE
  5
292
330
28D
100
AcDbEntity
  8
DIMENSION
440
 16777216
370
     0
100
AcDbLine
 10
291.3882223225623
 20
127.8567299677001
 30
0.0
 11
291.3882223225623
 21
81.55672996770006
 31
0.0
  0
MTEXT
  5
293
330
28D
100
AcDbEntity
  8
DIMENSION
 62
     7
440
 16777216
100
AcDbMText
 10
302.054888989229
 20
104.7067299676999
 30
0.0
 40
8.0
 41
0.0
 46
0.0
 71
     5
 72
     1
  1
\A1;46
 73
     1
 44
1.0
  0
POINT
  5
294
330
28D
100
AcDbEntity
  8
Defpoints
 62
     0
440
 16777216
100
AcDbPoint
 10
262.2642786972001
 20
127.8567299677
 30
0.0
  0
POINT
  5
295
330
28D
100
AcDbEntity
  8
Defpoints
 62
     0
440
 16777216
100
AcDbPoint
 10
271.8742787286001
 20
81.55672996770004
 30
0.0
  0
POINT
  5
296
330
28D
100
AcDbEntity
  8
Defpoints
 62
     0
440
 16777216
100
AcDbPoint
 10
291.3882223225623
 20
81.55672996770006
 30
0.0
  0
ENDBLK
  5
28F
330
28D
100
AcDbEntity
  8
0
100
AcDbBlockEnd
  0
BLOCK
  5
29C
330
29B
100
AcDbEntity
  8
0
100
AcDbBlockBegin
  2
*D17
 70
     1
 10
0.0
 20
0.0
 30
0.0
  3
*D17
  1

  0
LINE
  5
2FA
330
29B
100
AcDbEntity
  8
DIMENSION
440
 16777216
370
     0
100
AcDbLine
 10
217.4642786972
 20
134.4205189436
 30
0.0
 11
217.4642786972
 21
144.4205189436
 31
0.0
  0
LINE
  5
2FB
330
29B
100
AcDbEntity
  8
DIMENSION
440
 16777216
370
     0
100
AcDbLine
 10
262.4642786972
 20
134.4205189436
 30
0.0
 11
262.4642786972
 21
144.4205189436
 31
0.0
  0
LINE
  5
2FC
330
29B
100
AcDbEntity
  8
DIMENSION
440
 16777216
370
     0
100
AcDbLine
 10
217.4642786972
 20
139.4205189436
 30
0.0
 11
262.4642786972
 21
139.4205189436
 31
0.0
  0
MTEXT
  5
2FD
330
29B
100
AcDbEntity
  8
DIMENSION
 62
     7
440
 16777216
100
AcDbMText
 10
241.6358735584
 20
151.4205189436
 30
0.0
 40
8.0
 41
0.0
 46
0.0
 71
     2
 72
     1
  1
\A1;%%C45
 73
     1
 44
1.0
  0
POINT
  5
2FE
330
29B
100
AcDbEntity
  8
Defpoints
 62
     0
440
 16777216
100
AcDbPoint
 10
217.4642786972
 20
127.6567299677
 30
0.0
  0
POINT
  5
2FF
330
29B
100
AcDbEntity
  8
Defpoints
 62
     0
440
 16777216
100
AcDbPoint
 10
262.4642786972
 20
127.6567299677
 30
0.0
  0
POINT
  5
300
330
29B
100
AcDbEntity
  8
Defpoints
 62
     0
440
 16777216
100
AcDbPoint
 10
262.4642786972
 20
139.4205189436
 30
0.0
  0
ENDBLK
  5
29D
330
29B
100
AcDbEntity
  8
0
100
AcDbBlockEnd
  0
BLOCK
  5
2AA
330
2A9
100
AcDbEntity
  8
0
100
AcDbBlockBegin
  2
*D18
 70
     1
 10
0.0
 20
0.0
 30
0.0
  3
*D18
  1

  0
LINE
  5
2EA
330
2A9
100
AcDbEntity
  8
DIMENSION
440
 16777216
370
     0
100
AcDbLine
 10
207.8742787286
 20
69.3744297003
 30
0.0
 11
207.8742787286
 21
59.3744297003
 31
0.0
  0
LINE
  5
2EB
330
2A9
100
AcDbEntity
  8
DIMENSION
440
 16777216
370
     0
100
AcDbLine
 10
271.8742787286
 20
69.3744297003
 30
0.0
 11
271.8742787286
 21
59.3744297003
 31
0.0
  0
LINE
  5
2EC
330
2A9
100
AcDbEntity
  8
DIMENSION
440
 16777216
370
     0
100
AcDbLine
 10
207.8742787286
 20
64.3744297003
 30
0.0
 11
271.8742787286
 21
64.3744297003
 31
0.0
  0
MTEXT
  5
2ED
330
2A9
100
AcDbEntity
  8
DIMENSION
 62
     7
440
 16777216
100
AcDbMText
 10
240.0484102839
 20
60.37442970029999
 30
0.0
 40
8.0
 41
0.0
 46
0.0
 71
     2
 72
     1
  1
\A1;%%C64
 73
     1
 44
1.0
  0
POINT
  5
2EE
330
2A9
100
AcDbEntity
  8
Defpoints
 62
     0
440
 16777216
100
AcDbPoint
 10
207.8742787286
 20
81.5567299677
 30
0.0
  0
POINT
  5
2EF
330
2A9
100
AcDbEntity
  8
Defpoints
 62
     0
440
 16777216
100
AcDbPoint
 10
271.8742787286
 20
81.5567299677
 30
0.0
  0
POINT
  5
2F0
330
2A9
100
AcDbEntity
  8
Defpoints
 62
     0
440
 16777216
100
AcDbPoint
 10
271.8742787286
 20
64.3744297003
 30
0.0
  0
ENDBLK
  5
2AB
330
2A9
100
AcDbEntity
  8
0
100
AcDbBlockEnd
  0
BLOCK
  5
2B8
330
2B7
100
AcDbEntity
  8
0
100
AcDbBlockBegin
  2
*D19
 70
     1
 10
0.0
 20
0.0
 30
0.0
  3
*D19
  1

  0
LINE
  5
2F1
330
2B7
100
AcDbEntity
  8
DIMENSION
440
 16777216
370
     0
100
AcDbLine
 10
177.1887692407666
 20
113.4567299677
 30
0.0
 11
187.1887692407666
 21
113.4567299677
 31
0.0
  0
LINE
  5
2F2
330
2B7
100
AcDbEntity
  8
DIMENSION
440
 16777216
370
     0
100
AcDbLine
 10
177.1887692407666
 20
121.4567299677
 30
0.0
 11
187.1887692407666
 21
121.4567299677
 31
0.0
  0
LINE
  5
2F3
330
2B7
100
AcDbEntity
  8
DIMENSION
440
 16777216
370
     0
100
AcDbLine
 10
182.1887692407666
 20
121.4567299677
 30
0.0
 11
182.1887692407666
 21
113.4567299677
 31
0.0
  0
LINE
  5
2F4
330
2B7
100
AcDbEntity
  8
DIMENSION
440
 16777216
370
     0
100
AcDbLine
 10
182.1887692407666
 20
113.4567299677
 30
0.0
 11
182.1887692407666
 21
101.7197038971
 31
0.0
  0
LINE
  5
2F5
330
2B7
100
AcDbEntity
  8
DIMENSION
440
 16777216
370
     0
100
AcDbLine
 10
182.1887692407666
 20
101.7197038971
 30
0.0
 11
164.8554359074333
 21
101.7197038971
 31
0.0
  0
MTEXT
  5
2F6
330
2B7
100
AcDbEntity
  8
DIMENSION
 62
     7
440
 16777216
100
AcDbMText
 10
171.5221025741
 20
97.71970389709998
 30
0.0
 40
8.0
 41
0.0
 46
0.0
 71
     2
 72
     1
  1
\A1;%%C8
 73
     1
 44
1.0
  0
POINT
  5
2F7
330
2B7
100
AcDbEntity
  8
Defpoints
 62
     0
440
 16777216
100
AcDbPoint
 10
161.5187622904
 20
113.4567299677
 30
0.0
  0
POINT
  5
2F8
330
2B7
100
AcDbEntity
  8
Defpoints
 62
     0
440
 16777216
100
AcDbPoint
 10
161.5187622904
 20
121.4567299677
 30
0.0
  0
POINT
  5
2F9
330
2B7
100
AcDbEntity
  8
Defpoints
 62
     0
440
 16777216
100
AcDbPoint
 10
182.1887692407666
 20
121.4567299677
 30
0.0
  0
ENDBLK
  5
2B9
330
2B7
100
AcDbEntity
  8
0
100
AcDbBlockEnd
  0
BLOCK
  5
2C8
330
2C7
100
AcDbEntity
  8
0
100
AcDbBlockBegin
  2
*D20
 70
     1
 10
0.0
 20
0.0
 30
0.0
  3
*D20
  1

  0
LINE
  5
2CA
330
2C7
100
AcDbEntity
  8
DIMENSION
440
 16777216
370
     0
100
AcDbLine
 10
67.20709060019998
 20
97.85672996770005
 30
0.0
 11
57.20709060019999
 21
97.85672996770005
 31
0.0
  0
LINE
  5
2CB
330
2C7
100
AcDbEntity
  8
DIMENSION
440
 16777216
370
     0
100
AcDbLine
 10
67.20709060019998
 20
127.8567299677
 30
0.0
 11
57.20709060019999
 21
127.8567299677
 31
0.0
  0
LINE
  5
2CC
330
2C7
100
AcDbEntity
  8
DIMENSION
440
 16777216
370
     0
100
AcDbLine
 10
62.20709060019999
 20
97.85672996770005
 30
0.0
 11
62.20709060019999
 21
127.8567299677
 31
0.0
  0
MTEXT
  5
2CD
330
2C7
100
AcDbEntity
  8
DIMENSION
 62
     7
440
 16777216
100
AcDbMText
 10
52.2070906002
 20
117.2456111757
 30
0.0
 40
8.0
 41
0.0
 46
0.0
 71
     2
 72
     1
  1
\A1;30
 73
     1
 44
1.0
  0
POINT
  5
2CE
330
2C7
100
AcDbEntity
  8
Defpoints
 62
     0
440
 16777216
100
AcDbPoint
 10
100.6976176562
 20
97.85672996770006
 30
0.0
  0
POINT
  5
2CF
330
2C7
100
AcDbEntity
  8
Defpoints
 62
     0
440
 16777216
100
AcDbPoint
 10
77.51879157880003
 20
127.8567299677
 30
0.0
  0
POINT
  5
2D0
330
2C7
100
AcDbEntity
  8
Defpoints
 62
     0
440
 16777216
100
AcDbPoint
 10
62.20709060019999
 20
127.8567299677
 30
0.0
  0
ENDBLK
  5
2C9
330
2C7
100
AcDbEntity
  8
0
100
AcDbBlockEnd
  0
BLOCK
  5
2D6
330
2D5
100
AcDbEntity
  8
0
100
AcDbBlockBegin
  2
*D21
 70
     1
 10
0.0
 20
0.0
 30
0.0
  3
*D21
  1

  0
LINE
  5
2E3
330
2D5
100
AcDbEntity
  8
DIMENSION
440
 16777216
370
     0
100
AcDbLine
 10
161.4879527010126
 20
239.9764067424637
 30
0.0
 11
161.4796019917377
 21
249.9764032557458
 31
0.0
  0
LINE
  5
2E4
330
2D5
100
AcDbEntity
  8
DIMENSION
440
 16777216
370
     0
100
AcDbLine
 10
77.13799000884837
 20
239.9059685163249
 30
0.0
 11
77.1296392995735
 21
249.9059650296071
 31
0.0
  0
LINE
  5
2E5
330
2D5
100
AcDbEntity
  8
DIMENSION
440
 16777216
370
     0
100
AcDbLine
 10
161.4837773463752
 20
244.9764049991047
 30
0.0
 11
77.13381465421093
 21
244.905966772966
 31
0.0
  0
MTEXT
  5
2E6
330
2D5
100
AcDbEntity
  8
DIMENSION
 62
     7
440
 16777216
100
AcDbMText
 10
118.2626306253792
 20
256.9492196897731
 30
0.0
 40
8.0
 41
0.0
 46
0.0
 71
     2
 72
     1
  1
\A1;85
 73
     1
 44
1.0
  0
POINT
  5
2E7
330
2D5
100
AcDbEntity
  8
Defpoints
 62
     0
440
 16777216
100
AcDbPoint
 10
161.5154220066999
 20
207.0818402986
 30
0.0
  0
POINT
  5
2E8
330
2D5
100
AcDbEntity
  8
Defpoints
 62
     0
440
 16777216
100
AcDbPoint
 10
77.16885895979998
 20
202.9403178484
 30
0.0
  0
POINT
  5
2E9
330
2D5
100
AcDbEntity
  8
Defpoints
 62
     0
440
 16777216
100
AcDbPoint
 10
77.13381465421093
 20
244.905966772966
 30
0.0
  0
ENDBLK
  5
2D7
330
2D5
100
AcDbEntity
  8
0
100
AcDbBlockEnd
  0
ENDSEC
  0
SECTION
  2
ENTITIES
  0
LINE
  5
74
330
1F
100
AcDbEntity
  8
DIMENSION
100
AcDbLine
 10
161.5187622904
 20
121.4567299677
 30
0.0
 11
122.3016032867
 21
121.4567299677
 31
0.0
  0
LINE
  5
75
330
1F
100
AcDbEntity
  8
DIMENSION
100
AcDbLine
 10
122.3015902861
 20
113.4567299677
 30
0.0
 11
161.5187622904
 21
113.4567299677
 31
0.0
  0
LINE
  5
76
330
1F
100
AcDbEntity
  8
DIMENSION
100
AcDbLine
 10
122.3188589598
 20
81.53285438430001
 30
0.0
 11
122.3188589598
 21
81.5567299677
 31
0.0
  0
LINE
  5
77
330
1F
100
AcDbEntity
  8
DIMENSION
100
AcDbLine
 10
122.3188589598
 20
86.35672996770001
 30
0.0
 11
122.3188589598
 21
96.5567299677
 31
0.0
  0
LINE
  5
78
330
1F
100
AcDbEntity
  8
DIMENSION
100
AcDbLine
 10
77.31885895979999
 20
96.5567299677
 30
0.0
 11
77.31885895979999
 21
86.35672996770001
 31
0.0
  0
LINE
  5
79
330
1F
100
AcDbEntity
  8
DIMENSION
100
AcDbLine
 10
77.31885895979999
 20
81.5567299677
 30
0.0
 11
77.31885895979999
 21
81.53285438430001
 31
0.0
  0
ARC
  5
7A
330
1F
100
AcDbEntity
  8
DIMENSION
100
AcDbCircle
 10
99.30099687610001
 20
94.81811841729999
 30
0.0
 40
20.00000000000001
100
AcDbArc
 50
149.3364264966
 51
175.012950169
  0
LWPOLYLINE
  5
7B
330
1F
100
AcDbEntity
  8
DIMENSION
100
AcDbPolyline
 90
        3
 70
   128
 43
0.0
 10
120.2610084806
 20
96.5567299677
 10
120.2124937399
 20
97.0438002726
 10
120.1045443897
 20
97.85672996770001
  0
LINE
  5
7C
330
1F
100
AcDbEntity
  8
DIMENSION
100
AcDbLine
 10
67.8188589598
 20
86.35672996770001
 30
0.0
 11
67.8188589598
 21
81.5567299677
 31
0.0
  0
LINE
  5
7D
330
1F
100
AcDbEntity
  8
DIMENSION
100
AcDbLine
 10
131.8188589598
 20
81.5567299677
 30
0.0
 11
131.8188589598
 21
86.35672996770001
 31
0.0
  0
LWPOLYLINE
  5
7E
330
1F
100
AcDbEntity
  8
DIMENSION
100
AcDbPolyline
 90
       21
 70
   128
 43
0.0
 10
161.5194602645
 20
113.5450302447
 10
161.5199393222
 20
113.7132941153
 10
161.520392087
 20
113.9651801571
 10
161.5208084448
 20
114.295061652
 10
161.5211790949
 20
114.6955695926
 10
161.5214957576
 20
115.1577572933
 10
161.5217513592
 20
115.6713002447
 10
161.5219401899
 20
116.2247267456
 10
161.5220580315
 20
116.8056741628
 10
161.5221022518
 20
117.4011650908
 10
161.5220718628
 20
117.9978972463
 10
161.5219675435
 20
118.5825406191
 10
161.5217916241
 20
119.1420352422
 10
161.5215480344
 20
119.6638829305
 10
161.5212422158
 20
120.1364264687
 10
161.5208809997
 20
120.5491100152
 10
161.5204724552
 20
120.8927149014
 10
161.5200257084
 20
121.159565562
 10
161.519550739
 20
121.3437009942
 10
161.5190581569
 20
121.4410079166
 10
161.5187622904
 20
121.4567299677
  0
LWPOLYLINE
  5
7F
330
1F
100
AcDbEntity
  8
DIMENSION
100
AcDbPolyline
 90
        3
 70
   128
 43
0.0
 10
161.5187622904
 20
113.4567299677
 10
161.5189656151
 20
113.4641472819
 10
161.5194602645
 20
113.5450302447
  0
SPLINE
  5
80
330
1F
100
AcDbEntity
  8
DIMENSION
100
AcDbSpline
210
0.0
220
0.0
230
1.0
 70
     8
 71
     3
 72
    23
 73
    19
 74
     0
 42
0.00000001
 43
0.0000000001
 40
0.0
 40
0.0
 40
0.0
 40
0.0
 40
0.0312257774439181
 40
0.0624025137195741
 40
0.0936083904710389
 40
0.1249213710403098
 40
0.1874215535546503
 40
0.249965733624661
 40
0.3125436138129588
 40
0.3752387227384847
 40
0.4998094904817939
 40
0.625043847360546
 40
0.6874050131351306
 40
0.7497268025335756
 40
0.8123618390304921
 40
0.8750014883998492
 40
0.9375401745796811
 40
1.0
 40
1.0
 40
1.0
 40
1.0
 10
121.9454908350558
 20
117.4550949614946
 30
0.0
 10
121.9456608557637
 20
117.5222500705421
 30
0.0
 10
121.9460006301562
 20
117.6564548192055
 30
0.0
 10
121.9488191270301
 20
117.8572735973569
 30
0.0
 10
121.9533091930987
 20
118.0572790467657
 30
0.0
 10
121.9616724869013
 20
118.3221206710081
 30
0.0
 10
121.9763001144347
 20
118.6486058348392
 30
0.0
 10
121.9999590726977
 20
119.0283955442527
 30
0.0
 10
122.0287229506985
 20
119.3932168619354
 30
0.0
 10
122.0722994869233
 20
119.8530220079804
 30
0.0
 10
122.1336145569605
 20
120.3739736663131
 30
0.0
 10
122.1946155563991
 20
120.8010535989714
 30
0.0
 10
122.2376892569186
 20
121.0771439263088
 30
0.0
 10
122.2659554023507
 20
121.2493838849844
 30
0.0
 10
122.2891578360273
 20
121.3858613068265
 30
0.0
 10
122.3061969661614
 20
121.4834955464899
 30
0.0
 10
122.3170197853317
 20
121.5453204873252
 30
0.0
 10
122.3181908135896
 20
121.552928414922
 30
0.0
 10
122.3187759583215
 20
121.556729978824
 30
0.0
  0
SPLINE
  5
81
330
1F
100
AcDbEntity
  8
DIMENSION
100
AcDbSpline
210
0.0
220
0.0
230
1.0
 70
     8
 71
     3
 72
    23
 73
    19
 74
     0
 42
0.00000001
 43
0.0000000001
 40
0.0
 40
0.0
 40
0.0
 40
0.0
 40
0.0313696833616748
 40
0.0626712576172541
 40
0.0939810556048649
 40
0.1253753501768033
 40
0.1876719276460736
 40
0.2500378937375031
 40
0.3125844551852339
 40
0.3752235724300891
 40
0.5001664116091593
 40
0.6248287412630095
 40
0.6875258121074247
 40
0.7501236142521565
 40
0.812447126941875
 40
0.8746839827589655
 40
0.9373584421959176
 40
1.0
 40
1.0
 40
1.0
 40
1.0
 10
122.3187759583215
 20
113.3567299728229
 30
0.0
 10
122.3186571348134
 20
113.3576820319989
 30
0.0
 10
122.318419745784
 20
113.3595840832629
 30
0.0
 10
122.3157695635152
 20
113.3750472864788
 30
0.0
 10
122.3114685393243
 20
113.3997585494179
 30
0.0
 10
122.3033940923182
 20
113.4459581430732
 30
0.0
 10
122.2891489142894
 20
113.5276180088614
 30
0.0
 10
122.2660589026959
 20
113.6634679677843
 30
0.0
 10
122.2377861751725
 20
113.835717283426
 30
0.0
 10
122.1947075662853
 20
114.1118728377024
 30
0.0
 10
122.1337279521435
 20
114.5386511930974
 30
0.0
 10
122.0724742455359
 20
115.0588313501704
 30
0.0
 10
122.0288751517548
 20
115.5184787190287
 30
0.0
 10
122.0001421892877
 20
115.8826435832666
 30
0.0
 10
121.9764787209121
 20
116.2611989797095
 30
0.0
 10
121.95898949363
 20
116.6517601382128
 30
0.0
 10
121.9476337066766
 20
117.0509443533368
 30
0.0
 10
121.9462050005608
 20
117.3204016740525
 30
0.0
 10
121.9454908350558
 20
117.4550949614946
 30
0.0
  0
LINE
  5
82
330
1F
100
AcDbEntity
  8
DIMENSION
100
AcDbLine
 10
122.3187759583
 20
113.3567299728
 30
0.0
 11
122.3187759583
 21
97.85672996770001
 31
0.0
  0
LINE
  5
83
330
1F
100
AcDbEntity
  8
DIMENSION
100
AcDbLine
 10
100.7833575443
 20
97.85672996770001
 30
0.0
 11
122.3187759583
 21
97.85672996770001
 31
0.0
  0
SPLINE
  5
84
330
1F
100
AcDbEntity
  8
DIMENSION
100
AcDbSpline
210
0.0
220
0.0
230
1.0
 70
     8
 71
     3
 72
    22
 73
    18
 74
     0
 42
0.00000001
 43
0.0000000001
 40
0.0
 40
0.0
 40
0.0
 40
0.0
 40
0.125
 40
0.125
 40
0.25
 40
0.25
 40
0.375
 40
0.375
 40
0.5
 40
0.5
 40
0.625
 40
0.625
 40
0.75
 40
0.75
 40
0.875
 40
0.875
 40
1.0
 40
1.0
 40
1.0
 40
1.0
 10
77.31879164855185
 20
106.8567299677401
 30
0.0
 10
77.3195909892256
 20
106.8567299677401
 30
0.0
 10
77.38104251009502
 20
106.8334675536503
 30
0.0
 10
77.67787604450655
 20
106.720214299974
 30
0.0
 10
77.9134119014236
 20
106.630164513714
 30
0.0
 10
78.62091341404532
 20
106.3593364222012
 30
0.0
 10
79.09329755239403
 20
106.1783975846758
 30
0.0
 10
80.33872729699146
 20
105.7011162138187
 30
0.0
 10
81.11252740889131
 20
105.4044840905603
 30
0.0
 10
83.00931133364493
 20
104.6771586559992
 30
0.0
 10
84.13324841061619
 20
104.2460992802025
 30
0.0
 10
86.73663904245756
 20
103.2474453756677
 30
0.0
 10
88.21674325191031
 20
102.6796006962152
 30
0.0
 10
91.47023764629608
 20
101.4312174868893
 30
0.0
 10
93.24328556950096
 20
100.7508098103902
 30
0.0
 10
96.94470454338642
 20
99.3302235197156
 30
0.0
 10
98.87153701745537
 20
98.59063515020469
 30
0.0
 10
100.7833575443229
 20
97.85672996774001
 30
0.0
  0
LINE
  5
85
330
1F
100
AcDbEntity
  8
DIMENSION
100
AcDbLine
 10
77.3187916486
 20
127.6567299677
 30
0.0
 11
77.3187916486
 21
106.8567299677
 31
0.0
  0
LINE
  5
86
330
1F
100
AcDbEntity
  8
DIMENSION
100
AcDbLine
 10
122.3187759583
 20
127.6567299677
 30
0.0
 11
122.3187759583
 21
121.5567299788
 31
0.0
  0
LINE
  5
87
330
1F
100
AcDbEntity
  8
DIMENSION
100
AcDbLine
 10
77.51879157880001
 20
127.8567299677
 30
0.0
 11
122.1187760281
 21
127.8567299677
 31
0.0
  0
ARC
  5
88
330
1F
100
AcDbEntity
  8
DIMENSION
100
AcDbCircle
 10
122.1187759932
 20
127.6567300026
 30
0.0
 40
0.1999999651328354
100
AcDbArc
 50
359.9999900113
 51
89.99999001129998
  0
ARC
  5
89
330
1F
100
AcDbEntity
  8
DIMENSION
100
AcDbCircle
 10
77.5187916137
 20
127.6567300026
 30
0.0
 40
0.199999965132807
100
AcDbArc
 50
90.00000998870001
 51
180.0000099887
  0
SPLINE
  5
8A
330
1F
100
AcDbEntity
  8
DIMENSION
100
AcDbSpline
210
0.0
220
0.0
230
1.0
 70
     8
 71
     3
 72
    17
 73
    13
 74
     0
 42
0.00000001
 43
0.0000000001
 40
0.0
 40
0.0
 40
0.0
 40
0.0
 40
0.0524849929190611
 40
0.1801723672743537
 40
0.2948141158268268
 40
0.3962266973297865
 40
0.4981449666279093
 40
0.6063980911398108
 40
0.7152912631628016
 40
0.8036887535190167
 40
0.8924419891076416
 40
1.0
 40
1.0
 40
1.0
 40
1.0
 10
82.09822882592424
 20
105.0176306533616
 30
0.0
 10
81.93949472438225
 20
105.0786276957228
 30
0.0
 10
81.39458660395819
 20
105.2880205318026
 30
0.0
 10
80.59884238270944
 20
105.5938681402442
 30
0.0
 10
79.76892574802717
 20
105.9129189545949
 30
0.0
 10
79.10183489461518
 20
106.1694502489104
 30
0.0
 10
78.54140675178483
 20
106.3850428825629
 30
0.0
 10
78.0714676046912
 20
106.5659245573965
 30
0.0
 10
77.72687530932007
 20
106.698679884225
 30
0.0
 10
77.49870720939282
 20
106.7867201061344
 30
0.0
 10
77.34895249496705
 20
106.8446622091119
 30
0.0
 10
77.32946742627054
 20
106.8524584460824
 30
0.0
 10
77.31879164855195
 20
106.8567299677401
 30
0.0
  0
LINE
  5
8B
330
1F
100
AcDbEntity
  8
DIMENSION
100
AcDbLine
 10
100.6976176562
 20
97.85672996770001
 30
0.0
 11
100.7833575443
 21
97.85672996770001
 31
0.0
  0
LINE
  5
8C
330
1F
100
AcDbEntity
  8
DIMENSION
100
AcDbLine
 10
99.85891241270001
 20
98.2100872718
 30
0.0
 11
100.6976176562
 21
97.85672996770001
 31
0.0
  0
LINE
  5
8D
330
1F
100
AcDbEntity
  8
DIMENSION
100
AcDbLine
 10
122.3188589598
 20
96.5567299677
 30
0.0
 11
79.6482683732
 21
96.5567299677
 31
0.0
  0
LINE
  5
8E
330
1F
100
AcDbEntity
  8
DIMENSION
100
AcDbLine
 10
79.6482683732
 20
81.53285438430001
 30
0.0
 11
122.3188589598
 21
81.53285438430001
 31
0.0
  0
LINE
  5
8F
330
1F
100
AcDbEntity
  8
DIMENSION
100
AcDbLine
 10
79.6482683732
 20
96.5567299677
 30
0.0
 11
77.31885895979999
 21
96.5567299677
 31
0.0
  0
LINE
  5
90
330
1F
100
AcDbEntity
  8
DIMENSION
100
AcDbLine
 10
77.31885895979999
 20
81.53285438430001
 30
0.0
 11
79.6482683732
 21
81.53285438430001
 31
0.0
  0
LINE
  5
91
330
1F
100
AcDbEntity
  8
DIMENSION
100
AcDbLine
 10
67.8188589598
 20
86.35672996770001
 30
0.0
 11
131.4816617199
 21
86.35672996770001
 31
0.0
  0
LINE
  5
92
330
1F
100
AcDbEntity
  8
DIMENSION
100
AcDbLine
 10
67.8188589598
 20
81.5567299677
 30
0.0
 11
131.4816617199
 21
81.5567299677
 31
0.0
  0
LINE
  5
93
330
1F
100
AcDbEntity
  8
DIMENSION
100
AcDbLine
 10
131.4816617199
 20
86.35672996770001
 30
0.0
 11
131.8188589598
 21
86.35672996770001
 31
0.0
  0
LINE
  5
94
330
1F
100
AcDbEntity
  8
DIMENSION
100
AcDbLine
 10
131.4816617199
 20
81.5567299677
 30
0.0
 11
131.8188589598
 21
81.5567299677
 31
0.0
  0
DIMENSION
  5
95
102
{ACAD_XDICTIONARY
360
2D1
102
}
330
1F
100
AcDbEntity
  8
DIMENSION
100
AcDbDimension
280
     0
  2
*D20
 10
62.20709060019999
 20
127.8567299677
 30
0.0
 11
62.2070906002
 21
113.2456111757
 31
0.0
 70
   160
  1
<>
 71
     2
 42
30.00000000000002
 73
     0
 74
     0
 75
     0
  3
RG Dimension Lines
100
AcDbAlignedDimension
 13
100.6976176562
 23
97.85672996770001
 33
0.0
 14
77.51879157880001
 24
127.8567299677
 34
0.0
 50
90.0
100
AcDbRotatedDimension
1001
AcadAnnotative
1000
AnnotativeData
1002
{
1070
     1
1070
     1
1002
}
  0
DIMENSION
  5
A2
102
{ACAD_XDICTIONARY
360
2C3
102
}
330
1F
100
AcDbEntity
  8
DIMENSION
100
AcDbDimension
280
     0
  2
*D19
 10
182.1887692407666
 20
121.4567299677
 30
0.0
 11
171.5221025741
 21
101.7197038971
 31
0.0
 70
   160
  1
<>
 71
     2
 42
8.0
 73
     0
 74
     0
 75
     0
  3
RG Dimension Lines
100
AcDbAlignedDimension
 13
161.5187622904
 23
113.4567299677
 33
0.0
 14
161.5187622904
 24
121.4567299677
 34
0.0
 50
90.0
100
AcDbRotatedDimension
1001
AcadAnnotative
1000
AnnotativeData
1002
{
1070
     1
1070
     1
1002
}
1001
ACAD
1000
DSTYLE
1002
{
1070
     3
1000
%%C<>
1002
}
  0
LINE
  5
AB
330
1F
100
AcDbEntity
  8
0
  6
Continuous
 62
     7
370
    25
100
AcDbLine
 10
121.9637061925
 20
199.0488090097
 30
0.0
 11
161.5221025741
 21
199.0818430879
 31
0.0
  0
LINE
  5
AC
330
1F
100
AcDbEntity
  8
0
  6
Continuous
 62
     7
370
    25
100
AcDbLine
 10
161.5154220067
 20
207.0818402986
 30
0.0
 11
121.9570256251
 21
207.0488062203
 31
0.0
  0
LINE
  5
AD
330
1F
100
AcDbEntity
  8
0
  6
Continuous
 62
     7
370
    25
100
AcDbLine
 10
161.5221025741
 20
199.0818430879
 30
0.0
 11
161.5180643162999
 21
203.9176675061
 31
0.0
  0
LINE
  5
AE
330
1F
100
AcDbEntity
  8
0
  6
Continuous
 62
     7
370
    25
100
AcDbLine
 10
161.5180643162999
 20
203.9176675061
 30
0.0
 11
161.5154220067
 21
207.0818402986
 31
0.0
  0
ARC
  5
AF
330
1F
100
AcDbEntity
  8
0
  6
Continuous
 62
     7
370
    25
100
AcDbCircle
 10
99.81878380339999
 20
203.030317817
 30
0.0
 40
22.50000000000001
100
AcDbArc
 50
0.0478460453
 51
180.0478460453
  0
SPLINE
  5
B0
330
1F
100
AcDbEntity
  8
0
  6
Continuous
 62
     7
370
    25
100
AcDbSpline
210
0.0
220
0.0
230
1.0
 70
     8
 71
     3
 72
     8
 73
     4
 74
     0
 42
0.00000001
 43
0.0000000001
 40
0.0
 40
0.0
 40
0.0
 40
0.0
 40
1.0
 40
1.0
 40
1.0
 40
1.0
 10
97.01123076686229
 20
223.2549909881839
 30
0.0
 10
96.84554691231923
 20
223.2520989657453
 30
0.0
 10
96.71355353493726
 20
223.1154158222466
 30
0.0
 10
96.71644555737586
 20
222.9497319677036
 30
0.0
  0
SPLINE
  5
B1
330
1F
100
AcDbEntity
  8
0
  6
Continuous
 62
     7
370
    25
100
AcDbSpline
210
0.0
220
0.0
230
1.0
 70
     8
 71
     3
 72
     8
 73
     4
 74
     0
 42
0.00000001
 43
0.0000000001
 40
0.0
 40
0.0
 40
0.0
 40
0.0
 40
1.0
 40
1.0
 40
1.0
 40
1.0
 10
96.71644555737586
 20
222.9497319677036
 30
0.0
 10
96.71933757981449
 20
222.7840481131606
 30
0.0
 10
96.85602072331313
 20
222.6520547357786
 30
0.0
 10
97.02170457785616
 20
222.6549467582172
 30
0.0
  0
LINE
  5
B2
330
1F
100
AcDbEntity
  8
0
  6
Continuous
 62
     7
370
    25
100
AcDbLine
 10
97.02170457790002
 20
222.6549467582
 30
0.0
 11
99.35294702500002
 21
222.6956387465
 31
0.0
  0
SPLINE
  5
B3
330
1F
100
AcDbEntity
  8
0
  6
Continuous
 62
     7
370
    25
100
AcDbSpline
210
0.0
220
0.0
230
1.0
 70
     8
 71
     3
 72
     8
 73
     4
 74
     0
 42
0.00000001
 43
0.0000000001
 40
0.0
 40
0.0
 40
0.0
 40
0.0
 40
1.0
 40
1.0
 40
1.0
 40
1.0
 10
99.35294702497788
 20
222.6956387464951
 30
0.0
 10
99.11759149487679
 20
222.4241073972379
 30
0.0
 10
98.98903827114892
 20
222.1100779281979
 30
0.0
 10
98.94427827023813
 20
221.8898106282827
 30
0.0
  0
LINE
  5
B4
330
1F
100
AcDbEntity
  8
0
  6
Continuous
 62
     7
370
    25
100
AcDbLine
 10
98.94427827020001
 20
221.8898106283
 30
0.0
 11
98.9309414268
 21
221.8248001717
 31
0.0
  0
LINE
  5
B5
330
1F
100
AcDbEntity
  8
0
  6
Continuous
 62
     7
370
    25
100
AcDbLine
 10
98.9309414268
 20
221.8248001717
 30
0.0
 11
98.94654499049998
 21
221.7599503099
 31
0.0
  0
SPLINE
  5
B6
330
1F
100
AcDbEntity
  8
0
  6
Continuous
 62
     7
370
    25
100
AcDbSpline
210
0.0
220
0.0
230
1.0
 70
     8
 71
     3
 72
     8
 73
     4
 74
     0
 42
0.00000001
 43
0.0000000001
 40
0.0
 40
0.0
 40
0.0
 40
0.0
 40
1.0
 40
1.0
 40
1.0
 40
1.0
 10
98.94654499052784
 20
221.7599503098571
 30
0.0
 10
99.06857362116561
 20
221.2535067756898
 30
0.0
 10
99.58067783205256
 20
220.3011175326371
 30
0.0
 10
100.6453946603115
 20
220.3197022340045
 30
0.0
  0
SPLINE
  5
B7
330
1F
100
AcDbEntity
  8
0
  6
Continuous
 62
     7
370
    25
100
AcDbSpline
210
0.0
220
0.0
230
1.0
 70
     8
 71
     3
 72
     8
 73
     4
 74
     0
 42
0.00000001
 43
0.0000000001
 40
0.0
 40
0.0
 40
0.0
 40
0.0
 40
1.0
 40
1.0
 40
1.0
 40
1.0
 10
100.6453946603115
 20
220.3197022340045
 30
0.0
 10
101.7149338876632
 20
220.3383711106612
 30
0.0
 10
102.1711865764304
 20
221.312486954649
 30
0.0
 10
102.263029716139
 20
221.8247310066159
 30
0.0
  0
LINE
  5
B8
330
1F
100
AcDbEntity
  8
0
  6
Continuous
 62
     7
370
    25
100
AcDbLine
 10
102.2630297161
 20
221.8247310066
 30
0.0
 11
102.2747984651
 21
221.890747778
 31
0.0
  0
LINE
  5
B9
330
1F
100
AcDbEntity
  8
0
  6
Continuous
 62
     7
370
    25
100
AcDbLine
 10
102.2747984651
 20
221.890747778
 30
0.0
 11
102.257472616
 21
221.9555675773
 31
0.0
  0
SPLINE
  5
BA
330
1F
100
AcDbEntity
  8
0
  6
Continuous
 62
     7
370
    25
100
AcDbSpline
210
0.0
220
0.0
230
1.0
 70
     8
 71
     3
 72
     8
 73
     4
 74
     0
 42
0.00000001
 43
0.0000000001
 40
0.0
 40
0.0
 40
0.0
 40
0.0
 40
1.0
 40
1.0
 40
1.0
 40
1.0
 10
102.2574726160458
 20
221.9555675773294
 30
0.0
 10
102.19940707606
 20
222.1718650029565
 30
0.0
 10
102.0528211239808
 20
222.4776247444219
 30
0.0
 10
101.8036514924815
 20
222.7384159520953
 30
0.0
  0
LINE
  5
BB
330
1F
100
AcDbEntity
  8
0
  6
Continuous
 62
     7
370
    25
100
AcDbLine
 10
101.8036514925
 20
222.7384159521
 30
0.0
 11
101.9598412488
 21
222.7411422544
 31
0.0
  0
SPLINE
  5
BC
330
1F
100
AcDbEntity
  8
0
  6
Continuous
 62
     7
370
    25
100
AcDbSpline
210
0.0
220
0.0
230
1.0
 70
     8
 71
     3
 72
     8
 73
     4
 74
     0
 42
0.00000001
 43
0.0000000001
 40
0.0
 40
0.0
 40
0.0
 40
0.0
 40
1.0
 40
1.0
 40
1.0
 40
1.0
 10
101.9598412488107
 20
222.7411422544331
 30
0.0
 10
102.1255251033538
 20
222.7440342768717
 30
0.0
 10
102.2575184807358
 20
222.8807174203704
 30
0.0
 10
102.2546264582971
 20
223.0464012749134
 30
0.0
  0
SPLINE
  5
BD
330
1F
100
AcDbEntity
  8
0
  6
Continuous
 62
     7
370
    25
100
AcDbSpline
210
0.0
220
0.0
230
1.0
 70
     8
 71
     3
 72
     8
 73
     4
 74
     0
 42
0.00000001
 43
0.0000000001
 40
0.0
 40
0.0
 40
0.0
 40
0.0
 40
1.0
 40
1.0
 40
1.0
 40
1.0
 10
102.2546264582971
 20
223.0464012749134
 30
0.0
 10
102.2517344358585
 20
223.2120851294564
 30
0.0
 10
102.1150512923599
 20
223.3440785068384
 30
0.0
 10
101.9493674378168
 20
223.3411864843998
 30
0.0
  0
LINE
  5
BE
330
1F
100
AcDbEntity
  8
0
  6
Continuous
 62
     7
370
    25
100
AcDbLine
 10
101.9493674378
 20
223.3411864844
 30
0.0
 11
97.0112307669
 21
223.2549909882
 31
0.0
  0
SPLINE
  5
BF
330
1F
100
AcDbEntity
  8
0
  6
Continuous
 62
     7
370
    25
100
AcDbSpline
210
0.0
220
0.0
230
1.0
 70
     8
 71
     3
 72
     8
 73
     4
 74
     0
 42
0.00000001
 43
0.0000000001
 40
0.0
 40
0.0
 40
0.0
 40
0.0
 40
1.0
 40
1.0
 40
1.0
 40
1.0
 10
97.6292185850896
 20
186.8147781556684
 30
0.0
 10
97.46353473054657
 20
186.8118861332296
 30
0.0
 10
97.33154135316459
 20
186.6752029897311
 30
0.0
 10
97.3344333756032
 20
186.5095191351881
 30
0.0
  0
SPLINE
  5
C0
330
1F
100
AcDbEntity
  8
0
  6
Continuous
 62
     7
370
    25
100
AcDbSpline
210
0.0
220
0.0
230
1.0
 70
     8
 71
     3
 72
     8
 73
     4
 74
     0
 42
0.00000001
 43
0.0000000001
 40
0.0
 40
0.0
 40
0.0
 40
0.0
 40
1.0
 40
1.0
 40
1.0
 40
1.0
 10
97.3344333756032
 20
186.5095191351881
 30
0.0
 10
97.33732539804179
 20
186.343835280645
 30
0.0
 10
97.47400854154046
 20
186.2118419032631
 30
0.0
 10
97.6396923960835
 20
186.2147339257016
 30
0.0
  0
LINE
  5
C1
330
1F
100
AcDbEntity
  8
0
  6
Continuous
 62
     7
370
    25
100
AcDbLine
 10
97.6396923961
 20
186.2147339256999
 30
0.0
 11
99.81786672910001
 21
186.2527541001
 31
0.0
  0
LINE
  5
C2
330
1F
100
AcDbEntity
  8
0
  6
Continuous
 62
     7
370
    25
100
AcDbLine
 10
99.81786672910001
 20
186.2527541001
 30
0.0
 11
99.87006743350001
 21
183.2621777485
 31
0.0
  0
LINE
  5
C3
330
1F
100
AcDbEntity
  8
0
  6
Continuous
 62
     7
370
    25
100
AcDbLine
 10
99.87006743350001
 20
183.2621777485
 30
0.0
 11
97.6918931005
 21
183.2241575741
 31
0.0
  0
SPLINE
  5
C4
330
1F
100
AcDbEntity
  8
0
  6
Continuous
 62
     7
370
    25
100
AcDbSpline
210
0.0
220
0.0
230
1.0
 70
     8
 71
     3
 72
     8
 73
     4
 74
     0
 42
0.00000001
 43
0.0000000001
 40
0.0
 40
0.0
 40
0.0
 40
0.0
 40
1.0
 40
1.0
 40
1.0
 40
1.0
 10
97.6918931004743
 20
183.2241575740535
 30
0.0
 10
97.52620924593127
 20
183.2212655516149
 30
0.0
 10
97.3942158685493
 20
183.0845824081163
 30
0.0
 10
97.39710789098786
 20
182.9188985535732
 30
0.0
  0
SPLINE
  5
C5
330
1F
100
AcDbEntity
  8
0
  6
Continuous
 62
     7
370
    25
100
AcDbSpline
210
0.0
220
0.0
230
1.0
 70
     8
 71
     3
 72
     8
 73
     4
 74
     0
 42
0.00000001
 43
0.0000000001
 40
0.0
 40
0.0
 40
0.0
 40
0.0
 40
1.0
 40
1.0
 40
1.0
 40
1.0
 10
97.39710789098786
 20
182.9188985535732
 30
0.0
 10
97.39999991342648
 20
182.7532146990302
 30
0.0
 10
97.53668305692514
 20
182.6212213216481
 30
0.0
 10
97.70236691146816
 20
182.6241133440868
 30
0.0
  0
LINE
  5
C6
330
1F
100
AcDbEntity
  8
0
  6
Continuous
 62
     7
370
    25
100
AcDbLine
 10
97.7023669115
 20
182.6241133441
 30
0.0
 11
102.658587579
 21
182.7106244976
 31
0.0
  0
SPLINE
  5
C7
330
1F
100
AcDbEntity
  8
0
  6
Continuous
 62
     7
370
    25
100
AcDbSpline
210
0.0
220
0.0
230
1.0
 70
     8
 71
     3
 72
     8
 73
     4
 74
     0
 42
0.00000001
 43
0.0000000001
 40
0.0
 40
0.0
 40
0.0
 40
0.0
 40
1.0
 40
1.0
 40
1.0
 40
1.0
 10
102.6585875790204
 20
182.7106244976374
 30
0.0
 10
102.8242714335635
 20
182.7135165200761
 30
0.0
 10
102.9562648109455
 20
182.8501996635748
 30
0.0
 10
102.9533727885069
 20
183.0158835181178
 30
0.0
  0
SPLINE
  5
C8
330
1F
100
AcDbEntity
  8
0
  6
Continuous
 62
     7
370
    25
100
AcDbSpline
210
0.0
220
0.0
230
1.0
 70
     8
 71
     3
 72
     8
 73
     4
 74
     0
 42
0.00000001
 43
0.0000000001
 40
0.0
 40
0.0
 40
0.0
 40
0.0
 40
1.0
 40
1.0
 40
1.0
 40
1.0
 10
102.9533727885069
 20
183.0158835181178
 30
0.0
 10
102.9504807660683
 20
183.1815673726609
 30
0.0
 10
102.8137976225696
 20
183.3135607500428
 30
0.0
 10
102.6481137680266
 20
183.3106687276042
 30
0.0
  0
LINE
  5
C9
330
1F
100
AcDbEntity
  8
0
  6
Continuous
 62
     7
370
    25
100
AcDbLine
 10
102.648113768
 20
183.3106687276
 30
0.0
 11
100.4701116635
 21
183.2726515595
 31
0.0
  0
LINE
  5
CA
330
1F
100
AcDbEntity
  8
0
  6
Continuous
 62
     7
370
    25
100
AcDbLine
 10
100.4701116635
 20
183.2726515595
 30
0.0
 11
100.4179109591
 21
186.2632279111
 31
0.0
  0
LINE
  5
CB
330
1F
100
AcDbEntity
  8
0
  6
Continuous
 62
     7
370
    25
100
AcDbLine
 10
100.4179109591
 20
186.2632279111
 30
0.0
 11
102.5959130636
 21
186.3012450793
 31
0.0
  0
SPLINE
  5
CC
330
1F
100
AcDbEntity
  8
0
  6
Continuous
 62
     7
370
    25
100
AcDbSpline
210
0.0
220
0.0
230
1.0
 70
     8
 71
     3
 72
     8
 73
     4
 74
     0
 42
0.00000001
 43
0.0000000001
 40
0.0
 40
0.0
 40
0.0
 40
0.0
 40
1.0
 40
1.0
 40
1.0
 40
1.0
 10
102.5959130636358
 20
186.3012450792524
 30
0.0
 10
102.7615969181788
 20
186.304137101691
 30
0.0
 10
102.8935902955608
 20
186.4408202451895
 30
0.0
 10
102.8906982731222
 20
186.6065040997326
 30
0.0
  0
SPLINE
  5
CD
330
1F
100
AcDbEntity
  8
0
  6
Continuous
 62
     7
370
    25
100
AcDbSpline
210
0.0
220
0.0
230
1.0
 70
     8
 71
     3
 72
     8
 73
     4
 74
     0
 42
0.00000001
 43
0.0000000001
 40
0.0
 40
0.0
 40
0.0
 40
0.0
 40
1.0
 40
1.0
 40
1.0
 40
1.0
 10
102.8906982731222
 20
186.6065040997326
 30
0.0
 10
102.8878062506836
 20
186.7721879542757
 30
0.0
 10
102.7511231071849
 20
186.9041813316576
 30
0.0
 10
102.5854392526419
 20
186.901289309219
 30
0.0
  0
LINE
  5
CE
330
1F
100
AcDbEntity
  8
0
  6
Continuous
 62
     7
370
    25
100
AcDbLine
 10
102.5854392526
 20
186.9012893092
 30
0.0
 11
97.62921858510001
 21
186.8147781557
 31
0.0
  0
SPLINE
  5
CF
330
1F
100
AcDbEntity
  8
0
  6
Continuous
 62
     7
370
    25
100
AcDbSpline
210
0.0
220
0.0
230
1.0
 70
     8
 71
     3
 72
     8
 73
     4
 74
     0
 42
0.00000001
 43
0.0000000001
 40
0.0
 40
0.0
 40
0.0
 40
0.0
 40
1.0
 40
1.0
 40
1.0
 40
1.0
 10
102.5202389970728
 20
193.2521522020968
 30
0.0
 10
102.3561829709897
 20
193.2744416214799
 30
0.0
 10
102.2048596529924
 20
193.1594730423402
 30
0.0
 10
102.1825702336092
 20
192.9954170162572
 30
0.0
  0
LINE
  5
D0
330
1F
100
AcDbEntity
  8
0
  6
Continuous
 62
     7
370
    25
100
AcDbLine
 10
102.1825702336
 20
192.9954170163
 30
0.0
 11
102.1307925191
 21
192.6158395652
 31
0.0
  0
SPLINE
  5
D1
330
1F
100
AcDbEntity
  8
0
  6
Continuous
 62
     7
370
    25
100
AcDbSpline
210
0.0
220
0.0
230
1.0
 70
     8
 71
     3
 72
     8
 73
     4
 74
     0
 42
0.00000001
 43
0.0000000001
 40
0.0
 40
0.0
 40
0.0
 40
0.0
 40
1.0
 40
1.0
 40
1.0
 40
1.0
 10
102.1307925190874
 20
192.6158395652257
 30
0.0
 10
102.0938270288424
 20
192.3450577010327
 30
0.0
 10
101.8685286532727
 20
192.1450693099012
 30
0.0
 10
101.5952019618384
 20
192.1402983747556
 30
0.0
  0
LINE
  5
D2
330
1F
100
AcDbEntity
  8
0
  6
Continuous
 62
     7
370
    25
100
AcDbLine
 10
101.5952019618
 20
192.1402983748
 30
0.0
 11
99.70292700360001
 21
192.1072685925
 31
0.0
  0
LINE
  5
D3
330
1F
100
AcDbEntity
  8
0
  6
Continuous
 62
     7
370
    25
100
AcDbLine
 10
99.70292700360001
 20
192.1072685925
 30
0.0
 11
99.69726922159999
 21
192.4314027029
 31
0.0
  0
SPLINE
  5
D4
330
1F
100
AcDbEntity
  8
0
  6
Continuous
 62
     7
370
    25
100
AcDbSpline
210
0.0
220
0.0
230
1.0
 70
     8
 71
     3
 72
     8
 73
     4
 74
     0
 42
0.00000001
 43
0.0000000001
 40
0.0
 40
0.0
 40
0.0
 40
0.0
 40
1.0
 40
1.0
 40
1.0
 40
1.0
 10
99.69726922161605
 20
192.4314027029438
 30
0.0
 10
99.6943771991774
 20
192.5970865574869
 30
0.0
 10
99.55769405567878
 20
192.7290799348688
 30
0.0
 10
99.39201020113571
 20
192.7261879124302
 30
0.0
  0
SPLINE
  5
D5
330
1F
100
AcDbEntity
  8
0
  6
Continuous
 62
     7
370
    25
100
AcDbSpline
210
0.0
220
0.0
230
1.0
 70
     8
 71
     3
 72
     8
 73
     4
 74
     0
 42
0.00000001
 43
0.0000000001
 40
0.0
 40
0.0
 40
0.0
 40
0.0
 40
1.0
 40
1.0
 40
1.0
 40
1.0
 10
99.39201020113571
 20
192.7261879124302
 30
0.0
 10
99.22632634659271
 20
192.7232958899916
 30
0.0
 10
99.09433296921072
 20
192.586612746493
 30
0.0
 10
99.0972249916493
 20
192.42092889195
 30
0.0
  0
LINE
  5
D6
330
1F
100
AcDbEntity
  8
0
  6
Continuous
 62
     7
370
    25
100
AcDbLine
 10
99.0972249916
 20
192.4209288919
 30
0.0
 11
99.10288277360001
 21
192.0967947815
 31
0.0
  0
LINE
  5
D7
330
1F
100
AcDbEntity
  8
0
  6
Continuous
 62
     7
370
    25
100
AcDbLine
 10
99.10288277360001
 20
192.0967947815
 30
0.0
 11
98.1389196407
 21
192.0799687424
 31
0.0
  0
SPLINE
  5
D8
330
1F
100
AcDbEntity
  8
0
  6
Continuous
 62
     7
370
    25
100
AcDbSpline
210
0.0
220
0.0
230
1.0
 70
     8
 71
     3
 72
     8
 73
     4
 74
     0
 42
0.00000001
 43
0.0000000001
 40
0.0
 40
0.0
 40
0.0
 40
0.0
 40
1.0
 40
1.0
 40
1.0
 40
1.0
 10
98.13891964066387
 20
192.0799687424293
 30
0.0
 10
97.97323578612084
 20
192.0770767199907
 30
0.0
 10
97.84124240873884
 20
191.940393576492
 30
0.0
 10
97.84413443117749
 20
191.774709721949
 30
0.0
  0
SPLINE
  5
D9
330
1F
100
AcDbEntity
  8
0
  6
Continuous
 62
     7
370
    25
100
AcDbSpline
210
0.0
220
0.0
230
1.0
 70
     8
 71
     3
 72
     8
 73
     4
 74
     0
 42
0.00000001
 43
0.0000000001
 40
0.0
 40
0.0
 40
0.0
 40
0.0
 40
1.0
 40
1.0
 40
1.0
 40
1.0
 10
97.84413443117749
 20
191.774709721949
 30
0.0
 10
97.84702645361608
 20
191.6090258674059
 30
0.0
 10
97.98370959711471
 20
191.4770324900239
 30
0.0
 10
98.14939345165777
 20
191.4799245124625
 30
0.0
  0
LINE
  5
DA
330
1F
100
AcDbEntity
  8
0
  6
Continuous
 62
     7
370
    25
100
AcDbLine
 10
98.14939345170001
 20
191.4799245125
 30
0.0
 11
99.11335658459998
 21
191.4967505515
 31
0.0
  0
LINE
  5
DB
330
1F
100
AcDbEntity
  8
0
  6
Continuous
 62
     7
370
    25
100
AcDbLine
 10
99.11335658459998
 20
191.4967505515
 30
0.0
 11
99.11885202850001
 21
191.1819167822
 31
0.0
  0
SPLINE
  5
DC
330
1F
100
AcDbEntity
  8
0
  6
Continuous
 62
     7
370
    25
100
AcDbSpline
210
0.0
220
0.0
230
1.0
 70
     8
 71
     3
 72
     8
 73
     4
 74
     0
 42
0.00000001
 43
0.0000000001
 40
0.0
 40
0.0
 40
0.0
 40
0.0
 40
1.0
 40
1.0
 40
1.0
 40
1.0
 10
99.11885202847187
 20
191.1819167821967
 30
0.0
 10
99.1217440509105
 20
191.0162329276536
 30
0.0
 10
99.25842719440915
 20
190.8842395502716
 30
0.0
 10
99.42411104895221
 20
190.8871315727102
 30
0.0
  0
SPLINE
  5
DD
330
1F
100
AcDbEntity
  8
0
  6
Continuous
 62
     7
370
    25
100
AcDbSpline
210
0.0
220
0.0
230
1.0
 70
     8
 71
     3
 72
     8
 73
     4
 74
     0
 42
0.00000001
 43
0.0000000001
 40
0.0
 40
0.0
 40
0.0
 40
0.0
 40
1.0
 40
1.0
 40
1.0
 40
1.0
 10
99.42411104895221
 20
190.8871315727102
 30
0.0
 10
99.58979490349523
 20
190.8900235951488
 30
0.0
 10
99.72178828087724
 20
191.0267067386475
 30
0.0
 10
99.71889625843862
 20
191.1923905931905
 30
0.0
  0
LINE
  5
DE
330
1F
100
AcDbEntity
  8
0
  6
Continuous
 62
     7
370
    25
100
AcDbLine
 10
99.71889625840001
 20
191.1923905932
 30
0.0
 11
99.71340081459999
 21
191.5072243625
 31
0.0
  0
LINE
  5
DF
330
1F
100
AcDbEntity
  8
0
  6
Continuous
 62
     7
370
    25
100
AcDbLine
 10
99.71340081459999
 20
191.5072243625
 30
0.0
 11
101.6056757728
 21
191.5402541448
 31
0.0
  0
SPLINE
  5
E0
330
1F
100
AcDbEntity
  8
0
  6
Continuous
 62
     7
370
    25
100
AcDbSpline
210
0.0
220
0.0
230
1.0
 70
     8
 71
     3
 72
     8
 73
     4
 74
     0
 42
0.00000001
 43
0.0000000001
 40
0.0
 40
0.0
 40
0.0
 40
0.0
 40
1.0
 40
1.0
 40
1.0
 40
1.0
 10
101.6056757728322
 20
191.5402541447889
 30
0.0
 10
102.1771300653206
 20
191.5502289165678
 30
0.0
 10
102.6480815900687
 20
191.9684782181291
 30
0.0
 10
102.7252024809112
 20
192.5345615305237
 30
0.0
  0
LINE
  5
E1
330
1F
100
AcDbEntity
  8
0
  6
Continuous
 62
     7
370
    25
100
AcDbLine
 10
102.7252024809
 20
192.5345615305
 30
0.0
 11
102.7769801954
 21
192.9141389816
 31
0.0
  0
SPLINE
  5
E2
330
1F
100
AcDbEntity
  8
0
  6
Continuous
 62
     7
370
    25
100
AcDbSpline
210
0.0
220
0.0
230
1.0
 70
     8
 71
     3
 72
     8
 73
     4
 74
     0
 42
0.00000001
 43
0.0000000001
 40
0.0
 40
0.0
 40
0.0
 40
0.0
 40
1.0
 40
1.0
 40
1.0
 40
1.0
 10
102.7769801954331
 20
192.9141389815552
 30
0.0
 10
102.7791208315496
 20
192.9296816377122
 30
0.0
 10
102.780055867893
 20
192.9452032500469
 30
0.0
 10
102.7797913169839
 20
192.9603593614812
 30
0.0
  0
SPLINE
  5
E3
330
1F
100
AcDbEntity
  8
0
  6
Continuous
 62
     7
370
    25
100
AcDbSpline
210
0.0
220
0.0
230
1.0
 70
     8
 71
     3
 72
     8
 73
     4
 74
     0
 42
0.00000001
 43
0.0000000001
 40
0.0
 40
0.0
 40
0.0
 40
0.0
 40
1.0
 40
1.0
 40
1.0
 40
1.0
 10
102.7797913169839
 20
192.9603593614812
 30
0.0
 10
102.7772540332643
 20
193.105720248419
 30
0.0
 10
102.6689306080586
 20
193.2316619680125
 30
0.0
 10
102.5202389970728
 20
193.2521522020968
 30
0.0
  0
SPLINE
  5
E4
330
1F
100
AcDbEntity
  8
0
  6
Continuous
 62
     7
370
    25
100
AcDbSpline
210
0.0
220
0.0
230
1.0
 70
     8
 71
     3
 72
     8
 73
     4
 74
     0
 42
0.00000001
 43
0.0000000001
 40
0.0
 40
0.0
 40
0.0
 40
0.0
 40
1.0
 40
1.0
 40
1.0
 40
1.0
 10
100.627274947443
 20
213.3933446487015
 30
0.0
 10
100.4787028045507
 20
213.4662103962117
 30
0.0
 10
100.4173329850121
 20
213.6460342461971
 30
0.0
 10
100.4910508564365
 20
213.7951381060082
 30
0.0
  0
SPLINE
  5
E5
330
1F
100
AcDbEntity
  8
0
  6
Continuous
 62
     7
370
    25
100
AcDbSpline
210
0.0
220
0.0
230
1.0
 70
     8
 71
     3
 72
     8
 73
     4
 74
     0
 42
0.00000001
 43
0.0000000001
 40
0.0
 40
0.0
 40
0.0
 40
0.0
 40
1.0
 40
1.0
 40
1.0
 40
1.0
 10
101.8286263836682
 20
211.9502702633392
 30
0.0
 10
101.74589343045
 20
212.1893304491086
 30
0.0
 10
101.4137919141672
 20
213.0053140299517
 30
0.0
 10
100.627274947443
 20
213.3933446487015
 30
0.0
  0
SPLINE
  5
E6
330
1F
100
AcDbEntity
  8
0
  6
Continuous
 62
     7
370
    25
100
AcDbSpline
210
0.0
220
0.0
230
1.0
 70
     8
 71
     3
 72
     8
 73
     4
 74
     0
 42
0.00000001
 43
0.0000000001
 40
0.0
 40
0.0
 40
0.0
 40
0.0
 40
1.0
 40
1.0
 40
1.0
 40
1.0
 10
99.72002461388271
 20
210.2261442363668
 30
0.0
 10
101.2750760927488
 20
210.2532877608972
 30
0.0
 10
101.7381707503538
 20
211.6151553122597
 30
0.0
 10
101.8286263836682
 20
211.9502702633392
 30
0.0
  0
SPLINE
  5
E7
330
1F
100
AcDbEntity
  8
0
  6
Continuous
 62
     7
370
    25
100
AcDbSpline
210
0.0
220
0.0
230
1.0
 70
     8
 71
     3
 72
     8
 73
     4
 74
     0
 42
0.00000001
 43
0.0000000001
 40
0.0
 40
0.0
 40
0.0
 40
0.0
 40
1.0
 40
1.0
 40
1.0
 40
1.0
 10
97.49555048583465
 20
211.8832501928784
 30
0.0
 10
97.60604346991902
 20
211.5540547471518
 30
0.0
 10
98.15618947952629
 20
210.1988473925596
 30
0.0
 10
99.72002461388271
 20
210.2261442363668
 30
0.0
  0
SPLINE
  5
E8
330
1F
100
AcDbEntity
  8
0
  6
Continuous
 62
     7
370
    25
100
AcDbSpline
210
0.0
220
0.0
230
1.0
 70
     8
 71
     3
 72
     8
 73
     4
 74
     0
 42
0.00000001
 43
0.0000000001
 40
0.0
 40
0.0
 40
0.0
 40
0.0
 40
1.0
 40
1.0
 40
1.0
 40
1.0
 10
98.77609142082377
 20
213.444071568555
 30
0.0
 10
97.87870338568765
 20
213.0676511598768
 30
0.0
 10
97.56699388104832
 20
212.1429187622236
 30
0.0
 10
97.49555048583465
 20
211.8832501928784
 30
0.0
  0
SPLINE
  5
E9
330
1F
100
AcDbEntity
  8
0
  6
Continuous
 62
     7
370
    25
100
AcDbSpline
210
0.0
220
0.0
230
1.0
 70
     8
 71
     3
 72
     8
 73
     4
 74
     0
 42
0.00000001
 43
0.0000000001
 40
0.0
 40
0.0
 40
0.0
 40
0.0
 40
1.0
 40
1.0
 40
1.0
 40
1.0
 10
98.9365191588282
 20
213.8369160596915
 30
0.0
 10
99.00119700457235
 20
213.6847149136776
 30
0.0
 10
98.92898749351445
 20
213.5084169822624
 30
0.0
 10
98.77609142082377
 20
213.444071568555
 30
0.0
  0
SPLINE
  5
EA
330
1F
100
AcDbEntity
  8
0
  6
Continuous
 62
     7
370
    25
100
AcDbSpline
210
0.0
220
0.0
230
1.0
 70
     8
 71
     3
 72
     8
 73
     4
 74
     0
 42
0.00000001
 43
0.0000000001
 40
0.0
 40
0.0
 40
0.0
 40
0.0
 40
1.0
 40
1.0
 40
1.0
 40
1.0
 10
98.54384388997036
 20
213.9975190324954
 30
0.0
 10
98.69674597518173
 20
214.0615199891247
 30
0.0
 10
98.87251820219885
 20
213.9898181449029
 30
0.0
 10
98.9365191588282
 20
213.8369160596915
 30
0.0
  0
SPLINE
  5
EB
330
1F
100
AcDbEntity
  8
0
  6
Continuous
 62
     7
370
    25
100
AcDbSpline
210
0.0
220
0.0
230
1.0
 70
     8
 71
     3
 72
     8
 73
     4
 74
     0
 42
0.00000001
 43
0.0000000001
 40
0.0
 40
0.0
 40
0.0
 40
0.0
 40
1.0
 40
1.0
 40
1.0
 40
1.0
 10
96.89046875827177
 20
211.9343650548683
 30
0.0
 10
96.90283836815856
 20
211.9955684459893
 30
0.0
 10
97.2108501389521
 20
213.438113026025
 30
0.0
 10
98.54384388997036
 20
213.9975190324954
 30
0.0
  0
LINE
  5
EC
330
1F
100
AcDbEntity
  8
0
  6
Continuous
 62
     7
370
    25
100
AcDbLine
 10
96.876348935
 20
211.864861625
 30
0.0
 11
96.89046875830001
 21
211.9343650549
 31
0.0
  0
LINE
  5
ED
330
1F
100
AcDbEntity
  8
0
  6
Continuous
 62
     7
370
    25
100
AcDbLine
 10
96.894774293
 20
211.7962708354
 30
0.0
 11
96.876348935
 21
211.864861625
 31
0.0
  0
SPLINE
  5
EE
330
1F
100
AcDbEntity
  8
0
  6
Continuous
 62
     7
370
    25
100
AcDbSpline
210
0.0
220
0.0
230
1.0
 70
     8
 71
     3
 72
     8
 73
     4
 74
     0
 42
0.00000001
 43
0.0000000001
 40
0.0
 40
0.0
 40
0.0
 40
0.0
 40
1.0
 40
1.0
 40
1.0
 40
1.0
 10
99.73049842487656
 20
209.6261000064002
 30
0.0
 10
97.95775007268156
 20
209.5951565688112
 30
0.0
 10
97.10037723857549
 20
211.0321754520626
 30
0.0
 10
96.89477429298664
 20
211.796270835433
 30
0.0
  0
SPLINE
  5
EF
330
1F
100
AcDbEntity
  8
0
  6
Continuous
 62
     7
370
    25
100
AcDbSpline
210
0.0
220
0.0
230
1.0
 70
     8
 71
     3
 72
     8
 73
     4
 74
     0
 42
0.00000001
 43
0.0000000001
 40
0.0
 40
0.0
 40
0.0
 40
0.0
 40
1.0
 40
1.0
 40
1.0
 40
1.0
 10
102.4338502771668
 20
211.900880693
 30
0.0
 10
102.276271334115
 20
211.1276894499667
 30
0.0
 10
101.5085858617814
 20
209.6571366380593
 30
0.0
 10
99.73049842487656
 20
209.6261000064002
 30
0.0
  0
LINE
  5
F0
330
1F
100
AcDbEntity
  8
0
  6
Continuous
 62
     7
370
    25
100
AcDbLine
 10
102.4479701005
 20
211.9703841229
 30
0.0
 11
102.4338502772
 21
211.900880693
 31
0.0
  0
LINE
  5
F1
330
1F
100
AcDbEntity
  8
0
  6
Continuous
 62
     7
370
    25
100
AcDbLine
 10
102.4295447425
 20
212.0389749124
 30
0.0
 11
102.4479701005
 21
211.9703841229
 31
0.0
  0
SPLINE
  5
F2
330
1F
100
AcDbEntity
  8
0
  6
Continuous
 62
     7
370
    25
100
AcDbSpline
210
0.0
220
0.0
230
1.0
 70
     8
 71
     3
 72
     8
 73
     4
 74
     0
 42
0.00000001
 43
0.0000000001
 40
0.0
 40
0.0
 40
0.0
 40
0.0
 40
1.0
 40
1.0
 40
1.0
 40
1.0
 10
100.8928443137432
 20
213.9313621970147
 30
0.0
 10
102.0642746311876
 20
213.3536499104088
 30
0.0
 10
102.4151789757052
 20
212.0921312712275
 30
0.0
 10
102.4295447424519
 20
212.0389749124352
 30
0.0
  0
SPLINE
  5
F3
330
1F
100
AcDbEntity
  8
0
  6
Continuous
 62
     7
370
    25
100
AcDbSpline
210
0.0
220
0.0
230
1.0
 70
     8
 71
     3
 72
     8
 73
     4
 74
     0
 42
0.00000001
 43
0.0000000001
 40
0.0
 40
0.0
 40
0.0
 40
0.0
 40
1.0
 40
1.0
 40
1.0
 40
1.0
 10
100.4910508564365
 20
213.7951381060082
 30
0.0
 10
100.5642640672851
 20
213.9435440328821
 30
0.0
 10
100.7442661583302
 20
214.004572401603
 30
0.0
 10
100.8928443137432
 20
213.9313621970147
 30
0.0
  0
LINE
  5
F4
330
1F
100
AcDbEntity
  8
0
  6
Continuous
 62
     7
370
    25
100
AcDbLine
 10
98.79092273219999
 20
216.354845892
 30
0.0
 11
98.80405127190002
 21
216.4219200848
 31
0.0
  0
LINE
  5
F5
330
1F
100
AcDbEntity
  8
0
  6
Continuous
 62
     7
370
    25
100
AcDbLine
 10
98.80810040280001
 20
216.2886452582
 30
0.0
 11
98.79092273219999
 21
216.354845892
 31
0.0
  0
SPLINE
  5
F6
330
1F
100
AcDbEntity
  8
0
  6
Continuous
 62
     7
370
    25
100
AcDbSpline
210
0.0
220
0.0
230
1.0
 70
     8
 71
     3
 72
     8
 73
     4
 74
     0
 42
0.00000001
 43
0.0000000001
 40
0.0
 40
0.0
 40
0.0
 40
0.0
 40
1.0
 40
1.0
 40
1.0
 40
1.0
 10
100.6243137358436
 20
214.8559587651359
 30
0.0
 10
99.4879498353498
 20
214.8361234594707
 30
0.0
 10
98.939393299396
 20
215.7844308045528
 30
0.0
 10
98.80810040277477
 20
216.2886452581938
 30
0.0
  0
SPLINE
  5
F7
330
1F
100
AcDbEntity
  8
0
  6
Continuous
 62
     7
370
    25
100
AcDbSpline
210
0.0
220
0.0
230
1.0
 70
     8
 71
     3
 72
     8
 73
     4
 74
     0
 42
0.00000001
 43
0.0000000001
 40
0.0
 40
0.0
 40
0.0
 40
0.0
 40
1.0
 40
1.0
 40
1.0
 40
1.0
 10
102.3570756185091
 20
216.3585177776339
 30
0.0
 10
102.2569414588446
 20
215.8475072534833
 30
0.0
 10
101.7658444925082
 20
214.8758842586111
 30
0.0
 10
100.6243137358436
 20
214.8559587651359
 30
0.0
  0
LINE
  5
F8
330
1F
100
AcDbEntity
  8
0
  6
Continuous
 62
     7
370
    25
100
AcDbLine
 10
102.3702041582
 20
216.4255919704
 30
0.0
 11
102.3570756185
 21
216.3585177776
 31
0.0
  0
LINE
  5
F9
330
1F
100
AcDbEntity
  8
0
  6
Continuous
 62
     7
370
    25
100
AcDbLine
 10
102.3530264876
 20
216.4917926042
 30
0.0
 11
102.3702041582
 21
216.4255919704
 31
0.0
  0
SPLINE
  5
FA
330
1F
100
AcDbEntity
  8
0
  6
Continuous
 62
     7
370
    25
100
AcDbSpline
210
0.0
220
0.0
230
1.0
 70
     8
 71
     3
 72
     8
 73
     4
 74
     0
 42
0.00000001
 43
0.0000000001
 40
0.0
 40
0.0
 40
0.0
 40
0.0
 40
1.0
 40
1.0
 40
1.0
 40
1.0
 10
100.5368131545536
 20
217.9244790972946
 30
0.0
 10
101.6731770550474
 20
217.9443144029598
 30
0.0
 10
102.2217335910013
 20
216.9960070578778
 30
0.0
 10
102.3530264876225
 20
216.4917926042367
 30
0.0
  0
SPLINE
  5
FB
330
1F
100
AcDbEntity
  8
0
  6
Continuous
 62
     7
370
    25
100
AcDbSpline
210
0.0
220
0.0
230
1.0
 70
     8
 71
     3
 72
     8
 73
     4
 74
     0
 42
0.00000001
 43
0.0000000001
 40
0.0
 40
0.0
 40
0.0
 40
0.0
 40
1.0
 40
1.0
 40
1.0
 40
1.0
 10
98.80405127188815
 20
216.4219200847967
 30
0.0
 10
98.90418543155263
 20
216.9329306089473
 30
0.0
 10
99.39528239788906
 20
217.9045536038195
 30
0.0
 10
100.5368131545536
 20
217.9244790972946
 30
0.0
  0
SPLINE
  5
FC
330
1F
100
AcDbEntity
  8
0
  6
Continuous
 62
     7
370
    25
100
AcDbSpline
210
0.0
220
0.0
230
1.0
 70
     8
 71
     3
 72
     8
 73
     4
 74
     0
 42
0.00000001
 43
0.0000000001
 40
0.0
 40
0.0
 40
0.0
 40
0.0
 40
1.0
 40
1.0
 40
1.0
 40
1.0
 10
96.78560058528423
 20
218.9884757628137
 30
0.0
 10
96.78270856284566
 20
219.1541596173568
 30
0.0
 10
96.91470194022762
 20
219.2908427608554
 30
0.0
 10
97.08038579477067
 20
219.293734783294
 30
0.0
  0
SPLINE
  5
FD
330
1F
100
AcDbEntity
  8
0
  6
Continuous
 62
     7
370
    25
100
AcDbSpline
210
0.0
220
0.0
230
1.0
 70
     8
 71
     3
 72
     8
 73
     4
 74
     0
 42
0.00000001
 43
0.0000000001
 40
0.0
 40
0.0
 40
0.0
 40
0.0
 40
1.0
 40
1.0
 40
1.0
 40
1.0
 10
97.09085960576452
 20
218.6936905533273
 30
0.0
 10
96.92517575122149
 20
218.6907985308887
 30
0.0
 10
96.78849260772283
 20
218.8227919082707
 30
0.0
 10
96.78560058528423
 20
218.9884757628137
 30
0.0
  0
LINE
  5
FE
330
1F
100
AcDbEntity
  8
0
  6
Continuous
 62
     7
370
    25
100
AcDbLine
 10
102.0289962767
 20
218.7798860495
 30
0.0
 11
97.09085960580001
 21
218.6936905533
 31
0.0
  0
SPLINE
  5
FF
330
1F
100
AcDbEntity
  8
0
  6
Continuous
 62
     7
370
    25
100
AcDbSpline
210
0.0
220
0.0
230
1.0
 70
     8
 71
     3
 72
     8
 73
     4
 74
     0
 42
0.00000001
 43
0.0000000001
 40
0.0
 40
0.0
 40
0.0
 40
0.0
 40
1.0
 40
1.0
 40
1.0
 40
1.0
 10
102.3237814862055
 20
219.0851450700235
 30
0.0
 10
102.3266735086441
 20
218.9194612154805
 30
0.0
 10
102.1946801312621
 20
218.7827780719818
 30
0.0
 10
102.0289962767191
 20
218.7798860495432
 30
0.0
  0
SPLINE
  5
100
330
1F
100
AcDbEntity
  8
0
  6
Continuous
 62
     7
370
    25
100
AcDbSpline
210
0.0
220
0.0
230
1.0
 70
     8
 71
     3
 72
     8
 73
     4
 74
     0
 42
0.00000001
 43
0.0000000001
 40
0.0
 40
0.0
 40
0.0
 40
0.0
 40
1.0
 40
1.0
 40
1.0
 40
1.0
 10
102.0185224657252
 20
219.37993027951
 30
0.0
 10
102.1842063202682
 20
219.3828223019486
 30
0.0
 10
102.3208894637669
 20
219.2508289245666
 30
0.0
 10
102.3237814862055
 20
219.0851450700235
 30
0.0
  0
LINE
  5
101
330
1F
100
AcDbEntity
  8
0
  6
Continuous
 62
     7
370
    25
100
AcDbLine
 10
97.0803857948
 20
219.2937347833
 30
0.0
 11
102.0185224657
 21
219.3799302795
 31
0.0
  0
LINE
  5
102
330
1F
100
AcDbEntity
  8
0
  6
Continuous
 62
     7
370
    25
100
AcDbLine
 10
99.26547156299999
 20
189.1679615827
 30
0.0
 11
99.27860010270002
 21
189.2350357755
 31
0.0
  0
LINE
  5
103
330
1F
100
AcDbEntity
  8
0
  6
Continuous
 62
     7
370
    25
100
AcDbLine
 10
99.28264923360002
 20
189.1017609489
 30
0.0
 11
99.26547156299999
 21
189.1679615827
 31
0.0
  0
SPLINE
  5
104
330
1F
100
AcDbEntity
  8
0
  6
Continuous
 62
     7
370
    25
100
AcDbSpline
210
0.0
220
0.0
230
1.0
 70
     8
 71
     3
 72
     8
 73
     4
 74
     0
 42
0.00000001
 43
0.0000000001
 40
0.0
 40
0.0
 40
0.0
 40
0.0
 40
1.0
 40
1.0
 40
1.0
 40
1.0
 10
101.0988625666587
 20
187.6690744558148
 30
0.0
 10
99.96249866616494
 20
187.6492391501497
 30
0.0
 10
99.41394213021112
 20
188.5975464952317
 30
0.0
 10
99.28264923358993
 20
189.1017609488728
 30
0.0
  0
SPLINE
  5
105
330
1F
100
AcDbEntity
  8
0
  6
Continuous
 62
     7
370
    25
100
AcDbSpline
210
0.0
220
0.0
230
1.0
 70
     8
 71
     3
 72
     8
 73
     4
 74
     0
 42
0.00000001
 43
0.0000000001
 40
0.0
 40
0.0
 40
0.0
 40
0.0
 40
1.0
 40
1.0
 40
1.0
 40
1.0
 10
102.8316244493242
 20
189.1716334683129
 30
0.0
 10
102.7314902896597
 20
188.6606229441622
 30
0.0
 10
102.2403933233233
 20
187.68899994929
 30
0.0
 10
101.0988625666587
 20
187.6690744558148
 30
0.0
  0
LINE
  5
106
330
1F
100
AcDbEntity
  8
0
  6
Continuous
 62
     7
370
    25
100
AcDbLine
 10
102.8447529891
 20
189.2387076611
 30
0.0
 11
102.8316244493
 21
189.1716334683
 31
0.0
  0
LINE
  5
107
330
1F
100
AcDbEntity
  8
0
  6
Continuous
 62
     7
370
    25
100
AcDbLine
 10
102.8275753184
 20
189.3049082949
 30
0.0
 11
102.8447529891
 21
189.2387076611
 31
0.0
  0
SPLINE
  5
108
330
1F
100
AcDbEntity
  8
0
  6
Continuous
 62
     7
370
    25
100
AcDbSpline
210
0.0
220
0.0
230
1.0
 70
     8
 71
     3
 72
     8
 73
     4
 74
     0
 42
0.00000001
 43
0.0000000001
 40
0.0
 40
0.0
 40
0.0
 40
0.0
 40
1.0
 40
1.0
 40
1.0
 40
1.0
 10
101.0113619853688
 20
190.7375947879735
 30
0.0
 10
102.1477258858626
 20
190.7574300936388
 30
0.0
 10
102.6962824218164
 20
189.8091227485568
 30
0.0
 10
102.8275753184376
 20
189.3049082949157
 30
0.0
  0
SPLINE
  5
109
330
1F
100
AcDbEntity
  8
0
  6
Continuous
 62
     7
370
    25
100
AcDbSpline
210
0.0
220
0.0
230
1.0
 70
     8
 71
     3
 72
     8
 73
     4
 74
     0
 42
0.00000001
 43
0.0000000001
 40
0.0
 40
0.0
 40
0.0
 40
0.0
 40
1.0
 40
1.0
 40
1.0
 40
1.0
 10
99.27860010270331
 20
189.2350357754756
 30
0.0
 10
99.3787342623678
 20
189.7460462996262
 30
0.0
 10
99.8698312287042
 20
190.7176692944984
 30
0.0
 10
101.0113619853688
 20
190.7375947879735
 30
0.0
  0
SPLINE
  5
10A
330
1F
100
AcDbEntity
  8
0
  6
Continuous
 62
     7
370
    25
100
AcDbSpline
210
0.0
220
0.0
230
1.0
 70
     8
 71
     3
 72
    10
 73
     6
 74
     0
 42
0.00000001
 43
0.0000000001
 40
0.0
 40
0.0
 40
0.0
 40
0.0
 40
0.5
 40
0.5
 40
1.0
 40
1.0
 40
1.0
 40
1.0
 10
99.54889742486988
 20
221.8355866338094
 30
0.0
 10
99.60892641866234
 20
222.0385477916101
 30
0.0
 10
99.84890897853631
 20
222.6408963816301
 30
0.0
 10
101.2976954488233
 20
222.6661850435361
 30
0.0
 10
101.5821268747611
 20
222.064376083013
 30
0.0
 10
101.6567866110077
 20
221.8634213637132
 30
0.0
  0
SPLINE
  5
10B
330
1F
100
AcDbEntity
  8
0
  6
Continuous
 62
     7
370
    25
100
AcDbSpline
210
0.0
220
0.0
230
1.0
 70
     8
 71
     3
 72
    13
 73
     9
 74
     0
 42
0.00000001
 43
0.0000000001
 40
0.0
 40
0.0
 40
0.0
 40
0.0
 40
0.2499999999999999
 40
0.3749999999999999
 40
0.3749999999999999
 40
0.5
 40
0.5
 40
1.0
 40
1.0
 40
1.0
 40
1.0
 10
101.6567866110077
 20
221.8634213637132
 30
0.0
 10
101.6270686666042
 20
221.7498862902112
 30
0.0
 10
101.5140955837023
 20
221.4007250252676
 30
0.0
 10
101.2151689112284
 20
221.1118896223241
 30
0.0
 10
100.9652992941047
 20
220.969251083477
 30
0.0
 10
100.8169664150682
 20
220.9229240811412
 30
0.0
 10
99.90673858631556
 20
220.9070359952909
 30
0.0
 10
99.62120434337643
 20
221.6115051901149
 30
0.0
 10
99.54889742486988
 20
221.8355866338094
 30
0.0
  0
SPLINE
  5
10C
330
1F
100
AcDbEntity
  8
0
  6
Continuous
 62
     7
370
    25
100
AcDbSpline
210
0.0
220
0.0
230
1.0
 70
     8
 71
     3
 72
    10
 73
     6
 74
     0
 42
0.00000001
 43
0.0000000001
 40
0.0
 40
0.0
 40
0.0
 40
0.0
 40
0.5
 40
0.5
 40
1.0
 40
1.0
 40
1.0
 40
1.0
 10
99.40957753482017
 20
216.3749477265245
 30
0.0
 10
99.48861940391068
 20
216.1499501557487
 30
0.0
 10
99.80161013480291
 20
215.4418254713807
 30
0.0
 10
101.4260697148965
 20
215.4701805188245
 30
0.0
 10
101.6883244389115
 20
216.1783538511748
 30
0.0
 10
101.7515433430564
 20
216.4058345929841
 30
0.0
  0
SPLINE
  5
10D
330
1F
100
AcDbEntity
  8
0
  6
Continuous
 62
     7
370
    25
100
AcDbSpline
210
0.0
220
0.0
230
1.0
 70
     8
 71
     3
 72
    10
 73
     6
 74
     0
 42
0.00000001
 43
0.0000000001
 40
0.0
 40
0.0
 40
0.0
 40
0.0
 40
0.5
 40
0.5
 40
1.0
 40
1.0
 40
1.0
 40
1.0
 10
101.7515433430564
 20
216.4058345929841
 30
0.0
 10
101.6732204507253
 20
216.629121903411
 30
0.0
 10
101.3593445270553
 20
217.3386093847895
 30
0.0
 10
99.73522940403974
 20
217.3102603498663
 30
0.0
 10
99.4729686675042
 20
216.6024314745941
 30
0.0
 10
99.40957753482017
 20
216.3749477265245
 30
0.0
  0
ARC
  5
10E
330
1F
100
AcDbEntity
  8
0
  6
Continuous
 62
     7
370
    25
100
AcDbCircle
 10
99.81878380339999
 20
203.030317817
 30
0.0
 40
22.50000000000001
100
AcDbArc
 50
180.0478460453
 51
0.0478460453
  0
SPLINE
  5
10F
330
1F
100
AcDbEntity
  8
0
  6
Continuous
 62
     7
370
    25
100
AcDbSpline
210
0.0
220
0.0
230
1.0
 70
     8
 71
     3
 72
    10
 73
     6
 74
     0
 42
0.00000001
 43
0.0000000001
 40
0.0
 40
0.0
 40
0.0
 40
0.0
 40
0.5
 40
0.5
 40
1.0
 40
1.0
 40
1.0
 40
1.0
 10
99.88412636563532
 20
189.1880634172034
 30
0.0
 10
99.96316823472584
 20
188.9630658464276
 30
0.0
 10
100.2761589656181
 20
188.2549411620597
 30
0.0
 10
101.9006185457117
 20
188.2832962095035
 30
0.0
 10
102.1628732697266
 20
188.9914695418537
 30
0.0
 10
102.2260921738715
 20
189.2189502836631
 30
0.0
  0
SPLINE
  5
110
330
1F
100
AcDbEntity
  8
0
  6
Continuous
 62
     7
370
    25
100
AcDbSpline
210
0.0
220
0.0
230
1.0
 70
     8
 71
     3
 72
    10
 73
     6
 74
     0
 42
0.00000001
 43
0.0000000001
 40
0.0
 40
0.0
 40
0.0
 40
0.0
 40
0.5
 40
0.5
 40
1.0
 40
1.0
 40
1.0
 40
1.0
 10
102.2260921738715
 20
189.2189502836631
 30
0.0
 10
102.1477692815404
 20
189.44223759409
 30
0.0
 10
101.8338933578704
 20
190.1517250754684
 30
0.0
 10
100.2097782348549
 20
190.1233760405453
 30
0.0
 10
99.9475174983193
 20
189.4155471652731
 30
0.0
 10
99.88412636563532
 20
189.1880634172034
 30
0.0
  0
ARC
  5
111
330
1F
100
AcDbEntity
  8
0
  6
Continuous
 62
     7
370
    25
100
AcDbCircle
 10
99.81885895979999
 20
202.9403178484
 30
0.0
 40
22.50000000000004
100
AcDbArc
 50
206.3020350415
 51
350.0403058675
  0
ARC
  5
112
330
1F
100
AcDbEntity
  8
0
  6
Continuous
 62
     7
370
    25
100
AcDbCircle
 10
99.81885895979999
 20
202.9403178484
 30
0.0
 40
22.50000000000004
100
AcDbArc
 50
179.9332546579
 51
206.3020350415
  0
ARC
  5
113
330
1F
100
AcDbEntity
  8
0
  6
Continuous
 62
     7
370
    25
100
AcDbCircle
 10
99.81885895979999
 20
202.9403178484
 30
0.0
 40
32.0
100
AcDbArc
 50
171.6749519799
 51
351.6749519799
  0
ARC
  5
114
330
1F
100
AcDbEntity
  8
0
  6
Continuous
 62
     7
370
    25
100
AcDbCircle
 10
99.81885895979999
 20
202.9403178484
 30
0.0
 40
23.15
100
AcDbArc
 50
10.2239275522
 51
171.6749519799
  0
ARC
  5
115
330
1F
100
AcDbEntity
  8
0
  6
Continuous
 62
     7
370
    25
100
AcDbCircle
 10
99.81885895979999
 20
202.9403178484
 30
0.0
 40
23.15000000000002
100
AcDbArc
 50
171.6749519799
 51
350.3240650335
  0
LINE
  5
116
330
1F
100
AcDbEntity
  8
0
  6
Continuous
 62
     7
370
    25
100
AcDbLine
 10
131.4816617199
 20
198.3070769332
 30
0.0
 11
131.5823381384
 21
199.0568412524
 31
0.0
  0
ARC
  5
117
330
1F
100
AcDbEntity
  8
0
  6
Continuous
 62
     7
370
    25
100
AcDbCircle
 10
99.81885895979999
 20
202.9403178484
 30
0.0
 40
32.0
100
AcDbArc
 50
7.3910493264
 51
171.6749519799
  0
ARC
  5
118
330
1F
100
AcDbEntity
  8
0
  6
Continuous
 62
     7
370
    25
100
AcDbCircle
 10
99.81885895979999
 20
202.9403178484
 30
0.0
 40
22.65000000000001
100
AcDbArc
 50
10.4510386746
 51
171.6749519799
  0
ARC
  5
119
330
1F
100
AcDbEntity
  8
0
  6
Continuous
 62
     7
370
    25
100
AcDbCircle
 10
99.81885895979999
 20
202.9403178484
 30
0.0
 40
22.65000000000001
100
AcDbArc
 50
171.6749519799
 51
180.0
  0
ARC
  5
11A
330
1F
100
AcDbEntity
  8
0
  6
Continuous
 62
     7
370
    25
100
AcDbCircle
 10
99.81885895979999
 20
202.9403178484
 30
0.0
 40
22.65000000000001
100
AcDbArc
 50
180.0
 51
350.1072563749
  0
DIMENSION
  5
11B
102
{ACAD_XDICTIONARY
360
2DF
102
}
330
1F
100
AcDbEntity
  8
DIMENSION
100
AcDbDimension
280
     0
  2
*D21
 10
77.13381465421093
 20
244.905966772966
 30
0.0
 11
118.2693186287999
 21
244.9403178484
 31
0.0
 70
   160
  1
<>
 71
     2
 42
84.34999210262677
 73
     0
 74
     0
 75
     0
  3
RG Dimension Lines
100
AcDbAlignedDimension
 13
161.5154220067
 23
207.0818402986
 33
0.0
 14
77.16885895979999
 24
202.9403178484
 34
0.0
 50
0.0478460453
100
AcDbRotatedDimension
1001
AcadAnnotative
1000
AnnotativeData
1002
{
1070
     1
1070
     1
1002
}
1001
ACAD
1000
DSTYLE
1002
{
1070
    45
1040
5.0
1002
}
  0
LINE
  5
123
330
1F
100
AcDbEntity
  8
DIMENSION
100
AcDbLine
 10
240.0158025734
 20
121.4567299677
 30
0.0
 11
239.9782243817
 21
121.4567299677
 31
0.0
  0
LINE
  5
124
330
1F
100
AcDbEntity
  8
DIMENSION
100
AcDbLine
 10
239.9782243817
 20
113.4567299677
 30
0.0
 11
240.0158025734
 21
113.4567299677
 31
0.0
  0
LINE
  5
125
330
1F
100
AcDbEntity
  8
DIMENSION
100
AcDbLine
 10
217.4642786972
 20
127.6567299677
 30
0.0
 11
217.4642786972
 21
98.22696267459999
 31
0.0
  0
LINE
  5
126
330
1F
100
AcDbEntity
  8
DIMENSION
100
AcDbLine
 10
262.4642786972
 20
98.2124392466
 30
0.0
 11
262.4642786972
 21
127.6567299677
 31
0.0
  0
ARC
  5
127
330
1F
100
AcDbEntity
  8
DIMENSION
100
AcDbCircle
 10
217.6642786972
 20
127.6567299677
 30
0.0
 40
0.2000000000000028
100
AcDbArc
 50
90.0
 51
180.0
  0
ARC
  5
128
330
1F
100
AcDbEntity
  8
DIMENSION
100
AcDbCircle
 10
262.2642786972
 20
127.6567299677
 30
0.0
 40
0.2000000000000028
100
AcDbArc
 50
0.0
 51
90.0
  0
LINE
  5
129
330
1F
100
AcDbEntity
  8
DIMENSION
100
AcDbLine
 10
217.3742787286
 20
96.5567299677
 30
0.0
 11
217.3742787286
 21
86.35672996770001
 31
0.0
  0
LINE
  5
12A
330
1F
100
AcDbEntity
  8
DIMENSION
100
AcDbLine
 10
217.3742787286
 20
81.5567299677
 30
0.0
 11
217.3742787286
 21
81.53285438430001
 31
0.0
  0
LINE
  5
12B
330
1F
100
AcDbEntity
  8
DIMENSION
100
AcDbLine
 10
262.3742787286
 20
81.53285438430001
 30
0.0
 11
262.3742787286
 21
81.5567299677
 31
0.0
  0
LINE
  5
12C
330
1F
100
AcDbEntity
  8
DIMENSION
100
AcDbLine
 10
262.3742787286
 20
86.35672996770001
 30
0.0
 11
262.3742787286
 21
96.5567299677
 31
0.0
  0
LWPOLYLINE
  5
12D
330
1F
100
AcDbEntity
  8
DIMENSION
100
AcDbPolyline
 90
        3
 70
   128
 43
0.0
 10
260.3164282494
 20
96.5567299677
 10
260.2679135086999
 20
97.0438002726
 10
260.1599641585
 20
97.85672996770001
  0
LWPOLYLINE
  5
12E
330
1F
100
AcDbEntity
  8
DIMENSION
100
AcDbPolyline
 90
        3
 70
   128
 43
0.0
 10
219.5885932987
 20
97.85672996770001
 10
219.4806439485
 20
97.0438002726
 10
219.4321292078
 20
96.5567299677
  0
LINE
  5
12F
330
1F
100
AcDbEntity
  8
DIMENSION
100
AcDbLine
 10
271.8742787286
 20
81.5567299677
 30
0.0
 11
271.8742787286
 21
86.35672996770001
 31
0.0
  0
LINE
  5
130
330
1F
100
AcDbEntity
  8
DIMENSION
100
AcDbLine
 10
207.8742787286
 20
86.35672996770001
 30
0.0
 11
207.8742787286
 21
81.5567299677
 31
0.0
  0
ARC
  5
131
330
1F
100
AcDbEntity
  8
DIMENSION
100
AcDbCircle
 10
240.0158035378
 20
117.4567297617
 30
0.0
 40
3.999999939104148
100
AcDbArc
 50
77.9388091843
 51
257.9387809344
  0
ARC
  5
132
330
1F
100
AcDbEntity
  8
DIMENSION
100
AcDbCircle
 10
240.0158016091
 20
117.4567301738
 30
0.0
 40
3.999999939104153
100
AcDbArc
 50
257.9388091843
 51
77.9387809344
  0
LWPOLYLINE
  5
133
330
1F
100
AcDbEntity
  8
DIMENSION
100
AcDbPolyline
 90
        3
 70
   128
 43
0.0
 10
239.1423985689
 20
113.5450302447
 10
238.5687256646
 20
113.7132941153
 10
238.107447341
 20
113.9211690754
  0
ARC
  5
134
330
1F
100
AcDbEntity
  8
DIMENSION
100
AcDbCircle
 10
239.9782244335
 20
117.4567323621
 30
0.0
 40
3.999997605590935
100
AcDbArc
 50
90.00000074129998
 51
122.3614292179
  0
LWPOLYLINE
  5
135
330
1F
100
AcDbEntity
  8
DIMENSION
100
AcDbPolyline
 90
        3
 70
   128
 43
0.0
 10
239.9782243817
 20
113.4567299677
 10
239.7347424407
 20
113.4641472819
 10
239.1423985689
 20
113.5450302447
  0
SPLINE
  5
136
330
1F
100
AcDbEntity
  8
DIMENSION
100
AcDbSpline
210
0.0
220
0.0
230
1.0
 70
     8
 71
     3
 72
    23
 73
    19
 74
     0
 42
0.00000001
 43
0.0000000001
 40
0.0
 40
0.0
 40
0.0
 40
0.0
 40
0.0312247288263603
 40
0.0623825065427624
 40
0.0935486546042793
 40
0.1247984339410526
 40
0.1874022066662336
 40
0.2500768084237026
 40
0.3123518808896162
 40
0.3746879664928471
 40
0.4997827643396279
 40
0.6244716009069006
 40
0.6869655343402769
 40
0.7493612427968426
 40
0.8120731199723389
 40
0.8746981292105054
 40
0.9373666856093093
 40
1.0
 40
1.0
 40
1.0
 40
1.0
 10
239.9830677930811
 20
121.5567299788239
 30
0.0
 10
240.0502034012077
 20
121.5557862086488
 30
0.0
 10
240.1843306673405
 20
121.5539006919018
 30
0.0
 10
240.384965943885
 20
121.5385713482291
 30
0.0
 10
240.5846557565473
 20
121.5140740965837
 30
0.0
 10
240.8494241739901
 20
121.4680552155837
 30
0.0
 10
241.1761505794873
 20
121.3863257656873
 30
0.0
 10
241.555635820937
 20
121.2502164866226
 30
0.0
 10
241.9192866002395
 20
121.0782064983845
 30
0.0
 10
242.3787894514327
 20
120.8027024997298
 30
0.0
 10
242.8990661843689
 20
120.3761937233662
 30
0.0
 10
243.3262293964555
 20
119.8560926484361
 30
0.0
 10
243.6021259165517
 20
119.3971545665886
 30
0.0
 10
243.7747243711964
 20
119.0330679673254
 30
0.0
 10
243.9114355775344
 20
118.6533274342983
 30
0.0
 10
244.0093419388147
 20
118.2610445706077
 30
0.0
 10
244.0713247268193
 20
117.8609396290941
 30
0.0
 10
244.078943479691
 20
117.5914412554379
 30
0.0
 10
244.0827517847137
 20
117.4567299677401
 30
0.0
  0
SPLINE
  5
137
330
1F
100
AcDbEntity
  8
DIMENSION
100
AcDbSpline
210
0.0
220
0.0
230
1.0
 70
     8
 71
     3
 72
    10
 73
     6
 74
     0
 42
0.00000001
 43
0.0000000001
 40
0.0
 40
0.0
 40
0.0
 40
0.0
 40
0.3808140409768617
 40
0.7661454755272806
 40
1.0
 40
1.0
 40
1.0
 40
1.0
 10
239.9813976512273
 20
121.5567299791644
 30
0.0
 10
240.2255129354777
 20
121.5403334297138
 30
0.0
 10
240.7166393132125
 20
121.5073458273038
 30
0.0
 10
241.3374806579112
 20
121.3082321327869
 30
0.0
 10
241.6729518992463
 20
121.0966405217757
 30
0.0
 10
241.7996528789333
 20
121.0167264751886
 30
0.0
  0
SPLINE
  5
138
330
1F
100
AcDbEntity
  8
DIMENSION
100
AcDbSpline
210
0.0
220
0.0
230
1.0
 70
     8
 71
     3
 72
    10
 73
     6
 74
     0
 42
0.00000001
 43
0.0000000001
 40
0.0
 40
0.0
 40
0.0
 40
0.0
 40
0.3033281456031556
 40
0.6532126220305067
 40
1.0
 40
1.0
 40
1.0
 40
1.0
 10
237.9957804723123
 20
120.9183920055912
 30
0.0
 10
238.175975160287
 20
121.0339210125129
 30
0.0
 10
238.5640217240962
 20
121.2827109999435
 30
0.0
 10
239.2441812165148
 20
121.5083980734626
 30
0.0
 10
239.7363882186976
 20
121.5406671620167
 30
0.0
 10
239.9813976512273
 20
121.5567299791644
 30
0.0
  0
SPLINE
  5
139
330
1F
100
AcDbEntity
  8
DIMENSION
100
AcDbSpline
210
0.0
220
0.0
230
1.0
 70
     8
 71
     3
 72
    23
 73
    19
 74
     0
 42
0.00000001
 43
0.0000000001
 40
0.0
 40
0.0
 40
0.0
 40
0.0
 40
0.0312257774439181
 40
0.0624025137195741
 40
0.0936083904710389
 40
0.1249213710403098
 40
0.1874215535546503
 40
0.249965733624661
 40
0.3125436138129588
 40
0.3752387227384847
 40
0.4998094904817939
 40
0.625043847360546
 40
0.6874050131351306
 40
0.7497268025335756
 40
0.8123618390304921
 40
0.8750014883998492
 40
0.9375401745796811
 40
1.0
 40
1.0
 40
1.0
 40
1.0
 10
235.8827549698782
 20
117.4550949614946
 30
0.0
 10
235.8836760752827
 20
117.5222500705421
 30
0.0
 10
235.8855168394635
 20
117.6564548192055
 30
0.0
 10
235.900823461605
 20
117.8572735973569
 30
0.0
 10
235.9253328700664
 20
118.0572790467657
 30
0.0
 10
235.9713336137233
 20
118.3221206710081
 30
0.0
 10
236.0528729994388
 20
118.6486058348392
 30
0.0
 10
236.1888879088476
 20
119.0283955442527
 30
0.0
 10
236.3613723206526
 20
119.3932168619354
 30
0.0
 10
236.6372638676495
 20
119.8530220079804
 30
0.0
 10
237.0645114873906
 20
120.3739736663131
 30
0.0
 10
237.5847773508276
 20
120.8010535989714
 30
0.0
 10
238.0446920126603
 20
121.0771439263088
 30
0.0
 10
238.408445049581
 20
121.2493838849844
 30
0.0
 10
238.7881145862648
 20
121.3858613068265
 30
0.0
 10
239.1801719372499
 20
121.4834955464899
 30
0.0
 10
239.5797835728229
 20
121.5453204873252
 30
0.0
 10
239.8486962714275
 20
121.552928414922
 30
0.0
 10
239.9830677930811
 20
121.556729978824
 30
0.0
  0
SPLINE
  5
13A
330
1F
100
AcDbEntity
  8
DIMENSION
100
AcDbSpline
210
0.0
220
0.0
230
1.0
 70
     8
 71
     3
 72
    10
 73
     6
 74
     0
 42
0.00000001
 43
0.0000000001
 40
0.0
 40
0.0
 40
0.0
 40
0.0
 40
0.3473901866813815
 40
0.6955407185992892
 40
1.0
 40
1.0
 40
1.0
 40
1.0
 10
239.9813976512411
 20
113.3567299843196
 30
0.0
 10
239.7359596573949
 20
113.3728445576815
 30
0.0
 10
239.2445464708504
 20
113.4051089749442
 30
0.0
 10
238.5644162161844
 20
113.630643034815
 30
0.0
 10
238.1766998675636
 20
113.8791893656056
 30
0.0
 10
237.995820207958
 20
113.9951426285247
 30
0.0
  0
SPLINE
  5
13B
330
1F
100
AcDbEntity
  8
DIMENSION
100
AcDbSpline
210
0.0
220
0.0
230
1.0
 70
     8
 71
     3
 72
    10
 73
     6
 74
     0
 42
0.00000001
 43
0.0000000001
 40
0.0
 40
0.0
 40
0.0
 40
0.0
 40
0.304501404640723
 40
0.654201976090744
 40
1.0
 40
1.0
 40
1.0
 40
1.0
 10
241.9668373926569
 20
113.9950956059038
 30
0.0
 10
241.7859472347547
 20
113.8791498028221
 30
0.0
 10
241.3973161908533
 20
113.630047590683
 30
0.0
 10
240.7170660244594
 20
113.4048335802819
 30
0.0
 10
240.2257014019727
 20
113.3727044224565
 30
0.0
 10
239.9813976512411
 20
113.3567299843196
 30
0.0
  0
SPLINE
  5
13C
330
1F
100
AcDbEntity
  8
DIMENSION
100
AcDbSpline
210
0.0
220
0.0
230
1.0
 70
     8
 71
     3
 72
    23
 73
    19
 74
     0
 42
0.00000001
 43
0.0000000001
 40
0.0
 40
0.0
 40
0.0
 40
0.0
 40
0.0312729280539343
 40
0.0624796294489111
 40
0.093698343539258
 40
0.12500721959119
 40
0.1876184137573983
 40
0.2503416449837208
 40
0.3126352262156852
 40
0.3750446275671335
 40
0.5002827154908257
 40
0.624988704465768
 40
0.6875245116352352
 40
0.7500789170435779
 40
0.8126959884374866
 40
0.8752641486622778
 40
0.9376413129527859
 40
1.0
 40
1.0
 40
1.0
 40
1.0
 10
244.0827517847137
 20
117.4567299677401
 30
0.0
 10
244.0818049536961
 20
117.3894904014739
 30
0.0
 10
244.0799132967647
 20
117.2551536621263
 30
0.0
 10
244.0645381302267
 20
117.0541964629628
 30
0.0
 10
244.0399640235759
 20
116.8541661246473
 30
0.0
 10
243.9938351626309
 20
116.5891551403335
 30
0.0
 10
243.9119535705301
 20
116.2622109241452
 30
0.0
 10
243.7756718232019
 20
115.8826248116022
 30
0.0
 10
243.6034137006347
 20
115.5187690833544
 30
0.0
 10
243.3274812203039
 20
115.0589531970614
 30
0.0
 10
242.9003478863119
 20
114.5385519449536
 30
0.0
 10
242.3797028303721
 20
114.1113320758977
 30
0.0
 10
241.920100008139
 20
113.8355817149818
 30
0.0
 10
241.5556178280752
 20
113.6632522946591
 30
0.0
 10
241.1757248071467
 20
113.5268951292513
 30
0.0
 10
240.7842758611606
 20
113.4295657986391
 30
0.0
 10
240.3854663418206
 20
113.3680596138997
 30
0.0
 10
240.1171873958635
 20
113.360506146881
 30
0.0
 10
239.9830677930959
 20
113.3567299728229
 30
0.0
  0
SPLINE
  5
13D
330
1F
100
AcDbEntity
  8
DIMENSION
100
AcDbSpline
210
0.0
220
0.0
230
1.0
 70
     8
 71
     3
 72
    23
 73
    19
 74
     0
 42
0.00000001
 43
0.0000000001
 40
0.0
 40
0.0
 40
0.0
 40
0.0
 40
0.0313696833616748
 40
0.0626712576172541
 40
0.0939810556048649
 40
0.1253753501768033
 40
0.1876719276460736
 40
0.2500378937375031
 40
0.3125844551852339
 40
0.3752235724300891
 40
0.5001664116091593
 40
0.6248287412630095
 40
0.6875258121074247
 40
0.7501236142521565
 40
0.812447126941875
 40
0.8746839827589655
 40
0.9373584421959176
 40
1.0
 40
1.0
 40
1.0
 40
1.0
 10
239.9830677930959
 20
113.3567299728229
 30
0.0
 10
239.9156372347398
 20
113.3576820319989
 30
0.0
 10
239.7809225216429
 20
113.3595840832629
 30
0.0
 10
239.5794103334608
 20
113.3750472864788
 30
0.0
 10
239.3788550743891
 20
113.3997585494179
 30
0.0
 10
239.1142146326389
 20
113.4459581430732
 30
0.0
 10
238.7885880464896
 20
113.5276180088614
 30
0.0
 10
238.4098732697877
 20
113.6634679677843
 30
0.0
 10
238.0457606836943
 20
113.835717283426
 30
0.0
 10
237.5856723919131
 20
114.1118728377024
 30
0.0
 10
237.0654129267184
 20
114.5386511930974
 30
0.0
 10
236.638423626383
 20
115.0588313501704
 30
0.0
 10
236.3623098599
 20
115.5184787190287
 30
0.0
 10
236.1899634073103
 20
115.8826435832666
 30
0.0
 10
236.0538904874326
 20
116.2611989797095
 30
0.0
 10
235.9563559358365
 20
116.6517601382128
 30
0.0
 10
235.8943421832026
 20
117.0509443533368
 30
0.0
 10
235.8866166982128
 20
117.3204016740525
 30
0.0
 10
235.8827549698782
 20
117.4550949614946
 30
0.0
  0
LINE
  5
13E
330
1F
100
AcDbEntity
  8
DIMENSION
100
AcDbLine
 10
217.4849638167
 20
97.85672996770001
 30
0.0
 11
239.9830677931
 21
97.85672996770001
 31
0.0
  0
LINE
  5
13F
330
1F
100
AcDbEntity
  8
DIMENSION
100
AcDbLine
 10
217.4882434765
 20
98.22696267459999
 30
0.0
 11
217.4849638167
 21
97.85672996770001
 31
0.0
  0
LINE
  5
140
330
1F
100
AcDbEntity
  8
DIMENSION
100
AcDbLine
 10
262.4451732006
 20
97.85672996770001
 30
0.0
 11
262.4335866969
 21
98.2124392466
 31
0.0
  0
LINE
  5
141
330
1F
100
AcDbEntity
  8
DIMENSION
100
AcDbLine
 10
239.9830677931
 20
97.85672996770001
 30
0.0
 11
262.4451732006
 21
97.85672996770001
 31
0.0
  0
LINE
  5
142
330
1F
100
AcDbEntity
  8
DIMENSION
100
AcDbLine
 10
217.6642786972
 20
127.8567299677
 30
0.0
 11
239.9829007789
 21
127.8567299677
 31
0.0
  0
LINE
  5
143
330
1F
100
AcDbEntity
  8
DIMENSION
100
AcDbLine
 10
239.9829007789
 20
127.8567299677
 30
0.0
 11
262.2642786972
 21
127.8567299677
 31
0.0
  0
LINE
  5
144
330
1F
100
AcDbEntity
  8
DIMENSION
100
AcDbLine
 10
249.844096951
 20
96.5567299677
 30
0.0
 11
217.3742787286
 21
96.5567299677
 31
0.0
  0
LINE
  5
145
330
1F
100
AcDbEntity
  8
DIMENSION
100
AcDbLine
 10
217.3742787286
 20
81.53285438430001
 30
0.0
 11
249.844096951
 21
81.53285438430001
 31
0.0
  0
LINE
  5
146
330
1F
100
AcDbEntity
  8
DIMENSION
100
AcDbLine
 10
262.3742787286
 20
96.5567299677
 30
0.0
 11
249.844096951
 21
96.5567299677
 31
0.0
  0
LINE
  5
147
330
1F
100
AcDbEntity
  8
DIMENSION
100
AcDbLine
 10
249.844096951
 20
81.53285438430001
 30
0.0
 11
262.3742787286
 21
81.53285438430001
 31
0.0
  0
LINE
  5
148
330
1F
100
AcDbEntity
  8
DIMENSION
100
AcDbLine
 10
235.2410378134
 20
81.5567299677
 30
0.0
 11
271.8742787286
 21
81.5567299677
 31
0.0
  0
LINE
  5
149
330
1F
100
AcDbEntity
  8
DIMENSION
100
AcDbLine
 10
235.2410378134
 20
86.35672996770001
 30
0.0
 11
271.8742787286
 21
86.35672996770001
 31
0.0
  0
LINE
  5
14A
330
1F
100
AcDbEntity
  8
DIMENSION
100
AcDbLine
 10
207.8742787286
 20
81.5567299677
 30
0.0
 11
235.2410378134
 21
81.5567299677
 31
0.0
  0
LINE
  5
14B
330
1F
100
AcDbEntity
  8
DIMENSION
100
AcDbLine
 10
207.8742787286
 20
86.35672996770001
 30
0.0
 11
235.2410378134
 21
86.35672996770001
 31
0.0
  0
DIMENSION
  5
14C
102
{ACAD_XDICTIONARY
360
2B3
102
}
330
1F
100
AcDbEntity
  8
DIMENSION
100
AcDbDimension
280
     0
  2
*D18
 10
271.8742787286
 20
64.3744297003
 30
0.0
 11
240.0484102839
 21
64.3744297003
 31
0.0
 70
   160
  1
<>
 71
     2
 42
64.0
 73
     0
 74
     0
 75
     0
  3
RG Dimension Lines
100
AcDbAlignedDimension
 13
207.8742787286
 23
81.5567299677
 33
0.0
 14
271.8742787286
 24
81.5567299677
 34
0.0
100
AcDbRotatedDimension
1001
AcadAnnotative
1000
AnnotativeData
1002
{
1070
     1
1070
     1
1002
}
1001
ACAD
1000
DSTYLE
1002
{
1070
     3
1000
%%C<>
1002
}
  0
DIMENSION
  5
154
102
{ACAD_XDICTIONARY
360
2A5
102
}
330
1F
100
AcDbEntity
  8
DIMENSION
100
AcDbDimension
280
     0
  2
*D17
 10
262.4642786972
 20
139.4205189436
 30
0.0
 11
241.6358735584
 21
139.4205189436
 31
0.0
 70
   160
  1
<>
 71
     2
 42
45.00000000000002
 73
     0
 74
     0
 75
     0
  3
RG Dimension Lines
100
AcDbAlignedDimension
 13
217.4642786972
 23
127.6567299677
 33
0.0
 14
262.4642786972
 24
127.6567299677
 34
0.0
100
AcDbRotatedDimension
1001
AcadAnnotative
1000
AnnotativeData
1002
{
1070
     1
1070
     1
1002
}
1001
ACAD
1000
DSTYLE
1002
{
1070
     3
1000
%%C<>
1002
}
  0
DIMENSION
  5
1AB
102
{ACAD_XDICTIONARY
360
297
102
}
330
1F
100
AcDbEntity
  8
DIMENSION
100
AcDbDimension
280
     0
  2
*D16
 10
291.3882223225623
 20
81.55672996770006
 30
0.0
 11
302.054888989229
 21
104.7067299676999
 31
0.0
 70
    32
 71
     5
 42
46.30000000000001
 73
     0
 74
     0
 75
     0
  3
RG Dimension Lines
100
AcDbAlignedDimension
 13
262.2642786972
 23
127.8567299677
 33
0.0
 14
271.8742787286
 24
81.5567299677
 34
0.0
 50
90.0
100
AcDbRotatedDimension
1001
AcadAnnotative
1000
AnnotativeData
1002
{
1070
     1
1070
     1
1002
}
  0
DIMENSION
  5
1B9
102
{ACAD_XDICTIONARY
360
289
102
}
330
1F
100
AcDbEntity
  8
DIMENSION
100
AcDbDimension
280
     0
  2
*D15
 10
197.9419861970243
 20
81.55672996770004
 30
0.0
 11
191.2753195303576
 21
82.55672996769996
 31
0.0
 70
    32
 71
     5
 42
4.799999999999997
 73
     0
 74
     0
 75
     0
  3
RG Dimension Lines
100
AcDbAlignedDimension
 13
207.8742787286
 23
86.35672996770001
 33
0.0
 14
207.8742787286
 24
81.5567299677
 34
0.0
 50
90.0
100
AcDbRotatedDimension
1001
AcadAnnotative
1000
AnnotativeData
1002
{
1070
     1
1070
     1
1002
}
  0
DIMENSION
  5
1C9
102
{ACAD_XDICTIONARY
360
278
102
}
330
1F
100
AcDbEntity
  8
DIMENSION
100
AcDbDimension
280
     0
  2
*D14
 10
62.20709060020006
 20
81.55672996770004
 30
0.0
 11
52.87375726686674
 21
86.05672996770001
 31
0.0
 70
    32
 71
     5
 42
15.00000000000001
 73
     0
 74
     0
 75
     0
  3
RG Dimension Lines
100
AcDbAlignedDimension
 13
77.31885895979999
 23
96.5567299677
 33
0.0
 14
67.8188589598
 24
81.5567299677
 34
0.0
 50
90.0
100
AcDbRotatedDimension
1001
AcadAnnotative
1000
AnnotativeData
1002
{
1070
     1
1070
     1
1002
}
  0
ENDSEC
  0
SECTION
  2
OBJECTS
  0
DICTIONARY
  5
C
330
0
100
AcDbDictionary
281
     1
  3
ACAD_CIP_PREVIOUS_PRODUCT_INFO
350
19C
  3
ACAD_COLOR
350
191
  3
ACAD_DETAILVIEWSTYLE
350
198
  3
ACAD_GROUP
350
D
  3
ACAD_LAYOUT
350
1A
  3
ACAD_MATERIAL
350
15F
  3
ACAD_MLEADERSTYLE
350
194
  3
ACAD_MLINESTYLE
350
17
  3
ACAD_PLOTSETTINGS
350
19
  3
ACAD_PLOTSTYLENAME
350
E
  3
ACAD_SCALELIST
350
47
  3
ACAD_SECTIONVIEWSTYLE
350
196
  3
ACAD_TABLESTYLE
350
192
  3
ACAD_VISUALSTYLE
350
178
  3
ACDB_RECOMPOSE_DATA
350
31D
  3
AcDbVariableDictionary
350
311
  0
DICTIONARY
  5
1EA
330
2
100
AcDbDictionary
280
     1
281
     1
  3
ACAD_LAYERSTATES
360
1EB
  0
DICTIONARY
  5
301
330
10
100
AcDbDictionary
280
     1
281
     1
  3
ADSK_XREC_LAYER_RECONCILED
360
302
  0
DICTIONARY
  5
303
330
73
100
AcDbDictionary
280
     1
281
     1
  3
ADSK_XREC_LAYER_RECONCILED
360
304
  0
DICTIONARY
  5
305
330
1E2
100
AcDbDictionary
280
     1
281
     1
  3
ADSK_XREC_LAYER_RECONCILED
360
306
  0
DICTIONARY
  5
2D1
330
95
100
AcDbDictionary
280
     1
281
     1
  3
AcDbContextDataManager
360
2D2
  0
DICTIONARY
  5
2C3
330
A2
100
AcDbDictionary
280
     1
281
     1
  3
AcDbContextDataManager
360
2C4
  0
DICTIONARY
  5
2DF
330
11B
100
AcDbDictionary
280
     1
281
     1
  3
AcDbContextDataManager
360
2E0
  0
DICTIONARY
  5
2B3
330
14C
100
AcDbDictionary
280
     1
281
     1
  3
AcDbContextDataManager
360
2B4
  0
DICTIONARY
  5
2A5
330
154
100
AcDbDictionary
280
     1
281
     1
  3
AcDbContextDataManager
360
2A6
  0
DICTIONARY
  5
297
330
1AB
100
AcDbDictionary
280
     1
281
     1
  3
AcDbContextDataManager
360
298
  0
DICTIONARY
  5
289
330
1B9
100
AcDbDictionary
280
     1
281
     1
  3
AcDbContextDataManager
360
28A
  0
DICTIONARY
  5
278
330
1C9
100
AcDbDictionary
280
     1
281
     1
  3
AcDbContextDataManager
360
279
  0
XRECORD
  5
19C
102
{ACAD_REACTORS
330
C
102
}
330
C
100
AcDbXrecord
280
     1
300
ACD
300
2021
300

  0
DICTIONARY
  5
191
102
{ACAD_REACTORS
330
C
102
}
330
C
100
AcDbDictionary
281
     1
  0
DICTIONARY
  5
198
102
{ACAD_REACTORS
330
C
102
}
330
C
100
AcDbDictionary
281
     1
  3
Metric50
350
199
  0
DICTIONARY
  5
D
102
{ACAD_REACTORS
330
C
102
}
330
C
100
AcDbDictionary
281
     1
  0
DICTIONARY
  5
1A
102
{ACAD_REACTORS
330
C
102
}
330
C
100
AcDbDictionary
281
     1
  3
Layout1
350
1E
  3
Layout2
350
26
  3
Model
350
22
  0
DICTIONARY
  5
15F
102
{ACAD_REACTORS
330
C
102
}
330
C
100
AcDbDictionary
281
     1
  3
ByBlock
350
168
  3
ByLayer
350
160
  3
Global
350
170
  0
DICTIONARY
  5
194
102
{ACAD_REACTORS
330
C
102
}
330
C
100
AcDbDictionary
281
     1
  3
Standard
350
195
  0
DICTIONARY
  5
17
102
{ACAD_REACTORS
330
C
102
}
330
C
100
AcDbDictionary
281
     1
  3
Standard
350
18
  0
DICTIONARY
  5
19
102
{ACAD_REACTORS
330
C
102
}
330
C
100
AcDbDictionary
281
     1
  0
ACDBDICTIONARYWDFLT
  5
E
102
{ACAD_REACTORS
330
C
102
}
330
C
100
AcDbDictionary
281
     1
  3
Normal
350
F
100
AcDbDictionaryWithDefault
340
F
  0
DICTIONARY
  5
47
102
{ACAD_REACTORS
330
C
102
}
330
C
100
AcDbDictionary
281
     1
  3
A0
350
48
  3
A1
350
49
  3
A2
350
4A
  3
A3
350
4B
  3
A4
350
4C
  3
A5
350
4D
  3
A6
350
4E
  3
A7
350
4F
  3
A8
350
50
  3
A9
350
51
  3
B0
350
52
  3
B1
350
53
  3
B2
350
54
  3
B3
350
55
  3
B4
350
56
  3
B5
350
57
  3
B6
350
58
  3
B7
350
59
  3
B8
350
5A
  3
B9
350
5B
  3
C0
350
5C
  3
C1
350
5D
  3
C2
350
5E
  3
C3
350
5F
  3
C4
350
60
  3
C5
350
61
  3
C6
350
62
  3
C7
350
63
  3
C8
350
64
  3
C9
350
65
  3
D0
350
66
  3
D1
350
67
  3
D2
350
68
  0
DICTIONARY
  5
196
102
{ACAD_REACTORS
330
C
102
}
330
C
100
AcDbDictionary
281
     1
  3
Metric50
350
197
  0
DICTIONARY
  5
192
102
{ACAD_REACTORS
330
C
102
}
330
C
100
AcDbDictionary
281
     1
  3
Standard
350
193
  0
DICTIONARY
  5
178
102
{ACAD_REACTORS
330
C
102
}
330
C
100
AcDbDictionary
281
     1
  3
2dWireframe
350
17E
  3
Basic
350
17D
  3
Brighten
350
184
  3
ColorChange
350
188
  3
Conceptual
350
181
  3
Dim
350
183
  3
EdgeColorOff
350
190
  3
Facepattern
350
187
  3
Flat
350
179
  3
FlatWithEdges
350
17A
  3
Gouraud
350
17B
  3
GouraudWithEdges
350
17C
  3
Hidden
350
180
  3
JitterOff
350
18E
  3
Linepattern
350
186
  3
OverhangOff
350
18F
  3
Realistic
350
182
  3
Shaded
350
18D
  3
Shaded with edges
350
18C
  3
Shades of Gray
350
189
  3
Sketchy
350
18A
  3
Thicken
350
185
  3
Wireframe
350
17F
  3
X-Ray
350
18B
  0
XRECORD
  5
31D
102
{ACAD_REACTORS
330
C
102
}
330
C
100
AcDbXrecord
280
     1
 90
        1
330
193
  0
DICTIONARY
  5
311
102
{ACAD_REACTORS
330
C
102
}
330
C
100
AcDbDictionary
281
     1
  3
CANNOSCALE
350
317
  3
CMLEADERSTYLE
350
313
  3
CTABLESTYLE
350
312
  3
CVIEWDETAILSTYLE
350
314
  3
CVIEWSECTIONSTYLE
350
315
  3
LAYEREVAL
350
319
  3
LAYERNOTIFY
350
31A
  3
LIGHTINGUNITS
350
318
  3
MSLTSCALE
350
316
  0
DICTIONARY
  5
1EB
102
{ACAD_REACTORS
330
1EA
102
}
330
1EA
100
AcDbDictionary
281
     1
  0
XRECORD
  5
302
102
{ACAD_REACTORS
330
301
102
}
330
301
100
AcDbXrecord
280
     1
290
     1
  0
XRECORD
  5
304
102
{ACAD_REACTORS
330
303
102
}
330
303
100
AcDbXrecord
280
     1
290
     1
  0
XRECORD
  5
306
102
{ACAD_REACTORS
330
305
102
}
330
305
100
AcDbXrecord
280
     1
290
     1
  0
DICTIONARY
  5
2D2
102
{ACAD_REACTORS
330
2D1
102
}
330
2D1
100
AcDbDictionary
281
     1
  3
ACDB_ANNOTATIONSCALES
350
2D3
  0
DICTIONARY
  5
2C4
102
{ACAD_REACTORS
330
2C3
102
}
330
2C3
100
AcDbDictionary
281
     1
  3
ACDB_ANNOTATIONSCALES
350
2C5
  0
DICTIONARY
  5
2E0
102
{ACAD_REACTORS
330
2DF
102
}
330
2DF
100
AcDbDictionary
281
     1
  3
ACDB_ANNOTATIONSCALES
350
2E1
  0
DICTIONARY
  5
2B4
102
{ACAD_REACTORS
330
2B3
102
}
330
2B3
100
AcDbDictionary
281
     1
  3
ACDB_ANNOTATIONSCALES
350
2B5
  0
DICTIONARY
  5
2A6
102
{ACAD_REACTORS
330
2A5
102
}
330
2A5
100
AcDbDictionary
281
     1
  3
ACDB_ANNOTATIONSCALES
350
2A7
  0
DICTIONARY
  5
298
102
{ACAD_REACTORS
330
297
102
}
330
297
100
AcDbDictionary
281
     1
  3
ACDB_ANNOTATIONSCALES
350
299
  0
DICTIONARY
  5
28A
102
{ACAD_REACTORS
330
289
102
}
330
289
100
AcDbDictionary
281
     1
  3
ACDB_ANNOTATIONSCALES
350
28B
  0
DICTIONARY
  5
279
102
{ACAD_REACTORS
330
278
102
}
330
278
100
AcDbDictionary
281
     1
  3
ACDB_ANNOTATIONSCALES
350
27A
  0
ACDBDETAILVIEWSTYLE
  5
199
102
{ACAD_REACTORS
330
198
102
}
330
198
100
AcDbModelDocViewStyle
 70
     0
  3
Metric50
290
     0
300
Metric50
 90
        0
100
AcDbDetailViewStyle
 70
     0
 71
     0
 90
        3
 71
     1
340
11
 62
   256
 40
5.0
340
0
 62
   256
 40
5.0
300

 40
0.0
280
     1
 71
     2
340
16
 90
       25
 62
   256
 71
     3
340
11
 62
   256
 40
5.0
 90
        0
 40
15.0
 90
        1
300
%<\AcVar ViewDetailId>% (%<\AcVar ViewScale \f "%sn">%)
 71
     4
340
16
 90
       25
 62
   256
340
16
 90
       25
 62
   256
280
     0
  0
LAYOUT
  5
1E
102
{ACAD_REACTORS
330
1A
102
}
330
1A
100
AcDbPlotSettings
  1

  2
none_device
  4

  6

 40
0.0
 41
0.0
 42
0.0
 43
0.0
 44
0.0
 45
0.0
 46
0.0
 47
0.0
 48
0.0
 49
0.0
140
0.0
141
0.0
142
1.0
143
1.0
 70
   688
 72
     1
 73
     0
 74
     5
  7

 75
    16
147
1.0
 76
     0
 77
     2
 78
   300
148
0.0
149
0.0
100
AcDbLayout
  1
Layout1
 70
     1
 71
     1
 10
0.0
 20
0.0
 11
420.0
 21
297.0
 12
0.0
 22
0.0
 32
0.0
 14
1.000000000000000E+20
 24
1.000000000000000E+20
 34
1.000000000000000E+20
 15
-1.000000000000000E+20
 25
-1.000000000000000E+20
 35
-1.000000000000000E+20
146
0.0
 13
0.0
 23
0.0
 33
0.0
 16
1.0
 26
0.0
 36
0.0
 17
0.0
 27
1.0
 37
0.0
 76
     0
330
1B
  0
LAYOUT
  5
26
102
{ACAD_REACTORS
330
1A
102
}
330
1A
100
AcDbPlotSettings
  1

  2
none_device
  4

  6

 40
0.0
 41
0.0
 42
0.0
 43
0.0
 44
0.0
 45
0.0
 46
0.0
 47
0.0
 48
0.0
 49
0.0
140
0.0
141
0.0
142
1.0
143
1.0
 70
   688
 72
     1
 73
     0
 74
     5
  7

 75
    16
147
1.0
 76
     0
 77
     2
 78
   300
148
0.0
149
0.0
100
AcDbLayout
  1
Layout2
 70
     1
 71
     2
 10
0.0
 20
0.0
 11
0.0
 21
0.0
 12
0.0
 22
0.0
 32
0.0
 14
0.0
 24
0.0
 34
0.0
 15
0.0
 25
0.0
 35
0.0
146
0.0
 13
0.0
 23
0.0
 33
0.0
 16
1.0
 26
0.0
 36
0.0
 17
0.0
 27
1.0
 37
0.0
 76
     0
330
23
  0
LAYOUT
  5
22
102
{ACAD_REACTORS
330
1A
102
}
330
1A
100
AcDbPlotSettings
  1

  2
none_device
  4
Letter_(8.50_x_11.00_Inches)
  6

 40
6.349999999999999
 41
6.349999999999999
 42
6.350005079999999
 43
6.350005079999999
 44
215.9
 45
279.4
 46
0.0
 47
0.0
 48
0.0
 49
0.0
140
0.0
141
0.0
142
1.0
143
1.0
 70
  1712
 72
     1
 73
     0
 74
     0
  7

 75
     0
147
1.0
 76
     0
 77
     2
 78
   300
148
0.0
149
0.0
100
AcDbLayout
  1
Model
 70
     1
 71
     0
 10
0.0
 20
0.0
 11
420.0
 21
297.0
 12
0.0
 22
0.0
 32
0.0
 14
0.0
 24
0.0
 34
0.0
 15
420.0
 25
297.0
 35
0.0
146
0.0
 13
0.0
 23
0.0
 33
0.0
 16
1.0
 26
0.0
 36
0.0
 17
0.0
 27
1.0
 37
0.0
 76
     0
330
1F
331
29
  0
MATERIAL
  5
168
102
{ACAD_XDICTIONARY
360
169
102
}
102
{ACAD_REACTORS
330
15F
102
}
330
15F
100
AcDbMaterial
  1
ByBlock
 72
     0
 43
0.0008202099737533
 43
0.0
 43
0.0
 43
0.0
 43
0.0
 43
0.0008202099737533
 43
0.0
 43
0.0
 43
0.0
 43
0.0
 43
1.0
 43
0.0
 43
0.0
 43
0.0
 43
0.0
 43
1.0
 77
     0
 47
0.0008202099737533
 47
0.0
 47
0.0
 47
0.0
 47
0.0
 47
0.0008202099737533
 47
0.0
 47
0.0
 47
0.0
 47
0.0
 47
1.0
 47
0.0
 47
0.0
 47
0.0
 47
0.0
 47
1.0
171
     0
 49
0.0008202099737533
 49
0.0
 49
0.0
 49
0.0
 49
0.0
 49
0.0008202099737533
 49
0.0
 49
0.0
 49
0.0
 49
0.0
 49
1.0
 49
0.0
 49
0.0
 49
0.0
 49
0.0
 49
1.0
175
     0
142
0.0008202099737533
142
0.0
142
0.0
142
0.0
142
0.0
142
0.0008202099737533
142
0.0
142
0.0
142
0.0
142
0.0
142
1.0
142
0.0
142
0.0
142
0.0
142
0.0
142
1.0
179
     0
144
0.0008202099737533
144
0.0
144
0.0
144
0.0
144
0.0
144
0.0008202099737533
144
0.0
144
0.0
144
0.0
144
0.0
144
1.0
144
0.0
144
0.0
144
0.0
144
0.0
144
1.0
147
0.0008202099737533
147
0.0
147
0.0
147
0.0
147
0.0
147
0.0008202099737533
147
0.0
147
0.0
147
0.0
147
0.0
147
1.0
147
0.0
147
0.0
147
0.0
147
0.0
147
1.0
  0
MATERIAL
  5
160
102
{ACAD_XDICTIONARY
360
161
102
}
102
{ACAD_REACTORS
330
15F
102
}
330
15F
100
AcDbMaterial
  1
ByLayer
 72
     0
 43
0.0008202099737533
 43
0.0
 43
0.0
 43
0.0
 43
0.0
 43
0.0008202099737533
 43
0.0
 43
0.0
 43
0.0
 43
0.0
 43
1.0
 43
0.0
 43
0.0
 43
0.0
 43
0.0
 43
1.0
 77
     0
 47
0.0008202099737533
 47
0.0
 47
0.0
 47
0.0
 47
0.0
 47
0.0008202099737533
 47
0.0
 47
0.0
 47
0.0
 47
0.0
 47
1.0
 47
0.0
 47
0.0
 47
0.0
 47
0.0
 47
1.0
171
     0
 49
0.0008202099737533
 49
0.0
 49
0.0
 49
0.0
 49
0.0
 49
0.0008202099737533
 49
0.0
 49
0.0
 49
0.0
 49
0.0
 49
1.0
 49
0.0
 49
0.0
 49
0.0
 49
0.0
 49
1.0
175
     0
142
0.0008202099737533
142
0.0
142
0.0
142
0.0
142
0.0
142
0.0008202099737533
142
0.0
142
0.0
142
0.0
142
0.0
142
1.0
142
0.0
142
0.0
142
0.0
142
0.0
142
1.0
179
     0
144
0.0008202099737533
144
0.0
144
0.0
144
0.0
144
0.0
144
0.0008202099737533
144
0.0
144
0.0
144
0.0
144
0.0
144
1.0
144
0.0
144
0.0
144
0.0
144
0.0
144
1.0
147
0.0008202099737533
147
0.0
147
0.0
147
0.0
147
0.0
147
0.0008202099737533
147
0.0
147
0.0
147
0.0
147
0.0
147
1.0
147
0.0
147
0.0
147
0.0
147
0.0
147
1.0
  0
MATERIAL
  5
170
102
{ACAD_XDICTIONARY
360
171
102
}
102
{ACAD_REACTORS
330
15F
102
}
330
15F
100
AcDbMaterial
  1
Global
 72
     0
 43
0.0008202099737533
 43
0.0
 43
0.0
 43
0.0
 43
0.0
 43
0.0008202099737533
 43
0.0
 43
0.0
 43
0.0
 43
0.0
 43
1.0
 43
0.0
 43
0.0
 43
0.0
 43
0.0
 43
1.0
 77
     0
 47
0.0008202099737533
 47
0.0
 47
0.0
 47
0.0
 47
0.0
 47
0.0008202099737533
 47
0.0
 47
0.0
 47
0.0
 47
0.0
 47
1.0
 47
0.0
 47
0.0
 47
0.0
 47
0.0
 47
1.0
171
     0
 49
0.0008202099737533
 49
0.0
 49
0.0
 49
0.0
 49
0.0
 49
0.0008202099737533
 49
0.0
 49
0.0
 49
0.0
 49
0.0
 49
1.0
 49
0.0
 49
0.0
 49
0.0
 49
0.0
 49
1.0
175
     0
142
0.0008202099737533
142
0.0
142
0.0
142
0.0
142
0.0
142
0.0008202099737533
142
0.0
142
0.0
142
0.0
142
0.0
142
1.0
142
0.0
142
0.0
142
0.0
142
0.0
142
1.0
179
     0
144
0.0008202099737533
144
0.0
144
0.0
144
0.0
144
0.0
144
0.0008202099737533
144
0.0
144
0.0
144
0.0
144
0.0
144
1.0
144
0.0
144
0.0
144
0.0
144
0.0
144
1.0
147
0.0008202099737533
147
0.0
147
0.0
147
0.0
147
0.0
147
0.0008202099737533
147
0.0
147
0.0
147
0.0
147
0.0
147
1.0
147
0.0
147
0.0
147
0.0
147
0.0
147
1.0
  0
MLEADERSTYLE
  5
195
102
{ACAD_REACTORS
330
194
102
}
330
194
100
AcDbMLeaderStyle
179
     2
170
     2
171
     1
172
     0
 90
        2
 40
0.0
 41
0.0
173
     1
 91
-1056964608
340
14
 92
       -2
290
     1
 42
2.0
291
     1
 43
0.36
  3
Standard
 44
4.0
300

342
11
174
     1
178
     6
175
     1
176
     0
 93
-1056964608
 45
4.0
292
     0
297
     0
 46
4.0
 94
-1056964608
 47
1.0
 49
1.0
140
1.0
293
     1
141
0.0
294
     1
177
     0
142
1.0
295
     0
296
     0
143
0.125
271
     0
272
     9
273
     9
298
     0
  0
MLINESTYLE
  5
18
102
{ACAD_REACTORS
330
17
102
}
330
17
100
AcDbMlineStyle
  2
STANDARD
 70
     0
  3

 62
   256
 51
90.0
 52
90.0
 71
     2
 49
0.5
 62
   256
  6
BYLAYER
 49
-0.5
 62
   256
  6
BYLAYER
  0
ACDBPLACEHOLDER
  5
F
102
{ACAD_REACTORS
330
E
102
}
330
E
  0
SCALE
  5
48
102
{ACAD_REACTORS
330
47
102
}
330
47
100
AcDbScale
 70
     0
300
1:1
140
1.0
141
1.0
290
     1
  0
SCALE
  5
49
102
{ACAD_REACTORS
330
47
102
}
330
47
100
AcDbScale
 70
     0
300
1:2
140
1.0
141
2.0
290
     0
  0
SCALE
  5
4A
102
{ACAD_REACTORS
330
47
102
}
330
47
100
AcDbScale
 70
     0
300
1:4
140
1.0
141
4.0
290
     0
  0
SCALE
  5
4B
102
{ACAD_REACTORS
330
47
102
}
330
47
100
AcDbScale
 70
     0
300
1:5
140
1.0
141
5.0
290
     0
  0
SCALE
  5
4C
102
{ACAD_REACTORS
330
47
102
}
330
47
100
AcDbScale
 70
     0
300
1:8
140
1.0
141
8.0
290
     0
  0
SCALE
  5
4D
102
{ACAD_REACTORS
330
47
102
}
330
47
100
AcDbScale
 70
     0
300
1:10
140
1.0
141
10.0
290
     0
  0
SCALE
  5
4E
102
{ACAD_REACTORS
330
47
102
}
330
47
100
AcDbScale
 70
     0
300
1:16
140
1.0
141
16.0
290
     0
  0
SCALE
  5
4F
102
{ACAD_REACTORS
330
47
102
}
330
47
100
AcDbScale
 70
     0
300
1:20
140
1.0
141
20.0
290
     0
  0
SCALE
  5
50
102
{ACAD_REACTORS
330
47
102
}
330
47
100
AcDbScale
 70
     0
300
1:30
140
1.0
141
30.0
290
     0
  0
SCALE
  5
51
102
{ACAD_REACTORS
330
47
102
}
330
47
100
AcDbScale
 70
     0
300
1:40
140
1.0
141
40.0
290
     0
  0
SCALE
  5
52
102
{ACAD_REACTORS
330
47
102
}
330
47
100
AcDbScale
 70
     0
300
1:50
140
1.0
141
50.0
290
     0
  0
SCALE
  5
53
102
{ACAD_REACTORS
330
47
102
}
330
47
100
AcDbScale
 70
     0
300
1:100
140
1.0
141
100.0
290
     0
  0
SCALE
  5
54
102
{ACAD_REACTORS
330
47
102
}
330
47
100
AcDbScale
 70
     0
300
2:1
140
2.0
141
1.0
290
     0
  0
SCALE
  5
55
102
{ACAD_REACTORS
330
47
102
}
330
47
100
AcDbScale
 70
     0
300
4:1
140
4.0
141
1.0
290
     0
  0
SCALE
  5
56
102
{ACAD_REACTORS
330
47
102
}
330
47
100
AcDbScale
 70
     0
300
8:1
140
8.0
141
1.0
290
     0
  0
SCALE
  5
57
102
{ACAD_REACTORS
330
47
102
}
330
47
100
AcDbScale
 70
     0
300
10:1
140
10.0
141
1.0
290
     0
  0
SCALE
  5
58
102
{ACAD_REACTORS
330
47
102
}
330
47
100
AcDbScale
 70
     0
300
100:1
140
100.0
141
1.0
290
     0
  0
SCALE
  5
59
102
{ACAD_REACTORS
330
47
102
}
330
47
100
AcDbScale
 70
     0
300
1/128" = 1'-0"
140
0.0078125
141
12.0
290
     0
  0
SCALE
  5
5A
102
{ACAD_REACTORS
330
47
102
}
330
47
100
AcDbScale
 70
     0
300
1/64" = 1'-0"
140
0.015625
141
12.0
290
     0
  0
SCALE
  5
5B
102
{ACAD_REACTORS
330
47
102
}
330
47
100
AcDbScale
 70
     0
300
1/32" = 1'-0"
140
0.03125
141
12.0
290
     0
  0
SCALE
  5
5C
102
{ACAD_REACTORS
330
47
102
}
330
47
100
AcDbScale
 70
     0
300
1/16" = 1'-0"
140
0.0625
141
12.0
290
     0
  0
SCALE
  5
5D
102
{ACAD_REACTORS
330
47
102
}
330
47
100
AcDbScale
 70
     0
300
3/32" = 1'-0"
140
0.09375
141
12.0
290
     0
  0
SCALE
  5
5E
102
{ACAD_REACTORS
330
47
102
}
330
47
100
AcDbScale
 70
     0
300
1/8" = 1'-0"
140
0.125
141
12.0
290
     0
  0
SCALE
  5
5F
102
{ACAD_REACTORS
330
47
102
}
330
47
100
AcDbScale
 70
     0
300
3/16" = 1'-0"
140
0.1875
141
12.0
290
     0
  0
SCALE
  5
60
102
{ACAD_REACTORS
330
47
102
}
330
47
100
AcDbScale
 70
     0
300
1/4" = 1'-0"
140
0.25
141
12.0
290
     0
  0
SCALE
  5
61
102
{ACAD_REACTORS
330
47
102
}
330
47
100
AcDbScale
 70
     0
300
3/8" = 1'-0"
140
0.375
141
12.0
290
     0
  0
SCALE
  5
62
102
{ACAD_REACTORS
330
47
102
}
330
47
100
AcDbScale
 70
     0
300
1/2" = 1'-0"
140
0.5
141
12.0
290
     0
  0
SCALE
  5
63
102
{ACAD_REACTORS
330
47
102
}
330
47
100
AcDbScale
 70
     0
300
3/4" = 1'-0"
140
0.75
141
12.0
290
     0
  0
SCALE
  5
64
102
{ACAD_REACTORS
330
47
102
}
330
47
100
AcDbScale
 70
     0
300
1" = 1'-0"
140
1.0
141
12.0
290
     0
  0
SCALE
  5
65
102
{ACAD_REACTORS
330
47
102
}
330
47
100
AcDbScale
 70
     0
300
1-1/2" = 1'-0"
140
1.5
141
12.0
290
     0
  0
SCALE
  5
66
102
{ACAD_REACTORS
330
47
102
}
330
47
100
AcDbScale
 70
     0
300
3" = 1'-0"
140
3.0
141
12.0
290
     0
  0
SCALE
  5
67
102
{ACAD_REACTORS
330
47
102
}
330
47
100
AcDbScale
 70
     0
300
6" = 1'-0"
140
6.0
141
12.0
290
     0
  0
SCALE
  5
68
102
{ACAD_REACTORS
330
47
102
}
330
47
100
AcDbScale
 70
     0
300
1'-0" = 1'-0"
140
12.0
141
12.0
290
     0
  0
ACDBSECTIONVIEWSTYLE
  5
197
102
{ACAD_REACTORS
330
196
102
}
330
196
100
AcDbModelDocViewStyle
 70
     0
  3
Metric50
290
     0
300
Metric50
 90
        0
100
AcDbSectionViewStyle
 70
     0
 71
     0
 90
      102
 71
     1
340
11
 62
   256
 40
5.0
340
0
340
0
 62
   256
 40
5.0
300
I, O, Q, S, X, Z
 40
10.0
 90
        0
 40
2.5
 90
        0
 71
     2
340
16
 90
       25
 62
   256
340
16
 90
       50
 62
   256
 40
5.0
 40
2.5
 40
5.0
 71
     3
340
11
 62
   256
 40
5.0
 90
        0
 40
15.0
 90
        1
300
%<\AcVar ViewSectionStartId>%-%<\AcVar ViewSectionEndId>% (%<\AcVar ViewScale \f "%sn">%)
 71
     4
 62
   256
 62
   257
300
ANSI31
 40
1.0
 90
        0
290
     0
290
     0
 90
        6
 40
0.0
 40
1.570796326794896
 40
0.2617993877991494
 40
1.308996938995747
 40
-0.2617993877991494
 40
1.832595714594046
  0
TABLESTYLE
  5
193
102
{ACAD_XDICTIONARY
360
31B
102
}
102
{ACAD_REACTORS
330
192
102
}
330
192
100
AcDbTableStyle
280
     0
  3
Standard
 70
     0
 71
     0
 40
1.5
 41
1.5
280
     0
281
     0
  7
Standard
140
4.5
170
     2
 62
     0
 63
     7
283
     0
 90
      512
 91
        0
  1

274
    -2
284
     1
 64
     0
275
    -2
285
     1
 65
     0
276
    -2
286
     1
 66
     0
277
    -2
287
     1
 67
     0
278
    -2
288
     1
 68
     0
279
    -2
289
     1
 69
     0
  7
Standard
140
6.0
170
     5
 62
     0
 63
     7
283
     0
 90
      512
 91
        0
  1

274
    -2
284
     1
 64
     0
275
    -2
285
     1
 65
     0
276
    -2
286
     1
 66
     0
277
    -2
287
     1
 67
     0
278
    -2
288
     1
 68
     0
279
    -2
289
     1
 69
     0
  7
Standard
140
4.5
170
     5
 62
     0
 63
     7
283
     0
 90
      512
 91
        0
  1

274
    -2
284
     1
 64
     0
275
    -2
285
     1
 65
     0
276
    -2
286
     1
 66
     0
277
    -2
287
     1
 67
     0
278
    -2
288
     1
 68
     0
279
    -2
289
     1
 69
     0
  0
VISUALSTYLE
  5
17E
102
{ACAD_REACTORS
330
178
102
}
330
178
100
AcDbVisualStyle
  2
2dWireframe
 70
     4
177
     3
291
     0
 70
    58
 90
        0
176
     1
 90
        2
176
     1
 90
        0
176
     1
 90
        0
176
     1
 40
0.6
176
     1
 40
30.0
176
     1
 62
     7
420
 16777215
176
     1
 90
        1
176
     1
 90
        4
176
     1
 62
     7
176
     1
 62
   257
176
     1
 90
        1
176
     1
 90
        1
176
     1
 40
1.0
176
     1
 90
        0
176
     1
 62
   257
176
     1
 40
1.0
176
     1
 90
        1
176
     1
 90
        6
176
     1
 90
        2
176
     1
 62
     7
176
     1
 90
        5
176
     1
 90
        0
176
     1
 90
        0
176
     1
290
     0
176
     1
 90
        1
176
     1
 40
0.0
176
     1
 90
        0
176
     1
290
     1
176
     1
290
     1
176
     1
290
     0
176
     1
290
     0
176
     1
290
     0
176
     1
290
     0
176
     1
290
     0
176
     1
290
     0
176
     1
290
     0
176
     1
 90
       50
176
     1
 40
0.0
176
     1
 40
1.0
176
     1
 90
        0
176
     1
 62
    18
420
        0
176
     1
 90
       50
176
     1
 90
        3
176
     1
 62
     5
420
      255
176
     1
290
     0
176
     1
 90
       50
176
     1
 90
       50
176
     1
 90
       50
176
     1
290
     0
176
     1
 90
       50
176
     1
 62
   256
176
     0
 40
1.0
176
     0
 90
        2
176
     1
  1
strokes_ogs.tif
176
     1
290
     0
176
     1
 40
1.0
176
     1
 40
1.0
176
     1
  0
VISUALSTYLE
  5
17D
102
{ACAD_REACTORS
330
178
102
}
330
178
100
AcDbVisualStyle
  2
Basic
 70
     7
177
     3
291
     1
 70
    58
 90
        1
176
     1
 90
        0
176
     1
 90
        1
176
     1
 90
        0
176
     1
 40
0.6
176
     1
 40
30.0
176
     1
 62
     7
420
 16777215
176
     1
 90
        0
176
     1
 90
        4
176
     1
 62
     7
176
     1
 62
   257
176
     1
 90
        1
176
     1
 90
        1
176
     1
 40
1.0
176
     1
 90
        8
176
     1
 62
     7
176
     1
 40
1.0
176
     1
 90
        1
176
     1
 90
        6
176
     1
 90
        2
176
     1
 62
     7
176
     1
 90
        5
176
     1
 90
        0
176
     1
 90
        0
176
     1
290
     0
176
     1
 90
        1
176
     1
 40
0.0
176
     1
 90
        0
176
     1
290
     0
176
     1
290
     1
176
     1
290
     1
176
     1
290
     0
176
     1
290
     0
176
     1
290
     0
176
     1
290
     0
176
     1
290
     0
176
     1
290
     0
176
     1
 90
       50
176
     1
 40
0.0
176
     1
 40
1.0
176
     1
 90
        0
176
     1
 62
    18
420
        0
176
     1
 90
       50
176
     1
 90
        3
176
     1
 62
     5
420
      255
176
     1
290
     0
176
     1
 90
       50
176
     1
 90
       50
176
     1
 90
       50
176
     1
290
     0
176
     1
 90
       50
176
     1
 62
   256
176
     0
 40
1.0
176
     0
 90
        2
176
     1
  1
strokes_ogs.tif
176
     1
290
     0
176
     1
 40
1.0
176
     1
 40
1.0
176
     1
  0
VISUALSTYLE
  5
184
102
{ACAD_REACTORS
330
178
102
}
330
178
100
AcDbVisualStyle
  2
Brighten
 70
    12
177
     3
291
     1
 70
    58
 90
        2
176
     1
 90
        2
176
     1
 90
        0
176
     1
 90
        0
176
     1
 40
0.6
176
     1
 40
30.0
176
     1
 62
     7
420
 16777215
176
     1
 90
        1
176
     1
 90
        4
176
     1
 62
     7
176
     1
 62
   257
176
     1
 90
        1
176
     1
 90
        1
176
     1
 40
1.0
176
     1
 90
        8
176
     1
 62
     7
176
     1
 40
1.0
176
     1
 90
        1
176
     1
 90
        6
176
     1
 90
        2
176
     1
 62
     7
176
     1
 90
        5
176
     1
 90
        0
176
     1
 90
        0
176
     1
290
     0
176
     1
 90
        1
176
     1
 40
50.0
176
     1
 90
        0
176
     1
290
     0
176
     1
290
     1
176
     1
290
     1
176
     1
290
     0
176
     1
290
     0
176
     1
290
     0
176
     1
290
     0
176
     1
290
     0
176
     1
290
     0
176
     1
 90
       50
176
     1
 40
0.0
176
     1
 40
1.0
176
     1
 90
        0
176
     1
 62
    18
420
        0
176
     1
 90
       50
176
     1
 90
        3
176
     1
 62
     5
420
      255
176
     1
290
     0
176
     1
 90
       50
176
     1
 90
       50
176
     1
 90
       50
176
     1
290
     0
176
     1
 90
       50
176
     1
 62
   256
176
     0
 40
1.0
176
     0
 90
        2
176
     1
  1
strokes_ogs.tif
176
     1
290
     0
176
     1
 40
1.0
176
     1
 40
1.0
176
     1
  0
VISUALSTYLE
  5
188
102
{ACAD_REACTORS
330
178
102
}
330
178
100
AcDbVisualStyle
  2
ColorChange
 70
    16
177
     3
291
     1
 70
    58
 90
        2
176
     1
 90
        2
176
     1
 90
        3
176
     1
 90
        0
176
     1
 40
0.6
176
     1
 40
30.0
176
     1
 62
     8
420
  8421504
176
     1
 90
        1
176
     1
 90
        4
176
     1
 62
     7
176
     1
 62
   257
176
     1
 90
        1
176
     1
 90
        1
176
     1
 40
1.0
176
     1
 90
        8
176
     1
 62
     8
420
  8421504
176
     1
 40
1.0
176
     1
 90
        1
176
     1
 90
        6
176
     1
 90
        2
176
     1
 62
     7
176
     1
 90
        5
176
     1
 90
        0
176
     1
 90
        0
176
     1
290
     0
176
     1
 90
        1
176
     1
 40
0.0
176
     1
 90
        0
176
     1
290
     0
176
     1
290
     1
176
     1
290
     1
176
     1
290
     0
176
     1
290
     0
176
     1
290
     0
176
     1
290
     0
176
     1
290
     0
176
     1
290
     0
176
     1
 90
       50
176
     1
 40
0.0
176
     1
 40
1.0
176
     1
 90
        0
176
     1
 62
    18
420
        0
176
     1
 90
       50
176
     1
 90
        3
176
     1
 62
     5
420
      255
176
     1
290
     0
176
     1
 90
       50
176
     1
 90
       50
176
     1
 90
       50
176
     1
290
     0
176
     1
 90
       50
176
     1
 62
   256
176
     0
 40
1.0
176
     0
 90
        2
176
     1
  1
strokes_ogs.tif
176
     1
290
     0
176
     1
 40
1.0
176
     1
 40
1.0
176
     1
  0
VISUALSTYLE
  5
181
102
{ACAD_REACTORS
330
178
102
}
330
178
100
AcDbVisualStyle
  2
Conceptual
 70
     9
177
     3
291
     0
 70
    58
 90
        3
176
     1
 90
        2
176
     1
 90
        0
176
     1
 90
        0
176
     1
 40
0.6
176
     1
 40
30.0
176
     1
 62
     7
420
 16777215
176
     1
 90
        2
176
     1
 90
        2
176
     1
 62
     7
176
     1
 62
   257
176
     1
 90
        1
176
     1
 90
        1
176
     1
 40
179.0
176
     1
 90
        8
176
     1
 62
     7
176
     1
 40
1.0
176
     1
 90
        1
176
     1
 90
        6
176
     1
 90
        2
176
     1
 62
     7
176
     1
 90
        3
176
     1
 90
        0
176
     1
 90
        0
176
     1
290
     0
176
     1
 90
        1
176
     1
 40
0.0
176
     1
 90
        0
176
     1
290
     0
176
     1
290
     1
176
     1
290
     1
176
     1
290
     0
176
     1
290
     0
176
     1
290
     0
176
     1
290
     0
176
     1
290
     0
176
     1
290
     0
176
     1
 90
       50
176
     1
 40
0.0
176
     1
 40
1.0
176
     1
 90
        0
176
     1
 62
    18
420
        0
176
     1
 90
       50
176
     1
 90
        3
176
     1
 62
     5
420
      255
176
     1
290
     0
176
     1
 90
       50
176
     1
 90
       50
176
     1
 90
       50
176
     1
290
     0
176
     1
 90
       50
176
     1
 62
   256
176
     0
 40
1.0
176
     0
 90
        2
176
     1
  1
strokes_ogs.tif
176
     1
290
     0
176
     1
 40
1.0
176
     1
 40
1.0
176
     1
  0
VISUALSTYLE
  5
183
102
{ACAD_REACTORS
330
178
102
}
330
178
100
AcDbVisualStyle
  2
Dim
 70
    11
177
     3
291
     1
 70
    58
 90
        2
176
     1
 90
        2
176
     1
 90
        0
176
     1
 90
        0
176
     1
 40
0.6
176
     1
 40
30.0
176
     1
 62
     7
420
 16777215
176
     1
 90
        1
176
     1
 90
        4
176
     1
 62
     7
176
     1
 62
   257
176
     1
 90
        1
176
     1
 90
        1
176
     1
 40
1.0
176
     1
 90
        8
176
     1
 62
     7
176
     1
 40
1.0
176
     1
 90
        1
176
     1
 90
        6
176
     1
 90
        2
176
     1
 62
     7
176
     1
 90
        5
176
     1
 90
        0
176
     1
 90
        0
176
     1
290
     0
176
     1
 90
        1
176
     1
 40
-50.0
176
     1
 90
        0
176
     1
290
     0
176
     1
290
     1
176
     1
290
     1
176
     1
290
     0
176
     1
290
     0
176
     1
290
     0
176
     1
290
     0
176
     1
290
     0
176
     1
290
     0
176
     1
 90
       50
176
     1
 40
0.0
176
     1
 40
1.0
176
     1
 90
        0
176
     1
 62
    18
420
        0
176
     1
 90
       50
176
     1
 90
        3
176
     1
 62
     5
420
      255
176
     1
290
     0
176
     1
 90
       50
176
     1
 90
       50
176
     1
 90
       50
176
     1
290
     0
176
     1
 90
       50
176
     1
 62
   256
176
     0
 40
1.0
176
     0
 90
        2
176
     1
  1
strokes_ogs.tif
176
     1
290
     0
176
     1
 40
1.0
176
     1
 40
1.0
176
     1
  0
VISUALSTYLE
  5
190
102
{ACAD_REACTORS
330
178
102
}
330
178
100
AcDbVisualStyle
  2
EdgeColorOff
 70
    22
177
     3
291
     1
 70
    58
 90
        2
176
     0
 90
        2
176
     0
 90
        0
176
     0
 90
        0
176
     0
 40
0.6
176
     0
 40
30.0
176
     0
 62
     7
420
 16777215
176
     0
 90
        1
176
     0
 90
        4
176
     0
 62
     7
176
     0
 62
   257
176
     0
 90
        1
176
     0
 90
        1
176
     0
 40
1.0
176
     0
 90
        8
176
     2
 62
     7
176
     0
 40
1.0
176
     0
 90
        1
176
     0
 90
        6
176
     0
 90
        2
176
     0
 62
     7
176
     0
 90
        5
176
     0
 90
        0
176
     0
 90
        0
176
     0
290
     0
176
     0
 90
        1
176
     0
 40
0.0
176
     0
 90
        0
176
     0
290
     0
176
     1
290
     1
176
     1
290
     1
176
     1
290
     0
176
     1
290
     0
176
     1
290
     0
176
     1
290
     0
176
     1
290
     0
176
     1
290
     0
176
     1
 90
       50
176
     0
 40
0.0
176
     0
 40
1.0
176
     0
 90
        0
176
     0
 62
    18
420
        0
176
     0
 90
       50
176
     0
 90
        3
176
     0
 62
     5
420
      255
176
     0
290
     0
176
     1
 90
       50
176
     0
 90
       50
176
     0
 90
       50
176
     0
290
     0
176
     1
 90
       50
176
     0
 62
   256
176
     0
 40
1.0
176
     0
 90
        2
176
     0
  1
strokes_ogs.tif
176
     0
290
     0
176
     1
 40
1.0
176
     0
 40
1.0
176
     0
  0
VISUALSTYLE
  5
187
102
{ACAD_REACTORS
330
178
102
}
330
178
100
AcDbVisualStyle
  2
Facepattern
 70
    15
177
     3
291
     1
 70
    58
 90
        2
176
     1
 90
        2
176
     1
 90
        0
176
     1
 90
        0
176
     1
 40
0.6
176
     1
 40
30.0
176
     1
 62
     7
420
 16777215
176
     1
 90
        1
176
     1
 90
        4
176
     1
 62
     7
176
     1
 62
   257
176
     1
 90
        1
176
     1
 90
        1
176
     1
 40
1.0
176
     1
 90
        8
176
     1
 62
     7
176
     1
 40
1.0
176
     1
 90
        1
176
     1
 90
        6
176
     1
 90
        2
176
     1
 62
     7
176
     1
 90
        5
176
     1
 90
        0
176
     1
 90
        0
176
     1
290
     0
176
     1
 90
        1
176
     1
 40
0.0
176
     1
 90
        0
176
     1
290
     0
176
     1
290
     1
176
     1
290
     1
176
     1
290
     0
176
     1
290
     0
176
     1
290
     0
176
     1
290
     0
176
     1
290
     0
176
     1
290
     0
176
     1
 90
       50
176
     1
 40
0.0
176
     1
 40
1.0
176
     1
 90
        0
176
     1
 62
    18
420
        0
176
     1
 90
       50
176
     1
 90
        3
176
     1
 62
     5
420
      255
176
     1
290
     0
176
     1
 90
       50
176
     1
 90
       50
176
     1
 90
       50
176
     1
290
     0
176
     1
 90
       50
176
     1
 62
   256
176
     0
 40
1.0
176
     0
 90
        2
176
     1
  1
strokes_ogs.tif
176
     1
290
     0
176
     1
 40
1.0
176
     1
 40
1.0
176
     1
  0
VISUALSTYLE
  5
179
102
{ACAD_REACTORS
330
178
102
}
330
178
100
AcDbVisualStyle
  2
Flat
 70
     0
177
     3
291
     1
 70
    58
 90
        2
176
     1
 90
        1
176
     1
 90
        1
176
     1
 90
        2
176
     1
 40
0.6
176
     1
 40
30.0
176
     1
 62
     7
420
 16777215
176
     1
 90
        0
176
     1
 90
        0
176
     1
 62
     7
176
     1
 62
   257
176
     1
 90
        1
176
     1
 90
        1
176
     1
 40
1.0
176
     1
 90
        8
176
     1
 62
     7
176
     1
 40
1.0
176
     1
 90
        1
176
     1
 90
        6
176
     1
 90
        2
176
     1
 62
     7
176
     1
 90
        5
176
     1
 90
        0
176
     1
 90
        0
176
     1
290
     0
176
     1
 90
       13
176
     1
 40
0.0
176
     1
 90
        0
176
     1
290
     0
176
     1
290
     1
176
     1
290
     1
176
     1
290
     0
176
     1
290
     0
176
     1
290
     0
176
     1
290
     0
176
     1
290
     0
176
     1
290
     0
176
     1
 90
       50
176
     1
 40
0.0
176
     1
 40
1.0
176
     1
 90
        0
176
     1
 62
    18
420
        0
176
     1
 90
       50
176
     1
 90
        3
176
     1
 62
     5
420
      255
176
     1
290
     0
176
     1
 90
       50
176
     1
 90
       50
176
     1
 90
       50
176
     1
290
     0
176
     1
 90
       50
176
     1
 62
   256
176
     0
 40
1.0
176
     0
 90
        2
176
     1
  1
strokes_ogs.tif
176
     1
290
     0
176
     1
 40
1.0
176
     1
 40
1.0
176
     1
  0
VISUALSTYLE
  5
17A
102
{ACAD_REACTORS
330
178
102
}
330
178
100
AcDbVisualStyle
  2
FlatWithEdges
 70
     1
177
     3
291
     1
 70
    58
 90
        2
176
     1
 90
        1
176
     1
 90
        1
176
     1
 90
        2
176
     1
 40
0.6
176
     1
 40
30.0
176
     1
 62
     7
420
 16777215
176
     1
 90
        1
176
     1
 90
        0
176
     1
 62
     7
176
     1
 62
   257
176
     1
 90
        1
176
     1
 90
        1
176
     1
 40
1.0
176
     1
 90
        0
176
     1
 62
   257
176
     1
 40
1.0
176
     1
 90
        1
176
     1
 90
        6
176
     1
 90
        2
176
     1
 62
     7
176
     1
 90
        5
176
     1
 90
        0
176
     1
 90
        0
176
     1
290
     0
176
     1
 90
       13
176
     1
 40
0.0
176
     1
 90
        0
176
     1
290
     0
176
     1
290
     1
176
     1
290
     1
176
     1
290
     0
176
     1
290
     0
176
     1
290
     0
176
     1
290
     0
176
     1
290
     0
176
     1
290
     0
176
     1
 90
       50
176
     1
 40
0.0
176
     1
 40
1.0
176
     1
 90
        0
176
     1
 62
    18
420
        0
176
     1
 90
       50
176
     1
 90
        3
176
     1
 62
     5
420
      255
176
     1
290
     0
176
     1
 90
       50
176
     1
 90
       50
176
     1
 90
       50
176
     1
290
     0
176
     1
 90
       50
176
     1
 62
   256
176
     0
 40
1.0
176
     0
 90
        2
176
     1
  1
strokes_ogs.tif
176
     1
290
     0
176
     1
 40
1.0
176
     1
 40
1.0
176
     1
  0
VISUALSTYLE
  5
17B
102
{ACAD_REACTORS
330
178
102
}
330
178
100
AcDbVisualStyle
  2
Gouraud
 70
     2
177
     3
291
     1
 70
    58
 90
        2
176
     1
 90
        2
176
     1
 90
        1
176
     1
 90
        2
176
     1
 40
0.6
176
     1
 40
30.0
176
     1
 62
     7
420
 16777215
176
     1
 90
        0
176
     1
 90
        0
176
     1
 62
     7
176
     1
 62
   257
176
     1
 90
        1
176
     1
 90
        1
176
     1
 40
1.0
176
     1
 90
        0
176
     1
 62
     7
176
     1
 40
1.0
176
     1
 90
        1
176
     1
 90
        6
176
     1
 90
        2
176
     1
 62
     7
176
     1
 90
        5
176
     1
 90
        0
176
     1
 90
        0
176
     1
290
     0
176
     1
 90
       13
176
     1
 40
0.0
176
     1
 90
        0
176
     1
290
     0
176
     1
290
     1
176
     1
290
     1
176
     1
290
     0
176
     1
290
     0
176
     1
290
     0
176
     1
290
     0
176
     1
290
     0
176
     1
290
     0
176
     1
 90
       50
176
     1
 40
0.0
176
     1
 40
1.0
176
     1
 90
        0
176
     1
 62
    18
420
        0
176
     1
 90
       50
176
     1
 90
        3
176
     1
 62
     5
420
      255
176
     1
290
     0
176
     1
 90
       50
176
     1
 90
       50
176
     1
 90
       50
176
     1
290
     0
176
     1
 90
       50
176
     1
 62
   256
176
     0
 40
1.0
176
     0
 90
        2
176
     1
  1
strokes_ogs.tif
176
     1
290
     0
176
     1
 40
1.0
176
     1
 40
1.0
176
     1
  0
VISUALSTYLE
  5
17C
102
{ACAD_REACTORS
330
178
102
}
330
178
100
AcDbVisualStyle
  2
GouraudWithEdges
 70
     3
177
     3
291
     1
 70
    58
 90
        2
176
     1
 90
        2
176
     1
 90
        1
176
     1
 90
        2
176
     1
 40
0.6
176
     1
 40
30.0
176
     1
 62
     7
420
 16777215
176
     1
 90
        1
176
     1
 90
        0
176
     1
 62
     7
176
     1
 62
   257
176
     1
 90
        1
176
     1
 90
        1
176
     1
 40
1.0
176
     1
 90
        0
176
     1
 62
   257
176
     1
 40
1.0
176
     1
 90
        1
176
     1
 90
        6
176
     1
 90
        2
176
     1
 62
     7
176
     1
 90
        5
176
     1
 90
        0
176
     1
 90
        0
176
     1
290
     0
176
     1
 90
       13
176
     1
 40
0.0
176
     1
 90
        0
176
     1
290
     0
176
     1
290
     1
176
     1
290
     1
176
     1
290
     0
176
     1
290
     0
176
     1
290
     0
176
     1
290
     0
176
     1
290
     0
176
     1
290
     0
176
     1
 90
       50
176
     1
 40
0.0
176
     1
 40
1.0
176
     1
 90
        0
176
     1
 62
    18
420
        0
176
     1
 90
       50
176
     1
 90
        3
176
     1
 62
     5
420
      255
176
     1
290
     0
176
     1
 90
       50
176
     1
 90
       50
176
     1
 90
       50
176
     1
290
     0
176
     1
 90
       50
176
     1
 62
   256
176
     0
 40
1.0
176
     0
 90
        2
176
     1
  1
strokes_ogs.tif
176
     1
290
     0
176
     1
 40
1.0
176
     1
 40
1.0
176
     1
  0
VISUALSTYLE
  5
180
102
{ACAD_REACTORS
330
178
102
}
330
178
100
AcDbVisualStyle
  2
Hidden
 70
     6
177
     3
291
     0
 70
    58
 90
        1
176
     1
 90
        2
176
     1
 90
        2
176
     1
 90
        0
176
     1
 40
0.6
176
     1
 40
30.0
176
     1
 62
     7
420
 16777215
176
     1
 90
        2
176
     1
 90
        2
176
     1
 62
     7
176
     1
 62
   257
176
     1
 90
        2
176
     1
 90
        1
176
     1
 40
40.0
176
     1
 90
        0
176
     1
 62
   257
176
     1
 40
1.0
176
     1
 90
        1
176
     1
 90
        6
176
     1
 90
        2
176
     1
 62
     7
176
     1
 90
        3
176
     1
 90
        0
176
     1
 90
        0
176
     1
290
     0
176
     1
 90
        1
176
     1
 40
0.0
176
     1
 90
        0
176
     1
290
     0
176
     1
290
     1
176
     1
290
     1
176
     1
290
     0
176
     1
290
     0
176
     1
290
     0
176
     1
290
     0
176
     1
290
     0
176
     1
290
     0
176
     1
 90
       50
176
     1
 40
0.0
176
     1
 40
1.0
176
     1
 90
        0
176
     1
 62
    18
420
        0
176
     1
 90
       50
176
     1
 90
        3
176
     1
 62
     5
420
      255
176
     1
290
     0
176
     1
 90
       50
176
     1
 90
       50
176
     1
 90
       50
176
     1
290
     0
176
     1
 90
       50
176
     1
 62
   256
176
     0
 40
1.0
176
     0
 90
        2
176
     1
  1
strokes_ogs.tif
176
     1
290
     0
176
     1
 40
1.0
176
     1
 40
1.0
176
     1
  0
VISUALSTYLE
  5
18E
102
{ACAD_REACTORS
330
178
102
}
330
178
100
AcDbVisualStyle
  2
JitterOff
 70
    20
177
     3
291
     1
 70
    58
 90
        2
176
     0
 90
        2
176
     0
 90
        0
176
     0
 90
        0
176
     0
 40
0.6
176
     0
 40
30.0
176
     0
 62
     7
420
 16777215
176
     0
 90
        1
176
     0
 90
        4
176
     0
 62
     7
176
     0
 62
   257
176
     0
 90
        1
176
     0
 90
        1
176
     0
 40
1.0
176
     0
 90
       10
176
     2
 62
     7
176
     0
 40
1.0
176
     0
 90
        1
176
     0
 90
        6
176
     0
 90
        2
176
     0
 62
     7
176
     0
 90
        5
176
     0
 90
        0
176
     0
 90
        0
176
     0
290
     0
176
     0
 90
        1
176
     0
 40
0.0
176
     0
 90
        0
176
     0
290
     0
176
     1
290
     1
176
     1
290
     1
176
     1
290
     0
176
     1
290
     0
176
     1
290
     0
176
     1
290
     0
176
     1
290
     0
176
     1
290
     0
176
     1
 90
       50
176
     0
 40
0.0
176
     0
 40
1.0
176
     0
 90
        0
176
     0
 62
    18
420
        0
176
     0
 90
       50
176
     0
 90
        3
176
     0
 62
     5
420
      255
176
     0
290
     0
176
     1
 90
       50
176
     0
 90
       50
176
     0
 90
       50
176
     0
290
     0
176
     1
 90
       50
176
     0
 62
   256
176
     0
 40
1.0
176
     0
 90
        2
176
     0
  1
strokes_ogs.tif
176
     0
290
     0
176
     1
 40
1.0
176
     0
 40
1.0
176
     0
  0
VISUALSTYLE
  5
186
102
{ACAD_REACTORS
330
178
102
}
330
178
100
AcDbVisualStyle
  2
Linepattern
 70
    14
177
     3
291
     1
 70
    58
 90
        2
176
     1
 90
        2
176
     1
 90
        0
176
     1
 90
        0
176
     1
 40
0.6
176
     1
 40
30.0
176
     1
 62
     7
420
 16777215
176
     1
 90
        1
176
     1
 90
        4
176
     1
 62
     7
176
     1
 62
   257
176
     1
 90
        7
176
     1
 90
        7
176
     1
 40
1.0
176
     1
 90
        8
176
     1
 62
     7
176
     1
 40
1.0
176
     1
 90
        1
176
     1
 90
        6
176
     1
 90
        2
176
     1
 62
     7
176
     1
 90
        5
176
     1
 90
        0
176
     1
 90
        0
176
     1
290
     0
176
     1
 90
        1
176
     1
 40
0.0
176
     1
 90
        0
176
     1
290
     0
176
     1
290
     1
176
     1
290
     1
176
     1
290
     0
176
     1
290
     0
176
     1
290
     0
176
     1
290
     0
176
     1
290
     0
176
     1
290
     0
176
     1
 90
       50
176
     1
 40
0.0
176
     1
 40
1.0
176
     1
 90
        0
176
     1
 62
    18
420
        0
176
     1
 90
       50
176
     1
 90
        3
176
     1
 62
     5
420
      255
176
     1
290
     0
176
     1
 90
       50
176
     1
 90
       50
176
     1
 90
       50
176
     1
290
     0
176
     1
 90
       50
176
     1
 62
   256
176
     0
 40
1.0
176
     0
 90
        2
176
     1
  1
strokes_ogs.tif
176
     1
290
     0
176
     1
 40
1.0
176
     1
 40
1.0
176
     1
  0
VISUALSTYLE
  5
18F
102
{ACAD_REACTORS
330
178
102
}
330
178
100
AcDbVisualStyle
  2
OverhangOff
 70
    21
177
     3
291
     1
 70
    58
 90
        2
176
     0
 90
        2
176
     0
 90
        0
176
     0
 90
        0
176
     0
 40
0.6
176
     0
 40
30.0
176
     0
 62
     7
420
 16777215
176
     0
 90
        1
176
     0
 90
        4
176
     0
 62
     7
176
     0
 62
   257
176
     0
 90
        1
176
     0
 90
        1
176
     0
 40
1.0
176
     0
 90
        9
176
     2
 62
     7
176
     0
 40
1.0
176
     0
 90
        1
176
     0
 90
        6
176
     0
 90
        2
176
     0
 62
     7
176
     0
 90
        5
176
     0
 90
        0
176
     0
 90
        0
176
     0
290
     0
176
     0
 90
        1
176
     0
 40
0.0
176
     0
 90
        0
176
     0
290
     0
176
     1
290
     1
176
     1
290
     1
176
     1
290
     0
176
     1
290
     0
176
     1
290
     0
176
     1
290
     0
176
     1
290
     0
176
     1
290
     0
176
     1
 90
       50
176
     0
 40
0.0
176
     0
 40
1.0
176
     0
 90
        0
176
     0
 62
    18
420
        0
176
     0
 90
       50
176
     0
 90
        3
176
     0
 62
     5
420
      255
176
     0
290
     0
176
     1
 90
       50
176
     0
 90
       50
176
     0
 90
       50
176
     0
290
     0
176
     1
 90
       50
176
     0
 62
   256
176
     0
 40
1.0
176
     0
 90
        2
176
     0
  1
strokes_ogs.tif
176
     0
290
     0
176
     1
 40
1.0
176
     0
 40
1.0
176
     0
  0
VISUALSTYLE
  5
182
102
{ACAD_REACTORS
330
178
102
}
330
178
100
AcDbVisualStyle
  2
Realistic
 70
     8
177
     3
291
     0
 70
    58
 90
        2
176
     1
 90
        3
176
     1
 90
        0
176
     1
 90
        2
176
     1
 40
0.6
176
     1
 40
30.0
176
     1
 62
     7
420
 16777215
176
     1
 90
        0
176
     1
 90
        0
176
     1
 62
     7
176
     1
 62
   257
176
     1
 90
        1
176
     1
 90
        1
176
     1
 40
1.0
176
     1
 90
        8
176
     1
 62
   257
176
     1
 40
1.0
176
     1
 90
        1
176
     1
 90
        6
176
     1
 90
        2
176
     1
 62
     7
176
     1
 90
        3
176
     1
 90
        0
176
     1
 90
        0
176
     1
290
     0
176
     1
 90
       13
176
     1
 40
0.0
176
     1
 90
        0
176
     1
290
     0
176
     1
290
     1
176
     1
290
     1
176
     1
290
     0
176
     1
290
     0
176
     1
290
     0
176
     1
290
     0
176
     1
290
     0
176
     1
290
     0
176
     1
 90
       50
176
     1
 40
0.0
176
     1
 40
1.0
176
     1
 90
        0
176
     1
 62
    18
420
        0
176
     1
 90
       50
176
     1
 90
        3
176
     1
 62
     5
420
      255
176
     1
290
     0
176
     1
 90
       50
176
     1
 90
       50
176
     1
 90
       50
176
     1
290
     0
176
     1
 90
       50
176
     1
 62
   256
176
     0
 40
1.0
176
     0
 90
        2
176
     1
  1
strokes_ogs.tif
176
     1
290
     0
176
     1
 40
1.0
176
     1
 40
1.0
176
     1
  0
VISUALSTYLE
  5
18D
102
{ACAD_REACTORS
330
178
102
}
330
178
100
AcDbVisualStyle
  2
Shaded
 70
    27
177
     3
291
     0
 70
    58
 90
        2
176
     1
 90
        2
176
     1
 90
        1
176
     1
 90
        2
176
     1
 40
0.6
176
     1
 40
30.0
176
     1
 62
     7
420
 16777215
176
     1
 90
        0
176
     1
 90
        4
176
     1
 62
     7
176
     1
 62
   257
176
     1
 90
        1
176
     1
 90
        1
176
     1
 40
1.0
176
     1
 90
        8
176
     1
 62
   257
176
     1
 40
1.0
176
     1
 90
        1
176
     1
 90
        6
176
     1
 90
        2
176
     1
 62
     8
420
  7895160
176
     1
 90
        3
176
     1
 90
        0
176
     1
 90
        0
176
     1
290
     0
176
     1
 90
        5
176
     1
 40
0.0
176
     1
 90
        0
176
     1
290
     0
176
     1
290
     1
176
     1
290
     1
176
     1
290
     0
176
     1
290
     0
176
     1
290
     0
176
     1
290
     0
176
     1
290
     0
176
     1
290
     0
176
     1
 90
       50
176
     1
 40
0.0
176
     1
 40
1.0
176
     1
 90
        0
176
     1
 62
    18
420
        0
176
     1
 90
       50
176
     1
 90
        3
176
     1
 62
     5
420
      255
176
     1
290
     0
176
     1
 90
       50
176
     1
 90
       50
176
     1
 90
       50
176
     1
290
     0
176
     1
 90
       50
176
     1
 62
   256
176
     0
 40
1.0
176
     0
 90
        2
176
     1
  1
strokes_ogs.tif
176
     1
290
     0
176
     1
 40
1.0
176
     1
 40
1.0
176
     1
  0
VISUALSTYLE
  5
18C
102
{ACAD_REACTORS
330
178
102
}
330
178
100
AcDbVisualStyle
  2
Shaded with edges
 70
    26
177
     3
291
     0
 70
    58
 90
        2
176
     1
 90
        2
176
     1
 90
        1
176
     1
 90
        2
176
     1
 40
0.6
176
     1
 40
30.0
176
     1
 62
     7
420
 16777215
176
     1
 90
        1
176
     1
 90
        2
176
     1
 62
     7
176
     1
 62
   257
176
     1
 90
        2
176
     1
 90
        1
176
     1
 40
1.0
176
     1
 90
        8
176
     1
 62
   257
176
     1
 40
1.0
176
     1
 90
        1
176
     1
 90
        6
176
     1
 90
        2
176
     1
 62
     7
176
     1
 90
        3
176
     1
 90
        0
176
     1
 90
        0
176
     1
290
     0
176
     1
 90
        5
176
     1
 40
0.0
176
     1
 90
        0
176
     1
290
     0
176
     1
290
     1
176
     1
290
     1
176
     1
290
     0
176
     1
290
     0
176
     1
290
     0
176
     1
290
     0
176
     1
290
     0
176
     1
290
     0
176
     1
 90
       50
176
     1
 40
0.0
176
     1
 40
1.0
176
     1
 90
        0
176
     1
 62
    18
420
        0
176
     1
 90
       50
176
     1
 90
        3
176
     1
 62
     5
420
      255
176
     1
290
     0
176
     1
 90
       50
176
     1
 90
       50
176
     1
 90
       50
176
     1
290
     0
176
     1
 90
       50
176
     1
 62
   256
176
     0
 40
1.0
176
     0
 90
        2
176
     1
  1
strokes_ogs.tif
176
     1
290
     0
176
     1
 40
1.0
176
     1
 40
1.0
176
     1
  0
VISUALSTYLE
  5
189
102
{ACAD_REACTORS
330
178
102
}
330
178
100
AcDbVisualStyle
  2
Shades of Gray
 70
    23
177
     3
291
     0
 70
    58
 90
        2
176
     1
 90
        2
176
     1
 90
        3
176
     1
 90
        0
176
     1
 40
0.6
176
     1
 40
30.0
176
     1
 62
     7
420
 16777215
176
     1
 90
        2
176
     1
 90
        2
176
     1
 62
     7
176
     1
 62
     7
176
     1
 90
        1
176
     1
 90
        1
176
     1
 40
40.0
176
     1
 90
        8
176
     1
 62
     7
176
     1
 40
1.0
176
     1
 90
        1
176
     1
 90
        6
176
     1
 90
        2
176
     1
 62
     7
176
     1
 90
        3
176
     1
 90
        0
176
     1
 90
        0
176
     1
290
     0
176
     1
 90
        1
176
     1
 40
0.0
176
     1
 90
        0
176
     1
290
     0
176
     1
290
     1
176
     1
290
     1
176
     1
290
     0
176
     1
290
     0
176
     1
290
     0
176
     1
290
     0
176
     1
290
     0
176
     1
290
     0
176
     1
 90
       50
176
     1
 40
0.0
176
     1
 40
1.0
176
     1
 90
        0
176
     1
 62
    18
420
        0
176
     1
 90
       50
176
     1
 90
        3
176
     1
 62
     5
420
      255
176
     1
290
     0
176
     1
 90
       50
176
     1
 90
       50
176
     1
 90
       50
176
     1
290
     0
176
     1
 90
       50
176
     1
 62
   256
176
     0
 40
1.0
176
     0
 90
        2
176
     1
  1
strokes_ogs.tif
176
     1
290
     0
176
     1
 40
1.0
176
     1
 40
1.0
176
     1
  0
VISUALSTYLE
  5
18A
102
{ACAD_REACTORS
330
178
102
}
330
178
100
AcDbVisualStyle
  2
Sketchy
 70
    24
177
     3
291
     0
 70
    58
 90
        1
176
     1
 90
        2
176
     1
 90
        2
176
     1
 90
        0
176
     1
 40
0.6
176
     1
 40
30.0
176
     1
 62
     7
420
 16777215
176
     1
 90
        2
176
     1
 90
        2
176
     1
 62
     7
176
     1
 62
     7
176
     1
 90
        1
176
     1
 90
        1
176
     1
 40
40.0
176
     1
 90
       11
176
     1
 62
     7
176
     1
 40
1.0
176
     1
 90
        1
176
     1
 90
        6
176
     1
 90
        2
176
     1
 62
     7
176
     1
 90
        6
176
     1
 90
        0
176
     1
 90
        0
176
     1
290
     0
176
     1
 90
        1
176
     1
 40
0.0
176
     1
 90
        0
176
     1
290
     0
176
     1
290
     1
176
     1
290
     1
176
     1
290
     0
176
     1
290
     0
176
     1
290
     0
176
     1
290
     0
176
     1
290
     0
176
     1
290
     0
176
     1
 90
       50
176
     1
 40
0.0
176
     1
 40
1.0
176
     1
 90
        0
176
     1
 62
    18
420
        0
176
     1
 90
       50
176
     1
 90
        3
176
     1
 62
     5
420
      255
176
     1
290
     0
176
     1
 90
       50
176
     1
 90
       50
176
     1
 90
       50
176
     1
290
     0
176
     1
 90
       50
176
     1
 62
   256
176
     0
 40
1.0
176
     0
 90
        2
176
     1
  1
strokes_ogs.tif
176
     1
290
     0
176
     1
 40
1.0
176
     1
 40
1.0
176
     1
  0
VISUALSTYLE
  5
185
102
{ACAD_REACTORS
330
178
102
}
330
178
100
AcDbVisualStyle
  2
Thicken
 70
    13
177
     3
291
     1
 70
    58
 90
        2
176
     1
 90
        2
176
     1
 90
        0
176
     1
 90
        0
176
     1
 40
0.6
176
     1
 40
30.0
176
     1
 62
     7
420
 16777215
176
     1
 90
        1
176
     1
 90
        4
176
     1
 62
     7
176
     1
 62
   257
176
     1
 90
        1
176
     1
 90
        1
176
     1
 40
1.0
176
     1
 90
       12
176
     1
 62
     7
176
     1
 40
1.0
176
     1
 90
        1
176
     1
 90
        6
176
     1
 90
        2
176
     1
 62
     7
176
     1
 90
        5
176
     1
 90
        0
176
     1
 90
        0
176
     1
290
     0
176
     1
 90
        1
176
     1
 40
0.0
176
     1
 90
        0
176
     1
290
     0
176
     1
290
     1
176
     1
290
     1
176
     1
290
     0
176
     1
290
     0
176
     1
290
     0
176
     1
290
     0
176
     1
290
     0
176
     1
290
     0
176
     1
 90
       50
176
     1
 40
0.0
176
     1
 40
1.0
176
     1
 90
        0
176
     1
 62
    18
420
        0
176
     1
 90
       50
176
     1
 90
        3
176
     1
 62
     5
420
      255
176
     1
290
     0
176
     1
 90
       50
176
     1
 90
       50
176
     1
 90
       50
176
     1
290
     0
176
     1
 90
       50
176
     1
 62
   256
176
     0
 40
1.0
176
     0
 90
        2
176
     1
  1
strokes_ogs.tif
176
     1
290
     0
176
     1
 40
1.0
176
     1
 40
1.0
176
     1
  0
VISUALSTYLE
  5
17F
102
{ACAD_REACTORS
330
178
102
}
330
178
100
AcDbVisualStyle
  2
Wireframe
 70
     5
177
     3
291
     0
 70
    58
 90
        0
176
     1
 90
        2
176
     1
 90
        0
176
     1
 90
        0
176
     1
 40
0.6
176
     1
 40
30.0
176
     1
 62
     7
420
 16777215
176
     1
 90
        1
176
     1
 90
        4
176
     1
 62
     7
176
     1
 62
   257
176
     1
 90
        1
176
     1
 90
        1
176
     1
 40
1.0
176
     1
 90
        0
176
     1
 62
   257
176
     1
 40
1.0
176
     1
 90
        1
176
     1
 90
        6
176
     1
 90
        2
176
     1
 62
     7
176
     1
 90
        3
176
     1
 90
        0
176
     1
 90
        0
176
     1
290
     0
176
     1
 90
        1
176
     1
 40
0.0
176
     1
 90
        0
176
     1
290
     0
176
     1
290
     1
176
     1
290
     1
176
     1
290
     0
176
     1
290
     0
176
     1
290
     0
176
     1
290
     0
176
     1
290
     0
176
     1
290
     0
176
     1
 90
       50
176
     1
 40
0.0
176
     1
 40
1.0
176
     1
 90
        0
176
     1
 62
    18
420
        0
176
     1
 90
       50
176
     1
 90
        3
176
     1
 62
     5
420
      255
176
     1
290
     0
176
     1
 90
       50
176
     1
 90
       50
176
     1
 90
       50
176
     1
290
     0
176
     1
 90
       50
176
     1
 62
   256
176
     0
 40
1.0
176
     0
 90
        2
176
     1
  1
strokes_ogs.tif
176
     1
290
     0
176
     1
 40
1.0
176
     1
 40
1.0
176
     1
  0
VISUALSTYLE
  5
18B
102
{ACAD_REACTORS
330
178
102
}
330
178
100
AcDbVisualStyle
  2
X-Ray
 70
    25
177
     3
291
     0
 70
    58
 90
        2
176
     1
 90
        2
176
     1
 90
        1
176
     1
 90
        1
176
     1
 40
0.5
176
     1
 40
30.0
176
     1
 62
     7
420
 16777215
176
     1
 90
        1
176
     1
 90
        0
176
     1
 62
     7
176
     1
 62
   257
176
     1
 90
        1
176
     1
 90
        1
176
     1
 40
1.0
176
     1
 90
        8
176
     1
 62
     7
176
     1
 40
1.0
176
     1
 90
        1
176
     1
 90
        6
176
     1
 90
        2
176
     1
 62
     7
176
     1
 90
        3
176
     1
 90
        0
176
     1
 90
        0
176
     1
290
     0
176
     1
 90
       13
176
     1
 40
0.0
176
     1
 90
        0
176
     1
290
     0
176
     1
290
     1
176
     1
290
     1
176
     1
290
     0
176
     1
290
     0
176
     1
290
     0
176
     1
290
     0
176
     1
290
     0
176
     1
290
     0
176
     1
 90
       50
176
     1
 40
0.0
176
     1
 40
1.0
176
     1
 90
        0
176
     1
 62
    18
420
        0
176
     1
 90
       50
176
     1
 90
        3
176
     1
 62
     5
420
      255
176
     1
290
     0
176
     1
 90
       50
176
     1
 90
       50
176
     1
 90
       50
176
     1
290
     0
176
     1
 90
       50
176
     1
 62
   256
176
     0
 40
1.0
176
     0
 90
        2
176
     1
  1
strokes_ogs.tif
176
     1
290
     0
176
     1
 40
1.0
176
     1
 40
1.0
176
     1
  0
DICTIONARYVAR
  5
317
102
{ACAD_REACTORS
330
311
102
}
330
311
100
DictionaryVariables
280
     0
  1
1:1
  0
DICTIONARYVAR
  5
313
102
{ACAD_REACTORS
330
311
102
}
330
311
100
DictionaryVariables
280
     0
  1
STANDARD
  0
DICTIONARYVAR
  5
312
102
{ACAD_REACTORS
330
311
102
}
330
311
100
DictionaryVariables
280
     0
  1
STANDARD
  0
DICTIONARYVAR
  5
314
102
{ACAD_REACTORS
330
311
102
}
330
311
100
DictionaryVariables
280
     0
  1
Metric50
  0
DICTIONARYVAR
  5
315
102
{ACAD_REACTORS
330
311
102
}
330
311
100
DictionaryVariables
280
     0
  1
Metric50
  0
DICTIONARYVAR
  5
319
102
{ACAD_REACTORS
330
311
102
}
330
311
100
DictionaryVariables
280
     0
  1
1
  0
DICTIONARYVAR
  5
31A
102
{ACAD_REACTORS
330
311
102
}
330
311
100
DictionaryVariables
280
     0
  1
15
  0
DICTIONARYVAR
  5
318
102
{ACAD_REACTORS
330
311
102
}
330
311
100
DictionaryVariables
280
     0
  1
0
  0
DICTIONARYVAR
  5
316
102
{ACAD_REACTORS
330
311
102
}
330
311
100
DictionaryVariables
280
     0
  1
0
  0
DICTIONARY
  5
2D3
102
{ACAD_REACTORS
330
2D2
102
}
330
2D2
100
AcDbDictionary
281
     1
  3
*A1
350
2D4
  0
DICTIONARY
  5
2C5
102
{ACAD_REACTORS
330
2C4
102
}
330
2C4
100
AcDbDictionary
281
     1
  3
*A1
350
2C6
  0
DICTIONARY
  5
2E1
102
{ACAD_REACTORS
330
2E0
102
}
330
2E0
100
AcDbDictionary
281
     1
  3
*A1
350
2E2
  0
DICTIONARY
  5
2B5
102
{ACAD_REACTORS
330
2B4
102
}
330
2B4
100
AcDbDictionary
281
     1
  3
*A1
350
2B6
  0
DICTIONARY
  5
2A7
102
{ACAD_REACTORS
330
2A6
102
}
330
2A6
100
AcDbDictionary
281
     1
  3
*A1
350
2A8
  0
DICTIONARY
  5
299
102
{ACAD_REACTORS
330
298
102
}
330
298
100
AcDbDictionary
281
     1
  3
*A1
350
29A
  0
DICTIONARY
  5
28B
102
{ACAD_REACTORS
330
28A
102
}
330
28A
100
AcDbDictionary
281
     1
  3
*A1
350
28C
  0
DICTIONARY
  5
27A
102
{ACAD_REACTORS
330
279
102
}
330
279
100
AcDbDictionary
281
     1
  3
*A1
350
27B
  0
DICTIONARY
  5
169
330
168
100
AcDbDictionary
280
     1
281
     1
  3
BUMPTILE
360
16B
  3
DIFFUSETILE
360
16A
  3
OPACITYTILE
360
16E
  3
REFLECTIONTILE
360
16D
  3
REFRACTIONTILE
360
16F
  3
SPECULARTILE
360
16C
  0
DICTIONARY
  5
161
330
160
100
AcDbDictionary
280
     1
281
     1
  3
BUMPTILE
360
163
  3
DIFFUSETILE
360
162
  3
OPACITYTILE
360
166
  3
REFLECTIONTILE
360
165
  3
REFRACTIONTILE
360
167
  3
SPECULARTILE
360
164
  0
DICTIONARY
  5
171
330
170
100
AcDbDictionary
280
     1
281
     1
  3
BUMPTILE
360
173
  3
DIFFUSETILE
360
172
  3
OPACITYTILE
360
176
  3
REFLECTIONTILE
360
175
  3
REFRACTIONTILE
360
177
  3
SPECULARTILE
360
174
  0
DICTIONARY
  5
31B
330
193
100
AcDbDictionary
280
     1
281
     1
  3
ACAD_ROUNDTRIP_2008_TABLESTYLE_CELLSTYLEMAP
360
31C
  0
ACDB_ALDIMOBJECTCONTEXTDATA_CLASS
  5
2D4
102
{ACAD_REACTORS
330
2D3
102
}
330
2D3
100
AcDbObjectContextData
 70
     4
290
     1
100
AcDbAnnotScaleObjectContextData
340
48
100
AcDbDimensionObjectContextData
  2
*D20
293
     0
 10
62.2070906002
 20
113.2456111757
294
     0
140
0.0
298
     0
291
     0
 70
     0
292
     0
 71
     0
280
     0
295
     0
296
     0
297
     0
100
AcDbAlignedDimensionObjectContextData
 11
62.20709060019999
 21
127.8567299677
 31
0.0
  0
ACDB_ALDIMOBJECTCONTEXTDATA_CLASS
  5
2C6
102
{ACAD_REACTORS
330
2C5
102
}
330
2C5
100
AcDbObjectContextData
 70
     4
290
     1
100
AcDbAnnotScaleObjectContextData
340
48
100
AcDbDimensionObjectContextData
  2
*D19
293
     0
 10
171.5221025741
 20
101.7197038971
294
     0
140
0.0
298
     0
291
     0
 70
     0
292
     0
 71
     0
280
     0
295
     0
296
     0
297
     0
100
AcDbAlignedDimensionObjectContextData
 11
182.1887692407666
 21
121.4567299677
 31
0.0
  0
ACDB_ALDIMOBJECTCONTEXTDATA_CLASS
  5
2E2
102
{ACAD_REACTORS
330
2E1
102
}
330
2E1
100
AcDbObjectContextData
 70
     4
290
     1
100
AcDbAnnotScaleObjectContextData
340
48
100
AcDbDimensionObjectContextData
  2
*D21
293
     0
 10
118.2693186287999
 20
244.9403178484
294
     0
140
0.0
298
     0
291
     0
 70
     0
292
     0
 71
     0
280
     0
295
     0
296
     0
297
     0
100
AcDbAlignedDimensionObjectContextData
 11
77.13381465421093
 21
244.905966772966
 31
0.0
  0
ACDB_ALDIMOBJECTCONTEXTDATA_CLASS
  5
2B6
102
{ACAD_REACTORS
330
2B5
102
}
330
2B5
100
AcDbObjectContextData
 70
     4
290
     1
100
AcDbAnnotScaleObjectContextData
340
48
100
AcDbDimensionObjectContextData
  2
*D18
293
     0
 10
240.0484102839
 20
64.3744297003
294
     0
140
0.0
298
     0
291
     0
 70
     0
292
     0
 71
     0
280
     0
295
     0
296
     0
297
     0
100
AcDbAlignedDimensionObjectContextData
 11
271.8742787286
 21
64.3744297003
 31
0.0
  0
ACDB_ALDIMOBJECTCONTEXTDATA_CLASS
  5
2A8
102
{ACAD_REACTORS
330
2A7
102
}
330
2A7
100
AcDbObjectContextData
 70
     4
290
     1
100
AcDbAnnotScaleObjectContextData
340
48
100
AcDbDimensionObjectContextData
  2
*D17
293
     0
 10
241.6358735584
 20
139.4205189436
294
     0
140
0.0
298
     0
291
     0
 70
     0
292
     0
 71
     0
280
     0
295
     0
296
     0
297
     0
100
AcDbAlignedDimensionObjectContextData
 11
262.4642786972
 21
139.4205189436
 31
0.0
  0
ACDB_ALDIMOBJECTCONTEXTDATA_CLASS
  5
29A
102
{ACAD_REACTORS
330
299
102
}
330
299
100
AcDbObjectContextData
 70
     4
290
     1
100
AcDbAnnotScaleObjectContextData
340
48
100
AcDbDimensionObjectContextData
  2
*D16
293
     0
 10
302.054888989229
 20
104.7067299676999
294
     1
140
0.0
298
     0
291
     0
 70
     0
292
     0
 71
     0
280
     0
295
     0
296
     0
297
     0
100
AcDbAlignedDimensionObjectContextData
 11
291.3882223225623
 21
81.55672996770006
 31
0.0
  0
ACDB_ALDIMOBJECTCONTEXTDATA_CLASS
  5
28C
102
{ACAD_REACTORS
330
28B
102
}
330
28B
100
AcDbObjectContextData
 70
     4
290
     1
100
AcDbAnnotScaleObjectContextData
340
48
100
AcDbDimensionObjectContextData
  2
*D15
293
     0
 10
191.2753195303576
 20
82.55672996769996
294
     1
140
0.0
298
     0
291
     0
 70
     0
292
     0
 71
     0
280
     0
295
     0
296
     0
297
     0
100
AcDbAlignedDimensionObjectContextData
 11
197.9419861970243
 21
81.55672996770004
 31
0.0
  0
ACDB_ALDIMOBJECTCONTEXTDATA_CLASS
  5
27B
102
{ACAD_REACTORS
330
27A
102
}
330
27A
100
AcDbObjectContextData
 70
     4
290
     1
100
AcDbAnnotScaleObjectContextData
340
48
100
AcDbDimensionObjectContextData
  2
*D14
293
     0
 10
52.87375726686674
 20
86.05672996770001
294
     1
140
0.0
298
     0
291
     0
 70
     0
292
     0
 71
     0
280
     0
295
     0
296
     0
297
     0
100
AcDbAlignedDimensionObjectContextData
 11
62.20709060020006
 21
81.55672996770004
 31
0.0
  0
XRECORD
  5
16B
102
{ACAD_REACTORS
330
169
102
}
330
169
100
AcDbXrecord
280
     1
270
     1
271
     1
  0
XRECORD
  5
16A
102
{ACAD_REACTORS
330
169
102
}
330
169
100
AcDbXrecord
280
     1
270
     1
271
     1
  0
XRECORD
  5
16E
102
{ACAD_REACTORS
330
169
102
}
330
169
100
AcDbXrecord
280
     1
270
     1
271
     1
  0
XRECORD
  5
16D
102
{ACAD_REACTORS
330
169
102
}
330
169
100
AcDbXrecord
280
     1
270
     1
271
     1
  0
XRECORD
  5
16F
102
{ACAD_REACTORS
330
169
102
}
330
169
100
AcDbXrecord
280
     1
270
     1
271
     1
  0
XRECORD
  5
16C
102
{ACAD_REACTORS
330
169
102
}
330
169
100
AcDbXrecord
280
     1
270
     1
271
     1
  0
XRECORD
  5
163
102
{ACAD_REACTORS
330
161
102
}
330
161
100
AcDbXrecord
280
     1
270
     1
271
     1
  0
XRECORD
  5
162
102
{ACAD_REACTORS
330
161
102
}
330
161
100
AcDbXrecord
280
     1
270
     1
271
     1
  0
XRECORD
  5
166
102
{ACAD_REACTORS
330
161
102
}
330
161
100
AcDbXrecord
280
     1
270
     1
271
     1
  0
XRECORD
  5
165
102
{ACAD_REACTORS
330
161
102
}
330
161
100
AcDbXrecord
280
     1
270
     1
271
     1
  0
XRECORD
  5
167
102
{ACAD_REACTORS
330
161
102
}
330
161
100
AcDbXrecord
280
     1
270
     1
271
     1
  0
XRECORD
  5
164
102
{ACAD_REACTORS
330
161
102
}
330
161
100
AcDbXrecord
280
     1
270
     1
271
     1
  0
XRECORD
  5
173
102
{ACAD_REACTORS
330
171
102
}
330
171
100
AcDbXrecord
280
     1
270
     1
271
     1
  0
XRECORD
  5
172
102
{ACAD_REACTORS
330
171
102
}
330
171
100
AcDbXrecord
280
     1
270
     1
271
     1
  0
XRECORD
  5
176
102
{ACAD_REACTORS
330
171
102
}
330
171
100
AcDbXrecord
280
     1
270
     1
271
     1
  0
XRECORD
  5
175
102
{ACAD_REACTORS
330
171
102
}
330
171
100
AcDbXrecord
280
     1
270
     1
271
     1
  0
XRECORD
  5
177
102
{ACAD_REACTORS
330
171
102
}
330
171
100
AcDbXrecord
280
     1
270
     1
271
     1
  0
XRECORD
  5
174
102
{ACAD_REACTORS
330
171
102
}
330
171
100
AcDbXrecord
280
     1
270
     1
271
     1
  0
CELLSTYLEMAP
  5
31C
102
{ACAD_REACTORS
330
31B
102
}
330
31B
100
AcDbCellStyleMap
 90
        3
300
CELLSTYLE
  1
TABLEFORMAT_BEGIN
 90
        5
170
     1
 91
        0
 92
    32768
 62
   257
 93
        1
300
CONTENTFORMAT
  1
CONTENTFORMAT_BEGIN
 90
        0
 91
        0
 92
      512
 93
        0
300

 40
0.0
140
1.0
 94
        5
 62
     0
340
11
144
6.0
309
CONTENTFORMAT_END
171
     1
301
MARGIN
  1
CELLMARGIN_BEGIN
 40
1.5
 40
1.5
 40
1.5
 40
1.5
 40
4.5
 40
4.5
309
CELLMARGIN_END
 94
        6
 95
        1
302
GRIDFORMAT
  1
GRIDFORMAT_BEGIN
 90
        0
 91
        1
 62
     0
 92
       -2
340
0
 93
        0
 40
1.125
309
GRIDFORMAT_END
 95
        2
302
GRIDFORMAT
  1
GRIDFORMAT_BEGIN
 90
        0
 91
        1
 62
     0
 92
       -2
340
0
 93
        0
 40
1.125
309
GRIDFORMAT_END
 95
        4
302
GRIDFORMAT
  1
GRIDFORMAT_BEGIN
 90
        0
 91
        1
 62
     0
 92
       -2
340
0
 93
        0
 40
1.125
309
GRIDFORMAT_END
 95
        8
302
GRIDFORMAT
  1
GRIDFORMAT_BEGIN
 90
        0
 91
        1
 62
     0
 92
       -2
340
0
 93
        0
 40
1.125
309
GRIDFORMAT_END
 95
       16
302
GRIDFORMAT
  1
GRIDFORMAT_BEGIN
 90
        0
 91
        1
 62
     0
 92
       -2
340
0
 93
        0
 40
1.125
309
GRIDFORMAT_END
 95
       32
302
GRIDFORMAT
  1
GRIDFORMAT_BEGIN
 90
        0
 91
        1
 62
     0
 92
       -2
340
0
 93
        0
 40
1.125
309
GRIDFORMAT_END
309
TABLEFORMAT_END
  1
CELLSTYLE_BEGIN
 90
        1
 91
        1
300
_TITLE
309
CELLSTYLE_END
300
CELLSTYLE
  1
TABLEFORMAT_BEGIN
 90
        5
170
     1
 91
        0
 92
        0
 62
   257
 93
        1
300
CONTENTFORMAT
  1
CONTENTFORMAT_BEGIN
 90
        0
 91
        0
 92
      512
 93
        0
300

 40
0.0
140
1.0
 94
        5
 62
     0
340
11
144
4.5
309
CONTENTFORMAT_END
171
     1
301
MARGIN
  1
CELLMARGIN_BEGIN
 40
1.5
 40
1.5
 40
1.5
 40
1.5
 40
4.5
 40
4.5
309
CELLMARGIN_END
 94
        6
 95
        1
302
GRIDFORMAT
  1
GRIDFORMAT_BEGIN
 90
        0
 91
        1
 62
     0
 92
       -2
340
0
 93
        0
 40
1.125
309
GRIDFORMAT_END
 95
        2
302
GRIDFORMAT
  1
GRIDFORMAT_BEGIN
 90
        0
 91
        1
 62
     0
 92
       -2
340
0
 93
        0
 40
1.125
309
GRIDFORMAT_END
 95
        4
302
GRIDFORMAT
  1
GRIDFORMAT_BEGIN
 90
        0
 91
        1
 62
     0
 92
       -2
340
0
 93
        0
 40
1.125
309
GRIDFORMAT_END
 95
        8
302
GRIDFORMAT
  1
GRIDFORMAT_BEGIN
 90
        0
 91
        1
 62
     0
 92
       -2
340
0
 93
        0
 40
1.125
309
GRIDFORMAT_END
 95
       16
302
GRIDFORMAT
  1
GRIDFORMAT_BEGIN
 90
        0
 91
        1
 62
     0
 92
       -2
340
0
 93
        0
 40
1.125
309
GRIDFORMAT_END
 95
       32
302
GRIDFORMAT
  1
GRIDFORMAT_BEGIN
 90
        0
 91
        1
 62
     0
 92
       -2
340
0
 93
        0
 40
1.125
309
GRIDFORMAT_END
309
TABLEFORMAT_END
  1
CELLSTYLE_BEGIN
 90
        2
 91
        1
300
_HEADER
309
CELLSTYLE_END
300
CELLSTYLE
  1
TABLEFORMAT_BEGIN
 90
        5
170
     1
 91
        0
 92
        0
 62
   257
 93
        1
300
CONTENTFORMAT
  1
CONTENTFORMAT_BEGIN
 90
        0
 91
        0
 92
      512
 93
        0
300

 40
0.0
140
1.0
 94
        2
 62
     0
340
11
144
4.5
309
CONTENTFORMAT_END
171
     1
301
MARGIN
  1
CELLMARGIN_BEGIN
 40
1.5
 40
1.5
 40
1.5
 40
1.5
 40
4.5
 40
4.5
309
CELLMARGIN_END
 94
        6
 95
        1
302
GRIDFORMAT
  1
GRIDFORMAT_BEGIN
 90
        0
 91
        1
 62
     0
 92
       -2
340
0
 93
        0
 40
1.125
309
GRIDFORMAT_END
 95
        2
302
GRIDFORMAT
  1
GRIDFORMAT_BEGIN
 90
        0
 91
        1
 62
     0
 92
       -2
340
0
 93
        0
 40
1.125
309
GRIDFORMAT_END
 95
        4
302
GRIDFORMAT
  1
GRIDFORMAT_BEGIN
 90
        0
 91
        1
 62
     0
 92
       -2
340
0
 93
        0
 40
1.125
309
GRIDFORMAT_END
 95
        8
302
GRIDFORMAT
  1
GRIDFORMAT_BEGIN
 90
        0
 91
        1
 62
     0
 92
       -2
340
0
 93
        0
 40
1.125
309
GRIDFORMAT_END
 95
       16
302
GRIDFORMAT
  1
GRIDFORMAT_BEGIN
 90
        0
 91
        1
 62
     0
 92
       -2
340
0
 93
        0
 40
1.125
309
GRIDFORMAT_END
 95
       32
302
GRIDFORMAT
  1
GRIDFORMAT_BEGIN
 90
        0
 91
        1
 62
     0
 92
       -2
340
0
 93
        0
 40
1.125
309
GRIDFORMAT_END
309
TABLEFORMAT_END
  1
CELLSTYLE_BEGIN
 90
        3
 91
        2
300
_DATA
309
CELLSTYLE_END
  0
ENDSEC
  0
EOF
