  0
SECTION
  2
HEADER
  9
$ACADVER
  1
AC1032
  9
$ACADMAINTVER
 90
      174
  9
$DWGCODEPAGE
  3
ANSI_1252
  9
$LASTSAVEDBY
  1
pengb
  9
$REQUIREDVERSIONS
160
                 0
  9
$INSBASE
 10
0.0
 20
0.0
 30
0.0
  9
$EXTMIN
 10
-51.81486825223333
 20
-140.8740946112
 30
0.0
  9
$EXTMAX
 10
799.8290767259947
 20
460.3370878527
 30
0.0
  9
$LIMMIN
 10
0.0
 20
0.0
  9
$LIMMAX
 10
420.0
 20
297.0
  9
$ORTHOMODE
 70
     0
  9
$REGENMODE
 70
     1
  9
$FILLMODE
 70
     1
  9
$QTEXTMODE
 70
     0
  9
$MIRRTEXT
 70
     1
  9
$LTSCALE
 40
1.0
  9
$ATTMODE
 70
     1
  9
$TEXTSIZE
 40
3.5
  9
$TRACEWID
 40
1.0
  9
$TEXTSTYLE
  7
Standard
  9
$CLAYER
  8
0
  9
$CELTYPE
  6
ByLayer
  9
$CECOLOR
 62
   256
  9
$CELTSCALE
 40
1.0
  9
$DISPSILH
 70
     0
  9
$DIMSCALE
 40
1.0
  9
$DIMASZ
 40
3.302
  9
$DIMEXO
 40
1.0
  9
$DIMDLI
 40
3.75
  9
$DIMRND
 40
0.0
  9
$DIMDLE
 40
0.0
  9
$DIMEXE
 40
1.0
  9
$DIMTP
 40
0.0
  9
$DIMTM
 40
0.0
  9
$DIMTXT
 40
3.5
  9
$DIMCEN
 40
2.5
  9
$DIMTSZ
 40
0.0
  9
$DIMTOL
 70
     0
  9
$DIMLIM
 70
     0
  9
$DIMTIH
 70
     1
  9
$DIMTOH
 70
     1
  9
$DIMSE1
 70
     0
  9
$DIMSE2
 70
     0
  9
$DIMTAD
 70
     1
  9
$DIMZIN
 70
     1
  9
$DIMBLK
  1

  9
$DIMASO
 70
     1
  9
$DIMSHO
 70
     1
  9
$DIMPOST
  1

  9
$DIMAPOST
  1

  9
$DIMALT
 70
     0
  9
$DIMALTD
 70
     3
  9
$DIMALTF
 40
0.0393700787
  9
$DIMLFAC
 40
5.0
  9
$DIMTOFL
 70
     1
  9
$DIMTVP
 40
0.0
  9
$DIMTIX
 70
     0
  9
$DIMSOXD
 70
     0
  9
$DIMSAH
 70
     0
  9
$DIMBLK1
  1

  9
$DIMBLK2
  1

  9
$DIMSTYLE
  2
ISO-25
  9
$DIMCLRD
 70
     0
  9
$DIMCLRE
 70
     0
  9
$DIMCLRT
 70
     0
  9
$DIMTFAC
 40
1.0
  9
$DIMGAP
 40
1.524
  9
$DIMJUST
 70
     0
  9
$DIMSD1
 70
     0
  9
$DIMSD2
 70
     0
  9
$DIMTOLJ
 70
     0
  9
$DIMTZIN
 70
     1
  9
$DIMALTZ
 70
     0
  9
$DIMALTTZ
 70
     0
  9
$DIMUPT
 70
     0
  9
$DIMDEC
 70
     2
  9
$DIMTDEC
 70
     2
  9
$DIMALTU
 70
     2
  9
$DIMALTTD
 70
     3
  9
$DIMTXSTY
  7
Standard
  9
$DIMAUNIT
 70
     0
  9
$DIMADEC
 70
     2
  9
$DIMALTRND
 40
0.0
  9
$DIMAZIN
 70
     0
  9
$DIMDSEP
 70
    44
  9
$DIMATFIT
 70
     3
  9
$DIMFRAC
 70
     0
  9
$DIMLDRBLK
  1

  9
$DIMLUNIT
 70
     2
  9
$DIMLWD
 70
    -2
  9
$DIMLWE
 70
    -2
  9
$DIMTMOVE
 70
     0
  9
$DIMFXL
 40
1.0
  9
$DIMFXLON
 70
     0
  9
$DIMJOGANG
 40
0.7853981633974483
  9
$DIMTFILL
 70
     0
  9
$DIMTFILLCLR
 70
     0
  9
$DIMARCSYM
 70
     0
  9
$DIMLTYPE
  6

  9
$DIMLTEX1
  6

  9
$DIMLTEX2
  6

  9
$DIMTXTDIRECTION
 70
     0
  9
$LUNITS
 70
     2
  9
$LUPREC
 70
     2
  9
$SKETCHINC
 40
1.0
  9
$FILLETRAD
 40
10.0
  9
$AUNITS
 70
     0
  9
$AUPREC
 70
     2
  9
$MENU
  1
.
  9
$ELEVATION
 40
0.0
  9
$PELEVATION
 40
0.0
  9
$THICKNESS
 40
0.0
  9
$LIMCHECK
 70
     0
  9
$CHAMFERA
 40
0.0
  9
$CHAMFERB
 40
0.0
  9
$CHAMFERC
 40
0.0
  9
$CHAMFERD
 40
0.0
  9
$SKPOLY
 70
     0
  9
$TDCREATE
 40
2459982.692847222
  9
$TDUCREATE
 40
2459982.234523171
  9
$TDUPDATE
 40
2460006.451006945
  9
$TDUUPDATE
 40
2460005.992673611
  9
$TDINDWG
 40
0.0009606597
  9
$TDUSRTIMER
 40
0.0009606597
  9
$USRTIMER
 70
     1
  9
$ANGBASE
 50
0.0
  9
$ANGDIR
 70
     0
  9
$PDMODE
 70
     0
  9
$PDSIZE
 40
-1.0
  9
$PLINEWID
 40
0.0
  9
$SPLFRAME
 70
     0
  9
$SPLINETYPE
 70
     6
  9
$SPLINESEGS
 70
     8
  9
$HANDSEED
  5
291
  9
$SURFTAB1
 70
     6
  9
$SURFTAB2
 70
     6
  9
$SURFTYPE
 70
     6
  9
$SURFU
 70
     6
  9
$SURFV
 70
     6
  9
$UCSBASE
  2

  9
$UCSNAME
  2

  9
$UCSORG
 10
0.0
 20
0.0
 30
0.0
  9
$UCSXDIR
 10
1.0
 20
0.0
 30
0.0
  9
$UCSYDIR
 10
0.0
 20
1.0
 30
0.0
  9
$UCSORTHOREF
  2

  9
$UCSORTHOVIEW
 70
     0
  9
$UCSORGTOP
 10
0.0
 20
0.0
 30
0.0
  9
$UCSORGBOTTOM
 10
0.0
 20
0.0
 30
0.0
  9
$UCSORGLEFT
 10
0.0
 20
0.0
 30
0.0
  9
$UCSORGRIGHT
 10
0.0
 20
0.0
 30
0.0
  9
$UCSORGFRONT
 10
0.0
 20
0.0
 30
0.0
  9
$UCSORGBACK
 10
0.0
 20
0.0
 30
0.0
  9
$PUCSBASE
  2

  9
$PUCSNAME
  2

  9
$PUCSORG
 10
0.0
 20
0.0
 30
0.0
  9
$PUCSXDIR
 10
1.0
 20
0.0
 30
0.0
  9
$PUCSYDIR
 10
0.0
 20
1.0
 30
0.0
  9
$PUCSORTHOREF
  2

  9
$PUCSORTHOVIEW
 70
     0
  9
$PUCSORGTOP
 10
0.0
 20
0.0
 30
0.0
  9
$PUCSORGBOTTOM
 10
0.0
 20
0.0
 30
0.0
  9
$PUCSORGLEFT
 10
0.0
 20
0.0
 30
0.0
  9
$PUCSORGRIGHT
 10
0.0
 20
0.0
 30
0.0
  9
$PUCSORGFRONT
 10
0.0
 20
0.0
 30
0.0
  9
$PUCSORGBACK
 10
0.0
 20
0.0
 30
0.0
  9
$USERI1
 70
     0
  9
$USERI2
 70
     0
  9
$USERI3
 70
     0
  9
$USERI4
 70
     0
  9
$USERI5
 70
     0
  9
$USERR1
 40
0.0
  9
$USERR2
 40
0.0
  9
$USERR3
 40
0.0
  9
$USERR4
 40
0.0
  9
$USERR5
 40
0.0
  9
$WORLDVIEW
 70
     1
  9
$SHADEDGE
 70
     3
  9
$SHADEDIF
 70
    70
  9
$TILEMODE
 70
     1
  9
$MAXACTVP
 70
    64
  9
$PINSBASE
 10
0.0
 20
0.0
 30
0.0
  9
$PLIMCHECK
 70
     0
  9
$PEXTMIN
 10
1.000000000000000E+20
 20
1.000000000000000E+20
 30
1.000000000000000E+20
  9
$PEXTMAX
 10
-1.000000000000000E+20
 20
-1.000000000000000E+20
 30
-1.000000000000000E+20
  9
$PLIMMIN
 10
0.0
 20
0.0
  9
$PLIMMAX
 10
420.0
 20
297.0
  9
$UNITMODE
 70
     0
  9
$VISRETAIN
 70
     1
  9
$PLINEGEN
 70
     0
  9
$PSLTSCALE
 70
     1
  9
$TREEDEPTH
 70
  3020
  9
$CMLSTYLE
  2
Standard
  9
$CMLJUST
 70
     0
  9
$CMLSCALE
 40
20.0
  9
$PROXYGRAPHICS
 70
     1
  9
$MEASUREMENT
 70
     1
  9
$CELWEIGHT
370
    -1
  9
$ENDCAPS
280
     0
  9
$JOINSTYLE
280
     0
  9
$LWDISPLAY
290
     1
  9
$INSUNITS
 70
     4
  9
$HYPERLINKBASE
  1

  9
$STYLESHEET
  1

  9
$XEDIT
290
     1
  9
$CEPSNTYPE
380
     0
  9
$PSTYLEMODE
290
     1
  9
$FINGERPRINTGUID
  2
{2487E3C1-8C2C-42F2-8FE9-5F1E3FFDAD15}
  9
$VERSIONGUID
  2
{534B97FA-FE27-DE4A-9511-371FBE67648D}
  9
$EXTNAMES
290
     1
  9
$PSVPSCALE
 40
0.0
  9
$OLESTARTUP
290
     0
  9
$SORTENTS
280
   127
  9
$INDEXCTL
280
     0
  9
$HIDETEXT
280
     0
  9
$XCLIPFRAME
280
     2
  9
$HALOGAP
280
     0
  9
$OBSCOLOR
 70
   257
  9
$OBSLTYPE
280
     0
  9
$INTERSECTIONDISPLAY
280
     0
  9
$INTERSECTIONCOLOR
 70
   257
  9
$DIMASSOC
280
     1
  9
$PROJECTNAME
  1

  9
$CAMERADISPLAY
290
     0
  9
$LENSLENGTH
 40
50.0
  9
$CAMERAHEIGHT
 40
0.0
  9
$STEPSPERSEC
 40
2.0
  9
$STEPSIZE
 40
6.0
  9
$3DDWFPREC
 40
2.0
  9
$PSOLWIDTH
 40
0.25
  9
$PSOLHEIGHT
 40
4.0
  9
$LOFTANG1
 40
1.570796326794896
  9
$LOFTANG2
 40
1.570796326794896
  9
$LOFTMAG1
 40
0.0
  9
$LOFTMAG2
 40
0.0
  9
$LOFTPARAM
 70
     7
  9
$LOFTNORMALS
280
     1
  9
$LATITUDE
 40
37.795
  9
$LONGITUDE
 40
-122.394
  9
$NORTHDIRECTION
 40
0.0
  9
$TIMEZONE
 70
 -8000
  9
$LIGHTGLYPHDISPLAY
280
     1
  9
$TILEMODELIGHTSYNCH
280
     1
  9
$CMATERIAL
347
15A
  9
$SOLIDHIST
280
     0
  9
$SHOWHIST
280
     1
  9
$DWFFRAME
280
     2
  9
$DGNFRAME
280
     0
  9
$REALWORLDSCALE
290
     1
  9
$INTERFERECOLOR
 62
     1
  9
$INTERFEREOBJVS
345
17C
  9
$INTERFEREVPVS
346
179
  9
$CSHADOW
280
     0
  9
$SHADOWPLANELOCATION
 40
0.0
  0
ENDSEC
  0
SECTION
  2
CLASSES
  0
CLASS
  1
ACDBDICTIONARYWDFLT
  2
AcDbDictionaryWithDefault
  3
ObjectDBX Classes
 90
        0
 91
        1
280
     0
281
     0
  0
CLASS
  1
VISUALSTYLE
  2
AcDbVisualStyle
  3
ObjectDBX Classes
 90
     4095
 91
       24
280
     0
281
     0
  0
CLASS
  1
MATERIAL
  2
AcDbMaterial
  3
ObjectDBX Classes
 90
     1153
 91
        3
280
     0
281
     0
  0
CLASS
  1
SCALE
  2
AcDbScale
  3
ObjectDBX Classes
 90
     1153
 91
       33
280
     0
281
     0
  0
CLASS
  1
TABLESTYLE
  2
AcDbTableStyle
  3
ObjectDBX Classes
 90
     4095
 91
        1
280
     0
281
     0
  0
CLASS
  1
MLEADERSTYLE
  2
AcDbMLeaderStyle
  3
ACDB_MLEADERSTYLE_CLASS
 90
     4095
 91
        1
280
     0
281
     0
  0
CLASS
  1
SUN
  2
AcDbSun
  3
SCENEOE
 90
     1153
 91
        0
280
     0
281
     0
  0
CLASS
  1
ACDBSECTIONVIEWSTYLE
  2
AcDbSectionViewStyle
  3
ObjectDBX Classes
 90
     1025
 91
        1
280
     0
281
     0
  0
CLASS
  1
ACDBDETAILVIEWSTYLE
  2
AcDbDetailViewStyle
  3
ObjectDBX Classes
 90
     1025
 91
        1
280
     0
281
     0
  0
CLASS
  1
ACDB_ALDIMOBJECTCONTEXTDATA_CLASS
  2
AcDbAlignedDimensionObjectContextData
  3
ObjectDBX Classes
 90
     1153
 91
       12
280
     0
281
     0
  0
CLASS
  1
DICTIONARYVAR
  2
AcDbDictionaryVar
  3
ObjectDBX Classes
 90
        0
 91
       18
280
     0
281
     0
  0
CLASS
  1
CELLSTYLEMAP
  2
AcDbCellStyleMap
  3
ObjectDBX Classes
 90
     1152
 91
        1
280
     0
281
     0
  0
ENDSEC
  0
SECTION
  2
TABLES
  0
TABLE
  2
VPORT
  5
8
330
0
100
AcDbSymbolTable
 70
     1
  0
VPORT
  5
29
330
8
100
AcDbSymbolTableRecord
100
AcDbViewportTableRecord
  2
*Active
 70
     0
 10
0.0
 20
0.0
 11
1.0
 21
1.0
 12
488.2407192821131
 22
45.79519757276261
 13
0.0
 23
0.0
 14
10.0
 24
10.0
 15
10.0
 25
10.0
 16
0.0
 26
0.0
 36
1.0
 17
0.0
 27
0.0
 37
0.0
 40
1247.136678373775
 41
1.607124148768988
 42
50.0
 43
0.0
 44
0.0
 50
0.0
 51
0.0
 71
     0
 72
  2000
 73
     1
 74
     3
 75
     0
 76
     0
 77
     0
 78
     0
281
     0
 65
     1
110
0.0
120
0.0
130
0.0
111
1.0
121
0.0
131
0.0
112
0.0
122
1.0
132
0.0
 79
     0
146
0.0
348
178
 60
     3
 61
     5
292
     1
282
     1
141
0.0
142
0.0
 63
   250
421
  3355443
1001
ACAD_NAV_VCDISPLAY
1070
     3
  0
ENDTAB
  0
TABLE
  2
LTYPE
  5
5
330
0
100
AcDbSymbolTable
 70
     6
  0
LTYPE
  5
14
330
5
100
AcDbSymbolTableRecord
100
AcDbLinetypeTableRecord
  2
ByBlock
 70
     0
  3

 72
    65
 73
     0
 40
0.0
  0
LTYPE
  5
15
330
5
100
AcDbSymbolTableRecord
100
AcDbLinetypeTableRecord
  2
ByLayer
 70
     0
  3

 72
    65
 73
     0
 40
0.0
  0
LTYPE
  5
16
330
5
100
AcDbSymbolTableRecord
100
AcDbLinetypeTableRecord
  2
Continuous
 70
     0
  3
Solid line
 72
    65
 73
     0
 40
0.0
  0
LTYPE
  5
6E
330
5
100
AcDbSymbolTableRecord
100
AcDbLinetypeTableRecord
  2
HIDDEN
 70
     0
  3
Hidden __ __ __ __ __ __ __ __ __ __ __ __ __ __
 72
    65
 73
     2
 40
1.905
 49
1.27
 74
     0
 49
-0.635
 74
     0
  0
LTYPE
  5
6F
330
5
100
AcDbSymbolTableRecord
100
AcDbLinetypeTableRecord
  2
PHANTOM
 70
     0
  3
Phantom ______  __  __  ______  __  __  ______
 72
    65
 73
     6
 40
12.7
 49
6.349999999999999
 74
     0
 49
-1.27
 74
     0
 49
1.27
 74
     0
 49
-1.27
 74
     0
 49
1.27
 74
     0
 49
-1.27
 74
     0
  0
LTYPE
  5
70
330
5
100
AcDbSymbolTableRecord
100
AcDbLinetypeTableRecord
  2
CENTER
 70
     0
  3
Center ____ _ ____ _ ____ _ ____ _ ____ _ ____
 72
    65
 73
     4
 40
10.16
 49
6.349999999999999
 74
     0
 49
-1.27
 74
     0
 49
1.27
 74
     0
 49
-1.27
 74
     0
  0
LTYPE
  5
71
330
5
100
AcDbSymbolTableRecord
100
AcDbLinetypeTableRecord
  2
CENTERX2
 70
     0
  3
Center (2x) ________  __  ________  __  _____
 72
    65
 73
     4
 40
20.32
 49
12.7
 74
     0
 49
-2.54
 74
     0
 49
2.54
 74
     0
 49
-2.54
 74
     0
  0
LTYPE
  5
72
330
5
100
AcDbSymbolTableRecord
100
AcDbLinetypeTableRecord
  2
DOT2
 70
     0
  3
Dot (.5x) ........................................
 72
    65
 73
     2
 40
0.635
 49
0.0
 74
     0
 49
-0.635
 74
     0
  0
ENDTAB
  0
TABLE
  2
LAYER
  5
2
102
{ACAD_XDICTIONARY
360
1AA
102
}
330
0
100
AcDbSymbolTable
 70
     4
  0
LAYER
  5
10
102
{ACAD_XDICTIONARY
360
274
102
}
330
2
100
AcDbSymbolTableRecord
100
AcDbLayerTableRecord
  2
0
 70
     0
 62
     7
  6
Continuous
370
    -3
390
F
347
16A
348
0
  0
LAYER
  5
73
102
{ACAD_XDICTIONARY
360
276
102
}
330
2
100
AcDbSymbolTableRecord
100
AcDbLayerTableRecord
  2
FORMAT
 70
     0
 62
     7
  6
Continuous
370
    -3
390
F
347
16A
348
0
  0
LAYER
  5
1A1
330
2
100
AcDbSymbolTableRecord
100
AcDbLayerTableRecord
  2
Defpoints
 70
     0
 62
     7
  6
Continuous
290
     0
370
    -3
390
F
347
16A
348
0
  0
LAYER
  5
1A2
102
{ACAD_XDICTIONARY
360
278
102
}
330
2
100
AcDbSymbolTableRecord
100
AcDbLayerTableRecord
  2
DIMENSION
 70
     0
 62
   255
  6
Continuous
370
    -3
390
F
347
16A
348
0
  0
ENDTAB
  0
TABLE
  2
STYLE
  5
3
330
0
100
AcDbSymbolTable
 70
     2
  0
STYLE
  5
11
330
3
100
AcDbSymbolTableRecord
100
AcDbTextStyleTableRecord
  2
Standard
 70
     0
 40
0.0
 41
1.0
 50
0.0
 71
     0
 42
3.5
  3
txt
  4

  0
STYLE
  5
B2
330
3
100
AcDbSymbolTableRecord
100
AcDbTextStyleTableRecord
  2
SLDTEXTSTYLE0
 70
     0
 40
0.0
 41
0.75
 50
0.0
 71
     0
 42
3.5
  3
TXT
  4

  0
ENDTAB
  0
TABLE
  2
VIEW
  5
6
330
0
100
AcDbSymbolTable
 70
     0
  0
ENDTAB
  0
TABLE
  2
UCS
  5
7
330
0
100
AcDbSymbolTable
 70
     0
  0
ENDTAB
  0
TABLE
  2
APPID
  5
9
330
0
100
AcDbSymbolTable
 70
     7
  0
APPID
  5
12
330
9
100
AcDbSymbolTableRecord
100
AcDbRegAppTableRecord
  2
ACAD
 70
     0
  0
APPID
  5
1A4
330
9
100
AcDbSymbolTableRecord
100
AcDbRegAppTableRecord
  2
ACAD_PSEXT
 70
     0
  0
APPID
  5
1A5
330
9
100
AcDbSymbolTableRecord
100
AcDbRegAppTableRecord
  2
AcadAnnotative
 70
     0
  0
APPID
  5
1A6
330
9
100
AcDbSymbolTableRecord
100
AcDbRegAppTableRecord
  2
ACAD_DSTYLE_DIMJAG
 70
     0
  0
APPID
  5
1A7
330
9
100
AcDbSymbolTableRecord
100
AcDbRegAppTableRecord
  2
ACAD_DSTYLE_DIMTALN
 70
     0
  0
APPID
  5
1A8
330
9
100
AcDbSymbolTableRecord
100
AcDbRegAppTableRecord
  2
ACAD_NAV_VCDISPLAY
 70
     0
  0
APPID
  5
1A9
330
9
100
AcDbSymbolTableRecord
100
AcDbRegAppTableRecord
  2
ACAD_DSTYLE_DIMBREAK
 70
     0
  0
ENDTAB
  0
TABLE
  2
DIMSTYLE
  5
A
330
0
100
AcDbSymbolTable
 70
     4
100
AcDbDimStyleTable
 71
     2
340
1A3
340
27
  0
DIMSTYLE
105
27
330
A
100
AcDbSymbolTableRecord
100
AcDbDimStyleTableRecord
  2
ISO-25
 70
     0
 41
2.5
 42
0.625
 43
3.75
 44
1.25
 73
     0
 74
     0
 77
     1
 78
     8
140
2.5
141
2.5
143
0.0393700787
147
0.625
171
     3
172
     1
271
     2
272
     2
274
     3
278
    44
283
     0
284
     8
340
11
  0
DIMSTYLE
105
B3
102
{ACAD_REACTORS
330
C6
102
}
330
A
100
AcDbSymbolTableRecord
100
AcDbDimStyleTableRecord
  2
SLDDIMSTYLE0
 70
     0
 41
3.302
 44
0.0
 45
0.000000001
 73
     0
 74
     0
 77
     1
 78
     4
 79
     1
140
4.2333333333
147
1.0583333333
173
     1
271
     2
272
     2
276
     2
284
    12
340
B2
341
B4
343
B4
344
B4
  0
DIMSTYLE
105
145
330
A
100
AcDbSymbolTableRecord
100
AcDbDimStyleTableRecord
  2
SLDDIMSTYLE1
 70
     0
 41
3.302
 44
0.0
 45
0.000000001
 73
     0
 74
     0
 77
     1
 78
     4
 79
     1
140
3.5
147
0.875
173
     1
271
     2
272
     2
276
     2
284
    12
340
B2
341
B4
343
B4
344
B4
  0
DIMSTYLE
105
1A3
102
{ACAD_REACTORS
330
1AD
330
112
330
10A
330
102
330
1D3
330
CF
330
BE
330
B1
330
1C5
330
14D
330
144
102
}
330
A
100
AcDbSymbolTableRecord
100
AcDbDimStyleTableRecord
  2
RG Dimension Lines
 70
     0
 40
12.0
 41
3.5
 42
1.0
 43
10.0
 44
5.0
 49
5.0
 77
     2
140
8.0
141
0.0
147
4.0
172
     1
176
   256
177
   256
178
     7
271
     0
272
     0
290
     1
340
11
341
B4
342
B4
371
     0
372
     0
1001
ACAD_DSTYLE_DIMBREAK
1070
   391
1040
0.125
1001
AcadAnnotative
1000
AnnotativeData
1002
{
1070
     1
1070
     1
1002
}
1001
ACAD_DSTYLE_DIMJAG
1070
   388
1040
1.5
1001
ACAD_DSTYLE_DIMTALN
1070
   392
1070
     0
  0
ENDTAB
  0
TABLE
  2
BLOCK_RECORD
  5
1
330
0
100
AcDbSymbolTable
 70
    26
  0
BLOCK_RECORD
  5
1F
330
1
100
AcDbSymbolTableRecord
100
AcDbBlockTableRecord
  2
*Model_Space
340
22
 70
     0
280
     1
281
     0
  0
BLOCK_RECORD
  5
1B
330
1
100
AcDbSymbolTableRecord
100
AcDbBlockTableRecord
  2
*Paper_Space
340
1E
 70
     0
280
     1
281
     0
  0
BLOCK_RECORD
  5
23
330
1
100
AcDbSymbolTableRecord
100
AcDbBlockTableRecord
  2
*Paper_Space0
340
26
 70
     0
280
     1
281
     0
  0
BLOCK_RECORD
  5
B4
330
1
100
AcDbSymbolTableRecord
100
AcDbBlockTableRecord
  2
_None
340
0
 70
     0
280
     1
281
     0
  0
BLOCK_RECORD
  5
B7
330
1
100
AcDbSymbolTableRecord
100
AcDbBlockTableRecord
  2
_D
340
0
 70
     0
280
     1
281
     0
  0
BLOCK_RECORD
  5
BF
330
1
100
AcDbSymbolTableRecord
100
AcDbBlockTableRecord
  2
_D_1
340
0
 70
     0
280
     1
281
     0
  0
BLOCK_RECORD
  5
C7
330
1
100
AcDbSymbolTableRecord
100
AcDbBlockTableRecord
  2
_D_2
340
0
 70
     0
280
     1
281
     0
  0
BLOCK_RECORD
  5
D0
330
1
100
AcDbSymbolTableRecord
100
AcDbBlockTableRecord
  2
_D_3
340
0
 70
     0
280
     1
281
     0
  0
BLOCK_RECORD
  5
103
330
1
100
AcDbSymbolTableRecord
100
AcDbBlockTableRecord
  2
_D_4
340
0
 70
     0
280
     1
281
     0
  0
BLOCK_RECORD
  5
10B
330
1
100
AcDbSymbolTableRecord
100
AcDbBlockTableRecord
  2
_D_5
340
0
 70
     0
280
     1
281
     0
  0
BLOCK_RECORD
  5
113
330
1
100
AcDbSymbolTableRecord
100
AcDbBlockTableRecord
  2
_D_6
340
0
 70
     0
280
     1
281
     0
  0
BLOCK_RECORD
  5
146
330
1
100
AcDbSymbolTableRecord
100
AcDbBlockTableRecord
  2
_D_7
340
0
 70
     0
280
     1
281
     0
  0
BLOCK_RECORD
  5
14E
330
1
100
AcDbSymbolTableRecord
100
AcDbBlockTableRecord
  2
_D_8
340
0
 70
     0
280
     1
281
     0
  0
BLOCK_RECORD
  5
197
330
1
100
AcDbSymbolTableRecord
100
AcDbBlockTableRecord
  2
*D11
340
0
 70
     0
280
     1
281
     0
  0
BLOCK_RECORD
  5
1BB
330
1
100
AcDbSymbolTableRecord
100
AcDbBlockTableRecord
  2
*D13
340
0
 70
     0
280
     1
281
     0
  0
BLOCK_RECORD
  5
1C6
330
1
100
AcDbSymbolTableRecord
100
AcDbBlockTableRecord
  2
*D14
340
0
 70
     0
280
     1
281
     0
  0
BLOCK_RECORD
  5
1D4
330
1
100
AcDbSymbolTableRecord
100
AcDbBlockTableRecord
  2
*D15
340
0
 70
     0
280
     1
281
     0
  0
BLOCK_RECORD
  5
1E1
330
1
100
AcDbSymbolTableRecord
100
AcDbBlockTableRecord
  2
*D16
340
0
 70
     0
280
     1
281
     0
  0
BLOCK_RECORD
  5
1EF
330
1
100
AcDbSymbolTableRecord
100
AcDbBlockTableRecord
  2
*D17
340
0
 70
     0
280
     1
281
     0
  0
BLOCK_RECORD
  5
1FD
330
1
100
AcDbSymbolTableRecord
100
AcDbBlockTableRecord
  2
*D18
340
0
 70
     0
280
     1
281
     0
  0
BLOCK_RECORD
  5
20B
330
1
100
AcDbSymbolTableRecord
100
AcDbBlockTableRecord
  2
*D19
340
0
 70
     0
280
     1
281
     0
  0
BLOCK_RECORD
  5
219
330
1
100
AcDbSymbolTableRecord
100
AcDbBlockTableRecord
  2
*D20
340
0
 70
     0
280
     1
281
     0
  0
BLOCK_RECORD
  5
227
330
1
100
AcDbSymbolTableRecord
100
AcDbBlockTableRecord
  2
*D21
340
0
 70
     0
280
     1
281
     0
  0
BLOCK_RECORD
  5
235
330
1
100
AcDbSymbolTableRecord
100
AcDbBlockTableRecord
  2
*D22
340
0
 70
     0
280
     1
281
     0
  0
BLOCK_RECORD
  5
243
330
1
100
AcDbSymbolTableRecord
100
AcDbBlockTableRecord
  2
*D23
340
0
 70
     0
280
     1
281
     0
  0
BLOCK_RECORD
  5
251
330
1
100
AcDbSymbolTableRecord
100
AcDbBlockTableRecord
  2
*D24
340
0
 70
     0
280
     1
281
     0
  0
BLOCK_RECORD
  5
25F
330
1
100
AcDbSymbolTableRecord
100
AcDbBlockTableRecord
  2
*D25
340
0
 70
     0
280
     1
281
     0
  0
ENDTAB
  0
ENDSEC
  0
SECTION
  2
BLOCKS
  0
BLOCK
  5
20
330
1F
100
AcDbEntity
  8
0
100
AcDbBlockBegin
  2
*Model_Space
 70
     0
 10
0.0
 20
0.0
 30
0.0
  3
*Model_Space
  1

  0
ENDBLK
  5
21
330
1F
100
AcDbEntity
  8
0
100
AcDbBlockEnd
  0
BLOCK
  5
1C
330
1B
100
AcDbEntity
 67
     1
  8
0
100
AcDbBlockBegin
  2
*Paper_Space
 70
     0
 10
0.0
 20
0.0
 30
0.0
  3
*Paper_Space
  1

  0
ENDBLK
  5
1D
330
1B
100
AcDbEntity
 67
     1
  8
0
100
AcDbBlockEnd
  0
BLOCK
  5
24
330
23
100
AcDbEntity
 67
     1
  8
0
100
AcDbBlockBegin
  2
*Paper_Space0
 70
     0
 10
0.0
 20
0.0
 30
0.0
  3
*Paper_Space0
  1

  0
ENDBLK
  5
25
330
23
100
AcDbEntity
 67
     1
  8
0
100
AcDbBlockEnd
  0
BLOCK
  5
B5
330
B4
100
AcDbEntity
  8
0
100
AcDbBlockBegin
  2
_None
 70
     0
 10
0.0
 20
0.0
 30
0.0
  3
_None
  1

  0
ENDBLK
  5
B6
330
B4
100
AcDbEntity
  8
0
100
AcDbBlockEnd
  0
BLOCK
  5
B8
330
B7
100
AcDbEntity
  8
0
100
AcDbBlockBegin
  2
_D
 70
     0
 10
0.0
 20
0.0
 30
0.0
  3
_D
  1

  0
LINE
  5
BA
330
B7
100
AcDbEntity
  8
0
  6
Continuous
 62
     7
440
 16777216
370
     0
100
AcDbLine
 10
422.5010824295999
 20
-10.7408450305
 30
0.0
 11
400.8843742103
 21
-10.7408450305
 31
0.0
  0
LINE
  5
BB
330
B7
100
AcDbEntity
  8
0
  6
Continuous
 62
     7
440
 16777216
370
     0
100
AcDbLine
 10
438.5698882158999
 20
-100.8740946112
 30
0.0
 11
400.8843742103
 21
-100.8740946112
 31
0.0
  0
LINE
  5
BC
330
B7
100
AcDbEntity
  8
0
  6
Continuous
 62
     7
440
 16777216
370
     0
100
AcDbLine
 10
401.8843742102999
 20
-10.7408450305
 30
0.0
 11
401.8843742102999
 21
-100.8740946112
 31
0.0
  0
MTEXT
  5
BD
330
B7
100
AcDbEntity
  8
0
  6
Continuous
 62
     7
440
 16777216
370
    18
100
AcDbMText
 10
396.4273210115
 20
-62.4922290077
 30
0.0
 40
4.2333333333
 41
0.0
 46
0.0
 71
     1
 72
     1
  1
90.00
  7
SLDTEXTSTYLE0
 11
-0.000000000000007
 21
1.0
 31
0.0
 73
     1
 44
1.0
  0
ENDBLK
  5
B9
330
B7
100
AcDbEntity
  8
0
100
AcDbBlockEnd
  0
BLOCK
  5
C0
330
BF
100
AcDbEntity
  8
0
100
AcDbBlockBegin
  2
_D_1
 70
     0
 10
0.0
 20
0.0
 30
0.0
  3
_D_1
  1

  0
LINE
  5
C2
330
BF
100
AcDbEntity
  8
0
  6
Continuous
 62
     7
440
 16777216
370
     0
100
AcDbLine
 10
550.1750484045
 20
29.3159483471
 30
0.0
 11
578.8843742102999
 21
29.3159483471
 31
0.0
  0
LINE
  5
C3
330
BF
100
AcDbEntity
  8
0
  6
Continuous
 62
     7
440
 16777216
370
     0
100
AcDbLine
 10
557.1868909295
 20
-55.67704606359999
 30
0.0
 11
578.8843742102999
 21
-55.67704606359999
 31
0.0
  0
LINE
  5
C4
330
BF
100
AcDbEntity
  8
0
  6
Continuous
 62
     7
440
 16777216
370
     0
100
AcDbLine
 10
577.8843742102999
 20
29.3159483471
 30
0.0
 11
577.8843742102999
 21
-55.67704606359999
 31
0.0
  0
MTEXT
  5
C5
330
BF
100
AcDbEntity
  8
0
  6
Continuous
 62
     7
440
 16777216
370
    18
100
AcDbMText
 10
572.4273210115
 20
-19.3750217913
 30
0.0
 40
4.2333333333
 41
0.0
 46
0.0
 71
     1
 72
     1
  1
85.00
  7
SLDTEXTSTYLE0
 11
-0.0000000000000062
 21
1.0
 31
0.0
 73
     1
 44
1.0
  0
ENDBLK
  5
C1
330
BF
100
AcDbEntity
  8
0
100
AcDbBlockEnd
  0
BLOCK
  5
C8
330
C7
100
AcDbEntity
  8
0
100
AcDbBlockBegin
  2
_D_2
 70
     0
 10
0.0
 20
0.0
 30
0.0
  3
_D_2
  1

  0
LINE
  5
CA
330
C7
100
AcDbEntity
  8
0
  6
Continuous
 62
     7
440
 16777216
370
     0
100
AcDbLine
 10
485.8500709242
 20
223.1568487017
 30
0.0
 11
485.8500709242
 21
247.7591549695
 31
0.0
  0
LINE
  5
CB
330
C7
100
AcDbEntity
  8
0
  6
Continuous
 62
     7
440
 16777216
370
     0
100
AcDbLine
 10
463.6200709241999
 20
222.7920741564
 30
0.0
 11
463.6200709241999
 21
247.7591549695
 31
0.0
  0
LINE
  5
CC
330
C7
100
AcDbEntity
  8
0
  6
Continuous
 62
     7
440
 16777216
370
     0
100
AcDbLine
 10
485.8500709242
 20
246.7591549695
 30
0.0
 11
463.6200709241999
 21
246.7591549695
 31
0.0
  0
MTEXT
  5
CD
330
C7
100
AcDbEntity
  8
0
  6
Continuous
 62
     7
440
 16777216
370
    18
100
AcDbMText
 10
463.6005958531
 20
252.216208634
 30
0.0
 40
4.2333333333
 41
0.0
 46
0.0
 71
     1
 72
     1
  1
%%c
  7
SLDTEXTSTYLE0
 73
     1
 44
1.0
  0
MTEXT
  5
CE
330
C7
100
AcDbEntity
  8
0
  6
Continuous
 62
     7
440
 16777216
370
    18
100
AcDbMText
 10
469.9905774544999
 20
252.216208634
 30
0.0
 40
4.2333333333
 41
0.0
 46
0.0
 71
     1
 72
     1
  1
22.00
  7
SLDTEXTSTYLE0
 73
     1
 44
1.0
  0
ENDBLK
  5
C9
330
C7
100
AcDbEntity
  8
0
100
AcDbBlockEnd
  0
BLOCK
  5
D1
330
D0
100
AcDbEntity
  8
0
100
AcDbBlockBegin
  2
_D_3
 70
     0
 10
0.0
 20
0.0
 30
0.0
  3
_D_3
  1

  0
LINE
  5
D3
330
D0
100
AcDbEntity
  8
0
  6
Continuous
 62
     7
440
 16777216
370
     0
100
AcDbLine
 10
501.7843742102999
 20
-106.4936011466
 30
0.0
 11
501.7843742102999
 21
-127.3332345767
 31
0.0
  0
LINE
  5
D4
330
D0
100
AcDbEntity
  8
0
  6
Continuous
 62
     7
440
 16777216
370
     0
100
AcDbLine
 10
447.7843742102999
 20
-106.6768986619
 30
0.0
 11
447.7843742102999
 21
-127.3332345767
 31
0.0
  0
LINE
  5
D5
330
D0
100
AcDbEntity
  8
0
  6
Continuous
 62
     7
440
 16777216
370
     0
100
AcDbLine
 10
501.7843742102999
 20
-126.3332345767
 30
0.0
 11
447.7843742102999
 21
-126.3332345767
 31
0.0
  0
MTEXT
  5
D6
330
D0
100
AcDbEntity
  8
0
  6
Continuous
 62
     7
440
 16777216
370
    18
100
AcDbMText
 10
462.7610891236
 20
-120.8761809122
 30
0.0
 40
4.2333333333
 41
0.0
 46
0.0
 71
     1
 72
     1
  1
%%c
  7
SLDTEXTSTYLE0
 73
     1
 44
1.0
  0
MTEXT
  5
D7
330
D0
100
AcDbEntity
  8
0
  6
Continuous
 62
     7
440
 16777216
370
    18
100
AcDbMText
 10
469.1510707249999
 20
-120.8761809122
 30
0.0
 40
4.2333333333
 41
0.0
 46
0.0
 71
     1
 72
     1
  1
54.00
  7
SLDTEXTSTYLE0
 73
     1
 44
1.0
  0
ENDBLK
  5
D2
330
D0
100
AcDbEntity
  8
0
100
AcDbBlockEnd
  0
BLOCK
  5
104
330
103
100
AcDbEntity
  8
0
100
AcDbBlockBegin
  2
_D_4
 70
     0
 10
0.0
 20
0.0
 30
0.0
  3
_D_4
  1

  0
LINE
  5
106
330
103
100
AcDbEntity
  8
0
  6
Continuous
 62
     7
440
 16777216
370
     0
100
AcDbLine
 10
234.3303595828
 20
136.0806046253
 30
0.0
 11
234.3303595828
 21
-129.8740946112
 31
0.0
  0
LINE
  5
107
330
103
100
AcDbEntity
  8
0
  6
Continuous
 62
     7
440
 16777216
370
     0
100
AcDbLine
 10
34.5184650811
 20
-109.347042279
 30
0.0
 11
34.5184650811
 21
-129.8740946112
 31
0.0
  0
LINE
  5
108
330
103
100
AcDbEntity
  8
0
  6
Continuous
 62
     7
440
 16777216
370
     0
100
AcDbLine
 10
234.3303595828
 20
-128.8740946112
 30
0.0
 11
34.5184650811
 21
-128.8740946112
 31
0.0
  0
MTEXT
  5
109
330
103
100
AcDbEntity
  8
0
  6
Continuous
 62
     7
440
 16777216
370
    18
100
AcDbMText
 10
121.0948966849
 20
-123.4170414124
 30
0.0
 40
4.2333333333
 41
0.0
 46
0.0
 71
     1
 72
     1
  1
200.00
  7
SLDTEXTSTYLE0
 73
     1
 44
1.0
  0
ENDBLK
  5
105
330
103
100
AcDbEntity
  8
0
100
AcDbBlockEnd
  0
BLOCK
  5
10C
330
10B
100
AcDbEntity
  8
0
100
AcDbBlockBegin
  2
_D_5
 70
     0
 10
0.0
 20
0.0
 30
0.0
  3
_D_5
  1

  0
LINE
  5
10E
330
10B
100
AcDbEntity
  8
0
  6
Continuous
 62
     7
440
 16777216
370
     0
100
AcDbLine
 10
48.81666351399999
 20
224.7591549695
 30
0.0
 11
-27.4815349189
 21
224.7591549695
 31
0.0
  0
LINE
  5
10F
330
10B
100
AcDbEntity
  8
0
  6
Continuous
 62
     7
440
 16777216
370
     0
100
AcDbLine
 10
1.528292380299999
 20
-100.8740946112
 30
0.0
 11
-27.4815349189
 21
-100.8740946112
 31
0.0
  0
LINE
  5
110
330
10B
100
AcDbEntity
  8
0
  6
Continuous
 62
     7
440
 16777216
370
     0
100
AcDbLine
 10
-26.4815349189
 20
224.7591549695
 30
0.0
 11
-26.4815349189
 21
-100.8740946112
 31
0.0
  0
MTEXT
  5
111
330
10B
100
AcDbEntity
  8
0
  6
Continuous
 62
     7
440
 16777216
370
    18
100
AcDbMText
 10
-31.9385881177
 20
48.8027508954
 30
0.0
 40
4.2333333333
 41
0.0
 46
0.0
 71
     1
 72
     1
  1
325.00
  7
SLDTEXTSTYLE0
 11
-0.000000000000007
 21
1.0
 31
0.0
 73
     1
 44
1.0
  0
ENDBLK
  5
10D
330
10B
100
AcDbEntity
  8
0
100
AcDbBlockEnd
  0
BLOCK
  5
114
330
113
100
AcDbEntity
  8
0
100
AcDbBlockBegin
  2
_D_6
 70
     0
 10
0.0
 20
0.0
 30
0.0
  3
_D_6
  1

  0
LINE
  5
116
330
113
100
AcDbEntity
  8
0
  6
Continuous
 62
     7
440
 16777216
370
     0
100
AcDbLine
 10
70.7741857717
 20
-100.8740946112
 30
0.0
 11
274.6334590041
 21
-100.8740946112
 31
0.0
  0
LINE
  5
117
330
113
100
AcDbEntity
  8
0
  6
Continuous
 62
     7
440
 16777216
370
     0
100
AcDbLine
 10
255.2849843873
 20
149.2591549695
 30
0.0
 11
274.6334590041
 21
149.2591549695
 31
0.0
  0
LINE
  5
118
330
113
100
AcDbEntity
  8
0
  6
Continuous
 62
     7
440
 16777216
370
     0
100
AcDbLine
 10
273.6334590041
 20
-100.8740946112
 30
0.0
 11
273.6334590041
 21
149.2591549695
 31
0.0
  0
MTEXT
  5
119
330
113
100
AcDbEntity
  8
0
  6
Continuous
 62
     7
440
 16777216
370
    18
100
AcDbMText
 10
268.1764058052
 20
11.4260431053
 30
0.0
 40
4.2333333333
 41
0.0
 46
0.0
 71
     1
 72
     1
  1
250.00
  7
SLDTEXTSTYLE0
 11
-0.0000000000000002
 21
1.0
 31
0.0
 73
     1
 44
1.0
  0
ENDBLK
  5
115
330
113
100
AcDbEntity
  8
0
100
AcDbBlockEnd
  0
BLOCK
  5
147
330
146
100
AcDbEntity
  8
0
100
AcDbBlockBegin
  2
_D_7
 70
     0
 10
0.0
 20
0.0
 30
0.0
  3
_D_7
  1

  0
LINE
  5
149
330
146
100
AcDbEntity
  8
0
  6
Continuous
 62
     7
440
 16777216
370
     0
100
AcDbLine
 10
3.281908953299999
 20
425.3984074872
 30
0.0
 11
-27.4815349189
 21
425.3984074872
 31
0.0
  0
LINE
  5
14A
330
146
100
AcDbEntity
  8
0
  6
Continuous
 62
     7
440
 16777216
370
     0
100
AcDbLine
 10
4.091098503399999
 20
305.4984074872
 30
0.0
 11
-27.4815349189
 21
305.4984074872
 31
0.0
  0
LINE
  5
14B
330
146
100
AcDbEntity
  8
0
  6
Continuous
 62
     7
440
 16777216
370
     0
100
AcDbLine
 10
-26.4815349189
 20
425.3984074872
 30
0.0
 11
-26.4815349189
 21
305.4984074872
 31
0.0
  0
MTEXT
  5
14C
330
146
100
AcDbEntity
  8
0
  6
Continuous
 62
     7
440
 16777216
370
    18
100
AcDbMText
 10
-30.9932718335
 20
360.1824706424
 30
0.0
 40
3.5
 41
0.0
 46
0.0
 71
     1
 72
     1
  1
120.00
  7
SLDTEXTSTYLE0
 11
-0.0000000000000106
 21
1.0
 31
0.0
 73
     1
 44
1.0
  0
ENDBLK
  5
148
330
146
100
AcDbEntity
  8
0
100
AcDbBlockEnd
  0
BLOCK
  5
14F
330
14E
100
AcDbEntity
  8
0
100
AcDbBlockBegin
  2
_D_8
 70
     0
 10
0.0
 20
0.0
 30
0.0
  3
_D_8
  1

  0
LINE
  5
151
330
14E
100
AcDbEntity
  8
0
  6
Continuous
 62
     7
440
 16777216
370
     0
100
AcDbLine
 10
57.0309025979
 20
430.9914972895
 30
0.0
 11
57.0309025979
 21
449.3370878527
 31
0.0
  0
LINE
  5
152
330
14E
100
AcDbEntity
  8
0
  6
Continuous
 62
     7
440
 16777216
370
     0
100
AcDbLine
 10
12.0309025979
 20
431.8006868394999
 30
0.0
 11
12.0309025979
 21
449.3370878527
 31
0.0
  0
LINE
  5
153
330
14E
100
AcDbEntity
  8
0
  6
Continuous
 62
     7
440
 16777216
370
     0
100
AcDbLine
 10
57.0309025979
 20
448.3370878527
 30
0.0
 11
12.0309025979
 21
448.3370878527
 31
0.0
  0
MTEXT
  5
154
330
14E
100
AcDbEntity
  8
0
  6
Continuous
 62
     7
440
 16777216
370
    18
100
AcDbMText
 10
23.9103691288
 20
452.8488249419
 30
0.0
 40
3.5
 41
0.0
 46
0.0
 71
     1
 72
     1
  1
%%c
  7
SLDTEXTSTYLE0
 73
     1
 44
1.0
  0
MTEXT
  5
155
330
14E
100
AcDbEntity
  8
0
  6
Continuous
 62
     7
440
 16777216
370
    18
100
AcDbMText
 10
29.1888065271
 20
452.9022971186
 30
0.0
 40
3.5
 41
0.0
 46
0.0
 71
     1
 72
     1
  1
45.00
  7
SLDTEXTSTYLE0
 73
     1
 44
1.0
  0
ENDBLK
  5
150
330
14E
100
AcDbEntity
  8
0
100
AcDbBlockEnd
  0
BLOCK
  5
198
330
197
100
AcDbEntity
  8
0
100
AcDbBlockBegin
  2
*D11
 70
     1
 10
0.0
 20
0.0
 30
0.0
  3
*D11
  1

  0
LINE
  5
199
330
197
100
AcDbEntity
  8
DIMENSION
440
 16777216
370
     0
100
AcDbLine
 10
1092.625159377854
 20
969.7937323929265
 30
0.0
 11
1092.569709633547
 21
979.7935786580374
 31
0.0
  0
LINE
  5
19A
330
197
100
AcDbEntity
  8
DIMENSION
440
 16777216
370
     0
100
AcDbLine
 10
1454.657182624691
 20
971.8012215670347
 30
0.0
 11
1454.601732880384
 21
981.8010678321458
 31
0.0
  0
LINE
  5
19B
330
197
100
AcDbEntity
  8
DIMENSION
440
 16777216
370
     0
100
AcDbLine
 10
1092.597434505701
 20
974.793655525482
 30
0.0
 11
1454.629457752537
 21
976.8011446995902
 31
0.0
  0
MTEXT
  5
19C
330
197
100
AcDbEntity
  8
DIMENSION
 62
     7
440
 16777216
100
AcDbMText
 10
1273.568105608173
 20
983.9741418578535
 30
0.0
 40
8.0
 41
0.0
 46
0.0
 71
     5
 72
     1
  1
\A1;362
 73
     1
 44
1.0
  0
POINT
  5
19D
330
197
100
AcDbEntity
  8
Defpoints
 62
     0
440
 16777216
100
AcDbPoint
 10
1092.771920384362
 20
943.3267482592359
 30
0.0
  0
POINT
  5
19E
330
197
100
AcDbEntity
  8
Defpoints
 62
     0
440
 16777216
100
AcDbPoint
 10
1454.803943631198
 20
945.3342374333443
 30
0.0
  0
POINT
  5
19F
330
197
100
AcDbEntity
  8
Defpoints
 62
     0
440
 16777216
100
AcDbPoint
 10
1454.629457752537
 20
976.8011446995902
 30
0.0
  0
ENDBLK
  5
1A0
330
197
100
AcDbEntity
  8
0
100
AcDbBlockEnd
  0
BLOCK
  5
1BC
330
1BB
100
AcDbEntity
  8
0
100
AcDbBlockBegin
  2
*D13
 70
     1
 10
0.0
 20
0.0
 30
0.0
  3
*D13
  1

  0
LINE
  5
1BE
330
1BB
100
AcDbEntity
  8
DIMENSION
440
 16777216
370
     0
100
AcDbLine
 10
437.6502924726503
 20
370.9804258489331
 30
0.0
 11
437.5948427283434
 21
380.9802721140442
 31
0.0
  0
LINE
  5
1BF
330
1BB
100
AcDbEntity
  8
DIMENSION
440
 16777216
370
     0
100
AcDbLine
 10
799.682315719487
 20
372.9879150230414
 30
0.0
 11
799.6268659751802
 21
382.9877612881525
 31
0.0
  0
LINE
  5
1C0
330
1BB
100
AcDbEntity
  8
DIMENSION
440
 16777216
370
     0
100
AcDbLine
 10
437.6225676004969
 20
375.9803489814887
 30
0.0
 11
799.6545908473336
 21
377.987838155597
 31
0.0
  0
MTEXT
  5
1C1
330
1BB
100
AcDbEntity
  8
DIMENSION
 62
     7
440
 16777216
100
AcDbMText
 10
618.5937691582267
 20
385.0651726359926
 30
0.0
 40
8.0
 41
0.0
 46
0.0
 71
     5
 72
     1
  1
\A1;362
 73
     1
 44
1.0
  0
POINT
  5
1C2
330
1BB
100
AcDbEntity
  8
Defpoints
 62
     0
440
 16777216
100
AcDbPoint
 10
437.7970534791579
 20
344.5134417152426
 30
0.0
  0
POINT
  5
1C3
330
1BB
100
AcDbEntity
  8
Defpoints
 62
     0
440
 16777216
100
AcDbPoint
 10
799.8290767259947
 20
346.520930889351
 30
0.0
  0
POINT
  5
1C4
330
1BB
100
AcDbEntity
  8
Defpoints
 62
     0
440
 16777216
100
AcDbPoint
 10
799.6545908473336
 20
377.987838155597
 30
0.0
  0
ENDBLK
  5
1BD
330
1BB
100
AcDbEntity
  8
0
100
AcDbBlockEnd
  0
BLOCK
  5
1C7
330
1C6
100
AcDbEntity
  8
0
100
AcDbBlockBegin
  2
*D14
 70
     1
 10
0.0
 20
0.0
 30
0.0
  3
*D14
  1

  0
LINE
  5
1C9
330
1C6
100
AcDbEntity
  8
0
 62
     0
440
 16777216
370
    -2
100
AcDbLine
 10
33.51846508110002
 20
350.3984074872001
 30
0.0
 11
-5.330153626237909
 21
350.3984074872001
 31
0.0
  0
LINE
  5
1CA
330
1C6
100
AcDbEntity
  8
0
 62
     0
440
 16777216
370
    -2
100
AcDbLine
 10
33.51846508110002
 20
425.4984074872003
 30
0.0
 11
-5.330153626237925
 21
425.4984074872003
 31
0.0
  0
LINE
  5
1CB
330
1C6
100
AcDbEntity
  8
0
 62
     0
440
 16777216
370
    -2
100
AcDbLine
 10
-4.330153626237907
 20
353.7004074872001
 30
0.0
 11
-4.330153626237914
 21
384.3827408205336
 31
0.0
  0
LINE
  5
1CC
330
1C6
100
AcDbEntity
  8
0
 62
     0
440
 16777216
370
    -2
100
AcDbLine
 10
-4.330153626237923
 20
422.1964074872002
 30
0.0
 11
-4.330153626237916
 21
391.5140741538669
 31
0.0
  0
SOLID
  5
1CD
330
1C6
100
AcDbEntity
  8
0
 62
     0
440
 16777216
100
AcDbTrace
 10
-4.880486959571241
 20
353.7004074872001
 30
0.0
 11
-3.779820292904574
 21
353.7004074872001
 31
0.0
 12
-4.330153626237907
 22
350.3984074872001
 32
0.0
 13
-4.330153626237907
 23
350.3984074872001
 33
0.0
  0
SOLID
  5
1CE
330
1C6
100
AcDbEntity
  8
0
 62
     0
440
 16777216
100
AcDbTrace
 10
-4.880486959571257
 20
422.1964074872002
 30
0.0
 11
-3.779820292904589
 21
422.1964074872002
 31
0.0
 12
-4.330153626237923
 22
425.4984074872003
 32
0.0
 13
-4.330153626237923
 23
425.4984074872003
 33
0.0
  0
MTEXT
  5
1CF
330
1C6
100
AcDbEntity
  8
0
 62
     0
440
 16777216
100
AcDbMText
 10
-4.330153626237804
 20
387.9484074872001
 30
0.0
 40
3.5
 41
0.0
 46
0.0
 71
     5
 72
     1
  1
375,50
 73
     1
 44
1.0
  0
POINT
  5
1D0
330
1C6
100
AcDbEntity
  8
Defpoints
 62
     0
440
 16777216
100
AcDbPoint
 10
34.51846508110002
 20
350.3984074872001
 30
0.0
  0
POINT
  5
1D1
330
1C6
100
AcDbEntity
  8
Defpoints
 62
     0
440
 16777216
100
AcDbPoint
 10
34.51846508110002
 20
425.4984074872003
 30
0.0
  0
POINT
  5
1D2
330
1C6
100
AcDbEntity
  8
Defpoints
 62
     0
440
 16777216
100
AcDbPoint
 10
-4.330153626237923
 20
425.4984074872003
 30
0.0
  0
ENDBLK
  5
1C8
330
1C6
100
AcDbEntity
  8
0
100
AcDbBlockEnd
  0
BLOCK
  5
1D5
330
1D4
100
AcDbEntity
  8
0
100
AcDbBlockBegin
  2
*D15
 70
     1
 10
0.0
 20
0.0
 30
0.0
  3
*D15
  1

  0
LINE
  5
1D7
330
1D4
100
AcDbEntity
  8
0
 62
     0
440
 16777216
370
    -2
100
AcDbLine
 10
475.7843742103002
 20
-100.8740946112
 30
0.0
 11
598.045341122731
 21
-100.8740946112
 31
0.0
  0
LINE
  5
1D8
330
1D4
100
AcDbEntity
  8
0
 62
     0
440
 16777216
370
    -2
100
AcDbLine
 10
550.8843742103001
 20
-33.17704606360001
 30
0.0
 11
598.045341122731
 21
-33.17704606359999
 31
0.0
  0
LINE
  5
1D9
330
1D4
100
AcDbEntity
  8
0
 62
     0
440
 16777216
370
    -2
100
AcDbLine
 10
597.045341122731
 20
-97.57209461120005
 30
0.0
 11
597.045341122731
 21
-70.59123700406669
 31
0.0
  0
LINE
  5
1DA
330
1D4
100
AcDbEntity
  8
0
 62
     0
440
 16777216
370
    -2
100
AcDbLine
 10
597.045341122731
 20
-36.4790460636
 30
0.0
 11
597.045341122731
 21
-63.45990367073333
 31
0.0
  0
SOLID
  5
1DB
330
1D4
100
AcDbEntity
  8
0
 62
     0
440
 16777216
100
AcDbTrace
 10
596.4950077893977
 20
-97.57209461120005
 30
0.0
 11
597.5956744560644
 21
-97.57209461120005
 31
0.0
 12
597.045341122731
 22
-100.8740946112
 32
0.0
 13
597.045341122731
 23
-100.8740946112
 33
0.0
  0
SOLID
  5
1DC
330
1D4
100
AcDbEntity
  8
0
 62
     0
440
 16777216
100
AcDbTrace
 10
596.4950077893977
 20
-36.4790460636
 30
0.0
 11
597.5956744560644
 21
-36.4790460636
 31
0.0
 12
597.045341122731
 22
-33.17704606359999
 32
0.0
 13
597.045341122731
 23
-33.17704606359999
 33
0.0
  0
MTEXT
  5
1DD
330
1D4
100
AcDbEntity
  8
0
 62
     0
440
 16777216
100
AcDbMText
 10
597.0453411227309
 20
-67.02557033740017
 30
0.0
 40
3.5
 41
0.0
 46
0.0
 71
     5
 72
     1
  1
338,49
 73
     1
 44
1.0
  0
POINT
  5
1DE
330
1D4
100
AcDbEntity
  8
Defpoints
 62
     0
440
 16777216
100
AcDbPoint
 10
474.7843742103001
 20
-100.8740946112
 30
0.0
  0
POINT
  5
1DF
330
1D4
100
AcDbEntity
  8
Defpoints
 62
     0
440
 16777216
100
AcDbPoint
 10
549.8843742103002
 20
-33.17704606360001
 30
0.0
  0
POINT
  5
1E0
330
1D4
100
AcDbEntity
  8
Defpoints
 62
     0
440
 16777216
100
AcDbPoint
 10
597.045341122731
 20
-33.17704606359999
 30
0.0
  0
ENDBLK
  5
1D6
330
1D4
100
AcDbEntity
  8
0
100
AcDbBlockEnd
  0
BLOCK
  5
1E2
330
1E1
100
AcDbEntity
  8
0
100
AcDbBlockBegin
  2
*D16
 70
     1
 10
0.0
 20
0.0
 30
0.0
  3
*D16
  1

  0
LINE
  5
1E4
330
1E1
100
AcDbEntity
  8
DIMENSION
440
 16777216
370
     0
100
AcDbLine
 10
268.6334590041001
 20
-100.8740946112
 30
0.0
 11
278.6334590041001
 21
-100.8740946112
 31
0.0
  0
LINE
  5
1E5
330
1E1
100
AcDbEntity
  8
DIMENSION
440
 16777216
370
     0
100
AcDbLine
 10
268.6334590041
 20
149.2591549695
 30
0.0
 11
278.6334590041
 21
149.2591549695
 31
0.0
  0
LINE
  5
1E6
330
1E1
100
AcDbEntity
  8
DIMENSION
440
 16777216
370
     0
100
AcDbLine
 10
273.6334590041001
 20
-100.8740946112
 30
0.0
 11
273.6334590041
 21
149.2591549695
 31
0.0
  0
MTEXT
  5
1E7
330
1E1
100
AcDbEntity
  8
DIMENSION
 62
     7
440
 16777216
100
AcDbMText
 10
287.6334590041
 20
24.02598193
 30
0.0
 40
8.0
 41
0.0
 46
0.0
 71
     2
 72
     1
  1
\A1;250
 73
     1
 44
1.0
  0
POINT
  5
1E8
330
1E1
100
AcDbEntity
  8
Defpoints
 62
     0
440
 16777216
100
AcDbPoint
 10
61.51846508110002
 20
-100.8740946112
 30
0.0
  0
POINT
  5
1E9
330
1E1
100
AcDbEntity
  8
Defpoints
 62
     0
440
 16777216
100
AcDbPoint
 10
245.6334590041001
 20
149.2591549695
 30
0.0
  0
POINT
  5
1EA
330
1E1
100
AcDbEntity
  8
Defpoints
 62
     0
440
 16777216
100
AcDbPoint
 10
273.6334590041
 20
149.2591549695
 30
0.0
  0
ENDBLK
  5
1E3
330
1E1
100
AcDbEntity
  8
0
100
AcDbBlockEnd
  0
BLOCK
  5
1F0
330
1EF
100
AcDbEntity
  8
0
100
AcDbBlockBegin
  2
*D17
 70
     1
 10
0.0
 20
0.0
 30
0.0
  3
*D17
  1

  0
LINE
  5
26D
330
1EF
100
AcDbEntity
  8
DIMENSION
440
 16777216
370
     0
100
AcDbLine
 10
-21.48153491890006
 20
224.7591549695001
 30
0.0
 11
-31.48153491890007
 21
224.7591549695001
 31
0.0
  0
LINE
  5
26E
330
1EF
100
AcDbEntity
  8
DIMENSION
440
 16777216
370
     0
100
AcDbLine
 10
-21.48153491889999
 20
-100.8740946112
 30
0.0
 11
-31.4815349189
 21
-100.8740946112
 31
0.0
  0
LINE
  5
26F
330
1EF
100
AcDbEntity
  8
DIMENSION
440
 16777216
370
     0
100
AcDbLine
 10
-26.48153491890006
 20
224.7591549695001
 30
0.0
 11
-26.48153491889999
 21
-100.8740946112
 31
0.0
  0
MTEXT
  5
270
330
1EF
100
AcDbEntity
  8
DIMENSION
 62
     7
440
 16777216
100
AcDbMText
 10
-41.14820158556667
 20
61.4026897202
 30
0.0
 40
8.0
 41
0.0
 46
0.0
 71
     2
 72
     1
  1
\A1;325
 73
     1
 44
1.0
  0
POINT
  5
271
330
1EF
100
AcDbEntity
  8
Defpoints
 62
     0
440
 16777216
100
AcDbPoint
 10
79.51846371380003
 20
224.7591549695001
 30
0.0
  0
POINT
  5
272
330
1EF
100
AcDbEntity
  8
Defpoints
 62
     0
440
 16777216
100
AcDbPoint
 10
7.518465081100003
 20
-100.8740946112
 30
0.0
  0
POINT
  5
273
330
1EF
100
AcDbEntity
  8
Defpoints
 62
     0
440
 16777216
100
AcDbPoint
 10
-26.48153491889999
 20
-100.8740946112
 30
0.0
  0
ENDBLK
  5
1F1
330
1EF
100
AcDbEntity
  8
0
100
AcDbBlockEnd
  0
BLOCK
  5
1FE
330
1FD
100
AcDbEntity
  8
0
100
AcDbBlockBegin
  2
*D18
 70
     1
 10
0.0
 20
0.0
 30
0.0
  3
*D18
  1

  0
LINE
  5
200
330
1FD
100
AcDbEntity
  8
DIMENSION
440
 16777216
370
     0
100
AcDbLine
 10
234.3303595827999
 20
-123.8740946112
 30
0.0
 11
234.3303595827999
 21
-133.8740946112
 31
0.0
  0
LINE
  5
201
330
1FD
100
AcDbEntity
  8
DIMENSION
440
 16777216
370
     0
100
AcDbLine
 10
34.5184650811
 20
-123.8740946112
 30
0.0
 11
34.5184650811
 21
-133.8740946112
 31
0.0
  0
LINE
  5
202
330
1FD
100
AcDbEntity
  8
DIMENSION
440
 16777216
370
     0
100
AcDbLine
 10
234.3303595827999
 20
-128.8740946112
 30
0.0
 11
34.5184650811
 21
-128.8740946112
 31
0.0
  0
MTEXT
  5
203
330
1FD
100
AcDbEntity
  8
DIMENSION
 62
     7
440
 16777216
100
AcDbMText
 10
129.6948355097
 20
-132.8740946112
 30
0.0
 40
8.0
 41
0.0
 46
0.0
 71
     2
 72
     1
  1
\A1;200
 73
     1
 44
1.0
  0
POINT
  5
204
330
1FD
100
AcDbEntity
  8
Defpoints
 62
     0
440
 16777216
100
AcDbPoint
 10
234.3303595828
 20
149.2591549695
 30
0.0
  0
POINT
  5
205
330
1FD
100
AcDbEntity
  8
Defpoints
 62
     0
440
 16777216
100
AcDbPoint
 10
34.5184650811
 20
-100.8740946112
 30
0.0
  0
POINT
  5
206
330
1FD
100
AcDbEntity
  8
Defpoints
 62
     0
440
 16777216
100
AcDbPoint
 10
34.5184650811
 20
-128.8740946112
 30
0.0
  0
ENDBLK
  5
1FF
330
1FD
100
AcDbEntity
  8
0
100
AcDbBlockEnd
  0
BLOCK
  5
20C
330
20B
100
AcDbEntity
  8
0
100
AcDbBlockBegin
  2
*D19
 70
     1
 10
0.0
 20
0.0
 30
0.0
  3
*D19
  1

  0
LINE
  5
20E
330
20B
100
AcDbEntity
  8
DIMENSION
440
 16777216
370
     0
100
AcDbLine
 10
592.0453411227312
 20
-100.8740946112
 30
0.0
 11
602.0453411227313
 21
-100.8740946112
 31
0.0
  0
LINE
  5
20F
330
20B
100
AcDbEntity
  8
DIMENSION
440
 16777216
370
     0
100
AcDbLine
 10
592.0453411227312
 20
-33.17704606359999
 30
0.0
 11
602.0453411227313
 21
-33.17704606359999
 31
0.0
  0
LINE
  5
210
330
20B
100
AcDbEntity
  8
DIMENSION
440
 16777216
370
     0
100
AcDbLine
 10
597.0453411227313
 20
-100.8740946112
 30
0.0
 11
597.0453411227313
 21
-33.17704606359999
 31
0.0
  0
MTEXT
  5
211
330
20B
100
AcDbEntity
  8
DIMENSION
 62
     7
440
 16777216
100
AcDbMText
 10
607.7120077893978
 20
-67.02557033740018
 30
0.0
 40
8.0
 41
0.0
 46
0.0
 71
     5
 72
     1
  1
\A1;68
 73
     1
 44
1.0
  0
POINT
  5
212
330
20B
100
AcDbEntity
  8
Defpoints
 62
     0
440
 16777216
100
AcDbPoint
 10
474.7843742103001
 20
-100.8740946112
 30
0.0
  0
POINT
  5
213
330
20B
100
AcDbEntity
  8
Defpoints
 62
     0
440
 16777216
100
AcDbPoint
 10
549.8843742103002
 20
-33.17704606360001
 30
0.0
  0
POINT
  5
214
330
20B
100
AcDbEntity
  8
Defpoints
 62
     0
440
 16777216
100
AcDbPoint
 10
597.0453411227313
 20
-33.17704606359999
 30
0.0
  0
ENDBLK
  5
20D
330
20B
100
AcDbEntity
  8
0
100
AcDbBlockEnd
  0
BLOCK
  5
21A
330
219
100
AcDbEntity
  8
0
100
AcDbBlockBegin
  2
*D20
 70
     1
 10
0.0
 20
0.0
 30
0.0
  3
*D20
  1

  0
LINE
  5
21C
330
219
100
AcDbEntity
  8
DIMENSION
440
 16777216
370
     0
100
AcDbLine
 10
501.7843742102999
 20
-121.3332345767
 30
0.0
 11
501.7843742102999
 21
-131.3332345767
 31
0.0
  0
LINE
  5
21D
330
219
100
AcDbEntity
  8
DIMENSION
440
 16777216
370
     0
100
AcDbLine
 10
447.7843742102999
 20
-121.3332345767
 30
0.0
 11
447.7843742102999
 21
-131.3332345767
 31
0.0
  0
LINE
  5
21E
330
219
100
AcDbEntity
  8
DIMENSION
440
 16777216
370
     0
100
AcDbLine
 10
501.7843742102999
 20
-126.3332345767
 30
0.0
 11
447.7843742102999
 21
-126.3332345767
 31
0.0
  0
MTEXT
  5
21F
330
219
100
AcDbEntity
  8
DIMENSION
 62
     7
440
 16777216
100
AcDbMText
 10
472.9920364095
 20
-130.3332345767
 30
0.0
 40
8.0
 41
0.0
 46
0.0
 71
     2
 72
     1
  1
\A1;%%c54
 73
     1
 44
1.0
  0
POINT
  5
220
330
219
100
AcDbEntity
  8
Defpoints
 62
     0
440
 16777216
100
AcDbPoint
 10
501.7843742102999
 20
-100.8740946112
 30
0.0
  0
POINT
  5
221
330
219
100
AcDbEntity
  8
Defpoints
 62
     0
440
 16777216
100
AcDbPoint
 10
447.7843742102999
 20
-100.8740946112
 30
0.0
  0
POINT
  5
222
330
219
100
AcDbEntity
  8
Defpoints
 62
     0
440
 16777216
100
AcDbPoint
 10
447.7843742102999
 20
-126.3332345767
 30
0.0
  0
ENDBLK
  5
21B
330
219
100
AcDbEntity
  8
0
100
AcDbBlockEnd
  0
BLOCK
  5
228
330
227
100
AcDbEntity
  8
0
100
AcDbBlockBegin
  2
*D21
 70
     1
 10
0.0
 20
0.0
 30
0.0
  3
*D21
  1

  0
LINE
  5
22A
330
227
100
AcDbEntity
  8
DIMENSION
440
 16777216
370
     0
100
AcDbLine
 10
572.8843742103
 20
29.31594834710002
 30
0.0
 11
582.8843742103
 21
29.31594834710002
 31
0.0
  0
LINE
  5
22B
330
227
100
AcDbEntity
  8
DIMENSION
440
 16777216
370
     0
100
AcDbLine
 10
572.8843742103
 20
-55.67704606360002
 30
0.0
 11
582.8843742103
 21
-55.67704606360002
 31
0.0
  0
LINE
  5
22C
330
227
100
AcDbEntity
  8
DIMENSION
440
 16777216
370
     0
100
AcDbLine
 10
577.8843742103
 20
29.31594834710002
 30
0.0
 11
577.8843742103
 21
-55.67704606360002
 31
0.0
  0
MTEXT
  5
22D
330
227
100
AcDbEntity
  8
DIMENSION
 62
     7
440
 16777216
100
AcDbMText
 10
588.5510408769666
 20
-8.339064607600001
 30
0.0
 40
8.0
 41
0.0
 46
0.0
 71
     2
 72
     1
  1
\A1;85
 73
     1
 44
1.0
  0
POINT
  5
22E
330
227
100
AcDbEntity
  8
Defpoints
 62
     0
440
 16777216
100
AcDbPoint
 10
539.4843742103001
 20
29.31594834710002
 30
0.0
  0
POINT
  5
22F
330
227
100
AcDbEntity
  8
Defpoints
 62
     0
440
 16777216
100
AcDbPoint
 10
549.7843742103002
 20
-55.67704606360003
 30
0.0
  0
POINT
  5
230
330
227
100
AcDbEntity
  8
Defpoints
 62
     0
440
 16777216
100
AcDbPoint
 10
577.8843742103
 20
-55.67704606360002
 30
0.0
  0
ENDBLK
  5
229
330
227
100
AcDbEntity
  8
0
100
AcDbBlockEnd
  0
BLOCK
  5
236
330
235
100
AcDbEntity
  8
0
100
AcDbBlockBegin
  2
*D22
 70
     1
 10
0.0
 20
0.0
 30
0.0
  3
*D22
  1

  0
LINE
  5
238
330
235
100
AcDbEntity
  8
DIMENSION
440
 16777216
370
     0
100
AcDbLine
 10
406.8843742103001
 20
-10.7408450305
 30
0.0
 11
396.8843742103001
 21
-10.74084503050001
 31
0.0
  0
LINE
  5
239
330
235
100
AcDbEntity
  8
DIMENSION
440
 16777216
370
     0
100
AcDbLine
 10
406.8843742103001
 20
-100.8740946112
 30
0.0
 11
396.8843742103001
 21
-100.8740946112
 31
0.0
  0
LINE
  5
23A
330
235
100
AcDbEntity
  8
DIMENSION
440
 16777216
370
     0
100
AcDbLine
 10
401.8843742103
 20
-10.74084503050001
 30
0.0
 11
401.8843742103
 21
-100.8740946112
 31
0.0
  0
MTEXT
  5
23B
330
235
100
AcDbEntity
  8
DIMENSION
 62
     7
440
 16777216
100
AcDbMText
 10
391.8843742103
 20
-51.456271824
 30
0.0
 40
8.0
 41
0.0
 46
0.0
 71
     2
 72
     1
  1
\A1;90
 73
     1
 44
1.0
  0
POINT
  5
23C
330
235
100
AcDbEntity
  8
Defpoints
 62
     0
440
 16777216
100
AcDbPoint
 10
429.8843742103001
 20
-10.7408450305
 30
0.0
  0
POINT
  5
23D
330
235
100
AcDbEntity
  8
Defpoints
 62
     0
440
 16777216
100
AcDbPoint
 10
447.7843742103002
 20
-100.8740946112
 30
0.0
  0
POINT
  5
23E
330
235
100
AcDbEntity
  8
Defpoints
 62
     0
440
 16777216
100
AcDbPoint
 10
401.8843742103
 20
-100.8740946112
 30
0.0
  0
ENDBLK
  5
237
330
235
100
AcDbEntity
  8
0
100
AcDbBlockEnd
  0
BLOCK
  5
244
330
243
100
AcDbEntity
  8
0
100
AcDbBlockBegin
  2
*D23
 70
     1
 10
0.0
 20
0.0
 30
0.0
  3
*D23
  1

  0
LINE
  5
246
330
243
100
AcDbEntity
  8
DIMENSION
440
 16777216
370
     0
100
AcDbLine
 10
0.6698463737620917
 20
350.3984074872001
 30
0.0
 11
-9.33015362623791
 21
350.3984074872001
 31
0.0
  0
LINE
  5
247
330
243
100
AcDbEntity
  8
DIMENSION
440
 16777216
370
     0
100
AcDbLine
 10
0.6698463737620751
 20
425.4984074872003
 30
0.0
 11
-9.330153626237926
 21
425.4984074872003
 31
0.0
  0
LINE
  5
248
330
243
100
AcDbEntity
  8
DIMENSION
440
 16777216
370
     0
100
AcDbLine
 10
-4.330153626237909
 20
350.3984074872001
 30
0.0
 11
-4.330153626237925
 21
425.4984074872003
 31
0.0
  0
MTEXT
  5
249
330
243
100
AcDbEntity
  8
DIMENSION
 62
     7
440
 16777216
100
AcDbMText
 10
-14.99682029290447
 20
387.9484074872001
 30
0.0
 40
8.0
 41
0.0
 46
0.0
 71
     5
 72
     1
  1
\A1;75
 73
     1
 44
1.0
  0
POINT
  5
24A
330
243
100
AcDbEntity
  8
Defpoints
 62
     0
440
 16777216
100
AcDbPoint
 10
34.51846508110002
 20
350.3984074872001
 30
0.0
  0
POINT
  5
24B
330
243
100
AcDbEntity
  8
Defpoints
 62
     0
440
 16777216
100
AcDbPoint
 10
34.51846508110002
 20
425.4984074872003
 30
0.0
  0
POINT
  5
24C
330
243
100
AcDbEntity
  8
Defpoints
 62
     0
440
 16777216
100
AcDbPoint
 10
-4.330153626237925
 20
425.4984074872003
 30
0.0
  0
ENDBLK
  5
245
330
243
100
AcDbEntity
  8
0
100
AcDbBlockEnd
  0
BLOCK
  5
252
330
251
100
AcDbEntity
  8
0
100
AcDbBlockBegin
  2
*D24
 70
     1
 10
0.0
 20
0.0
 30
0.0
  3
*D24
  1

  0
LINE
  5
254
330
251
100
AcDbEntity
  8
DIMENSION
440
 16777216
370
     0
100
AcDbLine
 10
57.0309025979
 20
443.3370878526999
 30
0.0
 11
57.0309025979
 21
453.3370878527
 31
0.0
  0
LINE
  5
255
330
251
100
AcDbEntity
  8
DIMENSION
440
 16777216
370
     0
100
AcDbLine
 10
12.0309025979
 20
443.3370878526999
 30
0.0
 11
12.0309025979
 21
453.3370878527
 31
0.0
  0
LINE
  5
256
330
251
100
AcDbEntity
  8
DIMENSION
440
 16777216
370
     0
100
AcDbLine
 10
57.0309025979
 20
448.3370878527
 30
0.0
 11
12.0309025979
 21
448.3370878527
 31
0.0
  0
MTEXT
  5
257
330
251
100
AcDbEntity
  8
DIMENSION
 62
     7
440
 16777216
100
AcDbMText
 10
32.3683380716
 20
460.3370878527
 30
0.0
 40
8.0
 41
0.0
 46
0.0
 71
     2
 72
     1
  1
\A1;%%c45
 73
     1
 44
1.0
  0
POINT
  5
258
330
251
100
AcDbEntity
  8
Defpoints
 62
     0
440
 16777216
100
AcDbPoint
 10
57.0309025979
 20
425.3984074872
 30
0.0
  0
POINT
  5
259
330
251
100
AcDbEntity
  8
Defpoints
 62
     0
440
 16777216
100
AcDbPoint
 10
12.0309025979
 20
425.3984074872
 30
0.0
  0
POINT
  5
25A
330
251
100
AcDbEntity
  8
Defpoints
 62
     0
440
 16777216
100
AcDbPoint
 10
12.0309025979
 20
448.3370878527
 30
0.0
  0
ENDBLK
  5
253
330
251
100
AcDbEntity
  8
0
100
AcDbBlockEnd
  0
BLOCK
  5
260
330
25F
100
AcDbEntity
  8
0
100
AcDbBlockBegin
  2
*D25
 70
     1
 10
0.0
 20
0.0
 30
0.0
  3
*D25
  1

  0
LINE
  5
262
330
25F
100
AcDbEntity
  8
DIMENSION
440
 16777216
370
     0
100
AcDbLine
 10
-21.48153491890012
 20
425.3984074872002
 30
0.0
 11
-31.48153491890013
 21
425.3984074872002
 31
0.0
  0
LINE
  5
263
330
25F
100
AcDbEntity
  8
DIMENSION
440
 16777216
370
     0
100
AcDbLine
 10
-21.4815349189001
 20
305.4984074872002
 30
0.0
 11
-31.4815349189001
 21
305.4984074872002
 31
0.0
  0
LINE
  5
264
330
25F
100
AcDbEntity
  8
DIMENSION
440
 16777216
370
     0
100
AcDbLine
 10
-26.48153491890012
 20
425.3984074872002
 30
0.0
 11
-26.4815349189001
 21
305.4984074872002
 31
0.0
  0
MTEXT
  5
265
330
25F
100
AcDbEntity
  8
DIMENSION
 62
     7
440
 16777216
100
AcDbMText
 10
-39.14820158556667
 20
371.2942765992
 30
0.0
 40
8.0
 41
0.0
 46
0.0
 71
     2
 72
     1
  1
\A1;120
 73
     1
 44
1.0
  0
POINT
  5
266
330
25F
100
AcDbEntity
  8
Defpoints
 62
     0
440
 16777216
100
AcDbPoint
 10
12.0309025979
 20
425.3984074872002
 30
0.0
  0
POINT
  5
267
330
25F
100
AcDbEntity
  8
Defpoints
 62
     0
440
 16777216
100
AcDbPoint
 10
12.0184650811
 20
305.4984074872002
 30
0.0
  0
POINT
  5
268
330
25F
100
AcDbEntity
  8
Defpoints
 62
     0
440
 16777216
100
AcDbPoint
 10
-26.4815349189001
 20
305.4984074872002
 30
0.0
  0
ENDBLK
  5
261
330
25F
100
AcDbEntity
  8
0
100
AcDbBlockEnd
  0
ENDSEC
  0
SECTION
  2
ENTITIES
  0
LINE
  5
74
330
1F
100
AcDbEntity
  8
DIMENSION
100
AcDbLine
 10
497.2843742102999
 20
-96.87409461120001
 30
0.0
 11
497.2843742102999
 21
-55.7408450305
 31
0.0
  0
LINE
  5
75
330
1F
100
AcDbEntity
  8
0
  6
Continuous
 62
     7
370
    25
100
AcDbLine
 10
452.2843742102999
 20
-55.7408450305
 30
0.0
 11
452.2843742102999
 21
-96.87409461120001
 31
0.0
  0
LINE
  5
76
330
1F
100
AcDbEntity
  8
DIMENSION
100
AcDbLine
 10
501.7843742102999
 20
-100.8740946112
 30
0.0
 11
501.7843742102999
 21
-96.87409461120001
 31
0.0
  0
LINE
  5
77
330
1F
100
AcDbEntity
  8
0
  6
Continuous
 62
     7
370
    25
100
AcDbLine
 10
447.7843742102999
 20
-96.87409461120001
 30
0.0
 11
447.7843742102999
 21
-100.8740946112
 31
0.0
  0
LINE
  5
78
330
1F
100
AcDbEntity
  8
0
  6
Continuous
 62
     7
370
    25
100
AcDbLine
 10
485.8500709242
 20
149.2591549695
 30
0.0
 11
485.8500709242
 21
167.6591549695
 31
0.0
  0
LINE
  5
79
330
1F
100
AcDbEntity
  8
0
  6
Continuous
 62
     7
370
    25
100
AcDbLine
 10
463.6200709241999
 20
167.6591549695
 30
0.0
 11
463.6200709241999
 21
149.2591549695
 31
0.0
  0
SPLINE
  5
7A
330
1F
100
AcDbEntity
  8
0
  6
Continuous
 62
     7
370
    25
100
AcDbSpline
210
0.0
220
0.0
230
1.0
 70
     8
 71
     3
 72
    33
 73
    29
 74
     0
 42
0.00000001
 43
0.0000000001
 40
0.0
 40
0.0
 40
0.0
 40
0.0
 40
0.0023364601923182
 40
0.0045757835307416
 40
0.0069488364696117
 40
0.0108102110559536
 40
0.0193722162683078
 40
0.0355934220501051
 40
0.0847305533125209
 40
0.1361620666890609
 40
0.1850306622787203
 40
0.2335839390236611
 40
0.2820508704178863
 40
0.3304837501005622
 40
0.3789004305108974
 40
0.4273084012859418
 40
0.4757112635131778
 40
0.5241109284936382
 40
0.5725084905002955
 40
0.62090461516826
 40
0.6692997282978224
 40
0.7176941143735781
 40
0.7660879710790098
 40
0.8144814410163169
 40
0.8628746310132582
 40
0.9112676243934167
 40
0.9596604891391177
 40
1.0
 40
1.0
 40
1.0
 40
1.0
 10
463.658804275484
 20
214.1772897630954
 30
0.0
 10
463.6564027960121
 20
214.126188310463
 30
0.0
 10
463.6516996770573
 20
214.0261099157525
 30
0.0
 10
463.6492183670794
 20
213.9230344018519
 30
0.0
 10
463.6474690274041
 20
213.8414368195025
 30
0.0
 10
463.6464982580427
 20
213.7655327242203
 30
0.0
 10
463.6459350118685
 20
213.699574532435
 30
0.0
 10
463.6453554346847
 20
213.580715282317
 30
0.0
 10
463.6446759894155
 20
213.3084636748215
 30
0.0
 10
463.6438072466528
 20
212.6866579725444
 30
0.0
 10
463.6429699727171
 20
211.80336293488
 30
0.0
 10
463.6421671562616
 20
210.6869229606154
 30
0.0
 10
463.6413910449078
 20
209.3314795161974
 30
0.0
 10
463.6406433308263
 20
207.7428443776497
 30
0.0
 10
463.6399279512656
 20
205.9296830331265
 30
0.0
 10
463.6392487435976
 20
203.9021877180562
 30
0.0
 10
463.6386095272958
 20
201.671917199696
 30
0.0
 10
463.6380139240212
 20
199.2516448448679
 30
0.0
 10
463.6374653334542
 20
196.6552665908841
 30
0.0
 10
463.6369668965834
 20
193.897707645475
 30
0.0
 10
463.6365214705185
 20
190.9948309101038
 30
0.0
 10
463.6361316204769
 20
187.9633424827404
 30
0.0
 10
463.6357995594078
 20
184.8206922314208
 30
0.0
 10
463.6355272989011
 20
181.5849766767044
 30
0.0
 10
463.6353160226841
 20
178.2748165816066
 30
0.0
 10
463.6351683722824
 20
174.9093138905288
 30
0.0
 10
463.6350847837999
 20
171.696392374184
 30
0.0
 10
463.6350752558071
 20
169.6083986400267
 30
0.0
 10
463.6350709241911
 20
168.6591549694871
 30
0.0
  0
SPLINE
  5
7B
330
1F
100
AcDbEntity
  8
0
  6
Continuous
 62
     7
370
    25
100
AcDbSpline
210
0.0
220
0.0
230
1.0
 70
     8
 71
     3
 72
    29
 73
    25
 74
     0
 42
0.00000001
 43
0.0000000001
 40
0.0
 40
0.0
 40
0.0
 40
0.0
 40
0.0260704704093698
 40
0.0756386032429953
 40
0.1252152903740611
 40
0.174791871774745
 40
0.224368280950325
 40
0.2739444442620026
 40
0.3235202705835343
 40
0.3730956424066428
 40
0.4226704024521268
 40
0.4722443326150211
 40
0.5218171194361354
 40
0.5713882949119458
 40
0.6209571298539393
 40
0.6705224302517752
 40
0.7200821201753611
 40
0.7696323098219159
 40
0.8191649677010477
 40
0.8686611733862326
 40
0.9180669790983706
 40
0.9671738849337939
 40
0.9964193886341931
 40
1.0
 40
1.0
 40
1.0
 40
1.0
 10
485.8350709241911
 20
168.6591549694871
 30
0.0
 10
485.8350727020339
 20
169.2578359950345
 30
0.0
 10
485.8350778601131
 20
170.9947972331491
 30
0.0
 10
485.8351351993523
 20
173.8644060443431
 30
0.0
 10
485.835263595342
 20
177.2423867267688
 30
0.0
 10
485.8354556567196
 20
180.571193752235
 30
0.0
 10
485.8357091706257
 20
183.8313317205603
 30
0.0
 10
485.836022968929
 20
187.0040428902309
 30
0.0
 10
485.8363951624528
 20
190.071032755409
 30
0.0
 10
485.8368236243451
 20
193.0146249229118
 30
0.0
 10
485.8373058754319
 20
195.8178489120971
 30
0.0
 10
485.8378391303527
 20
198.4645403962195
 30
0.0
 10
485.8384203077008
 20
200.9394323837471
 30
0.0
 10
485.8390460303038
 20
203.2282390229742
 30
0.0
 10
485.8397127039035
 20
205.3177410853293
 30
0.0
 10
485.8404162870892
 20
207.1958272422216
 30
0.0
 10
485.841153194756
 20
208.8516522460767
 30
0.0
 10
485.8419169090906
 20
210.2752865571236
 30
0.0
 10
485.8427104234213
 20
211.4591317735774
 30
0.0
 10
485.8434990469365
 20
212.3924428580609
 30
0.0
 10
485.8443829024138
 20
213.0805501498942
 30
0.0
 10
485.8448709273234
 20
213.4197763118332
 30
0.0
 10
485.8456701154239
 20
213.5722570984905
 30
0.0
 10
485.8454599381655
 20
213.5488573984289
 30
0.0
 10
485.8454370124225
 20
213.5463050028188
 30
0.0
  0
LINE
  5
7C
330
1F
100
AcDbEntity
  8
0
  6
Continuous
 62
     7
370
    25
100
AcDbLine
 10
485.8350709241999
 20
167.7591549695
 30
0.0
 11
485.8350709241999
 21
168.6591549695
 31
0.0
  0
LINE
  5
7D
330
1F
100
AcDbEntity
  8
0
  6
Continuous
 62
     7
370
    25
100
AcDbLine
 10
463.6350709241999
 20
168.6591549695
 30
0.0
 11
463.6350709241999
 21
167.7591549695
 31
0.0
  0
LINE
  5
7E
330
1F
100
AcDbEntity
  8
0
  6
Continuous
 62
     7
370
    25
100
AcDbLine
 10
474.7732809709999
 20
224.7591549695
 30
0.0
 11
474.7461641635999
 21
224.7591549695
 31
0.0
  0
SPLINE
  5
7F
330
1F
100
AcDbEntity
  8
0
  6
Continuous
 62
     7
370
    25
100
AcDbSpline
210
0.0
220
0.0
230
1.0
 70
     8
 71
     3
 72
    32
 73
    28
 74
     0
 42
0.00000001
 43
0.0000000001
 40
0.0
 40
0.0
 40
0.0
 40
0.0
 40
0.0254709331721731
 40
0.0738991800764361
 40
0.1223358708824432
 40
0.1707726547253933
 40
0.2192095860875939
 40
0.2676467329064767
 40
0.3160841780310997
 40
0.3645220269232587
 40
0.4129604190796917
 40
0.4613995457524839
 40
0.5098396786229368
 40
0.5582812182556708
 40
0.6067247799972996
 40
0.6551713549447947
 40
0.7036226323129636
 40
0.7520817001992959
 40
0.80055473686552
 40
0.8490557023633709
 40
0.8976221913240051
 40
0.9463886089406519
 40
0.9743535853347948
 40
0.9883777253929558
 40
0.9956108785549824
 40
0.9981627548474
 40
1.0
 40
1.0
 40
1.0
 40
1.0
 10
485.8843742103553
 20
168.6591549694872
 30
0.0
 10
485.884372432296
 20
169.2579088321864
 30
0.0
 10
485.8843672735871
 20
170.9950819157945
 30
0.0
 10
485.8843099272906
 20
173.8650443286716
 30
0.0
 10
485.8841815149443
 20
177.2434552509275
 30
0.0
 10
485.8839894274768
 20
180.5727125980119
 30
0.0
 10
485.8837358757297
 20
183.8333318425476
 30
0.0
 10
485.8834220245058
 20
187.006567234584
 30
0.0
 10
485.8830497582253
 20
190.0741380306794
 30
0.0
 10
485.8826211968123
 20
193.0183842034531
 30
0.0
 10
485.8821388096903
 20
195.822355393188
 30
0.0
 10
485.8816053669431
 20
198.4699130630215
 30
0.0
 10
485.8810239305687
 20
200.9458239317533
 30
0.0
 10
485.880397834011
 20
203.2358501912922
 30
0.0
 10
485.8797306517287
 20
205.3268354802982
 30
0.0
 10
485.8790261974793
 20
207.2067866883436
 30
0.0
 10
485.8782883799612
 20
208.8649589835673
 30
0.0
 10
485.877521523782
 20
210.2919336198873
 30
0.0
 10
485.8767287814501
 20
211.4797764870527
 30
0.0
 10
485.8759171442549
 20
212.4220998833903
 30
0.0
 10
485.8750756841905
 20
213.1152614105566
 30
0.0
 10
485.8743652817235
 20
213.4933055638725
 30
0.0
 10
485.8737331742728
 20
213.6555596114766
 30
0.0
 10
485.8732703396007
 20
213.7383440362185
 30
0.0
 10
485.8720520725161
 20
213.8391098930219
 30
0.0
 10
485.8687949969873
 20
213.9915328112855
 30
0.0
 10
485.8649221628795
 20
214.0831219857926
 30
0.0
 10
485.8633010307734
 20
214.1214603569227
 30
0.0
  0
LINE
  5
80
330
1F
100
AcDbEntity
  8
0
  6
Continuous
 62
     7
370
    25
100
AcDbLine
 10
485.8843742103999
 20
2.759154969499999
 30
0.0
 11
485.8843742103999
 21
168.6591549695
 31
0.0
  0
LINE
  5
81
330
1F
100
AcDbEntity
  8
0
  6
Continuous
 62
     7
370
    25
100
AcDbLine
 10
463.6843742104
 20
167.7591549695
 30
0.0
 11
463.6843742104
 21
167.6591549695
 31
0.0
  0
LINE
  5
82
330
1F
100
AcDbEntity
  8
0
  6
Continuous
 62
     7
370
    25
100
AcDbLine
 10
463.6843742104
 20
149.2591549695
 30
0.0
 11
463.6843742104
 21
2.759154969499999
 31
0.0
  0
LINE
  5
83
330
1F
100
AcDbEntity
  8
0
  6
Continuous
 62
     7
370
    25
100
AcDbLine
 10
429.8843742103
 20
-55.7408450305
 30
0.0
 11
452.2843742102999
 21
-55.7408450305
 31
0.0
  0
LINE
  5
84
330
1F
100
AcDbEntity
  8
DIMENSION
100
AcDbLine
 10
497.2843742102999
 20
-55.7408450305
 30
0.0
 11
520.7843742103
 21
-55.7408450305
 31
0.0
  0
LINE
  5
85
330
1F
100
AcDbEntity
  8
0
  6
Continuous
 62
     7
370
    25
100
AcDbLine
 10
520.7843742103
 20
-10.7408450305
 30
0.0
 11
485.9093742103
 21
-10.7408450305
 31
0.0
  0
LINE
  5
86
330
1F
100
AcDbEntity
  8
0
  6
Continuous
 62
     7
370
    25
100
AcDbLine
 10
463.6593742102999
 20
-10.7408450305
 30
0.0
 11
429.8843742103
 21
-10.7408450305
 31
0.0
  0
LINE
  5
87
330
1F
100
AcDbEntity
  8
0
  6
Continuous
 62
     7
370
    25
100
AcDbLine
 10
485.9093742103
 20
-10.7408450305
 30
0.0
 11
485.9093742103
 21
2.759154969499999
 31
0.0
  0
LINE
  5
88
330
1F
100
AcDbEntity
  8
0
  6
Continuous
 62
     7
370
    25
100
AcDbLine
 10
463.6593742102999
 20
2.759154969499999
 30
0.0
 11
463.6593742102999
 21
-10.7408450305
 31
0.0
  0
LINE
  5
89
330
1F
100
AcDbEntity
  8
0
  6
Continuous
 62
     7
370
    25
100
AcDbLine
 10
535.4115879003
 20
-10.6770460636
 30
0.0
 11
522.8843742102999
 21
-10.6770460636
 31
0.0
  0
LINE
  5
8A
330
1F
100
AcDbEntity
  8
0
  6
Continuous
 62
     7
370
    25
100
AcDbLine
 10
549.7843742102999
 20
-10.6770460636
 30
0.0
 11
543.5639496843999
 21
-10.6770460636
 31
0.0
  0
LINE
  5
8B
330
1F
100
AcDbEntity
  8
DIMENSION
100
AcDbLine
 10
531.8723370305
 20
-55.67704606359999
 30
0.0
 11
549.7843742102999
 21
-55.67704606359999
 31
0.0
  0
ARC
  5
8C
330
1F
100
AcDbEntity
  8
DIMENSION
100
AcDbCircle
 10
549.7843742102999
 20
-55.57704606359999
 30
0.0
 40
0.1000000000000014
100
AcDbArc
 50
270.0
 51
360.0
  0
ARC
  5
8D
330
1F
100
AcDbEntity
  8
0
  6
Continuous
 62
     7
370
    25
100
AcDbCircle
 10
549.7843742102999
 20
-10.7770460636
 30
0.0
 40
0.1000000000000032
100
AcDbArc
 50
0.0
 51
90.0
  0
ARC
  5
8E
330
1F
100
AcDbEntity
  8
DIMENSION
100
AcDbCircle
 10
519.7352917916999
 20
-33.7587071142
 30
0.0
 40
20.0
100
AcDbArc
 50
273.0067796503
 51
301.225666398
  0
LWPOLYLINE
  5
8F
330
1F
100
AcDbEntity
  8
0
  6
Continuous
 62
     7
370
    25
100
AcDbPolyline
 90
        3
 70
   128
 43
0.0
 10
522.8843742102999
 20
-12.9724568799
 10
522.1329337270999
 20
-12.8672202279
 10
520.7843742103
 20
-12.7505162469
  0
LINE
  5
90
330
1F
100
AcDbEntity
  8
0
  6
Continuous
 62
     7
370
    25
100
AcDbLine
 10
535.4843742102999
 20
29.3159483471
 30
0.0
 11
535.4843742102999
 21
-10.6795680757
 31
0.0
  0
LINE
  5
91
330
1F
100
AcDbEntity
  8
0
  6
Continuous
 62
     7
370
    25
100
AcDbLine
 10
543.4843742102999
 20
-10.6795680757
 30
0.0
 11
543.4843742102999
 21
29.3159483471
 31
0.0
  0
SPLINE
  5
92
330
1F
100
AcDbEntity
  8
0
  6
Continuous
 62
     7
370
    25
100
AcDbSpline
210
0.0
220
0.0
230
1.0
 70
     8
 71
     3
 72
    47
 73
    43
 74
     0
 42
0.00000001
 43
0.0000000001
 40
0.0
 40
0.0
 40
0.0
 40
0.0
 40
0.0084832221323831
 40
0.0171126860819201
 40
0.0258889910936025
 40
0.034812672415842
 40
0.0438842024965336
 40
0.053103992001256
 40
0.0624723906655779
 40
0.0920410239168559
 40
0.1245255594230951
 40
0.151602598026977
 40
0.187036370315586
 40
0.2183121360826823
 40
0.249434377285646
 40
0.2828270185871241
 40
0.3115755390006356
 40
0.3446411727497456
 40
0.3742666375430841
 40
0.4056006526671688
 40
0.4369878678308841
 40
0.4689204345142688
 40
0.4996652016337217
 40
0.5000016259040496
 40
0.5307744199549532
 40
0.5627235910141519
 40
0.5927302014291258
 40
0.6254455216623104
 40
0.6549468915960139
 40
0.6878520986392788
 40
0.7167777276107574
 40
0.7503846274518166
 40
0.781359781779746
 40
0.8124724398314747
 40
0.8478112889960009
 40
0.8747039733327612
 40
0.9075317587809962
 40
0.9373717470051513
 40
0.9537111680460496
 40
0.9695940831941499
 40
0.9850227459840208
 40
1.0
 40
1.0
 40
1.0
 40
1.0
 10
493.4176237910597
 20
-51.87409461122379
 30
0.0
 10
493.3486895944981
 20
-51.8044160829879
 30
0.0
 10
493.2096328484103
 20
-51.66385784205733
 30
0.0
 10
492.9936494346689
 20
-51.44654978476817
 30
0.0
 10
492.7698421862288
 20
-51.22226418163958
 30
0.0
 10
492.5376514497741
 20
-50.99064937918227
 30
0.0
 10
492.2970512854676
 20
-50.75180704555918
 30
0.0
 10
492.0478779843763
 20
-50.50570893243024
 30
0.0
 10
491.6060510557051
 20
-50.07165841326879
 30
0.0
 10
490.926476406638
 20
-49.41104336385746
 30
0.0
 10
490.0321025206898
 20
-48.56237588146509
 30
0.0
 10
489.0353491569946
 20
-47.63775413020428
 30
0.0
 10
488.0049439477857
 20
-46.71491742058031
 30
0.0
 10
486.8814601775256
 20
-45.74791218366839
 30
0.0
 10
485.7351338321955
 20
-44.80824186769832
 30
0.0
 10
484.5702519755273
 20
-43.91194020226594
 30
0.0
 10
483.3311609046924
 20
-43.027487622014
 30
0.0
 10
482.0873936818554
 20
-42.22497919102454
 30
0.0
 10
480.7487430182773
 20
-41.46933717656432
 30
0.0
 10
479.3712959026566
 20
-40.82133838998196
 30
0.0
 10
477.8911617094348
 20
-40.29524560164215
 30
0.0
 10
476.3595175592569
 20
-39.95519834179577
 30
0.0
 10
475.3079472979221
 20
-39.87450737184867
 30
0.0
 10
474.2771537164426
 20
-39.87368590502154
 30
0.0
 10
473.2247285556239
 20
-39.95290144876329
 30
0.0
 10
471.7141734497425
 20
-40.28578695220799
 30
0.0
 10
470.2324407208656
 20
-40.80798242249511
 30
0.0
 10
468.8540594965813
 20
-41.45053222114995
 30
0.0
 10
467.4992514035183
 20
-42.21433901817587
 30
0.0
 10
466.2560178581362
 20
-43.01490815248818
 30
0.0
 10
465.0131151256771
 20
-43.90095095569579
 30
0.0
 10
463.8447256602954
 20
-44.7993873875346
 30
0.0
 10
462.699151420054
 20
-45.7379833739316
 30
0.0
 10
461.5797236737679
 20
-46.70096888199635
 30
0.0
 10
460.5534015781891
 20
-47.61955786233517
 30
0.0
 10
459.5549895351115
 20
-48.54514007079441
 30
0.0
 10
458.6553958387574
 20
-49.39834814353122
 30
0.0
 10
457.9032960084346
 20
-50.1293399963291
 30
0.0
 10
457.3373963141735
 20
-50.686344452488
 30
0.0
 10
456.9171679345542
 20
-51.10380660768513
 30
0.0
 10
456.5216516418283
 20
-51.49983768907298
 30
0.0
 10
456.2734051376074
 20
-51.75058316658947
 30
0.0
 10
456.1511246296382
 20
-51.87409461122379
 30
0.0
  0
LINE
  5
93
330
1F
100
AcDbEntity
  8
0
  6
Continuous
 62
     7
370
    25
100
AcDbLine
 10
493.4176237911
 20
-51.8740946112
 30
0.0
 11
456.1511246295999
 21
-51.8740946112
 31
0.0
  0
LINE
  5
94
330
1F
100
AcDbEntity
  8
DIMENSION
100
AcDbLine
 10
497.2843742102999
 20
-55.7408450305
 30
0.0
 11
493.4176237911
 21
-51.8740946112
 31
0.0
  0
LINE
  5
95
330
1F
100
AcDbEntity
  8
0
  6
Continuous
 62
     7
370
    25
100
AcDbLine
 10
456.1511246295999
 20
-51.8740946112
 30
0.0
 11
452.2843742102999
 21
-55.7408450305
 31
0.0
  0
LINE
  5
96
330
1F
100
AcDbEntity
  8
DIMENSION
100
AcDbLine
 10
447.7843742102999
 20
-100.8740946112
 30
0.0
 11
501.7843742102999
 21
-100.8740946112
 31
0.0
  0
LINE
  5
97
330
1F
100
AcDbEntity
  8
DIMENSION
100
AcDbLine
 10
447.7843742102999
 20
-96.87409461120001
 30
0.0
 11
501.7843742102999
 21
-96.87409461120001
 31
0.0
  0
LINE
  5
98
330
1F
100
AcDbEntity
  8
0
  6
Continuous
 62
     7
370
    25
100
AcDbLine
 10
485.8500709242
 20
167.6591549695
 30
0.0
 11
463.6200709241999
 21
167.6591549695
 31
0.0
  0
LINE
  5
99
330
1F
100
AcDbEntity
  8
0
  6
Continuous
 62
     7
370
    25
100
AcDbLine
 10
485.8500709242
 20
149.2591549695
 30
0.0
 11
463.6200709241999
 21
149.2591549695
 31
0.0
  0
LINE
  5
9A
330
1F
100
AcDbEntity
  8
0
  6
Continuous
 62
     7
370
    25
100
AcDbLine
 10
485.8350705869
 20
168.6591549695
 30
0.0
 11
463.6350712615
 21
168.6591549695
 31
0.0
  0
ARC
  5
9B
330
1F
100
AcDbEntity
  8
0
  6
Continuous
 62
     7
370
    25
100
AcDbCircle
 10
474.7461643401
 20
213.6591551376
 30
0.0
 40
11.09999983194569
100
AcDbArc
 50
90.01300505939999
 51
177.3325835737
  0
LINE
  5
9C
330
1F
100
AcDbEntity
  8
0
  6
Continuous
 62
     7
370
    25
100
AcDbLine
 10
463.6350709241999
 20
167.7591549695
 30
0.0
 11
485.8350709241999
 21
167.7591549695
 31
0.0
  0
ARC
  5
9D
330
1F
100
AcDbEntity
  8
0
  6
Continuous
 62
     7
370
    25
100
AcDbCircle
 10
474.7732808112999
 20
213.6591551543
 30
0.0
 40
11.0999998151955
100
AcDbArc
 50
2.374006884699999
 51
89.99999917569999
  0
LINE
  5
9E
330
1F
100
AcDbEntity
  8
0
  6
Continuous
 62
     7
370
    25
100
AcDbLine
 10
429.8843742103
 20
-55.7408450305
 30
0.0
 11
429.8843742103
 21
-10.7408450305
 31
0.0
  0
LINE
  5
9F
330
1F
100
AcDbEntity
  8
DIMENSION
100
AcDbLine
 10
520.7843742103
 20
-55.7408450305
 30
0.0
 11
520.7843742103
 21
-10.7408450305
 31
0.0
  0
LINE
  5
A0
330
1F
100
AcDbEntity
  8
0
  6
Continuous
 62
     7
370
    25
100
AcDbLine
 10
474.7843742102999
 20
2.759154969499999
 30
0.0
 11
463.6593742102999
 21
2.759154969499999
 31
0.0
  0
LINE
  5
A1
330
1F
100
AcDbEntity
  8
0
  6
Continuous
 62
     7
370
    25
100
AcDbLine
 10
485.9093742103
 20
2.759154969499999
 30
0.0
 11
474.7843742102999
 21
2.759154969499999
 31
0.0
  0
SPLINE
  5
A2
330
1F
100
AcDbEntity
  8
0
  6
Continuous
 62
     7
370
    25
100
AcDbSpline
210
0.0
220
0.0
230
1.0
 70
     8
 71
     3
 72
    27
 73
    23
 74
     0
 42
0.00000001
 43
0.0000000001
 40
0.0
 40
0.0
 40
0.0
 40
0.0
 40
0.0747060415686013
 40
0.1358115117308036
 40
0.1835403105663039
 40
0.221718563229332
 40
0.2620891451876945
 40
0.304672928953532
 40
0.33864894112882
 40
0.3748634381848182
 40
0.4133665061361982
 40
0.4650030093264276
 40
0.4905019963362937
 40
0.5582276539327205
 40
0.6114430356391372
 40
0.6460543777337177
 40
0.6783813818695677
 40
0.72068594675929
 40
0.7611643234906187
 40
0.7998357179626132
 40
0.9602342854580355
 40
1.0
 40
1.0
 40
1.0
 40
1.0
 10
474.7843742103489
 20
-13.68363727991632
 30
0.0
 10
475.2270762277866
 20
-13.67495479240322
 30
0.0
 10
476.0318843660856
 20
-13.65917050334198
 30
0.0
 10
477.1007525397662
 20
-13.55371689654555
 30
0.0
 10
477.936275605124
 20
-13.43553509690935
 30
0.0
 10
478.6360817042271
 20
-13.31090269753119
 30
0.0
 10
479.2894614193654
 20
-13.17450483655855
 30
0.0
 10
479.8996636889955
 20
-13.02812365457306
 30
0.0
 10
480.4679461872716
 20
-12.87632592843897
 30
0.0
 10
480.9968463450012
 20
-12.72292271288022
 30
0.0
 10
481.5865891065103
 20
-12.53667864268611
 30
0.0
 10
482.0978452427133
 20
-12.36293594017117
 30
0.0
 10
482.7046395387168
 20
-12.14336314136516
 30
0.0
 10
483.2766929838081
 20
-11.92209148959095
 30
0.0
 10
483.8217618119957
 20
-11.69777448943439
 30
0.0
 10
484.2054864851244
 20
-11.53351861222299
 30
0.0
 10
484.5275085940158
 20
-11.39181678357323
 30
0.0
 10
484.8340925288058
 20
-11.25355828102657
 30
0.0
 10
485.117766032395
 20
-11.12215483606693
 30
0.0
 10
485.5961040492443
 20
-10.89615516463419
 30
0.0
 10
485.8912424638814
 20
-10.74970531400144
 30
0.0
 10
485.8997588437325
 20
-10.74570513941037
 30
0.0
 10
485.9014507536311
 20
-10.74491044317741
 30
0.0
  0
SPLINE
  5
A3
330
1F
100
AcDbEntity
  8
0
  6
Continuous
 62
     7
370
    25
100
AcDbSpline
210
0.0
220
0.0
230
1.0
 70
     8
 71
     3
 72
    52
 73
    48
 74
     0
 42
0.00000001
 43
0.0000000001
 40
0.0
 40
0.0
 40
0.0
 40
0.0
 40
0.0206467152657428
 40
0.0593118474462755
 40
0.0981050912882775
 40
0.1370604200822628
 40
0.1971091231515848
 40
0.2596688044345082
 40
0.3167694261871433
 40
0.3787718426972562
 40
0.4081701607643828
 40
0.4399742989274519
 40
0.4726962937618282
 40
0.4903010358653457
 40
0.4986680132601919
 40
0.5024696748411503
 40
0.5041656732285773
 40
0.5049164168852619
 40
0.5052476161228899
 40
0.5053935126107403
 40
0.5054577397494584
 40
0.5054860060181185
 40
0.5055082179419405
 40
0.562088343370723
 40
0.5789563205384694
 40
0.5976509027380321
 40
0.613404822164135
 40
0.6223703573046869
 40
0.6260812548059242
 40
0.6276687572556215
 40
0.6283584896109259
 40
0.6286602742161957
 40
0.6287927307806874
 40
0.6288509480400989
 40
0.6288765513156696
 40
0.6288878143720451
 40
0.6288927696551383
 40
0.6288966628939125
 40
0.6559867026339267
 40
0.6818379090138441
 40
0.7064523590227595
 40
0.7298324633479348
 40
0.751981039841553
 40
0.7904661827407199
 40
0.8275924208045623
 40
0.8633831511450612
 40
1.0
 40
1.0
 40
1.0
 40
1.0
 10
463.6871370555003
 20
-10.75524800161515
 30
0.0
 10
463.677344185855
 20
-10.75049068328354
 30
0.0
 10
463.6492121957064
 20
-10.73682432834501
 30
0.0
 10
463.7076901010553
 20
-10.76540782832358
 30
0.0
 10
463.7873065162358
 20
-10.80408417867575
 30
0.0
 10
463.9410948737718
 20
-10.87890962706742
 30
0.0
 10
464.1906246735032
 20
-10.99955613714522
 30
0.0
 10
464.5646847133834
 20
-11.17536717484095
 30
0.0
 10
465.0309068578231
 20
-11.38831533866701
 30
0.0
 10
465.4801096099578
 20
-11.58446160232941
 30
0.0
 10
465.8927309337226
 20
-11.75792100820422
 30
0.0
 10
466.2271889450411
 20
-11.89424761742736
 30
0.0
 10
466.537227050331
 20
-12.0166327512809
 30
0.0
 10
466.7682575560967
 20
-12.10481905200625
 30
0.0
 10
466.8878753939036
 20
-12.14970496947396
 30
0.0
 10
466.9441008289918
 20
-12.17063513059095
 30
0.0
 10
466.9695459306266
 20
-12.18007325310932
 30
0.0
 10
466.9808793176091
 20
-12.18427034587435
 30
0.0
 10
466.9858927112743
 20
-12.18612564890133
 30
0.0
 10
466.9881037807091
 20
-12.18694364380037
 30
0.0
 10
466.9890776538912
 20
-12.18730388330573
 30
0.0
 10
466.9895462820468
 20
-12.18747722019081
 30
0.0
 10
467.220919088831
 20
-12.27305506151689
 30
0.0
 10
467.5342489959962
 20
-12.38403930033009
 30
0.0
 10
467.9459439475059
 20
-12.52304511705452
 30
0.0
 10
468.1804346662812
 20
-12.59943383786781
 30
0.0
 10
468.3829738134901
 20
-12.66291722014116
 30
0.0
 10
468.5174650198791
 20
-12.70415724740949
 30
0.0
 10
468.5854163388593
 20
-12.72473087878592
 30
0.0
 10
468.6140261928258
 20
-12.73334510002359
 30
0.0
 10
468.6263635404285
 20
-12.73705067695749
 30
0.0
 10
468.6317432578486
 20
-12.73866475389966
 30
0.0
 10
468.6341008917414
 20
-12.73937177843461
 30
0.0
 10
468.6351364218398
 20
-12.73968225577451
 30
0.0
 10
468.6355917009497
 20
-12.73981874704863
 30
0.0
 10
468.6357919551911
 20
-12.73987878021902
 30
0.0
 10
468.6358882562225
 20
-12.73990764928581
 30
0.0
 10
468.7656475166181
 20
-12.77880642657578
 30
0.0
 10
469.0229720958272
 20
-12.85365397600183
 30
0.0
 10
469.4101633500705
 20
-12.95946557564295
 30
0.0
 10
469.7877223396622
 20
-13.05620099316854
 30
0.0
 10
470.1539927383132
 20
-13.14388222560428
 30
0.0
 10
470.6009612369828
 20
-13.2431966266317
 30
0.0
 10
471.1333434899201
 20
-13.34888764630582
 30
0.0
 10
471.7553025929166
 20
-13.4529724970006
 30
0.0
 10
472.9482887539638
 20
-13.62143851744108
 30
0.0
 10
473.9726577681819
 20
-13.65613978081681
 30
0.0
 10
474.7843742103489
 20
-13.68363727991632
 30
0.0
  0
SPLINE
  5
A4
330
1F
100
AcDbEntity
  8
DIMENSION
100
AcDbSpline
210
0.0
220
0.0
230
1.0
 70
     8
 71
     3
 72
    16
 73
    12
 74
     0
 42
0.00000001
 43
0.0000000001
 40
0.0
 40
0.0
 40
0.0
 40
0.0
 40
0.1188142789555524
 40
0.2446906859938969
 40
0.3750059902094152
 40
0.506607436413649
 40
0.6363249264178625
 40
0.7614712870166596
 40
0.8801246974945817
 40
0.9911375985867763
 40
1.0
 40
1.0
 40
1.0
 40
1.0
 10
522.8843742103489
 20
-31.89477411588312
 30
0.0
 10
523.4235566502209
 20
-33.29949196525815
 30
0.0
 10
524.5339696599018
 20
-36.19242181521358
 30
0.0
 10
526.1979323163022
 20
-40.54357554374558
 30
0.0
 10
527.810615460293
 20
-44.77423032944429
 30
0.0
 10
529.2608497496261
 20
-48.59542815741612
 30
0.0
 10
530.4418293776433
 20
-51.72621989709289
 30
0.0
 10
531.2973330779349
 20
-54.01642920130181
 30
0.0
 10
531.7578334042655
 20
-55.28031098295863
 30
0.0
 10
531.9345039672409
 20
-55.7858858087392
 30
0.0
 10
531.8766166496958
 20
-55.65765313224105
 30
0.0
 10
531.8723370305073
 20
-55.64817286875336
 30
0.0
  0
LINE
  5
A5
330
1F
100
AcDbEntity
  8
DIMENSION
100
AcDbLine
 10
522.8843742102999
 20
-10.6770460636
 30
0.0
 11
522.8843742102999
 21
-31.8947741159
 31
0.0
  0
SPLINE
  5
A6
330
1F
100
AcDbEntity
  8
0
  6
Continuous
 62
     7
370
    25
100
AcDbSpline
210
0.0
220
0.0
230
1.0
 70
     8
 71
     3
 72
    28
 73
    24
 74
     0
 42
0.00000001
 43
0.0000000001
 40
0.0
 40
0.0
 40
0.0
 40
0.0
 40
0.0377956451267415
 40
0.0827496440408767
 40
0.0917607660239411
 40
0.0928916124663071
 40
0.0930330374963161
 40
0.0930507167059039
 40
0.0930536365873002
 40
0.1060926051660092
 40
0.1940320119470437
 40
0.2868323844703652
 40
0.3012038571387015
 40
0.3650259459057367
 40
0.4361031872019134
 40
0.5361700901947356
 40
0.6411424495451687
 40
0.7271022966125597
 40
0.8172853088213505
 40
0.8289280880075191
 40
0.8868048945653658
 40
0.995660897426984
 40
1.0
 40
1.0
 40
1.0
 40
1.0
 10
535.4115879002766
 20
-10.67954603145667
 30
0.0
 10
535.423736826069
 20
-10.67951849490996
 30
0.0
 10
535.4503356387485
 20
-10.67945820649759
 30
0.0
 10
535.5550406977636
 20
-10.69248185609187
 30
0.0
 10
535.6296877460398
 20
-10.70208300440334
 30
0.0
 10
535.6442893070203
 20
-10.70398354682413
 30
0.0
 10
535.6461295731179
 20
-10.70422331451339
 30
0.0
 10
535.6463608687106
 20
-10.70425345436389
 30
0.0
 10
535.6650053927995
 20
-10.70668304239611
 30
0.0
 10
535.8165274025488
 20
-10.72666527027323
 30
0.0
 10
536.2174898150776
 20
-10.78164578494902
 30
0.0
 10
536.7911848452279
 20
-10.84846243762881
 30
0.0
 10
537.3572803814161
 20
-10.90295200191031
 30
0.0
 10
537.8925230300857
 20
-10.94621881961387
 30
0.0
 10
538.8110371219014
 20
-10.99295234324502
 30
0.0
 10
539.9507023098136
 20
-10.99941708982793
 30
0.0
 10
541.1113129328022
 20
-10.94839588751262
 30
0.0
 10
542.0929838623648
 20
-10.8595757030048
 30
0.0
 10
542.6237490550552
 20
-10.79602357638483
 30
0.0
 10
542.9947284127392
 20
-10.74792187178408
 30
0.0
 10
543.3332838066136
 20
-10.70309245557852
 30
0.0
 10
543.5831356980359
 20
-10.66750254833329
 30
0.0
 10
543.5646579894863
 20
-10.67797361260038
 30
0.0
 10
543.5639496843666
 20
-10.67837499940706
 30
0.0
  0
LINE
  5
A7
330
1F
100
AcDbEntity
  8
DIMENSION
100
AcDbLine
 10
522.8843742102999
 20
-31.9135068779
 30
0.0
 11
522.8843742102999
 21
-31.8947741159
 31
0.0
  0
SPLINE
  5
A8
330
1F
100
AcDbEntity
  8
DIMENSION
100
AcDbSpline
210
0.0
220
0.0
230
1.0
 70
     8
 71
     3
 72
    24
 73
    20
 74
     0
 42
0.00000001
 43
0.0000000001
 40
0.0
 40
0.0
 40
0.0
 40
0.0
 40
0.0083850681109633
 40
0.1310740294579614
 40
0.1931696237480616
 40
0.2559292657300822
 40
0.3763686237334636
 40
0.4179889813352972
 40
0.4603652964303289
 40
0.5035210795220947
 40
0.6206967901604884
 40
0.662882641919754
 40
0.7066188818862615
 40
0.7486552379061932
 40
0.8082349225651903
 40
0.8665125022673123
 40
0.9044405494741422
 40
0.9538488778129124
 40
1.0
 40
1.0
 40
1.0
 40
1.0
 10
530.9353063641638
 20
-53.20701773237555
 30
0.0
 10
530.9390658632517
 20
-53.21534701599378
 30
0.0
 10
530.997833745357
 20
-53.34554903127767
 30
0.0
 10
530.8576824898681
 20
-52.94763353737493
 30
0.0
 10
530.6115762818903
 20
-52.26457304110682
 30
0.0
 10
530.2528891996616
 20
-51.288685923697
 30
0.0
 10
529.7950083388383
 20
-50.06471020707106
 30
0.0
 10
529.2863165331688
 20
-48.71054151060359
 30
0.0
 10
528.9415410020039
 20
-47.79460096769624
 30
0.0
 10
528.3486957775961
 20
-46.22311431116131
 30
0.0
 10
527.6750567456096
 20
-44.45228599918935
 30
0.0
 10
526.944847362742
 20
-42.53061091161312
 30
0.0
 10
526.4670959752439
 20
-41.27406426414721
 30
0.0
 10
525.9064426726411
 20
-39.80321195895266
 30
0.0
 10
525.2693310942211
 20
-38.13687131728624
 30
0.0
 10
524.6336570950607
 20
-36.47377330532922
 30
0.0
 10
524.0305668263562
 20
-34.90238119118011
 30
0.0
 10
523.4753576704513
 20
-33.45137233008097
 30
0.0
 10
523.0768407945675
 20
-32.41434612394168
 30
0.0
 10
522.8843742103489
 20
-31.91350687792913
 30
0.0
  0
LINE
  5
A9
330
1F
100
AcDbEntity
  8
DIMENSION
100
AcDbLine
 10
549.8843742102999
 20
-10.7770460636
 30
0.0
 11
549.8843742102999
 21
-55.57704606359999
 31
0.0
  0
LWPOLYLINE
  5
AA
330
1F
100
AcDbEntity
  8
0
  6
Continuous
 62
     7
370
    25
100
AcDbPolyline
 90
       24
 70
   128
 43
0.0
 10
539.4491243654999
 20
-10.6196816655
 10
538.3712863460999
 20
-10.6220448059
 10
537.3760009616001
 20
-10.6286741841
 10
536.5370839756999
 20
-10.6390781294
 10
535.9167540236
 20
-10.6524850288
 10
535.56101814
 20
-10.6679005539
 10
535.4962596279
 20
-10.6841814057
 10
535.7272813301
 20
-10.700120108
 10
536.2369494235999
 20
-10.71453456
 10
536.9874641574999
 20
-10.7263557078
 10
537.9231632874999
 20
-10.7347068311
 10
538.9746502895
 20
-10.738968565
 10
540.063941183
 20
-10.7388248365
 10
541.1102482454
 20
-10.734286305
 10
542.0359716684999
 20
-10.7256895729
 10
542.7724547808999
 20
-10.7136722202
 10
543.2650759993999
 20
-10.6991255192
 10
543.4772998616999
 20
-10.6831283321
 10
543.3933866948999
 20
-10.6668670971
 10
543.0195599546999
 20
-10.6515478355
 10
542.3835446601999
 20
-10.638306707
 10
541.5325111562
 20
-10.6281257454
 10
540.5295767045999
 20
-10.6217600262
 10
539.4491243654999
 20
-10.6196816655
  0
ARC
  5
AB
330
1F
100
AcDbEntity
  8
0
  6
Continuous
 62
     7
370
    25
100
AcDbCircle
 10
538.41507308
 20
-33.4374158
 30
0.0
 40
62.82176141788439
100
AcDbArc
 50
89.05686423330001
 51
92.6738766765
  0
ARC
  5
AC
330
1F
100
AcDbEntity
  8
0
  6
Continuous
 62
     7
370
    25
100
AcDbCircle
 10
540.5019389563999
 20
-35.66469638760001
 30
0.0
 40
65.04905157019888
100
AcDbArc
 50
87.37212343040001
 51
90.9273688869
  0
ARC
  5
AD
330
1F
100
AcDbEntity
  8
0
  6
Continuous
 62
     8
370
    25
100
AcDbCircle
 10
474.7461639994
 20
213.6591551426
 30
0.0
 40
11.09999982686378
100
AcDbArc
 50
359.9999991065
 51
90.0130033011
  0
LWPOLYLINE
  5
AE
330
1F
100
AcDbEntity
  8
0
  6
Continuous
 62
     8
370
    25
100
AcDbPolyline
 90
        3
 70
   128
 43
0.0
 10
485.8714628815
 20
213.4582798961
 10
485.8732806337
 20
213.6591549695
 10
485.8637537721
 20
214.1189435861
  0
LINE
  5
AF
330
1F
100
AcDbEntity
  8
0
  6
Continuous
 62
     8
370
    25
100
AcDbLine
 10
485.8350709241999
 20
168.6591549695
 30
0.0
 11
485.8843738731
 21
168.6591549695
 31
0.0
  0
LINE
  5
B0
330
1F
100
AcDbEntity
  8
DIMENSION
100
AcDbLine
 10
549.7843742102999
 20
-55.67704606359999
 30
0.0
 11
549.7843742102999
 21
-10.6770460636
 31
0.0
  0
DIMENSION
  5
B1
102
{ACAD_XDICTIONARY
360
23F
102
}
330
1F
100
AcDbEntity
  8
DIMENSION
100
AcDbDimension
280
     0
  2
*D22
 10
401.8843742103
 20
-100.8740946112
 30
0.0
 11
401.8843742102999
 21
-55.456271824
 31
0.0
 70
   160
  1
<>
 71
     2
 42
90.13324958070004
 73
     0
 74
     0
 75
     0
  3
RG Dimension Lines
100
AcDbAlignedDimension
 13
429.8843742103
 23
-10.7408450305
 33
0.0
 14
447.7843742102999
 24
-100.8740946112
 34
0.0
 50
90.0
100
AcDbRotatedDimension
1001
AcadAnnotative
1000
AnnotativeData
1002
{
1070
     1
1070
     1
1002
}
  0
DIMENSION
  5
BE
102
{ACAD_XDICTIONARY
360
231
102
}
330
1F
100
AcDbEntity
  8
DIMENSION
100
AcDbDimension
280
     0
  2
*D21
 10
577.8843742103
 20
-55.67704606360002
 30
0.0
 11
577.8843742102999
 21
-12.3390646076
 31
0.0
 70
   160
  1
<>
 71
     2
 42
84.99299441070002
 73
     0
 74
     0
 75
     0
  3
RG Dimension Lines
100
AcDbAlignedDimension
 13
539.4843742102999
 23
29.3159483471
 33
0.0
 14
549.7843742102999
 24
-55.67704606359999
 34
0.0
 50
90.0
100
AcDbRotatedDimension
1001
AcadAnnotative
1000
AnnotativeData
1002
{
1070
     1
1070
     1
1002
}
  0
DIMENSION
  5
C6
330
1F
100
AcDbEntity
  8
0
  6
Continuous
 62
     7
370
    18
100
AcDbDimension
280
     0
  2
_D_2
 10
463.6200709241999
 20
246.7591549695
 30
0.0
 11
473.831543139
 21
246.7591549695
 31
0.0
 70
   160
  1
%%c<>
 71
     2
 42
-1.0
 73
     0
 74
     0
 75
     0
  3
SLDDIMSTYLE0
100
AcDbAlignedDimension
 13
485.8500709242
 23
167.6591549695
 33
0.0
 14
463.6200709241999
 24
167.6591549695
 34
0.0
100
AcDbRotatedDimension
  0
DIMENSION
  5
CF
102
{ACAD_XDICTIONARY
360
223
102
}
330
1F
100
AcDbEntity
  8
DIMENSION
100
AcDbDimension
280
     0
  2
*D20
 10
447.7843742102999
 20
-126.3332345767
 30
0.0
 11
472.9920364095
 21
-126.3332345767
 31
0.0
 70
   160
  1
%%c<>
 71
     2
 42
54.0
 73
     0
 74
     0
 75
     0
  3
RG Dimension Lines
100
AcDbAlignedDimension
 13
501.7843742102999
 23
-100.8740946112
 33
0.0
 14
447.7843742102999
 24
-100.8740946112
 34
0.0
100
AcDbRotatedDimension
1001
AcadAnnotative
1000
AnnotativeData
1002
{
1070
     1
1070
     1
1002
}
  0
LINE
  5
D8
330
1F
100
AcDbEntity
  8
DIMENSION
100
AcDbLine
 10
57.0184650811
 20
-96.87409461120001
 30
0.0
 11
57.0184650811
 21
-51.8740946112
 31
0.0
  0
LINE
  5
D9
330
1F
100
AcDbEntity
  8
DIMENSION
100
AcDbLine
 10
12.0184650811
 20
-51.8740946112
 30
0.0
 11
12.0184650811
 21
-96.87409461120001
 31
0.0
  0
ARC
  5
DA
330
1F
100
AcDbEntity
  8
DIMENSION
100
AcDbCircle
 10
-7.978527631399999
 20
-51.2488440039
 30
0.0
 40
64.99999999999999
100
AcDbArc
 50
359.4488496396
 51
10.0767003583
  0
ARC
  5
DB
330
1F
100
AcDbEntity
  8
DIMENSION
100
AcDbCircle
 10
77.01545779369999
 20
-51.2488440039
 30
0.0
 40
65.00000000000001
100
AcDbArc
 50
169.9217718495
 51
180.5511503604
  0
LINE
  5
DC
330
1F
100
AcDbEntity
  8
DIMENSION
100
AcDbLine
 10
61.5184650811
 20
-100.8740946112
 30
0.0
 11
61.5184650811
 21
-96.87409461120001
 31
0.0
  0
LINE
  5
DD
330
1F
100
AcDbEntity
  8
DIMENSION
100
AcDbLine
 10
7.5184650811
 20
-96.87409461120001
 30
0.0
 11
7.5184650811
 21
-100.8740946112
 31
0.0
  0
LINE
  5
DE
330
1F
100
AcDbEntity
  8
0
  6
Continuous
 62
     7
370
    25
100
AcDbLine
 10
245.6334590041
 20
149.2591549695
 30
0.0
 11
245.6334590041
 21
167.6591549695
 31
0.0
  0
LINE
  5
DF
330
1F
100
AcDbEntity
  8
0
  6
Continuous
 62
     7
370
    25
100
AcDbLine
 10
223.4034590041
 20
167.6591549695
 30
0.0
 11
223.4034590041
 21
149.2591549695
 31
0.0
  0
SPLINE
  5
E0
330
1F
100
AcDbEntity
  8
0
  6
Continuous
 62
     7
370
    25
100
AcDbSpline
210
0.0
220
0.0
230
1.0
 70
     8
 71
     3
 72
    26
 73
    22
 74
     0
 42
0.00000001
 43
0.0000000001
 40
0.0
 40
0.0
 40
0.0
 40
0.0
 40
0.0254172709347888
 40
0.0810915998146402
 40
0.1367799686597498
 40
0.1924683464361513
 40
0.2481567241805444
 40
0.3038451018722789
 40
0.3595334794980209
 40
0.4152218570464449
 40
0.4709102345086107
 40
0.526598611878184
 40
0.5822869891516641
 40
0.6379753663284888
 40
0.6936637434110705
 40
0.7493521204046339
 40
0.805040497317192
 40
0.8607288741591856
 40
0.9164172509432424
 40
0.9721056276837304
 40
1.0
 40
1.0
 40
1.0
 40
1.0
 10
189.5184603714268
 20
202.5591549694871
 30
0.0
 10
189.9694893569801
 20
202.5536735783985
 30
0.0
 10
191.4084582413709
 20
202.5361856752433
 30
0.0
 10
193.8304533639671
 20
202.3254166142696
 30
0.0
 10
196.7550469039691
 20
201.8225692133589
 30
0.0
 10
199.6246681600226
 20
201.0628646387828
 30
0.0
 10
202.4169726755156
 20
200.0562212485211
 30
0.0
 10
205.1106482189842
 20
198.8092474811078
 30
0.0
 10
207.6850846070002
 20
197.3317711764363
 30
0.0
 10
210.1205975651251
 20
195.6350126814102
 30
0.0
 10
212.3985612935925
 20
193.7319684390119
 30
0.0
 10
214.5015563552487
 20
191.637185807154
 30
0.0
 10
216.4134990401049
 20
189.3666855965063
 30
0.0
 10
218.1197742909921
 20
186.9378302118865
 30
0.0
 10
219.6073115933568
 20
184.369194469526
 30
0.0
 10
220.8648184968848
 20
181.6804185300964
 30
0.0
 10
221.8823685714835
 20
178.892074200169
 30
0.0
 10
222.6533373473166
 20
176.0254466604964
 30
0.0
 10
223.1675112512167
 20
173.1025990183784
 30
0.0
 10
223.3922266564636
 20
170.6373408911144
 30
0.0
 10
223.4118950126442
 20
169.1541467124479
 30
0.0
 10
223.4184590040939
 20
168.6591549694872
 30
0.0
  0
SPLINE
  5
E1
330
1F
100
AcDbEntity
  8
0
  6
Continuous
 62
     7
370
    25
100
AcDbSpline
210
0.0
220
0.0
230
1.0
 70
     8
 71
     3
 72
    31
 73
    27
 74
     0
 42
0.00000001
 43
0.0000000001
 40
0.0
 40
0.0
 40
0.0
 40
0.0
 40
0.0254142334658493
 40
0.0686931399019219
 40
0.1119775059151194
 40
0.1552618740293025
 40
0.1985462421391496
 40
0.2418306102410513
 40
0.2851149783323613
 40
0.3283993464106219
 40
0.3716837144736322
 40
0.4149680825194583
 40
0.4582524505464824
 40
0.501536818553454
 40
0.5448211865394704
 40
0.5881055545040227
 40
0.631389922447008
 40
0.674674290368696
 40
0.7179586582697817
 40
0.7612430261513199
 40
0.8045273940147467
 40
0.8478117618617947
 40
0.8910961296945368
 40
0.9343804975152911
 40
0.9776648653265967
 40
1.0
 40
1.0
 40
1.0
 40
1.0
 10
245.6184590040939
 20
168.6591549694872
 30
0.0
 10
245.6095319315155
 20
169.4055614699794
 30
0.0
 10
245.5854025928767
 20
171.4230532125854
 30
0.0
 10
245.3328418546983
 20
174.7053864506206
 30
0.0
 10
244.796103222215
 20
178.4833347841775
 30
0.0
 10
244.0001442279074
 20
182.2161152909594
 30
0.0
 10
242.9534297258076
 20
185.8862294571716
 30
0.0
 10
241.6595200956777
 20
189.4767416629103
 30
0.0
 10
240.1247366011161
 20
192.9710535074103
 30
0.0
 10
238.3560798927724
 20
196.3530193581783
 30
0.0
 10
236.3617475698391
 20
199.6070105356394
 30
0.0
 10
234.1509489501757
 20
202.7179903264387
 30
0.0
 10
231.733901995441
 20
205.6715827238783
 30
0.0
 10
229.1217755146207
 20
208.454139047145
 30
0.0
 10
226.3266403859121
 20
211.0528010091161
 30
0.0
 10
223.3614130216565
 20
213.4555599614237
 30
0.0
 10
220.2397958675631
 20
215.6513130849048
 30
0.0
 10
216.9762140919168
 20
217.6299120780518
 30
0.0
 10
213.5857487043972
 20
219.3822198274628
 30
0.0
 10
210.0840677445754
 20
220.9001161502031
 30
0.0
 10
206.4873505869769
 20
222.176671465377
 30
0.0
 10
202.8122254658796
 20
223.2056707052565
 30
0.0
 10
199.0756467661035
 20
223.9835383305855
 30
0.0
 10
195.2949878632513
 20
224.5022777832406
 30
0.0
 10
192.1016136381168
 20
224.7317735891732
 30
0.0
 10
190.1744243769385
 20
224.7522017622815
 30
0.0
 10
189.5184603714268
 20
224.7591549694871
 30
0.0
  0
LINE
  5
E2
330
1F
100
AcDbEntity
  8
0
  6
Continuous
 62
     7
370
    25
100
AcDbLine
 10
245.6184590041
 20
167.7591549695
 30
0.0
 11
245.6184590041
 21
168.6591549695
 31
0.0
  0
LINE
  5
E3
330
1F
100
AcDbEntity
  8
0
  6
Continuous
 62
     7
370
    25
100
AcDbLine
 10
223.4184590041
 20
168.6591549695
 30
0.0
 11
223.4184590041
 21
167.7591549695
 31
0.0
  0
LINE
  5
E4
330
1F
100
AcDbEntity
  8
0
  6
Continuous
 62
     7
370
    25
100
AcDbLine
 10
189.5184603714
 20
224.7591549695
 30
0.0
 11
79.5184637138
 21
224.7591549695
 31
0.0
  0
LINE
  5
E5
330
1F
100
AcDbEntity
  8
0
  6
Continuous
 62
     7
370
    25
100
AcDbLine
 10
79.5184637138
 20
202.5591549695
 30
0.0
 11
189.5184603714
 21
202.5591549695
 31
0.0
  0
SPLINE
  5
E6
330
1F
100
AcDbEntity
  8
0
  6
Continuous
 62
     7
370
    25
100
AcDbSpline
210
0.0
220
0.0
230
1.0
 70
     8
 71
     3
 72
    26
 73
    22
 74
     0
 42
0.00000001
 43
0.0000000001
 40
0.0
 40
0.0
 40
0.0
 40
0.0
 40
0.0254172711044764
 40
0.0810915988768528
 40
0.1367799666190916
 40
0.1924683433304637
 40
0.2481567200801664
 40
0.3038450968779121
 40
0.3595334737376637
 40
0.4152218506714777
 40
0.4709102276891646
 40
0.5265986047979682
 40
0.5822869820023409
 40
0.6379753593038361
 40
0.6936637367010179
 40
0.7493521141895726
 40
0.8050404917623401
 40
0.8607288694096256
 40
0.9164172471194239
 40
0.9721056248779062
 40
1.0
 40
1.0
 40
1.0
 40
1.0
 10
45.6184650811289
 20
168.6591549694871
 30
0.0
 10
45.62394647220537
 20
169.1101839822031
 30
0.0
 10
45.64143437500315
 20
170.5491529270063
 30
0.0
 10
45.85220342840385
 20
172.9711481427237
 30
0.0
 10
46.35505080514483
 20
175.8957417799139
 30
0.0
 10
47.11475534134559
 20
178.7653631310095
 30
0.0
 10
48.12139867958606
 20
181.557667739651
 30
0.0
 10
49.3683723820698
 20
184.2513433746061
 30
0.0
 10
50.8458486100188
 20
186.825779852559
 30
0.0
 10
52.54260701791273
 20
189.2612928990095
 30
0.0
 10
54.44565116437047
 20
191.539256713913
 30
0.0
 10
56.54043369321743
 20
193.6422518595969
 30
0.0
 10
58.81093379558033
 20
195.5541946253051
 30
0.0
 10
61.2397890684091
 20
197.2604699528699
 30
0.0
 10
63.80842469713818
 20
198.7480073265371
 30
0.0
 10
66.4972005225869
 20
200.0055142946533
 30
0.0
 10
69.28554473945209
 20
201.0230644256683
 30
0.0
 10
72.15217216797594
 20
201.7940332484179
 30
0.0
 10
75.07501970160475
 20
202.3082071879427
 30
0.0
 10
77.54027778041155
 20
202.5329226174287
 30
0.0
 10
79.02347194754106
 20
202.5525909766595
 30
0.0
 10
79.51846371379609
 20
202.5591549694871
 30
0.0
  0
SPLINE
  5
E7
330
1F
100
AcDbEntity
  8
0
  6
Continuous
 62
     7
370
    25
100
AcDbSpline
210
0.0
220
0.0
230
1.0
 70
     8
 71
     3
 72
    31
 73
    27
 74
     0
 42
0.00000001
 43
0.0000000001
 40
0.0
 40
0.0
 40
0.0
 40
0.0
 40
0.0254142336485913
 40
0.0686931397685959
 40
0.1119775054632558
 40
0.1552618732624929
 40
0.1985462410667946
 40
0.2418306088781847
 40
0.2851149766993821
 40
0.3283993445329266
 40
0.37168371238113
 40
0.41496808024601
 40
0.4582524481293195
 40
0.50153681603243
 40
0.5448211839563666
 40
0.5881055519017722
 40
0.6313899198688843
 40
0.6746742878575465
 40
0.7179586558672029
 40
0.7612430238969079
 40
0.8045273919453437
 40
0.8478117600108596
 40
0.8910961280914653
 40
0.9343804961849235
 40
0.9776648642887268
 40
1.0
 40
1.0
 40
1.0
 40
1.0
 10
79.51846371379616
 20
224.7591549694871
 30
0.0
 10
78.77205722252722
 20
224.7502278964851
 30
0.0
 10
76.75456552327358
 20
224.7260985569219
 30
0.0
 10
73.47223236288835
 20
224.4735378110385
 30
0.0
 10
69.69428413162744
 20
223.9367991660928
 30
0.0
 10
65.9615037263703
 20
223.1408401544998
 30
0.0
 10
62.29138966012101
 20
222.0941256305333
 30
0.0
 10
58.70087755201339
 20
220.8002159739849
 30
0.0
 10
55.20656580206489
 20
219.2654324484883
 30
0.0
 10
51.8246000420618
 20
217.4967757046778
 30
0.0
 10
48.57060895092658
 20
215.5024433417041
 30
0.0
 10
45.45962924142892
 20
213.2916446773615
 30
0.0
 10
42.50603691975868
 20
210.8745976732341
 30
0.0
 10
39.72348066630728
 20
208.2624711382321
 30
0.0
 10
37.12481876786564
 20
205.4673359504924
 30
0.0
 10
34.72205987256158
 20
202.5021085223223
 30
0.0
 10
32.52630679941036
 20
199.3804912994364
 30
0.0
 10
30.54770784985754
 20
196.1169094501777
 30
0.0
 10
28.79540013732451
 20
192.7264439843456
 30
0.0
 10
27.27750384483575
 20
189.2247629417027
 30
0.0
 10
26.000948553437
 20
185.6280456970429
 30
0.0
 10
24.9719493310538
 20
181.9529204849923
 30
0.0
 10
24.19408171716898
 20
178.2163416908014
 30
0.0
 10
23.67534227017193
 20
174.4356826905792
 30
0.0
 10
23.44584646245153
 20
171.2423083562434
 30
0.0
 10
23.42541828872655
 20
169.3151190183075
 30
0.0
 10
23.41846508112891
 20
168.6591549694871
 30
0.0
  0
LINE
  5
E8
330
1F
100
AcDbEntity
  8
DIMENSION
100
AcDbLine
 10
45.6184650811
 20
2.759154969499999
 30
0.0
 11
45.6184650811
 21
168.6591549695
 31
0.0
  0
LINE
  5
E9
330
1F
100
AcDbEntity
  8
DIMENSION
100
AcDbLine
 10
23.4184650811
 20
168.6591549695
 30
0.0
 11
23.4184650811
 21
2.759154969499999
 31
0.0
  0
LINE
  5
EA
330
1F
100
AcDbEntity
  8
DIMENSION
100
AcDbLine
 10
45.64346508109999
 20
-13.6836372799
 30
0.0
 11
45.64346508109999
 21
2.759154969499999
 31
0.0
  0
LINE
  5
EB
330
1F
100
AcDbEntity
  8
DIMENSION
100
AcDbLine
 10
23.3934650811
 20
2.759154969499999
 30
0.0
 11
23.3934650811
 21
-13.6836372799
 31
0.0
  0
LINE
  5
EC
330
1F
100
AcDbEntity
  8
DIMENSION
100
AcDbLine
 10
7.5184650811
 20
-100.8740946112
 30
0.0
 11
61.5184650811
 21
-100.8740946112
 31
0.0
  0
LINE
  5
ED
330
1F
100
AcDbEntity
  8
DIMENSION
100
AcDbLine
 10
7.5184650811
 20
-96.87409461120001
 30
0.0
 11
61.5184650811
 21
-96.87409461120001
 31
0.0
  0
LINE
  5
EE
330
1F
100
AcDbEntity
  8
0
  6
Continuous
 62
     7
370
    25
100
AcDbLine
 10
245.6334590041
 20
149.2591549695
 30
0.0
 11
223.4034590041
 21
149.2591549695
 31
0.0
  0
LINE
  5
EF
330
1F
100
AcDbEntity
  8
0
  6
Continuous
 62
     7
370
    25
100
AcDbLine
 10
245.6334590041
 20
167.6591549695
 30
0.0
 11
223.4034590041
 21
167.6591549695
 31
0.0
  0
LINE
  5
F0
330
1F
100
AcDbEntity
  8
0
  6
Continuous
 62
     7
370
    25
100
AcDbLine
 10
223.4184590041
 20
167.7591549695
 30
0.0
 11
245.6184590041
 21
167.7591549695
 31
0.0
  0
CIRCLE
  5
F1
330
1F
100
AcDbEntity
  8
DIMENSION
100
AcDbCircle
 10
34.5184650811
 20
-33.24084503050001
 30
0.0
 40
22.50000000000001
  0
LINE
  5
F2
330
1F
100
AcDbEntity
  8
DIMENSION
100
AcDbLine
 10
45.64346508109999
 20
2.759154969499999
 30
0.0
 11
23.3934650811
 21
2.759154969499999
 31
0.0
  0
SPLINE
  5
F3
330
1F
100
AcDbEntity
  8
DIMENSION
100
AcDbSpline
210
0.0
220
0.0
230
1.0
 70
     8
 71
     3
 72
    22
 73
    18
 74
     0
 42
0.00000001
 43
0.0000000001
 40
0.0
 40
0.0
 40
0.0
 40
0.0
 40
0.0114828834956524
 40
0.091767364264916
 40
0.1730110920836069
 40
0.2599274771741982
 40
0.3523206039151387
 40
0.4354296807099045
 40
0.5296405019093252
 40
0.5711575519534683
 40
0.6193526197128056
 40
0.6979397817939472
 40
0.7453505547124033
 40
0.8212167571242636
 40
0.8873240575752079
 40
0.9498280416503785
 40
1.0
 40
1.0
 40
1.0
 40
1.0
 10
23.39893602882982
 20
-13.68018236870437
 30
0.0
 10
23.39718133578546
 20
-13.68116521756127
 30
0.0
 10
23.38315841585978
 20
-13.68901981689621
 30
0.0
 10
23.44311710961885
 20
-13.65487903078498
 30
0.0
 10
23.58890549167542
 20
-13.57354986079934
 30
0.0
 10
23.84947964928811
 20
-13.42970507293291
 30
0.0
 10
24.21024382051494
 20
-13.23953199049221
 30
0.0
 10
24.67703147968704
 20
-13.00416684212355
 30
0.0
 10
25.12977409558152
 20
-12.79120243786695
 30
0.0
 10
25.55440530093497
 20
-12.60256157267131
 30
0.0
 10
25.96906556349607
 20
-12.42611209266879
 30
0.0
 10
26.43540279140774
 20
-12.24084236797412
 30
0.0
 10
27.01529574020868
 20
-12.02537287734286
 30
0.0
 10
27.59516640723792
 20
-11.82851167402263
 30
0.0
 10
28.2630414098973
 20
-11.62472976404277
 30
0.0
 10
28.87515114768286
 20
-11.45606077988574
 30
0.0
 10
29.28191774729415
 20
-11.36021753028735
 30
0.0
 10
29.46304138783823
 20
-11.31754077584041
 30
0.0
  0
SPLINE
  5
F4
330
1F
100
AcDbEntity
  8
DIMENSION
100
AcDbSpline
210
0.0
220
0.0
230
1.0
 70
     8
 71
     3
 72
    13
 73
     9
 74
     0
 42
0.00000001
 43
0.0000000001
 40
0.0
 40
0.0
 40
0.0
 40
0.0
 40
0.1281303341505607
 40
0.2913488960518753
 40
0.4551082604790981
 40
0.6195518401482353
 40
0.8730376659111298
 40
1.0
 40
1.0
 40
1.0
 40
1.0
 10
34.3480354787342
 20
-10.76019447962245
 30
0.0
 10
34.52736543549073
 20
-10.75274467016264
 30
0.0
 10
34.93513448781095
 20
-10.73580493628694
 30
0.0
 10
35.57300236053527
 20
-10.76491896862429
 30
0.0
 10
36.25634015292272
 20
-10.80404669304033
 30
0.0
 10
37.05430739236638
 20
-10.87967776199276
 30
0.0
 10
37.7923691539815
 20
-10.97139205140249
 30
0.0
 10
38.28163722273331
 20
-11.0620158409588
 30
0.0
 10
38.44491470061121
 20
-11.09225861529772
 30
0.0
  0
SPLINE
  5
F5
330
1F
100
AcDbEntity
  8
DIMENSION
100
AcDbSpline
210
0.0
220
0.0
230
1.0
 70
     8
 71
     3
 72
    29
 73
    25
 74
     0
 42
0.00000001
 43
0.0000000001
 40
0.0
 40
0.0
 40
0.0
 40
0.0
 40
0.0241098723593276
 40
0.0623207060462999
 40
0.0840664420059946
 40
0.0930671537281979
 40
0.0969176109028447
 40
0.0985905436889164
 40
0.0993225165427412
 40
0.0996437874353771
 40
0.0997849922972858
 40
0.0998470925580662
 40
0.0998744108883388
 40
0.0998864298337851
 40
0.0998958728108171
 40
0.1656022519715495
 40
0.2283038642416952
 40
0.28800574731903
 40
0.3447137482799267
 40
0.3984347017715738
 40
0.4917796881819302
 40
0.5818286766088915
 40
0.6686384163051655
 40
1.0
 40
1.0
 40
1.0
 40
1.0
 10
43.37869855894741
 20
-12.5591911547822
 30
0.0
 10
43.41331201324485
 20
-12.57401782232047
 30
0.0
 10
43.50278303483996
 20
-12.61234271991958
 30
0.0
 10
43.61799088962283
 20
-12.66289800410268
 30
0.0
 10
43.71062592185903
 20
-12.70415875276916
 30
0.0
 10
43.75639064719553
 20
-12.72473077892748
 30
0.0
 10
43.7754930074397
 20
-12.73334510691011
 30
0.0
 10
43.78369875997054
 20
-12.73705067647406
 30
0.0
 10
43.78727095193793
 20
-12.7386647539338
 30
0.0
 10
43.78883530306761
 20
-12.73937177843222
 30
0.0
 10
43.78952218391503
 20
-12.73968225577468
 30
0.0
 10
43.78982413401079
 20
-12.7398187470486
 30
0.0
 10
43.78995693834375
 20
-12.73987878021901
 30
0.0
 10
43.79002080138749
 20
-12.73990764928581
 30
0.0
 10
43.87607074169042
 20
-12.77880642661638
 30
0.0
 10
44.03905248477555
 20
-12.85365397598384
 30
0.0
 10
44.2625455606766
 20
-12.95946557564741
 30
0.0
 10
44.46114351399359
 20
-13.05620099316744
 30
0.0
 10
44.63664559716685
 20
-13.14388222560452
 30
0.0
 10
44.83153383479209
 20
-13.24319662663158
 30
0.0
 10
45.03446204998922
 20
-13.34888764630585
 30
0.0
 10
45.22883265180633
 20
-13.45297249700057
 30
0.0
 10
45.53552645332454
 20
-13.62143851744108
 30
0.0
 10
45.59574640952298
 20
-13.65613978081681
 30
0.0
 10
45.643465081129
 20
-13.68363727991632
 30
0.0
  0
LINE
  5
F6
330
1F
100
AcDbEntity
  8
DIMENSION
100
AcDbLine
 10
56.9781788883
 20
-31.8950160297
 30
0.0
 11
56.9943346298
 21
-31.8947741159
 31
0.0
  0
ARC
  5
F7
330
1F
100
AcDbEntity
  8
DIMENSION
100
AcDbCircle
 10
34.53090259790001
 20
-33.1770460636
 30
0.0
 40
22.49999999999999
100
AcDbArc
 50
119.6695672169
 51
169.0513904602
  0
ARC
  5
F8
330
1F
100
AcDbEntity
  8
DIMENSION
100
AcDbCircle
 10
34.53090259790001
 20
-33.1770460636
 30
0.0
 40
22.5
100
AcDbArc
 50
3.267048809899999
 51
60.40330794209999
  0
LINE
  5
F9
330
1F
100
AcDbEntity
  8
DIMENSION
100
AcDbLine
 10
57.0184650811
 20
-51.8740946112
 30
0.0
 11
47.1300474586
 21
-51.8740946112
 31
0.0
  0
LINE
  5
FA
330
1F
100
AcDbEntity
  8
DIMENSION
100
AcDbLine
 10
21.9068827037
 20
-51.8740946112
 30
0.0
 11
12.0184650811
 21
-51.8740946112
 31
0.0
  0
LINE
  5
FB
330
1F
100
AcDbEntity
  8
0
  6
Continuous
 62
     8
370
    25
100
AcDbLine
 10
234.5157226717
 20
168.6591549695
 30
0.0
 11
223.4184593828
 21
168.6591549695
 31
0.0
  0
LINE
  5
FC
330
1F
100
AcDbEntity
  8
0
  6
Continuous
 62
     8
370
    25
100
AcDbLine
 10
245.618458717
 20
168.6591549695
 30
0.0
 11
234.5157226717
 21
168.6591549695
 31
0.0
  0
LWPOLYLINE
  5
FD
330
1F
100
AcDbEntity
  8
0
  6
Continuous
 62
     8
370
    25
100
AcDbPolyline
 90
       22
 70
   128
 43
0.0
 10
189.518459751
 20
224.7591546841
 10
189.5183501904
 20
224.7501528492
 10
189.5179130346
 20
224.5348312072
 10
189.5174900546
 20
224.0378352633
 10
189.5170922052
 20
223.2720369515
 10
189.5167297907
 20
222.2572700458
 10
189.5164121972
 20
221.019816476
 10
189.5161476504
 20
219.5917256395
 10
189.5159430018999
 20
218.0099843389
 10
189.5158035518999
 20
216.3155588431
 10
189.5157329121
 20
214.5523338822
 10
189.5157329121
 20
212.7659760567
 10
189.5158035518999
 20
211.0027510959
 10
189.5159430018999
 20
209.3083256
 10
189.5161476504
 20
207.7265842995
 10
189.5164121972
 20
206.298493463
 10
189.5167297907
 20
205.0610398932
 10
189.5170922052
 20
204.0462729875
 10
189.5174900546
 20
203.2804746757
 10
189.5179130346
 20
202.7834787318
 10
189.5183501904
 20
202.5681570898
 10
189.5184608372
 20
202.5591551303
  0
LWPOLYLINE
  5
FE
330
1F
100
AcDbEntity
  8
0
  6
Continuous
 62
     8
370
    25
100
AcDbPolyline
 90
       22
 70
   128
 43
0.0
 10
79.5184637138
 20
224.7591549695
 10
79.51835353279999
 20
224.7501528492
 10
79.51791637699999
 20
224.5348312072
 10
79.517493397
 20
224.0378352633
 10
79.5170955476
 20
223.2720369515
 10
79.516733133
 20
222.2572700458
 10
79.5164155396
 20
221.019816476
 10
79.51615099279999
 20
219.5917256395
 10
79.51594634430001
 20
218.0099843389
 10
79.5158068943
 20
216.3155588431
 10
79.5157362545
 20
214.5523338822
 10
79.5157362545
 20
212.7659760567
 10
79.5158068943
 20
211.0027510959
 10
79.51594634430001
 20
209.3083256
 10
79.51615099279999
 20
207.7265842995
 10
79.5164155396
 20
206.298493463
 10
79.516733133
 20
205.0610398932
 10
79.5170955476
 20
204.0462729875
 10
79.517493397
 20
203.2804746757
 10
79.51791637699999
 20
202.7834787318
 10
79.51835353279999
 20
202.5681570898
 10
79.5184637138
 20
202.5591549695
  0
LINE
  5
FF
330
1F
100
AcDbEntity
  8
0
  6
Continuous
 62
     8
370
    25
100
AcDbLine
 10
23.4184653646
 20
168.6591549695
 30
0.0
 11
45.61846491879999
 21
168.6591549695
 31
0.0
  0
POINT
  5
100
330
1F
100
AcDbEntity
  8
0
  6
Continuous
 62
     7
370
     0
100
AcDbPoint
 10
234.3303595828
 20
149.2591549695
 30
0.0
  0
POINT
  5
101
330
1F
100
AcDbEntity
  8
DIMENSION
100
AcDbPoint
 10
34.5184650811
 20
-100.8740946112
 30
0.0
  0
DIMENSION
  5
102
102
{ACAD_XDICTIONARY
360
207
102
}
330
1F
100
AcDbEntity
  8
DIMENSION
100
AcDbDimension
280
     0
  2
*D18
 10
34.5184650811
 20
-128.8740946112
 30
0.0
 11
129.6948355097
 21
-128.8740946112
 31
0.0
 70
   160
  1
<>
 71
     2
 42
199.8118945016999
 73
     0
 74
     0
 75
     0
  3
RG Dimension Lines
100
AcDbAlignedDimension
 13
234.3303595828
 23
149.2591549695
 33
0.0
 14
34.5184650811
 24
-100.8740946112
 34
0.0
100
AcDbRotatedDimension
1001
AcadAnnotative
1000
AnnotativeData
1002
{
1070
     1
1070
     1
1002
}
  0
DIMENSION
  5
10A
102
{ACAD_XDICTIONARY
360
1F9
102
}
330
1F
100
AcDbEntity
  8
DIMENSION
100
AcDbDimension
280
     0
  2
*D17
 10
-26.48153491889999
 20
-100.8740946112
 30
0.0
 11
-26.4815349189
 21
57.4026897202
 31
0.0
 70
   160
  1
<>
 71
     2
 42
325.6332495807001
 73
     0
 74
     0
 75
     0
  3
RG Dimension Lines
100
AcDbAlignedDimension
 13
79.5184637138
 23
224.7591549695
 33
0.0
 14
7.5184650811
 24
-100.8740946112
 34
0.0
 50
90.0
100
AcDbRotatedDimension
1001
AcadAnnotative
1000
AnnotativeData
1002
{
1070
     1
1070
     1
1002
}
1001
ACAD
1000
DSTYLE
1002
{
1070
    45
1040
5.0
1002
}
  0
DIMENSION
  5
112
102
{ACAD_XDICTIONARY
360
1EB
102
}
330
1F
100
AcDbEntity
  8
DIMENSION
100
AcDbDimension
280
     0
  2
*D16
 10
273.6334590041
 20
149.2591549695
 30
0.0
 11
273.6334590041
 21
20.02598193
 31
0.0
 70
   160
  1
<>
 71
     2
 42
250.1332495807
 73
     0
 74
     0
 75
     0
  3
RG Dimension Lines
100
AcDbAlignedDimension
 13
61.5184650811
 23
-100.8740946112
 33
0.0
 14
245.6334590041
 24
149.2591549695
 34
0.0
 50
90.0
100
AcDbRotatedDimension
1001
AcadAnnotative
1000
AnnotativeData
1002
{
1070
     1
1070
     1
1002
}
  0
LWPOLYLINE
  5
11A
330
1F
100
AcDbEntity
  8
DIMENSION
100
AcDbPolyline
 90
        3
 70
   128
 43
0.0
 10
12.0184650811
 20
350.7662892318
 10
12.0154580434
 20
350.3950554236
 10
12.0184650811
 20
350.0305257425
  0
LINE
  5
11B
330
1F
100
AcDbEntity
  8
0
  6
Continuous
 62
     7
370
    25
100
AcDbLine
 10
189.5211967038
 20
361.4601971031
 30
0.0
 11
79.52120004619999
 21
361.4873139105
 31
0.0
  0
LINE
  5
11C
330
1F
100
AcDbEntity
  8
0
  6
Continuous
 62
     7
370
    25
100
AcDbLine
 10
79.5157273814
 20
339.2873145851
 30
0.0
 11
189.515724039
 21
339.2601977777
 31
0.0
  0
LINE
  5
11D
330
1F
100
AcDbEntity
  8
0
  6
Continuous
 62
     7
370
    25
100
AcDbLine
 10
189.515724039
 20
339.2601977777
 30
0.0
 11
234.5157226717
 21
339.2491045383
 31
0.0
  0
LINE
  5
11E
330
1F
100
AcDbEntity
  8
0
  6
Continuous
 62
     7
370
    25
100
AcDbLine
 10
234.5211953365
 20
361.4491038638
 30
0.0
 11
189.5211967038
 21
361.4601971031
 31
0.0
  0
LINE
  5
11F
330
1F
100
AcDbEntity
  8
DIMENSION
100
AcDbLine
 10
34.5157287487
 20
339.2984078245
 30
0.0
 11
79.5157273814
 21
339.2873145851
 31
0.0
  0
LINE
  5
120
330
1F
100
AcDbEntity
  8
DIMENSION
100
AcDbLine
 10
79.52120004619999
 20
361.4873139105
 30
0.0
 11
34.5212014135
 21
361.4984071499
 31
0.0
  0
LINE
  5
121
330
1F
100
AcDbEntity
  8
0
  6
Continuous
 62
     7
370
    25
100
AcDbLine
 10
57.0184650811
 20
305.4984074872
 30
0.0
 11
57.0184650811
 21
339.2928605301
 31
0.0
  0
LINE
  5
122
330
1F
100
AcDbEntity
  8
0
  6
Continuous
 62
     7
370
    25
100
AcDbLine
 10
57.0184650811
 20
361.4928612046
 30
0.0
 11
57.0184650811
 21
396.3984074872
 31
0.0
  0
LINE
  5
123
330
1F
100
AcDbEntity
  8
DIMENSION
100
AcDbLine
 10
12.0184650811
 20
396.3984074872
 30
0.0
 11
12.0184650811
 21
305.4984074872
 31
0.0
  0
LINE
  5
124
330
1F
100
AcDbEntity
  8
DIMENSION
100
AcDbLine
 10
12.0309025979
 20
425.3984074872
 30
0.0
 11
12.0309025979
 21
398.7311902252
 31
0.0
  0
LINE
  5
125
330
1F
100
AcDbEntity
  8
0
  6
Continuous
 62
     7
370
    25
100
AcDbLine
 10
57.0309025979
 20
398.9891321733
 30
0.0
 11
57.0309025979
 21
425.3984074872
 31
0.0
  0
ARC
  5
126
330
1F
100
AcDbEntity
  8
0
  6
Continuous
 62
     7
370
    25
100
AcDbCircle
 10
56.9309025979
 20
425.3984074872
 30
0.0
 40
0.1000000000000227
100
AcDbArc
 50
0.0
 51
90.0
  0
ARC
  5
127
330
1F
100
AcDbEntity
  8
DIMENSION
100
AcDbCircle
 10
12.1309025979
 20
425.3984074872
 30
0.0
 40
0.1000000000000032
100
AcDbArc
 50
90.0
 51
180.0
  0
LWPOLYLINE
  5
128
330
1F
100
AcDbEntity
  8
0
  6
Continuous
 62
     7
370
    25
100
AcDbPolyline
 90
        3
 70
   128
 43
0.0
 10
55.0087938647
 20
396.3984074872
 10
54.89208988369999
 20
397.7469670039
 10
54.7868532318
 20
398.4984074872
  0
LWPOLYLINE
  5
129
330
1F
100
AcDbEntity
  8
DIMENSION
100
AcDbPolyline
 90
        3
 70
   128
 43
0.0
 10
14.2500769305
 20
398.4984074872
 10
14.1448402785
 20
397.7469670039
 10
14.0281362975
 20
396.3984074872
  0
LINE
  5
12A
330
1F
100
AcDbEntity
  8
DIMENSION
100
AcDbLine
 10
33.5951411015
 20
411.0984074872
 30
0.0
 11
34.1940284592
 21
411.0984074872
 31
0.0
  0
LINE
  5
12B
330
1F
100
AcDbEntity
  8
DIMENSION
100
AcDbLine
 10
34.1940284592
 20
419.0984074872
 30
0.0
 11
33.5951411015
 21
419.0984074872
 31
0.0
  0
ARC
  5
12C
330
1F
100
AcDbEntity
  8
DIMENSION
100
AcDbCircle
 10
34.5184650811
 20
350.3984074872
 30
0.0
 40
27.00000000000001
100
AcDbArc
 50
146.4426902381
 51
213.5573097619
  0
LWPOLYLINE
  5
12D
330
1F
100
AcDbEntity
  8
0
  6
Continuous
 62
     7
370
    25
100
AcDbPolyline
 90
        3
 70
   128
 43
0.0
 10
57.0184650811
 20
335.4735959306
 10
57.9011509833
 20
336.8984074872
 10
59.128529548
 20
339.2923403645
  0
LWPOLYLINE
  5
12E
330
1F
100
AcDbEntity
  8
0
  6
Continuous
 62
     7
370
    25
100
AcDbPolyline
 90
        3
 70
   128
 43
0.0
 10
59.13400221279999
 20
361.4923396899
 10
57.9011509833
 20
363.8984074872
 10
57.0184650811
 20
365.3232190438
  0
ARC
  5
12F
330
1F
100
AcDbEntity
  8
0
  6
Continuous
 62
     7
370
    25
100
AcDbCircle
 10
234.5184590041
 20
350.349104201
 30
0.0
 40
11.11500000000005
100
AcDbArc
 50
267.0088856243999
 51
92.96286567320001
  0
ARC
  5
130
330
1F
100
AcDbEntity
  8
0
  6
Continuous
 62
     7
370
    25
100
AcDbCircle
 10
234.5184590041
 20
350.349104201
 30
0.0
 40
11.10000000000005
100
AcDbArc
 50
269.9858756488
 51
89.98587564879999
  0
ARC
  5
131
330
1F
100
AcDbEntity
  8
DIMENSION
100
AcDbCircle
 10
34.5184650811
 20
350.3984074872
 30
0.0
 40
11.09999999999999
100
AcDbArc
 50
89.98587564879999
 51
269.9858756488
  0
LINE
  5
132
330
1F
100
AcDbEntity
  8
DIMENSION
100
AcDbLine
 10
34.5184650811
 20
396.3984074872
 30
0.0
 11
12.0184650811
 21
396.3984074872
 31
0.0
  0
LINE
  5
133
330
1F
100
AcDbEntity
  8
DIMENSION
100
AcDbLine
 10
57.0184650811
 20
396.3984074872
 30
0.0
 11
34.5184650811
 21
396.3984074872
 31
0.0
  0
LINE
  5
134
330
1F
100
AcDbEntity
  8
0
  6
Continuous
 62
     7
370
    25
100
AcDbLine
 10
34.5184650811
 20
305.4984074872
 30
0.0
 11
12.0184650811
 21
305.4984074872
 31
0.0
  0
LINE
  5
135
330
1F
100
AcDbEntity
  8
0
  6
Continuous
 62
     7
370
    25
100
AcDbLine
 10
57.0184650811
 20
305.4984074872
 30
0.0
 11
34.5184650811
 21
305.4984074872
 31
0.0
  0
ARC
  5
136
330
1F
100
AcDbEntity
  8
DIMENSION
100
AcDbCircle
 10
34.5184650811
 20
350.3984074872
 30
0.0
 40
11.12500000000008
100
AcDbArc
 50
86.1440381893
 51
273.8277131093
  0
LINE
  5
137
330
1F
100
AcDbEntity
  8
0
  6
Continuous
 62
     7
370
    25
100
AcDbLine
 10
56.9943346298
 20
398.4984074872
 30
0.0
 11
56.9475658139
 21
398.9891321733
 31
0.0
  0
LINE
  5
138
330
1F
100
AcDbEntity
  8
DIMENSION
100
AcDbLine
 10
12.079493493
 20
398.7311902252
 30
0.0
 11
12.0391491355
 21
398.4984074872
 31
0.0
  0
LINE
  5
139
330
1F
100
AcDbEntity
  8
DIMENSION
100
AcDbLine
 10
12.0391491355
 20
398.4984074872
 30
0.0
 11
56.9943346298
 21
398.4984074872
 31
0.0
  0
SPLINE
  5
13A
330
1F
100
AcDbEntity
  8
DIMENSION
100
AcDbSpline
210
0.0
220
0.0
230
1.0
 70
     8
 71
     3
 72
    30
 73
    26
 74
     0
 42
0.00000001
 43
0.0000000001
 40
0.0
 40
0.0
 40
0.0
 40
0.0
 40
0.0556684865457342
 40
0.10274329223167
 40
0.1397533131009823
 40
0.1471720482681504
 40
0.1481030588888495
 40
0.1482194922082095
 40
0.1482340472629677
 40
0.1482364511619316
 40
0.1589712580949937
 40
0.2313705853810397
 40
0.3077718801874988
 40
0.319603719761856
 40
0.3721475844734858
 40
0.4306645183891801
 40
0.5130482497045112
 40
0.5994705770636659
 40
0.6702401595420488
 40
0.7444866169101676
 40
0.7540719599511715
 40
0.8017211540227922
 40
0.8913408326937283
 40
0.9632332963425444
 40
1.0
 40
1.0
 40
1.0
 40
1.0
 10
33.47901557233328
 20
411.1092216906163
 30
0.0
 10
33.75054879870574
 20
411.0562017061297
 30
0.0
 10
34.2516980010444
 20
410.9583465622548
 30
0.0
 10
34.94387375051681
 20
411.0546461021938
 30
0.0
 10
35.38112272396514
 20
411.1685136909613
 30
0.0
 10
35.59200322593817
 20
411.2437270267217
 30
0.0
 10
35.63113844715181
 20
411.2583225409277
 30
0.0
 10
35.63604405526233
 20
411.2601628502576
 30
0.0
 10
35.63666016801611
 20
411.2603941455468
 30
0.0
 10
35.68631988787513
 20
411.2790386708173
 30
0.0
 10
36.06741483909788
 20
411.4305606750778
 30
0.0
 10
36.75493465680896
 20
411.8315231044812
 30
0.0
 10
37.31514634222798
 20
412.4052180962548
 30
0.0
 10
37.71497263881296
 20
412.9713136865619
 30
0.0
 10
38.00674999591521
 20
413.5065556672212
 30
0.0
 10
38.28920782005822
 20
414.425073432832
 30
0.0
 10
38.33797938032661
 20
415.5647187971148
 30
0.0
 10
38.0224080210861
 20
416.7254064723935
 30
0.0
 10
37.42113660817464
 20
417.7068337788078
 30
0.0
 10
36.86156983257565
 20
418.2382406552853
 30
0.0
 10
36.33032137707319
 20
418.6083126933506
 30
0.0
 10
35.69387071083249
 20
418.9628999498465
 30
0.0
 10
34.67991796523126
 20
419.21767012224
 30
0.0
 10
33.67818195210166
 20
419.2222415157831
 30
0.0
 10
33.1722344506014
 20
419.0407594938164
 30
0.0
 10
33.00103838574055
 20
418.9793519210709
 30
0.0
  0
LWPOLYLINE
  5
13B
330
1F
100
AcDbEntity
  8
DIMENSION
100
AcDbPolyline
 90
        3
 70
   128
 43
0.0
 10
34.2090006431
 20
410.9984074872
 10
33.92923811030001
 20
411.0079655335
 10
33.2424587327
 20
411.1139894277999
  0
LWPOLYLINE
  5
13C
330
1F
100
AcDbEntity
  8
DIMENSION
100
AcDbPolyline
 90
        3
 70
   128
 43
0.0
 10
33.2424587359
 20
419.0828255473
 10
33.92923811030001
 20
419.1888494408999
 10
34.2090006431
 20
419.1984074872
  0
LINE
  5
13D
330
1F
100
AcDbEntity
  8
DIMENSION
100
AcDbLine
 10
12.1309025979
 20
425.4984074872
 30
0.0
 11
56.9309025979
 21
425.4984074872
 31
0.0
  0
CIRCLE
  5
13E
330
1F
100
AcDbEntity
  8
DIMENSION
100
AcDbCircle
 10
33.594828506
 20
415.0984805285999
 30
0.0
 40
3.999864904762858
  0
ARC
  5
13F
330
1F
100
AcDbEntity
  8
DIMENSION
100
AcDbCircle
 10
34.1938177718
 20
415.0981677322
 30
0.0
 40
3.999760250534634
100
AcDbArc
 50
270.0030180553
 51
359.4984809394
  0
ARC
  5
140
330
1F
100
AcDbEntity
  8
DIMENSION
100
AcDbCircle
 10
34.193810294
 20
415.0986356419999
 30
0.0
 40
3.999771851089224
100
AcDbArc
 50
359.4917794362
 51
89.99687483509999
  0
LINE
  5
141
330
1F
100
AcDbEntity
  8
0
  6
Continuous
 62
     8
370
    25
100
AcDbLine
 10
189.5211967038
 20
361.4601971031
 30
0.0
 11
189.515724039
 21
339.2601977777
 31
0.0
  0
LINE
  5
142
330
1F
100
AcDbEntity
  8
0
  6
Continuous
 62
     8
370
    25
100
AcDbLine
 10
79.52120004619999
 20
361.4873139105
 30
0.0
 11
79.5157273814
 21
339.2873145851
 31
0.0
  0
LINE
  5
143
330
1F
100
AcDbEntity
  8
DIMENSION
100
AcDbLine
 10
57.0309025979
 20
425.3984074872
 30
0.0
 11
12.0309025979
 21
425.3984074872
 31
0.0
  0
DIMENSION
  5
144
102
{ACAD_XDICTIONARY
360
269
102
}
330
1F
100
AcDbEntity
  8
DIMENSION
100
AcDbDimension
280
     0
  2
*D25
 10
-26.4815349189001
 20
305.4984074872002
 30
0.0
 11
-26.4815349189
 21
367.2942765992
 31
0.0
 70
   160
  1
<>
 71
     2
 42
119.9
 73
     0
 74
     0
 75
     0
  3
RG Dimension Lines
100
AcDbAlignedDimension
 13
12.0309025979
 23
425.3984074872
 33
0.0
 14
12.0184650811
 24
305.4984074872
 34
0.0
 50
90.0
100
AcDbRotatedDimension
1001
AcadAnnotative
1000
AnnotativeData
1002
{
1070
     1
1070
     1
1002
}
  0
DIMENSION
  5
14D
102
{ACAD_XDICTIONARY
360
25B
102
}
330
1F
100
AcDbEntity
  8
DIMENSION
100
AcDbDimension
280
     0
  2
*D24
 10
12.0309025979
 20
448.3370878527
 30
0.0
 11
32.3683380716
 21
448.3370878527
 31
0.0
 70
   160
  1
%%c<>
 71
     2
 42
45.0
 73
     0
 74
     0
 75
     0
  3
RG Dimension Lines
100
AcDbAlignedDimension
 13
57.0309025979
 23
425.3984074872
 33
0.0
 14
12.0309025979
 24
425.3984074872
 34
0.0
100
AcDbRotatedDimension
1001
AcadAnnotative
1000
AnnotativeData
1002
{
1070
     1
1070
     1
1002
}
  0
DIMENSION
  5
1C5
102
{ACAD_XDICTIONARY
360
24D
102
}
330
1F
100
AcDbEntity
  8
DIMENSION
100
AcDbDimension
280
     0
  2
*D23
 10
-4.330153626237925
 20
425.4984074872003
 30
0.0
 11
-14.99682029290447
 21
387.9484074872001
 31
0.0
 70
    32
 71
     5
 42
75.10000000000008
 73
     0
 74
     0
 75
     0
  3
RG Dimension Lines
100
AcDbAlignedDimension
 13
34.5184650811
 23
350.3984074872
 33
0.0
 14
34.5184650811
 24
425.4984074872
 34
0.0
 50
90.0
100
AcDbRotatedDimension
1001
AcadAnnotative
1000
AnnotativeData
1002
{
1070
     1
1070
     1
1002
}
  0
DIMENSION
  5
1D3
102
{ACAD_XDICTIONARY
360
215
102
}
330
1F
100
AcDbEntity
  8
DIMENSION
100
AcDbDimension
280
     0
  2
*D19
 10
597.0453411227313
 20
-33.17704606359999
 30
0.0
 11
607.7120077893978
 21
-67.02557033740018
 31
0.0
 70
    32
 71
     5
 42
67.69704854760002
 73
     0
 74
     0
 75
     0
  3
RG Dimension Lines
100
AcDbAlignedDimension
 13
474.7843742102999
 23
-100.8740946112
 33
0.0
 14
549.8843742102999
 24
-33.17704606359999
 34
0.0
 50
90.0
100
AcDbRotatedDimension
1001
AcadAnnotative
1000
AnnotativeData
1002
{
1070
     1
1070
     1
1002
}
  0
ENDSEC
  0
SECTION
  2
OBJECTS
  0
DICTIONARY
  5
C
330
0
100
AcDbDictionary
281
     1
  3
ACAD_CIP_PREVIOUS_PRODUCT_INFO
350
196
  3
ACAD_COLOR
350
18B
  3
ACAD_DETAILVIEWSTYLE
350
192
  3
ACAD_GROUP
350
D
  3
ACAD_LAYOUT
350
1A
  3
ACAD_MATERIAL
350
159
  3
ACAD_MLEADERSTYLE
350
18E
  3
ACAD_MLINESTYLE
350
17
  3
ACAD_PLOTSETTINGS
350
19
  3
ACAD_PLOTSTYLENAME
350
E
  3
ACAD_SCALELIST
350
47
  3
ACAD_SECTIONVIEWSTYLE
350
190
  3
ACAD_TABLESTYLE
350
18C
  3
ACAD_VISUALSTYLE
350
172
  3
ACDB_RECOMPOSE_DATA
350
290
  3
AcDbVariableDictionary
350
284
  0
DICTIONARY
  5
1AA
330
2
100
AcDbDictionary
280
     1
281
     1
  3
ACAD_LAYERSTATES
360
1AB
  0
DICTIONARY
  5
274
330
10
100
AcDbDictionary
280
     1
281
     1
  3
ADSK_XREC_LAYER_RECONCILED
360
275
  0
DICTIONARY
  5
276
330
73
100
AcDbDictionary
280
     1
281
     1
  3
ADSK_XREC_LAYER_RECONCILED
360
277
  0
DICTIONARY
  5
278
330
1A2
100
AcDbDictionary
280
     1
281
     1
  3
ADSK_XREC_LAYER_RECONCILED
360
279
  0
DICTIONARY
  5
23F
330
B1
100
AcDbDictionary
280
     1
281
     1
  3
AcDbContextDataManager
360
240
  0
DICTIONARY
  5
231
330
BE
100
AcDbDictionary
280
     1
281
     1
  3
AcDbContextDataManager
360
232
  0
DICTIONARY
  5
223
330
CF
100
AcDbDictionary
280
     1
281
     1
  3
AcDbContextDataManager
360
224
  0
DICTIONARY
  5
207
330
102
100
AcDbDictionary
280
     1
281
     1
  3
AcDbContextDataManager
360
208
  0
DICTIONARY
  5
1F9
330
10A
100
AcDbDictionary
280
     1
281
     1
  3
AcDbContextDataManager
360
1FA
  0
DICTIONARY
  5
1EB
330
112
100
AcDbDictionary
280
     1
281
     1
  3
AcDbContextDataManager
360
1EC
  0
DICTIONARY
  5
269
330
144
100
AcDbDictionary
280
     1
281
     1
  3
AcDbContextDataManager
360
26A
  0
DICTIONARY
  5
25B
330
14D
100
AcDbDictionary
280
     1
281
     1
  3
AcDbContextDataManager
360
25C
  0
DICTIONARY
  5
24D
330
1C5
100
AcDbDictionary
280
     1
281
     1
  3
AcDbContextDataManager
360
24E
  0
DICTIONARY
  5
215
330
1D3
100
AcDbDictionary
280
     1
281
     1
  3
AcDbContextDataManager
360
216
  0
XRECORD
  5
196
102
{ACAD_REACTORS
330
C
102
}
330
C
100
AcDbXrecord
280
     1
300
ACD
300
2021
300

  0
DICTIONARY
  5
18B
102
{ACAD_REACTORS
330
C
102
}
330
C
100
AcDbDictionary
281
     1
  0
DICTIONARY
  5
192
102
{ACAD_REACTORS
330
C
102
}
330
C
100
AcDbDictionary
281
     1
  3
Metric50
350
193
  0
DICTIONARY
  5
D
102
{ACAD_REACTORS
330
C
102
}
330
C
100
AcDbDictionary
281
     1
  0
DICTIONARY
  5
1A
102
{ACAD_REACTORS
330
C
102
}
330
C
100
AcDbDictionary
281
     1
  3
Layout1
350
1E
  3
Layout2
350
26
  3
Model
350
22
  0
DICTIONARY
  5
159
102
{ACAD_REACTORS
330
C
102
}
330
C
100
AcDbDictionary
281
     1
  3
ByBlock
350
162
  3
ByLayer
350
15A
  3
Global
350
16A
  0
DICTIONARY
  5
18E
102
{ACAD_REACTORS
330
C
102
}
330
C
100
AcDbDictionary
281
     1
  3
Standard
350
18F
  0
DICTIONARY
  5
17
102
{ACAD_REACTORS
330
C
102
}
330
C
100
AcDbDictionary
281
     1
  3
Standard
350
18
  0
DICTIONARY
  5
19
102
{ACAD_REACTORS
330
C
102
}
330
C
100
AcDbDictionary
281
     1
  0
ACDBDICTIONARYWDFLT
  5
E
102
{ACAD_REACTORS
330
C
102
}
330
C
100
AcDbDictionary
281
     1
  3
Normal
350
F
100
AcDbDictionaryWithDefault
340
F
  0
DICTIONARY
  5
47
102
{ACAD_REACTORS
330
C
102
}
330
C
100
AcDbDictionary
281
     1
  3
A0
350
48
  3
A1
350
49
  3
A2
350
4A
  3
A3
350
4B
  3
A4
350
4C
  3
A5
350
4D
  3
A6
350
4E
  3
A7
350
4F
  3
A8
350
50
  3
A9
350
51
  3
B0
350
52
  3
B1
350
53
  3
B2
350
54
  3
B3
350
55
  3
B4
350
56
  3
B5
350
57
  3
B6
350
58
  3
B7
350
59
  3
B8
350
5A
  3
B9
350
5B
  3
C0
350
5C
  3
C1
350
5D
  3
C2
350
5E
  3
C3
350
5F
  3
C4
350
60
  3
C5
350
61
  3
C6
350
62
  3
C7
350
63
  3
C8
350
64
  3
C9
350
65
  3
D0
350
66
  3
D1
350
67
  3
D2
350
68
  0
DICTIONARY
  5
190
102
{ACAD_REACTORS
330
C
102
}
330
C
100
AcDbDictionary
281
     1
  3
Metric50
350
191
  0
DICTIONARY
  5
18C
102
{ACAD_REACTORS
330
C
102
}
330
C
100
AcDbDictionary
281
     1
  3
Standard
350
18D
  0
DICTIONARY
  5
172
102
{ACAD_REACTORS
330
C
102
}
330
C
100
AcDbDictionary
281
     1
  3
2dWireframe
350
178
  3
Basic
350
177
  3
Brighten
350
17E
  3
ColorChange
350
182
  3
Conceptual
350
17B
  3
Dim
350
17D
  3
EdgeColorOff
350
18A
  3
Facepattern
350
181
  3
Flat
350
173
  3
FlatWithEdges
350
174
  3
Gouraud
350
175
  3
GouraudWithEdges
350
176
  3
Hidden
350
17A
  3
JitterOff
350
188
  3
Linepattern
350
180
  3
OverhangOff
350
189
  3
Realistic
350
17C
  3
Shaded
350
187
  3
Shaded with edges
350
186
  3
Shades of Gray
350
183
  3
Sketchy
350
184
  3
Thicken
350
17F
  3
Wireframe
350
179
  3
X-Ray
350
185
  0
XRECORD
  5
290
102
{ACAD_REACTORS
330
C
102
}
330
C
100
AcDbXrecord
280
     1
 90
        1
330
18D
  0
DICTIONARY
  5
284
102
{ACAD_REACTORS
330
C
102
}
330
C
100
AcDbDictionary
281
     1
  3
CANNOSCALE
350
28A
  3
CMLEADERSTYLE
350
286
  3
CTABLESTYLE
350
285
  3
CVIEWDETAILSTYLE
350
287
  3
CVIEWSECTIONSTYLE
350
288
  3
LAYEREVAL
350
28C
  3
LAYERNOTIFY
350
28D
  3
LIGHTINGUNITS
350
28B
  3
MSLTSCALE
350
289
  0
DICTIONARY
  5
1AB
102
{ACAD_REACTORS
330
1AA
102
}
330
1AA
100
AcDbDictionary
281
     1
  0
XRECORD
  5
275
102
{ACAD_REACTORS
330
274
102
}
330
274
100
AcDbXrecord
280
     1
290
     1
  0
XRECORD
  5
277
102
{ACAD_REACTORS
330
276
102
}
330
276
100
AcDbXrecord
280
     1
290
     1
  0
XRECORD
  5
279
102
{ACAD_REACTORS
330
278
102
}
330
278
100
AcDbXrecord
280
     1
290
     1
  0
DICTIONARY
  5
240
102
{ACAD_REACTORS
330
23F
102
}
330
23F
100
AcDbDictionary
281
     1
  3
ACDB_ANNOTATIONSCALES
350
241
  0
DICTIONARY
  5
232
102
{ACAD_REACTORS
330
231
102
}
330
231
100
AcDbDictionary
281
     1
  3
ACDB_ANNOTATIONSCALES
350
233
  0
DICTIONARY
  5
224
102
{ACAD_REACTORS
330
223
102
}
330
223
100
AcDbDictionary
281
     1
  3
ACDB_ANNOTATIONSCALES
350
225
  0
DICTIONARY
  5
208
102
{ACAD_REACTORS
330
207
102
}
330
207
100
AcDbDictionary
281
     1
  3
ACDB_ANNOTATIONSCALES
350
209
  0
DICTIONARY
  5
1FA
102
{ACAD_REACTORS
330
1F9
102
}
330
1F9
100
AcDbDictionary
281
     1
  3
ACDB_ANNOTATIONSCALES
350
1FB
  0
DICTIONARY
  5
1EC
102
{ACAD_REACTORS
330
1EB
102
}
330
1EB
100
AcDbDictionary
281
     1
  3
ACDB_ANNOTATIONSCALES
350
1ED
  0
DICTIONARY
  5
26A
102
{ACAD_REACTORS
330
269
102
}
330
269
100
AcDbDictionary
281
     1
  3
ACDB_ANNOTATIONSCALES
350
26B
  0
DICTIONARY
  5
25C
102
{ACAD_REACTORS
330
25B
102
}
330
25B
100
AcDbDictionary
281
     1
  3
ACDB_ANNOTATIONSCALES
350
25D
  0
DICTIONARY
  5
24E
102
{ACAD_REACTORS
330
24D
102
}
330
24D
100
AcDbDictionary
281
     1
  3
ACDB_ANNOTATIONSCALES
350
24F
  0
DICTIONARY
  5
216
102
{ACAD_REACTORS
330
215
102
}
330
215
100
AcDbDictionary
281
     1
  3
ACDB_ANNOTATIONSCALES
350
217
  0
ACDBDETAILVIEWSTYLE
  5
193
102
{ACAD_REACTORS
330
192
102
}
330
192
100
AcDbModelDocViewStyle
 70
     0
  3
Metric50
290
     0
300
Metric50
 90
        0
100
AcDbDetailViewStyle
 70
     0
 71
     0
 90
        3
 71
     1
340
11
 62
   256
 40
5.0
340
0
 62
   256
 40
5.0
300

 40
0.0
280
     1
 71
     2
340
16
 90
       25
 62
   256
 71
     3
340
11
 62
   256
 40
5.0
 90
        0
 40
15.0
 90
        1
300
%<\AcVar ViewDetailId>% (%<\AcVar ViewScale \f "%sn">%)
 71
     4
340
16
 90
       25
 62
   256
340
16
 90
       25
 62
   256
280
     0
  0
LAYOUT
  5
1E
102
{ACAD_REACTORS
330
1A
102
}
330
1A
100
AcDbPlotSettings
  1

  2
none_device
  4

  6

 40
0.0
 41
0.0
 42
0.0
 43
0.0
 44
0.0
 45
0.0
 46
0.0
 47
0.0
 48
0.0
 49
0.0
140
0.0
141
0.0
142
1.0
143
1.0
 70
   688
 72
     1
 73
     0
 74
     5
  7

 75
    16
147
1.0
 76
     0
 77
     2
 78
   300
148
0.0
149
0.0
100
AcDbLayout
  1
Layout1
 70
     1
 71
     1
 10
0.0
 20
0.0
 11
420.0
 21
297.0
 12
0.0
 22
0.0
 32
0.0
 14
1.000000000000000E+20
 24
1.000000000000000E+20
 34
1.000000000000000E+20
 15
-1.000000000000000E+20
 25
-1.000000000000000E+20
 35
-1.000000000000000E+20
146
0.0
 13
0.0
 23
0.0
 33
0.0
 16
1.0
 26
0.0
 36
0.0
 17
0.0
 27
1.0
 37
0.0
 76
     0
330
1B
  0
LAYOUT
  5
26
102
{ACAD_REACTORS
330
1A
102
}
330
1A
100
AcDbPlotSettings
  1

  2
none_device
  4

  6

 40
0.0
 41
0.0
 42
0.0
 43
0.0
 44
0.0
 45
0.0
 46
0.0
 47
0.0
 48
0.0
 49
0.0
140
0.0
141
0.0
142
1.0
143
1.0
 70
   688
 72
     1
 73
     0
 74
     5
  7

 75
    16
147
1.0
 76
     0
 77
     2
 78
   300
148
0.0
149
0.0
100
AcDbLayout
  1
Layout2
 70
     1
 71
     2
 10
0.0
 20
0.0
 11
0.0
 21
0.0
 12
0.0
 22
0.0
 32
0.0
 14
0.0
 24
0.0
 34
0.0
 15
0.0
 25
0.0
 35
0.0
146
0.0
 13
0.0
 23
0.0
 33
0.0
 16
1.0
 26
0.0
 36
0.0
 17
0.0
 27
1.0
 37
0.0
 76
     0
330
23
  0
LAYOUT
  5
22
102
{ACAD_REACTORS
330
1A
102
}
330
1A
100
AcDbPlotSettings
  1

  2
none_device
  4
Letter_(8.50_x_11.00_Inches)
  6

 40
6.349999999999999
 41
6.349999999999999
 42
6.350005079999999
 43
6.350005079999999
 44
215.9
 45
279.4
 46
0.0
 47
0.0
 48
0.0
 49
0.0
140
0.0
141
0.0
142
1.0
143
1.0
 70
  1712
 72
     1
 73
     0
 74
     0
  7

 75
     0
147
1.0
 76
     0
 77
     2
 78
   300
148
0.0
149
0.0
100
AcDbLayout
  1
Model
 70
     1
 71
     0
 10
0.0
 20
0.0
 11
420.0
 21
297.0
 12
0.0
 22
0.0
 32
0.0
 14
0.0
 24
0.0
 34
0.0
 15
420.0
 25
297.0
 35
0.0
146
0.0
 13
0.0
 23
0.0
 33
0.0
 16
1.0
 26
0.0
 36
0.0
 17
0.0
 27
1.0
 37
0.0
 76
     0
330
1F
331
29
  0
MATERIAL
  5
162
102
{ACAD_XDICTIONARY
360
163
102
}
102
{ACAD_REACTORS
330
159
102
}
330
159
100
AcDbMaterial
  1
ByBlock
 72
     0
 43
0.0008202099737533
 43
0.0
 43
0.0
 43
0.0
 43
0.0
 43
0.0008202099737533
 43
0.0
 43
0.0
 43
0.0
 43
0.0
 43
1.0
 43
0.0
 43
0.0
 43
0.0
 43
0.0
 43
1.0
 77
     0
 47
0.0008202099737533
 47
0.0
 47
0.0
 47
0.0
 47
0.0
 47
0.0008202099737533
 47
0.0
 47
0.0
 47
0.0
 47
0.0
 47
1.0
 47
0.0
 47
0.0
 47
0.0
 47
0.0
 47
1.0
171
     0
 49
0.0008202099737533
 49
0.0
 49
0.0
 49
0.0
 49
0.0
 49
0.0008202099737533
 49
0.0
 49
0.0
 49
0.0
 49
0.0
 49
1.0
 49
0.0
 49
0.0
 49
0.0
 49
0.0
 49
1.0
175
     0
142
0.0008202099737533
142
0.0
142
0.0
142
0.0
142
0.0
142
0.0008202099737533
142
0.0
142
0.0
142
0.0
142
0.0
142
1.0
142
0.0
142
0.0
142
0.0
142
0.0
142
1.0
179
     0
144
0.0008202099737533
144
0.0
144
0.0
144
0.0
144
0.0
144
0.0008202099737533
144
0.0
144
0.0
144
0.0
144
0.0
144
1.0
144
0.0
144
0.0
144
0.0
144
0.0
144
1.0
147
0.0008202099737533
147
0.0
147
0.0
147
0.0
147
0.0
147
0.0008202099737533
147
0.0
147
0.0
147
0.0
147
0.0
147
1.0
147
0.0
147
0.0
147
0.0
147
0.0
147
1.0
  0
MATERIAL
  5
15A
102
{ACAD_XDICTIONARY
360
15B
102
}
102
{ACAD_REACTORS
330
159
102
}
330
159
100
AcDbMaterial
  1
ByLayer
 72
     0
 43
0.0008202099737533
 43
0.0
 43
0.0
 43
0.0
 43
0.0
 43
0.0008202099737533
 43
0.0
 43
0.0
 43
0.0
 43
0.0
 43
1.0
 43
0.0
 43
0.0
 43
0.0
 43
0.0
 43
1.0
 77
     0
 47
0.0008202099737533
 47
0.0
 47
0.0
 47
0.0
 47
0.0
 47
0.0008202099737533
 47
0.0
 47
0.0
 47
0.0
 47
0.0
 47
1.0
 47
0.0
 47
0.0
 47
0.0
 47
0.0
 47
1.0
171
     0
 49
0.0008202099737533
 49
0.0
 49
0.0
 49
0.0
 49
0.0
 49
0.0008202099737533
 49
0.0
 49
0.0
 49
0.0
 49
0.0
 49
1.0
 49
0.0
 49
0.0
 49
0.0
 49
0.0
 49
1.0
175
     0
142
0.0008202099737533
142
0.0
142
0.0
142
0.0
142
0.0
142
0.0008202099737533
142
0.0
142
0.0
142
0.0
142
0.0
142
1.0
142
0.0
142
0.0
142
0.0
142
0.0
142
1.0
179
     0
144
0.0008202099737533
144
0.0
144
0.0
144
0.0
144
0.0
144
0.0008202099737533
144
0.0
144
0.0
144
0.0
144
0.0
144
1.0
144
0.0
144
0.0
144
0.0
144
0.0
144
1.0
147
0.0008202099737533
147
0.0
147
0.0
147
0.0
147
0.0
147
0.0008202099737533
147
0.0
147
0.0
147
0.0
147
0.0
147
1.0
147
0.0
147
0.0
147
0.0
147
0.0
147
1.0
  0
MATERIAL
  5
16A
102
{ACAD_XDICTIONARY
360
16B
102
}
102
{ACAD_REACTORS
330
159
102
}
330
159
100
AcDbMaterial
  1
Global
 72
     0
 43
0.0008202099737533
 43
0.0
 43
0.0
 43
0.0
 43
0.0
 43
0.0008202099737533
 43
0.0
 43
0.0
 43
0.0
 43
0.0
 43
1.0
 43
0.0
 43
0.0
 43
0.0
 43
0.0
 43
1.0
 77
     0
 47
0.0008202099737533
 47
0.0
 47
0.0
 47
0.0
 47
0.0
 47
0.0008202099737533
 47
0.0
 47
0.0
 47
0.0
 47
0.0
 47
1.0
 47
0.0
 47
0.0
 47
0.0
 47
0.0
 47
1.0
171
     0
 49
0.0008202099737533
 49
0.0
 49
0.0
 49
0.0
 49
0.0
 49
0.0008202099737533
 49
0.0
 49
0.0
 49
0.0
 49
0.0
 49
1.0
 49
0.0
 49
0.0
 49
0.0
 49
0.0
 49
1.0
175
     0
142
0.0008202099737533
142
0.0
142
0.0
142
0.0
142
0.0
142
0.0008202099737533
142
0.0
142
0.0
142
0.0
142
0.0
142
1.0
142
0.0
142
0.0
142
0.0
142
0.0
142
1.0
179
     0
144
0.0008202099737533
144
0.0
144
0.0
144
0.0
144
0.0
144
0.0008202099737533
144
0.0
144
0.0
144
0.0
144
0.0
144
1.0
144
0.0
144
0.0
144
0.0
144
0.0
144
1.0
147
0.0008202099737533
147
0.0
147
0.0
147
0.0
147
0.0
147
0.0008202099737533
147
0.0
147
0.0
147
0.0
147
0.0
147
1.0
147
0.0
147
0.0
147
0.0
147
0.0
147
1.0
  0
MLEADERSTYLE
  5
18F
102
{ACAD_REACTORS
330
18E
102
}
330
18E
100
AcDbMLeaderStyle
179
     2
170
     2
171
     1
172
     0
 90
        2
 40
0.0
 41
0.0
173
     1
 91
-1056964608
340
14
 92
       -2
290
     1
 42
2.0
291
     1
 43
0.36
  3
Standard
 44
4.0
300

342
11
174
     1
178
     6
175
     1
176
     0
 93
-1056964608
 45
4.0
292
     0
297
     0
 46
4.0
 94
-1056964608
 47
1.0
 49
1.0
140
1.0
293
     1
141
0.0
294
     1
177
     0
142
1.0
295
     0
296
     0
143
0.125
271
     0
272
     9
273
     9
298
     0
  0
MLINESTYLE
  5
18
102
{ACAD_REACTORS
330
17
102
}
330
17
100
AcDbMlineStyle
  2
STANDARD
 70
     0
  3

 62
   256
 51
90.0
 52
90.0
 71
     2
 49
0.5
 62
   256
  6
BYLAYER
 49
-0.5
 62
   256
  6
BYLAYER
  0
ACDBPLACEHOLDER
  5
F
102
{ACAD_REACTORS
330
E
102
}
330
E
  0
SCALE
  5
48
102
{ACAD_REACTORS
330
47
102
}
330
47
100
AcDbScale
 70
     0
300
1:1
140
1.0
141
1.0
290
     1
  0
SCALE
  5
49
102
{ACAD_REACTORS
330
47
102
}
330
47
100
AcDbScale
 70
     0
300
1:2
140
1.0
141
2.0
290
     0
  0
SCALE
  5
4A
102
{ACAD_REACTORS
330
47
102
}
330
47
100
AcDbScale
 70
     0
300
1:4
140
1.0
141
4.0
290
     0
  0
SCALE
  5
4B
102
{ACAD_REACTORS
330
47
102
}
330
47
100
AcDbScale
 70
     0
300
1:5
140
1.0
141
5.0
290
     0
  0
SCALE
  5
4C
102
{ACAD_REACTORS
330
47
102
}
330
47
100
AcDbScale
 70
     0
300
1:8
140
1.0
141
8.0
290
     0
  0
SCALE
  5
4D
102
{ACAD_REACTORS
330
47
102
}
330
47
100
AcDbScale
 70
     0
300
1:10
140
1.0
141
10.0
290
     0
  0
SCALE
  5
4E
102
{ACAD_REACTORS
330
47
102
}
330
47
100
AcDbScale
 70
     0
300
1:16
140
1.0
141
16.0
290
     0
  0
SCALE
  5
4F
102
{ACAD_REACTORS
330
47
102
}
330
47
100
AcDbScale
 70
     0
300
1:20
140
1.0
141
20.0
290
     0
  0
SCALE
  5
50
102
{ACAD_REACTORS
330
47
102
}
330
47
100
AcDbScale
 70
     0
300
1:30
140
1.0
141
30.0
290
     0
  0
SCALE
  5
51
102
{ACAD_REACTORS
330
47
102
}
330
47
100
AcDbScale
 70
     0
300
1:40
140
1.0
141
40.0
290
     0
  0
SCALE
  5
52
102
{ACAD_REACTORS
330
47
102
}
330
47
100
AcDbScale
 70
     0
300
1:50
140
1.0
141
50.0
290
     0
  0
SCALE
  5
53
102
{ACAD_REACTORS
330
47
102
}
330
47
100
AcDbScale
 70
     0
300
1:100
140
1.0
141
100.0
290
     0
  0
SCALE
  5
54
102
{ACAD_REACTORS
330
47
102
}
330
47
100
AcDbScale
 70
     0
300
2:1
140
2.0
141
1.0
290
     0
  0
SCALE
  5
55
102
{ACAD_REACTORS
330
47
102
}
330
47
100
AcDbScale
 70
     0
300
4:1
140
4.0
141
1.0
290
     0
  0
SCALE
  5
56
102
{ACAD_REACTORS
330
47
102
}
330
47
100
AcDbScale
 70
     0
300
8:1
140
8.0
141
1.0
290
     0
  0
SCALE
  5
57
102
{ACAD_REACTORS
330
47
102
}
330
47
100
AcDbScale
 70
     0
300
10:1
140
10.0
141
1.0
290
     0
  0
SCALE
  5
58
102
{ACAD_REACTORS
330
47
102
}
330
47
100
AcDbScale
 70
     0
300
100:1
140
100.0
141
1.0
290
     0
  0
SCALE
  5
59
102
{ACAD_REACTORS
330
47
102
}
330
47
100
AcDbScale
 70
     0
300
1/128" = 1'-0"
140
0.0078125
141
12.0
290
     0
  0
SCALE
  5
5A
102
{ACAD_REACTORS
330
47
102
}
330
47
100
AcDbScale
 70
     0
300
1/64" = 1'-0"
140
0.015625
141
12.0
290
     0
  0
SCALE
  5
5B
102
{ACAD_REACTORS
330
47
102
}
330
47
100
AcDbScale
 70
     0
300
1/32" = 1'-0"
140
0.03125
141
12.0
290
     0
  0
SCALE
  5
5C
102
{ACAD_REACTORS
330
47
102
}
330
47
100
AcDbScale
 70
     0
300
1/16" = 1'-0"
140
0.0625
141
12.0
290
     0
  0
SCALE
  5
5D
102
{ACAD_REACTORS
330
47
102
}
330
47
100
AcDbScale
 70
     0
300
3/32" = 1'-0"
140
0.09375
141
12.0
290
     0
  0
SCALE
  5
5E
102
{ACAD_REACTORS
330
47
102
}
330
47
100
AcDbScale
 70
     0
300
1/8" = 1'-0"
140
0.125
141
12.0
290
     0
  0
SCALE
  5
5F
102
{ACAD_REACTORS
330
47
102
}
330
47
100
AcDbScale
 70
     0
300
3/16" = 1'-0"
140
0.1875
141
12.0
290
     0
  0
SCALE
  5
60
102
{ACAD_REACTORS
330
47
102
}
330
47
100
AcDbScale
 70
     0
300
1/4" = 1'-0"
140
0.25
141
12.0
290
     0
  0
SCALE
  5
61
102
{ACAD_REACTORS
330
47
102
}
330
47
100
AcDbScale
 70
     0
300
3/8" = 1'-0"
140
0.375
141
12.0
290
     0
  0
SCALE
  5
62
102
{ACAD_REACTORS
330
47
102
}
330
47
100
AcDbScale
 70
     0
300
1/2" = 1'-0"
140
0.5
141
12.0
290
     0
  0
SCALE
  5
63
102
{ACAD_REACTORS
330
47
102
}
330
47
100
AcDbScale
 70
     0
300
3/4" = 1'-0"
140
0.75
141
12.0
290
     0
  0
SCALE
  5
64
102
{ACAD_REACTORS
330
47
102
}
330
47
100
AcDbScale
 70
     0
300
1" = 1'-0"
140
1.0
141
12.0
290
     0
  0
SCALE
  5
65
102
{ACAD_REACTORS
330
47
102
}
330
47
100
AcDbScale
 70
     0
300
1-1/2" = 1'-0"
140
1.5
141
12.0
290
     0
  0
SCALE
  5
66
102
{ACAD_REACTORS
330
47
102
}
330
47
100
AcDbScale
 70
     0
300
3" = 1'-0"
140
3.0
141
12.0
290
     0
  0
SCALE
  5
67
102
{ACAD_REACTORS
330
47
102
}
330
47
100
AcDbScale
 70
     0
300
6" = 1'-0"
140
6.0
141
12.0
290
     0
  0
SCALE
  5
68
102
{ACAD_REACTORS
330
47
102
}
330
47
100
AcDbScale
 70
     0
300
1'-0" = 1'-0"
140
12.0
141
12.0
290
     0
  0
ACDBSECTIONVIEWSTYLE
  5
191
102
{ACAD_REACTORS
330
190
102
}
330
190
100
AcDbModelDocViewStyle
 70
     0
  3
Metric50
290
     0
300
Metric50
 90
        0
100
AcDbSectionViewStyle
 70
     0
 71
     0
 90
      102
 71
     1
340
11
 62
   256
 40
5.0
340
0
340
0
 62
   256
 40
5.0
300
I, O, Q, S, X, Z
 40
10.0
 90
        0
 40
2.5
 90
        0
 71
     2
340
16
 90
       25
 62
   256
340
16
 90
       50
 62
   256
 40
5.0
 40
2.5
 40
5.0
 71
     3
340
11
 62
   256
 40
5.0
 90
        0
 40
15.0
 90
        1
300
%<\AcVar ViewSectionStartId>%-%<\AcVar ViewSectionEndId>% (%<\AcVar ViewScale \f "%sn">%)
 71
     4
 62
   256
 62
   257
300
ANSI31
 40
1.0
 90
        0
290
     0
290
     0
 90
        6
 40
0.0
 40
1.570796326794896
 40
0.2617993877991494
 40
1.308996938995747
 40
-0.2617993877991494
 40
1.832595714594046
  0
TABLESTYLE
  5
18D
102
{ACAD_XDICTIONARY
360
28E
102
}
102
{ACAD_REACTORS
330
18C
102
}
330
18C
100
AcDbTableStyle
280
     0
  3
Standard
 70
     0
 71
     0
 40
1.5
 41
1.5
280
     0
281
     0
  7
Standard
140
4.5
170
     2
 62
     0
 63
     7
283
     0
 90
      512
 91
        0
  1

274
    -2
284
     1
 64
     0
275
    -2
285
     1
 65
     0
276
    -2
286
     1
 66
     0
277
    -2
287
     1
 67
     0
278
    -2
288
     1
 68
     0
279
    -2
289
     1
 69
     0
  7
Standard
140
6.0
170
     5
 62
     0
 63
     7
283
     0
 90
      512
 91
        0
  1

274
    -2
284
     1
 64
     0
275
    -2
285
     1
 65
     0
276
    -2
286
     1
 66
     0
277
    -2
287
     1
 67
     0
278
    -2
288
     1
 68
     0
279
    -2
289
     1
 69
     0
  7
Standard
140
4.5
170
     5
 62
     0
 63
     7
283
     0
 90
      512
 91
        0
  1

274
    -2
284
     1
 64
     0
275
    -2
285
     1
 65
     0
276
    -2
286
     1
 66
     0
277
    -2
287
     1
 67
     0
278
    -2
288
     1
 68
     0
279
    -2
289
     1
 69
     0
  0
VISUALSTYLE
  5
178
102
{ACAD_REACTORS
330
172
102
}
330
172
100
AcDbVisualStyle
  2
2dWireframe
 70
     4
177
     3
291
     0
 70
    58
 90
        0
176
     1
 90
        2
176
     1
 90
        0
176
     1
 90
        0
176
     1
 40
0.6
176
     1
 40
30.0
176
     1
 62
     7
420
 16777215
176
     1
 90
        1
176
     1
 90
        4
176
     1
 62
     7
176
     1
 62
   257
176
     1
 90
        1
176
     1
 90
        1
176
     1
 40
1.0
176
     1
 90
        0
176
     1
 62
   257
176
     1
 40
1.0
176
     1
 90
        1
176
     1
 90
        6
176
     1
 90
        2
176
     1
 62
     7
176
     1
 90
        5
176
     1
 90
        0
176
     1
 90
        0
176
     1
290
     0
176
     1
 90
        1
176
     1
 40
0.0
176
     1
 90
        0
176
     1
290
     1
176
     1
290
     1
176
     1
290
     0
176
     1
290
     0
176
     1
290
     0
176
     1
290
     0
176
     1
290
     0
176
     1
290
     0
176
     1
290
     0
176
     1
 90
       50
176
     1
 40
0.0
176
     1
 40
1.0
176
     1
 90
        0
176
     1
 62
    18
420
        0
176
     1
 90
       50
176
     1
 90
        3
176
     1
 62
     5
420
      255
176
     1
290
     0
176
     1
 90
       50
176
     1
 90
       50
176
     1
 90
       50
176
     1
290
     0
176
     1
 90
       50
176
     1
 62
   256
176
     0
 40
1.0
176
     0
 90
        2
176
     1
  1
strokes_ogs.tif
176
     1
290
     0
176
     1
 40
1.0
176
     1
 40
1.0
176
     1
  0
VISUALSTYLE
  5
177
102
{ACAD_REACTORS
330
172
102
}
330
172
100
AcDbVisualStyle
  2
Basic
 70
     7
177
     3
291
     1
 70
    58
 90
        1
176
     1
 90
        0
176
     1
 90
        1
176
     1
 90
        0
176
     1
 40
0.6
176
     1
 40
30.0
176
     1
 62
     7
420
 16777215
176
     1
 90
        0
176
     1
 90
        4
176
     1
 62
     7
176
     1
 62
   257
176
     1
 90
        1
176
     1
 90
        1
176
     1
 40
1.0
176
     1
 90
        8
176
     1
 62
     7
176
     1
 40
1.0
176
     1
 90
        1
176
     1
 90
        6
176
     1
 90
        2
176
     1
 62
     7
176
     1
 90
        5
176
     1
 90
        0
176
     1
 90
        0
176
     1
290
     0
176
     1
 90
        1
176
     1
 40
0.0
176
     1
 90
        0
176
     1
290
     0
176
     1
290
     1
176
     1
290
     1
176
     1
290
     0
176
     1
290
     0
176
     1
290
     0
176
     1
290
     0
176
     1
290
     0
176
     1
290
     0
176
     1
 90
       50
176
     1
 40
0.0
176
     1
 40
1.0
176
     1
 90
        0
176
     1
 62
    18
420
        0
176
     1
 90
       50
176
     1
 90
        3
176
     1
 62
     5
420
      255
176
     1
290
     0
176
     1
 90
       50
176
     1
 90
       50
176
     1
 90
       50
176
     1
290
     0
176
     1
 90
       50
176
     1
 62
   256
176
     0
 40
1.0
176
     0
 90
        2
176
     1
  1
strokes_ogs.tif
176
     1
290
     0
176
     1
 40
1.0
176
     1
 40
1.0
176
     1
  0
VISUALSTYLE
  5
17E
102
{ACAD_REACTORS
330
172
102
}
330
172
100
AcDbVisualStyle
  2
Brighten
 70
    12
177
     3
291
     1
 70
    58
 90
        2
176
     1
 90
        2
176
     1
 90
        0
176
     1
 90
        0
176
     1
 40
0.6
176
     1
 40
30.0
176
     1
 62
     7
420
 16777215
176
     1
 90
        1
176
     1
 90
        4
176
     1
 62
     7
176
     1
 62
   257
176
     1
 90
        1
176
     1
 90
        1
176
     1
 40
1.0
176
     1
 90
        8
176
     1
 62
     7
176
     1
 40
1.0
176
     1
 90
        1
176
     1
 90
        6
176
     1
 90
        2
176
     1
 62
     7
176
     1
 90
        5
176
     1
 90
        0
176
     1
 90
        0
176
     1
290
     0
176
     1
 90
        1
176
     1
 40
50.0
176
     1
 90
        0
176
     1
290
     0
176
     1
290
     1
176
     1
290
     1
176
     1
290
     0
176
     1
290
     0
176
     1
290
     0
176
     1
290
     0
176
     1
290
     0
176
     1
290
     0
176
     1
 90
       50
176
     1
 40
0.0
176
     1
 40
1.0
176
     1
 90
        0
176
     1
 62
    18
420
        0
176
     1
 90
       50
176
     1
 90
        3
176
     1
 62
     5
420
      255
176
     1
290
     0
176
     1
 90
       50
176
     1
 90
       50
176
     1
 90
       50
176
     1
290
     0
176
     1
 90
       50
176
     1
 62
   256
176
     0
 40
1.0
176
     0
 90
        2
176
     1
  1
strokes_ogs.tif
176
     1
290
     0
176
     1
 40
1.0
176
     1
 40
1.0
176
     1
  0
VISUALSTYLE
  5
182
102
{ACAD_REACTORS
330
172
102
}
330
172
100
AcDbVisualStyle
  2
ColorChange
 70
    16
177
     3
291
     1
 70
    58
 90
        2
176
     1
 90
        2
176
     1
 90
        3
176
     1
 90
        0
176
     1
 40
0.6
176
     1
 40
30.0
176
     1
 62
     8
420
  8421504
176
     1
 90
        1
176
     1
 90
        4
176
     1
 62
     7
176
     1
 62
   257
176
     1
 90
        1
176
     1
 90
        1
176
     1
 40
1.0
176
     1
 90
        8
176
     1
 62
     8
420
  8421504
176
     1
 40
1.0
176
     1
 90
        1
176
     1
 90
        6
176
     1
 90
        2
176
     1
 62
     7
176
     1
 90
        5
176
     1
 90
        0
176
     1
 90
        0
176
     1
290
     0
176
     1
 90
        1
176
     1
 40
0.0
176
     1
 90
        0
176
     1
290
     0
176
     1
290
     1
176
     1
290
     1
176
     1
290
     0
176
     1
290
     0
176
     1
290
     0
176
     1
290
     0
176
     1
290
     0
176
     1
290
     0
176
     1
 90
       50
176
     1
 40
0.0
176
     1
 40
1.0
176
     1
 90
        0
176
     1
 62
    18
420
        0
176
     1
 90
       50
176
     1
 90
        3
176
     1
 62
     5
420
      255
176
     1
290
     0
176
     1
 90
       50
176
     1
 90
       50
176
     1
 90
       50
176
     1
290
     0
176
     1
 90
       50
176
     1
 62
   256
176
     0
 40
1.0
176
     0
 90
        2
176
     1
  1
strokes_ogs.tif
176
     1
290
     0
176
     1
 40
1.0
176
     1
 40
1.0
176
     1
  0
VISUALSTYLE
  5
17B
102
{ACAD_REACTORS
330
172
102
}
330
172
100
AcDbVisualStyle
  2
Conceptual
 70
     9
177
     3
291
     0
 70
    58
 90
        3
176
     1
 90
        2
176
     1
 90
        0
176
     1
 90
        0
176
     1
 40
0.6
176
     1
 40
30.0
176
     1
 62
     7
420
 16777215
176
     1
 90
        2
176
     1
 90
        2
176
     1
 62
     7
176
     1
 62
   257
176
     1
 90
        1
176
     1
 90
        1
176
     1
 40
179.0
176
     1
 90
        8
176
     1
 62
     7
176
     1
 40
1.0
176
     1
 90
        1
176
     1
 90
        6
176
     1
 90
        2
176
     1
 62
     7
176
     1
 90
        3
176
     1
 90
        0
176
     1
 90
        0
176
     1
290
     0
176
     1
 90
        1
176
     1
 40
0.0
176
     1
 90
        0
176
     1
290
     0
176
     1
290
     1
176
     1
290
     1
176
     1
290
     0
176
     1
290
     0
176
     1
290
     0
176
     1
290
     0
176
     1
290
     0
176
     1
290
     0
176
     1
 90
       50
176
     1
 40
0.0
176
     1
 40
1.0
176
     1
 90
        0
176
     1
 62
    18
420
        0
176
     1
 90
       50
176
     1
 90
        3
176
     1
 62
     5
420
      255
176
     1
290
     0
176
     1
 90
       50
176
     1
 90
       50
176
     1
 90
       50
176
     1
290
     0
176
     1
 90
       50
176
     1
 62
   256
176
     0
 40
1.0
176
     0
 90
        2
176
     1
  1
strokes_ogs.tif
176
     1
290
     0
176
     1
 40
1.0
176
     1
 40
1.0
176
     1
  0
VISUALSTYLE
  5
17D
102
{ACAD_REACTORS
330
172
102
}
330
172
100
AcDbVisualStyle
  2
Dim
 70
    11
177
     3
291
     1
 70
    58
 90
        2
176
     1
 90
        2
176
     1
 90
        0
176
     1
 90
        0
176
     1
 40
0.6
176
     1
 40
30.0
176
     1
 62
     7
420
 16777215
176
     1
 90
        1
176
     1
 90
        4
176
     1
 62
     7
176
     1
 62
   257
176
     1
 90
        1
176
     1
 90
        1
176
     1
 40
1.0
176
     1
 90
        8
176
     1
 62
     7
176
     1
 40
1.0
176
     1
 90
        1
176
     1
 90
        6
176
     1
 90
        2
176
     1
 62
     7
176
     1
 90
        5
176
     1
 90
        0
176
     1
 90
        0
176
     1
290
     0
176
     1
 90
        1
176
     1
 40
-50.0
176
     1
 90
        0
176
     1
290
     0
176
     1
290
     1
176
     1
290
     1
176
     1
290
     0
176
     1
290
     0
176
     1
290
     0
176
     1
290
     0
176
     1
290
     0
176
     1
290
     0
176
     1
 90
       50
176
     1
 40
0.0
176
     1
 40
1.0
176
     1
 90
        0
176
     1
 62
    18
420
        0
176
     1
 90
       50
176
     1
 90
        3
176
     1
 62
     5
420
      255
176
     1
290
     0
176
     1
 90
       50
176
     1
 90
       50
176
     1
 90
       50
176
     1
290
     0
176
     1
 90
       50
176
     1
 62
   256
176
     0
 40
1.0
176
     0
 90
        2
176
     1
  1
strokes_ogs.tif
176
     1
290
     0
176
     1
 40
1.0
176
     1
 40
1.0
176
     1
  0
VISUALSTYLE
  5
18A
102
{ACAD_REACTORS
330
172
102
}
330
172
100
AcDbVisualStyle
  2
EdgeColorOff
 70
    22
177
     3
291
     1
 70
    58
 90
        2
176
     0
 90
        2
176
     0
 90
        0
176
     0
 90
        0
176
     0
 40
0.6
176
     0
 40
30.0
176
     0
 62
     7
420
 16777215
176
     0
 90
        1
176
     0
 90
        4
176
     0
 62
     7
176
     0
 62
   257
176
     0
 90
        1
176
     0
 90
        1
176
     0
 40
1.0
176
     0
 90
        8
176
     2
 62
     7
176
     0
 40
1.0
176
     0
 90
        1
176
     0
 90
        6
176
     0
 90
        2
176
     0
 62
     7
176
     0
 90
        5
176
     0
 90
        0
176
     0
 90
        0
176
     0
290
     0
176
     0
 90
        1
176
     0
 40
0.0
176
     0
 90
        0
176
     0
290
     0
176
     1
290
     1
176
     1
290
     1
176
     1
290
     0
176
     1
290
     0
176
     1
290
     0
176
     1
290
     0
176
     1
290
     0
176
     1
290
     0
176
     1
 90
       50
176
     0
 40
0.0
176
     0
 40
1.0
176
     0
 90
        0
176
     0
 62
    18
420
        0
176
     0
 90
       50
176
     0
 90
        3
176
     0
 62
     5
420
      255
176
     0
290
     0
176
     1
 90
       50
176
     0
 90
       50
176
     0
 90
       50
176
     0
290
     0
176
     1
 90
       50
176
     0
 62
   256
176
     0
 40
1.0
176
     0
 90
        2
176
     0
  1
strokes_ogs.tif
176
     0
290
     0
176
     1
 40
1.0
176
     0
 40
1.0
176
     0
  0
VISUALSTYLE
  5
181
102
{ACAD_REACTORS
330
172
102
}
330
172
100
AcDbVisualStyle
  2
Facepattern
 70
    15
177
     3
291
     1
 70
    58
 90
        2
176
     1
 90
        2
176
     1
 90
        0
176
     1
 90
        0
176
     1
 40
0.6
176
     1
 40
30.0
176
     1
 62
     7
420
 16777215
176
     1
 90
        1
176
     1
 90
        4
176
     1
 62
     7
176
     1
 62
   257
176
     1
 90
        1
176
     1
 90
        1
176
     1
 40
1.0
176
     1
 90
        8
176
     1
 62
     7
176
     1
 40
1.0
176
     1
 90
        1
176
     1
 90
        6
176
     1
 90
        2
176
     1
 62
     7
176
     1
 90
        5
176
     1
 90
        0
176
     1
 90
        0
176
     1
290
     0
176
     1
 90
        1
176
     1
 40
0.0
176
     1
 90
        0
176
     1
290
     0
176
     1
290
     1
176
     1
290
     1
176
     1
290
     0
176
     1
290
     0
176
     1
290
     0
176
     1
290
     0
176
     1
290
     0
176
     1
290
     0
176
     1
 90
       50
176
     1
 40
0.0
176
     1
 40
1.0
176
     1
 90
        0
176
     1
 62
    18
420
        0
176
     1
 90
       50
176
     1
 90
        3
176
     1
 62
     5
420
      255
176
     1
290
     0
176
     1
 90
       50
176
     1
 90
       50
176
     1
 90
       50
176
     1
290
     0
176
     1
 90
       50
176
     1
 62
   256
176
     0
 40
1.0
176
     0
 90
        2
176
     1
  1
strokes_ogs.tif
176
     1
290
     0
176
     1
 40
1.0
176
     1
 40
1.0
176
     1
  0
VISUALSTYLE
  5
173
102
{ACAD_REACTORS
330
172
102
}
330
172
100
AcDbVisualStyle
  2
Flat
 70
     0
177
     3
291
     1
 70
    58
 90
        2
176
     1
 90
        1
176
     1
 90
        1
176
     1
 90
        2
176
     1
 40
0.6
176
     1
 40
30.0
176
     1
 62
     7
420
 16777215
176
     1
 90
        0
176
     1
 90
        0
176
     1
 62
     7
176
     1
 62
   257
176
     1
 90
        1
176
     1
 90
        1
176
     1
 40
1.0
176
     1
 90
        8
176
     1
 62
     7
176
     1
 40
1.0
176
     1
 90
        1
176
     1
 90
        6
176
     1
 90
        2
176
     1
 62
     7
176
     1
 90
        5
176
     1
 90
        0
176
     1
 90
        0
176
     1
290
     0
176
     1
 90
       13
176
     1
 40
0.0
176
     1
 90
        0
176
     1
290
     0
176
     1
290
     1
176
     1
290
     1
176
     1
290
     0
176
     1
290
     0
176
     1
290
     0
176
     1
290
     0
176
     1
290
     0
176
     1
290
     0
176
     1
 90
       50
176
     1
 40
0.0
176
     1
 40
1.0
176
     1
 90
        0
176
     1
 62
    18
420
        0
176
     1
 90
       50
176
     1
 90
        3
176
     1
 62
     5
420
      255
176
     1
290
     0
176
     1
 90
       50
176
     1
 90
       50
176
     1
 90
       50
176
     1
290
     0
176
     1
 90
       50
176
     1
 62
   256
176
     0
 40
1.0
176
     0
 90
        2
176
     1
  1
strokes_ogs.tif
176
     1
290
     0
176
     1
 40
1.0
176
     1
 40
1.0
176
     1
  0
VISUALSTYLE
  5
174
102
{ACAD_REACTORS
330
172
102
}
330
172
100
AcDbVisualStyle
  2
FlatWithEdges
 70
     1
177
     3
291
     1
 70
    58
 90
        2
176
     1
 90
        1
176
     1
 90
        1
176
     1
 90
        2
176
     1
 40
0.6
176
     1
 40
30.0
176
     1
 62
     7
420
 16777215
176
     1
 90
        1
176
     1
 90
        0
176
     1
 62
     7
176
     1
 62
   257
176
     1
 90
        1
176
     1
 90
        1
176
     1
 40
1.0
176
     1
 90
        0
176
     1
 62
   257
176
     1
 40
1.0
176
     1
 90
        1
176
     1
 90
        6
176
     1
 90
        2
176
     1
 62
     7
176
     1
 90
        5
176
     1
 90
        0
176
     1
 90
        0
176
     1
290
     0
176
     1
 90
       13
176
     1
 40
0.0
176
     1
 90
        0
176
     1
290
     0
176
     1
290
     1
176
     1
290
     1
176
     1
290
     0
176
     1
290
     0
176
     1
290
     0
176
     1
290
     0
176
     1
290
     0
176
     1
290
     0
176
     1
 90
       50
176
     1
 40
0.0
176
     1
 40
1.0
176
     1
 90
        0
176
     1
 62
    18
420
        0
176
     1
 90
       50
176
     1
 90
        3
176
     1
 62
     5
420
      255
176
     1
290
     0
176
     1
 90
       50
176
     1
 90
       50
176
     1
 90
       50
176
     1
290
     0
176
     1
 90
       50
176
     1
 62
   256
176
     0
 40
1.0
176
     0
 90
        2
176
     1
  1
strokes_ogs.tif
176
     1
290
     0
176
     1
 40
1.0
176
     1
 40
1.0
176
     1
  0
VISUALSTYLE
  5
175
102
{ACAD_REACTORS
330
172
102
}
330
172
100
AcDbVisualStyle
  2
Gouraud
 70
     2
177
     3
291
     1
 70
    58
 90
        2
176
     1
 90
        2
176
     1
 90
        1
176
     1
 90
        2
176
     1
 40
0.6
176
     1
 40
30.0
176
     1
 62
     7
420
 16777215
176
     1
 90
        0
176
     1
 90
        0
176
     1
 62
     7
176
     1
 62
   257
176
     1
 90
        1
176
     1
 90
        1
176
     1
 40
1.0
176
     1
 90
        0
176
     1
 62
     7
176
     1
 40
1.0
176
     1
 90
        1
176
     1
 90
        6
176
     1
 90
        2
176
     1
 62
     7
176
     1
 90
        5
176
     1
 90
        0
176
     1
 90
        0
176
     1
290
     0
176
     1
 90
       13
176
     1
 40
0.0
176
     1
 90
        0
176
     1
290
     0
176
     1
290
     1
176
     1
290
     1
176
     1
290
     0
176
     1
290
     0
176
     1
290
     0
176
     1
290
     0
176
     1
290
     0
176
     1
290
     0
176
     1
 90
       50
176
     1
 40
0.0
176
     1
 40
1.0
176
     1
 90
        0
176
     1
 62
    18
420
        0
176
     1
 90
       50
176
     1
 90
        3
176
     1
 62
     5
420
      255
176
     1
290
     0
176
     1
 90
       50
176
     1
 90
       50
176
     1
 90
       50
176
     1
290
     0
176
     1
 90
       50
176
     1
 62
   256
176
     0
 40
1.0
176
     0
 90
        2
176
     1
  1
strokes_ogs.tif
176
     1
290
     0
176
     1
 40
1.0
176
     1
 40
1.0
176
     1
  0
VISUALSTYLE
  5
176
102
{ACAD_REACTORS
330
172
102
}
330
172
100
AcDbVisualStyle
  2
GouraudWithEdges
 70
     3
177
     3
291
     1
 70
    58
 90
        2
176
     1
 90
        2
176
     1
 90
        1
176
     1
 90
        2
176
     1
 40
0.6
176
     1
 40
30.0
176
     1
 62
     7
420
 16777215
176
     1
 90
        1
176
     1
 90
        0
176
     1
 62
     7
176
     1
 62
   257
176
     1
 90
        1
176
     1
 90
        1
176
     1
 40
1.0
176
     1
 90
        0
176
     1
 62
   257
176
     1
 40
1.0
176
     1
 90
        1
176
     1
 90
        6
176
     1
 90
        2
176
     1
 62
     7
176
     1
 90
        5
176
     1
 90
        0
176
     1
 90
        0
176
     1
290
     0
176
     1
 90
       13
176
     1
 40
0.0
176
     1
 90
        0
176
     1
290
     0
176
     1
290
     1
176
     1
290
     1
176
     1
290
     0
176
     1
290
     0
176
     1
290
     0
176
     1
290
     0
176
     1
290
     0
176
     1
290
     0
176
     1
 90
       50
176
     1
 40
0.0
176
     1
 40
1.0
176
     1
 90
        0
176
     1
 62
    18
420
        0
176
     1
 90
       50
176
     1
 90
        3
176
     1
 62
     5
420
      255
176
     1
290
     0
176
     1
 90
       50
176
     1
 90
       50
176
     1
 90
       50
176
     1
290
     0
176
     1
 90
       50
176
     1
 62
   256
176
     0
 40
1.0
176
     0
 90
        2
176
     1
  1
strokes_ogs.tif
176
     1
290
     0
176
     1
 40
1.0
176
     1
 40
1.0
176
     1
  0
VISUALSTYLE
  5
17A
102
{ACAD_REACTORS
330
172
102
}
330
172
100
AcDbVisualStyle
  2
Hidden
 70
     6
177
     3
291
     0
 70
    58
 90
        1
176
     1
 90
        2
176
     1
 90
        2
176
     1
 90
        0
176
     1
 40
0.6
176
     1
 40
30.0
176
     1
 62
     7
420
 16777215
176
     1
 90
        2
176
     1
 90
        2
176
     1
 62
     7
176
     1
 62
   257
176
     1
 90
        2
176
     1
 90
        1
176
     1
 40
40.0
176
     1
 90
        0
176
     1
 62
   257
176
     1
 40
1.0
176
     1
 90
        1
176
     1
 90
        6
176
     1
 90
        2
176
     1
 62
     7
176
     1
 90
        3
176
     1
 90
        0
176
     1
 90
        0
176
     1
290
     0
176
     1
 90
        1
176
     1
 40
0.0
176
     1
 90
        0
176
     1
290
     0
176
     1
290
     1
176
     1
290
     1
176
     1
290
     0
176
     1
290
     0
176
     1
290
     0
176
     1
290
     0
176
     1
290
     0
176
     1
290
     0
176
     1
 90
       50
176
     1
 40
0.0
176
     1
 40
1.0
176
     1
 90
        0
176
     1
 62
    18
420
        0
176
     1
 90
       50
176
     1
 90
        3
176
     1
 62
     5
420
      255
176
     1
290
     0
176
     1
 90
       50
176
     1
 90
       50
176
     1
 90
       50
176
     1
290
     0
176
     1
 90
       50
176
     1
 62
   256
176
     0
 40
1.0
176
     0
 90
        2
176
     1
  1
strokes_ogs.tif
176
     1
290
     0
176
     1
 40
1.0
176
     1
 40
1.0
176
     1
  0
VISUALSTYLE
  5
188
102
{ACAD_REACTORS
330
172
102
}
330
172
100
AcDbVisualStyle
  2
JitterOff
 70
    20
177
     3
291
     1
 70
    58
 90
        2
176
     0
 90
        2
176
     0
 90
        0
176
     0
 90
        0
176
     0
 40
0.6
176
     0
 40
30.0
176
     0
 62
     7
420
 16777215
176
     0
 90
        1
176
     0
 90
        4
176
     0
 62
     7
176
     0
 62
   257
176
     0
 90
        1
176
     0
 90
        1
176
     0
 40
1.0
176
     0
 90
       10
176
     2
 62
     7
176
     0
 40
1.0
176
     0
 90
        1
176
     0
 90
        6
176
     0
 90
        2
176
     0
 62
     7
176
     0
 90
        5
176
     0
 90
        0
176
     0
 90
        0
176
     0
290
     0
176
     0
 90
        1
176
     0
 40
0.0
176
     0
 90
        0
176
     0
290
     0
176
     1
290
     1
176
     1
290
     1
176
     1
290
     0
176
     1
290
     0
176
     1
290
     0
176
     1
290
     0
176
     1
290
     0
176
     1
290
     0
176
     1
 90
       50
176
     0
 40
0.0
176
     0
 40
1.0
176
     0
 90
        0
176
     0
 62
    18
420
        0
176
     0
 90
       50
176
     0
 90
        3
176
     0
 62
     5
420
      255
176
     0
290
     0
176
     1
 90
       50
176
     0
 90
       50
176
     0
 90
       50
176
     0
290
     0
176
     1
 90
       50
176
     0
 62
   256
176
     0
 40
1.0
176
     0
 90
        2
176
     0
  1
strokes_ogs.tif
176
     0
290
     0
176
     1
 40
1.0
176
     0
 40
1.0
176
     0
  0
VISUALSTYLE
  5
180
102
{ACAD_REACTORS
330
172
102
}
330
172
100
AcDbVisualStyle
  2
Linepattern
 70
    14
177
     3
291
     1
 70
    58
 90
        2
176
     1
 90
        2
176
     1
 90
        0
176
     1
 90
        0
176
     1
 40
0.6
176
     1
 40
30.0
176
     1
 62
     7
420
 16777215
176
     1
 90
        1
176
     1
 90
        4
176
     1
 62
     7
176
     1
 62
   257
176
     1
 90
        7
176
     1
 90
        7
176
     1
 40
1.0
176
     1
 90
        8
176
     1
 62
     7
176
     1
 40
1.0
176
     1
 90
        1
176
     1
 90
        6
176
     1
 90
        2
176
     1
 62
     7
176
     1
 90
        5
176
     1
 90
        0
176
     1
 90
        0
176
     1
290
     0
176
     1
 90
        1
176
     1
 40
0.0
176
     1
 90
        0
176
     1
290
     0
176
     1
290
     1
176
     1
290
     1
176
     1
290
     0
176
     1
290
     0
176
     1
290
     0
176
     1
290
     0
176
     1
290
     0
176
     1
290
     0
176
     1
 90
       50
176
     1
 40
0.0
176
     1
 40
1.0
176
     1
 90
        0
176
     1
 62
    18
420
        0
176
     1
 90
       50
176
     1
 90
        3
176
     1
 62
     5
420
      255
176
     1
290
     0
176
     1
 90
       50
176
     1
 90
       50
176
     1
 90
       50
176
     1
290
     0
176
     1
 90
       50
176
     1
 62
   256
176
     0
 40
1.0
176
     0
 90
        2
176
     1
  1
strokes_ogs.tif
176
     1
290
     0
176
     1
 40
1.0
176
     1
 40
1.0
176
     1
  0
VISUALSTYLE
  5
189
102
{ACAD_REACTORS
330
172
102
}
330
172
100
AcDbVisualStyle
  2
OverhangOff
 70
    21
177
     3
291
     1
 70
    58
 90
        2
176
     0
 90
        2
176
     0
 90
        0
176
     0
 90
        0
176
     0
 40
0.6
176
     0
 40
30.0
176
     0
 62
     7
420
 16777215
176
     0
 90
        1
176
     0
 90
        4
176
     0
 62
     7
176
     0
 62
   257
176
     0
 90
        1
176
     0
 90
        1
176
     0
 40
1.0
176
     0
 90
        9
176
     2
 62
     7
176
     0
 40
1.0
176
     0
 90
        1
176
     0
 90
        6
176
     0
 90
        2
176
     0
 62
     7
176
     0
 90
        5
176
     0
 90
        0
176
     0
 90
        0
176
     0
290
     0
176
     0
 90
        1
176
     0
 40
0.0
176
     0
 90
        0
176
     0
290
     0
176
     1
290
     1
176
     1
290
     1
176
     1
290
     0
176
     1
290
     0
176
     1
290
     0
176
     1
290
     0
176
     1
290
     0
176
     1
290
     0
176
     1
 90
       50
176
     0
 40
0.0
176
     0
 40
1.0
176
     0
 90
        0
176
     0
 62
    18
420
        0
176
     0
 90
       50
176
     0
 90
        3
176
     0
 62
     5
420
      255
176
     0
290
     0
176
     1
 90
       50
176
     0
 90
       50
176
     0
 90
       50
176
     0
290
     0
176
     1
 90
       50
176
     0
 62
   256
176
     0
 40
1.0
176
     0
 90
        2
176
     0
  1
strokes_ogs.tif
176
     0
290
     0
176
     1
 40
1.0
176
     0
 40
1.0
176
     0
  0
VISUALSTYLE
  5
17C
102
{ACAD_REACTORS
330
172
102
}
330
172
100
AcDbVisualStyle
  2
Realistic
 70
     8
177
     3
291
     0
 70
    58
 90
        2
176
     1
 90
        3
176
     1
 90
        0
176
     1
 90
        2
176
     1
 40
0.6
176
     1
 40
30.0
176
     1
 62
     7
420
 16777215
176
     1
 90
        0
176
     1
 90
        0
176
     1
 62
     7
176
     1
 62
   257
176
     1
 90
        1
176
     1
 90
        1
176
     1
 40
1.0
176
     1
 90
        8
176
     1
 62
   257
176
     1
 40
1.0
176
     1
 90
        1
176
     1
 90
        6
176
     1
 90
        2
176
     1
 62
     7
176
     1
 90
        3
176
     1
 90
        0
176
     1
 90
        0
176
     1
290
     0
176
     1
 90
       13
176
     1
 40
0.0
176
     1
 90
        0
176
     1
290
     0
176
     1
290
     1
176
     1
290
     1
176
     1
290
     0
176
     1
290
     0
176
     1
290
     0
176
     1
290
     0
176
     1
290
     0
176
     1
290
     0
176
     1
 90
       50
176
     1
 40
0.0
176
     1
 40
1.0
176
     1
 90
        0
176
     1
 62
    18
420
        0
176
     1
 90
       50
176
     1
 90
        3
176
     1
 62
     5
420
      255
176
     1
290
     0
176
     1
 90
       50
176
     1
 90
       50
176
     1
 90
       50
176
     1
290
     0
176
     1
 90
       50
176
     1
 62
   256
176
     0
 40
1.0
176
     0
 90
        2
176
     1
  1
strokes_ogs.tif
176
     1
290
     0
176
     1
 40
1.0
176
     1
 40
1.0
176
     1
  0
VISUALSTYLE
  5
187
102
{ACAD_REACTORS
330
172
102
}
330
172
100
AcDbVisualStyle
  2
Shaded
 70
    27
177
     3
291
     0
 70
    58
 90
        2
176
     1
 90
        2
176
     1
 90
        1
176
     1
 90
        2
176
     1
 40
0.6
176
     1
 40
30.0
176
     1
 62
     7
420
 16777215
176
     1
 90
        0
176
     1
 90
        4
176
     1
 62
     7
176
     1
 62
   257
176
     1
 90
        1
176
     1
 90
        1
176
     1
 40
1.0
176
     1
 90
        8
176
     1
 62
   257
176
     1
 40
1.0
176
     1
 90
        1
176
     1
 90
        6
176
     1
 90
        2
176
     1
 62
     8
420
  7895160
176
     1
 90
        3
176
     1
 90
        0
176
     1
 90
        0
176
     1
290
     0
176
     1
 90
        5
176
     1
 40
0.0
176
     1
 90
        0
176
     1
290
     0
176
     1
290
     1
176
     1
290
     1
176
     1
290
     0
176
     1
290
     0
176
     1
290
     0
176
     1
290
     0
176
     1
290
     0
176
     1
290
     0
176
     1
 90
       50
176
     1
 40
0.0
176
     1
 40
1.0
176
     1
 90
        0
176
     1
 62
    18
420
        0
176
     1
 90
       50
176
     1
 90
        3
176
     1
 62
     5
420
      255
176
     1
290
     0
176
     1
 90
       50
176
     1
 90
       50
176
     1
 90
       50
176
     1
290
     0
176
     1
 90
       50
176
     1
 62
   256
176
     0
 40
1.0
176
     0
 90
        2
176
     1
  1
strokes_ogs.tif
176
     1
290
     0
176
     1
 40
1.0
176
     1
 40
1.0
176
     1
  0
VISUALSTYLE
  5
186
102
{ACAD_REACTORS
330
172
102
}
330
172
100
AcDbVisualStyle
  2
Shaded with edges
 70
    26
177
     3
291
     0
 70
    58
 90
        2
176
     1
 90
        2
176
     1
 90
        1
176
     1
 90
        2
176
     1
 40
0.6
176
     1
 40
30.0
176
     1
 62
     7
420
 16777215
176
     1
 90
        1
176
     1
 90
        2
176
     1
 62
     7
176
     1
 62
   257
176
     1
 90
        2
176
     1
 90
        1
176
     1
 40
1.0
176
     1
 90
        8
176
     1
 62
   257
176
     1
 40
1.0
176
     1
 90
        1
176
     1
 90
        6
176
     1
 90
        2
176
     1
 62
     7
176
     1
 90
        3
176
     1
 90
        0
176
     1
 90
        0
176
     1
290
     0
176
     1
 90
        5
176
     1
 40
0.0
176
     1
 90
        0
176
     1
290
     0
176
     1
290
     1
176
     1
290
     1
176
     1
290
     0
176
     1
290
     0
176
     1
290
     0
176
     1
290
     0
176
     1
290
     0
176
     1
290
     0
176
     1
 90
       50
176
     1
 40
0.0
176
     1
 40
1.0
176
     1
 90
        0
176
     1
 62
    18
420
        0
176
     1
 90
       50
176
     1
 90
        3
176
     1
 62
     5
420
      255
176
     1
290
     0
176
     1
 90
       50
176
     1
 90
       50
176
     1
 90
       50
176
     1
290
     0
176
     1
 90
       50
176
     1
 62
   256
176
     0
 40
1.0
176
     0
 90
        2
176
     1
  1
strokes_ogs.tif
176
     1
290
     0
176
     1
 40
1.0
176
     1
 40
1.0
176
     1
  0
VISUALSTYLE
  5
183
102
{ACAD_REACTORS
330
172
102
}
330
172
100
AcDbVisualStyle
  2
Shades of Gray
 70
    23
177
     3
291
     0
 70
    58
 90
        2
176
     1
 90
        2
176
     1
 90
        3
176
     1
 90
        0
176
     1
 40
0.6
176
     1
 40
30.0
176
     1
 62
     7
420
 16777215
176
     1
 90
        2
176
     1
 90
        2
176
     1
 62
     7
176
     1
 62
     7
176
     1
 90
        1
176
     1
 90
        1
176
     1
 40
40.0
176
     1
 90
        8
176
     1
 62
     7
176
     1
 40
1.0
176
     1
 90
        1
176
     1
 90
        6
176
     1
 90
        2
176
     1
 62
     7
176
     1
 90
        3
176
     1
 90
        0
176
     1
 90
        0
176
     1
290
     0
176
     1
 90
        1
176
     1
 40
0.0
176
     1
 90
        0
176
     1
290
     0
176
     1
290
     1
176
     1
290
     1
176
     1
290
     0
176
     1
290
     0
176
     1
290
     0
176
     1
290
     0
176
     1
290
     0
176
     1
290
     0
176
     1
 90
       50
176
     1
 40
0.0
176
     1
 40
1.0
176
     1
 90
        0
176
     1
 62
    18
420
        0
176
     1
 90
       50
176
     1
 90
        3
176
     1
 62
     5
420
      255
176
     1
290
     0
176
     1
 90
       50
176
     1
 90
       50
176
     1
 90
       50
176
     1
290
     0
176
     1
 90
       50
176
     1
 62
   256
176
     0
 40
1.0
176
     0
 90
        2
176
     1
  1
strokes_ogs.tif
176
     1
290
     0
176
     1
 40
1.0
176
     1
 40
1.0
176
     1
  0
VISUALSTYLE
  5
184
102
{ACAD_REACTORS
330
172
102
}
330
172
100
AcDbVisualStyle
  2
Sketchy
 70
    24
177
     3
291
     0
 70
    58
 90
        1
176
     1
 90
        2
176
     1
 90
        2
176
     1
 90
        0
176
     1
 40
0.6
176
     1
 40
30.0
176
     1
 62
     7
420
 16777215
176
     1
 90
        2
176
     1
 90
        2
176
     1
 62
     7
176
     1
 62
     7
176
     1
 90
        1
176
     1
 90
        1
176
     1
 40
40.0
176
     1
 90
       11
176
     1
 62
     7
176
     1
 40
1.0
176
     1
 90
        1
176
     1
 90
        6
176
     1
 90
        2
176
     1
 62
     7
176
     1
 90
        6
176
     1
 90
        0
176
     1
 90
        0
176
     1
290
     0
176
     1
 90
        1
176
     1
 40
0.0
176
     1
 90
        0
176
     1
290
     0
176
     1
290
     1
176
     1
290
     1
176
     1
290
     0
176
     1
290
     0
176
     1
290
     0
176
     1
290
     0
176
     1
290
     0
176
     1
290
     0
176
     1
 90
       50
176
     1
 40
0.0
176
     1
 40
1.0
176
     1
 90
        0
176
     1
 62
    18
420
        0
176
     1
 90
       50
176
     1
 90
        3
176
     1
 62
     5
420
      255
176
     1
290
     0
176
     1
 90
       50
176
     1
 90
       50
176
     1
 90
       50
176
     1
290
     0
176
     1
 90
       50
176
     1
 62
   256
176
     0
 40
1.0
176
     0
 90
        2
176
     1
  1
strokes_ogs.tif
176
     1
290
     0
176
     1
 40
1.0
176
     1
 40
1.0
176
     1
  0
VISUALSTYLE
  5
17F
102
{ACAD_REACTORS
330
172
102
}
330
172
100
AcDbVisualStyle
  2
Thicken
 70
    13
177
     3
291
     1
 70
    58
 90
        2
176
     1
 90
        2
176
     1
 90
        0
176
     1
 90
        0
176
     1
 40
0.6
176
     1
 40
30.0
176
     1
 62
     7
420
 16777215
176
     1
 90
        1
176
     1
 90
        4
176
     1
 62
     7
176
     1
 62
   257
176
     1
 90
        1
176
     1
 90
        1
176
     1
 40
1.0
176
     1
 90
       12
176
     1
 62
     7
176
     1
 40
1.0
176
     1
 90
        1
176
     1
 90
        6
176
     1
 90
        2
176
     1
 62
     7
176
     1
 90
        5
176
     1
 90
        0
176
     1
 90
        0
176
     1
290
     0
176
     1
 90
        1
176
     1
 40
0.0
176
     1
 90
        0
176
     1
290
     0
176
     1
290
     1
176
     1
290
     1
176
     1
290
     0
176
     1
290
     0
176
     1
290
     0
176
     1
290
     0
176
     1
290
     0
176
     1
290
     0
176
     1
 90
       50
176
     1
 40
0.0
176
     1
 40
1.0
176
     1
 90
        0
176
     1
 62
    18
420
        0
176
     1
 90
       50
176
     1
 90
        3
176
     1
 62
     5
420
      255
176
     1
290
     0
176
     1
 90
       50
176
     1
 90
       50
176
     1
 90
       50
176
     1
290
     0
176
     1
 90
       50
176
     1
 62
   256
176
     0
 40
1.0
176
     0
 90
        2
176
     1
  1
strokes_ogs.tif
176
     1
290
     0
176
     1
 40
1.0
176
     1
 40
1.0
176
     1
  0
VISUALSTYLE
  5
179
102
{ACAD_REACTORS
330
172
102
}
330
172
100
AcDbVisualStyle
  2
Wireframe
 70
     5
177
     3
291
     0
 70
    58
 90
        0
176
     1
 90
        2
176
     1
 90
        0
176
     1
 90
        0
176
     1
 40
0.6
176
     1
 40
30.0
176
     1
 62
     7
420
 16777215
176
     1
 90
        1
176
     1
 90
        4
176
     1
 62
     7
176
     1
 62
   257
176
     1
 90
        1
176
     1
 90
        1
176
     1
 40
1.0
176
     1
 90
        0
176
     1
 62
   257
176
     1
 40
1.0
176
     1
 90
        1
176
     1
 90
        6
176
     1
 90
        2
176
     1
 62
     7
176
     1
 90
        3
176
     1
 90
        0
176
     1
 90
        0
176
     1
290
     0
176
     1
 90
        1
176
     1
 40
0.0
176
     1
 90
        0
176
     1
290
     0
176
     1
290
     1
176
     1
290
     1
176
     1
290
     0
176
     1
290
     0
176
     1
290
     0
176
     1
290
     0
176
     1
290
     0
176
     1
290
     0
176
     1
 90
       50
176
     1
 40
0.0
176
     1
 40
1.0
176
     1
 90
        0
176
     1
 62
    18
420
        0
176
     1
 90
       50
176
     1
 90
        3
176
     1
 62
     5
420
      255
176
     1
290
     0
176
     1
 90
       50
176
     1
 90
       50
176
     1
 90
       50
176
     1
290
     0
176
     1
 90
       50
176
     1
 62
   256
176
     0
 40
1.0
176
     0
 90
        2
176
     1
  1
strokes_ogs.tif
176
     1
290
     0
176
     1
 40
1.0
176
     1
 40
1.0
176
     1
  0
VISUALSTYLE
  5
185
102
{ACAD_REACTORS
330
172
102
}
330
172
100
AcDbVisualStyle
  2
X-Ray
 70
    25
177
     3
291
     0
 70
    58
 90
        2
176
     1
 90
        2
176
     1
 90
        1
176
     1
 90
        1
176
     1
 40
0.5
176
     1
 40
30.0
176
     1
 62
     7
420
 16777215
176
     1
 90
        1
176
     1
 90
        0
176
     1
 62
     7
176
     1
 62
   257
176
     1
 90
        1
176
     1
 90
        1
176
     1
 40
1.0
176
     1
 90
        8
176
     1
 62
     7
176
     1
 40
1.0
176
     1
 90
        1
176
     1
 90
        6
176
     1
 90
        2
176
     1
 62
     7
176
     1
 90
        3
176
     1
 90
        0
176
     1
 90
        0
176
     1
290
     0
176
     1
 90
       13
176
     1
 40
0.0
176
     1
 90
        0
176
     1
290
     0
176
     1
290
     1
176
     1
290
     1
176
     1
290
     0
176
     1
290
     0
176
     1
290
     0
176
     1
290
     0
176
     1
290
     0
176
     1
290
     0
176
     1
 90
       50
176
     1
 40
0.0
176
     1
 40
1.0
176
     1
 90
        0
176
     1
 62
    18
420
        0
176
     1
 90
       50
176
     1
 90
        3
176
     1
 62
     5
420
      255
176
     1
290
     0
176
     1
 90
       50
176
     1
 90
       50
176
     1
 90
       50
176
     1
290
     0
176
     1
 90
       50
176
     1
 62
   256
176
     0
 40
1.0
176
     0
 90
        2
176
     1
  1
strokes_ogs.tif
176
     1
290
     0
176
     1
 40
1.0
176
     1
 40
1.0
176
     1
  0
DICTIONARYVAR
  5
28A
102
{ACAD_REACTORS
330
284
102
}
330
284
100
DictionaryVariables
280
     0
  1
1:1
  0
DICTIONARYVAR
  5
286
102
{ACAD_REACTORS
330
284
102
}
330
284
100
DictionaryVariables
280
     0
  1
STANDARD
  0
DICTIONARYVAR
  5
285
102
{ACAD_REACTORS
330
284
102
}
330
284
100
DictionaryVariables
280
     0
  1
STANDARD
  0
DICTIONARYVAR
  5
287
102
{ACAD_REACTORS
330
284
102
}
330
284
100
DictionaryVariables
280
     0
  1
Metric50
  0
DICTIONARYVAR
  5
288
102
{ACAD_REACTORS
330
284
102
}
330
284
100
DictionaryVariables
280
     0
  1
Metric50
  0
DICTIONARYVAR
  5
28C
102
{ACAD_REACTORS
330
284
102
}
330
284
100
DictionaryVariables
280
     0
  1
1
  0
DICTIONARYVAR
  5
28D
102
{ACAD_REACTORS
330
284
102
}
330
284
100
DictionaryVariables
280
     0
  1
15
  0
DICTIONARYVAR
  5
28B
102
{ACAD_REACTORS
330
284
102
}
330
284
100
DictionaryVariables
280
     0
  1
0
  0
DICTIONARYVAR
  5
289
102
{ACAD_REACTORS
330
284
102
}
330
284
100
DictionaryVariables
280
     0
  1
0
  0
DICTIONARY
  5
241
102
{ACAD_REACTORS
330
240
102
}
330
240
100
AcDbDictionary
281
     1
  3
*A1
350
242
  0
DICTIONARY
  5
233
102
{ACAD_REACTORS
330
232
102
}
330
232
100
AcDbDictionary
281
     1
  3
*A1
350
234
  0
DICTIONARY
  5
225
102
{ACAD_REACTORS
330
224
102
}
330
224
100
AcDbDictionary
281
     1
  3
*A1
350
226
  0
DICTIONARY
  5
209
102
{ACAD_REACTORS
330
208
102
}
330
208
100
AcDbDictionary
281
     1
  3
*A1
350
20A
  0
DICTIONARY
  5
1FB
102
{ACAD_REACTORS
330
1FA
102
}
330
1FA
100
AcDbDictionary
281
     1
  3
*A1
350
1FC
  0
DICTIONARY
  5
1ED
102
{ACAD_REACTORS
330
1EC
102
}
330
1EC
100
AcDbDictionary
281
     1
  3
*A1
350
1EE
  0
DICTIONARY
  5
26B
102
{ACAD_REACTORS
330
26A
102
}
330
26A
100
AcDbDictionary
281
     1
  3
*A1
350
26C
  0
DICTIONARY
  5
25D
102
{ACAD_REACTORS
330
25C
102
}
330
25C
100
AcDbDictionary
281
     1
  3
*A1
350
25E
  0
DICTIONARY
  5
24F
102
{ACAD_REACTORS
330
24E
102
}
330
24E
100
AcDbDictionary
281
     1
  3
*A1
350
250
  0
DICTIONARY
  5
217
102
{ACAD_REACTORS
330
216
102
}
330
216
100
AcDbDictionary
281
     1
  3
*A1
350
218
  0
DICTIONARY
  5
163
330
162
100
AcDbDictionary
280
     1
281
     1
  3
BUMPTILE
360
165
  3
DIFFUSETILE
360
164
  3
OPACITYTILE
360
168
  3
REFLECTIONTILE
360
167
  3
REFRACTIONTILE
360
169
  3
SPECULARTILE
360
166
  0
DICTIONARY
  5
15B
330
15A
100
AcDbDictionary
280
     1
281
     1
  3
BUMPTILE
360
15D
  3
DIFFUSETILE
360
15C
  3
OPACITYTILE
360
160
  3
REFLECTIONTILE
360
15F
  3
REFRACTIONTILE
360
161
  3
SPECULARTILE
360
15E
  0
DICTIONARY
  5
16B
330
16A
100
AcDbDictionary
280
     1
281
     1
  3
BUMPTILE
360
16D
  3
DIFFUSETILE
360
16C
  3
OPACITYTILE
360
170
  3
REFLECTIONTILE
360
16F
  3
REFRACTIONTILE
360
171
  3
SPECULARTILE
360
16E
  0
DICTIONARY
  5
28E
330
18D
100
AcDbDictionary
280
     1
281
     1
  3
ACAD_ROUNDTRIP_2008_TABLESTYLE_CELLSTYLEMAP
360
28F
  0
ACDB_ALDIMOBJECTCONTEXTDATA_CLASS
  5
242
102
{ACAD_REACTORS
330
241
102
}
330
241
100
AcDbObjectContextData
 70
     4
290
     1
100
AcDbAnnotScaleObjectContextData
340
48
100
AcDbDimensionObjectContextData
  2
*D22
293
     0
 10
401.8843742102999
 20
-55.456271824
294
     0
140
0.0
298
     0
291
     0
 70
     0
292
     0
 71
     0
280
     0
295
     0
296
     0
297
     0
100
AcDbAlignedDimensionObjectContextData
 11
401.8843742103
 21
-100.8740946112
 31
0.0
  0
ACDB_ALDIMOBJECTCONTEXTDATA_CLASS
  5
234
102
{ACAD_REACTORS
330
233
102
}
330
233
100
AcDbObjectContextData
 70
     4
290
     1
100
AcDbAnnotScaleObjectContextData
340
48
100
AcDbDimensionObjectContextData
  2
*D21
293
     0
 10
577.8843742102999
 20
-12.3390646076
294
     0
140
0.0
298
     0
291
     0
 70
     0
292
     0
 71
     0
280
     0
295
     0
296
     0
297
     0
100
AcDbAlignedDimensionObjectContextData
 11
577.8843742103
 21
-55.67704606360002
 31
0.0
  0
ACDB_ALDIMOBJECTCONTEXTDATA_CLASS
  5
226
102
{ACAD_REACTORS
330
225
102
}
330
225
100
AcDbObjectContextData
 70
     4
290
     1
100
AcDbAnnotScaleObjectContextData
340
48
100
AcDbDimensionObjectContextData
  2
*D20
293
     0
 10
472.9920364095
 20
-126.3332345767
294
     0
140
0.0
298
     0
291
     0
 70
     0
292
     0
 71
     0
280
     0
295
     0
296
     0
297
     0
100
AcDbAlignedDimensionObjectContextData
 11
447.7843742102999
 21
-126.3332345767
 31
0.0
  0
ACDB_ALDIMOBJECTCONTEXTDATA_CLASS
  5
20A
102
{ACAD_REACTORS
330
209
102
}
330
209
100
AcDbObjectContextData
 70
     4
290
     1
100
AcDbAnnotScaleObjectContextData
340
48
100
AcDbDimensionObjectContextData
  2
*D18
293
     0
 10
129.6948355097
 20
-128.8740946112
294
     0
140
0.0
298
     0
291
     0
 70
     0
292
     0
 71
     0
280
     0
295
     0
296
     0
297
     0
100
AcDbAlignedDimensionObjectContextData
 11
34.5184650811
 21
-128.8740946112
 31
0.0
  0
ACDB_ALDIMOBJECTCONTEXTDATA_CLASS
  5
1FC
102
{ACAD_REACTORS
330
1FB
102
}
330
1FB
100
AcDbObjectContextData
 70
     4
290
     1
100
AcDbAnnotScaleObjectContextData
340
48
100
AcDbDimensionObjectContextData
  2
*D17
293
     0
 10
-26.4815349189
 20
57.4026897202
294
     0
140
0.0
298
     0
291
     0
 70
     0
292
     0
 71
     0
280
     0
295
     0
296
     0
297
     0
100
AcDbAlignedDimensionObjectContextData
 11
-26.48153491889999
 21
-100.8740946112
 31
0.0
  0
ACDB_ALDIMOBJECTCONTEXTDATA_CLASS
  5
1EE
102
{ACAD_REACTORS
330
1ED
102
}
330
1ED
100
AcDbObjectContextData
 70
     4
290
     1
100
AcDbAnnotScaleObjectContextData
340
48
100
AcDbDimensionObjectContextData
  2
*D16
293
     0
 10
273.6334590041
 20
20.02598193
294
     0
140
0.0
298
     0
291
     0
 70
     0
292
     0
 71
     0
280
     0
295
     0
296
     0
297
     0
100
AcDbAlignedDimensionObjectContextData
 11
273.6334590041
 21
149.2591549695
 31
0.0
  0
ACDB_ALDIMOBJECTCONTEXTDATA_CLASS
  5
26C
102
{ACAD_REACTORS
330
26B
102
}
330
26B
100
AcDbObjectContextData
 70
     4
290
     1
100
AcDbAnnotScaleObjectContextData
340
48
100
AcDbDimensionObjectContextData
  2
*D25
293
     0
 10
-26.4815349189
 20
367.2942765992
294
     0
140
0.0
298
     0
291
     0
 70
     0
292
     0
 71
     0
280
     0
295
     0
296
     0
297
     0
100
AcDbAlignedDimensionObjectContextData
 11
-26.4815349189001
 21
305.4984074872002
 31
0.0
  0
ACDB_ALDIMOBJECTCONTEXTDATA_CLASS
  5
25E
102
{ACAD_REACTORS
330
25D
102
}
330
25D
100
AcDbObjectContextData
 70
     4
290
     1
100
AcDbAnnotScaleObjectContextData
340
48
100
AcDbDimensionObjectContextData
  2
*D24
293
     0
 10
32.3683380716
 20
448.3370878527
294
     0
140
0.0
298
     0
291
     0
 70
     0
292
     0
 71
     0
280
     0
295
     0
296
     0
297
     0
100
AcDbAlignedDimensionObjectContextData
 11
12.0309025979
 21
448.3370878527
 31
0.0
  0
ACDB_ALDIMOBJECTCONTEXTDATA_CLASS
  5
250
102
{ACAD_REACTORS
330
24F
102
}
330
24F
100
AcDbObjectContextData
 70
     4
290
     1
100
AcDbAnnotScaleObjectContextData
340
48
100
AcDbDimensionObjectContextData
  2
*D23
293
     0
 10
-14.99682029290447
 20
387.9484074872001
294
     1
140
0.0
298
     0
291
     0
 70
     0
292
     0
 71
     0
280
     0
295
     0
296
     0
297
     0
100
AcDbAlignedDimensionObjectContextData
 11
-4.330153626237925
 21
425.4984074872003
 31
0.0
  0
ACDB_ALDIMOBJECTCONTEXTDATA_CLASS
  5
218
102
{ACAD_REACTORS
330
217
102
}
330
217
100
AcDbObjectContextData
 70
     4
290
     1
100
AcDbAnnotScaleObjectContextData
340
48
100
AcDbDimensionObjectContextData
  2
*D19
293
     0
 10
607.7120077893978
 20
-67.02557033740018
294
     1
140
0.0
298
     0
291
     0
 70
     0
292
     0
 71
     0
280
     0
295
     0
296
     0
297
     0
100
AcDbAlignedDimensionObjectContextData
 11
597.0453411227313
 21
-33.17704606359999
 31
0.0
  0
XRECORD
  5
165
102
{ACAD_REACTORS
330
163
102
}
330
163
100
AcDbXrecord
280
     1
270
     1
271
     1
  0
XRECORD
  5
164
102
{ACAD_REACTORS
330
163
102
}
330
163
100
AcDbXrecord
280
     1
270
     1
271
     1
  0
XRECORD
  5
168
102
{ACAD_REACTORS
330
163
102
}
330
163
100
AcDbXrecord
280
     1
270
     1
271
     1
  0
XRECORD
  5
167
102
{ACAD_REACTORS
330
163
102
}
330
163
100
AcDbXrecord
280
     1
270
     1
271
     1
  0
XRECORD
  5
169
102
{ACAD_REACTORS
330
163
102
}
330
163
100
AcDbXrecord
280
     1
270
     1
271
     1
  0
XRECORD
  5
166
102
{ACAD_REACTORS
330
163
102
}
330
163
100
AcDbXrecord
280
     1
270
     1
271
     1
  0
XRECORD
  5
15D
102
{ACAD_REACTORS
330
15B
102
}
330
15B
100
AcDbXrecord
280
     1
270
     1
271
     1
  0
XRECORD
  5
15C
102
{ACAD_REACTORS
330
15B
102
}
330
15B
100
AcDbXrecord
280
     1
270
     1
271
     1
  0
XRECORD
  5
160
102
{ACAD_REACTORS
330
15B
102
}
330
15B
100
AcDbXrecord
280
     1
270
     1
271
     1
  0
XRECORD
  5
15F
102
{ACAD_REACTORS
330
15B
102
}
330
15B
100
AcDbXrecord
280
     1
270
     1
271
     1
  0
XRECORD
  5
161
102
{ACAD_REACTORS
330
15B
102
}
330
15B
100
AcDbXrecord
280
     1
270
     1
271
     1
  0
XRECORD
  5
15E
102
{ACAD_REACTORS
330
15B
102
}
330
15B
100
AcDbXrecord
280
     1
270
     1
271
     1
  0
XRECORD
  5
16D
102
{ACAD_REACTORS
330
16B
102
}
330
16B
100
AcDbXrecord
280
     1
270
     1
271
     1
  0
XRECORD
  5
16C
102
{ACAD_REACTORS
330
16B
102
}
330
16B
100
AcDbXrecord
280
     1
270
     1
271
     1
  0
XRECORD
  5
170
102
{ACAD_REACTORS
330
16B
102
}
330
16B
100
AcDbXrecord
280
     1
270
     1
271
     1
  0
XRECORD
  5
16F
102
{ACAD_REACTORS
330
16B
102
}
330
16B
100
AcDbXrecord
280
     1
270
     1
271
     1
  0
XRECORD
  5
171
102
{ACAD_REACTORS
330
16B
102
}
330
16B
100
AcDbXrecord
280
     1
270
     1
271
     1
  0
XRECORD
  5
16E
102
{ACAD_REACTORS
330
16B
102
}
330
16B
100
AcDbXrecord
280
     1
270
     1
271
     1
  0
CELLSTYLEMAP
  5
28F
102
{ACAD_REACTORS
330
28E
102
}
330
28E
100
AcDbCellStyleMap
 90
        3
300
CELLSTYLE
  1
TABLEFORMAT_BEGIN
 90
        5
170
     1
 91
        0
 92
    32768
 62
   257
 93
        1
300
CONTENTFORMAT
  1
CONTENTFORMAT_BEGIN
 90
        0
 91
        0
 92
      512
 93
        0
300

 40
0.0
140
1.0
 94
        5
 62
     0
340
11
144
6.0
309
CONTENTFORMAT_END
171
     1
301
MARGIN
  1
CELLMARGIN_BEGIN
 40
1.5
 40
1.5
 40
1.5
 40
1.5
 40
4.5
 40
4.5
309
CELLMARGIN_END
 94
        6
 95
        1
302
GRIDFORMAT
  1
GRIDFORMAT_BEGIN
 90
        0
 91
        1
 62
     0
 92
       -2
340
0
 93
        0
 40
1.125
309
GRIDFORMAT_END
 95
        2
302
GRIDFORMAT
  1
GRIDFORMAT_BEGIN
 90
        0
 91
        1
 62
     0
 92
       -2
340
0
 93
        0
 40
1.125
309
GRIDFORMAT_END
 95
        4
302
GRIDFORMAT
  1
GRIDFORMAT_BEGIN
 90
        0
 91
        1
 62
     0
 92
       -2
340
0
 93
        0
 40
1.125
309
GRIDFORMAT_END
 95
        8
302
GRIDFORMAT
  1
GRIDFORMAT_BEGIN
 90
        0
 91
        1
 62
     0
 92
       -2
340
0
 93
        0
 40
1.125
309
GRIDFORMAT_END
 95
       16
302
GRIDFORMAT
  1
GRIDFORMAT_BEGIN
 90
        0
 91
        1
 62
     0
 92
       -2
340
0
 93
        0
 40
1.125
309
GRIDFORMAT_END
 95
       32
302
GRIDFORMAT
  1
GRIDFORMAT_BEGIN
 90
        0
 91
        1
 62
     0
 92
       -2
340
0
 93
        0
 40
1.125
309
GRIDFORMAT_END
309
TABLEFORMAT_END
  1
CELLSTYLE_BEGIN
 90
        1
 91
        1
300
_TITLE
309
CELLSTYLE_END
300
CELLSTYLE
  1
TABLEFORMAT_BEGIN
 90
        5
170
     1
 91
        0
 92
        0
 62
   257
 93
        1
300
CONTENTFORMAT
  1
CONTENTFORMAT_BEGIN
 90
        0
 91
        0
 92
      512
 93
        0
300

 40
0.0
140
1.0
 94
        5
 62
     0
340
11
144
4.5
309
CONTENTFORMAT_END
171
     1
301
MARGIN
  1
CELLMARGIN_BEGIN
 40
1.5
 40
1.5
 40
1.5
 40
1.5
 40
4.5
 40
4.5
309
CELLMARGIN_END
 94
        6
 95
        1
302
GRIDFORMAT
  1
GRIDFORMAT_BEGIN
 90
        0
 91
        1
 62
     0
 92
       -2
340
0
 93
        0
 40
1.125
309
GRIDFORMAT_END
 95
        2
302
GRIDFORMAT
  1
GRIDFORMAT_BEGIN
 90
        0
 91
        1
 62
     0
 92
       -2
340
0
 93
        0
 40
1.125
309
GRIDFORMAT_END
 95
        4
302
GRIDFORMAT
  1
GRIDFORMAT_BEGIN
 90
        0
 91
        1
 62
     0
 92
       -2
340
0
 93
        0
 40
1.125
309
GRIDFORMAT_END
 95
        8
302
GRIDFORMAT
  1
GRIDFORMAT_BEGIN
 90
        0
 91
        1
 62
     0
 92
       -2
340
0
 93
        0
 40
1.125
309
GRIDFORMAT_END
 95
       16
302
GRIDFORMAT
  1
GRIDFORMAT_BEGIN
 90
        0
 91
        1
 62
     0
 92
       -2
340
0
 93
        0
 40
1.125
309
GRIDFORMAT_END
 95
       32
302
GRIDFORMAT
  1
GRIDFORMAT_BEGIN
 90
        0
 91
        1
 62
     0
 92
       -2
340
0
 93
        0
 40
1.125
309
GRIDFORMAT_END
309
TABLEFORMAT_END
  1
CELLSTYLE_BEGIN
 90
        2
 91
        1
300
_HEADER
309
CELLSTYLE_END
300
CELLSTYLE
  1
TABLEFORMAT_BEGIN
 90
        5
170
     1
 91
        0
 92
        0
 62
   257
 93
        1
300
CONTENTFORMAT
  1
CONTENTFORMAT_BEGIN
 90
        0
 91
        0
 92
      512
 93
        0
300

 40
0.0
140
1.0
 94
        2
 62
     0
340
11
144
4.5
309
CONTENTFORMAT_END
171
     1
301
MARGIN
  1
CELLMARGIN_BEGIN
 40
1.5
 40
1.5
 40
1.5
 40
1.5
 40
4.5
 40
4.5
309
CELLMARGIN_END
 94
        6
 95
        1
302
GRIDFORMAT
  1
GRIDFORMAT_BEGIN
 90
        0
 91
        1
 62
     0
 92
       -2
340
0
 93
        0
 40
1.125
309
GRIDFORMAT_END
 95
        2
302
GRIDFORMAT
  1
GRIDFORMAT_BEGIN
 90
        0
 91
        1
 62
     0
 92
       -2
340
0
 93
        0
 40
1.125
309
GRIDFORMAT_END
 95
        4
302
GRIDFORMAT
  1
GRIDFORMAT_BEGIN
 90
        0
 91
        1
 62
     0
 92
       -2
340
0
 93
        0
 40
1.125
309
GRIDFORMAT_END
 95
        8
302
GRIDFORMAT
  1
GRIDFORMAT_BEGIN
 90
        0
 91
        1
 62
     0
 92
       -2
340
0
 93
        0
 40
1.125
309
GRIDFORMAT_END
 95
       16
302
GRIDFORMAT
  1
GRIDFORMAT_BEGIN
 90
        0
 91
        1
 62
     0
 92
       -2
340
0
 93
        0
 40
1.125
309
GRIDFORMAT_END
 95
       32
302
GRIDFORMAT
  1
GRIDFORMAT_BEGIN
 90
        0
 91
        1
 62
     0
 92
       -2
340
0
 93
        0
 40
1.125
309
GRIDFORMAT_END
309
TABLEFORMAT_END
  1
CELLSTYLE_BEGIN
 90
        3
 91
        2
300
_DATA
309
CELLSTYLE_END
  0
ENDSEC
  0
EOF
