  0
SECTION
  2
HEADER
  9
$ACADVER
  1
AC1032
  9
$ACADMAINTVER
 90
      174
  9
$DWGCODEPAGE
  3
ANSI_1252
  9
$LASTSAVEDBY
  1
pengb
  9
$REQUIREDVERSIONS
160
                 0
  9
$INSBASE
 10
0.0
 20
0.0
 30
0.0
  9
$EXTMIN
 10
-36.63972642283333
 20
-79.909100942
 30
0.0
  9
$EXTMAX
 10
736.140822600097
 20
429.5893953963999
 30
0.0
  9
$LIMMIN
 10
0.0
 20
0.0
  9
$LIMMAX
 10
420.0
 20
297.0
  9
$ORTHOMODE
 70
     0
  9
$REGENMODE
 70
     1
  9
$FILLMODE
 70
     1
  9
$QTEXTMODE
 70
     0
  9
$MIRRTEXT
 70
     1
  9
$LTSCALE
 40
1.0
  9
$ATTMODE
 70
     1
  9
$TEXTSIZE
 40
3.5
  9
$TRACEWID
 40
1.0
  9
$TEXTSTYLE
  7
Standard
  9
$CLAYER
  8
0
  9
$CELTYPE
  6
ByLayer
  9
$CECOLOR
 62
   256
  9
$CELTSCALE
 40
1.0
  9
$DISPSILH
 70
     0
  9
$DIMSCALE
 40
1.0
  9
$DIMASZ
 40
3.302
  9
$DIMEXO
 40
1.0
  9
$DIMDLI
 40
3.75
  9
$DIMRND
 40
0.0
  9
$DIMDLE
 40
0.0
  9
$DIMEXE
 40
1.0
  9
$DIMTP
 40
0.0
  9
$DIMTM
 40
0.0
  9
$DIMTXT
 40
3.5
  9
$DIMCEN
 40
2.5
  9
$DIMTSZ
 40
0.0
  9
$DIMTOL
 70
     0
  9
$DIMLIM
 70
     0
  9
$DIMTIH
 70
     1
  9
$DIMTOH
 70
     1
  9
$DIMSE1
 70
     0
  9
$DIMSE2
 70
     0
  9
$DIMTAD
 70
     1
  9
$DIMZIN
 70
     1
  9
$DIMBLK
  1

  9
$DIMASO
 70
     1
  9
$DIMSHO
 70
     1
  9
$DIMPOST
  1

  9
$DIMAPOST
  1

  9
$DIMALT
 70
     0
  9
$DIMALTD
 70
     3
  9
$DIMALTF
 40
0.0393700787
  9
$DIMLFAC
 40
5.0
  9
$DIMTOFL
 70
     1
  9
$DIMTVP
 40
0.0
  9
$DIMTIX
 70
     0
  9
$DIMSOXD
 70
     0
  9
$DIMSAH
 70
     0
  9
$DIMBLK1
  1

  9
$DIMBLK2
  1

  9
$DIMSTYLE
  2
ISO-25
  9
$DIMCLRD
 70
     0
  9
$DIMCLRE
 70
     0
  9
$DIMCLRT
 70
     0
  9
$DIMTFAC
 40
1.0
  9
$DIMGAP
 40
1.524
  9
$DIMJUST
 70
     0
  9
$DIMSD1
 70
     0
  9
$DIMSD2
 70
     0
  9
$DIMTOLJ
 70
     0
  9
$DIMTZIN
 70
     1
  9
$DIMALTZ
 70
     0
  9
$DIMALTTZ
 70
     0
  9
$DIMUPT
 70
     0
  9
$DIMDEC
 70
     2
  9
$DIMTDEC
 70
     2
  9
$DIMALTU
 70
     2
  9
$DIMALTTD
 70
     3
  9
$DIMTXSTY
  7
Standard
  9
$DIMAUNIT
 70
     0
  9
$DIMADEC
 70
     2
  9
$DIMALTRND
 40
0.0
  9
$DIMAZIN
 70
     0
  9
$DIMDSEP
 70
    44
  9
$DIMATFIT
 70
     3
  9
$DIMFRAC
 70
     0
  9
$DIMLDRBLK
  1

  9
$DIMLUNIT
 70
     2
  9
$DIMLWD
 70
    -2
  9
$DIMLWE
 70
    -2
  9
$DIMTMOVE
 70
     0
  9
$DIMFXL
 40
1.0
  9
$DIMFXLON
 70
     0
  9
$DIMJOGANG
 40
0.7853981633974483
  9
$DIMTFILL
 70
     0
  9
$DIMTFILLCLR
 70
     0
  9
$DIMARCSYM
 70
     0
  9
$DIMLTYPE
  6

  9
$DIMLTEX1
  6

  9
$DIMLTEX2
  6

  9
$DIMTXTDIRECTION
 70
     0
  9
$LUNITS
 70
     2
  9
$LUPREC
 70
     2
  9
$SKETCHINC
 40
1.0
  9
$FILLETRAD
 40
10.0
  9
$AUNITS
 70
     0
  9
$AUPREC
 70
     2
  9
$MENU
  1
.
  9
$ELEVATION
 40
0.0
  9
$PELEVATION
 40
0.0
  9
$THICKNESS
 40
0.0
  9
$LIMCHECK
 70
     0
  9
$CHAMFERA
 40
0.0
  9
$CHAMFERB
 40
0.0
  9
$CHAMFERC
 40
0.0
  9
$CHAMFERD
 40
0.0
  9
$SKPOLY
 70
     0
  9
$TDCREATE
 40
2459982.646168982
  9
$TDUCREATE
 40
2459982.187837987
  9
$TDUPDATE
 40
2460006.407754630
  9
$TDUUPDATE
 40
2460005.949421296
  9
$TDINDWG
 40
0.0021064931
  9
$TDUSRTIMER
 40
0.0021064931
  9
$USRTIMER
 70
     1
  9
$ANGBASE
 50
0.0
  9
$ANGDIR
 70
     0
  9
$PDMODE
 70
     0
  9
$PDSIZE
 40
-1.0
  9
$PLINEWID
 40
0.0
  9
$SPLFRAME
 70
     0
  9
$SPLINETYPE
 70
     6
  9
$SPLINESEGS
 70
     8
  9
$HANDSEED
  5
2F3
  9
$SURFTAB1
 70
     6
  9
$SURFTAB2
 70
     6
  9
$SURFTYPE
 70
     6
  9
$SURFU
 70
     6
  9
$SURFV
 70
     6
  9
$UCSBASE
  2

  9
$UCSNAME
  2

  9
$UCSORG
 10
0.0
 20
0.0
 30
0.0
  9
$UCSXDIR
 10
1.0
 20
0.0
 30
0.0
  9
$UCSYDIR
 10
0.0
 20
1.0
 30
0.0
  9
$UCSORTHOREF
  2

  9
$UCSORTHOVIEW
 70
     0
  9
$UCSORGTOP
 10
0.0
 20
0.0
 30
0.0
  9
$UCSORGBOTTOM
 10
0.0
 20
0.0
 30
0.0
  9
$UCSORGLEFT
 10
0.0
 20
0.0
 30
0.0
  9
$UCSORGRIGHT
 10
0.0
 20
0.0
 30
0.0
  9
$UCSORGFRONT
 10
0.0
 20
0.0
 30
0.0
  9
$UCSORGBACK
 10
0.0
 20
0.0
 30
0.0
  9
$PUCSBASE
  2

  9
$PUCSNAME
  2

  9
$PUCSORG
 10
0.0
 20
0.0
 30
0.0
  9
$PUCSXDIR
 10
1.0
 20
0.0
 30
0.0
  9
$PUCSYDIR
 10
0.0
 20
1.0
 30
0.0
  9
$PUCSORTHOREF
  2

  9
$PUCSORTHOVIEW
 70
     0
  9
$PUCSORGTOP
 10
0.0
 20
0.0
 30
0.0
  9
$PUCSORGBOTTOM
 10
0.0
 20
0.0
 30
0.0
  9
$PUCSORGLEFT
 10
0.0
 20
0.0
 30
0.0
  9
$PUCSORGRIGHT
 10
0.0
 20
0.0
 30
0.0
  9
$PUCSORGFRONT
 10
0.0
 20
0.0
 30
0.0
  9
$PUCSORGBACK
 10
0.0
 20
0.0
 30
0.0
  9
$USERI1
 70
     0
  9
$USERI2
 70
     0
  9
$USERI3
 70
     0
  9
$USERI4
 70
     0
  9
$USERI5
 70
     0
  9
$USERR1
 40
0.0
  9
$USERR2
 40
0.0
  9
$USERR3
 40
0.0
  9
$USERR4
 40
0.0
  9
$USERR5
 40
0.0
  9
$WORLDVIEW
 70
     1
  9
$SHADEDGE
 70
     3
  9
$SHADEDIF
 70
    70
  9
$TILEMODE
 70
     1
  9
$MAXACTVP
 70
    64
  9
$PINSBASE
 10
0.0
 20
0.0
 30
0.0
  9
$PLIMCHECK
 70
     0
  9
$PEXTMIN
 10
1.000000000000000E+20
 20
1.000000000000000E+20
 30
1.000000000000000E+20
  9
$PEXTMAX
 10
-1.000000000000000E+20
 20
-1.000000000000000E+20
 30
-1.000000000000000E+20
  9
$PLIMMIN
 10
0.0
 20
0.0
  9
$PLIMMAX
 10
420.0
 20
297.0
  9
$UNITMODE
 70
     0
  9
$VISRETAIN
 70
     1
  9
$PLINEGEN
 70
     0
  9
$PSLTSCALE
 70
     1
  9
$TREEDEPTH
 70
  3020
  9
$CMLSTYLE
  2
Standard
  9
$CMLJUST
 70
     0
  9
$CMLSCALE
 40
20.0
  9
$PROXYGRAPHICS
 70
     1
  9
$MEASUREMENT
 70
     1
  9
$CELWEIGHT
370
    -1
  9
$ENDCAPS
280
     0
  9
$JOINSTYLE
280
     0
  9
$LWDISPLAY
290
     1
  9
$INSUNITS
 70
     4
  9
$HYPERLINKBASE
  1

  9
$STYLESHEET
  1

  9
$XEDIT
290
     1
  9
$CEPSNTYPE
380
     0
  9
$PSTYLEMODE
290
     1
  9
$FINGERPRINTGUID
  2
{7A804747-0F67-475F-B83F-29E0A2B2698D}
  9
$VERSIONGUID
  2
{5A327818-299A-3C4D-AD08-6694FFC8BFB2}
  9
$EXTNAMES
290
     1
  9
$PSVPSCALE
 40
0.0
  9
$OLESTARTUP
290
     0
  9
$SORTENTS
280
   127
  9
$INDEXCTL
280
     0
  9
$HIDETEXT
280
     0
  9
$XCLIPFRAME
280
     2
  9
$HALOGAP
280
     0
  9
$OBSCOLOR
 70
   257
  9
$OBSLTYPE
280
     0
  9
$INTERSECTIONDISPLAY
280
     0
  9
$INTERSECTIONCOLOR
 70
   257
  9
$DIMASSOC
280
     1
  9
$PROJECTNAME
  1

  9
$CAMERADISPLAY
290
     0
  9
$LENSLENGTH
 40
50.0
  9
$CAMERAHEIGHT
 40
0.0
  9
$STEPSPERSEC
 40
2.0
  9
$STEPSIZE
 40
6.0
  9
$3DDWFPREC
 40
2.0
  9
$PSOLWIDTH
 40
0.25
  9
$PSOLHEIGHT
 40
4.0
  9
$LOFTANG1
 40
1.570796326794896
  9
$LOFTANG2
 40
1.570796326794896
  9
$LOFTMAG1
 40
0.0
  9
$LOFTMAG2
 40
0.0
  9
$LOFTPARAM
 70
     7
  9
$LOFTNORMALS
280
     1
  9
$LATITUDE
 40
37.795
  9
$LONGITUDE
 40
-122.394
  9
$NORTHDIRECTION
 40
0.0
  9
$TIMEZONE
 70
 -8000
  9
$LIGHTGLYPHDISPLAY
280
     1
  9
$TILEMODELIGHTSYNCH
280
     1
  9
$CMATERIAL
347
16F
  9
$SOLIDHIST
280
     0
  9
$SHOWHIST
280
     1
  9
$DWFFRAME
280
     2
  9
$DGNFRAME
280
     0
  9
$REALWORLDSCALE
290
     1
  9
$INTERFERECOLOR
 62
     1
  9
$INTERFEREOBJVS
345
191
  9
$INTERFEREVPVS
346
18E
  9
$CSHADOW
280
     0
  9
$SHADOWPLANELOCATION
 40
0.0
  0
ENDSEC
  0
SECTION
  2
CLASSES
  0
CLASS
  1
ACDBDICTIONARYWDFLT
  2
AcDbDictionaryWithDefault
  3
ObjectDBX Classes
 90
        0
 91
        1
280
     0
281
     0
  0
CLASS
  1
VISUALSTYLE
  2
AcDbVisualStyle
  3
ObjectDBX Classes
 90
     4095
 91
       24
280
     0
281
     0
  0
CLASS
  1
MATERIAL
  2
AcDbMaterial
  3
ObjectDBX Classes
 90
     1153
 91
        3
280
     0
281
     0
  0
CLASS
  1
SCALE
  2
AcDbScale
  3
ObjectDBX Classes
 90
     1153
 91
       33
280
     0
281
     0
  0
CLASS
  1
TABLESTYLE
  2
AcDbTableStyle
  3
ObjectDBX Classes
 90
     4095
 91
        1
280
     0
281
     0
  0
CLASS
  1
MLEADERSTYLE
  2
AcDbMLeaderStyle
  3
ACDB_MLEADERSTYLE_CLASS
 90
     4095
 91
        1
280
     0
281
     0
  0
CLASS
  1
SUN
  2
AcDbSun
  3
SCENEOE
 90
     1153
 91
        0
280
     0
281
     0
  0
CLASS
  1
ACDBSECTIONVIEWSTYLE
  2
AcDbSectionViewStyle
  3
ObjectDBX Classes
 90
     1025
 91
        1
280
     0
281
     0
  0
CLASS
  1
ACDBDETAILVIEWSTYLE
  2
AcDbDetailViewStyle
  3
ObjectDBX Classes
 90
     1025
 91
        1
280
     0
281
     0
  0
CLASS
  1
ACDB_ALDIMOBJECTCONTEXTDATA_CLASS
  2
AcDbAlignedDimensionObjectContextData
  3
ObjectDBX Classes
 90
     1153
 91
       13
280
     0
281
     0
  0
CLASS
  1
DICTIONARYVAR
  2
AcDbDictionaryVar
  3
ObjectDBX Classes
 90
        0
 91
       18
280
     0
281
     0
  0
CLASS
  1
CELLSTYLEMAP
  2
AcDbCellStyleMap
  3
ObjectDBX Classes
 90
     1152
 91
        1
280
     0
281
     0
  0
ENDSEC
  0
SECTION
  2
TABLES
  0
TABLE
  2
VPORT
  5
8
330
0
100
AcDbSymbolTable
 70
     1
  0
VPORT
  5
29
330
8
100
AcDbSymbolTableRecord
100
AcDbViewportTableRecord
  2
*Active
 70
     0
 10
0.0
 20
0.0
 11
1.0
 21
1.0
 12
247.8744190117999
 22
146.1967191080749
 13
0.0
 23
0.0
 14
10.0
 24
10.0
 15
10.0
 25
10.0
 16
0.0
 26
0.0
 36
1.0
 17
0.0
 27
0.0
 37
0.0
 40
580.813284630492
 41
1.910336239103362
 42
50.0
 43
0.0
 44
0.0
 50
0.0
 51
0.0
 71
     0
 72
  2000
 73
     1
 74
     3
 75
     0
 76
     0
 77
     0
 78
     0
281
     0
 65
     1
110
0.0
120
0.0
130
0.0
111
1.0
121
0.0
131
0.0
112
0.0
122
1.0
132
0.0
 79
     0
146
0.0
348
18D
 60
     3
 61
     5
292
     1
282
     1
141
0.0
142
0.0
 63
   250
421
  3355443
1001
ACAD_NAV_VCDISPLAY
1070
     3
  0
ENDTAB
  0
TABLE
  2
LTYPE
  5
5
330
0
100
AcDbSymbolTable
 70
     6
  0
LTYPE
  5
14
330
5
100
AcDbSymbolTableRecord
100
AcDbLinetypeTableRecord
  2
ByBlock
 70
     0
  3

 72
    65
 73
     0
 40
0.0
  0
LTYPE
  5
15
330
5
100
AcDbSymbolTableRecord
100
AcDbLinetypeTableRecord
  2
ByLayer
 70
     0
  3

 72
    65
 73
     0
 40
0.0
  0
LTYPE
  5
16
330
5
100
AcDbSymbolTableRecord
100
AcDbLinetypeTableRecord
  2
Continuous
 70
     0
  3
Solid line
 72
    65
 73
     0
 40
0.0
  0
LTYPE
  5
6E
330
5
100
AcDbSymbolTableRecord
100
AcDbLinetypeTableRecord
  2
HIDDEN
 70
     0
  3
Hidden __ __ __ __ __ __ __ __ __ __ __ __ __ __
 72
    65
 73
     2
 40
1.905
 49
1.27
 74
     0
 49
-0.635
 74
     0
  0
LTYPE
  5
6F
330
5
100
AcDbSymbolTableRecord
100
AcDbLinetypeTableRecord
  2
PHANTOM
 70
     0
  3
Phantom ______  __  __  ______  __  __  ______
 72
    65
 73
     6
 40
12.7
 49
6.349999999999999
 74
     0
 49
-1.27
 74
     0
 49
1.27
 74
     0
 49
-1.27
 74
     0
 49
1.27
 74
     0
 49
-1.27
 74
     0
  0
LTYPE
  5
70
330
5
100
AcDbSymbolTableRecord
100
AcDbLinetypeTableRecord
  2
CENTER
 70
     0
  3
Center ____ _ ____ _ ____ _ ____ _ ____ _ ____
 72
    65
 73
     4
 40
10.16
 49
6.349999999999999
 74
     0
 49
-1.27
 74
     0
 49
1.27
 74
     0
 49
-1.27
 74
     0
  0
LTYPE
  5
71
330
5
100
AcDbSymbolTableRecord
100
AcDbLinetypeTableRecord
  2
CENTERX2
 70
     0
  3
Center (2x) ________  __  ________  __  _____
 72
    65
 73
     4
 40
20.32
 49
12.7
 74
     0
 49
-2.54
 74
     0
 49
2.54
 74
     0
 49
-2.54
 74
     0
  0
LTYPE
  5
72
330
5
100
AcDbSymbolTableRecord
100
AcDbLinetypeTableRecord
  2
DOT2
 70
     0
  3
Dot (.5x) ........................................
 72
    65
 73
     2
 40
0.635
 49
0.0
 74
     0
 49
-0.635
 74
     0
  0
ENDTAB
  0
TABLE
  2
LAYER
  5
2
102
{ACAD_XDICTIONARY
360
1F7
102
}
330
0
100
AcDbSymbolTable
 70
     4
  0
LAYER
  5
10
102
{ACAD_XDICTIONARY
360
2D6
102
}
330
2
100
AcDbSymbolTableRecord
100
AcDbLayerTableRecord
  2
0
 70
     0
 62
     7
  6
Continuous
370
    -3
390
F
347
17F
348
0
  0
LAYER
  5
73
102
{ACAD_XDICTIONARY
360
2D8
102
}
330
2
100
AcDbSymbolTableRecord
100
AcDbLayerTableRecord
  2
FORMAT
 70
     0
 62
     7
  6
Continuous
370
    -3
390
F
347
17F
348
0
  0
LAYER
  5
1AD
330
2
100
AcDbSymbolTableRecord
100
AcDbLayerTableRecord
  2
Defpoints
 70
     0
 62
     7
  6
Continuous
290
     0
370
    -3
390
F
347
17F
348
0
  0
LAYER
  5
1EF
102
{ACAD_XDICTIONARY
360
2DA
102
}
330
2
100
AcDbSymbolTableRecord
100
AcDbLayerTableRecord
  2
DIMENSION
 70
     0
 62
   255
  6
Continuous
370
    -3
390
F
347
17F
348
0
  0
ENDTAB
  0
TABLE
  2
STYLE
  5
3
330
0
100
AcDbSymbolTable
 70
     2
  0
STYLE
  5
11
330
3
100
AcDbSymbolTableRecord
100
AcDbTextStyleTableRecord
  2
Standard
 70
     0
 40
0.0
 41
1.0
 50
0.0
 71
     0
 42
3.5
  3
txt
  4

  0
STYLE
  5
C4
330
3
100
AcDbSymbolTableRecord
100
AcDbTextStyleTableRecord
  2
SLDTEXTSTYLE0
 70
     0
 40
0.0
 41
0.75
 50
0.0
 71
     0
 42
3.5
  3
TXT
  4

  0
ENDTAB
  0
TABLE
  2
VIEW
  5
6
330
0
100
AcDbSymbolTable
 70
     0
  0
ENDTAB
  0
TABLE
  2
UCS
  5
7
330
0
100
AcDbSymbolTable
 70
     0
  0
ENDTAB
  0
TABLE
  2
APPID
  5
9
330
0
100
AcDbSymbolTable
 70
     8
  0
APPID
  5
12
330
9
100
AcDbSymbolTableRecord
100
AcDbRegAppTableRecord
  2
ACAD
 70
     0
  0
APPID
  5
1D6
330
9
100
AcDbSymbolTableRecord
100
AcDbRegAppTableRecord
  2
ACAD_DSTYLE_DIMRADIAL_EXTENSION
 70
     0
  0
APPID
  5
1F1
330
9
100
AcDbSymbolTableRecord
100
AcDbRegAppTableRecord
  2
ACAD_PSEXT
 70
     0
  0
APPID
  5
1F2
330
9
100
AcDbSymbolTableRecord
100
AcDbRegAppTableRecord
  2
AcadAnnotative
 70
     0
  0
APPID
  5
1F3
330
9
100
AcDbSymbolTableRecord
100
AcDbRegAppTableRecord
  2
ACAD_DSTYLE_DIMJAG
 70
     0
  0
APPID
  5
1F4
330
9
100
AcDbSymbolTableRecord
100
AcDbRegAppTableRecord
  2
ACAD_DSTYLE_DIMTALN
 70
     0
  0
APPID
  5
1F5
330
9
100
AcDbSymbolTableRecord
100
AcDbRegAppTableRecord
  2
ACAD_NAV_VCDISPLAY
 70
     0
  0
APPID
  5
1F6
330
9
100
AcDbSymbolTableRecord
100
AcDbRegAppTableRecord
  2
ACAD_DSTYLE_DIMBREAK
 70
     0
  0
ENDTAB
  0
TABLE
  2
DIMSTYLE
  5
A
330
0
100
AcDbSymbolTable
 70
     3
100
AcDbDimStyleTable
 71
     2
340
1F0
340
27
  0
DIMSTYLE
105
27
330
A
100
AcDbSymbolTableRecord
100
AcDbDimStyleTableRecord
  2
ISO-25
 70
     0
 41
2.5
 42
0.625
 43
3.75
 44
1.25
 73
     0
 74
     0
 77
     1
 78
     8
140
2.5
141
2.5
143
0.0393700787
147
0.625
171
     3
172
     1
271
     2
272
     2
274
     3
278
    44
283
     0
284
     8
340
11
  0
DIMSTYLE
105
C5
330
A
100
AcDbSymbolTableRecord
100
AcDbDimStyleTableRecord
  2
SLDDIMSTYLE0
 70
     0
 41
3.302
 44
0.0
 45
0.000000001
 73
     0
 74
     0
 77
     1
 78
     4
 79
     1
140
4.2333333333
147
1.0583333333
173
     1
271
     2
272
     2
276
     2
284
    12
340
C4
341
C6
343
C6
344
C6
  0
DIMSTYLE
105
1F0
102
{ACAD_REACTORS
330
1FA
330
1C8
330
1BA
330
1AC
330
C3
330
121
330
111
330
119
330
1D7
330
15B
330
D0
330
163
102
}
330
A
100
AcDbSymbolTableRecord
100
AcDbDimStyleTableRecord
  2
RG Dimension Lines
 70
     0
 40
12.0
 41
3.5
 42
1.0
 43
10.0
 44
5.0
 49
5.0
 77
     2
140
8.0
141
0.0
147
4.0
172
     1
176
   256
177
   256
178
     7
271
     0
272
     0
290
     1
340
11
341
C6
342
C6
371
     0
372
     0
1001
ACAD_DSTYLE_DIMBREAK
1070
   391
1040
0.125
1001
AcadAnnotative
1000
AnnotativeData
1002
{
1070
     1
1070
     1
1002
}
1001
ACAD_DSTYLE_DIMJAG
1070
   388
1040
1.5
1001
ACAD_DSTYLE_DIMTALN
1070
   392
1070
     0
  0
ENDTAB
  0
TABLE
  2
BLOCK_RECORD
  5
1
330
0
100
AcDbSymbolTable
 70
    27
  0
BLOCK_RECORD
  5
1F
330
1
100
AcDbSymbolTableRecord
100
AcDbBlockTableRecord
  2
*Model_Space
340
22
 70
     0
280
     1
281
     0
  0
BLOCK_RECORD
  5
1B
330
1
100
AcDbSymbolTableRecord
100
AcDbBlockTableRecord
  2
*Paper_Space
340
1E
 70
     0
280
     1
281
     0
  0
BLOCK_RECORD
  5
23
330
1
100
AcDbSymbolTableRecord
100
AcDbBlockTableRecord
  2
*Paper_Space0
340
26
 70
     0
280
     1
281
     0
  0
BLOCK_RECORD
  5
C6
330
1
100
AcDbSymbolTableRecord
100
AcDbBlockTableRecord
  2
_None
340
0
 70
     0
280
     1
281
     0
  0
BLOCK_RECORD
  5
C9
330
1
100
AcDbSymbolTableRecord
100
AcDbBlockTableRecord
  2
_D
340
0
 70
     0
280
     1
281
     0
  0
BLOCK_RECORD
  5
D1
330
1
100
AcDbSymbolTableRecord
100
AcDbBlockTableRecord
  2
_D_1
340
0
 70
     0
280
     1
281
     0
  0
BLOCK_RECORD
  5
112
330
1
100
AcDbSymbolTableRecord
100
AcDbBlockTableRecord
  2
_D_2
340
0
 70
     0
280
     1
281
     0
  0
BLOCK_RECORD
  5
11A
330
1
100
AcDbSymbolTableRecord
100
AcDbBlockTableRecord
  2
_D_3
340
0
 70
     0
280
     1
281
     0
  0
BLOCK_RECORD
  5
122
330
1
100
AcDbSymbolTableRecord
100
AcDbBlockTableRecord
  2
_D_4
340
0
 70
     0
280
     1
281
     0
  0
BLOCK_RECORD
  5
15C
330
1
100
AcDbSymbolTableRecord
100
AcDbBlockTableRecord
  2
_D_5
340
0
 70
     0
280
     1
281
     0
  0
BLOCK_RECORD
  5
164
330
1
100
AcDbSymbolTableRecord
100
AcDbBlockTableRecord
  2
_D_6
340
0
 70
     0
280
     1
281
     0
  0
BLOCK_RECORD
  5
1AE
330
1
100
AcDbSymbolTableRecord
100
AcDbBlockTableRecord
  2
*D9
340
0
 70
     0
280
     1
281
     0
  0
BLOCK_RECORD
  5
1BB
330
1
100
AcDbSymbolTableRecord
100
AcDbBlockTableRecord
  2
*D10
340
0
 70
     0
280
     1
281
     0
  0
BLOCK_RECORD
  5
1C9
330
1
100
AcDbSymbolTableRecord
100
AcDbBlockTableRecord
  2
*D11
340
0
 70
     0
280
     1
281
     0
  0
BLOCK_RECORD
  5
1D8
330
1
100
AcDbSymbolTableRecord
100
AcDbBlockTableRecord
  2
*D12
340
0
 70
     0
280
     1
281
     0
  0
BLOCK_RECORD
  5
1E5
330
1
100
AcDbSymbolTableRecord
100
AcDbBlockTableRecord
  2
*D13
340
0
 70
     0
280
     1
281
     0
  0
BLOCK_RECORD
  5
208
330
1
100
AcDbSymbolTableRecord
100
AcDbBlockTableRecord
  2
*D15
340
0
 70
     0
280
     1
281
     0
  0
BLOCK_RECORD
  5
212
330
1
100
AcDbSymbolTableRecord
100
AcDbBlockTableRecord
  2
*D16
340
0
 70
     0
280
     1
281
     0
  0
BLOCK_RECORD
  5
220
330
1
100
AcDbSymbolTableRecord
100
AcDbBlockTableRecord
  2
*D17
340
0
 70
     0
280
     1
281
     0
  0
BLOCK_RECORD
  5
22E
330
1
100
AcDbSymbolTableRecord
100
AcDbBlockTableRecord
  2
*D18
340
0
 70
     0
280
     1
281
     0
  0
BLOCK_RECORD
  5
23C
330
1
100
AcDbSymbolTableRecord
100
AcDbBlockTableRecord
  2
*D19
340
0
 70
     0
280
     1
281
     0
  0
BLOCK_RECORD
  5
24A
330
1
100
AcDbSymbolTableRecord
100
AcDbBlockTableRecord
  2
*D20
340
0
 70
     0
280
     1
281
     0
  0
BLOCK_RECORD
  5
258
330
1
100
AcDbSymbolTableRecord
100
AcDbBlockTableRecord
  2
*D21
340
0
 70
     0
280
     1
281
     0
  0
BLOCK_RECORD
  5
266
330
1
100
AcDbSymbolTableRecord
100
AcDbBlockTableRecord
  2
*D22
340
0
 70
     0
280
     1
281
     0
  0
BLOCK_RECORD
  5
274
330
1
100
AcDbSymbolTableRecord
100
AcDbBlockTableRecord
  2
*D23
340
0
 70
     0
280
     1
281
     0
  0
BLOCK_RECORD
  5
282
330
1
100
AcDbSymbolTableRecord
100
AcDbBlockTableRecord
  2
*D24
340
0
 70
     0
280
     1
281
     0
  0
BLOCK_RECORD
  5
290
330
1
100
AcDbSymbolTableRecord
100
AcDbBlockTableRecord
  2
*D25
340
0
 70
     0
280
     1
281
     0
  0
BLOCK_RECORD
  5
29E
330
1
100
AcDbSymbolTableRecord
100
AcDbBlockTableRecord
  2
*D26
340
0
 70
     0
280
     1
281
     0
  0
ENDTAB
  0
ENDSEC
  0
SECTION
  2
BLOCKS
  0
BLOCK
  5
20
330
1F
100
AcDbEntity
  8
0
100
AcDbBlockBegin
  2
*Model_Space
 70
     0
 10
0.0
 20
0.0
 30
0.0
  3
*Model_Space
  1

  0
ENDBLK
  5
21
330
1F
100
AcDbEntity
  8
0
100
AcDbBlockEnd
  0
BLOCK
  5
1C
330
1B
100
AcDbEntity
 67
     1
  8
0
100
AcDbBlockBegin
  2
*Paper_Space
 70
     0
 10
0.0
 20
0.0
 30
0.0
  3
*Paper_Space
  1

  0
ENDBLK
  5
1D
330
1B
100
AcDbEntity
 67
     1
  8
0
100
AcDbBlockEnd
  0
BLOCK
  5
24
330
23
100
AcDbEntity
 67
     1
  8
0
100
AcDbBlockBegin
  2
*Paper_Space0
 70
     0
 10
0.0
 20
0.0
 30
0.0
  3
*Paper_Space0
  1

  0
ENDBLK
  5
25
330
23
100
AcDbEntity
 67
     1
  8
0
100
AcDbBlockEnd
  0
BLOCK
  5
C7
330
C6
100
AcDbEntity
  8
0
100
AcDbBlockBegin
  2
_None
 70
     0
 10
0.0
 20
0.0
 30
0.0
  3
_None
  1

  0
ENDBLK
  5
C8
330
C6
100
AcDbEntity
  8
0
100
AcDbBlockEnd
  0
BLOCK
  5
CA
330
C9
100
AcDbEntity
  8
0
100
AcDbBlockBegin
  2
_D
 70
     0
 10
0.0
 20
0.0
 30
0.0
  3
_D
  1

  0
LINE
  5
CC
330
C9
100
AcDbEntity
  8
0
  6
Continuous
 62
     7
440
 16777216
370
     0
100
AcDbLine
 10
293.1226448966
 20
47.56375804770001
 30
0.0
 11
277.1226198966
 21
47.56375804770001
 31
0.0
  0
LINE
  5
CD
330
C9
100
AcDbEntity
  8
0
  6
Continuous
 62
     7
440
 16777216
370
     0
100
AcDbLine
 10
308.2888084022
 20
-42.56949153309999
 30
0.0
 11
277.1226198966
 21
-42.56949153309999
 31
0.0
  0
LINE
  5
CE
330
C9
100
AcDbEntity
  8
0
  6
Continuous
 62
     7
440
 16777216
370
     0
100
AcDbLine
 10
278.1226198966
 20
47.56375804770001
 30
0.0
 11
278.1226198966
 21
-42.56949153309999
 31
0.0
  0
MTEXT
  5
CF
330
C9
100
AcDbEntity
  8
0
  6
Continuous
 62
     7
440
 16777216
370
    18
100
AcDbMText
 10
272.6655666978
 20
-2.5600072855
 30
0.0
 40
4.2333333333
 41
0.0
 46
0.0
 71
     1
 72
     1
  1
90.00
  7
SLDTEXTSTYLE0
 11
-0.000000000000007
 21
1.0
 31
0.0
 73
     1
 44
1.0
  0
ENDBLK
  5
CB
330
C9
100
AcDbEntity
  8
0
100
AcDbBlockEnd
  0
BLOCK
  5
D2
330
D1
100
AcDbEntity
  8
0
100
AcDbBlockBegin
  2
_D_1
 70
     0
 10
0.0
 20
0.0
 30
0.0
  3
_D_1
  1

  0
LINE
  5
D4
330
D1
100
AcDbEntity
  8
0
  6
Continuous
 62
     7
440
 16777216
370
     0
100
AcDbLine
 10
333.1262792671
 20
193.8733494908
 30
0.0
 11
333.1262792671
 21
214.0642580477
 31
0.0
  0
LINE
  5
D5
330
D1
100
AcDbEntity
  8
0
  6
Continuous
 62
     7
440
 16777216
370
     0
100
AcDbLine
 10
355.3262792671
 20
194.6857655362
 30
0.0
 11
355.3262792671
 21
214.0642580477
 31
0.0
  0
LINE
  5
D6
330
D1
100
AcDbEntity
  8
0
  6
Continuous
 62
     7
440
 16777216
370
     0
100
AcDbLine
 10
333.1262792671
 20
213.0642580477
 30
0.0
 11
355.3262792671
 21
213.0642580477
 31
0.0
  0
MTEXT
  5
D7
330
D1
100
AcDbEntity
  8
0
  6
Continuous
 62
     7
440
 16777216
370
    18
100
AcDbMText
 10
336.6437372523
 20
218.5213112465
 30
0.0
 40
4.2333333333
 41
0.0
 46
0.0
 71
     1
 72
     1
  1
22.00
  7
SLDTEXTSTYLE0
 73
     1
 44
1.0
  0
ENDBLK
  5
D3
330
D1
100
AcDbEntity
  8
0
100
AcDbBlockEnd
  0
BLOCK
  5
113
330
112
100
AcDbEntity
  8
0
100
AcDbBlockBegin
  2
_D_2
 70
     0
 10
0.0
 20
0.0
 30
0.0
  3
_D_2
  1

  0
LINE
  5
115
330
112
100
AcDbEntity
  8
0
  6
Continuous
 62
     7
440
 16777216
370
     0
100
AcDbLine
 10
191.6102309835
 20
98.2192766826
 30
0.0
 11
191.6102309835
 21
-68.90910094199999
 31
0.0
  0
LINE
  5
116
330
112
100
AcDbEntity
  8
0
  6
Continuous
 62
     7
440
 16777216
370
     0
100
AcDbLine
 10
46.6102309835
 20
-47.29076373789999
 30
0.0
 11
46.6102309835
 21
-68.90910094199999
 31
0.0
  0
LINE
  5
117
330
112
100
AcDbEntity
  8
0
  6
Continuous
 62
     7
440
 16777216
370
     0
100
AcDbLine
 10
191.6102309835
 20
-67.909100942
 30
0.0
 11
46.6102309835
 21
-67.909100942
 31
0.0
  0
MTEXT
  5
118
330
112
100
AcDbEntity
  8
0
  6
Continuous
 62
     7
440
 16777216
370
    18
100
AcDbMText
 10
105.9479997129
 20
-62.4520477432
 30
0.0
 40
4.2333333333
 41
0.0
 46
0.0
 71
     1
 72
     1
  1
145.00
  7
SLDTEXTSTYLE0
 73
     1
 44
1.0
  0
ENDBLK
  5
114
330
112
100
AcDbEntity
  8
0
100
AcDbBlockEnd
  0
BLOCK
  5
11B
330
11A
100
AcDbEntity
  8
0
100
AcDbBlockBegin
  2
_D_3
 70
     0
 10
0.0
 20
0.0
 30
0.0
  3
_D_3
  1

  0
LINE
  5
11D
330
11A
100
AcDbEntity
  8
0
  6
Continuous
 62
     7
440
 16777216
370
     0
100
AcDbLine
 10
61.9554380165
 20
197.0637580477
 30
0.0
 11
-9.7256514203
 21
197.0637580477
 31
0.0
  0
LINE
  5
11E
330
11A
100
AcDbEntity
  8
0
  6
Continuous
 62
     7
440
 16777216
370
     0
100
AcDbLine
 10
11.9287507564
 20
-42.56949153309999
 30
0.0
 11
-9.7256514203
 21
-42.56949153309999
 31
0.0
  0
LINE
  5
11F
330
11A
100
AcDbEntity
  8
0
  6
Continuous
 62
     7
440
 16777216
370
     0
100
AcDbLine
 10
-8.7256514203
 20
197.0637580477
 30
0.0
 11
-8.7256514203
 21
-42.56949153309999
 31
0.0
  0
MTEXT
  5
120
330
11A
100
AcDbEntity
  8
0
  6
Continuous
 62
     7
440
 16777216
370
    18
100
AcDbMText
 10
-14.1827046192
 20
64.0163703275
 30
0.0
 40
4.2333333333
 41
0.0
 46
0.0
 71
     1
 72
     1
  1
240.00
  7
SLDTEXTSTYLE0
 11
-0.0000000000000035
 21
1.0
 31
0.0
 73
     1
 44
1.0
  0
ENDBLK
  5
11C
330
11A
100
AcDbEntity
  8
0
100
AcDbBlockEnd
  0
BLOCK
  5
123
330
122
100
AcDbEntity
  8
0
100
AcDbBlockBegin
  2
_D_4
 70
     0
 10
0.0
 20
0.0
 30
0.0
  3
_D_4
  1

  0
LINE
  5
125
330
122
100
AcDbEntity
  8
0
  6
Continuous
 62
     7
440
 16777216
370
     0
100
AcDbLine
 10
81.3433903627
 20
-42.56949153309999
 30
0.0
 11
230.1341424212
 21
-42.56949153309999
 31
0.0
  0
LINE
  5
126
330
122
100
AcDbEntity
  8
0
  6
Continuous
 62
     7
440
 16777216
370
     0
100
AcDbLine
 10
209.2194956814
 20
107.4337580477
 30
0.0
 11
230.1341424212
 21
107.4337580477
 31
0.0
  0
LINE
  5
127
330
122
100
AcDbEntity
  8
0
  6
Continuous
 62
     7
440
 16777216
370
     0
100
AcDbLine
 10
229.1341424212
 20
-42.56949153309999
 30
0.0
 11
229.1341424212
 21
107.4337580477
 31
0.0
  0
MTEXT
  5
128
330
122
100
AcDbEntity
  8
0
  6
Continuous
 62
     7
440
 16777216
370
    18
100
AcDbMText
 10
223.6770892223
 20
15.0888521375
 30
0.0
 40
4.2333333333
 41
0.0
 46
0.0
 71
     1
 72
     1
  1
150.00
  7
SLDTEXTSTYLE0
 11
0.0000000000000001
 21
1.0
 31
0.0
 73
     1
 44
1.0
  0
ENDBLK
  5
124
330
122
100
AcDbEntity
  8
0
100
AcDbBlockEnd
  0
BLOCK
  5
15D
330
15C
100
AcDbEntity
  8
0
100
AcDbBlockBegin
  2
_D_5
 70
     0
 10
0.0
 20
0.0
 30
0.0
  3
_D_5
  1

  0
LINE
  5
15F
330
15C
100
AcDbEntity
  8
0
  6
Continuous
 62
     7
440
 16777216
370
     0
100
AcDbLine
 10
15.5641814262
 20
392.5146607933001
 30
0.0
 11
-12.3063930895
 21
392.5146607933001
 31
0.0
  0
LINE
  5
160
330
15C
100
AcDbEntity
  8
0
  6
Continuous
 62
     7
440
 16777216
370
     0
100
AcDbLine
 10
12.6005151193
 20
272.5146607933
 30
0.0
 11
-12.3063930895
 21
272.5146607933
 31
0.0
  0
LINE
  5
161
330
15C
100
AcDbEntity
  8
0
  6
Continuous
 62
     7
440
 16777216
370
     0
100
AcDbLine
 10
-11.3063930895
 20
392.5146607933001
 30
0.0
 11
-11.3063930895
 21
272.5146607933
 31
0.0
  0
MTEXT
  5
162
330
15C
100
AcDbEntity
  8
0
  6
Continuous
 62
     7
440
 16777216
370
    18
100
AcDbMText
 10
-16.7634462884
 20
325.2584181876
 30
0.0
 40
4.2333333333
 41
0.0
 46
0.0
 71
     1
 72
     1
  1
120.00
  7
SLDTEXTSTYLE0
 11
-0.0000000000000106
 21
1.0
 31
0.0
 73
     1
 44
1.0
  0
ENDBLK
  5
15E
330
15C
100
AcDbEntity
  8
0
100
AcDbBlockEnd
  0
BLOCK
  5
165
330
164
100
AcDbEntity
  8
0
100
AcDbBlockBegin
  2
_D_6
 70
     0
 10
0.0
 20
0.0
 30
0.0
  3
_D_6
  1

  0
LINE
  5
167
330
164
100
AcDbEntity
  8
0
  6
Continuous
 62
     7
440
 16777216
370
     0
100
AcDbLine
 10
24.09526126
 20
399.7845046139
 30
0.0
 11
24.09526126
 21
418.5893953964
 31
0.0
  0
LINE
  5
168
330
164
100
AcDbEntity
  8
0
  6
Continuous
 62
     7
440
 16777216
370
     0
100
AcDbLine
 10
69.09526126
 20
399.2147481088
 30
0.0
 11
69.09526126
 21
418.5893953964
 31
0.0
  0
LINE
  5
169
330
164
100
AcDbEntity
  8
0
  6
Continuous
 62
     7
440
 16777216
370
     0
100
AcDbLine
 10
24.09526126
 20
417.5893953963999
 30
0.0
 11
69.09526126
 21
417.5893953963999
 31
0.0
  0
MTEXT
  5
16A
330
164
100
AcDbEntity
  8
0
  6
Continuous
 62
     7
440
 16777216
370
    18
100
AcDbMText
 10
39.4117370372
 20
423.0464485953
 30
0.0
 40
4.2333333333
 41
0.0
 46
0.0
 71
     1
 72
     1
  1
45.00
  7
SLDTEXTSTYLE0
 73
     1
 44
1.0
  0
ENDBLK
  5
166
330
164
100
AcDbEntity
  8
0
100
AcDbBlockEnd
  0
BLOCK
  5
1AF
330
1AE
100
AcDbEntity
  8
0
100
AcDbBlockBegin
  2
*D9
 70
     1
 10
0.0
 20
0.0
 30
0.0
  3
*D9
  1

  0
LINE
  5
1B1
330
1AE
100
AcDbEntity
  8
0
 62
     0
440
 16777216
370
    -2
100
AcDbLine
 10
317.2262792670632
 20
-43.56949153313293
 30
0.0
 11
317.2262792670632
 21
-56.2594662722031
 31
0.0
  0
LINE
  5
1B2
330
1AE
100
AcDbEntity
  8
0
 62
     0
440
 16777216
370
    -2
100
AcDbLine
 10
371.2262792671
 20
-43.5694915331
 30
0.0
 11
371.2262792671
 21
-56.2594662722031
 31
0.0
  0
LINE
  5
1B3
330
1AE
100
AcDbEntity
  8
0
 62
     0
440
 16777216
370
    -2
100
AcDbLine
 10
320.5282792670632
 20
-55.2594662722031
 30
0.0
 11
367.9242792671
 21
-55.2594662722031
 31
0.0
  0
SOLID
  5
1B4
330
1AE
100
AcDbEntity
  8
0
 62
     0
440
 16777216
100
AcDbTrace
 10
320.5282792670632
 20
-54.70913293886976
 30
0.0
 11
320.5282792670632
 21
-55.80979960553643
 31
0.0
 12
317.2262792670632
 22
-55.2594662722031
 32
0.0
 13
317.2262792670632
 23
-55.2594662722031
 33
0.0
  0
SOLID
  5
1B5
330
1AE
100
AcDbEntity
  8
0
 62
     0
440
 16777216
100
AcDbTrace
 10
367.9242792671
 20
-54.70913293886976
 30
0.0
 11
367.9242792671
 21
-55.80979960553643
 31
0.0
 12
371.2262792671
 22
-55.2594662722031
 32
0.0
 13
371.2262792671
 23
-55.2594662722031
 33
0.0
  0
MTEXT
  5
1B6
330
1AE
100
AcDbEntity
  8
0
 62
     0
440
 16777216
100
AcDbMText
 10
344.2262792670816
 20
-51.69379960553643
 30
0.0
 40
3.5
 41
0.0
 46
0.0
 71
     5
 72
     1
  1
270,00
 73
     1
 44
1.0
  0
POINT
  5
1B7
330
1AE
100
AcDbEntity
  8
Defpoints
 62
     0
440
 16777216
100
AcDbPoint
 10
317.2262792670632
 20
-42.56949153313293
 30
0.0
  0
POINT
  5
1B8
330
1AE
100
AcDbEntity
  8
Defpoints
 62
     0
440
 16777216
100
AcDbPoint
 10
371.2262792671
 20
-42.56949153309999
 30
0.0
  0
POINT
  5
1B9
330
1AE
100
AcDbEntity
  8
Defpoints
 62
     0
440
 16777216
100
AcDbPoint
 10
371.2262792671
 20
-55.2594662722031
 30
0.0
  0
ENDBLK
  5
1B0
330
1AE
100
AcDbEntity
  8
0
100
AcDbBlockEnd
  0
BLOCK
  5
1BC
330
1BB
100
AcDbEntity
  8
0
100
AcDbBlockBegin
  2
*D10
 70
     1
 10
0.0
 20
0.0
 30
0.0
  3
*D10
  1

  0
LINE
  5
1BE
330
1BB
100
AcDbEntity
  8
0
 62
     0
440
 16777216
370
    -2
100
AcDbLine
 10
345.2262792670633
 20
-42.56949153313295
 30
0.0
 11
433.6448695431811
 21
-42.56949153313293
 31
0.0
  0
LINE
  5
1BF
330
1BB
100
AcDbEntity
  8
0
 62
     0
440
 16777216
370
    -2
100
AcDbLine
 10
420.3262792670634
 20
24.880797796093
 30
0.0
 11
433.6448695431811
 21
24.880797796093
 31
0.0
  0
LINE
  5
1C0
330
1BB
100
AcDbEntity
  8
0
 62
     0
440
 16777216
370
    -2
100
AcDbLine
 10
432.6448695431811
 20
-39.26749153313294
 30
0.0
 11
432.6448695431811
 21
-12.41001353518664
 31
0.0
  0
LINE
  5
1C1
330
1BB
100
AcDbEntity
  8
0
 62
     0
440
 16777216
370
    -2
100
AcDbLine
 10
432.6448695431811
 20
21.578797796093
 30
0.0
 11
432.6448695431811
 21
-5.278680201853302
 31
0.0
  0
SOLID
  5
1C2
330
1BB
100
AcDbEntity
  8
0
 62
     0
440
 16777216
100
AcDbTrace
 10
432.0945362098477
 20
-39.26749153313294
 30
0.0
 11
433.1952028765145
 21
-39.26749153313294
 31
0.0
 12
432.6448695431811
 22
-42.56949153313293
 32
0.0
 13
432.6448695431811
 23
-42.56949153313293
 33
0.0
  0
SOLID
  5
1C3
330
1BB
100
AcDbEntity
  8
0
 62
     0
440
 16777216
100
AcDbTrace
 10
432.0945362098477
 20
21.578797796093
 30
0.0
 11
433.1952028765145
 21
21.578797796093
 31
0.0
 12
432.6448695431811
 22
24.880797796093
 32
0.0
 13
432.6448695431811
 23
24.880797796093
 33
0.0
  0
MTEXT
  5
1C4
330
1BB
100
AcDbEntity
  8
0
 62
     0
440
 16777216
100
AcDbMText
 10
432.6448695431809
 20
-8.844346868520091
 30
0.0
 40
3.5
 41
0.0
 46
0.0
 71
     5
 72
     1
  1
337,25
 73
     1
 44
1.0
  0
POINT
  5
1C5
330
1BB
100
AcDbEntity
  8
Defpoints
 62
     0
440
 16777216
100
AcDbPoint
 10
344.2262792670633
 20
-42.56949153313295
 30
0.0
  0
POINT
  5
1C6
330
1BB
100
AcDbEntity
  8
Defpoints
 62
     0
440
 16777216
100
AcDbPoint
 10
419.3262792670634
 20
24.880797796093
 30
0.0
  0
POINT
  5
1C7
330
1BB
100
AcDbEntity
  8
Defpoints
 62
     0
440
 16777216
100
AcDbPoint
 10
432.6448695431811
 20
24.880797796093
 30
0.0
  0
ENDBLK
  5
1BD
330
1BB
100
AcDbEntity
  8
0
100
AcDbBlockEnd
  0
BLOCK
  5
1CA
330
1C9
100
AcDbEntity
  8
0
100
AcDbBlockBegin
  2
*D11
 70
     1
 10
0.0
 20
0.0
 30
0.0
  3
*D11
  1

  0
LINE
  5
1CC
330
1C9
100
AcDbEntity
  8
0
 62
     0
440
 16777216
370
    -2
100
AcDbLine
 10
420.2262792671001
 20
2.50050532139997
 30
0.0
 11
452.9852697278808
 21
2.500505321399975
 31
0.0
  0
LINE
  5
1CD
330
1C9
100
AcDbEntity
  8
0
 62
     0
440
 16777216
370
    -2
100
AcDbLine
 10
409.4476479385002
 20
87.47854707335003
 30
0.0
 11
452.9852697278808
 21
87.47854707335005
 31
0.0
  0
LINE
  5
1CE
330
1C9
100
AcDbEntity
  8
0
 62
     0
440
 16777216
370
    -2
100
AcDbLine
 10
451.9852697278809
 20
5.802505321399975
 30
0.0
 11
451.9852697278809
 21
41.42385953070834
 31
0.0
  0
LINE
  5
1CF
330
1C9
100
AcDbEntity
  8
0
 62
     0
440
 16777216
370
    -2
100
AcDbLine
 10
451.9852697278809
 20
84.17654707335003
 30
0.0
 11
451.9852697278809
 21
48.55519286404168
 31
0.0
  0
SOLID
  5
1D0
330
1C9
100
AcDbEntity
  8
0
 62
     0
440
 16777216
100
AcDbTrace
 10
451.4349363945475
 20
5.802505321399975
 30
0.0
 11
452.5356030612142
 21
5.802505321399975
 31
0.0
 12
451.9852697278809
 22
2.500505321399975
 32
0.0
 13
451.9852697278809
 23
2.500505321399975
 33
0.0
  0
SOLID
  5
1D1
330
1C9
100
AcDbEntity
  8
0
 62
     0
440
 16777216
100
AcDbTrace
 10
451.4349363945475
 20
84.17654707335003
 30
0.0
 11
452.5356030612142
 21
84.17654707335003
 31
0.0
 12
451.9852697278809
 22
87.47854707335005
 32
0.0
 13
451.9852697278809
 23
87.47854707335005
 33
0.0
  0
MTEXT
  5
1D2
330
1C9
100
AcDbEntity
  8
0
 62
     0
440
 16777216
100
AcDbMText
 10
451.9852697278808
 20
44.98952619737487
 30
0.0
 40
3.5
 41
0.0
 46
0.0
 71
     5
 72
     1
  1
424,89
 73
     1
 44
1.0
  0
POINT
  5
1D3
330
1C9
100
AcDbEntity
  8
Defpoints
 62
     0
440
 16777216
100
AcDbPoint
 10
419.2262792671002
 20
2.50050532139997
 30
0.0
  0
POINT
  5
1D4
330
1C9
100
AcDbEntity
  8
Defpoints
 62
     0
440
 16777216
100
AcDbPoint
 10
408.4476479385002
 20
87.47854707335003
 30
0.0
  0
POINT
  5
1D5
330
1C9
100
AcDbEntity
  8
Defpoints
 62
     0
440
 16777216
100
AcDbPoint
 10
451.9852697278809
 20
87.47854707335005
 30
0.0
  0
ENDBLK
  5
1CB
330
1C9
100
AcDbEntity
  8
0
100
AcDbBlockEnd
  0
BLOCK
  5
1D9
330
1D8
100
AcDbEntity
  8
0
100
AcDbBlockBegin
  2
*D12
 70
     1
 10
0.0
 20
0.0
 30
0.0
  3
*D12
  1

  0
LINE
  5
1DB
330
1D8
100
AcDbEntity
  8
0
 62
     0
440
 16777216
370
    -2
100
AcDbLine
 10
45.61023101150779
 20
317.4144241171345
 30
0.0
 11
7.653901207191354
 21
317.4054407582903
 31
0.0
  0
LINE
  5
1DC
330
1D8
100
AcDbEntity
  8
0
 62
     0
440
 16777216
370
    -2
100
AcDbLine
 10
45.59245663098482
 20
392.5144241171578
 30
0.0
 11
7.63612682666835
 21
392.5054407583136
 31
0.0
  0
LINE
  5
1DD
330
1D8
100
AcDbEntity
  8
0
 62
     0
440
 16777216
370
    -2
100
AcDbLine
 10
8.653119674485241
 20
320.707677341974
 30
0.0
 11
8.64585789725962
 21
351.3900107678007
 31
0.0
  0
LINE
  5
1DE
330
1D8
100
AcDbEntity
  8
0
 62
     0
440
 16777216
370
    -2
100
AcDbLine
 10
8.636908303358859
 20
389.2036775269608
 30
0.0
 11
8.64417008058448
 21
358.5213441011341
 31
0.0
  0
SOLID
  5
1DF
330
1D8
100
AcDbEntity
  8
0
 62
     0
440
 16777216
100
AcDbTrace
 10
9.203452992404944
 20
320.7078075927571
 30
0.0
 11
8.102786356565536
 21
320.707547091191
 31
0.0
 12
8.653901179183552
 22
317.4056774344558
 32
0.0
 13
8.653901179183552
 23
317.4056774344558
 33
0.0
  0
SOLID
  5
1E0
330
1D8
100
AcDbEntity
  8
0
 62
     0
440
 16777216
100
AcDbTrace
 10
9.187241621278563
 20
389.2038077777439
 30
0.0
 11
8.086574985439154
 21
389.2035472761778
 31
0.0
 12
8.636126798660548
 22
392.5056774344791
 32
0.0
 13
8.636126798660548
 23
392.5056774344791
 33
0.0
  0
MTEXT
  5
1E1
330
1D8
100
AcDbEntity
  8
0
 62
     0
440
 16777216
100
AcDbMText
 10
8.645013988922038
 20
354.9556774344674
 30
0.0
 40
3.5
 41
0.0
 46
0.0
 71
     5
 72
     1
  1
375,50
 73
     1
 44
1.0
  0
POINT
  5
1E2
330
1D8
100
AcDbEntity
  8
Defpoints
 62
     0
440
 16777216
100
AcDbPoint
 10
46.61023098349999
 20
317.4146607933
 30
0.0
  0
POINT
  5
1E3
330
1D8
100
AcDbEntity
  8
Defpoints
 62
     0
440
 16777216
100
AcDbPoint
 10
46.59245660297702
 20
392.5146607933233
 30
0.0
  0
POINT
  5
1E4
330
1D8
100
AcDbEntity
  8
Defpoints
 62
     0
440
 16777216
100
AcDbPoint
 10
8.636126798660548
 20
392.5056774344791
 30
0.0
  0
ENDBLK
  5
1DA
330
1D8
100
AcDbEntity
  8
0
100
AcDbBlockEnd
  0
BLOCK
  5
1E6
330
1E5
100
AcDbEntity
  8
0
100
AcDbBlockBegin
  2
*D13
 70
     1
 10
0.0
 20
0.0
 30
0.0
  3
*D13
  1

  0
LINE
  5
1E7
330
1E5
100
AcDbEntity
  8
DIMENSION
440
 16777216
370
     0
100
AcDbLine
 10
1092.625159377854
 20
969.7937323929265
 30
0.0
 11
1092.569709633547
 21
979.7935786580374
 31
0.0
  0
LINE
  5
1E8
330
1E5
100
AcDbEntity
  8
DIMENSION
440
 16777216
370
     0
100
AcDbLine
 10
1454.657182624691
 20
971.8012215670347
 30
0.0
 11
1454.601732880384
 21
981.8010678321458
 31
0.0
  0
LINE
  5
1E9
330
1E5
100
AcDbEntity
  8
DIMENSION
440
 16777216
370
     0
100
AcDbLine
 10
1092.597434505701
 20
974.793655525482
 30
0.0
 11
1454.629457752537
 21
976.8011446995902
 31
0.0
  0
MTEXT
  5
1EA
330
1E5
100
AcDbEntity
  8
DIMENSION
 62
     7
440
 16777216
100
AcDbMText
 10
1273.568105608173
 20
983.9741418578535
 30
0.0
 40
8.0
 41
0.0
 46
0.0
 71
     5
 72
     1
  1
\A1;362
 73
     1
 44
1.0
  0
POINT
  5
1EB
330
1E5
100
AcDbEntity
  8
Defpoints
 62
     0
440
 16777216
100
AcDbPoint
 10
1092.771920384362
 20
943.3267482592359
 30
0.0
  0
POINT
  5
1EC
330
1E5
100
AcDbEntity
  8
Defpoints
 62
     0
440
 16777216
100
AcDbPoint
 10
1454.803943631198
 20
945.3342374333443
 30
0.0
  0
POINT
  5
1ED
330
1E5
100
AcDbEntity
  8
Defpoints
 62
     0
440
 16777216
100
AcDbPoint
 10
1454.629457752537
 20
976.8011446995902
 30
0.0
  0
ENDBLK
  5
1EE
330
1E5
100
AcDbEntity
  8
0
100
AcDbBlockEnd
  0
BLOCK
  5
209
330
208
100
AcDbEntity
  8
0
100
AcDbBlockBegin
  2
*D15
 70
     1
 10
0.0
 20
0.0
 30
0.0
  3
*D15
  1

  0
LINE
  5
20B
330
208
100
AcDbEntity
  8
DIMENSION
440
 16777216
370
     0
100
AcDbLine
 10
373.9620383467528
 20
304.4524373400314
 30
0.0
 11
373.9065886024459
 21
314.4522836051425
 31
0.0
  0
LINE
  5
20C
330
208
100
AcDbEntity
  8
DIMENSION
440
 16777216
370
     0
100
AcDbLine
 10
735.9940615935895
 20
306.4599265141396
 30
0.0
 11
735.9386118492825
 21
316.4597727792507
 31
0.0
  0
LINE
  5
20D
330
208
100
AcDbEntity
  8
DIMENSION
440
 16777216
370
     0
100
AcDbLine
 10
373.9343134745994
 20
309.452360472587
 30
0.0
 11
735.966336721436
 21
311.4598496466952
 31
0.0
  0
MTEXT
  5
20E
330
208
100
AcDbEntity
  8
DIMENSION
 62
     7
440
 16777216
100
AcDbMText
 10
554.9055150323291
 20
318.5371841270909
 30
0.0
 40
8.0
 41
0.0
 46
0.0
 71
     5
 72
     1
  1
\A1;362
 73
     1
 44
1.0
  0
POINT
  5
20F
330
208
100
AcDbEntity
  8
Defpoints
 62
     0
440
 16777216
100
AcDbPoint
 10
374.1087993532604
 20
277.9854532063408
 30
0.0
  0
POINT
  5
210
330
208
100
AcDbEntity
  8
Defpoints
 62
     0
440
 16777216
100
AcDbPoint
 10
736.140822600097
 20
279.9929423804491
 30
0.0
  0
POINT
  5
211
330
208
100
AcDbEntity
  8
Defpoints
 62
     0
440
 16777216
100
AcDbPoint
 10
735.966336721436
 20
311.4598496466952
 30
0.0
  0
ENDBLK
  5
20A
330
208
100
AcDbEntity
  8
0
100
AcDbBlockEnd
  0
BLOCK
  5
213
330
212
100
AcDbEntity
  8
0
100
AcDbBlockBegin
  2
*D16
 70
     1
 10
0.0
 20
0.0
 30
0.0
  3
*D16
  1

  0
LINE
  5
2C1
330
212
100
AcDbEntity
  8
DIMENSION
440
 16777216
370
     0
100
AcDbLine
 10
333.1262792671
 20
208.0642580477
 30
0.0
 11
333.1262792671
 21
218.0642580477
 31
0.0
  0
LINE
  5
2C2
330
212
100
AcDbEntity
  8
DIMENSION
440
 16777216
370
     0
100
AcDbLine
 10
355.3262792671
 20
208.0642580477
 30
0.0
 11
355.3262792671
 21
218.0642580477
 31
0.0
  0
LINE
  5
2C3
330
212
100
AcDbEntity
  8
DIMENSION
440
 16777216
370
     0
100
AcDbLine
 10
333.1262792671
 20
213.0642580477
 30
0.0
 11
355.3262792671
 21
213.0642580477
 31
0.0
  0
MTEXT
  5
2C4
330
212
100
AcDbEntity
  8
DIMENSION
 62
     7
440
 16777216
100
AcDbMText
 10
344.2262792671
 20
225.0642580477
 30
0.0
 40
8.0
 41
0.0
 46
0.0
 71
     2
 72
     1
  1
\A1;%%C22
 73
     1
 44
1.0
  0
POINT
  5
2C5
330
212
100
AcDbEntity
  8
Defpoints
 62
     0
440
 16777216
100
AcDbPoint
 10
333.1262792671
 20
185.9637580477
 30
0.0
  0
POINT
  5
2C6
330
212
100
AcDbEntity
  8
Defpoints
 62
     0
440
 16777216
100
AcDbPoint
 10
355.3262792671
 20
185.9623068516
 30
0.0
  0
POINT
  5
2C7
330
212
100
AcDbEntity
  8
Defpoints
 62
     0
440
 16777216
100
AcDbPoint
 10
355.3262792671
 20
213.0642580477
 30
0.0
  0
ENDBLK
  5
214
330
212
100
AcDbEntity
  8
0
100
AcDbBlockEnd
  0
BLOCK
  5
221
330
220
100
AcDbEntity
  8
0
100
AcDbBlockBegin
  2
*D17
 70
     1
 10
0.0
 20
0.0
 30
0.0
  3
*D17
  1

  0
LINE
  5
223
330
220
100
AcDbEntity
  8
DIMENSION
440
 16777216
370
     0
100
AcDbLine
 10
446.9852697278811
 20
2.500505321399974
 30
0.0
 11
456.9852697278811
 21
2.500505321399975
 31
0.0
  0
LINE
  5
224
330
220
100
AcDbEntity
  8
DIMENSION
440
 16777216
370
     0
100
AcDbLine
 10
446.9852697278811
 20
87.47854707335005
 30
0.0
 11
456.9852697278811
 21
87.47854707335005
 31
0.0
  0
LINE
  5
225
330
220
100
AcDbEntity
  8
DIMENSION
440
 16777216
370
     0
100
AcDbLine
 10
451.9852697278811
 20
2.500505321399975
 30
0.0
 11
451.9852697278811
 21
87.47854707335005
 31
0.0
  0
MTEXT
  5
226
330
220
100
AcDbEntity
  8
DIMENSION
 62
     7
440
 16777216
100
AcDbMText
 10
462.6519363945477
 20
44.98952619737487
 30
0.0
 40
8.0
 41
0.0
 46
0.0
 71
     5
 72
     1
  1
\A1;85
 73
     1
 44
1.0
  0
POINT
  5
227
330
220
100
AcDbEntity
  8
Defpoints
 62
     0
440
 16777216
100
AcDbPoint
 10
419.2262792671002
 20
2.50050532139997
 30
0.0
  0
POINT
  5
228
330
220
100
AcDbEntity
  8
Defpoints
 62
     0
440
 16777216
100
AcDbPoint
 10
408.4476479385002
 20
87.47854707335003
 30
0.0
  0
POINT
  5
229
330
220
100
AcDbEntity
  8
Defpoints
 62
     0
440
 16777216
100
AcDbPoint
 10
451.9852697278811
 20
87.47854707335005
 30
0.0
  0
ENDBLK
  5
222
330
220
100
AcDbEntity
  8
0
100
AcDbBlockEnd
  0
BLOCK
  5
22F
330
22E
100
AcDbEntity
  8
0
100
AcDbBlockBegin
  2
*D18
 70
     1
 10
0.0
 20
0.0
 30
0.0
  3
*D18
  1

  0
LINE
  5
2B3
330
22E
100
AcDbEntity
  8
DIMENSION
440
 16777216
370
     0
100
AcDbLine
 10
427.6448695431818
 20
-42.56949153313294
 30
0.0
 11
437.6448695431817
 21
-42.56949153313293
 31
0.0
  0
LINE
  5
2B4
330
22E
100
AcDbEntity
  8
DIMENSION
440
 16777216
370
     0
100
AcDbLine
 10
427.6448695431818
 20
25.06375804770004
 30
0.0
 11
437.6448695431817
 21
25.06375804770004
 31
0.0
  0
LINE
  5
2B5
330
22E
100
AcDbEntity
  8
DIMENSION
440
 16777216
370
     0
100
AcDbLine
 10
432.6448695431817
 20
-42.56949153313293
 30
0.0
 11
432.6448695431817
 21
25.06375804770004
 31
0.0
  0
MTEXT
  5
2B6
330
22E
100
AcDbEntity
  8
DIMENSION
 62
     7
440
 16777216
100
AcDbMText
 10
443.3115362098483
 20
-8.752866742716573
 30
0.0
 40
8.0
 41
0.0
 46
0.0
 71
     5
 72
     1
  1
\A1;68
 73
     1
 44
1.0
  0
POINT
  5
2B7
330
22E
100
AcDbEntity
  8
Defpoints
 62
     0
440
 16777216
100
AcDbPoint
 10
344.2262792670633
 20
-42.56949153313295
 30
0.0
  0
POINT
  5
2B8
330
22E
100
AcDbEntity
  8
Defpoints
 62
     0
440
 16777216
100
AcDbPoint
 10
299.3262792671001
 20
25.06375804770002
 30
0.0
  0
POINT
  5
2B9
330
22E
100
AcDbEntity
  8
Defpoints
 62
     0
440
 16777216
100
AcDbPoint
 10
432.6448695431817
 20
25.06375804770004
 30
0.0
  0
ENDBLK
  5
230
330
22E
100
AcDbEntity
  8
0
100
AcDbBlockEnd
  0
BLOCK
  5
23D
330
23C
100
AcDbEntity
  8
0
100
AcDbBlockBegin
  2
*D19
 70
     1
 10
0.0
 20
0.0
 30
0.0
  3
*D19
  1

  0
LINE
  5
2BA
330
23C
100
AcDbEntity
  8
DIMENSION
440
 16777216
370
     0
100
AcDbLine
 10
317.2262792670632
 20
-50.2594662722031
 30
0.0
 11
317.2262792670632
 21
-60.2594662722031
 31
0.0
  0
LINE
  5
2BB
330
23C
100
AcDbEntity
  8
DIMENSION
440
 16777216
370
     0
100
AcDbLine
 10
371.2262792671
 20
-50.2594662722031
 30
0.0
 11
371.2262792671
 21
-60.2594662722031
 31
0.0
  0
LINE
  5
2BC
330
23C
100
AcDbEntity
  8
DIMENSION
440
 16777216
370
     0
100
AcDbLine
 10
317.2262792670632
 20
-55.2594662722031
 30
0.0
 11
371.2262792671
 21
-55.2594662722031
 31
0.0
  0
MTEXT
  5
2BD
330
23C
100
AcDbEntity
  8
DIMENSION
 62
     7
440
 16777216
100
AcDbMText
 10
344.2262792670816
 20
-63.2594662722031
 30
0.0
 40
8.0
 41
0.0
 46
0.0
 71
     5
 72
     1
  1
\A1;%%C54
 73
     1
 44
1.0
  0
POINT
  5
2BE
330
23C
100
AcDbEntity
  8
Defpoints
 62
     0
440
 16777216
100
AcDbPoint
 10
317.2262792670632
 20
-42.56949153313293
 30
0.0
  0
POINT
  5
2BF
330
23C
100
AcDbEntity
  8
Defpoints
 62
     0
440
 16777216
100
AcDbPoint
 10
371.2262792671
 20
-42.56949153309999
 30
0.0
  0
POINT
  5
2C0
330
23C
100
AcDbEntity
  8
Defpoints
 62
     0
440
 16777216
100
AcDbPoint
 10
371.2262792671
 20
-55.2594662722031
 30
0.0
  0
ENDBLK
  5
23E
330
23C
100
AcDbEntity
  8
0
100
AcDbBlockEnd
  0
BLOCK
  5
24B
330
24A
100
AcDbEntity
  8
0
100
AcDbBlockBegin
  2
*D20
 70
     1
 10
0.0
 20
0.0
 30
0.0
  3
*D20
  1

  0
LINE
  5
24D
330
24A
100
AcDbEntity
  8
DIMENSION
440
 16777216
370
     0
100
AcDbLine
 10
283.1226198966001
 20
47.56375804770001
 30
0.0
 11
273.1226198966
 21
47.56375804770001
 31
0.0
  0
LINE
  5
24E
330
24A
100
AcDbEntity
  8
DIMENSION
440
 16777216
370
     0
100
AcDbLine
 10
283.1226198966001
 20
-42.56949153310002
 30
0.0
 11
273.1226198966
 21
-42.56949153310002
 31
0.0
  0
LINE
  5
24F
330
24A
100
AcDbEntity
  8
DIMENSION
440
 16777216
370
     0
100
AcDbLine
 10
278.1226198966
 20
47.56375804770001
 30
0.0
 11
278.1226198966
 21
-42.56949153310002
 31
0.0
  0
MTEXT
  5
250
330
24A
100
AcDbEntity
  8
DIMENSION
 62
     7
440
 16777216
100
AcDbMText
 10
268.1226198966
 20
8.475949898199999
 30
0.0
 40
8.0
 41
0.0
 46
0.0
 71
     2
 72
     1
  1
\A1;90
 73
     1
 44
1.0
  0
POINT
  5
251
330
24A
100
AcDbEntity
  8
Defpoints
 62
     0
440
 16777216
100
AcDbPoint
 10
299.3262792671001
 20
47.56375804770001
 30
0.0
  0
POINT
  5
252
330
24A
100
AcDbEntity
  8
Defpoints
 62
     0
440
 16777216
100
AcDbPoint
 10
317.2262792671001
 20
-42.56949153310001
 30
0.0
  0
POINT
  5
253
330
24A
100
AcDbEntity
  8
Defpoints
 62
     0
440
 16777216
100
AcDbPoint
 10
278.1226198966
 20
-42.56949153310002
 30
0.0
  0
ENDBLK
  5
24C
330
24A
100
AcDbEntity
  8
0
100
AcDbBlockEnd
  0
BLOCK
  5
259
330
258
100
AcDbEntity
  8
0
100
AcDbBlockBegin
  2
*D21
 70
     1
 10
0.0
 20
0.0
 30
0.0
  3
*D21
  1

  0
LINE
  5
25B
330
258
100
AcDbEntity
  8
DIMENSION
440
 16777216
370
     0
100
AcDbLine
 10
224.1341424212
 20
-42.56949153309999
 30
0.0
 11
234.1341424212
 21
-42.56949153309999
 31
0.0
  0
LINE
  5
25C
330
258
100
AcDbEntity
  8
DIMENSION
440
 16777216
370
     0
100
AcDbLine
 10
224.1341424212
 20
107.4337580477001
 30
0.0
 11
234.1341424212
 21
107.4337580477001
 31
0.0
  0
LINE
  5
25D
330
258
100
AcDbEntity
  8
DIMENSION
440
 16777216
370
     0
100
AcDbLine
 10
229.1341424212
 20
-42.56949153309999
 30
0.0
 11
229.1341424212
 21
107.4337580477001
 31
0.0
  0
MTEXT
  5
25E
330
258
100
AcDbEntity
  8
DIMENSION
 62
     7
440
 16777216
100
AcDbMText
 10
241.8008090878666
 20
27.6887909622
 30
0.0
 40
8.0
 41
0.0
 46
0.0
 71
     2
 72
     1
  1
\A1;150
 73
     1
 44
1.0
  0
POINT
  5
25F
330
258
100
AcDbEntity
  8
Defpoints
 62
     0
440
 16777216
100
AcDbPoint
 10
73.61023098350003
 20
-42.56949153310001
 30
0.0
  0
POINT
  5
260
330
258
100
AcDbEntity
  8
Defpoints
 62
     0
440
 16777216
100
AcDbPoint
 10
202.7252309835001
 20
107.4337580477001
 30
0.0
  0
POINT
  5
261
330
258
100
AcDbEntity
  8
Defpoints
 62
     0
440
 16777216
100
AcDbPoint
 10
229.1341424212
 20
107.4337580477001
 30
0.0
  0
ENDBLK
  5
25A
330
258
100
AcDbEntity
  8
0
100
AcDbBlockEnd
  0
BLOCK
  5
267
330
266
100
AcDbEntity
  8
0
100
AcDbBlockBegin
  2
*D22
 70
     1
 10
0.0
 20
0.0
 30
0.0
  3
*D22
  1

  0
LINE
  5
269
330
266
100
AcDbEntity
  8
DIMENSION
440
 16777216
370
     0
100
AcDbLine
 10
191.6102309835
 20
-62.909100942
 30
0.0
 11
191.6102309835
 21
-72.909100942
 31
0.0
  0
LINE
  5
26A
330
266
100
AcDbEntity
  8
DIMENSION
440
 16777216
370
     0
100
AcDbLine
 10
46.6102309835
 20
-62.909100942
 30
0.0
 11
46.6102309835
 21
-72.909100942
 31
0.0
  0
LINE
  5
26B
330
266
100
AcDbEntity
  8
DIMENSION
440
 16777216
370
     0
100
AcDbLine
 10
191.6102309835
 20
-67.909100942
 30
0.0
 11
46.6102309835
 21
-67.909100942
 31
0.0
  0
MTEXT
  5
26C
330
266
100
AcDbEntity
  8
DIMENSION
 62
     7
440
 16777216
100
AcDbMText
 10
114.5479385377
 20
-71.90910094199999
 30
0.0
 40
8.0
 41
0.0
 46
0.0
 71
     2
 72
     1
  1
\A1;145
 73
     1
 44
1.0
  0
POINT
  5
26D
330
266
100
AcDbEntity
  8
Defpoints
 62
     0
440
 16777216
100
AcDbPoint
 10
191.6102309835
 20
107.4337580477
 30
0.0
  0
POINT
  5
26E
330
266
100
AcDbEntity
  8
Defpoints
 62
     0
440
 16777216
100
AcDbPoint
 10
46.6102309835
 20
-42.56949153309999
 30
0.0
  0
POINT
  5
26F
330
266
100
AcDbEntity
  8
Defpoints
 62
     0
440
 16777216
100
AcDbPoint
 10
46.6102309835
 20
-67.909100942
 30
0.0
  0
ENDBLK
  5
268
330
266
100
AcDbEntity
  8
0
100
AcDbBlockEnd
  0
BLOCK
  5
275
330
274
100
AcDbEntity
  8
0
100
AcDbBlockBegin
  2
*D23
 70
     1
 10
0.0
 20
0.0
 30
0.0
  3
*D23
  1

  0
LINE
  5
277
330
274
100
AcDbEntity
  8
DIMENSION
440
 16777216
370
     0
100
AcDbLine
 10
-3.725651420300055
 20
197.0637580477001
 30
0.0
 11
-13.72565142030006
 21
197.0637580477001
 31
0.0
  0
LINE
  5
278
330
274
100
AcDbEntity
  8
DIMENSION
440
 16777216
370
     0
100
AcDbLine
 10
-3.725651420299998
 20
-42.56949153310002
 30
0.0
 11
-13.7256514203
 21
-42.56949153310002
 31
0.0
  0
LINE
  5
279
330
274
100
AcDbEntity
  8
DIMENSION
440
 16777216
370
     0
100
AcDbLine
 10
-8.725651420300051
 20
197.0637580477001
 30
0.0
 11
-8.725651420299998
 21
-42.56949153310002
 31
0.0
  0
MTEXT
  5
27A
330
274
100
AcDbEntity
  8
DIMENSION
 62
     7
440
 16777216
100
AcDbMText
 10
-22.7256514203
 20
76.61630915229999
 30
0.0
 40
8.0
 41
0.0
 46
0.0
 71
     2
 72
     1
  1
\A1;240
 73
     1
 44
1.0
  0
POINT
  5
27B
330
274
100
AcDbEntity
  8
Defpoints
 62
     0
440
 16777216
100
AcDbPoint
 10
91.61022230550001
 20
197.0637580477001
 30
0.0
  0
POINT
  5
27C
330
274
100
AcDbEntity
  8
Defpoints
 62
     0
440
 16777216
100
AcDbPoint
 10
19.6102309835
 20
-42.56949153310001
 30
0.0
  0
POINT
  5
27D
330
274
100
AcDbEntity
  8
Defpoints
 62
     0
440
 16777216
100
AcDbPoint
 10
-8.725651420299998
 20
-42.56949153310002
 30
0.0
  0
ENDBLK
  5
276
330
274
100
AcDbEntity
  8
0
100
AcDbBlockEnd
  0
BLOCK
  5
283
330
282
100
AcDbEntity
  8
0
100
AcDbBlockBegin
  2
*D24
 70
     1
 10
0.0
 20
0.0
 30
0.0
  3
*D24
  1

  0
LINE
  5
2C8
330
282
100
AcDbEntity
  8
DIMENSION
440
 16777216
370
     0
100
AcDbLine
 10
24.09526126000001
 20
412.5893953963999
 30
0.0
 11
24.09526126000001
 21
422.5893953964
 31
0.0
  0
LINE
  5
2C9
330
282
100
AcDbEntity
  8
DIMENSION
440
 16777216
370
     0
100
AcDbLine
 10
69.09526126
 20
412.5893953963999
 30
0.0
 11
69.09526126
 21
422.5893953964
 31
0.0
  0
LINE
  5
2CA
330
282
100
AcDbEntity
  8
DIMENSION
440
 16777216
370
     0
100
AcDbLine
 10
24.09526126
 20
417.5893953963999
 30
0.0
 11
69.09526126
 21
417.5893953963999
 31
0.0
  0
MTEXT
  5
2CB
330
282
100
AcDbEntity
  8
DIMENSION
 62
     7
440
 16777216
100
AcDbMText
 10
46.4476942209
 20
429.5893953963999
 30
0.0
 40
8.0
 41
0.0
 46
0.0
 71
     2
 72
     1
  1
\A1;%%C45
 73
     1
 44
1.0
  0
POINT
  5
2CC
330
282
100
AcDbEntity
  8
Defpoints
 62
     0
440
 16777216
100
AcDbPoint
 10
24.09526126
 20
392.4146607933
 30
0.0
  0
POINT
  5
2CD
330
282
100
AcDbEntity
  8
Defpoints
 62
     0
440
 16777216
100
AcDbPoint
 10
69.09526126
 20
392.4146607933
 30
0.0
  0
POINT
  5
2CE
330
282
100
AcDbEntity
  8
Defpoints
 62
     0
440
 16777216
100
AcDbPoint
 10
69.09526126
 20
417.5893953963999
 30
0.0
  0
ENDBLK
  5
284
330
282
100
AcDbEntity
  8
0
100
AcDbBlockEnd
  0
BLOCK
  5
291
330
290
100
AcDbEntity
  8
0
100
AcDbBlockBegin
  2
*D25
 70
     1
 10
0.0
 20
0.0
 30
0.0
  3
*D25
  1

  0
LINE
  5
293
330
290
100
AcDbEntity
  8
DIMENSION
440
 16777216
370
     0
100
AcDbLine
 10
13.65390103914453
 20
317.406860815283
 30
0.0
 11
3.653901319222569
 21
317.4044940536285
 31
0.0
  0
LINE
  5
294
330
290
100
AcDbEntity
  8
DIMENSION
440
 16777216
370
     0
100
AcDbLine
 10
13.63612665862153
 20
392.5068608153063
 30
0.0
 11
3.636126938699566
 21
392.5044940536519
 31
0.0
  0
LINE
  5
295
330
290
100
AcDbEntity
  8
DIMENSION
440
 16777216
370
     0
100
AcDbLine
 10
8.653901179183552
 20
317.4056774344558
 30
0.0
 11
8.636126798660548
 21
392.5056774344791
 31
0.0
  0
MTEXT
  5
296
330
290
100
AcDbEntity
  8
DIMENSION
 62
     7
440
 16777216
100
AcDbMText
 10
-2.023545489515372
 20
354.9531524406485
 30
0.0
 40
8.0
 41
0.0
 46
0.0
 71
     5
 72
     1
  1
\A1;75
 73
     1
 44
1.0
  0
POINT
  5
297
330
290
100
AcDbEntity
  8
Defpoints
 62
     0
440
 16777216
100
AcDbPoint
 10
46.61023098349999
 20
317.4146607933
 30
0.0
  0
POINT
  5
298
330
290
100
AcDbEntity
  8
Defpoints
 62
     0
440
 16777216
100
AcDbPoint
 10
46.59245660297702
 20
392.5146607933233
 30
0.0
  0
POINT
  5
299
330
290
100
AcDbEntity
  8
Defpoints
 62
     0
440
 16777216
100
AcDbPoint
 10
8.636126798660548
 20
392.5056774344791
 30
0.0
  0
ENDBLK
  5
292
330
290
100
AcDbEntity
  8
0
100
AcDbBlockEnd
  0
BLOCK
  5
29F
330
29E
100
AcDbEntity
  8
0
100
AcDbBlockBegin
  2
*D26
 70
     1
 10
0.0
 20
0.0
 30
0.0
  3
*D26
  1

  0
LINE
  5
2CF
330
29E
100
AcDbEntity
  8
DIMENSION
440
 16777216
370
     0
100
AcDbLine
 10
-10.30639308950011
 20
392.5146607933003
 30
0.0
 11
-20.30639308950012
 21
392.5146607933003
 31
0.0
  0
LINE
  5
2D0
330
29E
100
AcDbEntity
  8
DIMENSION
440
 16777216
370
     0
100
AcDbLine
 10
-10.30639308950009
 20
272.5146607933002
 30
0.0
 11
-20.30639308950009
 21
272.5146607933002
 31
0.0
  0
LINE
  5
2D1
330
29E
100
AcDbEntity
  8
DIMENSION
440
 16777216
370
     0
100
AcDbLine
 10
-15.30639308950011
 20
392.5146607933003
 30
0.0
 11
-15.30639308950008
 21
272.5146607933002
 31
0.0
  0
MTEXT
  5
2D2
330
29E
100
AcDbEntity
  8
DIMENSION
 62
     7
440
 16777216
100
AcDbMText
 10
-27.97305975616667
 20
337.8583570124
 30
0.0
 40
8.0
 41
0.0
 46
0.0
 71
     2
 72
     1
  1
\A1;120
 73
     1
 44
1.0
  0
POINT
  5
2D3
330
29E
100
AcDbEntity
  8
Defpoints
 62
     0
440
 16777216
100
AcDbPoint
 10
24.19558112600002
 20
392.5146607933003
 30
0.0
  0
POINT
  5
2D4
330
29E
100
AcDbEntity
  8
Defpoints
 62
     0
440
 16777216
100
AcDbPoint
 10
24.11023098350002
 20
272.5146607933002
 30
0.0
  0
POINT
  5
2D5
330
29E
100
AcDbEntity
  8
Defpoints
 62
     0
440
 16777216
100
AcDbPoint
 10
-15.30639308950008
 20
272.5146607933002
 30
0.0
  0
ENDBLK
  5
2A0
330
29E
100
AcDbEntity
  8
0
100
AcDbBlockEnd
  0
ENDSEC
  0
SECTION
  2
ENTITIES
  0
LINE
  5
74
330
1F
100
AcDbEntity
  8
0
  6
Continuous
 62
     7
370
    25
100
AcDbLine
 10
333.1112792671
 20
127.4337580477
 30
0.0
 11
333.1112792671
 21
107.4337580477
 31
0.0
  0
LINE
  5
75
330
1F
100
AcDbEntity
  8
0
  6
Continuous
 62
     7
370
    25
100
AcDbLine
 10
355.3412792671
 20
107.4337580477
 30
0.0
 11
355.3412792671
 21
127.4337580477
 31
0.0
  0
LINE
  5
76
330
1F
100
AcDbEntity
  8
0
  6
Continuous
 62
     7
370
    25
100
AcDbLine
 10
333.1262792671
 20
185.9637580477
 30
0.0
 11
333.1262792671
 21
140.9637580477
 31
0.0
  0
LINE
  5
77
330
1F
100
AcDbEntity
  8
0
  6
Continuous
 62
     7
370
    25
100
AcDbLine
 10
355.3262792671
 20
140.9637580477
 30
0.0
 11
355.3262792671
 21
185.9625548222
 31
0.0
  0
LINE
  5
78
330
1F
100
AcDbEntity
  8
0
  6
Continuous
 62
     7
370
    25
100
AcDbLine
 10
355.3262792671
 20
185.9625548222
 30
0.0
 11
355.3262792671
 21
185.9637580477
 31
0.0
  0
LINE
  5
79
330
1F
100
AcDbEntity
  8
0
  6
Continuous
 62
     7
370
    25
100
AcDbLine
 10
355.3262792671
 20
61.0637580477
 30
0.0
 11
355.3262792671
 21
107.4337580477
 31
0.0
  0
LINE
  5
7A
330
1F
100
AcDbEntity
  8
0
  6
Continuous
 62
     7
370
    25
100
AcDbLine
 10
355.3262792671
 20
127.4337580477
 30
0.0
 11
355.3262792671
 21
127.6337580477
 31
0.0
  0
LINE
  5
7B
330
1F
100
AcDbEntity
  8
0
  6
Continuous
 62
     7
370
    25
100
AcDbLine
 10
333.1262792671
 20
127.6337580477
 30
0.0
 11
333.1262792671
 21
127.4337580477
 31
0.0
  0
LINE
  5
7C
330
1F
100
AcDbEntity
  8
0
  6
Continuous
 62
     7
370
    25
100
AcDbLine
 10
333.1262792671
 20
107.4337580477
 30
0.0
 11
333.1262792671
 21
61.0637580477
 31
0.0
  0
LINE
  5
7D
330
1F
100
AcDbEntity
  8
0
  6
Continuous
 62
     7
370
    25
100
AcDbLine
 10
371.2262792671
 20
-42.56949153309999
 30
0.0
 11
371.2262792671
 21
-38.5637415479
 31
0.0
  0
LINE
  5
7E
330
1F
100
AcDbEntity
  8
0
  6
Continuous
 62
     7
370
    25
100
AcDbLine
 10
317.2262792671
 20
-38.5637415479
 30
0.0
 11
317.2262792671
 21
-42.56949153309999
 31
0.0
  0
LINE
  5
7F
330
1F
100
AcDbEntity
  8
0
  6
Continuous
 62
     7
370
    25
100
AcDbLine
 10
392.3282023528
 20
45.4193043122
 30
0.0
 11
390.4262792671
 21
45.55408683119999
 31
0.0
  0
ARC
  5
80
330
1F
100
AcDbEntity
  8
0
  6
Continuous
 62
     7
370
    25
100
AcDbCircle
 10
389.9299399255
 20
25.06375804760001
 30
0.0
 40
20.49633934151624
100
AcDbArc
 50
271.3876102049
 51
298.2100375485
  0
LINE
  5
81
330
1F
100
AcDbEntity
  8
0
  6
Continuous
 62
     7
370
    25
100
AcDbLine
 10
390.4262792671
 20
45.55408683119999
 30
0.0
 11
390.2262792671
 21
45.55408683119999
 31
0.0
  0
LINE
  5
82
330
1F
100
AcDbEntity
  8
0
  6
Continuous
 62
     7
370
    25
100
AcDbLine
 10
333.1012792671
 20
61.0637580477
 30
0.0
 11
333.1012792671
 21
47.56375804770001
 31
0.0
  0
LINE
  5
83
330
1F
100
AcDbEntity
  8
0
  6
Continuous
 62
     7
370
    25
100
AcDbLine
 10
355.3512792671
 20
47.5636366718
 30
0.0
 11
355.3512792671
 21
61.0637580477
 31
0.0
  0
LINE
  5
84
330
1F
100
AcDbEntity
  8
0
  6
Continuous
 62
     7
370
    25
100
AcDbLine
 10
412.9262792670999
 20
47.5001840275
 30
0.0
 11
412.9262792670999
 21
87.4996128383
 31
0.0
  0
LINE
  5
85
330
1F
100
AcDbEntity
  8
0
  6
Continuous
 62
     7
370
    25
100
AcDbLine
 10
404.9262792670999
 20
87.4996128383
 30
0.0
 11
404.9262792670999
 21
47.5001840275
 31
0.0
  0
LINE
  5
86
330
1F
100
AcDbEntity
  8
0
  6
Continuous
 62
     7
370
    25
100
AcDbLine
 10
390.2287792671
 20
45.565841381
 30
0.0
 11
390.2262792671
 21
45.5637580477
 31
0.0
  0
LINE
  5
87
330
1F
100
AcDbEntity
  8
0
  6
Continuous
 62
     7
370
    25
100
AcDbLine
 10
390.2262792671
 20
4.563758047699999
 30
0.0
 11
390.2287792671
 21
4.5616747143
 31
0.0
  0
ARC
  5
88
330
1F
100
AcDbEntity
  8
0
  6
Continuous
 62
     7
370
    25
100
AcDbCircle
 10
419.2262792671
 20
47.4005053214
 30
0.0
 40
0.0999999999997954
100
AcDbArc
 50
0.0
 51
90.0
  0
ARC
  5
89
330
1F
100
AcDbEntity
  8
0
  6
Continuous
 62
     7
370
    25
100
AcDbCircle
 10
419.2262792671
 20
2.6005053214
 30
0.0
 40
0.1000000000000307
100
AcDbArc
 50
270.0
 51
0.0
  0
LINE
  5
8A
330
1F
100
AcDbEntity
  8
0
  6
Continuous
 62
     7
370
    25
100
AcDbLine
 10
354.8087271158999
 20
127.4337580477
 30
0.0
 11
333.1112792671
 21
127.4337580477
 31
0.0
  0
LINE
  5
8B
330
1F
100
AcDbEntity
  8
0
  6
Continuous
 62
     7
370
    25
100
AcDbLine
 10
354.8087271158999
 20
107.4337580477
 30
0.0
 11
333.1112792671
 21
107.4337580477
 31
0.0
  0
LINE
  5
8C
330
1F
100
AcDbEntity
  8
0
  6
Continuous
 62
     7
370
    25
100
AcDbLine
 10
355.3412792671
 20
127.4337580477
 30
0.0
 11
354.8087271158999
 21
127.4337580477
 31
0.0
  0
LINE
  5
8D
330
1F
100
AcDbEntity
  8
0
  6
Continuous
 62
     7
370
    25
100
AcDbLine
 10
355.3412792671
 20
107.4337580477
 30
0.0
 11
354.8087271158999
 21
107.4337580477
 31
0.0
  0
LINE
  5
8E
330
1F
100
AcDbEntity
  8
0
  6
Continuous
 62
     7
370
    25
100
AcDbLine
 10
355.3262792671
 20
140.9637580477
 30
0.0
 11
355.3262792671
 21
127.6337580477
 31
0.0
  0
SPLINE
  5
8F
330
1F
100
AcDbEntity
  8
0
  6
Continuous
 62
     7
370
    25
100
AcDbSpline
210
0.0
220
0.0
230
1.0
 70
    24
 71
     3
 72
    14
 73
    10
 74
     0
 42
0.00000001
 43
0.0000000001
 40
0.0
 40
0.0
 40
0.0
 40
0.0
 40
0.2499999999999999
 40
0.2499999999999999
 40
0.5
 40
0.5
 40
0.75
 40
0.75
 40
1.0
 40
1.0
 40
1.0
 40
1.0
 10
344.2262792670634
 20
127.6337580476631
 30
0.0
 10
345.6792658693487
 20
127.6337580476631
 30
0.0
 10
347.1316807834514
 20
127.6337580476631
 30
0.0
 10
349.8164499491803
 20
127.6337580476631
 30
0.0
 10
351.0477478587849
 20
127.6337580476631
 30
0.0
 10
353.1025812176832
 20
127.6337580476631
 30
0.0
 10
353.9253081777956
 20
127.6337580476631
 30
0.0
 10
355.0373759780817
 20
127.6337580476631
 30
0.0
 10
355.3262792670633
 20
127.6337580476631
 30
0.0
 10
355.3262792670633
 20
127.6337580476631
 30
0.0
  0
SPLINE
  5
90
330
1F
100
AcDbEntity
  8
0
  6
Continuous
 62
     7
370
    25
100
AcDbSpline
210
0.0
220
0.0
230
1.0
 70
    24
 71
     3
 72
    14
 73
    10
 74
     0
 42
0.00000001
 43
0.0000000001
 40
0.0
 40
0.0
 40
0.0
 40
0.0
 40
0.25
 40
0.25
 40
0.5
 40
0.5
 40
0.75
 40
0.75
 40
1.0
 40
1.0
 40
1.0
 40
1.0
 10
333.1262792670634
 20
127.6337580476631
 30
0.0
 10
333.1262792670634
 20
127.6337580476631
 30
0.0
 10
333.4151825560451
 20
127.6337580476631
 30
0.0
 10
334.5272503563311
 20
127.6337580476631
 30
0.0
 10
335.3499773164437
 20
127.6337580476631
 30
0.0
 10
337.4048106753418
 20
127.6337580476631
 30
0.0
 10
338.6361085849464
 20
127.6337580476631
 30
0.0
 10
341.3208777506754
 20
127.6337580476631
 30
0.0
 10
342.7732926647781
 20
127.6337580476631
 30
0.0
 10
344.2262792670634
 20
127.6337580476631
 30
0.0
  0
LINE
  5
91
330
1F
100
AcDbEntity
  8
0
  6
Continuous
 62
     7
370
    25
100
AcDbLine
 10
333.1262792671
 20
140.9637580477
 30
0.0
 11
333.1262792671
 21
127.6337580477
 31
0.0
  0
ARC
  5
92
330
1F
100
AcDbEntity
  8
0
  6
Continuous
 62
     7
370
    25
100
AcDbCircle
 10
344.2262792671
 20
185.9637580477
 30
0.0
 40
11.09999999999999
100
AcDbArc
 50
90.0
 51
180.0
  0
SPLINE
  5
93
330
1F
100
AcDbEntity
  8
0
  6
Continuous
 62
     7
370
    25
100
AcDbSpline
210
0.0
220
0.0
230
1.0
 70
     8
 71
     3
 72
    18
 73
    14
 74
     0
 42
0.00000001
 43
0.0000000001
 40
0.0
 40
0.0
 40
0.0
 40
0.0
 40
0.0954032671060932
 40
0.1908065342176572
 40
0.286209806179381
 40
0.3816130780376609
 40
0.4770238217750665
 40
0.5724282684616427
 40
0.6678329370965147
 40
0.7632434453670243
 40
0.8586725370691084
 40
0.9544976764974181
 40
1.0
 40
1.0
 40
1.0
 40
1.0
 10
344.2262792670634
 20
197.0637580476634
 30
0.0
 10
344.7812774608407
 20
197.0396809047791
 30
0.0
 10
345.891273848427
 20
196.991526619009
 30
0.0
 10
347.518881228616
 20
196.6048374500455
 30
0.0
 10
349.0725240210437
 20
195.9970816033772
 30
0.0
 10
350.5174423399538
 20
195.1591387172681
 30
0.0
 10
351.8207955074131
 20
194.1161133978728
 30
0.0
 10
352.9540421827191
 20
192.8895791273956
 30
0.0
 10
353.8902856346044
 20
191.5073310659274
 30
0.0
 10
354.6130459690477
 20
190.0015678856995
 30
0.0
 10
355.0899570384141
 20
188.399017112693
 30
0.0
 10
355.3222931457055
 20
187.0431514902126
 30
0.0
 10
355.3017530676409
 20
186.2206977041449
 30
0.0
 10
355.2951399065645
 20
185.9558973782671
 30
0.0
  0
LINE
  5
94
330
1F
100
AcDbEntity
  8
0
  6
Continuous
 62
     7
370
    25
100
AcDbLine
 10
355.3262792671
 20
61.0637580477
 30
0.0
 11
344.2262792671
 21
61.0637580477
 31
0.0
  0
LINE
  5
95
330
1F
100
AcDbEntity
  8
0
  6
Continuous
 62
     7
370
    25
100
AcDbLine
 10
344.2262792671
 20
61.0637580477
 30
0.0
 11
333.1262792671
 21
61.0637580477
 31
0.0
  0
SPLINE
  5
96
330
1F
100
AcDbEntity
  8
0
  6
Continuous
 62
     7
370
    25
100
AcDbSpline
210
0.0
220
0.0
230
1.0
 70
    24
 71
     3
 72
    22
 73
    18
 74
     0
 42
0.00000001
 43
0.0000000001
 40
0.0
 40
0.0
 40
0.0
 40
0.0
 40
0.1250000000000001
 40
0.1250000000000001
 40
0.2500000000000002
 40
0.2500000000000002
 40
0.3750000000000002
 40
0.3750000000000002
 40
0.5000000000000004
 40
0.5000000000000004
 40
0.6250000000000004
 40
0.6250000000000004
 40
0.7500000000000002
 40
0.7500000000000002
 40
0.8750000000000001
 40
0.8750000000000001
 40
1.0
 40
1.0
 40
1.0
 40
1.0
 10
344.2262792670632
 20
-42.56949153313293
 30
0.0
 10
345.9934251347074
 20
-42.56949153313293
 30
0.0
 10
347.7605273061877
 20
-42.56949153313293
 30
0.0
 10
351.2269086168095
 20
-42.56949153313293
 30
0.0
 10
352.9261020428422
 20
-42.56949153313293
 30
0.0
 10
356.191361838999
 20
-42.56949153313293
 30
0.0
 10
357.7573474691403
 20
-42.56949153313293
 30
0.0
 10
360.6960036480447
 20
-42.56949153313293
 30
0.0
 10
362.0686015327428
 20
-42.5694915331329
 30
0.0
 10
364.5677231854572
 20
-42.56949153313293
 30
0.0
 10
365.6941851577652
 20
-42.56949153313293
 30
0.0
 10
367.6577324406987
 20
-42.56949153313293
 30
0.0
 10
368.4947691987481
 20
-42.56949153313293
 30
0.0
 10
369.8472840909878
 20
-42.56949153313293
 30
0.0
 10
370.3627287815822
 20
-42.56949153313293
 30
0.0
 10
371.0522348943186
 20
-42.56949153313293
 30
0.0
 10
371.2262792670632
 20
-42.56949153313293
 30
0.0
 10
371.2262792670632
 20
-42.56949153313293
 30
0.0
  0
SPLINE
  5
97
330
1F
100
AcDbEntity
  8
0
  6
Continuous
 62
     7
370
    25
100
AcDbSpline
210
0.0
220
0.0
230
1.0
 70
    24
 71
     3
 72
    34
 73
    30
 74
     0
 42
0.00000001
 43
0.0000000001
 40
0.0
 40
0.0
 40
0.0
 40
0.0
 40
0.0116719124796759
 40
0.0233291384540139
 40
0.0349755733882979
 40
0.0466151235822879
 40
0.058251702269191
 40
0.0698892256798113
 40
0.0815316090916021
 40
0.093182762882525
 40
0.1048465886095534
 40
0.116526975131386
 40
0.1782501557086561
 40
0.2400086929242756
 40
0.3043050058758088
 40
0.36863705629583
 40
0.4343017448974452
 40
0.5000023905689065
 40
0.565666033658374
 40
0.6313677195879201
 40
0.6956622259749289
 40
0.7599960823063072
 40
0.8217171332794643
 40
0.8834778010992636
 40
0.9068031327300921
 40
0.9300867100736065
 40
0.9533598330473123
 40
0.9766538437110366
 40
1.0
 40
1.0
 40
1.0
 40
1.0
 10
344.2262792670632
 20
-38.56949153313293
 30
0.0
 10
344.3912357475761
 20
-38.56949153313293
 30
0.0
 10
344.7209411475672
 20
-38.56949153313293
 30
0.0
 10
345.2150788404542
 20
-38.56949153313293
 30
0.0
 10
345.708429635917
 20
-38.56949153313293
 30
0.0
 10
346.200993392947
 20
-38.56949153313293
 30
0.0
 10
346.6927699796224
 20
-38.56949153313293
 30
0.0
 10
347.183759061007
 20
-38.56949153313293
 30
0.0
 10
347.6739611066706
 20
-38.56949153313293
 30
0.0
 10
348.1633735766978
 20
-38.56949153313293
 30
0.0
 10
348.6520051939024
 20
-38.56949153313293
 30
0.0
 10
349.8361203598246
 20
-38.56949153313293
 30
0.0
 10
351.6988889626434
 20
-38.56949153313293
 30
0.0
 10
354.2142609398951
 20
-38.56949153313293
 30
0.0
 10
356.6674921470313
 20
-38.56949153313293
 30
0.0
 10
359.0421908768495
 20
-38.56949153313293
 30
0.0
 10
361.280622147983
 20
-38.56949153313293
 30
0.0
 10
363.3514343368611
 20
-38.56949153313293
 30
0.0
 10
365.2207637956152
 20
-38.56949153313293
 30
0.0
 10
366.8532770023953
 20
-38.56949153313293
 30
0.0
 10
368.2414276097902
 20
-38.56949153313293
 30
0.0
 10
369.3577115416583
 20
-38.56949153313293
 30
0.0
 10
370.216194797513
 20
-38.56949153313293
 30
0.0
 10
370.6922961446255
 20
-38.56949153313293
 30
0.0
 10
370.9436177271856
 20
-38.56949153313293
 30
0.0
 10
371.0700639775937
 20
-38.56949153313293
 30
0.0
 10
371.1597287180474
 20
-38.56949153313293
 30
0.0
 10
371.2158724980898
 20
-38.56949153313293
 30
0.0
 10
371.2228077594364
 20
-38.56949153313293
 30
0.0
 10
371.2262792670632
 20
-38.56949153313293
 30
0.0
  0
SPLINE
  5
98
330
1F
100
AcDbEntity
  8
0
  6
Continuous
 62
     7
370
    25
100
AcDbSpline
210
0.0
220
0.0
230
1.0
 70
    24
 71
     3
 72
    22
 73
    18
 74
     0
 42
0.00000001
 43
0.0000000001
 40
0.0
 40
0.0
 40
0.0
 40
0.0
 40
0.1249999999999999
 40
0.1249999999999999
 40
0.2499999999999999
 40
0.2499999999999999
 40
0.3749999999999998
 40
0.3749999999999998
 40
0.4999999999999999
 40
0.4999999999999999
 40
0.6249999999999999
 40
0.6249999999999999
 40
0.7499999999999999
 40
0.7499999999999999
 40
0.8749999999999998
 40
0.8749999999999998
 40
1.0
 40
1.0
 40
1.0
 40
1.0
 10
317.2262792670632
 20
-42.56949153313293
 30
0.0
 10
317.2262792670632
 20
-42.56949153313293
 30
0.0
 10
317.4003236398078
 20
-42.56949153313293
 30
0.0
 10
318.0898297525442
 20
-42.56949153313293
 30
0.0
 10
318.6052744431386
 20
-42.56949153313293
 30
0.0
 10
319.9577893353783
 20
-42.56949153313293
 30
0.0
 10
320.7948260934277
 20
-42.56949153313293
 30
0.0
 10
322.7583733763612
 20
-42.56949153313293
 30
0.0
 10
323.8848353486694
 20
-42.56949153313293
 30
0.0
 10
326.3839570013835
 20
-42.56949153313293
 30
0.0
 10
327.7565548860817
 20
-42.56949153313293
 30
0.0
 10
330.6952110649861
 20
-42.56949153313293
 30
0.0
 10
332.2611966951273
 20
-42.56949153313293
 30
0.0
 10
335.5264564912841
 20
-42.56949153313293
 30
0.0
 10
337.2256499173169
 20
-42.56949153313293
 30
0.0
 10
340.6920312279386
 20
-42.56949153313293
 30
0.0
 10
342.4591333994189
 20
-42.56949153313293
 30
0.0
 10
344.2262792670632
 20
-42.56949153313293
 30
0.0
  0
SPLINE
  5
99
330
1F
100
AcDbEntity
  8
0
  6
Continuous
 62
     7
370
    25
100
AcDbSpline
210
0.0
220
0.0
230
1.0
 70
    24
 71
     3
 72
    34
 73
    30
 74
     0
 42
0.00000001
 43
0.0000000001
 40
0.0
 40
0.0
 40
0.0
 40
0.0
 40
0.0116752680503978
 40
0.0233351120217668
 40
0.0349834222380479
 40
0.0466241005869569
 40
0.0582610566331402
 40
0.0698982036928298
 40
0.0815394548896254
 40
0.0931887192112442
 40
0.1048498975870768
 40
0.116526879006135
 40
0.1782500638907797
 40
0.2400086055121981
 40
0.3043049229993435
 40
0.3686369779596814
 40
0.4343016711958735
 40
0.5000023215017821
 40
0.5656659692267139
 40
0.6313676597898278
 40
0.6956621707107833
 40
0.7599960315840772
 40
0.8217170876390875
 40
0.8834777590967306
 40
0.9068051113686239
 40
0.9300896985033945
 40
0.9533628231192311
 40
0.9766558340465374
 40
1.0
 40
1.0
 40
1.0
 40
1.0
 10
317.2262792670632
 20
-38.56949153313293
 30
0.0
 10
317.2271515264526
 20
-38.56949153313293
 30
0.0
 10
317.2288948928984
 20
-38.56949153313293
 30
0.0
 10
317.2429368202257
 20
-38.56949153313293
 30
0.0
 10
317.2653482901702
 20
-38.56949153313293
 30
0.0
 10
317.2969464986806
 20
-38.56949153313293
 30
0.0
 10
317.3375128005948
 20
-38.56949153313293
 30
0.0
 10
317.3871056270912
 20
-38.56949153313293
 30
0.0
 10
317.4457096670811
 20
-38.56949153313293
 30
0.0
 10
317.5133276208617
 20
-38.56949153313293
 30
0.0
 10
317.5899638046064
 20
-38.56949153313293
 30
0.0
 10
317.7978756850709
 20
-38.56949153313293
 30
0.0
 10
318.2362455093245
 20
-38.56949153313293
 30
0.0
 10
319.0944478949664
 20
-38.56949153313293
 30
0.0
 10
320.2108858958362
 20
-38.56949153313293
 30
0.0
 10
321.5987049767456
 20
-38.56949153313293
 30
0.0
 10
323.2314587915502
 20
-38.56949153313293
 30
0.0
 10
325.1003853108101
 20
-38.56949153313293
 30
0.0
 10
327.1715283082147
 20
-38.56949153313293
 30
0.0
 10
329.4094860606003
 20
-38.56949153313293
 30
0.0
 10
331.7845924917549
 20
-38.56949153313293
 30
0.0
 10
334.2373058301419
 20
-38.56949153313293
 30
0.0
 10
336.7531802667435
 20
-38.56949153313293
 30
0.0
 10
338.7763625703529
 20
-38.56949153313293
 30
0.0
 10
340.2874085259713
 20
-38.56949153313293
 30
0.0
 10
341.2671969083244
 20
-38.56949153313293
 30
0.0
 10
342.2504547029789
 20
-38.56949153313293
 30
0.0
 10
343.2372077151463
 20
-38.56949153313293
 30
0.0
 10
343.8963477522809
 20
-38.56949153313293
 30
0.0
 10
344.2262792670632
 20
-38.56949153313293
 30
0.0
  0
LINE
  5
9A
330
1F
100
AcDbEntity
  8
0
  6
Continuous
 62
     7
370
    25
100
AcDbLine
 10
390.4262792671
 20
45.55408683119999
 30
0.0
 11
390.4262792671
 21
25.06375804760001
 31
0.0
  0
LINE
  5
9B
330
1F
100
AcDbEntity
  8
0
  6
Continuous
 62
     7
370
    25
100
AcDbLine
 10
390.4262792671
 20
25.06375804760001
 30
0.0
 11
390.4262792671
 21
4.573429263999999
 31
0.0
  0
SPLINE
  5
9C
330
1F
100
AcDbEntity
  8
0
  6
Continuous
 62
     7
370
    25
100
AcDbSpline
210
0.0
220
0.0
230
1.0
 70
     8
 71
     3
 72
    19
 73
    15
 74
     0
 42
0.00000001
 43
0.0000000001
 40
0.0
 40
0.0
 40
0.0
 40
0.0
 40
0.1246851809267794
 40
0.1854376321023466
 40
0.2500382399879024
 40
0.3748229763989324
 40
0.4998780497351333
 40
0.6249656282201275
 40
0.7493014691107643
 40
0.8133058487810767
 40
0.8746292329420441
 40
0.9376747456966471
 40
0.9998798444986649
 40
1.0
 40
1.0
 40
1.0
 40
1.0
 10
344.2262792670632
 20
44.62096579826117
 30
0.0
 10
343.4864822180235
 20
44.64452341461793
 30
0.0
 10
342.3862214493377
 20
44.67955940335942
 30
0.0
 10
340.9621979875631
 20
44.88371994001261
 30
0.0
 10
339.5888908270492
 20
45.14315974310377
 30
0.0
 10
337.9830199020184
 20
45.56986485464435
 30
0.0
 10
336.3174892057149
 20
46.14383963551172
 30
0.0
 10
334.9440971930658
 20
46.70284372140204
 30
0.0
 10
334.0735416375483
 20
47.09706890462931
 30
0.0
 10
333.5774127621768
 20
47.33138104043709
 30
0.0
 10
333.2986590442201
 20
47.46666155034898
 30
0.0
 10
333.1555575910887
 20
47.53679109877654
 30
0.0
 10
333.0648079791472
 20
47.5816561104301
 30
0.0
 10
333.1014203377496
 20
47.563688817929
 30
0.0
 10
333.1014909219188
 20
47.56365417917681
 30
0.0
  0
SPLINE
  5
9D
330
1F
100
AcDbEntity
  8
0
  6
Continuous
 62
     7
370
    25
100
AcDbSpline
210
0.0
220
0.0
230
1.0
 70
    24
 71
     3
 72
    14
 73
    10
 74
     0
 42
0.00000001
 43
0.0000000001
 40
0.0
 40
0.0
 40
0.0
 40
0.0
 40
0.25
 40
0.25
 40
0.5
 40
0.5
 40
0.75
 40
0.75
 40
1.0
 40
1.0
 40
1.0
 40
1.0
 10
344.2262792670633
 20
61.06375804766358
 30
0.0
 10
342.7700201724306
 20
61.06375804766354
 30
0.0
 10
341.3143340535664
 20
61.06375804766359
 30
0.0
 10
338.6235181104373
 20
61.06375804766356
 30
0.0
 10
337.3894470073427
 20
61.06375804766358
 30
0.0
 10
335.3299856453838
 20
61.06375804766356
 30
0.0
 10
334.5054056966225
 20
61.06375804766358
 30
0.0
 10
333.3908332391284
 20
61.06375804766356
 30
0.0
 10
333.1012792670633
 20
61.06375804766358
 30
0.0
 10
333.1012792670632
 20
61.06375804766358
 30
0.0
  0
SPLINE
  5
9E
330
1F
100
AcDbEntity
  8
0
  6
Continuous
 62
     7
370
    25
100
AcDbSpline
210
0.0
220
0.0
230
1.0
 70
     8
 71
     3
 72
    20
 73
    16
 74
     0
 42
0.00000001
 43
0.0000000001
 40
0.0
 40
0.0
 40
0.0
 40
0.0
 40
0.0002794527749332
 40
0.1249334279169119
 40
0.2500515642865751
 40
0.3308155870461125
 40
0.4120234318590875
 40
0.499969818137498
 40
0.5858254722992579
 40
0.6700718682433471
 40
0.7495412577242418
 40
0.8141073019488951
 40
0.8748158869146866
 40
0.9380256652954635
 40
1.0
 40
1.0
 40
1.0
 40
1.0
 10
355.3510340456185
 20
47.5636366718102
 30
0.0
 10
355.3511156465471
 20
47.56367706196857
 30
0.0
 10
355.3875965286934
 20
47.581734069771
 30
0.0
 10
355.1844194387261
 20
47.48066272210977
 30
0.0
 10
354.6276354499697
 20
47.212064288844
 30
0.0
 10
353.8806786425126
 20
46.87078660080227
 30
0.0
 10
353.0814525579145
 20
46.52744638975431
 30
0.0
 10
352.116693926308
 20
46.14507089195897
 30
0.0
 10
351.0019860905825
 20
45.75164967067511
 30
0.0
 10
349.8056035029927
 20
45.39016886546796
 30
0.0
 10
348.6198200573025
 20
45.09753133361878
 30
0.0
 10
347.4955743865292
 20
44.88338284058028
 30
0.0
 10
346.4216171216598
 20
44.7347274909147
 30
0.0
 10
345.3348157468989
 20
44.63933693909361
 30
0.0
 10
344.5933522559922
 20
44.62704908888631
 30
0.0
 10
344.2262792670632
 20
44.62096579826117
 30
0.0
  0
SPLINE
  5
9F
330
1F
100
AcDbEntity
  8
0
  6
Continuous
 62
     7
370
    25
100
AcDbSpline
210
0.0
220
0.0
230
1.0
 70
    24
 71
     3
 72
    14
 73
    10
 74
     0
 42
0.00000001
 43
0.0000000001
 40
0.0
 40
0.0
 40
0.0
 40
0.0
 40
0.2500000000000001
 40
0.2500000000000001
 40
0.5000000000000001
 40
0.5000000000000001
 40
0.75
 40
0.75
 40
1.0
 40
1.0
 40
1.0
 40
1.0
 10
355.3512792670632
 20
61.06375804766358
 30
0.0
 10
355.3512792670631
 20
61.0637580476636
 30
0.0
 10
355.061725294998
 20
61.06375804766358
 30
0.0
 10
353.9471528375039
 20
61.06375804766359
 30
0.0
 10
353.1225728887426
 20
61.06375804766356
 30
0.0
 10
351.0631115267838
 20
61.06375804766356
 30
0.0
 10
349.8290404236892
 20
61.06375804766359
 30
0.0
 10
347.1382244805602
 20
61.06375804766361
 30
0.0
 10
345.6825383616959
 20
61.06375804766359
 30
0.0
 10
344.2262792670633
 20
61.06375804766358
 30
0.0
  0
LWPOLYLINE
  5
A0
330
1F
100
AcDbEntity
  8
0
  6
Continuous
 62
     7
370
    25
100
AcDbPolyline
 90
       14
 70
   128
 43
0.0
 10
408.9262792670999
 20
87.5209891821
 10
409.8835419241999
 20
87.52036802440001
 10
410.7851719552
 20
87.5185406507
 10
411.5787698999999
 20
87.51561326139999
 10
412.2182147305999
 20
87.51175598559999
 10
412.6663442377999
 20
87.5071929943
 10
412.8971147635
 20
87.5021894718
 10
412.8971147635
 20
87.4970362048
 10
412.6663442377999
 20
87.49203268229999
 10
412.2182147305999
 20
87.487469691
 10
411.5787698999999
 20
87.48361241519999
 10
410.7851719552
 20
87.48068502589999
 10
409.8835419241999
 20
87.47885765219999
 10
408.9262792670999
 20
87.47823649450001
  0
ARC
  5
A1
330
1F
100
AcDbEntity
  8
0
  6
Continuous
 62
     7
370
    25
100
AcDbCircle
 10
410.1616968032
 20
190.5602605847
 30
0.0
 40
143.0867863248004
100
AcDbArc
 50
269.5052996013
 51
271.1070817097
  0
LWPOLYLINE
  5
A2
330
1F
100
AcDbEntity
  8
0
  6
Continuous
 62
     7
370
    25
100
AcDbPolyline
 90
       14
 70
   128
 43
0.0
 10
408.9262792670999
 20
87.47823649450001
 10
407.9690166098999
 20
87.47885765219999
 10
407.0673865788999
 20
87.48068502589999
 10
406.2737886340999
 20
87.48361241519999
 10
405.6343438034999
 20
87.487469691
 10
405.1862142962999
 20
87.49203268229999
 10
404.9554437707
 20
87.4970362048
 10
404.9554437707
 20
87.5021894718
 10
405.1862142962999
 20
87.5071929943
 10
405.6343438034999
 20
87.51175598559999
 10
406.2737886340999
 20
87.51561326139999
 10
407.0673865788999
 20
87.5185406507
 10
407.9690166098999
 20
87.52036802440001
 10
408.9262792670999
 20
87.5209891821
  0
ARC
  5
A3
330
1F
100
AcDbEntity
  8
0
  6
Continuous
 62
     7
370
    25
100
AcDbCircle
 10
408.005173203
 20
249.3750841181
 30
0.0
 40
201.8983775924618
100
AcDbArc
 50
269.1262214769
 51
270.2613972121
  0
SPLINE
  5
A4
330
1F
100
AcDbEntity
  8
0
  6
Continuous
 62
     7
370
    25
100
AcDbSpline
210
0.0
220
0.0
230
1.0
 70
     8
 71
     3
 72
    22
 73
    18
 74
     0
 42
0.00000001
 43
0.0000000001
 40
0.0
 40
0.0
 40
0.0
 40
0.0
 40
0.0489342837481688
 40
0.0980670668460001
 40
0.1474202773418103
 40
0.1970151161723901
 40
0.2468719983827191
 40
0.2970104987182235
 40
0.3474500874952274
 40
0.3982133262583897
 40
0.4493231365856629
 40
0.500801955803584
 40
0.5987662024034092
 40
0.6975362806779141
 40
0.7972385336779017
 40
0.8980041916278656
 40
1.0
 40
1.0
 40
1.0
 40
1.0
 10
325.5930296862667
 20
6.430508466867073
 30
0.0
 10
325.6735816805729
 20
6.511909316052124
 30
0.0
 10
325.8350124241157
 20
6.675041212687901
 30
0.0
 10
326.0851545637495
 20
6.926411943153339
 30
0.0
 10
326.3417841579574
 20
7.183137288774052
 30
0.0
 10
326.6055094906802
 20
7.445596188891942
 30
0.0
 10
326.876243369605
 20
7.713577576495517
 30
0.0
 10
327.154086974893
 20
7.987020580038696
 30
0.0
 10
327.4390926720879
 20
8.265827607755529
 30
0.0
 10
327.7313751518371
 20
8.549917788744378
 30
0.0
 10
328.0310724618689
 20
8.839192010195688
 30
0.0
 10
328.4299994967597
 20
9.221389347165999
 30
0.0
 10
328.9361450619048
 20
9.700754161731801
 30
0.0
 10
329.5593229660139
 20
10.28136233409156
 30
0.0
 10
330.2076647468933
 20
10.87360685682431
 30
0.0
 10
330.8806997377371
 20
11.47628654732193
 30
0.0
 10
331.3481508465135
 20
11.88142630902057
 30
0.0
 10
331.5832944099278
 20
12.08522517794619
 30
0.0
  0
SPLINE
  5
A5
330
1F
100
AcDbEntity
  8
0
  6
Continuous
 62
     7
370
    25
100
AcDbSpline
210
0.0
220
0.0
230
1.0
 70
     8
 71
     3
 72
    23
 73
    19
 74
     0
 42
0.00000001
 43
0.0000000001
 40
0.0
 40
0.0
 40
0.0
 40
0.0
 40
0.0610710310050009
 40
0.1223040922851612
 40
0.1836505218742923
 40
0.2451226861162707
 40
0.3067355695240544
 40
0.3685052215809079
 40
0.4304490773418407
 40
0.4925863980825724
 40
0.5549385522294685
 40
0.6175292910374139
 40
0.6803850650929145
 40
0.7435372644671597
 40
0.8070245821231319
 40
0.8708930706908164
 40
0.9351970447381606
 40
1.0
 40
1.0
 40
1.0
 40
1.0
 10
331.5832944099278
 20
12.0852251779462
 30
0.0
 10
331.7037778607921
 20
12.18834600968505
 30
0.0
 10
331.9450644225359
 20
12.39486126763899
 30
0.0
 10
332.3138053654102
 20
12.70435508248156
 30
0.0
 10
332.6880399078987
 20
13.01353089292627
 30
0.0
 10
333.0683401156266
 20
13.32195050536252
 30
0.0
 10
333.4547749396356
 20
13.62928329477217
 30
0.0
 10
333.84757531024
 20
13.93521687252676
 30
0.0
 10
334.2470914194667
 20
14.239229550586
 30
0.0
 10
334.6536648089676
 20
14.54082163525693
 30
0.0
 10
335.06764445809
 20
14.83947830512473
 30
0.0
 10
335.4894002095845
 20
15.13465410343269
 30
0.0
 10
335.9192582460551
 20
15.42587573951989
 30
0.0
 10
336.3577431531727
 20
15.71240976991053
 30
0.0
 10
336.8055413981346
 20
15.99329202199869
 30
0.0
 10
337.2635462915997
 20
16.26724768135917
 30
0.0
 10
337.73178067249
 20
16.53431984777535
 30
0.0
 10
338.0516820425079
 20
16.70365712313865
 30
0.0
 10
338.2122509157698
 20
16.7886529939122
 30
0.0
  0
SPLINE
  5
A6
330
1F
100
AcDbEntity
  8
0
  6
Continuous
 62
     7
370
    25
100
AcDbSpline
210
0.0
220
0.0
230
1.0
 70
     8
 71
     3
 72
    18
 73
    14
 74
     0
 42
0.00000001
 43
0.0000000001
 40
0.0
 40
0.0
 40
0.0
 40
0.0
 40
0.091751687058207
 40
0.1835137886943536
 40
0.2750656003222576
 40
0.3662064788886701
 40
0.4569884064517173
 40
0.5475281117499767
 40
0.6379082128666486
 40
0.7282370186885162
 40
0.8186610764672584
 40
0.9092312963944843
 40
1.0
 40
1.0
 40
1.0
 40
1.0
 10
338.2122509157698
 20
16.7886529939122
 30
0.0
 10
338.3358411504167
 20
16.8519484652039
 30
0.0
 10
338.583035648228
 20
16.97854659234857
 30
0.0
 10
338.9596426516711
 20
17.15854408218183
 30
0.0
 10
339.3398614165362
 20
17.33016514888689
 30
0.0
 10
339.7235985107686
 20
17.49177511033061
 30
0.0
 10
340.1106201718584
 20
17.64288409194616
 30
0.0
 10
340.5012116733637
 20
17.78287480793329
 30
0.0
 10
340.8956584252254
 20
17.91113005685408
 30
0.0
 10
341.2942175992401
 20
18.02715644993894
 30
0.0
 10
341.6971532246935
 20
18.12985051294882
 30
0.0
 10
342.1042373627631
 20
18.21990092743083
 30
0.0
 10
342.3785467141574
 20
18.26743329047674
 30
0.0
 10
342.5158515118691
 20
18.29122548516353
 30
0.0
  0
SPLINE
  5
A7
330
1F
100
AcDbEntity
  8
0
  6
Continuous
 62
     7
370
    25
100
AcDbSpline
210
0.0
220
0.0
230
1.0
 70
     8
 71
     3
 72
    12
 73
     8
 74
     0
 42
0.00000001
 43
0.0000000001
 40
0.0
 40
0.0
 40
0.0
 40
0.0
 40
0.2005324184632715
 40
0.4006187596511813
 40
0.6004111513702465
 40
0.8001293486946696
 40
1.0
 40
1.0
 40
1.0
 40
1.0
 10
342.5158515118691
 20
18.29122548516353
 30
0.0
 10
342.6273927218745
 20
18.30830571687714
 30
0.0
 10
342.8502270224069
 20
18.3424281859328
 30
0.0
 10
343.1861718296773
 20
18.38052935279549
 30
0.0
 10
343.522684113008
 20
18.40852623511192
 30
0.0
 10
343.8599000986676
 20
18.42637286931039
 30
0.0
 10
344.0849907750252
 20
18.42910332442045
 30
0.0
 10
344.1975790523024
 20
18.43046907284681
 30
0.0
  0
SPLINE
  5
A8
330
1F
100
AcDbEntity
  8
0
  6
Continuous
 62
     7
370
    25
100
AcDbSpline
210
0.0
220
0.0
230
1.0
 70
     8
 71
     3
 72
     8
 73
     4
 74
     0
 42
0.00000001
 43
0.0000000001
 40
0.0
 40
0.0
 40
0.0
 40
0.0
 40
1.0
 40
1.0
 40
1.0
 40
1.0
 10
344.1975790523024
 20
18.43046907284688
 30
0.0
 10
344.2071507230237
 20
18.43049534906827
 30
0.0
 10
344.216720665503
 20
18.43050836652908
 30
0.0
 10
344.2262888837924
 20
18.43050830610118
 30
0.0
  0
SPLINE
  5
A9
330
1F
100
AcDbEntity
  8
0
  6
Continuous
 62
     7
370
    25
100
AcDbSpline
210
0.0
220
0.0
230
1.0
 70
     8
 71
     3
 72
    22
 73
    18
 74
     0
 42
0.00000001
 43
0.0000000001
 40
0.0
 40
0.0
 40
0.0
 40
0.0
 40
0.0664172662166273
 40
0.1326416160597947
 40
0.1987380200303342
 40
0.2647687639831504
 40
0.3307932628850038
 40
0.3968679020816685
 40
0.4630459070360868
 40
0.5293772417497542
 40
0.5959085353914712
 40
0.662683036056807
 40
0.7297807867416143
 40
0.7971819707511582
 40
0.8647686739407761
 40
0.9324174606144037
 40
1.0
 40
1.0
 40
1.0
 40
1.0
 10
344.2262888837888
 20
18.43050814591793
 30
0.0
 10
344.3299533776791
 20
18.42960847008706
 30
0.0
 10
344.5369812603503
 20
18.42781173163435
 30
0.0
 10
344.8468701806922
 20
18.41340704310242
 30
0.0
 10
345.1555634640529
 20
18.390625049868
 30
0.0
 10
345.4630753527163
 20
18.35878555466569
 30
0.0
 10
345.7694205127069
 20
18.31828096012537
 30
0.0
 10
346.0746139689625
 20
18.26921957413712
 30
0.0
 10
346.3786710322296
 20
18.21178808599485
 30
0.0
 10
346.681607667365
 20
18.14615579043875
 30
0.0
 10
346.9834390734273
 20
18.07249532727732
 30
0.0
 10
347.284245317629
 20
17.9909792381503
 30
0.0
 10
347.5840051556397
 20
17.90174177920404
 30
0.0
 10
347.8825347675444
 20
17.80517960706153
 30
0.0
 10
348.1792876640428
 20
17.70162838359087
 30
0.0
 10
348.4738905791633
 20
17.59211510130767
 30
0.0
 10
348.6680342856685
 20
17.51409376564326
 30
0.0
 10
348.7650585852423
 20
17.47510220840491
 30
0.0
  0
SPLINE
  5
AA
330
1F
100
AcDbEntity
  8
0
  6
Continuous
 62
     7
370
    25
100
AcDbSpline
210
0.0
220
0.0
230
1.0
 70
     8
 71
     3
 72
    20
 73
    16
 74
     0
 42
0.00000001
 43
0.0000000001
 40
0.0
 40
0.0
 40
0.0
 40
0.0
 40
0.0780173716436055
 40
0.155711980164771
 40
0.2331369609498669
 40
0.310338430618741
 40
0.3873560206954137
 40
0.4642226889615185
 40
0.5409666272462463
 40
0.6176126037525175
 40
0.6941821888779069
 40
0.7706939776258752
 40
0.8471638131468852
 40
0.9236050096605692
 40
1.0
 40
1.0
 40
1.0
 40
1.0
 10
348.7650585852423
 20
17.47510220840492
 30
0.0
 10
348.8809394832663
 20
17.42681875880516
 30
0.0
 10
349.1122218722322
 20
17.3304516114894
 30
0.0
 10
349.4535712879222
 20
17.17651760565865
 30
0.0
 10
349.7901272472364
 20
17.01678244437883
 30
0.0
 10
350.1218052564691
 20
16.85100922657141
 30
0.0
 10
350.4489869609858
 20
16.67992893968318
 30
0.0
 10
350.7718722138906
 20
16.50390234411647
 30
0.0
 10
351.0906254505969
 20
16.32324226221043
 30
0.0
 10
351.405416144858
 20
16.13827138296882
 30
0.0
 10
351.7164034512059
 20
15.94930030503605
 30
0.0
 10
352.0237704662342
 20
15.756657620675
 30
0.0
 10
352.3276042882472
 20
15.5605908871371
 30
0.0
 10
352.6283037665436
 20
15.36165734153894
 30
0.0
 10
352.826126054135
 20
15.22674169152282
 30
0.0
 10
352.9250072946358
 20
15.15930426069024
 30
0.0
  0
SPLINE
  5
AB
330
1F
100
AcDbEntity
  8
0
  6
Continuous
 62
     7
370
    25
100
AcDbSpline
210
0.0
220
0.0
230
1.0
 70
     8
 71
     3
 72
    23
 73
    19
 74
     0
 42
0.00000001
 43
0.0000000001
 40
0.0
 40
0.0
 40
0.0
 40
0.0
 40
0.0315151071270633
 40
0.0629302734712042
 40
0.0942488183506665
 40
0.1254732304197437
 40
0.1566052629632618
 40
0.187646028628599
 40
0.2186042028852727
 40
0.2494961565720303
 40
0.3761104462201397
 40
0.500493607123609
 40
0.6235347844442773
 40
0.7497523517513744
 40
0.8133872001951548
 40
0.8762417104962635
 40
0.9384126843444185
 40
1.0
 40
1.0
 40
1.0
 40
1.0
 10
352.9250072946358
 20
15.15930426069023
 30
0.0
 10
353.0534195064157
 20
15.07038126857494
 30
0.0
 10
353.309836708863
 20
14.89281727714912
 30
0.0
 10
353.6873812351343
 20
14.62179767565089
 30
0.0
 10
354.0591617668782
 20
14.34849042416411
 30
0.0
 10
354.4248881675607
 20
14.07295596484577
 30
0.0
 10
354.784865373278
 20
13.79575283316656
 30
0.0
 10
355.1392668328298
 20
13.51728368945003
 30
0.0
 10
355.4883743468361
 20
13.23791087819243
 30
0.0
 10
356.1878827084155
 20
12.66830676719376
 30
0.0
 10
357.2011293064757
 20
11.80768270975256
 30
0.0
 10
358.4775573818473
 20
10.66789884578982
 30
0.0
 10
359.6848874425193
 20
9.546357819719366
 30
0.0
 10
360.6369346298633
 20
8.63376456501523
 30
0.0
 10
361.3667815604827
 20
7.920688708610081
 30
0.0
 10
361.8911174718832
 20
7.402438308463877
 30
0.0
 10
362.390632725997
 20
6.903830981298306
 30
0.0
 10
362.7037223293182
 20
6.587785803322462
 30
0.0
 10
362.8595288478596
 20
6.430508466867073
 30
0.0
  0
SPLINE
  5
AC
330
1F
100
AcDbEntity
  8
0
  6
Continuous
 62
     7
370
    25
100
AcDbSpline
210
0.0
220
0.0
230
1.0
 70
    24
 71
     3
 72
    14
 73
    10
 74
     0
 42
0.00000001
 43
0.0000000001
 40
0.0
 40
0.0
 40
0.0
 40
0.0
 40
0.25
 40
0.25
 40
0.5
 40
0.5
 40
0.75
 40
0.75
 40
1.0
 40
1.0
 40
1.0
 40
1.0
 10
362.8595288478596
 20
6.430508466867073
 30
0.0
 10
363.4756769915086
 20
5.814360323218152
 30
0.0
 10
364.0315936500879
 20
5.258443664638818
 30
0.0
 10
364.9980100645058
 20
4.292027250220888
 30
0.0
 10
365.4084164192338
 20
3.881620895492889
 30
0.0
 10
366.0673478431485
 20
3.222689471578208
 30
0.0
 10
366.3158318337157
 20
2.974205481011058
 30
0.0
 10
366.6452872760182
 20
2.644750038708607
 30
0.0
 10
366.7262792670632
 20
2.563758047663581
 30
0.0
 10
366.7262792670632
 20
2.563758047663581
 30
0.0
  0
LINE
  5
AD
330
1F
100
AcDbEntity
  8
0
  6
Continuous
 62
     7
370
    25
100
AcDbLine
 10
366.7262792671
 20
2.563758047699999
 30
0.0
 11
366.7262792671
 21
-38.5694915331
 31
0.0
  0
LINE
  5
AE
330
1F
100
AcDbEntity
  8
0
  6
Continuous
 62
     7
370
    25
100
AcDbLine
 10
321.7262792671
 20
2.518314190099999
 30
0.0
 11
321.7262792671
 21
-38.5694915331
 31
0.0
  0
SPLINE
  5
AF
330
1F
100
AcDbEntity
  8
0
  6
Continuous
 62
     7
370
    25
100
AcDbSpline
210
0.0
220
0.0
230
1.0
 70
    24
 71
     3
 72
    14
 73
    10
 74
     0
 42
0.00000001
 43
0.0000000001
 40
0.0
 40
0.0
 40
0.0
 40
0.0
 40
0.25
 40
0.25
 40
0.5
 40
0.5
 40
0.75
 40
0.75
 40
1.0
 40
1.0
 40
1.0
 40
1.0
 10
325.5930296862667
 20
6.430508466867073
 30
0.0
 10
324.9768815426177
 20
5.807119062362726
 30
0.0
 10
324.4209648840384
 20
5.244669011481336
 30
0.0
 10
323.4545484696206
 20
4.266894819840675
 30
0.0
 10
323.0441421148925
 20
3.851665177885473
 30
0.0
 10
322.3852106909778
 20
3.184989684016856
 30
0.0
 10
322.1367267004106
 20
2.933585393498069
 30
0.0
 10
321.8072712581082
 20
2.600258036912425
 30
0.0
 10
321.7262792670632
 20
2.518314190148279
 30
0.0
 10
321.7262792670632
 20
2.518314190148279
 30
0.0
  0
LINE
  5
B0
330
1F
100
AcDbEntity
  8
0
  6
Continuous
 62
     7
370
    25
100
AcDbLine
 10
390.2262792671
 20
2.563758047699999
 30
0.0
 11
366.7262792671
 21
2.563758047699999
 31
0.0
  0
SPLINE
  5
B1
330
1F
100
AcDbEntity
  8
0
  6
Continuous
 62
     7
370
    25
100
AcDbSpline
210
0.0
220
0.0
230
1.0
 70
    24
 71
     3
 72
    14
 73
    10
 74
     0
 42
0.00000001
 43
0.0000000001
 40
0.0
 40
0.0
 40
0.0
 40
0.0
 40
0.2500000000000001
 40
0.2500000000000001
 40
0.5000000000000001
 40
0.5000000000000001
 40
0.7500000000000002
 40
0.7500000000000002
 40
1.0
 40
1.0
 40
1.0
 40
1.0
 10
362.8595288478596
 20
6.430508466867073
 30
0.0
 10
363.4756769915086
 20
5.814360323218152
 30
0.0
 10
364.031593650088
 20
5.258443664638818
 30
0.0
 10
364.9980100645058
 20
4.292027250220916
 30
0.0
 10
365.4084164192338
 20
3.881620895492889
 30
0.0
 10
366.0673478431485
 20
3.222689471578221
 30
0.0
 10
366.3158318337157
 20
2.974205481011058
 30
0.0
 10
366.6452872760182
 20
2.644750038708579
 30
0.0
 10
366.7262792670632
 20
2.563758047663581
 30
0.0
 10
366.7262792670632
 20
2.563758047663581
 30
0.0
  0
SPLINE
  5
B2
330
1F
100
AcDbEntity
  8
0
  6
Continuous
 62
     7
370
    25
100
AcDbSpline
210
0.0
220
0.0
230
1.0
 70
     8
 71
     3
 72
    40
 73
    36
 74
     0
 42
0.00000001
 43
0.0000000001
 40
0.0
 40
0.0
 40
0.0
 40
0.0
 40
0.0087527427506827
 40
0.0175446060729019
 40
0.0263768591404043
 40
0.0352507537969551
 40
0.044167524347918
 40
0.0531283873810055
 40
0.0621345416154011
 40
0.0933247139535379
 40
0.1247911124991207
 40
0.1559841711937172
 40
0.1870395919713229
 40
0.2491601669645586
 40
0.3207966915908178
 40
0.3578649129955732
 40
0.3922346204598758
 40
0.4459780370745615
 40
0.4731575842760345
 40
0.4996483655118358
 40
0.5347104910369609
 40
0.5712771156753345
 40
0.6057165761798217
 40
0.6430179867470675
 40
0.6968022569357039
 40
0.7501869342751462
 40
0.8125394729726536
 40
0.8438063935375689
 40
0.8752200625739055
 40
0.906468346837182
 40
0.9374491076545835
 40
0.9532863436817031
 40
0.9689861025119563
 40
0.9845550446894284
 40
1.0
 40
1.0
 40
1.0
 40
1.0
 10
325.5930296862667
 20
6.430508466867073
 30
0.0
 10
325.6641534753421
 20
6.502392646567363
 30
0.0
 10
325.8067189427941
 20
6.646482293851576
 30
0.0
 10
326.0269196028311
 20
6.867952335465665
 30
0.0
 10
326.2523486233441
 20
7.09378589936098
 30
0.0
 10
326.483435151966
 20
7.32424338386571
 30
0.0
 10
326.7200628447245
 20
7.559124196008417
 30
0.0
 10
326.9622649894933
 20
7.798354706685981
 30
0.0
 10
327.413018556359
 20
8.241285431183257
 30
0.0
 10
328.0954627567242
 20
8.904089500618702
 30
0.0
 10
329.037857724186
 20
9.798594590908356
 30
0.0
 10
330.0249021411875
 20
10.7109314730016
 30
0.0
 10
331.3943005693021
 20
11.93588310773888
 30
0.0
 10
333.3257310469547
 20
13.5671580069648
 30
0.0
 10
335.5106776958314
 20
15.19468558062165
 30
0.0
 10
337.4871866174056
 20
16.41955993529563
 30
0.0
 10
339.3111579975359
 20
17.36541276163921
 30
0.0
 10
341.1138457471234
 20
18.0342852703495
 30
0.0
 10
342.8729672272617
 20
18.37067371142547
 30
0.0
 10
344.3520817128244
 20
18.46851843483904
 30
0.0
 10
345.9892602665206
 20
18.33081527324612
 30
0.0
 10
347.7061158965536
 20
17.90256144128256
 30
0.0
 10
349.3751097177967
 20
17.24410603771405
 30
0.0
 10
351.2067623901108
 20
16.29632854533506
 30
0.0
 10
353.1753076896718
 20
15.02426817552776
 30
0.0
 10
355.3194842871649
 20
13.40416576856059
 30
0.0
 10
357.0437539346973
 20
11.94855355358708
 30
0.0
 10
358.4210257477243
 20
10.71704713264282
 30
0.0
 10
359.4104788519493
 20
9.80254436657775
 30
0.0
 10
360.3509566717726
 20
8.909945923834941
 30
0.0
 10
361.0947352473628
 20
8.187721415303233
 30
0.0
 10
361.6648250844841
 20
7.626514027279179
 30
0.0
 10
362.0806037863627
 20
7.213542978067505
 30
0.0
 10
362.4801720073778
 20
6.813616667626962
 30
0.0
 10
362.7334140366869
 20
6.557870394323594
 30
0.0
 10
362.8595288478596
 20
6.430508466867073
 30
0.0
  0
SPLINE
  5
B3
330
1F
100
AcDbEntity
  8
0
  6
Continuous
 62
     7
370
    25
100
AcDbSpline
210
0.0
220
0.0
230
1.0
 70
    24
 71
     3
 72
    14
 73
    10
 74
     0
 42
0.00000001
 43
0.0000000001
 40
0.0
 40
0.0
 40
0.0
 40
0.0
 40
0.2499999999999999
 40
0.2499999999999999
 40
0.5
 40
0.5
 40
0.75
 40
0.75
 40
1.0
 40
1.0
 40
1.0
 40
1.0
 10
321.7262792670632
 20
2.563758047663581
 30
0.0
 10
321.7262792670632
 20
2.563758047663581
 30
0.0
 10
321.8072712581082
 20
2.644750038708579
 30
0.0
 10
322.1367267004106
 20
2.97420548101103
 30
0.0
 10
322.3852106909778
 20
3.222689471578221
 30
0.0
 10
323.0441421148925
 20
3.881620895492863
 30
0.0
 10
323.4545484696206
 20
4.292027250220916
 30
0.0
 10
324.4209648840384
 20
5.258443664638832
 30
0.0
 10
324.9768815426177
 20
5.814360323218152
 30
0.0
 10
325.5930296862667
 20
6.430508466867073
 30
0.0
  0
LINE
  5
B4
330
1F
100
AcDbEntity
  8
0
  6
Continuous
 62
     7
370
    25
100
AcDbLine
 10
321.7262792671
 20
2.563758047699999
 30
0.0
 11
299.3262792671
 21
2.563758047699999
 31
0.0
  0
LINE
  5
B5
330
1F
100
AcDbEntity
  8
0
  6
Continuous
 62
     7
370
    25
100
AcDbLine
 10
299.3262792671
 20
47.56375804770001
 30
0.0
 11
299.3262792671
 21
2.563758047699999
 31
0.0
  0
LINE
  5
B6
330
1F
100
AcDbEntity
  8
0
  6
Continuous
 62
     7
370
    25
100
AcDbLine
 10
333.1012792671
 20
47.56375804770001
 30
0.0
 11
299.3262792671
 21
47.56375804770001
 31
0.0
  0
SPLINE
  5
B7
330
1F
100
AcDbEntity
  8
0
  6
Continuous
 62
     7
370
    25
100
AcDbSpline
210
0.0
220
0.0
230
1.0
 70
     8
 71
     3
 72
    36
 73
    32
 74
     0
 42
0.00000001
 43
0.0000000001
 40
0.0
 40
0.0
 40
0.0
 40
0.0
 40
0.0089121923118321
 40
0.0178144099516717
 40
0.0267138281612836
 40
0.0356176289503184
 40
0.0445329837369239
 40
0.0534670361159103
 40
0.0624268849600203
 40
0.0936214888907206
 40
0.1250481131866319
 40
0.1561109441632766
 40
0.1873857830041604
 40
0.2500023627897054
 40
0.3124130462801901
 40
0.3747767088808371
 40
0.4372108004790445
 40
0.4993787086684957
 40
0.5619782858477666
 40
0.6244550479137424
 40
0.6870024302941561
 40
0.7496842806707271
 40
0.8119890032550504
 40
0.8434149480989487
 40
0.8746304250544575
 40
0.9059103190384803
 40
0.9369625704825155
 40
0.9527787572581155
 40
0.9685307367963526
 40
0.9842579440146106
 40
1.0
 40
1.0
 40
1.0
 40
1.0
 10
355.3512792670631
 20
47.56375804766356
 30
0.0
 10
355.3504185377402
 20
47.56332956583899
 30
0.0
 10
355.3486980424366
 20
47.56247308175368
 30
0.0
 10
355.3347527910395
 20
47.55555709033356
 30
0.0
 10
355.3124834907891
 20
47.54455037142615
 30
0.0
 10
355.2810768590128
 20
47.52907580648432
 30
0.0
 10
355.2407518855739
 20
47.50927099544013
 30
0.0
 10
355.1914464652904
 20
47.48513416263867
 30
0.0
 10
355.0850858145211
 20
47.43324042574372
 30
0.0
 10
354.8778090566868
 20
47.33275272333365
 30
0.0
 10
354.5037492256767
 20
47.15599415351024
 30
0.0
 10
354.0335780870315
 20
46.940509498548
 30
0.0
 10
353.2866641260993
 20
46.6127063939599
 30
0.0
 10
352.1403109005951
 20
46.14584386525171
 30
0.0
 10
350.4762072971204
 20
45.57180528768995
 30
0.0
 10
348.5662850820085
 20
45.06449023310371
 30
0.0
 10
346.4634607009594
 20
44.70886643053529
 30
0.0
 10
344.2436176774133
 20
44.57807423230532
 30
0.0
 10
342.0219296795595
 20
44.70477379929533
 30
0.0
 10
339.9096705753536
 20
45.05921177606979
 30
0.0
 10
337.9921506614034
 20
45.56674482228962
 30
0.0
 10
336.3247424023573
 20
46.14114251698779
 30
0.0
 10
335.1756990242618
 20
46.60857363626758
 30
0.0
 10
334.4267501792022
 20
46.93700043724354
 30
0.0
 10
333.9545884945155
 20
47.15330160018623
 30
0.0
 10
333.5797894617112
 20
47.33034374512254
 30
0.0
 10
333.3520666388153
 20
47.44070161331753
 30
0.0
 10
333.2225833717155
 20
47.50395746032057
 30
0.0
 10
333.1529355858021
 20
47.53818477212752
 30
0.0
 10
333.1093379061798
 20
47.55974526443028
 30
0.0
 10
333.103966324962
 20
47.56242003255615
 30
0.0
 10
333.1012792670632
 20
47.56375804766356
 30
0.0
  0
LINE
  5
B8
330
1F
100
AcDbEntity
  8
0
  6
Continuous
 62
     7
370
    25
100
AcDbLine
 10
390.2262792671
 20
47.56375804770001
 30
0.0
 11
355.3512792671
 21
47.56375804770001
 31
0.0
  0
LINE
  5
B9
330
1F
100
AcDbEntity
  8
0
  6
Continuous
 62
     7
370
    25
100
AcDbLine
 10
390.2262792671
 20
2.563758047699999
 30
0.0
 11
390.2262792671
 21
47.56375804770001
 31
0.0
  0
SPLINE
  5
BA
330
1F
100
AcDbEntity
  8
0
  6
Continuous
 62
     7
370
    25
100
AcDbSpline
210
0.0
220
0.0
230
1.0
 70
    24
 71
     3
 72
    12
 73
     8
 74
     0
 42
0.00000001
 43
0.0000000001
 40
0.0
 40
0.0
 40
0.0
 40
0.0
 40
0.2292363410686762
 40
0.4554597538600366
 40
0.6782233535637668
 40
0.8982820319102312
 40
1.0
 40
1.0
 40
1.0
 40
1.0
 10
325.5930296862667
 20
6.430508466867073
 30
0.0
 10
325.0890663183394
 20
5.920622285982584
 30
0.0
 10
324.0877633380153
 20
4.907551525213882
 30
0.0
 10
322.9260192872906
 20
3.732154115624982
 30
0.0
 10
322.1278698569967
 20
2.924624460321309
 30
0.0
 10
321.7318393748862
 20
2.523939642954123
 30
0.0
 10
321.7676799239988
 20
2.56020140694388
 30
0.0
 10
321.7790096083353
 20
2.571664243023616
 30
0.0
  0
SPLINE
  5
BB
330
1F
100
AcDbEntity
  8
0
  6
Continuous
 62
     7
370
    25
100
AcDbSpline
210
0.0
220
0.0
230
1.0
 70
    24
 71
     3
 72
    22
 73
    18
 74
     0
 42
0.00000001
 43
0.0000000001
 40
0.0
 40
0.0
 40
0.0
 40
0.0
 40
0.125
 40
0.125
 40
0.25
 40
0.25
 40
0.375
 40
0.375
 40
0.5
 40
0.5
 40
0.625
 40
0.625
 40
0.75
 40
0.75
 40
0.875
 40
0.875
 40
1.0
 40
1.0
 40
1.0
 40
1.0
 10
419.3262792670632
 20
24.88079779609298
 30
0.0
 10
419.3262792670632
 20
25.81411780167899
 30
0.0
 10
419.3262792670632
 20
26.80665985071691
 30
0.0
 10
419.3262792670632
 20
28.90387219343839
 30
0.0
 10
419.3262792670632
 20
30.00884527940119
 30
0.0
 10
419.3262792670632
 20
32.30614778988518
 30
0.0
 10
419.3262792670632
 20
33.49878535456318
 30
0.0
 10
419.3262792670632
 20
35.9182010905724
 30
0.0
 10
419.3262792670632
 20
37.14510947343037
 30
0.0
 10
419.3262792670631
 20
39.54398528975506
 30
0.0
 10
419.3262792670632
 20
40.71561664582239
 30
0.0
 10
419.3262792670632
 20
42.88091306982074
 30
0.0
 10
419.3262792670632
 20
43.87356462523515
 30
0.0
 10
419.3262792670632
 20
45.54362740680015
 30
0.0
 10
419.3262792670631
 20
46.2195664392055
 30
0.0
 10
419.3262792670631
 20
47.14342968178214
 30
0.0
 10
419.3262792670632
 20
47.39020982835469
 30
0.0
 10
419.3262792670632
 20
47.40018545546354
 30
0.0
  0
SPLINE
  5
BC
330
1F
100
AcDbEntity
  8
0
  6
Continuous
 62
     7
370
    25
100
AcDbSpline
210
0.0
220
0.0
230
1.0
 70
    24
 71
     3
 72
    22
 73
    18
 74
     0
 42
0.00000001
 43
0.0000000001
 40
0.0
 40
0.0
 40
0.0
 40
0.0
 40
0.125
 40
0.125
 40
0.25
 40
0.25
 40
0.375
 40
0.375
 40
0.5
 40
0.5
 40
0.625
 40
0.625
 40
0.75
 40
0.75
 40
0.875
 40
0.875
 40
1.0
 40
1.0
 40
1.0
 40
1.0
 10
392.3262792670632
 20
47.50050532139947
 30
0.0
 10
392.3262792670632
 20
47.50050532139948
 30
0.0
 10
392.3262792670632
 20
47.36218745665253
 30
0.0
 10
392.3262792670632
 20
46.8139743897615
 30
0.0
 10
392.3262792670632
 20
46.40409152104314
 30
0.0
 10
392.3262792670632
 20
45.32776284896724
 30
0.0
 10
392.3262792670632
 20
44.66134126031835
 30
0.0
 10
392.3262792670632
 20
43.09635513459871
 30
0.0
 10
392.3262792670632
 20
42.1978258058096
 30
0.0
 10
392.3262792670632
 20
40.20155453409781
 30
0.0
 10
392.3262792670632
 20
39.10385750229596
 30
0.0
 10
392.3262792670632
 20
36.74948428262434
 30
0.0
 10
392.3262792670632
 20
35.49286106227544
 30
0.0
 10
392.3262792670632
 20
32.86669709093229
 30
0.0
 10
392.3262792670632
 20
31.49721542207254
 30
0.0
 10
392.3262792670632
 20
28.69553572976331
 30
0.0
 10
392.3262792670632
 20
27.26340073711396
 30
0.0
 10
392.3262792670632
 20
25.82615774429982
 30
0.0
  0
LINE
  5
BD
330
1F
100
AcDbEntity
  8
0
  6
Continuous
 62
     7
370
    25
100
AcDbLine
 10
392.3262792671
 20
47.5005053214
 30
0.0
 11
404.9262792670999
 21
47.5005053214
 31
0.0
  0
LINE
  5
BE
330
1F
100
AcDbEntity
  8
0
  6
Continuous
 62
     7
370
    25
100
AcDbLine
 10
412.9262792670999
 20
47.5005053214
 30
0.0
 11
419.2262792671
 21
47.5005053214
 31
0.0
  0
LINE
  5
BF
330
1F
100
AcDbEntity
  8
0
  6
Continuous
 62
     7
370
    25
100
AcDbLine
 10
401.3261559937999
 20
2.500505321399999
 30
0.0
 11
419.2262792671
 21
2.500505321399999
 31
0.0
  0
SPLINE
  5
C0
330
1F
100
AcDbEntity
  8
0
  6
Continuous
 62
     7
370
    25
100
AcDbSpline
210
0.0
220
0.0
230
1.0
 70
     8
 71
     3
 72
     8
 73
     4
 74
     0
 42
0.00000001
 43
0.0000000001
 40
0.0
 40
0.0
 40
0.0
 40
0.0
 40
1.0
 40
1.0
 40
1.0
 40
1.0
 10
392.3262792670632
 20
25.82615774429982
 30
0.0
 10
392.4472990042976
 20
25.51101002947857
 30
0.0
 10
392.568318741532
 20
25.19561899809124
 30
0.0
 10
392.6893384787664
 20
24.88026338749791
 30
0.0
  0
SPLINE
  5
C1
330
1F
100
AcDbEntity
  8
0
  6
Continuous
 62
     7
370
    25
100
AcDbSpline
210
0.0
220
0.0
230
1.0
 70
     8
 71
     3
 72
    33
 73
    29
 74
     0
 42
0.00000001
 43
0.0000000001
 40
0.0
 40
0.0
 40
0.0
 40
0.0
 40
0.0141621144121328
 40
0.0274129332432219
 40
0.0397524516897571
 40
0.0511806654851643
 40
0.0616975709555923
 40
0.0713031651021691
 40
0.0799974457263604
 40
0.0877804116287193
 40
0.1402034653883277
 40
0.186712062860871
 40
0.2442592134950523
 40
0.2975705067511361
 40
0.4202368049534057
 40
0.4886612389242913
 40
0.554110184691688
 40
0.6268577438602894
 40
0.6972158992880725
 40
0.7728392508817429
 40
0.8468683468495793
 40
0.8688937376149176
 40
0.8908628048341961
 40
0.912779427779516
 40
0.9346475136330175
 40
0.9564709956465582
 40
0.9782538312339823
 40
1.0
 40
1.0
 40
1.0
 40
1.0
 10
392.6893384787664
 20
24.88026338749791
 30
0.0
 10
392.7510353232619
 20
24.71952063100227
 30
0.0
 10
392.8704589792396
 20
24.40837850032075
 30
0.0
 10
393.0435231061765
 20
23.95740168998366
 30
0.0
 10
393.204589342181
 20
23.53778185010886
 30
0.0
 10
393.3536507782832
 20
23.14957019621473
 30
0.0
 10
393.4907098518595
 20
22.79276357519215
 30
0.0
 10
393.6157644018635
 20
22.46731920062737
 30
0.0
 10
393.7288213920522
 20
22.17316179746055
 30
0.0
 10
394.0269780196874
 20
21.39719020629915
 30
0.0
 10
394.4861910885597
 20
20.20139521828138
 30
0.0
 10
395.150387128681
 20
18.47418434691066
 30
0.0
 10
395.8047326309982
 20
16.77205068712931
 30
0.0
 10
396.74787609293
 20
14.32146253254149
 30
0.0
 10
397.6803472067924
 20
11.90014631070004
 30
0.0
 10
398.5638424678524
 20
9.608278477414339
 30
0.0
 10
399.2149486236237
 20
7.922031673950447
 30
0.0
 10
399.7992638228899
 20
6.409606486321258
 30
0.0
 10
400.323699813338
 20
5.056013435343606
 30
0.0
 10
400.7502962902113
 20
3.956862539655616
 30
0.0
 10
400.9962816596237
 20
3.327141785804191
 30
0.0
 10
401.1242321625323
 20
3.001166681753986
 30
0.0
 10
401.1851142404
 20
2.846640007956188
 30
0.0
 10
401.2352089932056
 20
2.720267448092825
 30
0.0
 10
401.2745907961491
 20
2.621887618342963
 30
0.0
 10
401.3029940125191
 20
2.552190614599548
 30
0.0
 10
401.3214039643656
 20
2.50858453354888
 30
0.0
 10
401.3245728737671
 20
2.50319687934565
 30
0.0
 10
401.3261559937966
 20
2.50050532139949
 30
0.0
  0
SPLINE
  5
C2
330
1F
100
AcDbEntity
  8
0
  6
Continuous
 62
     7
370
    25
100
AcDbSpline
210
0.0
220
0.0
230
1.0
 70
    24
 71
     3
 72
    22
 73
    18
 74
     0
 42
0.00000001
 43
0.0000000001
 40
0.0
 40
0.0
 40
0.0
 40
0.0
 40
0.1250000000000001
 40
0.1250000000000001
 40
0.2500000000000002
 40
0.2500000000000002
 40
0.3750000000000002
 40
0.3750000000000002
 40
0.5000000000000002
 40
0.5000000000000002
 40
0.6250000000000002
 40
0.6250000000000002
 40
0.7500000000000001
 40
0.7500000000000001
 40
0.8750000000000001
 40
0.8750000000000001
 40
1.0
 40
1.0
 40
1.0
 40
1.0
 10
419.3262792670632
 20
2.600825187335397
 30
0.0
 10
419.3262792670632
 20
2.590849560226523
 30
0.0
 10
419.3262792670632
 20
2.817687896962003
 30
0.0
 10
419.3262792670632
 20
3.703471396577214
 30
0.0
 10
419.3262792670632
 20
4.361285845441306
 30
0.0
 10
419.3262792670632
 20
5.998211595779621
 30
0.0
 10
419.3262792670632
 20
6.975852513398272
 30
0.0
 10
419.3262792670632
 20
9.114791866709257
 30
0.0
 10
419.3262792670632
 20
10.27506991457801
 30
0.0
 10
419.3262792670632
 20
12.65479252685366
 30
0.0
 10
419.3262792670632
 20
13.87389188654839
 30
0.0
 10
419.3262792670632
 20
16.28073387416028
 30
0.0
 10
419.3262792670632
 20
17.46859966908113
 30
0.0
 10
419.3262792670632
 20
19.75875165005347
 30
0.0
 10
419.3262792670632
 20
20.86134209283232
 30
0.0
 10
419.3262792670632
 20
22.95555448190843
 30
0.0
 10
419.3262792670632
 20
23.94747779050699
 30
0.0
 10
419.3262792670632
 20
24.88079779609298
 30
0.0
  0
DIMENSION
  5
C3
102
{ACAD_XDICTIONARY
360
254
102
}
330
1F
100
AcDbEntity
  8
DIMENSION
100
AcDbDimension
280
     0
  2
*D20
 10
278.1226198966
 20
-42.56949153310002
 30
0.0
 11
278.1226198966
 21
4.475949898199999
 31
0.0
 70
   160
  1
<>
 71
     2
 42
90.13324958080003
 73
     0
 74
     0
 75
     0
  3
RG Dimension Lines
100
AcDbAlignedDimension
 13
299.3262792671
 23
47.56375804770001
 33
0.0
 14
317.2262792671
 24
-42.56949153309999
 34
0.0
 50
90.0
100
AcDbRotatedDimension
1001
AcadAnnotative
1000
AnnotativeData
1002
{
1070
     1
1070
     1
1002
}
  0
DIMENSION
  5
D0
102
{ACAD_XDICTIONARY
360
21C
102
}
330
1F
100
AcDbEntity
  8
DIMENSION
100
AcDbDimension
280
     0
  2
*D16
 10
355.3262792671
 20
213.0642580477
 30
0.0
 11
344.2262792671
 21
213.0642580477
 31
0.0
 70
   160
  1
<>
 71
     2
 42
22.19999999999999
 73
     0
 74
     0
 75
     0
  3
RG Dimension Lines
100
AcDbAlignedDimension
 13
333.1262792671
 23
185.9637580477
 33
0.0
 14
355.3262792671
 24
185.9623068516
 34
0.0
100
AcDbRotatedDimension
1001
AcadAnnotative
1000
AnnotativeData
1002
{
1070
     1
1070
     1
1002
}
1001
ACAD
1000
DSTYLE
1002
{
1070
     3
1000
%%C<>
1002
}
  0
LINE
  5
D8
330
1F
100
AcDbEntity
  8
0
  6
Continuous
 62
     7
370
    25
100
AcDbLine
 10
202.7252309835
 20
107.4337580477
 30
0.0
 11
202.7252309835
 21
127.4337580477
 31
0.0
  0
LINE
  5
D9
330
1F
100
AcDbEntity
  8
0
  6
Continuous
 62
     7
370
    25
100
AcDbLine
 10
180.4952309835
 20
127.4337580477
 30
0.0
 11
180.4952309835
 21
107.4337580477
 31
0.0
  0
LINE
  5
DA
330
1F
100
AcDbEntity
  8
0
  6
Continuous
 62
     7
370
    25
100
AcDbLine
 10
180.5102309835
 20
140.9637580477
 30
0.0
 11
180.5102309835
 21
127.6337580477
 31
0.0
  0
LINE
  5
DB
330
1F
100
AcDbEntity
  8
0
  6
Continuous
 62
     7
370
    25
100
AcDbLine
 10
202.7102309835
 20
127.6337580477
 30
0.0
 11
202.7102309835
 21
140.9637580477
 31
0.0
  0
LINE
  5
DC
330
1F
100
AcDbEntity
  8
0
  6
Continuous
 62
     7
370
    25
100
AcDbLine
 10
35.4949568784
 20
44.62195294919999
 30
0.0
 11
35.6464270885
 21
44.62195294919999
 31
0.0
  0
LINE
  5
DD
330
1F
100
AcDbEntity
  8
0
  6
Continuous
 62
     7
370
    25
100
AcDbLine
 10
24.1102309835
 20
6.4305084669
 30
0.0
 11
24.1102309835
 21
-38.5694915331
 31
0.0
  0
LINE
  5
DE
330
1F
100
AcDbEntity
  8
0
  6
Continuous
 62
     7
370
    25
100
AcDbLine
 10
69.1102309835
 20
-38.5694915331
 30
0.0
 11
69.1102309835
 21
6.4305084669
 31
0.0
  0
ARC
  5
DF
330
1F
100
AcDbEntity
  8
0
  6
Continuous
 62
     7
370
    25
100
AcDbCircle
 10
89.107223696
 20
7.055759074199999
 30
0.0
 40
65.00000000000122
100
AcDbArc
 50
169.9248855754
 51
180.5511503604
  0
LINE
  5
E0
330
1F
100
AcDbEntity
  8
0
  6
Continuous
 62
     7
370
    25
100
AcDbLine
 10
68.1099525966
 20
18.4305047514
 30
0.0
 11
67.9975689801
 21
18.4305047514
 31
0.0
  0
LINE
  5
E1
330
1F
100
AcDbEntity
  8
0
  6
Continuous
 62
     7
370
    25
100
AcDbLine
 10
202.7252309835
 20
127.4337580477
 30
0.0
 11
188.2109630437
 21
127.4337580477
 31
0.0
  0
LINE
  5
E2
330
1F
100
AcDbEntity
  8
0
  6
Continuous
 62
     7
370
    25
100
AcDbLine
 10
202.7252309835
 20
107.4337580477
 30
0.0
 11
188.2109630437
 21
107.4337580477
 31
0.0
  0
LINE
  5
E3
330
1F
100
AcDbEntity
  8
0
  6
Continuous
 62
     7
370
    25
100
AcDbLine
 10
188.2109630437
 20
127.4337580477
 30
0.0
 11
180.4952309835
 21
127.4337580477
 31
0.0
  0
LINE
  5
E4
330
1F
100
AcDbEntity
  8
0
  6
Continuous
 62
     7
370
    25
100
AcDbLine
 10
188.2109630437
 20
107.4337580477
 30
0.0
 11
180.4952309835
 21
107.4337580477
 31
0.0
  0
SPLINE
  5
E5
330
1F
100
AcDbEntity
  8
0
  6
Continuous
 62
     7
370
    25
100
AcDbSpline
210
0.0
220
0.0
230
1.0
 70
    24
 71
     3
 72
    14
 73
    10
 74
     0
 42
0.00000001
 43
0.0000000001
 40
0.0
 40
0.0
 40
0.0
 40
0.0
 40
0.2500000000000001
 40
0.2500000000000001
 40
0.5
 40
0.5
 40
0.75
 40
0.75
 40
1.0
 40
1.0
 40
1.0
 40
1.0
 10
180.510230983468
 20
127.6337580476631
 30
0.0
 10
180.510230983468
 20
127.6337580476631
 30
0.0
 10
180.7991342724497
 20
127.6337580476631
 30
0.0
 10
181.9112020727358
 20
127.6337580476631
 30
0.0
 10
182.7339290328482
 20
127.6337580476631
 30
0.0
 10
184.7887623917465
 20
127.6337580476631
 30
0.0
 10
186.020060301351
 20
127.6337580476631
 30
0.0
 10
188.70482946708
 20
127.6337580476631
 30
0.0
 10
190.1572443811828
 20
127.6337580476631
 30
0.0
 10
191.610230983468
 20
127.6337580476631
 30
0.0
  0
SPLINE
  5
E6
330
1F
100
AcDbEntity
  8
0
  6
Continuous
 62
     7
370
    25
100
AcDbSpline
210
0.0
220
0.0
230
1.0
 70
    24
 71
     3
 72
    14
 73
    10
 74
     0
 42
0.00000001
 43
0.0000000001
 40
0.0
 40
0.0
 40
0.0
 40
0.0
 40
0.25
 40
0.25
 40
0.5
 40
0.5
 40
0.75
 40
0.75
 40
1.0
 40
1.0
 40
1.0
 40
1.0
 10
191.610230983468
 20
127.6337580476631
 30
0.0
 10
193.0632175857532
 20
127.6337580476631
 30
0.0
 10
194.5156324998561
 20
127.6337580476631
 30
0.0
 10
197.200401665585
 20
127.6337580476631
 30
0.0
 10
198.4316995751895
 20
127.6337580476631
 30
0.0
 10
200.4865329340878
 20
127.6337580476631
 30
0.0
 10
201.3092598942003
 20
127.6337580476631
 30
0.0
 10
202.4213276944863
 20
127.6337580476631
 30
0.0
 10
202.7102309834681
 20
127.6337580476631
 30
0.0
 10
202.710230983468
 20
127.6337580476631
 30
0.0
  0
LINE
  5
E7
330
1F
100
AcDbEntity
  8
0
  6
Continuous
 62
     7
370
    25
100
AcDbLine
 10
91.6102309835
 20
174.8637580477
 30
0.0
 11
146.6102309835
 21
174.8637580477
 31
0.0
  0
LINE
  5
E8
330
1F
100
AcDbEntity
  8
0
  6
Continuous
 62
     7
370
    25
100
AcDbLine
 10
91.61022041299998
 20
197.0637580477
 30
0.0
 11
91.51261813780001
 21
197.0637580477
 31
0.0
  0
LINE
  5
E9
330
1F
100
AcDbEntity
  8
0
  6
Continuous
 62
     7
370
    25
100
AcDbLine
 10
91.61022230549999
 20
197.0637580477
 30
0.0
 11
146.6102309835
 21
197.0637580477
 31
0.0
  0
ARC
  5
EA
330
1F
100
AcDbEntity
  8
0
  6
Continuous
 62
     7
370
    25
100
AcDbCircle
 10
91.6102309835
 20
140.9637580477
 30
0.0
 40
56.1
100
AcDbArc
 50
90.09969352769999
 51
180.0
  0
ARC
  5
EB
330
1F
100
AcDbEntity
  8
0
  6
Continuous
 62
     7
370
    25
100
AcDbCircle
 10
91.6102309835
 20
140.9637580477
 30
0.0
 40
33.89999999999999
100
AcDbArc
 50
90.0
 51
180.0
  0
LINE
  5
EC
330
1F
100
AcDbEntity
  8
0
  6
Continuous
 62
     7
370
    25
100
AcDbLine
 10
146.6102309835
 20
197.0637580477
 30
0.0
 11
146.7078313397
 21
197.0637580477
 31
0.0
  0
ARC
  5
ED
330
1F
100
AcDbEntity
  8
0
  6
Continuous
 62
     7
370
    25
100
AcDbCircle
 10
146.6102309835
 20
140.9637580477
 30
0.0
 40
56.09999999999999
100
AcDbArc
 50
0.0
 51
89.90031737089999
  0
ARC
  5
EE
330
1F
100
AcDbEntity
  8
0
  6
Continuous
 62
     7
370
    25
100
AcDbCircle
 10
146.6102309835
 20
140.9637580477
 30
0.0
 40
33.90000000000001
100
AcDbArc
 50
0.0
 51
90.0
  0
LINE
  5
EF
330
1F
100
AcDbEntity
  8
0
  6
Continuous
 62
     7
370
    25
100
AcDbLine
 10
57.7102309835
 20
61.0637580477
 30
0.0
 11
35.5102309835
 21
61.0637580477
 31
0.0
  0
LINE
  5
F0
330
1F
100
AcDbEntity
  8
0
  6
Continuous
 62
     7
370
    25
100
AcDbLine
 10
35.5102309835
 20
140.9637580477
 30
0.0
 11
35.5102309835
 21
61.0637580477
 31
0.0
  0
LINE
  5
F1
330
1F
100
AcDbEntity
  8
0
  6
Continuous
 62
     7
370
    25
100
AcDbLine
 10
57.7102309835
 20
140.9637580477
 30
0.0
 11
57.7102309835
 21
61.0637580477
 31
0.0
  0
SPLINE
  5
F2
330
1F
100
AcDbEntity
  8
0
  6
Continuous
 62
     7
370
    25
100
AcDbSpline
210
0.0
220
0.0
230
1.0
 70
    24
 71
     3
 72
    22
 73
    18
 74
     0
 42
0.00000001
 43
0.0000000001
 40
0.0
 40
0.0
 40
0.0
 40
0.0
 40
0.1249999999999999
 40
0.1249999999999999
 40
0.2499999999999999
 40
0.2499999999999999
 40
0.3749999999999998
 40
0.3749999999999998
 40
0.4999999999999999
 40
0.4999999999999999
 40
0.6249999999999999
 40
0.6249999999999999
 40
0.7499999999999999
 40
0.7499999999999999
 40
0.8749999999999998
 40
0.8749999999999998
 40
1.0
 40
1.0
 40
1.0
 40
1.0
 10
46.61023098346803
 20
-42.56949153313293
 30
0.0
 10
48.3773768511123
 20
-42.56949153313293
 30
0.0
 10
50.14447902259261
 20
-42.56949153313293
 30
0.0
 10
53.61086033321438
 20
-42.56949153313293
 30
0.0
 10
55.31005375924703
 20
-42.56949153313293
 30
0.0
 10
58.57531355540388
 20
-42.56949153313293
 30
0.0
 10
60.14129918554509
 20
-42.56949153313293
 30
0.0
 10
63.07995536444952
 20
-42.56949153313293
 30
0.0
 10
64.45255324914779
 20
-42.56949153313293
 30
0.0
 10
66.95167490186185
 20
-42.56949153313293
 30
0.0
 10
68.07813687417
 20
-42.56949153313293
 30
0.0
 10
70.04168415710349
 20
-42.56949153313293
 30
0.0
 10
70.87872091515286
 20
-42.56949153313293
 30
0.0
 10
72.23123580739265
 20
-42.56949153313293
 30
0.0
 10
72.74668049798705
 20
-42.56949153313293
 30
0.0
 10
73.43618661072344
 20
-42.56949153313293
 30
0.0
 10
73.61023098346804
 20
-42.56949153313293
 30
0.0
 10
73.61023098346804
 20
-42.56949153313293
 30
0.0
  0
SPLINE
  5
F3
330
1F
100
AcDbEntity
  8
0
  6
Continuous
 62
     7
370
    25
100
AcDbSpline
210
0.0
220
0.0
230
1.0
 70
    24
 71
     3
 72
    22
 73
    18
 74
     0
 42
0.00000001
 43
0.0000000001
 40
0.0
 40
0.0
 40
0.0
 40
0.0
 40
0.125
 40
0.125
 40
0.25
 40
0.25
 40
0.375
 40
0.375
 40
0.5
 40
0.5
 40
0.625
 40
0.625
 40
0.75
 40
0.75
 40
0.875
 40
0.875
 40
1.0
 40
1.0
 40
1.0
 40
1.0
 10
19.61023098346805
 20
-42.56949153313293
 30
0.0
 10
19.61023098346804
 20
-42.56949153313293
 30
0.0
 10
19.78427535621262
 20
-42.56949153313293
 30
0.0
 10
20.47378146894899
 20
-42.56949153313293
 30
0.0
 10
20.98922615954338
 20
-42.56949153313293
 30
0.0
 10
22.34174105178316
 20
-42.56949153313293
 30
0.0
 10
23.17877780983253
 20
-42.56949153313293
 30
0.0
 10
25.14232509276603
 20
-42.56949153313293
 30
0.0
 10
26.26878706507417
 20
-42.56949153313293
 30
0.0
 10
28.76790871778826
 20
-42.56949153313293
 30
0.0
 10
30.14050660248653
 20
-42.56949153313293
 30
0.0
 10
33.07916278139098
 20
-42.56949153313293
 30
0.0
 10
34.64514841153215
 20
-42.56949153313293
 30
0.0
 10
37.91040820768902
 20
-42.56949153313293
 30
0.0
 10
39.60960163372167
 20
-42.56949153313293
 30
0.0
 10
43.07598294434344
 20
-42.56949153313293
 30
0.0
 10
44.84308511582378
 20
-42.56949153313293
 30
0.0
 10
46.61023098346806
 20
-42.56949153313293
 30
0.0
  0
LINE
  5
F4
330
1F
100
AcDbEntity
  8
0
  6
Continuous
 62
     7
370
    25
100
AcDbLine
 10
19.6102309835
 20
-38.5694915331
 30
0.0
 11
19.6102309835
 21
-42.56949153309999
 31
0.0
  0
LINE
  5
F5
330
1F
100
AcDbEntity
  8
0
  6
Continuous
 62
     7
370
    25
100
AcDbLine
 10
73.6102309835
 20
-38.5694915331
 30
0.0
 11
73.6102309835
 21
-42.56949153309999
 31
0.0
  0
SPLINE
  5
F6
330
1F
100
AcDbEntity
  8
0
  6
Continuous
 62
     7
370
    25
100
AcDbSpline
210
0.0
220
0.0
230
1.0
 70
    24
 71
     3
 72
    34
 73
    30
 74
     0
 42
0.00000001
 43
0.0000000001
 40
0.0
 40
0.0
 40
0.0
 40
0.0
 40
0.0116719124787412
 40
0.023329138452352
 40
0.0349755733861165
 40
0.0466151235797945
 40
0.0582517022665926
 40
0.0698892256773143
 40
0.0815316090894124
 40
0.0931827628808468
 40
0.1048465886085903
 40
0.1165269751313404
 40
0.1782501557039352
 40
0.2400086929242259
 40
0.3043050058750189
 40
0.3686370562958163
 40
0.4343017448992861
 40
0.5000023905688927
 40
0.5656660336580084
 40
0.6313677195879014
 40
0.6956622259721371
 40
0.7599960823062898
 40
0.8217171332801459
 40
0.8834778010992941
 40
0.9068031327317541
 40
0.9300867100760877
 40
0.9533598330497934
 40
0.9766538437126911
 40
1.0
 40
1.0
 40
1.0
 40
1.0
 10
19.61023098346805
 20
-38.56949153313293
 30
0.0
 10
19.61109413570284
 20
-38.56949153313293
 30
0.0
 10
19.61281935408736
 20
-38.56949153313293
 30
0.0
 10
19.62684153589224
 20
-38.56949153313293
 30
0.0
 10
19.64923857993255
 20
-38.56949153313293
 30
0.0
 10
19.68082836101038
 20
-38.56949153313293
 30
0.0
 10
19.72139203125202
 20
-38.56949153313293
 30
0.0
 10
19.77098807168721
 20
-38.56949153313293
 30
0.0
 10
19.82960118328466
 20
-38.56949153313293
 30
0.0
 10
19.89723395207089
 20
-38.56949153313293
 30
0.0
 10
19.97389113117733
 20
-38.56949153313293
 30
0.0
 10
20.1818191536717
 20
-38.56949153313293
 30
0.0
 10
20.62019608635358
 20
-38.56949153313293
 30
0.0
 10
21.47839993102478
 20
-38.56949153313293
 30
0.0
 10
22.59483752521065
 20
-38.56949153313293
 30
0.0
 10
23.98265671700689
 20
-38.56949153313293
 30
0.0
 10
25.61541050156142
 20
-38.56949153313293
 30
0.0
 10
27.48433702873815
 20
-38.56949153313293
 30
0.0
 10
29.55548002481397
 20
-38.56949153313293
 30
0.0
 10
31.79343777458508
 20
-38.56949153313293
 30
0.0
 10
34.16854421725572
 20
-38.56949153313293
 30
0.0
 10
36.62125750360774
 20
-38.56949153313293
 30
0.0
 10
39.13713209289051
 20
-38.56949153313293
 30
0.0
 10
41.16028612702726
 20
-38.56949153313293
 30
0.0
 10
42.67129020928041
 20
-38.56949153313293
 30
0.0
 10
43.65103659445944
 20
-38.56949153313293
 30
0.0
 10
44.63429431284093
 20
-38.56949153313293
 30
0.0
 10
45.62108919798559
 20
-38.56949153313293
 30
0.0
 10
46.2802713907086
 20
-38.56949153313293
 30
0.0
 10
46.61023098346803
 20
-38.56949153313293
 30
0.0
  0
SPLINE
  5
F7
330
1F
100
AcDbEntity
  8
0
  6
Continuous
 62
     7
370
    25
100
AcDbSpline
210
0.0
220
0.0
230
1.0
 70
    24
 71
     3
 72
    34
 73
    30
 74
     0
 42
0.00000001
 43
0.0000000001
 40
0.0
 40
0.0
 40
0.0
 40
0.0
 40
0.0116752680503978
 40
0.0233351120217668
 40
0.0349834222380479
 40
0.0466241005869569
 40
0.0582610566331402
 40
0.0698982036928298
 40
0.0815394548896254
 40
0.0931887192112442
 40
0.1048498975870768
 40
0.116526879006135
 40
0.1782500638907797
 40
0.2400086055121981
 40
0.3043049229993435
 40
0.3686369779596814
 40
0.4343016711958735
 40
0.5000023215017821
 40
0.5656659692267139
 40
0.6313676597898278
 40
0.6956621707107833
 40
0.7599960315840772
 40
0.8217170876390875
 40
0.8834777590967306
 40
0.9068051113686239
 40
0.9300896985033945
 40
0.9533628231192311
 40
0.9766558340465374
 40
1.0
 40
1.0
 40
1.0
 40
1.0
 10
46.61023098346803
 20
-38.56949153313293
 30
0.0
 10
46.77523482121082
 20
-38.56949153313293
 30
0.0
 10
47.10502451178822
 20
-38.56949153313293
 30
0.0
 10
47.59927251850423
 20
-38.56949153313293
 30
0.0
 10
48.09270213039721
 20
-38.56949153313293
 30
0.0
 10
48.58531315946192
 20
-38.56949153313293
 30
0.0
 10
49.07710548716622
 20
-38.56949153313293
 30
0.0
 10
49.56807877379588
 20
-38.56949153313293
 30
0.0
 10
50.05823349538529
 20
-38.56949153313293
 30
0.0
 10
50.54756709087872
 20
-38.56949153313293
 30
0.0
 10
51.03608835919047
 20
-38.56949153313293
 30
0.0
 10
52.22011952046138
 20
-38.56949153313293
 30
0.0
 10
54.08284047267724
 20
-38.56949153313293
 30
0.0
 10
56.59821271331415
 20
-38.56949153313293
 30
0.0
 10
59.05144384773755
 20
-38.56949153313293
 30
0.0
 10
61.42614259749246
 20
-38.56949153313293
 30
0.0
 10
63.66457386350635
 20
-38.56949153313293
 30
0.0
 10
65.73538605261555
 20
-38.56949153313293
 30
0.0
 10
67.60471551567936
 20
-38.56949153313293
 30
0.0
 10
69.23722870505243
 20
-38.56949153313293
 30
0.0
 10
70.6253793763228
 20
-38.56949153313293
 30
0.0
 10
71.74166307798017
 20
-38.56949153313293
 30
0.0
 10
72.60014717395996
 20
-38.56949153313293
 30
0.0
 10
73.0762526126542
 20
-38.56949153313293
 30
0.0
 10
73.32758292536198
 20
-38.56949153313293
 30
0.0
 10
73.45403813548111
 20
-38.56949153313293
 30
0.0
 10
73.54370337885687
 20
-38.56949153313293
 30
0.0
 10
73.59984080967262
 20
-38.56949153313293
 30
0.0
 10
73.60676506053001
 20
-38.56949153313293
 30
0.0
 10
73.61023098346804
 20
-38.56949153313293
 30
0.0
  0
SPLINE
  5
F8
330
1F
100
AcDbEntity
  8
0
  6
Continuous
 62
     7
370
    25
100
AcDbSpline
210
0.0
220
0.0
230
1.0
 70
     8
 71
     3
 72
    12
 73
     8
 74
     0
 42
0.00000001
 43
0.0000000001
 40
0.0
 40
0.0
 40
0.0
 40
0.0
 40
0.2818881871439248
 40
0.4326700292408912
 40
0.5930026326023384
 40
0.9027065549554571
 40
1.0
 40
1.0
 40
1.0
 40
1.0
 10
57.71566899760724
 20
44.6319490794325
 30
0.0
 10
57.67727832647495
 20
44.65388538741782
 30
0.0
 10
57.61835250567459
 20
44.68755541493339
 30
0.0
 10
57.26362055448749
 20
44.88383067282113
 30
0.0
 10
56.76328992792743
 20
45.14373185412671
 30
0.0
 10
56.17711980310289
 20
45.44956895786625
 30
0.0
 10
55.56571168569607
 20
45.69705221721901
 30
0.0
 10
55.4195534870545
 20
45.75621353083445
 30
0.0
  0
SPLINE
  5
F9
330
1F
100
AcDbEntity
  8
0
  6
Continuous
 62
     7
370
    25
100
AcDbSpline
210
0.0
220
0.0
230
1.0
 70
     8
 71
     3
 72
    14
 73
    10
 74
     0
 42
0.00000001
 43
0.0000000001
 40
0.0
 40
0.0
 40
0.0
 40
0.0
 40
0.1744229130153055
 40
0.3478439397554847
 40
0.5103775648042435
 40
0.64243788055924
 40
0.7666021985846168
 40
0.8958870981953516
 40
1.0
 40
1.0
 40
1.0
 40
1.0
 10
38.73772301899086
 20
46.14154630145761
 30
0.0
 10
38.40570463425791
 20
46.01194946023983
 30
0.0
 10
37.7435749804169
 20
45.75350018284982
 30
0.0
 10
36.95468433101258
 20
45.39129743034237
 30
0.0
 10
36.36426053282922
 20
45.09792698044729
 30
0.0
 10
35.95737299809645
 20
44.88347736287532
 30
0.0
 10
35.68772130820368
 20
44.7351715520722
 30
0.0
 10
35.52487220483604
 20
44.64376066055069
 30
0.0
 10
35.50418494560317
 20
44.63182765612137
 30
0.0
 10
35.49495687843179
 20
44.62650464231895
 30
0.0
  0
LINE
  5
FA
330
1F
100
AcDbEntity
  8
0
  6
Continuous
 62
     7
370
    25
100
AcDbLine
 10
35.4852309835
 20
61.0637580477
 30
0.0
 11
35.4852309835
 21
44.62096579829999
 31
0.0
  0
SPLINE
  5
FB
330
1F
100
AcDbEntity
  8
0
  6
Continuous
 62
     7
370
    25
100
AcDbSpline
210
0.0
220
0.0
230
1.0
 70
    24
 71
     3
 72
    14
 73
    10
 74
     0
 42
0.00000001
 43
0.0000000001
 40
0.0
 40
0.0
 40
0.0
 40
0.0
 40
0.25
 40
0.25
 40
0.5
 40
0.5
 40
0.75
 40
0.75
 40
1.0
 40
1.0
 40
1.0
 40
1.0
 10
46.61023098346759
 20
61.06375804766358
 30
0.0
 10
45.15397188883472
 20
61.06375804766354
 30
0.0
 10
43.69828576997039
 20
61.06375804766359
 30
0.0
 10
41.00746982684088
 20
61.06375804766356
 30
0.0
 10
39.7733987237461
 20
61.06375804766358
 30
0.0
 10
37.71393736178706
 20
61.06375804766356
 30
0.0
 10
36.88935741302561
 20
61.06375804766358
 30
0.0
 10
35.77478495553159
 20
61.06375804766356
 30
0.0
 10
35.48523098346658
 20
61.06375804766358
 30
0.0
 10
35.48523098346658
 20
61.06375804766358
 30
0.0
  0
SPLINE
  5
FC
330
1F
100
AcDbEntity
  8
0
  6
Continuous
 62
     7
370
    25
100
AcDbSpline
210
0.0
220
0.0
230
1.0
 70
    24
 71
     3
 72
    14
 73
    10
 74
     0
 42
0.00000001
 43
0.0000000001
 40
0.0
 40
0.0
 40
0.0
 40
0.0
 40
0.25
 40
0.25
 40
0.5
 40
0.5
 40
0.75
 40
0.75
 40
1.0
 40
1.0
 40
1.0
 40
1.0
 10
57.73523098346659
 20
61.06375804766358
 30
0.0
 10
57.73523098346659
 20
61.06375804766354
 30
0.0
 10
57.44567701140164
 20
61.06375804766359
 30
0.0
 10
56.33110455390787
 20
61.06375804766356
 30
0.0
 10
55.5065246051466
 20
61.06375804766358
 30
0.0
 10
53.44706324318798
 20
61.06375804766356
 30
0.0
 10
52.21299214009343
 20
61.06375804766358
 30
0.0
 10
49.52217619696439
 20
61.06375804766356
 30
0.0
 10
48.06649007810027
 20
61.06375804766358
 30
0.0
 10
46.61023098346759
 20
61.06375804766358
 30
0.0
  0
LINE
  5
FD
330
1F
100
AcDbEntity
  8
0
  6
Continuous
 62
     7
370
    25
100
AcDbLine
 10
57.7352309835
 20
61.0637580477
 30
0.0
 11
57.7352309835
 21
44.62096579829999
 31
0.0
  0
LINE
  5
FE
330
1F
100
AcDbEntity
  8
0
  6
Continuous
 62
     7
370
    25
100
AcDbLine
 10
59.2218133608
 20
6.4305084669
 30
0.0
 11
58.6827233222
 21
6.103643993099999
 31
0.0
  0
SPLINE
  5
FF
330
1F
100
AcDbEntity
  8
0
  6
Continuous
 62
     7
370
    25
100
AcDbSpline
210
0.0
220
0.0
230
1.0
 70
     8
 71
     3
 72
    12
 73
     8
 74
     0
 42
0.00000001
 43
0.0000000001
 40
0.0
 40
0.0
 40
0.0
 40
0.0
 40
0.1156690037590693
 40
0.3283683908495748
 40
0.5348245349055435
 40
0.770644173744874
 40
1.0
 40
1.0
 40
1.0
 40
1.0
 10
58.22016208110447
 20
5.823180942662638
 30
0.0
 10
57.85117072658525
 20
5.590633907317746
 30
0.0
 10
56.80365502762358
 20
4.930464861925998
 30
0.0
 10
54.8651862652919
 20
4.061583693464362
 30
0.0
 10
52.34076729692013
 20
3.212794653127154
 30
0.0
 10
49.57173671445177
 20
2.632517589772939
 30
0.0
 10
47.58821225277729
 20
2.556027703431703
 30
0.0
 10
46.61023098346803
 20
2.518314190148279
 30
0.0
  0
SPLINE
  5
100
330
1F
100
AcDbEntity
  8
0
  6
Continuous
 62
     7
370
    25
100
AcDbSpline
210
0.0
220
0.0
230
1.0
 70
     8
 71
     3
 72
    10
 73
     6
 74
     0
 42
0.00000001
 43
0.0000000001
 40
0.0
 40
0.0
 40
0.0
 40
0.0
 40
0.0140537680512353
 40
0.5043331789163501
 40
1.0
 40
1.0
 40
1.0
 40
1.0
 10
25.11123519061133
 20
18.42725910158707
 30
0.0
 10
25.11090106935236
 20
18.42834045692591
 30
0.0
 10
25.09891080196897
 20
18.4671459483492
 30
0.0
 10
25.13840717529686
 20
18.33717046099223
 30
0.0
 10
25.21860644051997
 20
18.09047473481314
 30
0.0
 10
25.25892518565864
 20
17.96645287397758
 30
0.0
  0
SPLINE
  5
101
330
1F
100
AcDbEntity
  8
0
  6
Continuous
 62
     7
370
    25
100
AcDbSpline
210
0.0
220
0.0
230
1.0
 70
     8
 71
     3
 72
    14
 73
    10
 74
     0
 42
0.00000001
 43
0.0000000001
 40
0.0
 40
0.0
 40
0.0
 40
0.0
 40
0.1293921600613789
 40
0.2556291900279413
 40
0.3787481408703869
 40
0.498791062085462
 40
0.670514700868983
 40
0.837520181875093
 40
1.0
 40
1.0
 40
1.0
 40
1.0
 10
25.6872147812193
 20
16.78865122053218
 30
0.0
 10
25.66332627815113
 20
16.84950026947871
 30
0.0
 10
25.61613177511943
 20
16.96971460927175
 30
0.0
 10
25.55172802753113
 20
17.13913419803394
 30
0.0
 10
25.49277304325089
 20
17.29764368186798
 30
0.0
 10
25.43118208301186
 20
17.46710467691193
 30
0.0
 10
25.3692382211046
 20
17.6419381359293
 30
0.0
 10
25.30878799251512
 20
17.81732622181626
 30
0.0
 10
25.27539322273091
 20
17.91720126960388
 30
0.0
 10
25.25892518565863
 20
17.96645287397759
 30
0.0
  0
SPLINE
  5
102
330
1F
100
AcDbEntity
  8
0
  6
Continuous
 62
     7
370
    25
100
AcDbSpline
210
0.0
220
0.0
230
1.0
 70
     8
 71
     3
 72
    18
 73
    14
 74
     0
 42
0.00000001
 43
0.0000000001
 40
0.0
 40
0.0
 40
0.0
 40
0.0
 40
0.091751687058207
 40
0.1835137886943536
 40
0.2750656003222576
 40
0.3662064788886701
 40
0.4569884064517173
 40
0.5475281117499767
 40
0.6379082128666486
 40
0.7282370186885162
 40
0.8186610764672584
 40
0.9092312963944843
 40
1.0
 40
1.0
 40
1.0
 40
1.0
 10
67.53324788709311
 20
16.7886529939122
 30
0.0
 10
67.55805763672381
 20
16.8519484652039
 30
0.0
 10
67.60767995209774
 20
16.97854659234857
 30
0.0
 10
67.67570547898498
 20
17.15854408218183
 30
0.0
 10
67.73913689431106
 20
17.33016514888689
 30
0.0
 10
67.79759999135659
 20
17.49177511033061
 30
0.0
 10
67.8511235384153
 20
17.64288409194616
 30
0.0
 10
67.89965100166861
 20
17.78287480793329
 30
0.0
 10
67.94320253082361
 20
17.91113005685408
 30
0.0
 10
67.98181035764938
 20
18.02715644993894
 30
0.0
 10
68.01531825375374
 20
18.12985051294882
 30
0.0
 10
68.04421276332506
 20
18.21990092743083
 30
0.0
 10
68.05924159378264
 20
18.26743329047674
 30
0.0
 10
68.06676423387978
 20
18.29122548516353
 30
0.0
  0
SPLINE
  5
103
330
1F
100
AcDbEntity
  8
0
  6
Continuous
 62
     7
370
    25
100
AcDbSpline
210
0.0
220
0.0
230
1.0
 70
     8
 71
     3
 72
    12
 73
     8
 74
     0
 42
0.00000001
 43
0.0000000001
 40
0.0
 40
0.0
 40
0.0
 40
0.0
 40
0.2005324184632715
 40
0.4006187596511813
 40
0.6004111513702465
 40
0.8001293486946696
 40
1.0
 40
1.0
 40
1.0
 40
1.0
 10
68.06676423387978
 20
18.29122548516353
 30
0.0
 10
68.07213633947267
 20
18.30830571687714
 30
0.0
 10
68.0828686005995
 20
18.3424281859328
 30
0.0
 10
68.09475588251254
 20
18.38052935279549
 30
0.0
 10
68.10345233209893
 20
18.40852623511192
 30
0.0
 10
68.10896094857307
 20
18.42637286931039
 30
0.0
 10
68.10979942917767
 20
18.42910332442045
 30
0.0
 10
68.1102188294315
 20
18.43046907284681
 30
0.0
  0
ARC
  5
104
330
1F
100
AcDbEntity
  8
0
  6
Continuous
 62
     7
370
    25
100
AcDbCircle
 10
4.1132382709
 20
7.055759074199999
 30
0.0
 40
65.00000000000004
100
AcDbArc
 50
359.4488496396
 51
10.0784335904
  0
ARC
  5
105
330
1F
100
AcDbEntity
  8
0
  6
Continuous
 62
     7
370
    25
100
AcDbCircle
 10
46.6102309835
 20
25.0637580477
 30
0.0
 40
22.49999999999999
100
AcDbArc
 50
270.0
 51
90.0
  0
ARC
  5
106
330
1F
100
AcDbEntity
  8
0
  6
Continuous
 62
     7
370
    25
100
AcDbCircle
 10
46.6102309835
 20
25.0637580477
 30
0.0
 40
22.49999999999999
100
AcDbArc
 50
90.0
 51
270.0
  0
LINE
  5
107
330
1F
100
AcDbEntity
  8
0
  6
Continuous
 62
     7
370
    25
100
AcDbLine
 10
59.2218133608
 20
6.4305084669
 30
0.0
 11
58.7198294719
 21
6.132190375499999
 31
0.0
  0
LINE
  5
108
330
1F
100
AcDbEntity
  8
0
  6
Continuous
 62
     7
370
    25
100
AcDbLine
 10
46.70390526520001
 20
2.571201134899999
 30
0.0
 11
46.5268233945
 21
2.572079015999999
 31
0.0
  0
SPLINE
  5
109
330
1F
100
AcDbEntity
  8
0
  6
Continuous
 62
     7
370
    25
100
AcDbSpline
210
0.0
220
0.0
230
1.0
 70
     8
 71
     3
 72
     9
 73
     5
 74
     0
 42
0.00000001
 43
0.0000000001
 40
0.0
 40
0.0
 40
0.0
 40
0.0
 40
0.3109760526260253
 40
1.0
 40
1.0
 40
1.0
 40
1.0
 10
37.65339703847838
 20
4.451346954608512
 30
0.0
 10
37.23933456084721
 20
4.621595140046188
 30
0.0
 10
35.90784143095951
 20
5.169059113558013
 30
0.0
 10
34.77748870405052
 20
5.91591018995026
 30
0.0
 10
33.99864860623074
 20
6.430508466706577
 30
0.0
  0
LINE
  5
10A
330
1F
100
AcDbEntity
  8
0
  6
Continuous
 62
     7
370
    25
100
AcDbLine
 10
24.1325803042
 20
26.0663646215
 30
0.0
 11
24.1205241848
 21
26.0664290514
 31
0.0
  0
SPLINE
  5
10B
330
1F
100
AcDbEntity
  8
0
  6
Continuous
 62
     7
370
    25
100
AcDbSpline
210
0.0
220
0.0
230
1.0
 70
     8
 71
     3
 72
     8
 73
     4
 74
     0
 42
0.00000001
 43
0.0000000001
 40
0.0
 40
0.0
 40
0.0
 40
0.0
 40
1.0
 40
1.0
 40
1.0
 40
1.0
 10
69.08010722516912
 20
25.82615774429982
 30
0.0
 10
69.09167957370631
 20
25.51101002947857
 30
0.0
 10
69.09662527766347
 20
25.19561899809124
 30
0.0
 10
69.09493996610947
 20
24.88026338749791
 30
0.0
  0
SPLINE
  5
10C
330
1F
100
AcDbEntity
  8
0
  6
Continuous
 62
     7
370
    25
100
AcDbSpline
210
0.0
220
0.0
230
1.0
 70
     8
 71
     3
 72
     8
 73
     4
 74
     0
 42
0.00000001
 43
0.0000000001
 40
0.0
 40
0.0
 40
0.0
 40
0.0
 40
1.0
 40
1.0
 40
1.0
 40
1.0
 10
24.09558255392717
 20
25.12074725530099
 30
0.0
 10
24.09726786548116
 20
25.43610286589439
 30
0.0
 10
24.1055841923707
 20
25.75142302283699
 30
0.0
 10
24.12052418476407
 20
26.06642905140637
 30
0.0
  0
SPLINE
  5
10D
330
1F
100
AcDbEntity
  8
0
  6
Continuous
 62
     7
370
    25
100
AcDbSpline
210
0.0
220
0.0
230
1.0
 70
     8
 71
     3
 72
    13
 73
     9
 74
     0
 42
0.00000001
 43
0.0000000001
 40
0.0
 40
0.0
 40
0.0
 40
0.0
 40
0.0658679105868589
 40
0.2495947899704261
 40
0.4525300677589478
 40
0.6255235896612284
 40
0.7893233630406698
 40
1.0
 40
1.0
 40
1.0
 40
1.0
 10
25.10862949786599
 20
18.36320082555683
 30
0.0
 10
25.06064348584476
 20
18.50676062305242
 30
0.0
 10
24.87880898577875
 20
19.05075506867636
 30
0.0
 10
24.63567384458508
 20
20.05972545322716
 30
0.0
 10
24.38518341462596
 20
21.31588866998954
 30
0.0
 10
24.22143163200085
 20
22.53883434513181
 30
0.0
 10
24.11266832168
 20
23.78484673862
 30
0.0
 10
24.10173405925843
 20
24.63977389377429
 30
0.0
 10
24.0955825539272
 20
25.12074725530107
 30
0.0
  0
LINE
  5
10E
330
1F
100
AcDbEntity
  8
0
  6
CENTERX2
 62
     7
370
    18
100
AcDbLine
 10
180.4952309835
 20
107.4337580477
 30
0.0
 11
191.6102309835
 21
107.4337580477
 31
0.0
  0
LINE
  5
10F
330
1F
100
AcDbEntity
  8
0
  6
CENTERX2
 62
     7
370
    18
100
AcDbLine
 10
191.6102309835
 20
107.4337580477
 30
0.0
 11
202.7252309835
 21
107.4337580477
 31
0.0
  0
POINT
  5
110
330
1F
100
AcDbEntity
  8
0
  6
Continuous
 62
     7
370
     0
100
AcDbPoint
 10
191.6102309835
 20
107.4337580477
 30
0.0
  0
DIMENSION
  5
111
102
{ACAD_XDICTIONARY
360
270
102
}
330
1F
100
AcDbEntity
  8
DIMENSION
100
AcDbDimension
280
     0
  2
*D22
 10
46.6102309835
 20
-67.909100942
 30
0.0
 11
114.5479385377
 21
-67.909100942
 31
0.0
 70
   160
  1
<>
 71
     2
 42
145.0
 73
     0
 74
     0
 75
     0
  3
RG Dimension Lines
100
AcDbAlignedDimension
 13
191.6102309835
 23
107.4337580477
 33
0.0
 14
46.6102309835
 24
-42.56949153309999
 34
0.0
100
AcDbRotatedDimension
1001
AcadAnnotative
1000
AnnotativeData
1002
{
1070
     1
1070
     1
1002
}
  0
DIMENSION
  5
119
102
{ACAD_XDICTIONARY
360
27E
102
}
330
1F
100
AcDbEntity
  8
DIMENSION
100
AcDbDimension
280
     0
  2
*D23
 10
-8.725651420299998
 20
-42.56949153310002
 30
0.0
 11
-8.7256514203
 21
72.61630915229999
 31
0.0
 70
   160
  1
<>
 71
     2
 42
239.6332495808
 73
     0
 74
     0
 75
     0
  3
RG Dimension Lines
100
AcDbAlignedDimension
 13
91.61022230549999
 23
197.0637580477
 33
0.0
 14
19.6102309835
 24
-42.56949153309999
 34
0.0
 50
90.0
100
AcDbRotatedDimension
1001
AcadAnnotative
1000
AnnotativeData
1002
{
1070
     1
1070
     1
1002
}
  0
DIMENSION
  5
121
102
{ACAD_XDICTIONARY
360
262
102
}
330
1F
100
AcDbEntity
  8
DIMENSION
100
AcDbDimension
280
     0
  2
*D21
 10
229.1341424212
 20
107.4337580477001
 30
0.0
 11
229.1341424212
 21
23.6887909622
 31
0.0
 70
   160
  1
<>
 71
     2
 42
150.0032495808
 73
     0
 74
     0
 75
     0
  3
RG Dimension Lines
100
AcDbAlignedDimension
 13
73.6102309835
 23
-42.56949153309999
 33
0.0
 14
202.7252309835
 24
107.4337580477
 34
0.0
 50
90.0
100
AcDbRotatedDimension
1001
AcadAnnotative
1000
AnnotativeData
1002
{
1070
     1
1070
     1
1002
}
  0
LINE
  5
129
330
1F
100
AcDbEntity
  8
0
  6
Continuous
 62
     7
370
    25
100
AcDbLine
 10
146.9394082541
 20
328.5146607933
 30
0.0
 11
91.6102309835
 21
328.5146607933
 31
0.0
  0
LINE
  5
12A
330
1F
100
AcDbEntity
  8
0
  6
Continuous
 62
     7
370
    25
100
AcDbLine
 10
91.51211813779999
 20
306.3146607933
 30
0.0
 11
146.6102309835
 21
306.3146607933
 31
0.0
  0
LINE
  5
12B
330
1F
100
AcDbEntity
  8
0
  6
Continuous
 62
     7
370
    25
100
AcDbLine
 10
91.6102309835
 20
328.5146607933
 30
0.0
 11
46.6102309835
 21
328.5146607933
 31
0.0
  0
LINE
  5
12C
330
1F
100
AcDbEntity
  8
0
  6
Continuous
 62
     7
370
    25
100
AcDbLine
 10
46.6102309835
 20
306.3146607933
 30
0.0
 11
91.56831420450002
 21
306.3146607933
 31
0.0
  0
LINE
  5
12D
330
1F
100
AcDbEntity
  8
0
  6
Continuous
 62
     7
370
    25
100
AcDbLine
 10
146.6102309835
 20
306.3146607933
 30
0.0
 11
191.6102309835
 21
306.3146607933
 31
0.0
  0
LINE
  5
12E
330
1F
100
AcDbEntity
  8
0
  6
Continuous
 62
     7
370
    25
100
AcDbLine
 10
191.6102309835
 20
328.5146607933
 30
0.0
 11
146.9366944416
 21
328.5146607933
 31
0.0
  0
LINE
  5
12F
330
1F
100
AcDbEntity
  8
0
  6
Continuous
 62
     7
370
    25
100
AcDbLine
 10
46.929266632
 20
386.1146607933
 30
0.0
 11
46.7155031939
 21
386.1146607933
 31
0.0
  0
LINE
  5
130
330
1F
100
AcDbEntity
  8
0
  6
Continuous
 62
     7
370
    25
100
AcDbLine
 10
46.7155031939
 20
378.1146607933
 30
0.0
 11
46.929266632
 21
378.1146607933
 31
0.0
  0
LWPOLYLINE
  5
131
330
1F
100
AcDbEntity
  8
0
  6
Continuous
 62
     7
370
    25
100
AcDbPolyline
 90
        3
 70
   128
 43
0.0
 10
24.1102309835
 20
317.782542538
 10
24.1072237839
 20
317.4126720029
 10
24.1102309835
 20
317.0467790487
  0
LINE
  5
132
330
1F
100
AcDbEntity
  8
0
  6
Continuous
 62
     7
370
    25
100
AcDbLine
 10
24.1102309835
 20
363.4146607933
 30
0.0
 11
24.1102309835
 21
272.5146607933
 31
0.0
  0
LINE
  5
133
330
1F
100
AcDbEntity
  8
0
  6
Continuous
 62
     7
370
    25
100
AcDbLine
 10
69.1102309835
 20
272.5146607933
 30
0.0
 11
69.1102309835
 21
306.3146607933
 31
0.0
  0
LINE
  5
134
330
1F
100
AcDbEntity
  8
0
  6
Continuous
 62
     7
370
    25
100
AcDbLine
 10
69.1102309835
 20
328.5146607933
 30
0.0
 11
69.1102309835
 21
363.4146607933
 31
0.0
  0
ARC
  5
135
330
1F
100
AcDbEntity
  8
0
  6
Continuous
 62
     7
370
    25
100
AcDbCircle
 10
68.99526126000001
 20
392.4146607933
 30
0.0
 40
0.0999999999998522
100
AcDbArc
 50
0.0
 51
90.0
  0
LINE
  5
136
330
1F
100
AcDbEntity
  8
0
  6
Continuous
 62
     7
370
    25
100
AcDbLine
 10
69.09526126
 20
365.8315812575
 30
0.0
 11
69.09526126
 21
392.4146607933
 31
0.0
  0
LINE
  5
137
330
1F
100
AcDbEntity
  8
0
  6
Continuous
 62
     7
370
    25
100
AcDbLine
 10
24.09526126
 20
392.4146607933
 30
0.0
 11
24.09526126
 21
365.9238189863
 31
0.0
  0
ARC
  5
138
330
1F
100
AcDbEntity
  8
0
  6
Continuous
 62
     7
370
    25
100
AcDbCircle
 10
24.19526126
 20
392.4146607933
 30
0.0
 40
0.1000000000000298
100
AcDbArc
 50
90.0
 51
180.0
  0
ARC
  5
139
330
1F
100
AcDbEntity
  8
0
  6
Continuous
 62
     7
370
    25
100
AcDbCircle
 10
191.6102309835
 20
317.4146607933
 30
0.0
 40
11.11500000000021
100
AcDbArc
 50
267.0230099756
 51
72.19207036260001
  0
ARC
  5
13A
330
1F
100
AcDbEntity
  8
0
  6
Continuous
 62
     7
370
    25
100
AcDbCircle
 10
191.6102309835
 20
317.4146607933
 30
0.0
 40
11.11500000000021
100
AcDbArc
 50
72.19207036260001
 51
92.97699002440001
  0
ARC
  5
13B
330
1F
100
AcDbEntity
  8
0
  6
Continuous
 62
     7
370
    25
100
AcDbCircle
 10
46.6102309835
 20
317.4146607933
 30
0.0
 40
11.09999999999998
100
AcDbArc
 50
90.0
 51
180.0
  0
ARC
  5
13C
330
1F
100
AcDbEntity
  8
0
  6
Continuous
 62
     7
370
    25
100
AcDbCircle
 10
46.6102309835
 20
317.4146607933
 30
0.0
 40
11.10000000000002
100
AcDbArc
 50
180.0
 51
270.0
  0
ARC
  5
13D
330
1F
100
AcDbEntity
  8
0
  6
Continuous
 62
     7
370
    25
100
AcDbCircle
 10
191.6102309835
 20
317.4146607933
 30
0.0
 40
11.09999999999999
100
AcDbArc
 50
270.0
 51
0.0
  0
ARC
  5
13E
330
1F
100
AcDbEntity
  8
0
  6
Continuous
 62
     7
370
    25
100
AcDbCircle
 10
191.6102309835
 20
317.4146607933
 30
0.0
 40
11.09999999999999
100
AcDbArc
 50
0.0
 51
90.0
  0
SPLINE
  5
13F
330
1F
100
AcDbEntity
  8
0
  6
Continuous
 62
     7
370
    25
100
AcDbSpline
210
0.0
220
0.0
230
1.0
 70
     8
 71
     3
 72
    12
 73
     8
 74
     0
 42
0.00000001
 43
0.0000000001
 40
0.0
 40
0.0
 40
0.0
 40
0.0
 40
0.2247262990494595
 40
0.4494525980989297
 40
0.674178897148397
 40
0.8989051961978656
 40
1.0
 40
1.0
 40
1.0
 40
1.0
 10
19.61023098346805
 20
317.4146607933233
 30
0.0
 10
19.65511612785881
 20
316.2367678621249
 30
0.0
 10
19.74488641664032
 20
313.8809819997276
 30
0.0
 10
20.45754170822162
 20
310.4041328280582
 30
0.0
 10
21.60634879245224
 20
307.0617661413718
 30
0.0
 10
22.83423039132987
 20
304.432485344425
 30
0.0
 10
23.8080707043519
 20
303.0290742198109
 30
0.0
 10
24.11023098346805
 20
302.5936279854974
 30
0.0
  0
SPLINE
  5
140
330
1F
100
AcDbEntity
  8
0
  6
Continuous
 62
     7
370
    25
100
AcDbSpline
210
0.0
220
0.0
230
1.0
 70
     8
 71
     3
 72
     9
 73
     5
 74
     0
 42
0.00000001
 43
0.0000000001
 40
0.0
 40
0.0
 40
0.0
 40
0.0
 40
0.3725399675763368
 40
1.0
 40
1.0
 40
1.0
 40
1.0
 10
69.11023098346807
 20
302.5936279854974
 30
0.0
 10
69.41563462954731
 20
303.0275203585751
 30
0.0
 10
70.23542222996548
 20
304.1922071327233
 30
0.0
 10
70.8136506714688
 20
305.4963581522962
 30
0.0
 10
71.17646590812274
 20
306.3146607933227
 30
0.0
  0
SPLINE
  5
141
330
1F
100
AcDbEntity
  8
0
  6
Continuous
 62
     7
370
    25
100
AcDbSpline
210
0.0
220
0.0
230
1.0
 70
     8
 71
     3
 72
    12
 73
     8
 74
     0
 42
0.00000001
 43
0.0000000001
 40
0.0
 40
0.0
 40
0.0
 40
0.0
 40
0.1010948038021319
 40
0.325821102851599
 40
0.5505474019010661
 40
0.775273700950533
 40
1.0
 40
1.0
 40
1.0
 40
1.0
 10
24.11023098346805
 20
332.2356936011493
 30
0.0
 10
23.80807070435191
 20
331.8002473668358
 30
0.0
 10
22.83423039132988
 20
330.3968362422217
 30
0.0
 10
21.60634879245226
 20
327.7675554452749
 30
0.0
 10
20.45754170822164
 20
324.4251887585885
 30
0.0
 10
19.74488641664032
 20
320.9483395869191
 30
0.0
 10
19.65511612785881
 20
318.592553724522
 30
0.0
 10
19.61023098346805
 20
317.4146607933234
 30
0.0
  0
SPLINE
  5
142
330
1F
100
AcDbEntity
  8
0
  6
Continuous
 62
     7
370
    25
100
AcDbSpline
210
0.0
220
0.0
230
1.0
 70
     8
 71
     3
 72
     9
 73
     5
 74
     0
 42
0.00000001
 43
0.0000000001
 40
0.0
 40
0.0
 40
0.0
 40
0.0
 40
0.627460032423766
 40
1.0
 40
1.0
 40
1.0
 40
1.0
 10
71.17646590812329
 20
328.5146607933228
 30
0.0
 10
70.81365067146918
 20
329.3329634343497
 30
0.0
 10
70.23542222996571
 20
330.6371144539229
 30
0.0
 10
69.41563462954732
 20
331.8018012280715
 30
0.0
 10
69.11023098346807
 20
332.2356936011493
 30
0.0
  0
LINE
  5
143
330
1F
100
AcDbEntity
  8
0
  6
Continuous
 62
     7
370
    25
100
AcDbLine
 10
26.1199021999
 20
363.6146607933
 30
0.0
 11
67.10055976709999
 21
363.6146607933
 31
0.0
  0
LINE
  5
144
330
1F
100
AcDbEntity
  8
0
  6
Continuous
 62
     7
370
    25
100
AcDbLine
 10
26.1199021999
 20
363.6146607933
 30
0.0
 11
26.2560759086
 21
365.5283624454
 31
0.0
  0
LINE
  5
145
330
1F
100
AcDbEntity
  8
0
  6
Continuous
 62
     7
370
    25
100
AcDbLine
 10
66.96494374629999
 20
365.5236477802
 30
0.0
 11
67.10055976709999
 21
363.6146607933
 31
0.0
  0
LINE
  5
146
330
1F
100
AcDbEntity
  8
0
  6
Continuous
 62
     7
370
    25
100
AcDbLine
 10
67.10055976709999
 20
363.6146607933
 30
0.0
 11
67.10055976709999
 21
363.4146607933
 31
0.0
  0
LINE
  5
147
330
1F
100
AcDbEntity
  8
0
  6
Continuous
 62
     7
370
    25
100
AcDbLine
 10
26.1199021999
 20
363.6146607933
 30
0.0
 11
26.1199021999
 21
363.4146607933
 31
0.0
  0
SPLINE
  5
148
330
1F
100
AcDbEntity
  8
0
  6
Continuous
 62
     7
370
    25
100
AcDbSpline
210
0.0
220
0.0
230
1.0
 70
     8
 71
     3
 72
     9
 73
     5
 74
     0
 42
0.00000001
 43
0.0000000001
 40
0.0
 40
0.0
 40
0.0
 40
0.0
 40
0.32230158492951
 40
1.0
 40
1.0
 40
1.0
 40
1.0
 10
36.00007489080578
 20
314.2517527148465
 30
0.0
 10
35.88900272664297
 20
314.5804646916622
 30
0.0
 10
35.54438088996447
 20
315.6003541125833
 30
0.0
 10
35.50912431109037
 20
316.6817801093193
 30
0.0
 10
35.48523098346658
 20
317.4146607933234
 30
0.0
  0
LINE
  5
149
330
1F
100
AcDbEntity
  8
0
  6
Continuous
 62
     7
370
    25
100
AcDbLine
 10
46.86406024319999
 20
306.3146607933
 30
0.0
 11
46.6102309835
 21
306.2896607933
 31
0.0
  0
SPLINE
  5
14A
330
1F
100
AcDbEntity
  8
0
  6
Continuous
 62
     7
370
    25
100
AcDbSpline
210
0.0
220
0.0
230
1.0
 70
     8
 71
     3
 72
     9
 73
     5
 74
     0
 42
0.00000001
 43
0.0000000001
 40
0.0
 40
0.0
 40
0.0
 40
0.0
 40
0.7354401113727907
 40
1.0
 40
1.0
 40
1.0
 40
1.0
 10
35.48523098346658
 20
317.4146607933234
 30
0.0
 10
35.50508900675883
 20
318.1483441492651
 30
0.0
 10
35.53209055723885
 20
319.1459554361614
 30
0.0
 10
35.84416813450855
 20
320.0868615756857
 30
0.0
 10
35.92673134359407
 20
320.3357875991668
 30
0.0
  0
LINE
  5
14B
330
1F
100
AcDbEntity
  8
0
  6
Continuous
 62
     7
370
    25
100
AcDbLine
 10
46.6102309835
 20
328.5396607933
 30
0.0
 11
46.86406024319999
 21
328.5146607933
 31
0.0
  0
ARC
  5
14C
330
1F
100
AcDbEntity
  8
0
  6
Continuous
 62
     7
370
    25
100
AcDbCircle
 10
46.929266632
 20
382.1147049451
 30
0.0
 40
3.999942881326548
100
AcDbArc
 50
359.9993675639
 51
180.0006324361
  0
ARC
  5
14D
330
1F
100
AcDbEntity
  8
0
  6
Continuous
 62
     7
370
    25
100
AcDbCircle
 10
46.715534006
 20
382.1146871002
 30
0.0
 40
3.999973693264833
100
AcDbArc
 50
90.00044135360001
 51
180.0003768204
  0
ARC
  5
14E
330
1F
100
AcDbEntity
  8
0
  6
Continuous
 62
     7
370
    25
100
AcDbCircle
 10
46.929266632
 20
382.1146166416
 30
0.0
 40
3.999942881326548
100
AcDbArc
 50
179.9993675639
 51
0.0006324361
  0
ARC
  5
14F
330
1F
100
AcDbEntity
  8
0
  6
Continuous
 62
     7
370
    25
100
AcDbCircle
 10
46.7155250291
 20
382.1146255097001
 30
0.0
 40
3.999964716447865
100
AcDbArc
 50
179.999494595
 51
269.9996872309
  0
LINE
  5
150
330
1F
100
AcDbEntity
  8
0
  6
Continuous
 62
     7
370
    25
100
AcDbLine
 10
35.4863357265
 20
317.4034441491
 30
0.0
 11
35.7014558042
 21
319.5931536706
 31
0.0
  0
LINE
  5
151
330
1F
100
AcDbEntity
  8
0
  6
Continuous
 62
     7
370
    25
100
AcDbLine
 10
24.1102309835
 20
272.5146607933
 30
0.0
 11
46.6102309835
 21
272.5146607933
 31
0.0
  0
LINE
  5
152
330
1F
100
AcDbEntity
  8
0
  6
Continuous
 62
     7
370
    25
100
AcDbLine
 10
46.6102309835
 20
363.4146607933
 30
0.0
 11
24.1102309835
 21
363.4146607933
 31
0.0
  0
LINE
  5
153
330
1F
100
AcDbEntity
  8
0
  6
Continuous
 62
     7
370
    25
100
AcDbLine
 10
46.6102309835
 20
272.5146607933
 30
0.0
 11
69.1102309835
 21
272.5146607933
 31
0.0
  0
LINE
  5
154
330
1F
100
AcDbEntity
  8
0
  6
Continuous
 62
     7
370
    25
100
AcDbLine
 10
69.1102309835
 20
363.4146607933
 30
0.0
 11
46.6102309835
 21
363.4146607933
 31
0.0
  0
SPLINE
  5
155
330
1F
100
AcDbEntity
  8
0
  6
Continuous
 62
     7
370
    25
100
AcDbSpline
210
0.0
220
0.0
230
1.0
 70
    24
 71
     3
 72
    29
 73
    25
 74
     0
 42
0.00000001
 43
0.0000000001
 40
0.0
 40
0.0
 40
0.0
 40
0.0
 40
0.0318543175330773
 40
0.0689002916141812
 40
0.1097310241676286
 40
0.1545683436928066
 40
0.2035211698100574
 40
0.2474352581495068
 40
0.2940131826311806
 40
0.3429660087484317
 40
0.3938647336819204
 40
0.4461487109583955
 40
0.4991538806104461
 40
0.5521590502624969
 40
0.6044430275389718
 40
0.6553417524724604
 40
0.7042945785897114
 40
0.7508725030713856
 40
0.7947865914108349
 40
0.8437394175280859
 40
0.8885767370532635
 40
0.9294074696067111
 40
0.9664534436878149
 40
1.0
 40
1.0
 40
1.0
 40
1.0
 10
68.98933251431916
 20
392.5146607933233
 30
0.0
 10
68.97007353284918
 20
392.5146607933233
 30
0.0
 10
68.92841671700011
 20
392.5146607933233
 30
0.0
 10
68.5058917544033
 20
392.5146607933233
 30
0.0
 10
67.71598329965681
 20
392.5146607933233
 30
0.0
 10
66.44226376683004
 20
392.5146607933232
 30
0.0
 10
64.7206042083768
 20
392.5146607933232
 30
0.0
 10
62.59470991235928
 20
392.5146607933233
 30
0.0
 10
60.13725700918198
 20
392.5146607933232
 30
0.0
 10
57.2454467270008
 20
392.5146607933232
 30
0.0
 10
53.97493031800292
 20
392.5146607933233
 30
0.0
 10
50.42165514447922
 20
392.5146607933232
 30
0.0
 10
46.7155217312616
 20
392.5146607933233
 30
0.0
 10
43.00608568927239
 20
392.5146607933233
 30
0.0
 10
39.44316894692864
 20
392.5146607933232
 30
0.0
 10
36.15741793190807
 20
392.5146607933233
 30
0.0
 10
33.24587234824399
 20
392.5146607933233
 30
0.0
 10
30.76543011272252
 20
392.5146607933233
 30
0.0
 10
28.61307910508746
 20
392.5146607933233
 30
0.0
 10
26.86219122698545
 20
392.5146607933232
 30
0.0
 10
25.55782700376323
 20
392.5146607933233
 30
0.0
 10
24.73774462601318
 20
392.5146607933233
 30
0.0
 10
24.28323846587324
 20
392.5146607933233
 30
0.0
 10
24.22381838040689
 20
392.5146607933233
 30
0.0
 10
24.19558112595426
 20
392.5146607933233
 30
0.0
  0
LINE
  5
156
330
1F
100
AcDbEntity
  8
0
  6
Continuous
 62
     7
370
    25
100
AcDbLine
 10
69.08010722520001
 20
365.5146607933001
 30
0.0
 11
69.0930549731
 21
365.8315812575
 31
0.0
  0
SPLINE
  5
157
330
1F
100
AcDbEntity
  8
0
  6
Continuous
 62
     7
370
    25
100
AcDbSpline
210
0.0
220
0.0
230
1.0
 70
    24
 71
     3
 72
    22
 73
    18
 74
     0
 42
0.00000001
 43
0.0000000001
 40
0.0
 40
0.0
 40
0.0
 40
0.0
 40
0.125
 40
0.125
 40
0.25
 40
0.25
 40
0.375
 40
0.375
 40
0.5
 40
0.5
 40
0.625
 40
0.625
 40
0.75
 40
0.75
 40
0.875
 40
0.875
 40
1.0
 40
1.0
 40
1.0
 40
1.0
 10
46.59526126001833
 20
365.5146607933233
 30
0.0
 10
48.03347290658415
 20
365.5146607933233
 30
0.0
 10
49.4716521969777
 20
365.5146607933233
 30
0.0
 10
52.29535072808194
 20
365.5146607933233
 30
0.0
 10
53.68080644262363
 20
365.5146607933233
 30
0.0
 10
56.34826357460113
 20
365.5146607933233
 30
0.0
 10
57.63020498090943
 20
365.5146607933233
 30
0.0
 10
60.04363187799486
 20
365.5146607933233
 30
0.0
 10
61.17506307269071
 20
365.5146607933233
 30
0.0
 10
63.24598363394078
 20
365.5146607933233
 30
0.0
 10
64.18542640995139
 20
365.5146607933233
 30
0.0
 10
65.83792079837251
 20
365.5146607933233
 30
0.0
 10
66.55093523378392
 20
365.5146607933233
 30
0.0
 10
67.72442309349509
 20
365.5146607933233
 30
0.0
 10
68.1848701172471
 20
365.5146607933233
 30
0.0
 10
68.83633144608591
 20
365.5146607933233
 30
0.0
 10
69.02733109491889
 20
365.5146607933233
 30
0.0
 10
69.08010722516912
 20
365.5146607933233
 30
0.0
  0
SPLINE
  5
158
330
1F
100
AcDbEntity
  8
0
  6
Continuous
 62
     7
370
    25
100
AcDbSpline
210
0.0
220
0.0
230
1.0
 70
    24
 71
     3
 72
    22
 73
    18
 74
     0
 42
0.00000001
 43
0.0000000001
 40
0.0
 40
0.0
 40
0.0
 40
0.0
 40
0.125
 40
0.125
 40
0.2499999999999999
 40
0.2499999999999999
 40
0.3749999999999999
 40
0.3749999999999999
 40
0.5
 40
0.5
 40
0.625
 40
0.625
 40
0.7499999999999999
 40
0.7499999999999999
 40
0.8749999999999998
 40
0.8749999999999998
 40
1.0
 40
1.0
 40
1.0
 40
1.0
 10
24.12052418476407
 20
365.5146607933233
 30
0.0
 10
24.18818388007295
 20
365.5146607933233
 30
0.0
 10
24.39208043274137
 20
365.5146607933233
 30
0.0
 10
25.06499357791375
 20
365.5146607933233
 30
0.0
 10
25.53399544870268
 20
365.5146607933233
 30
0.0
 10
26.720174899051
 20
365.5146607933233
 30
0.0
 10
27.43732652786777
 20
365.5146607933233
 30
0.0
 10
29.09388900679183
 20
365.5146607933233
 30
0.0
 10
30.03326361531146
 20
365.5146607933233
 30
0.0
 10
32.10032035389994
 20
365.5146607933233
 30
0.0
 10
33.22795726175776
 20
365.5146607933233
 30
0.0
 10
35.63077912367029
 20
365.5146607933233
 30
0.0
 10
36.90591150978367
 20
365.5146607933233
 30
0.0
 10
39.55763063156569
 20
365.5146607933233
 30
0.0
 10
40.93415935402185
 20
365.5146607933233
 30
0.0
 10
43.73890962997401
 20
365.5146607933233
 30
0.0
 10
45.16706982230531
 20
365.5146607933233
 30
0.0
 10
46.59526126001728
 20
365.5146607933233
 30
0.0
  0
SPLINE
  5
159
330
1F
100
AcDbEntity
  8
0
  6
Continuous
 62
     7
370
    25
100
AcDbSpline
210
0.0
220
0.0
230
1.0
 70
     8
 71
     3
 72
     8
 73
     4
 74
     0
 42
0.00000001
 43
0.0000000001
 40
0.0
 40
0.0
 40
0.0
 40
0.0
 40
1.0
 40
1.0
 40
1.0
 40
1.0
 10
24.09558255392717
 20
365.8777200050266
 30
0.0
 10
24.09726786548116
 20
365.7567002677922
 30
0.0
 10
24.1055841923707
 20
365.6356805305577
 30
0.0
 10
24.12052418476407
 20
365.5146607933233
 30
0.0
  0
LINE
  5
15A
330
1F
100
AcDbEntity
  8
0
  6
Continuous
 62
     7
370
    25
100
AcDbLine
 10
24.0987935587
 20
365.9238189863
 30
0.0
 11
24.0955825539
 21
365.877720005
 31
0.0
  0
DIMENSION
  5
15B
102
{ACAD_XDICTIONARY
360
2A8
102
}
330
1F
100
AcDbEntity
  8
DIMENSION
100
AcDbDimension
280
     0
  2
*D26
 10
-15.30639308950008
 20
272.5146607933002
 30
0.0
 11
-15.3063930895
 21
333.8583570124
 31
0.0
 70
   160
  1
<>
 71
     2
 42
120.0
 73
     0
 74
     0
 75
     0
  3
RG Dimension Lines
100
AcDbAlignedDimension
 13
24.195581126
 23
392.5146607933001
 33
0.0
 14
24.1102309835
 24
272.5146607933
 34
0.0
 50
90.0
100
AcDbRotatedDimension
1001
AcadAnnotative
1000
AnnotativeData
1002
{
1070
     1
1070
     1
1002
}
  0
DIMENSION
  5
163
102
{ACAD_XDICTIONARY
360
28C
102
}
330
1F
100
AcDbEntity
  8
DIMENSION
100
AcDbDimension
280
     0
  2
*D24
 10
69.09526126
 20
417.5893953963999
 30
0.0
 11
46.4476942209
 21
417.5893953963999
 31
0.0
 70
   160
  1
<>
 71
     2
 42
45.0
 73
     0
 74
     0
 75
     0
  3
RG Dimension Lines
100
AcDbAlignedDimension
 13
24.09526126
 23
392.4146607933
 33
0.0
 14
69.09526126
 24
392.4146607933
 34
0.0
100
AcDbRotatedDimension
1001
AcadAnnotative
1000
AnnotativeData
1002
{
1070
     1
1070
     1
1002
}
1001
ACAD
1000
DSTYLE
1002
{
1070
     3
1000
%%C<>
1002
}
  0
DIMENSION
  5
1AC
102
{ACAD_XDICTIONARY
360
246
102
}
330
1F
100
AcDbEntity
  8
DIMENSION
100
AcDbDimension
280
     0
  2
*D19
 10
371.2262792671
 20
-55.2594662722031
 30
0.0
 11
344.2262792670816
 21
-63.2594662722031
 31
0.0
 70
    32
 71
     5
 42
54.00000000003678
 73
     0
 74
     0
 75
     0
  3
RG Dimension Lines
100
AcDbAlignedDimension
 13
317.2262792670632
 23
-42.56949153313293
 33
0.0
 14
371.2262792671
 24
-42.56949153309999
 34
0.0
100
AcDbRotatedDimension
1001
AcadAnnotative
1000
AnnotativeData
1002
{
1070
     1
1070
     1
1002
}
1001
ACAD
1000
DSTYLE
1002
{
1070
     3
1000
%%C<>
1002
}
  0
DIMENSION
  5
1BA
102
{ACAD_XDICTIONARY
360
238
102
}
330
1F
100
AcDbEntity
  8
DIMENSION
100
AcDbDimension
280
     0
  2
*D18
 10
432.6448695431817
 20
25.06375804770004
 30
0.0
 11
443.3115362098483
 21
-8.752866742716573
 31
0.0
 70
    32
 71
     5
 42
67.63324958083297
 73
     0
 74
     0
 75
     0
  3
RG Dimension Lines
100
AcDbAlignedDimension
 13
344.2262792670632
 23
-42.56949153313293
 33
0.0
 14
299.3262792671
 24
25.0637580477
 34
0.0
 50
90.0
100
AcDbRotatedDimension
1001
AcadAnnotative
1000
AnnotativeData
1002
{
1070
     1
1070
     1
1002
}
  0
DIMENSION
  5
1C8
102
{ACAD_XDICTIONARY
360
22A
102
}
330
1F
100
AcDbEntity
  8
DIMENSION
100
AcDbDimension
280
     0
  2
*D17
 10
451.9852697278811
 20
87.47854707335005
 30
0.0
 11
462.6519363945477
 21
44.98952619737487
 31
0.0
 70
    32
 71
     5
 42
84.97804175195005
 73
     0
 74
     0
 75
     0
  3
RG Dimension Lines
100
AcDbAlignedDimension
 13
419.2262792671
 23
2.500505321399969
 33
0.0
 14
408.4476479384999
 24
87.47854707334999
 34
0.0
 50
90.0
100
AcDbRotatedDimension
1001
AcadAnnotative
1000
AnnotativeData
1002
{
1070
     1
1070
     1
1002
}
  0
DIMENSION
  5
1D7
102
{ACAD_XDICTIONARY
360
29A
102
}
330
1F
100
AcDbEntity
  8
DIMENSION
100
AcDbDimension
280
     0
  2
*D25
 10
8.636126798660548
 20
392.5056774344791
 30
0.0
 11
-2.023545489515372
 21
354.9531524406485
 31
0.0
 70
    33
 71
     5
 42
75.10000210340945
 73
     0
 74
     0
 75
     0
  3
RG Dimension Lines
100
AcDbAlignedDimension
 13
46.6102309835
 23
317.4146607933
 33
0.0
 14
46.59245660297702
 24
392.5146607933233
 34
0.0
1001
AcadAnnotative
1000
AnnotativeData
1002
{
1070
     1
1070
     1
1002
}
  0
ENDSEC
  0
SECTION
  2
OBJECTS
  0
DICTIONARY
  5
C
330
0
100
AcDbDictionary
281
     1
  3
ACAD_CIP_PREVIOUS_PRODUCT_INFO
350
1AB
  3
ACAD_COLOR
350
1A0
  3
ACAD_DETAILVIEWSTYLE
350
1A7
  3
ACAD_GROUP
350
D
  3
ACAD_LAYOUT
350
1A
  3
ACAD_MATERIAL
350
16E
  3
ACAD_MLEADERSTYLE
350
1A3
  3
ACAD_MLINESTYLE
350
17
  3
ACAD_PLOTSETTINGS
350
19
  3
ACAD_PLOTSTYLENAME
350
E
  3
ACAD_SCALELIST
350
47
  3
ACAD_SECTIONVIEWSTYLE
350
1A5
  3
ACAD_TABLESTYLE
350
1A1
  3
ACAD_VISUALSTYLE
350
187
  3
ACDB_RECOMPOSE_DATA
350
2F2
  3
AcDbVariableDictionary
350
2E6
  0
DICTIONARY
  5
1F7
330
2
100
AcDbDictionary
280
     1
281
     1
  3
ACAD_LAYERSTATES
360
1F8
  0
DICTIONARY
  5
2D6
330
10
100
AcDbDictionary
280
     1
281
     1
  3
ADSK_XREC_LAYER_RECONCILED
360
2D7
  0
DICTIONARY
  5
2D8
330
73
100
AcDbDictionary
280
     1
281
     1
  3
ADSK_XREC_LAYER_RECONCILED
360
2D9
  0
DICTIONARY
  5
2DA
330
1EF
100
AcDbDictionary
280
     1
281
     1
  3
ADSK_XREC_LAYER_RECONCILED
360
2DB
  0
DICTIONARY
  5
254
330
C3
100
AcDbDictionary
280
     1
281
     1
  3
AcDbContextDataManager
360
255
  0
DICTIONARY
  5
21C
330
D0
100
AcDbDictionary
280
     1
281
     1
  3
AcDbContextDataManager
360
21D
  0
DICTIONARY
  5
270
330
111
100
AcDbDictionary
280
     1
281
     1
  3
AcDbContextDataManager
360
271
  0
DICTIONARY
  5
27E
330
119
100
AcDbDictionary
280
     1
281
     1
  3
AcDbContextDataManager
360
27F
  0
DICTIONARY
  5
262
330
121
100
AcDbDictionary
280
     1
281
     1
  3
AcDbContextDataManager
360
263
  0
DICTIONARY
  5
2A8
330
15B
100
AcDbDictionary
280
     1
281
     1
  3
AcDbContextDataManager
360
2A9
  0
DICTIONARY
  5
28C
330
163
100
AcDbDictionary
280
     1
281
     1
  3
AcDbContextDataManager
360
28D
  0
DICTIONARY
  5
246
330
1AC
100
AcDbDictionary
280
     1
281
     1
  3
AcDbContextDataManager
360
247
  0
DICTIONARY
  5
238
330
1BA
100
AcDbDictionary
280
     1
281
     1
  3
AcDbContextDataManager
360
239
  0
DICTIONARY
  5
22A
330
1C8
100
AcDbDictionary
280
     1
281
     1
  3
AcDbContextDataManager
360
22B
  0
DICTIONARY
  5
29A
330
1D7
100
AcDbDictionary
280
     1
281
     1
  3
AcDbContextDataManager
360
29B
  0
XRECORD
  5
1AB
102
{ACAD_REACTORS
330
C
102
}
330
C
100
AcDbXrecord
280
     1
300
ACD
300
2021
300

  0
DICTIONARY
  5
1A0
102
{ACAD_REACTORS
330
C
102
}
330
C
100
AcDbDictionary
281
     1
  0
DICTIONARY
  5
1A7
102
{ACAD_REACTORS
330
C
102
}
330
C
100
AcDbDictionary
281
     1
  3
Metric50
350
1A8
  0
DICTIONARY
  5
D
102
{ACAD_REACTORS
330
C
102
}
330
C
100
AcDbDictionary
281
     1
  0
DICTIONARY
  5
1A
102
{ACAD_REACTORS
330
C
102
}
330
C
100
AcDbDictionary
281
     1
  3
Layout1
350
1E
  3
Layout2
350
26
  3
Model
350
22
  0
DICTIONARY
  5
16E
102
{ACAD_REACTORS
330
C
102
}
330
C
100
AcDbDictionary
281
     1
  3
ByBlock
350
177
  3
ByLayer
350
16F
  3
Global
350
17F
  0
DICTIONARY
  5
1A3
102
{ACAD_REACTORS
330
C
102
}
330
C
100
AcDbDictionary
281
     1
  3
Standard
350
1A4
  0
DICTIONARY
  5
17
102
{ACAD_REACTORS
330
C
102
}
330
C
100
AcDbDictionary
281
     1
  3
Standard
350
18
  0
DICTIONARY
  5
19
102
{ACAD_REACTORS
330
C
102
}
330
C
100
AcDbDictionary
281
     1
  0
ACDBDICTIONARYWDFLT
  5
E
102
{ACAD_REACTORS
330
C
102
}
330
C
100
AcDbDictionary
281
     1
  3
Normal
350
F
100
AcDbDictionaryWithDefault
340
F
  0
DICTIONARY
  5
47
102
{ACAD_REACTORS
330
C
102
}
330
C
100
AcDbDictionary
281
     1
  3
A0
350
48
  3
A1
350
49
  3
A2
350
4A
  3
A3
350
4B
  3
A4
350
4C
  3
A5
350
4D
  3
A6
350
4E
  3
A7
350
4F
  3
A8
350
50
  3
A9
350
51
  3
B0
350
52
  3
B1
350
53
  3
B2
350
54
  3
B3
350
55
  3
B4
350
56
  3
B5
350
57
  3
B6
350
58
  3
B7
350
59
  3
B8
350
5A
  3
B9
350
5B
  3
C0
350
5C
  3
C1
350
5D
  3
C2
350
5E
  3
C3
350
5F
  3
C4
350
60
  3
C5
350
61
  3
C6
350
62
  3
C7
350
63
  3
C8
350
64
  3
C9
350
65
  3
D0
350
66
  3
D1
350
67
  3
D2
350
68
  0
DICTIONARY
  5
1A5
102
{ACAD_REACTORS
330
C
102
}
330
C
100
AcDbDictionary
281
     1
  3
Metric50
350
1A6
  0
DICTIONARY
  5
1A1
102
{ACAD_REACTORS
330
C
102
}
330
C
100
AcDbDictionary
281
     1
  3
Standard
350
1A2
  0
DICTIONARY
  5
187
102
{ACAD_REACTORS
330
C
102
}
330
C
100
AcDbDictionary
281
     1
  3
2dWireframe
350
18D
  3
Basic
350
18C
  3
Brighten
350
193
  3
ColorChange
350
197
  3
Conceptual
350
190
  3
Dim
350
192
  3
EdgeColorOff
350
19F
  3
Facepattern
350
196
  3
Flat
350
188
  3
FlatWithEdges
350
189
  3
Gouraud
350
18A
  3
GouraudWithEdges
350
18B
  3
Hidden
350
18F
  3
JitterOff
350
19D
  3
Linepattern
350
195
  3
OverhangOff
350
19E
  3
Realistic
350
191
  3
Shaded
350
19C
  3
Shaded with edges
350
19B
  3
Shades of Gray
350
198
  3
Sketchy
350
199
  3
Thicken
350
194
  3
Wireframe
350
18E
  3
X-Ray
350
19A
  0
XRECORD
  5
2F2
102
{ACAD_REACTORS
330
C
102
}
330
C
100
AcDbXrecord
280
     1
 90
        1
330
1A2
  0
DICTIONARY
  5
2E6
102
{ACAD_REACTORS
330
C
102
}
330
C
100
AcDbDictionary
281
     1
  3
CANNOSCALE
350
2EC
  3
CMLEADERSTYLE
350
2E8
  3
CTABLESTYLE
350
2E7
  3
CVIEWDETAILSTYLE
350
2E9
  3
CVIEWSECTIONSTYLE
350
2EA
  3
LAYEREVAL
350
2EE
  3
LAYERNOTIFY
350
2EF
  3
LIGHTINGUNITS
350
2ED
  3
MSLTSCALE
350
2EB
  0
DICTIONARY
  5
1F8
102
{ACAD_REACTORS
330
1F7
102
}
330
1F7
100
AcDbDictionary
281
     1
  0
XRECORD
  5
2D7
102
{ACAD_REACTORS
330
2D6
102
}
330
2D6
100
AcDbXrecord
280
     1
290
     1
  0
XRECORD
  5
2D9
102
{ACAD_REACTORS
330
2D8
102
}
330
2D8
100
AcDbXrecord
280
     1
290
     1
  0
XRECORD
  5
2DB
102
{ACAD_REACTORS
330
2DA
102
}
330
2DA
100
AcDbXrecord
280
     1
290
     1
  0
DICTIONARY
  5
255
102
{ACAD_REACTORS
330
254
102
}
330
254
100
AcDbDictionary
281
     1
  3
ACDB_ANNOTATIONSCALES
350
256
  0
DICTIONARY
  5
21D
102
{ACAD_REACTORS
330
21C
102
}
330
21C
100
AcDbDictionary
281
     1
  3
ACDB_ANNOTATIONSCALES
350
21E
  0
DICTIONARY
  5
271
102
{ACAD_REACTORS
330
270
102
}
330
270
100
AcDbDictionary
281
     1
  3
ACDB_ANNOTATIONSCALES
350
272
  0
DICTIONARY
  5
27F
102
{ACAD_REACTORS
330
27E
102
}
330
27E
100
AcDbDictionary
281
     1
  3
ACDB_ANNOTATIONSCALES
350
280
  0
DICTIONARY
  5
263
102
{ACAD_REACTORS
330
262
102
}
330
262
100
AcDbDictionary
281
     1
  3
ACDB_ANNOTATIONSCALES
350
264
  0
DICTIONARY
  5
2A9
102
{ACAD_REACTORS
330
2A8
102
}
330
2A8
100
AcDbDictionary
281
     1
  3
ACDB_ANNOTATIONSCALES
350
2AA
  0
DICTIONARY
  5
28D
102
{ACAD_REACTORS
330
28C
102
}
330
28C
100
AcDbDictionary
281
     1
  3
ACDB_ANNOTATIONSCALES
350
28E
  0
DICTIONARY
  5
247
102
{ACAD_REACTORS
330
246
102
}
330
246
100
AcDbDictionary
281
     1
  3
ACDB_ANNOTATIONSCALES
350
248
  0
DICTIONARY
  5
239
102
{ACAD_REACTORS
330
238
102
}
330
238
100
AcDbDictionary
281
     1
  3
ACDB_ANNOTATIONSCALES
350
23A
  0
DICTIONARY
  5
22B
102
{ACAD_REACTORS
330
22A
102
}
330
22A
100
AcDbDictionary
281
     1
  3
ACDB_ANNOTATIONSCALES
350
22C
  0
DICTIONARY
  5
29B
102
{ACAD_REACTORS
330
29A
102
}
330
29A
100
AcDbDictionary
281
     1
  3
ACDB_ANNOTATIONSCALES
350
29C
  0
ACDBDETAILVIEWSTYLE
  5
1A8
102
{ACAD_REACTORS
330
1A7
102
}
330
1A7
100
AcDbModelDocViewStyle
 70
     0
  3
Metric50
290
     0
300
Metric50
 90
        0
100
AcDbDetailViewStyle
 70
     0
 71
     0
 90
        3
 71
     1
340
11
 62
   256
 40
5.0
340
0
 62
   256
 40
5.0
300

 40
0.0
280
     1
 71
     2
340
16
 90
       25
 62
   256
 71
     3
340
11
 62
   256
 40
5.0
 90
        0
 40
15.0
 90
        1
300
%<\AcVar ViewDetailId>% (%<\AcVar ViewScale \f "%sn">%)
 71
     4
340
16
 90
       25
 62
   256
340
16
 90
       25
 62
   256
280
     0
  0
LAYOUT
  5
1E
102
{ACAD_REACTORS
330
1A
102
}
330
1A
100
AcDbPlotSettings
  1

  2
none_device
  4

  6

 40
0.0
 41
0.0
 42
0.0
 43
0.0
 44
0.0
 45
0.0
 46
0.0
 47
0.0
 48
0.0
 49
0.0
140
0.0
141
0.0
142
1.0
143
1.0
 70
   688
 72
     1
 73
     0
 74
     5
  7

 75
    16
147
1.0
 76
     0
 77
     2
 78
   300
148
0.0
149
0.0
100
AcDbLayout
  1
Layout1
 70
     1
 71
     1
 10
0.0
 20
0.0
 11
420.0
 21
297.0
 12
0.0
 22
0.0
 32
0.0
 14
1.000000000000000E+20
 24
1.000000000000000E+20
 34
1.000000000000000E+20
 15
-1.000000000000000E+20
 25
-1.000000000000000E+20
 35
-1.000000000000000E+20
146
0.0
 13
0.0
 23
0.0
 33
0.0
 16
1.0
 26
0.0
 36
0.0
 17
0.0
 27
1.0
 37
0.0
 76
     0
330
1B
  0
LAYOUT
  5
26
102
{ACAD_REACTORS
330
1A
102
}
330
1A
100
AcDbPlotSettings
  1

  2
none_device
  4

  6

 40
0.0
 41
0.0
 42
0.0
 43
0.0
 44
0.0
 45
0.0
 46
0.0
 47
0.0
 48
0.0
 49
0.0
140
0.0
141
0.0
142
1.0
143
1.0
 70
   688
 72
     1
 73
     0
 74
     5
  7

 75
    16
147
1.0
 76
     0
 77
     2
 78
   300
148
0.0
149
0.0
100
AcDbLayout
  1
Layout2
 70
     1
 71
     2
 10
0.0
 20
0.0
 11
0.0
 21
0.0
 12
0.0
 22
0.0
 32
0.0
 14
0.0
 24
0.0
 34
0.0
 15
0.0
 25
0.0
 35
0.0
146
0.0
 13
0.0
 23
0.0
 33
0.0
 16
1.0
 26
0.0
 36
0.0
 17
0.0
 27
1.0
 37
0.0
 76
     0
330
23
  0
LAYOUT
  5
22
102
{ACAD_REACTORS
330
1A
102
}
330
1A
100
AcDbPlotSettings
  1

  2
none_device
  4
Letter_(8.50_x_11.00_Inches)
  6

 40
6.349999999999999
 41
6.349999999999999
 42
6.350005079999999
 43
6.350005079999999
 44
215.9
 45
279.4
 46
0.0
 47
0.0
 48
0.0
 49
0.0
140
0.0
141
0.0
142
1.0
143
1.0
 70
  1712
 72
     1
 73
     0
 74
     0
  7

 75
     0
147
1.0
 76
     0
 77
     2
 78
   300
148
0.0
149
0.0
100
AcDbLayout
  1
Model
 70
     1
 71
     0
 10
0.0
 20
0.0
 11
420.0
 21
297.0
 12
0.0
 22
0.0
 32
0.0
 14
0.0
 24
0.0
 34
0.0
 15
420.0
 25
297.0
 35
0.0
146
0.0
 13
0.0
 23
0.0
 33
0.0
 16
1.0
 26
0.0
 36
0.0
 17
0.0
 27
1.0
 37
0.0
 76
     0
330
1F
331
29
  0
MATERIAL
  5
177
102
{ACAD_XDICTIONARY
360
178
102
}
102
{ACAD_REACTORS
330
16E
102
}
330
16E
100
AcDbMaterial
  1
ByBlock
 72
     0
 43
0.0008202099737533
 43
0.0
 43
0.0
 43
0.0
 43
0.0
 43
0.0008202099737533
 43
0.0
 43
0.0
 43
0.0
 43
0.0
 43
1.0
 43
0.0
 43
0.0
 43
0.0
 43
0.0
 43
1.0
 77
     0
 47
0.0008202099737533
 47
0.0
 47
0.0
 47
0.0
 47
0.0
 47
0.0008202099737533
 47
0.0
 47
0.0
 47
0.0
 47
0.0
 47
1.0
 47
0.0
 47
0.0
 47
0.0
 47
0.0
 47
1.0
171
     0
 49
0.0008202099737533
 49
0.0
 49
0.0
 49
0.0
 49
0.0
 49
0.0008202099737533
 49
0.0
 49
0.0
 49
0.0
 49
0.0
 49
1.0
 49
0.0
 49
0.0
 49
0.0
 49
0.0
 49
1.0
175
     0
142
0.0008202099737533
142
0.0
142
0.0
142
0.0
142
0.0
142
0.0008202099737533
142
0.0
142
0.0
142
0.0
142
0.0
142
1.0
142
0.0
142
0.0
142
0.0
142
0.0
142
1.0
179
     0
144
0.0008202099737533
144
0.0
144
0.0
144
0.0
144
0.0
144
0.0008202099737533
144
0.0
144
0.0
144
0.0
144
0.0
144
1.0
144
0.0
144
0.0
144
0.0
144
0.0
144
1.0
147
0.0008202099737533
147
0.0
147
0.0
147
0.0
147
0.0
147
0.0008202099737533
147
0.0
147
0.0
147
0.0
147
0.0
147
1.0
147
0.0
147
0.0
147
0.0
147
0.0
147
1.0
  0
MATERIAL
  5
16F
102
{ACAD_XDICTIONARY
360
170
102
}
102
{ACAD_REACTORS
330
16E
102
}
330
16E
100
AcDbMaterial
  1
ByLayer
 72
     0
 43
0.0008202099737533
 43
0.0
 43
0.0
 43
0.0
 43
0.0
 43
0.0008202099737533
 43
0.0
 43
0.0
 43
0.0
 43
0.0
 43
1.0
 43
0.0
 43
0.0
 43
0.0
 43
0.0
 43
1.0
 77
     0
 47
0.0008202099737533
 47
0.0
 47
0.0
 47
0.0
 47
0.0
 47
0.0008202099737533
 47
0.0
 47
0.0
 47
0.0
 47
0.0
 47
1.0
 47
0.0
 47
0.0
 47
0.0
 47
0.0
 47
1.0
171
     0
 49
0.0008202099737533
 49
0.0
 49
0.0
 49
0.0
 49
0.0
 49
0.0008202099737533
 49
0.0
 49
0.0
 49
0.0
 49
0.0
 49
1.0
 49
0.0
 49
0.0
 49
0.0
 49
0.0
 49
1.0
175
     0
142
0.0008202099737533
142
0.0
142
0.0
142
0.0
142
0.0
142
0.0008202099737533
142
0.0
142
0.0
142
0.0
142
0.0
142
1.0
142
0.0
142
0.0
142
0.0
142
0.0
142
1.0
179
     0
144
0.0008202099737533
144
0.0
144
0.0
144
0.0
144
0.0
144
0.0008202099737533
144
0.0
144
0.0
144
0.0
144
0.0
144
1.0
144
0.0
144
0.0
144
0.0
144
0.0
144
1.0
147
0.0008202099737533
147
0.0
147
0.0
147
0.0
147
0.0
147
0.0008202099737533
147
0.0
147
0.0
147
0.0
147
0.0
147
1.0
147
0.0
147
0.0
147
0.0
147
0.0
147
1.0
  0
MATERIAL
  5
17F
102
{ACAD_XDICTIONARY
360
180
102
}
102
{ACAD_REACTORS
330
16E
102
}
330
16E
100
AcDbMaterial
  1
Global
 72
     0
 43
0.0008202099737533
 43
0.0
 43
0.0
 43
0.0
 43
0.0
 43
0.0008202099737533
 43
0.0
 43
0.0
 43
0.0
 43
0.0
 43
1.0
 43
0.0
 43
0.0
 43
0.0
 43
0.0
 43
1.0
 77
     0
 47
0.0008202099737533
 47
0.0
 47
0.0
 47
0.0
 47
0.0
 47
0.0008202099737533
 47
0.0
 47
0.0
 47
0.0
 47
0.0
 47
1.0
 47
0.0
 47
0.0
 47
0.0
 47
0.0
 47
1.0
171
     0
 49
0.0008202099737533
 49
0.0
 49
0.0
 49
0.0
 49
0.0
 49
0.0008202099737533
 49
0.0
 49
0.0
 49
0.0
 49
0.0
 49
1.0
 49
0.0
 49
0.0
 49
0.0
 49
0.0
 49
1.0
175
     0
142
0.0008202099737533
142
0.0
142
0.0
142
0.0
142
0.0
142
0.0008202099737533
142
0.0
142
0.0
142
0.0
142
0.0
142
1.0
142
0.0
142
0.0
142
0.0
142
0.0
142
1.0
179
     0
144
0.0008202099737533
144
0.0
144
0.0
144
0.0
144
0.0
144
0.0008202099737533
144
0.0
144
0.0
144
0.0
144
0.0
144
1.0
144
0.0
144
0.0
144
0.0
144
0.0
144
1.0
147
0.0008202099737533
147
0.0
147
0.0
147
0.0
147
0.0
147
0.0008202099737533
147
0.0
147
0.0
147
0.0
147
0.0
147
1.0
147
0.0
147
0.0
147
0.0
147
0.0
147
1.0
  0
MLEADERSTYLE
  5
1A4
102
{ACAD_REACTORS
330
1A3
102
}
330
1A3
100
AcDbMLeaderStyle
179
     2
170
     2
171
     1
172
     0
 90
        2
 40
0.0
 41
0.0
173
     1
 91
-1056964608
340
14
 92
       -2
290
     1
 42
2.0
291
     1
 43
0.36
  3
Standard
 44
4.0
300

342
11
174
     1
178
     6
175
     1
176
     0
 93
-1056964608
 45
4.0
292
     0
297
     0
 46
4.0
 94
-1056964608
 47
1.0
 49
1.0
140
1.0
293
     1
141
0.0
294
     1
177
     0
142
1.0
295
     0
296
     0
143
0.125
271
     0
272
     9
273
     9
298
     0
  0
MLINESTYLE
  5
18
102
{ACAD_REACTORS
330
17
102
}
330
17
100
AcDbMlineStyle
  2
STANDARD
 70
     0
  3

 62
   256
 51
90.0
 52
90.0
 71
     2
 49
0.5
 62
   256
  6
BYLAYER
 49
-0.5
 62
   256
  6
BYLAYER
  0
ACDBPLACEHOLDER
  5
F
102
{ACAD_REACTORS
330
E
102
}
330
E
  0
SCALE
  5
48
102
{ACAD_REACTORS
330
47
102
}
330
47
100
AcDbScale
 70
     0
300
1:1
140
1.0
141
1.0
290
     1
  0
SCALE
  5
49
102
{ACAD_REACTORS
330
47
102
}
330
47
100
AcDbScale
 70
     0
300
1:2
140
1.0
141
2.0
290
     0
  0
SCALE
  5
4A
102
{ACAD_REACTORS
330
47
102
}
330
47
100
AcDbScale
 70
     0
300
1:4
140
1.0
141
4.0
290
     0
  0
SCALE
  5
4B
102
{ACAD_REACTORS
330
47
102
}
330
47
100
AcDbScale
 70
     0
300
1:5
140
1.0
141
5.0
290
     0
  0
SCALE
  5
4C
102
{ACAD_REACTORS
330
47
102
}
330
47
100
AcDbScale
 70
     0
300
1:8
140
1.0
141
8.0
290
     0
  0
SCALE
  5
4D
102
{ACAD_REACTORS
330
47
102
}
330
47
100
AcDbScale
 70
     0
300
1:10
140
1.0
141
10.0
290
     0
  0
SCALE
  5
4E
102
{ACAD_REACTORS
330
47
102
}
330
47
100
AcDbScale
 70
     0
300
1:16
140
1.0
141
16.0
290
     0
  0
SCALE
  5
4F
102
{ACAD_REACTORS
330
47
102
}
330
47
100
AcDbScale
 70
     0
300
1:20
140
1.0
141
20.0
290
     0
  0
SCALE
  5
50
102
{ACAD_REACTORS
330
47
102
}
330
47
100
AcDbScale
 70
     0
300
1:30
140
1.0
141
30.0
290
     0
  0
SCALE
  5
51
102
{ACAD_REACTORS
330
47
102
}
330
47
100
AcDbScale
 70
     0
300
1:40
140
1.0
141
40.0
290
     0
  0
SCALE
  5
52
102
{ACAD_REACTORS
330
47
102
}
330
47
100
AcDbScale
 70
     0
300
1:50
140
1.0
141
50.0
290
     0
  0
SCALE
  5
53
102
{ACAD_REACTORS
330
47
102
}
330
47
100
AcDbScale
 70
     0
300
1:100
140
1.0
141
100.0
290
     0
  0
SCALE
  5
54
102
{ACAD_REACTORS
330
47
102
}
330
47
100
AcDbScale
 70
     0
300
2:1
140
2.0
141
1.0
290
     0
  0
SCALE
  5
55
102
{ACAD_REACTORS
330
47
102
}
330
47
100
AcDbScale
 70
     0
300
4:1
140
4.0
141
1.0
290
     0
  0
SCALE
  5
56
102
{ACAD_REACTORS
330
47
102
}
330
47
100
AcDbScale
 70
     0
300
8:1
140
8.0
141
1.0
290
     0
  0
SCALE
  5
57
102
{ACAD_REACTORS
330
47
102
}
330
47
100
AcDbScale
 70
     0
300
10:1
140
10.0
141
1.0
290
     0
  0
SCALE
  5
58
102
{ACAD_REACTORS
330
47
102
}
330
47
100
AcDbScale
 70
     0
300
100:1
140
100.0
141
1.0
290
     0
  0
SCALE
  5
59
102
{ACAD_REACTORS
330
47
102
}
330
47
100
AcDbScale
 70
     0
300
1/128" = 1'-0"
140
0.0078125
141
12.0
290
     0
  0
SCALE
  5
5A
102
{ACAD_REACTORS
330
47
102
}
330
47
100
AcDbScale
 70
     0
300
1/64" = 1'-0"
140
0.015625
141
12.0
290
     0
  0
SCALE
  5
5B
102
{ACAD_REACTORS
330
47
102
}
330
47
100
AcDbScale
 70
     0
300
1/32" = 1'-0"
140
0.03125
141
12.0
290
     0
  0
SCALE
  5
5C
102
{ACAD_REACTORS
330
47
102
}
330
47
100
AcDbScale
 70
     0
300
1/16" = 1'-0"
140
0.0625
141
12.0
290
     0
  0
SCALE
  5
5D
102
{ACAD_REACTORS
330
47
102
}
330
47
100
AcDbScale
 70
     0
300
3/32" = 1'-0"
140
0.09375
141
12.0
290
     0
  0
SCALE
  5
5E
102
{ACAD_REACTORS
330
47
102
}
330
47
100
AcDbScale
 70
     0
300
1/8" = 1'-0"
140
0.125
141
12.0
290
     0
  0
SCALE
  5
5F
102
{ACAD_REACTORS
330
47
102
}
330
47
100
AcDbScale
 70
     0
300
3/16" = 1'-0"
140
0.1875
141
12.0
290
     0
  0
SCALE
  5
60
102
{ACAD_REACTORS
330
47
102
}
330
47
100
AcDbScale
 70
     0
300
1/4" = 1'-0"
140
0.25
141
12.0
290
     0
  0
SCALE
  5
61
102
{ACAD_REACTORS
330
47
102
}
330
47
100
AcDbScale
 70
     0
300
3/8" = 1'-0"
140
0.375
141
12.0
290
     0
  0
SCALE
  5
62
102
{ACAD_REACTORS
330
47
102
}
330
47
100
AcDbScale
 70
     0
300
1/2" = 1'-0"
140
0.5
141
12.0
290
     0
  0
SCALE
  5
63
102
{ACAD_REACTORS
330
47
102
}
330
47
100
AcDbScale
 70
     0
300
3/4" = 1'-0"
140
0.75
141
12.0
290
     0
  0
SCALE
  5
64
102
{ACAD_REACTORS
330
47
102
}
330
47
100
AcDbScale
 70
     0
300
1" = 1'-0"
140
1.0
141
12.0
290
     0
  0
SCALE
  5
65
102
{ACAD_REACTORS
330
47
102
}
330
47
100
AcDbScale
 70
     0
300
1-1/2" = 1'-0"
140
1.5
141
12.0
290
     0
  0
SCALE
  5
66
102
{ACAD_REACTORS
330
47
102
}
330
47
100
AcDbScale
 70
     0
300
3" = 1'-0"
140
3.0
141
12.0
290
     0
  0
SCALE
  5
67
102
{ACAD_REACTORS
330
47
102
}
330
47
100
AcDbScale
 70
     0
300
6" = 1'-0"
140
6.0
141
12.0
290
     0
  0
SCALE
  5
68
102
{ACAD_REACTORS
330
47
102
}
330
47
100
AcDbScale
 70
     0
300
1'-0" = 1'-0"
140
12.0
141
12.0
290
     0
  0
ACDBSECTIONVIEWSTYLE
  5
1A6
102
{ACAD_REACTORS
330
1A5
102
}
330
1A5
100
AcDbModelDocViewStyle
 70
     0
  3
Metric50
290
     0
300
Metric50
 90
        0
100
AcDbSectionViewStyle
 70
     0
 71
     0
 90
      102
 71
     1
340
11
 62
   256
 40
5.0
340
0
340
0
 62
   256
 40
5.0
300
I, O, Q, S, X, Z
 40
10.0
 90
        0
 40
2.5
 90
        0
 71
     2
340
16
 90
       25
 62
   256
340
16
 90
       50
 62
   256
 40
5.0
 40
2.5
 40
5.0
 71
     3
340
11
 62
   256
 40
5.0
 90
        0
 40
15.0
 90
        1
300
%<\AcVar ViewSectionStartId>%-%<\AcVar ViewSectionEndId>% (%<\AcVar ViewScale \f "%sn">%)
 71
     4
 62
   256
 62
   257
300
ANSI31
 40
1.0
 90
        0
290
     0
290
     0
 90
        6
 40
0.0
 40
1.570796326794896
 40
0.2617993877991494
 40
1.308996938995747
 40
-0.2617993877991494
 40
1.832595714594046
  0
TABLESTYLE
  5
1A2
102
{ACAD_XDICTIONARY
360
2F0
102
}
102
{ACAD_REACTORS
330
1A1
102
}
330
1A1
100
AcDbTableStyle
280
     0
  3
Standard
 70
     0
 71
     0
 40
1.5
 41
1.5
280
     0
281
     0
  7
Standard
140
4.5
170
     2
 62
     0
 63
     7
283
     0
 90
      512
 91
        0
  1

274
    -2
284
     1
 64
     0
275
    -2
285
     1
 65
     0
276
    -2
286
     1
 66
     0
277
    -2
287
     1
 67
     0
278
    -2
288
     1
 68
     0
279
    -2
289
     1
 69
     0
  7
Standard
140
6.0
170
     5
 62
     0
 63
     7
283
     0
 90
      512
 91
        0
  1

274
    -2
284
     1
 64
     0
275
    -2
285
     1
 65
     0
276
    -2
286
     1
 66
     0
277
    -2
287
     1
 67
     0
278
    -2
288
     1
 68
     0
279
    -2
289
     1
 69
     0
  7
Standard
140
4.5
170
     5
 62
     0
 63
     7
283
     0
 90
      512
 91
        0
  1

274
    -2
284
     1
 64
     0
275
    -2
285
     1
 65
     0
276
    -2
286
     1
 66
     0
277
    -2
287
     1
 67
     0
278
    -2
288
     1
 68
     0
279
    -2
289
     1
 69
     0
  0
VISUALSTYLE
  5
18D
102
{ACAD_REACTORS
330
187
102
}
330
187
100
AcDbVisualStyle
  2
2dWireframe
 70
     4
177
     3
291
     0
 70
    58
 90
        0
176
     1
 90
        2
176
     1
 90
        0
176
     1
 90
        0
176
     1
 40
0.6
176
     1
 40
30.0
176
     1
 62
     7
420
 16777215
176
     1
 90
        1
176
     1
 90
        4
176
     1
 62
     7
176
     1
 62
   257
176
     1
 90
        1
176
     1
 90
        1
176
     1
 40
1.0
176
     1
 90
        0
176
     1
 62
   257
176
     1
 40
1.0
176
     1
 90
        1
176
     1
 90
        6
176
     1
 90
        2
176
     1
 62
     7
176
     1
 90
        5
176
     1
 90
        0
176
     1
 90
        0
176
     1
290
     0
176
     1
 90
        1
176
     1
 40
0.0
176
     1
 90
        0
176
     1
290
     1
176
     1
290
     1
176
     1
290
     0
176
     1
290
     0
176
     1
290
     0
176
     1
290
     0
176
     1
290
     0
176
     1
290
     0
176
     1
290
     0
176
     1
 90
       50
176
     1
 40
0.0
176
     1
 40
1.0
176
     1
 90
        0
176
     1
 62
    18
420
        0
176
     1
 90
       50
176
     1
 90
        3
176
     1
 62
     5
420
      255
176
     1
290
     0
176
     1
 90
       50
176
     1
 90
       50
176
     1
 90
       50
176
     1
290
     0
176
     1
 90
       50
176
     1
 62
   256
176
     0
 40
1.0
176
     0
 90
        2
176
     1
  1
strokes_ogs.tif
176
     1
290
     0
176
     1
 40
1.0
176
     1
 40
1.0
176
     1
  0
VISUALSTYLE
  5
18C
102
{ACAD_REACTORS
330
187
102
}
330
187
100
AcDbVisualStyle
  2
Basic
 70
     7
177
     3
291
     1
 70
    58
 90
        1
176
     1
 90
        0
176
     1
 90
        1
176
     1
 90
        0
176
     1
 40
0.6
176
     1
 40
30.0
176
     1
 62
     7
420
 16777215
176
     1
 90
        0
176
     1
 90
        4
176
     1
 62
     7
176
     1
 62
   257
176
     1
 90
        1
176
     1
 90
        1
176
     1
 40
1.0
176
     1
 90
        8
176
     1
 62
     7
176
     1
 40
1.0
176
     1
 90
        1
176
     1
 90
        6
176
     1
 90
        2
176
     1
 62
     7
176
     1
 90
        5
176
     1
 90
        0
176
     1
 90
        0
176
     1
290
     0
176
     1
 90
        1
176
     1
 40
0.0
176
     1
 90
        0
176
     1
290
     0
176
     1
290
     1
176
     1
290
     1
176
     1
290
     0
176
     1
290
     0
176
     1
290
     0
176
     1
290
     0
176
     1
290
     0
176
     1
290
     0
176
     1
 90
       50
176
     1
 40
0.0
176
     1
 40
1.0
176
     1
 90
        0
176
     1
 62
    18
420
        0
176
     1
 90
       50
176
     1
 90
        3
176
     1
 62
     5
420
      255
176
     1
290
     0
176
     1
 90
       50
176
     1
 90
       50
176
     1
 90
       50
176
     1
290
     0
176
     1
 90
       50
176
     1
 62
   256
176
     0
 40
1.0
176
     0
 90
        2
176
     1
  1
strokes_ogs.tif
176
     1
290
     0
176
     1
 40
1.0
176
     1
 40
1.0
176
     1
  0
VISUALSTYLE
  5
193
102
{ACAD_REACTORS
330
187
102
}
330
187
100
AcDbVisualStyle
  2
Brighten
 70
    12
177
     3
291
     1
 70
    58
 90
        2
176
     1
 90
        2
176
     1
 90
        0
176
     1
 90
        0
176
     1
 40
0.6
176
     1
 40
30.0
176
     1
 62
     7
420
 16777215
176
     1
 90
        1
176
     1
 90
        4
176
     1
 62
     7
176
     1
 62
   257
176
     1
 90
        1
176
     1
 90
        1
176
     1
 40
1.0
176
     1
 90
        8
176
     1
 62
     7
176
     1
 40
1.0
176
     1
 90
        1
176
     1
 90
        6
176
     1
 90
        2
176
     1
 62
     7
176
     1
 90
        5
176
     1
 90
        0
176
     1
 90
        0
176
     1
290
     0
176
     1
 90
        1
176
     1
 40
50.0
176
     1
 90
        0
176
     1
290
     0
176
     1
290
     1
176
     1
290
     1
176
     1
290
     0
176
     1
290
     0
176
     1
290
     0
176
     1
290
     0
176
     1
290
     0
176
     1
290
     0
176
     1
 90
       50
176
     1
 40
0.0
176
     1
 40
1.0
176
     1
 90
        0
176
     1
 62
    18
420
        0
176
     1
 90
       50
176
     1
 90
        3
176
     1
 62
     5
420
      255
176
     1
290
     0
176
     1
 90
       50
176
     1
 90
       50
176
     1
 90
       50
176
     1
290
     0
176
     1
 90
       50
176
     1
 62
   256
176
     0
 40
1.0
176
     0
 90
        2
176
     1
  1
strokes_ogs.tif
176
     1
290
     0
176
     1
 40
1.0
176
     1
 40
1.0
176
     1
  0
VISUALSTYLE
  5
197
102
{ACAD_REACTORS
330
187
102
}
330
187
100
AcDbVisualStyle
  2
ColorChange
 70
    16
177
     3
291
     1
 70
    58
 90
        2
176
     1
 90
        2
176
     1
 90
        3
176
     1
 90
        0
176
     1
 40
0.6
176
     1
 40
30.0
176
     1
 62
     8
420
  8421504
176
     1
 90
        1
176
     1
 90
        4
176
     1
 62
     7
176
     1
 62
   257
176
     1
 90
        1
176
     1
 90
        1
176
     1
 40
1.0
176
     1
 90
        8
176
     1
 62
     8
420
  8421504
176
     1
 40
1.0
176
     1
 90
        1
176
     1
 90
        6
176
     1
 90
        2
176
     1
 62
     7
176
     1
 90
        5
176
     1
 90
        0
176
     1
 90
        0
176
     1
290
     0
176
     1
 90
        1
176
     1
 40
0.0
176
     1
 90
        0
176
     1
290
     0
176
     1
290
     1
176
     1
290
     1
176
     1
290
     0
176
     1
290
     0
176
     1
290
     0
176
     1
290
     0
176
     1
290
     0
176
     1
290
     0
176
     1
 90
       50
176
     1
 40
0.0
176
     1
 40
1.0
176
     1
 90
        0
176
     1
 62
    18
420
        0
176
     1
 90
       50
176
     1
 90
        3
176
     1
 62
     5
420
      255
176
     1
290
     0
176
     1
 90
       50
176
     1
 90
       50
176
     1
 90
       50
176
     1
290
     0
176
     1
 90
       50
176
     1
 62
   256
176
     0
 40
1.0
176
     0
 90
        2
176
     1
  1
strokes_ogs.tif
176
     1
290
     0
176
     1
 40
1.0
176
     1
 40
1.0
176
     1
  0
VISUALSTYLE
  5
190
102
{ACAD_REACTORS
330
187
102
}
330
187
100
AcDbVisualStyle
  2
Conceptual
 70
     9
177
     3
291
     0
 70
    58
 90
        3
176
     1
 90
        2
176
     1
 90
        0
176
     1
 90
        0
176
     1
 40
0.6
176
     1
 40
30.0
176
     1
 62
     7
420
 16777215
176
     1
 90
        2
176
     1
 90
        2
176
     1
 62
     7
176
     1
 62
   257
176
     1
 90
        1
176
     1
 90
        1
176
     1
 40
179.0
176
     1
 90
        8
176
     1
 62
     7
176
     1
 40
1.0
176
     1
 90
        1
176
     1
 90
        6
176
     1
 90
        2
176
     1
 62
     7
176
     1
 90
        3
176
     1
 90
        0
176
     1
 90
        0
176
     1
290
     0
176
     1
 90
        1
176
     1
 40
0.0
176
     1
 90
        0
176
     1
290
     0
176
     1
290
     1
176
     1
290
     1
176
     1
290
     0
176
     1
290
     0
176
     1
290
     0
176
     1
290
     0
176
     1
290
     0
176
     1
290
     0
176
     1
 90
       50
176
     1
 40
0.0
176
     1
 40
1.0
176
     1
 90
        0
176
     1
 62
    18
420
        0
176
     1
 90
       50
176
     1
 90
        3
176
     1
 62
     5
420
      255
176
     1
290
     0
176
     1
 90
       50
176
     1
 90
       50
176
     1
 90
       50
176
     1
290
     0
176
     1
 90
       50
176
     1
 62
   256
176
     0
 40
1.0
176
     0
 90
        2
176
     1
  1
strokes_ogs.tif
176
     1
290
     0
176
     1
 40
1.0
176
     1
 40
1.0
176
     1
  0
VISUALSTYLE
  5
192
102
{ACAD_REACTORS
330
187
102
}
330
187
100
AcDbVisualStyle
  2
Dim
 70
    11
177
     3
291
     1
 70
    58
 90
        2
176
     1
 90
        2
176
     1
 90
        0
176
     1
 90
        0
176
     1
 40
0.6
176
     1
 40
30.0
176
     1
 62
     7
420
 16777215
176
     1
 90
        1
176
     1
 90
        4
176
     1
 62
     7
176
     1
 62
   257
176
     1
 90
        1
176
     1
 90
        1
176
     1
 40
1.0
176
     1
 90
        8
176
     1
 62
     7
176
     1
 40
1.0
176
     1
 90
        1
176
     1
 90
        6
176
     1
 90
        2
176
     1
 62
     7
176
     1
 90
        5
176
     1
 90
        0
176
     1
 90
        0
176
     1
290
     0
176
     1
 90
        1
176
     1
 40
-50.0
176
     1
 90
        0
176
     1
290
     0
176
     1
290
     1
176
     1
290
     1
176
     1
290
     0
176
     1
290
     0
176
     1
290
     0
176
     1
290
     0
176
     1
290
     0
176
     1
290
     0
176
     1
 90
       50
176
     1
 40
0.0
176
     1
 40
1.0
176
     1
 90
        0
176
     1
 62
    18
420
        0
176
     1
 90
       50
176
     1
 90
        3
176
     1
 62
     5
420
      255
176
     1
290
     0
176
     1
 90
       50
176
     1
 90
       50
176
     1
 90
       50
176
     1
290
     0
176
     1
 90
       50
176
     1
 62
   256
176
     0
 40
1.0
176
     0
 90
        2
176
     1
  1
strokes_ogs.tif
176
     1
290
     0
176
     1
 40
1.0
176
     1
 40
1.0
176
     1
  0
VISUALSTYLE
  5
19F
102
{ACAD_REACTORS
330
187
102
}
330
187
100
AcDbVisualStyle
  2
EdgeColorOff
 70
    22
177
     3
291
     1
 70
    58
 90
        2
176
     0
 90
        2
176
     0
 90
        0
176
     0
 90
        0
176
     0
 40
0.6
176
     0
 40
30.0
176
     0
 62
     7
420
 16777215
176
     0
 90
        1
176
     0
 90
        4
176
     0
 62
     7
176
     0
 62
   257
176
     0
 90
        1
176
     0
 90
        1
176
     0
 40
1.0
176
     0
 90
        8
176
     2
 62
     7
176
     0
 40
1.0
176
     0
 90
        1
176
     0
 90
        6
176
     0
 90
        2
176
     0
 62
     7
176
     0
 90
        5
176
     0
 90
        0
176
     0
 90
        0
176
     0
290
     0
176
     0
 90
        1
176
     0
 40
0.0
176
     0
 90
        0
176
     0
290
     0
176
     1
290
     1
176
     1
290
     1
176
     1
290
     0
176
     1
290
     0
176
     1
290
     0
176
     1
290
     0
176
     1
290
     0
176
     1
290
     0
176
     1
 90
       50
176
     0
 40
0.0
176
     0
 40
1.0
176
     0
 90
        0
176
     0
 62
    18
420
        0
176
     0
 90
       50
176
     0
 90
        3
176
     0
 62
     5
420
      255
176
     0
290
     0
176
     1
 90
       50
176
     0
 90
       50
176
     0
 90
       50
176
     0
290
     0
176
     1
 90
       50
176
     0
 62
   256
176
     0
 40
1.0
176
     0
 90
        2
176
     0
  1
strokes_ogs.tif
176
     0
290
     0
176
     1
 40
1.0
176
     0
 40
1.0
176
     0
  0
VISUALSTYLE
  5
196
102
{ACAD_REACTORS
330
187
102
}
330
187
100
AcDbVisualStyle
  2
Facepattern
 70
    15
177
     3
291
     1
 70
    58
 90
        2
176
     1
 90
        2
176
     1
 90
        0
176
     1
 90
        0
176
     1
 40
0.6
176
     1
 40
30.0
176
     1
 62
     7
420
 16777215
176
     1
 90
        1
176
     1
 90
        4
176
     1
 62
     7
176
     1
 62
   257
176
     1
 90
        1
176
     1
 90
        1
176
     1
 40
1.0
176
     1
 90
        8
176
     1
 62
     7
176
     1
 40
1.0
176
     1
 90
        1
176
     1
 90
        6
176
     1
 90
        2
176
     1
 62
     7
176
     1
 90
        5
176
     1
 90
        0
176
     1
 90
        0
176
     1
290
     0
176
     1
 90
        1
176
     1
 40
0.0
176
     1
 90
        0
176
     1
290
     0
176
     1
290
     1
176
     1
290
     1
176
     1
290
     0
176
     1
290
     0
176
     1
290
     0
176
     1
290
     0
176
     1
290
     0
176
     1
290
     0
176
     1
 90
       50
176
     1
 40
0.0
176
     1
 40
1.0
176
     1
 90
        0
176
     1
 62
    18
420
        0
176
     1
 90
       50
176
     1
 90
        3
176
     1
 62
     5
420
      255
176
     1
290
     0
176
     1
 90
       50
176
     1
 90
       50
176
     1
 90
       50
176
     1
290
     0
176
     1
 90
       50
176
     1
 62
   256
176
     0
 40
1.0
176
     0
 90
        2
176
     1
  1
strokes_ogs.tif
176
     1
290
     0
176
     1
 40
1.0
176
     1
 40
1.0
176
     1
  0
VISUALSTYLE
  5
188
102
{ACAD_REACTORS
330
187
102
}
330
187
100
AcDbVisualStyle
  2
Flat
 70
     0
177
     3
291
     1
 70
    58
 90
        2
176
     1
 90
        1
176
     1
 90
        1
176
     1
 90
        2
176
     1
 40
0.6
176
     1
 40
30.0
176
     1
 62
     7
420
 16777215
176
     1
 90
        0
176
     1
 90
        0
176
     1
 62
     7
176
     1
 62
   257
176
     1
 90
        1
176
     1
 90
        1
176
     1
 40
1.0
176
     1
 90
        8
176
     1
 62
     7
176
     1
 40
1.0
176
     1
 90
        1
176
     1
 90
        6
176
     1
 90
        2
176
     1
 62
     7
176
     1
 90
        5
176
     1
 90
        0
176
     1
 90
        0
176
     1
290
     0
176
     1
 90
       13
176
     1
 40
0.0
176
     1
 90
        0
176
     1
290
     0
176
     1
290
     1
176
     1
290
     1
176
     1
290
     0
176
     1
290
     0
176
     1
290
     0
176
     1
290
     0
176
     1
290
     0
176
     1
290
     0
176
     1
 90
       50
176
     1
 40
0.0
176
     1
 40
1.0
176
     1
 90
        0
176
     1
 62
    18
420
        0
176
     1
 90
       50
176
     1
 90
        3
176
     1
 62
     5
420
      255
176
     1
290
     0
176
     1
 90
       50
176
     1
 90
       50
176
     1
 90
       50
176
     1
290
     0
176
     1
 90
       50
176
     1
 62
   256
176
     0
 40
1.0
176
     0
 90
        2
176
     1
  1
strokes_ogs.tif
176
     1
290
     0
176
     1
 40
1.0
176
     1
 40
1.0
176
     1
  0
VISUALSTYLE
  5
189
102
{ACAD_REACTORS
330
187
102
}
330
187
100
AcDbVisualStyle
  2
FlatWithEdges
 70
     1
177
     3
291
     1
 70
    58
 90
        2
176
     1
 90
        1
176
     1
 90
        1
176
     1
 90
        2
176
     1
 40
0.6
176
     1
 40
30.0
176
     1
 62
     7
420
 16777215
176
     1
 90
        1
176
     1
 90
        0
176
     1
 62
     7
176
     1
 62
   257
176
     1
 90
        1
176
     1
 90
        1
176
     1
 40
1.0
176
     1
 90
        0
176
     1
 62
   257
176
     1
 40
1.0
176
     1
 90
        1
176
     1
 90
        6
176
     1
 90
        2
176
     1
 62
     7
176
     1
 90
        5
176
     1
 90
        0
176
     1
 90
        0
176
     1
290
     0
176
     1
 90
       13
176
     1
 40
0.0
176
     1
 90
        0
176
     1
290
     0
176
     1
290
     1
176
     1
290
     1
176
     1
290
     0
176
     1
290
     0
176
     1
290
     0
176
     1
290
     0
176
     1
290
     0
176
     1
290
     0
176
     1
 90
       50
176
     1
 40
0.0
176
     1
 40
1.0
176
     1
 90
        0
176
     1
 62
    18
420
        0
176
     1
 90
       50
176
     1
 90
        3
176
     1
 62
     5
420
      255
176
     1
290
     0
176
     1
 90
       50
176
     1
 90
       50
176
     1
 90
       50
176
     1
290
     0
176
     1
 90
       50
176
     1
 62
   256
176
     0
 40
1.0
176
     0
 90
        2
176
     1
  1
strokes_ogs.tif
176
     1
290
     0
176
     1
 40
1.0
176
     1
 40
1.0
176
     1
  0
VISUALSTYLE
  5
18A
102
{ACAD_REACTORS
330
187
102
}
330
187
100
AcDbVisualStyle
  2
Gouraud
 70
     2
177
     3
291
     1
 70
    58
 90
        2
176
     1
 90
        2
176
     1
 90
        1
176
     1
 90
        2
176
     1
 40
0.6
176
     1
 40
30.0
176
     1
 62
     7
420
 16777215
176
     1
 90
        0
176
     1
 90
        0
176
     1
 62
     7
176
     1
 62
   257
176
     1
 90
        1
176
     1
 90
        1
176
     1
 40
1.0
176
     1
 90
        0
176
     1
 62
     7
176
     1
 40
1.0
176
     1
 90
        1
176
     1
 90
        6
176
     1
 90
        2
176
     1
 62
     7
176
     1
 90
        5
176
     1
 90
        0
176
     1
 90
        0
176
     1
290
     0
176
     1
 90
       13
176
     1
 40
0.0
176
     1
 90
        0
176
     1
290
     0
176
     1
290
     1
176
     1
290
     1
176
     1
290
     0
176
     1
290
     0
176
     1
290
     0
176
     1
290
     0
176
     1
290
     0
176
     1
290
     0
176
     1
 90
       50
176
     1
 40
0.0
176
     1
 40
1.0
176
     1
 90
        0
176
     1
 62
    18
420
        0
176
     1
 90
       50
176
     1
 90
        3
176
     1
 62
     5
420
      255
176
     1
290
     0
176
     1
 90
       50
176
     1
 90
       50
176
     1
 90
       50
176
     1
290
     0
176
     1
 90
       50
176
     1
 62
   256
176
     0
 40
1.0
176
     0
 90
        2
176
     1
  1
strokes_ogs.tif
176
     1
290
     0
176
     1
 40
1.0
176
     1
 40
1.0
176
     1
  0
VISUALSTYLE
  5
18B
102
{ACAD_REACTORS
330
187
102
}
330
187
100
AcDbVisualStyle
  2
GouraudWithEdges
 70
     3
177
     3
291
     1
 70
    58
 90
        2
176
     1
 90
        2
176
     1
 90
        1
176
     1
 90
        2
176
     1
 40
0.6
176
     1
 40
30.0
176
     1
 62
     7
420
 16777215
176
     1
 90
        1
176
     1
 90
        0
176
     1
 62
     7
176
     1
 62
   257
176
     1
 90
        1
176
     1
 90
        1
176
     1
 40
1.0
176
     1
 90
        0
176
     1
 62
   257
176
     1
 40
1.0
176
     1
 90
        1
176
     1
 90
        6
176
     1
 90
        2
176
     1
 62
     7
176
     1
 90
        5
176
     1
 90
        0
176
     1
 90
        0
176
     1
290
     0
176
     1
 90
       13
176
     1
 40
0.0
176
     1
 90
        0
176
     1
290
     0
176
     1
290
     1
176
     1
290
     1
176
     1
290
     0
176
     1
290
     0
176
     1
290
     0
176
     1
290
     0
176
     1
290
     0
176
     1
290
     0
176
     1
 90
       50
176
     1
 40
0.0
176
     1
 40
1.0
176
     1
 90
        0
176
     1
 62
    18
420
        0
176
     1
 90
       50
176
     1
 90
        3
176
     1
 62
     5
420
      255
176
     1
290
     0
176
     1
 90
       50
176
     1
 90
       50
176
     1
 90
       50
176
     1
290
     0
176
     1
 90
       50
176
     1
 62
   256
176
     0
 40
1.0
176
     0
 90
        2
176
     1
  1
strokes_ogs.tif
176
     1
290
     0
176
     1
 40
1.0
176
     1
 40
1.0
176
     1
  0
VISUALSTYLE
  5
18F
102
{ACAD_REACTORS
330
187
102
}
330
187
100
AcDbVisualStyle
  2
Hidden
 70
     6
177
     3
291
     0
 70
    58
 90
        1
176
     1
 90
        2
176
     1
 90
        2
176
     1
 90
        0
176
     1
 40
0.6
176
     1
 40
30.0
176
     1
 62
     7
420
 16777215
176
     1
 90
        2
176
     1
 90
        2
176
     1
 62
     7
176
     1
 62
   257
176
     1
 90
        2
176
     1
 90
        1
176
     1
 40
40.0
176
     1
 90
        0
176
     1
 62
   257
176
     1
 40
1.0
176
     1
 90
        1
176
     1
 90
        6
176
     1
 90
        2
176
     1
 62
     7
176
     1
 90
        3
176
     1
 90
        0
176
     1
 90
        0
176
     1
290
     0
176
     1
 90
        1
176
     1
 40
0.0
176
     1
 90
        0
176
     1
290
     0
176
     1
290
     1
176
     1
290
     1
176
     1
290
     0
176
     1
290
     0
176
     1
290
     0
176
     1
290
     0
176
     1
290
     0
176
     1
290
     0
176
     1
 90
       50
176
     1
 40
0.0
176
     1
 40
1.0
176
     1
 90
        0
176
     1
 62
    18
420
        0
176
     1
 90
       50
176
     1
 90
        3
176
     1
 62
     5
420
      255
176
     1
290
     0
176
     1
 90
       50
176
     1
 90
       50
176
     1
 90
       50
176
     1
290
     0
176
     1
 90
       50
176
     1
 62
   256
176
     0
 40
1.0
176
     0
 90
        2
176
     1
  1
strokes_ogs.tif
176
     1
290
     0
176
     1
 40
1.0
176
     1
 40
1.0
176
     1
  0
VISUALSTYLE
  5
19D
102
{ACAD_REACTORS
330
187
102
}
330
187
100
AcDbVisualStyle
  2
JitterOff
 70
    20
177
     3
291
     1
 70
    58
 90
        2
176
     0
 90
        2
176
     0
 90
        0
176
     0
 90
        0
176
     0
 40
0.6
176
     0
 40
30.0
176
     0
 62
     7
420
 16777215
176
     0
 90
        1
176
     0
 90
        4
176
     0
 62
     7
176
     0
 62
   257
176
     0
 90
        1
176
     0
 90
        1
176
     0
 40
1.0
176
     0
 90
       10
176
     2
 62
     7
176
     0
 40
1.0
176
     0
 90
        1
176
     0
 90
        6
176
     0
 90
        2
176
     0
 62
     7
176
     0
 90
        5
176
     0
 90
        0
176
     0
 90
        0
176
     0
290
     0
176
     0
 90
        1
176
     0
 40
0.0
176
     0
 90
        0
176
     0
290
     0
176
     1
290
     1
176
     1
290
     1
176
     1
290
     0
176
     1
290
     0
176
     1
290
     0
176
     1
290
     0
176
     1
290
     0
176
     1
290
     0
176
     1
 90
       50
176
     0
 40
0.0
176
     0
 40
1.0
176
     0
 90
        0
176
     0
 62
    18
420
        0
176
     0
 90
       50
176
     0
 90
        3
176
     0
 62
     5
420
      255
176
     0
290
     0
176
     1
 90
       50
176
     0
 90
       50
176
     0
 90
       50
176
     0
290
     0
176
     1
 90
       50
176
     0
 62
   256
176
     0
 40
1.0
176
     0
 90
        2
176
     0
  1
strokes_ogs.tif
176
     0
290
     0
176
     1
 40
1.0
176
     0
 40
1.0
176
     0
  0
VISUALSTYLE
  5
195
102
{ACAD_REACTORS
330
187
102
}
330
187
100
AcDbVisualStyle
  2
Linepattern
 70
    14
177
     3
291
     1
 70
    58
 90
        2
176
     1
 90
        2
176
     1
 90
        0
176
     1
 90
        0
176
     1
 40
0.6
176
     1
 40
30.0
176
     1
 62
     7
420
 16777215
176
     1
 90
        1
176
     1
 90
        4
176
     1
 62
     7
176
     1
 62
   257
176
     1
 90
        7
176
     1
 90
        7
176
     1
 40
1.0
176
     1
 90
        8
176
     1
 62
     7
176
     1
 40
1.0
176
     1
 90
        1
176
     1
 90
        6
176
     1
 90
        2
176
     1
 62
     7
176
     1
 90
        5
176
     1
 90
        0
176
     1
 90
        0
176
     1
290
     0
176
     1
 90
        1
176
     1
 40
0.0
176
     1
 90
        0
176
     1
290
     0
176
     1
290
     1
176
     1
290
     1
176
     1
290
     0
176
     1
290
     0
176
     1
290
     0
176
     1
290
     0
176
     1
290
     0
176
     1
290
     0
176
     1
 90
       50
176
     1
 40
0.0
176
     1
 40
1.0
176
     1
 90
        0
176
     1
 62
    18
420
        0
176
     1
 90
       50
176
     1
 90
        3
176
     1
 62
     5
420
      255
176
     1
290
     0
176
     1
 90
       50
176
     1
 90
       50
176
     1
 90
       50
176
     1
290
     0
176
     1
 90
       50
176
     1
 62
   256
176
     0
 40
1.0
176
     0
 90
        2
176
     1
  1
strokes_ogs.tif
176
     1
290
     0
176
     1
 40
1.0
176
     1
 40
1.0
176
     1
  0
VISUALSTYLE
  5
19E
102
{ACAD_REACTORS
330
187
102
}
330
187
100
AcDbVisualStyle
  2
OverhangOff
 70
    21
177
     3
291
     1
 70
    58
 90
        2
176
     0
 90
        2
176
     0
 90
        0
176
     0
 90
        0
176
     0
 40
0.6
176
     0
 40
30.0
176
     0
 62
     7
420
 16777215
176
     0
 90
        1
176
     0
 90
        4
176
     0
 62
     7
176
     0
 62
   257
176
     0
 90
        1
176
     0
 90
        1
176
     0
 40
1.0
176
     0
 90
        9
176
     2
 62
     7
176
     0
 40
1.0
176
     0
 90
        1
176
     0
 90
        6
176
     0
 90
        2
176
     0
 62
     7
176
     0
 90
        5
176
     0
 90
        0
176
     0
 90
        0
176
     0
290
     0
176
     0
 90
        1
176
     0
 40
0.0
176
     0
 90
        0
176
     0
290
     0
176
     1
290
     1
176
     1
290
     1
176
     1
290
     0
176
     1
290
     0
176
     1
290
     0
176
     1
290
     0
176
     1
290
     0
176
     1
290
     0
176
     1
 90
       50
176
     0
 40
0.0
176
     0
 40
1.0
176
     0
 90
        0
176
     0
 62
    18
420
        0
176
     0
 90
       50
176
     0
 90
        3
176
     0
 62
     5
420
      255
176
     0
290
     0
176
     1
 90
       50
176
     0
 90
       50
176
     0
 90
       50
176
     0
290
     0
176
     1
 90
       50
176
     0
 62
   256
176
     0
 40
1.0
176
     0
 90
        2
176
     0
  1
strokes_ogs.tif
176
     0
290
     0
176
     1
 40
1.0
176
     0
 40
1.0
176
     0
  0
VISUALSTYLE
  5
191
102
{ACAD_REACTORS
330
187
102
}
330
187
100
AcDbVisualStyle
  2
Realistic
 70
     8
177
     3
291
     0
 70
    58
 90
        2
176
     1
 90
        3
176
     1
 90
        0
176
     1
 90
        2
176
     1
 40
0.6
176
     1
 40
30.0
176
     1
 62
     7
420
 16777215
176
     1
 90
        0
176
     1
 90
        0
176
     1
 62
     7
176
     1
 62
   257
176
     1
 90
        1
176
     1
 90
        1
176
     1
 40
1.0
176
     1
 90
        8
176
     1
 62
   257
176
     1
 40
1.0
176
     1
 90
        1
176
     1
 90
        6
176
     1
 90
        2
176
     1
 62
     7
176
     1
 90
        3
176
     1
 90
        0
176
     1
 90
        0
176
     1
290
     0
176
     1
 90
       13
176
     1
 40
0.0
176
     1
 90
        0
176
     1
290
     0
176
     1
290
     1
176
     1
290
     1
176
     1
290
     0
176
     1
290
     0
176
     1
290
     0
176
     1
290
     0
176
     1
290
     0
176
     1
290
     0
176
     1
 90
       50
176
     1
 40
0.0
176
     1
 40
1.0
176
     1
 90
        0
176
     1
 62
    18
420
        0
176
     1
 90
       50
176
     1
 90
        3
176
     1
 62
     5
420
      255
176
     1
290
     0
176
     1
 90
       50
176
     1
 90
       50
176
     1
 90
       50
176
     1
290
     0
176
     1
 90
       50
176
     1
 62
   256
176
     0
 40
1.0
176
     0
 90
        2
176
     1
  1
strokes_ogs.tif
176
     1
290
     0
176
     1
 40
1.0
176
     1
 40
1.0
176
     1
  0
VISUALSTYLE
  5
19C
102
{ACAD_REACTORS
330
187
102
}
330
187
100
AcDbVisualStyle
  2
Shaded
 70
    27
177
     3
291
     0
 70
    58
 90
        2
176
     1
 90
        2
176
     1
 90
        1
176
     1
 90
        2
176
     1
 40
0.6
176
     1
 40
30.0
176
     1
 62
     7
420
 16777215
176
     1
 90
        0
176
     1
 90
        4
176
     1
 62
     7
176
     1
 62
   257
176
     1
 90
        1
176
     1
 90
        1
176
     1
 40
1.0
176
     1
 90
        8
176
     1
 62
   257
176
     1
 40
1.0
176
     1
 90
        1
176
     1
 90
        6
176
     1
 90
        2
176
     1
 62
     8
420
  7895160
176
     1
 90
        3
176
     1
 90
        0
176
     1
 90
        0
176
     1
290
     0
176
     1
 90
        5
176
     1
 40
0.0
176
     1
 90
        0
176
     1
290
     0
176
     1
290
     1
176
     1
290
     1
176
     1
290
     0
176
     1
290
     0
176
     1
290
     0
176
     1
290
     0
176
     1
290
     0
176
     1
290
     0
176
     1
 90
       50
176
     1
 40
0.0
176
     1
 40
1.0
176
     1
 90
        0
176
     1
 62
    18
420
        0
176
     1
 90
       50
176
     1
 90
        3
176
     1
 62
     5
420
      255
176
     1
290
     0
176
     1
 90
       50
176
     1
 90
       50
176
     1
 90
       50
176
     1
290
     0
176
     1
 90
       50
176
     1
 62
   256
176
     0
 40
1.0
176
     0
 90
        2
176
     1
  1
strokes_ogs.tif
176
     1
290
     0
176
     1
 40
1.0
176
     1
 40
1.0
176
     1
  0
VISUALSTYLE
  5
19B
102
{ACAD_REACTORS
330
187
102
}
330
187
100
AcDbVisualStyle
  2
Shaded with edges
 70
    26
177
     3
291
     0
 70
    58
 90
        2
176
     1
 90
        2
176
     1
 90
        1
176
     1
 90
        2
176
     1
 40
0.6
176
     1
 40
30.0
176
     1
 62
     7
420
 16777215
176
     1
 90
        1
176
     1
 90
        2
176
     1
 62
     7
176
     1
 62
   257
176
     1
 90
        2
176
     1
 90
        1
176
     1
 40
1.0
176
     1
 90
        8
176
     1
 62
   257
176
     1
 40
1.0
176
     1
 90
        1
176
     1
 90
        6
176
     1
 90
        2
176
     1
 62
     7
176
     1
 90
        3
176
     1
 90
        0
176
     1
 90
        0
176
     1
290
     0
176
     1
 90
        5
176
     1
 40
0.0
176
     1
 90
        0
176
     1
290
     0
176
     1
290
     1
176
     1
290
     1
176
     1
290
     0
176
     1
290
     0
176
     1
290
     0
176
     1
290
     0
176
     1
290
     0
176
     1
290
     0
176
     1
 90
       50
176
     1
 40
0.0
176
     1
 40
1.0
176
     1
 90
        0
176
     1
 62
    18
420
        0
176
     1
 90
       50
176
     1
 90
        3
176
     1
 62
     5
420
      255
176
     1
290
     0
176
     1
 90
       50
176
     1
 90
       50
176
     1
 90
       50
176
     1
290
     0
176
     1
 90
       50
176
     1
 62
   256
176
     0
 40
1.0
176
     0
 90
        2
176
     1
  1
strokes_ogs.tif
176
     1
290
     0
176
     1
 40
1.0
176
     1
 40
1.0
176
     1
  0
VISUALSTYLE
  5
198
102
{ACAD_REACTORS
330
187
102
}
330
187
100
AcDbVisualStyle
  2
Shades of Gray
 70
    23
177
     3
291
     0
 70
    58
 90
        2
176
     1
 90
        2
176
     1
 90
        3
176
     1
 90
        0
176
     1
 40
0.6
176
     1
 40
30.0
176
     1
 62
     7
420
 16777215
176
     1
 90
        2
176
     1
 90
        2
176
     1
 62
     7
176
     1
 62
     7
176
     1
 90
        1
176
     1
 90
        1
176
     1
 40
40.0
176
     1
 90
        8
176
     1
 62
     7
176
     1
 40
1.0
176
     1
 90
        1
176
     1
 90
        6
176
     1
 90
        2
176
     1
 62
     7
176
     1
 90
        3
176
     1
 90
        0
176
     1
 90
        0
176
     1
290
     0
176
     1
 90
        1
176
     1
 40
0.0
176
     1
 90
        0
176
     1
290
     0
176
     1
290
     1
176
     1
290
     1
176
     1
290
     0
176
     1
290
     0
176
     1
290
     0
176
     1
290
     0
176
     1
290
     0
176
     1
290
     0
176
     1
 90
       50
176
     1
 40
0.0
176
     1
 40
1.0
176
     1
 90
        0
176
     1
 62
    18
420
        0
176
     1
 90
       50
176
     1
 90
        3
176
     1
 62
     5
420
      255
176
     1
290
     0
176
     1
 90
       50
176
     1
 90
       50
176
     1
 90
       50
176
     1
290
     0
176
     1
 90
       50
176
     1
 62
   256
176
     0
 40
1.0
176
     0
 90
        2
176
     1
  1
strokes_ogs.tif
176
     1
290
     0
176
     1
 40
1.0
176
     1
 40
1.0
176
     1
  0
VISUALSTYLE
  5
199
102
{ACAD_REACTORS
330
187
102
}
330
187
100
AcDbVisualStyle
  2
Sketchy
 70
    24
177
     3
291
     0
 70
    58
 90
        1
176
     1
 90
        2
176
     1
 90
        2
176
     1
 90
        0
176
     1
 40
0.6
176
     1
 40
30.0
176
     1
 62
     7
420
 16777215
176
     1
 90
        2
176
     1
 90
        2
176
     1
 62
     7
176
     1
 62
     7
176
     1
 90
        1
176
     1
 90
        1
176
     1
 40
40.0
176
     1
 90
       11
176
     1
 62
     7
176
     1
 40
1.0
176
     1
 90
        1
176
     1
 90
        6
176
     1
 90
        2
176
     1
 62
     7
176
     1
 90
        6
176
     1
 90
        0
176
     1
 90
        0
176
     1
290
     0
176
     1
 90
        1
176
     1
 40
0.0
176
     1
 90
        0
176
     1
290
     0
176
     1
290
     1
176
     1
290
     1
176
     1
290
     0
176
     1
290
     0
176
     1
290
     0
176
     1
290
     0
176
     1
290
     0
176
     1
290
     0
176
     1
 90
       50
176
     1
 40
0.0
176
     1
 40
1.0
176
     1
 90
        0
176
     1
 62
    18
420
        0
176
     1
 90
       50
176
     1
 90
        3
176
     1
 62
     5
420
      255
176
     1
290
     0
176
     1
 90
       50
176
     1
 90
       50
176
     1
 90
       50
176
     1
290
     0
176
     1
 90
       50
176
     1
 62
   256
176
     0
 40
1.0
176
     0
 90
        2
176
     1
  1
strokes_ogs.tif
176
     1
290
     0
176
     1
 40
1.0
176
     1
 40
1.0
176
     1
  0
VISUALSTYLE
  5
194
102
{ACAD_REACTORS
330
187
102
}
330
187
100
AcDbVisualStyle
  2
Thicken
 70
    13
177
     3
291
     1
 70
    58
 90
        2
176
     1
 90
        2
176
     1
 90
        0
176
     1
 90
        0
176
     1
 40
0.6
176
     1
 40
30.0
176
     1
 62
     7
420
 16777215
176
     1
 90
        1
176
     1
 90
        4
176
     1
 62
     7
176
     1
 62
   257
176
     1
 90
        1
176
     1
 90
        1
176
     1
 40
1.0
176
     1
 90
       12
176
     1
 62
     7
176
     1
 40
1.0
176
     1
 90
        1
176
     1
 90
        6
176
     1
 90
        2
176
     1
 62
     7
176
     1
 90
        5
176
     1
 90
        0
176
     1
 90
        0
176
     1
290
     0
176
     1
 90
        1
176
     1
 40
0.0
176
     1
 90
        0
176
     1
290
     0
176
     1
290
     1
176
     1
290
     1
176
     1
290
     0
176
     1
290
     0
176
     1
290
     0
176
     1
290
     0
176
     1
290
     0
176
     1
290
     0
176
     1
 90
       50
176
     1
 40
0.0
176
     1
 40
1.0
176
     1
 90
        0
176
     1
 62
    18
420
        0
176
     1
 90
       50
176
     1
 90
        3
176
     1
 62
     5
420
      255
176
     1
290
     0
176
     1
 90
       50
176
     1
 90
       50
176
     1
 90
       50
176
     1
290
     0
176
     1
 90
       50
176
     1
 62
   256
176
     0
 40
1.0
176
     0
 90
        2
176
     1
  1
strokes_ogs.tif
176
     1
290
     0
176
     1
 40
1.0
176
     1
 40
1.0
176
     1
  0
VISUALSTYLE
  5
18E
102
{ACAD_REACTORS
330
187
102
}
330
187
100
AcDbVisualStyle
  2
Wireframe
 70
     5
177
     3
291
     0
 70
    58
 90
        0
176
     1
 90
        2
176
     1
 90
        0
176
     1
 90
        0
176
     1
 40
0.6
176
     1
 40
30.0
176
     1
 62
     7
420
 16777215
176
     1
 90
        1
176
     1
 90
        4
176
     1
 62
     7
176
     1
 62
   257
176
     1
 90
        1
176
     1
 90
        1
176
     1
 40
1.0
176
     1
 90
        0
176
     1
 62
   257
176
     1
 40
1.0
176
     1
 90
        1
176
     1
 90
        6
176
     1
 90
        2
176
     1
 62
     7
176
     1
 90
        3
176
     1
 90
        0
176
     1
 90
        0
176
     1
290
     0
176
     1
 90
        1
176
     1
 40
0.0
176
     1
 90
        0
176
     1
290
     0
176
     1
290
     1
176
     1
290
     1
176
     1
290
     0
176
     1
290
     0
176
     1
290
     0
176
     1
290
     0
176
     1
290
     0
176
     1
290
     0
176
     1
 90
       50
176
     1
 40
0.0
176
     1
 40
1.0
176
     1
 90
        0
176
     1
 62
    18
420
        0
176
     1
 90
       50
176
     1
 90
        3
176
     1
 62
     5
420
      255
176
     1
290
     0
176
     1
 90
       50
176
     1
 90
       50
176
     1
 90
       50
176
     1
290
     0
176
     1
 90
       50
176
     1
 62
   256
176
     0
 40
1.0
176
     0
 90
        2
176
     1
  1
strokes_ogs.tif
176
     1
290
     0
176
     1
 40
1.0
176
     1
 40
1.0
176
     1
  0
VISUALSTYLE
  5
19A
102
{ACAD_REACTORS
330
187
102
}
330
187
100
AcDbVisualStyle
  2
X-Ray
 70
    25
177
     3
291
     0
 70
    58
 90
        2
176
     1
 90
        2
176
     1
 90
        1
176
     1
 90
        1
176
     1
 40
0.5
176
     1
 40
30.0
176
     1
 62
     7
420
 16777215
176
     1
 90
        1
176
     1
 90
        0
176
     1
 62
     7
176
     1
 62
   257
176
     1
 90
        1
176
     1
 90
        1
176
     1
 40
1.0
176
     1
 90
        8
176
     1
 62
     7
176
     1
 40
1.0
176
     1
 90
        1
176
     1
 90
        6
176
     1
 90
        2
176
     1
 62
     7
176
     1
 90
        3
176
     1
 90
        0
176
     1
 90
        0
176
     1
290
     0
176
     1
 90
       13
176
     1
 40
0.0
176
     1
 90
        0
176
     1
290
     0
176
     1
290
     1
176
     1
290
     1
176
     1
290
     0
176
     1
290
     0
176
     1
290
     0
176
     1
290
     0
176
     1
290
     0
176
     1
290
     0
176
     1
 90
       50
176
     1
 40
0.0
176
     1
 40
1.0
176
     1
 90
        0
176
     1
 62
    18
420
        0
176
     1
 90
       50
176
     1
 90
        3
176
     1
 62
     5
420
      255
176
     1
290
     0
176
     1
 90
       50
176
     1
 90
       50
176
     1
 90
       50
176
     1
290
     0
176
     1
 90
       50
176
     1
 62
   256
176
     0
 40
1.0
176
     0
 90
        2
176
     1
  1
strokes_ogs.tif
176
     1
290
     0
176
     1
 40
1.0
176
     1
 40
1.0
176
     1
  0
DICTIONARYVAR
  5
2EC
102
{ACAD_REACTORS
330
2E6
102
}
330
2E6
100
DictionaryVariables
280
     0
  1
1:1
  0
DICTIONARYVAR
  5
2E8
102
{ACAD_REACTORS
330
2E6
102
}
330
2E6
100
DictionaryVariables
280
     0
  1
STANDARD
  0
DICTIONARYVAR
  5
2E7
102
{ACAD_REACTORS
330
2E6
102
}
330
2E6
100
DictionaryVariables
280
     0
  1
STANDARD
  0
DICTIONARYVAR
  5
2E9
102
{ACAD_REACTORS
330
2E6
102
}
330
2E6
100
DictionaryVariables
280
     0
  1
Metric50
  0
DICTIONARYVAR
  5
2EA
102
{ACAD_REACTORS
330
2E6
102
}
330
2E6
100
DictionaryVariables
280
     0
  1
Metric50
  0
DICTIONARYVAR
  5
2EE
102
{ACAD_REACTORS
330
2E6
102
}
330
2E6
100
DictionaryVariables
280
     0
  1
1
  0
DICTIONARYVAR
  5
2EF
102
{ACAD_REACTORS
330
2E6
102
}
330
2E6
100
DictionaryVariables
280
     0
  1
15
  0
DICTIONARYVAR
  5
2ED
102
{ACAD_REACTORS
330
2E6
102
}
330
2E6
100
DictionaryVariables
280
     0
  1
0
  0
DICTIONARYVAR
  5
2EB
102
{ACAD_REACTORS
330
2E6
102
}
330
2E6
100
DictionaryVariables
280
     0
  1
0
  0
DICTIONARY
  5
256
102
{ACAD_REACTORS
330
255
102
}
330
255
100
AcDbDictionary
281
     1
  3
*A1
350
257
  0
DICTIONARY
  5
21E
102
{ACAD_REACTORS
330
21D
102
}
330
21D
100
AcDbDictionary
281
     1
  3
*A1
350
21F
  0
DICTIONARY
  5
272
102
{ACAD_REACTORS
330
271
102
}
330
271
100
AcDbDictionary
281
     1
  3
*A1
350
273
  0
DICTIONARY
  5
280
102
{ACAD_REACTORS
330
27F
102
}
330
27F
100
AcDbDictionary
281
     1
  3
*A1
350
281
  0
DICTIONARY
  5
264
102
{ACAD_REACTORS
330
263
102
}
330
263
100
AcDbDictionary
281
     1
  3
*A1
350
265
  0
DICTIONARY
  5
2AA
102
{ACAD_REACTORS
330
2A9
102
}
330
2A9
100
AcDbDictionary
281
     1
  3
*A1
350
2AB
  0
DICTIONARY
  5
28E
102
{ACAD_REACTORS
330
28D
102
}
330
28D
100
AcDbDictionary
281
     1
  3
*A1
350
28F
  0
DICTIONARY
  5
248
102
{ACAD_REACTORS
330
247
102
}
330
247
100
AcDbDictionary
281
     1
  3
*A1
350
249
  0
DICTIONARY
  5
23A
102
{ACAD_REACTORS
330
239
102
}
330
239
100
AcDbDictionary
281
     1
  3
*A1
350
23B
  0
DICTIONARY
  5
22C
102
{ACAD_REACTORS
330
22B
102
}
330
22B
100
AcDbDictionary
281
     1
  3
*A1
350
22D
  0
DICTIONARY
  5
29C
102
{ACAD_REACTORS
330
29B
102
}
330
29B
100
AcDbDictionary
281
     1
  3
*A1
350
29D
  0
DICTIONARY
  5
178
330
177
100
AcDbDictionary
280
     1
281
     1
  3
BUMPTILE
360
17A
  3
DIFFUSETILE
360
179
  3
OPACITYTILE
360
17D
  3
REFLECTIONTILE
360
17C
  3
REFRACTIONTILE
360
17E
  3
SPECULARTILE
360
17B
  0
DICTIONARY
  5
170
330
16F
100
AcDbDictionary
280
     1
281
     1
  3
BUMPTILE
360
172
  3
DIFFUSETILE
360
171
  3
OPACITYTILE
360
175
  3
REFLECTIONTILE
360
174
  3
REFRACTIONTILE
360
176
  3
SPECULARTILE
360
173
  0
DICTIONARY
  5
180
330
17F
100
AcDbDictionary
280
     1
281
     1
  3
BUMPTILE
360
182
  3
DIFFUSETILE
360
181
  3
OPACITYTILE
360
185
  3
REFLECTIONTILE
360
184
  3
REFRACTIONTILE
360
186
  3
SPECULARTILE
360
183
  0
DICTIONARY
  5
2F0
330
1A2
100
AcDbDictionary
280
     1
281
     1
  3
ACAD_ROUNDTRIP_2008_TABLESTYLE_CELLSTYLEMAP
360
2F1
  0
ACDB_ALDIMOBJECTCONTEXTDATA_CLASS
  5
257
102
{ACAD_REACTORS
330
256
102
}
330
256
100
AcDbObjectContextData
 70
     4
290
     1
100
AcDbAnnotScaleObjectContextData
340
48
100
AcDbDimensionObjectContextData
  2
*D20
293
     0
 10
278.1226198966
 20
4.475949898199999
294
     0
140
0.0
298
     0
291
     0
 70
     0
292
     0
 71
     0
280
     0
295
     0
296
     0
297
     0
100
AcDbAlignedDimensionObjectContextData
 11
278.1226198966
 21
-42.56949153310002
 31
0.0
  0
ACDB_ALDIMOBJECTCONTEXTDATA_CLASS
  5
21F
102
{ACAD_REACTORS
330
21E
102
}
330
21E
100
AcDbObjectContextData
 70
     4
290
     1
100
AcDbAnnotScaleObjectContextData
340
48
100
AcDbDimensionObjectContextData
  2
*D16
293
     0
 10
344.2262792671
 20
213.0642580477
294
     0
140
0.0
298
     0
291
     0
 70
     0
292
     0
 71
     0
280
     0
295
     0
296
     0
297
     0
100
AcDbAlignedDimensionObjectContextData
 11
355.3262792671
 21
213.0642580477
 31
0.0
  0
ACDB_ALDIMOBJECTCONTEXTDATA_CLASS
  5
273
102
{ACAD_REACTORS
330
272
102
}
330
272
100
AcDbObjectContextData
 70
     4
290
     1
100
AcDbAnnotScaleObjectContextData
340
48
100
AcDbDimensionObjectContextData
  2
*D22
293
     0
 10
114.5479385377
 20
-67.909100942
294
     0
140
0.0
298
     0
291
     0
 70
     0
292
     0
 71
     0
280
     0
295
     0
296
     0
297
     0
100
AcDbAlignedDimensionObjectContextData
 11
46.6102309835
 21
-67.909100942
 31
0.0
  0
ACDB_ALDIMOBJECTCONTEXTDATA_CLASS
  5
281
102
{ACAD_REACTORS
330
280
102
}
330
280
100
AcDbObjectContextData
 70
     4
290
     1
100
AcDbAnnotScaleObjectContextData
340
48
100
AcDbDimensionObjectContextData
  2
*D23
293
     0
 10
-8.7256514203
 20
72.61630915229999
294
     0
140
0.0
298
     0
291
     0
 70
     0
292
     0
 71
     0
280
     0
295
     0
296
     0
297
     0
100
AcDbAlignedDimensionObjectContextData
 11
-8.725651420299998
 21
-42.56949153310002
 31
0.0
  0
ACDB_ALDIMOBJECTCONTEXTDATA_CLASS
  5
265
102
{ACAD_REACTORS
330
264
102
}
330
264
100
AcDbObjectContextData
 70
     4
290
     1
100
AcDbAnnotScaleObjectContextData
340
48
100
AcDbDimensionObjectContextData
  2
*D21
293
     0
 10
229.1341424212
 20
23.6887909622
294
     0
140
0.0
298
     0
291
     0
 70
     0
292
     0
 71
     0
280
     0
295
     0
296
     0
297
     0
100
AcDbAlignedDimensionObjectContextData
 11
229.1341424212
 21
107.4337580477001
 31
0.0
  0
ACDB_ALDIMOBJECTCONTEXTDATA_CLASS
  5
2AB
102
{ACAD_REACTORS
330
2AA
102
}
330
2AA
100
AcDbObjectContextData
 70
     4
290
     1
100
AcDbAnnotScaleObjectContextData
340
48
100
AcDbDimensionObjectContextData
  2
*D26
293
     0
 10
-15.3063930895
 20
333.8583570124
294
     0
140
0.0
298
     0
291
     0
 70
     0
292
     0
 71
     0
280
     0
295
     0
296
     0
297
     0
100
AcDbAlignedDimensionObjectContextData
 11
-15.30639308950008
 21
272.5146607933002
 31
0.0
  0
ACDB_ALDIMOBJECTCONTEXTDATA_CLASS
  5
28F
102
{ACAD_REACTORS
330
28E
102
}
330
28E
100
AcDbObjectContextData
 70
     4
290
     1
100
AcDbAnnotScaleObjectContextData
340
48
100
AcDbDimensionObjectContextData
  2
*D24
293
     0
 10
46.4476942209
 20
417.5893953963999
294
     0
140
0.0
298
     0
291
     0
 70
     0
292
     0
 71
     0
280
     0
295
     0
296
     0
297
     0
100
AcDbAlignedDimensionObjectContextData
 11
69.09526126
 21
417.5893953963999
 31
0.0
  0
ACDB_ALDIMOBJECTCONTEXTDATA_CLASS
  5
249
102
{ACAD_REACTORS
330
248
102
}
330
248
100
AcDbObjectContextData
 70
     4
290
     1
100
AcDbAnnotScaleObjectContextData
340
48
100
AcDbDimensionObjectContextData
  2
*D19
293
     0
 10
344.2262792670816
 20
-63.2594662722031
294
     1
140
0.0
298
     0
291
     0
 70
     0
292
     0
 71
     0
280
     0
295
     0
296
     0
297
     0
100
AcDbAlignedDimensionObjectContextData
 11
371.2262792671
 21
-55.2594662722031
 31
0.0
  0
ACDB_ALDIMOBJECTCONTEXTDATA_CLASS
  5
23B
102
{ACAD_REACTORS
330
23A
102
}
330
23A
100
AcDbObjectContextData
 70
     4
290
     1
100
AcDbAnnotScaleObjectContextData
340
48
100
AcDbDimensionObjectContextData
  2
*D18
293
     0
 10
443.3115362098483
 20
-8.752866742716573
294
     1
140
0.0
298
     0
291
     0
 70
     0
292
     0
 71
     0
280
     0
295
     0
296
     0
297
     0
100
AcDbAlignedDimensionObjectContextData
 11
432.6448695431817
 21
25.06375804770004
 31
0.0
  0
ACDB_ALDIMOBJECTCONTEXTDATA_CLASS
  5
22D
102
{ACAD_REACTORS
330
22C
102
}
330
22C
100
AcDbObjectContextData
 70
     4
290
     1
100
AcDbAnnotScaleObjectContextData
340
48
100
AcDbDimensionObjectContextData
  2
*D17
293
     0
 10
462.6519363945477
 20
44.98952619737487
294
     1
140
0.0
298
     0
291
     0
 70
     0
292
     0
 71
     0
280
     0
295
     0
296
     0
297
     0
100
AcDbAlignedDimensionObjectContextData
 11
451.9852697278811
 21
87.47854707335005
 31
0.0
  0
ACDB_ALDIMOBJECTCONTEXTDATA_CLASS
  5
29D
102
{ACAD_REACTORS
330
29C
102
}
330
29C
100
AcDbObjectContextData
 70
     4
290
     1
100
AcDbAnnotScaleObjectContextData
340
48
100
AcDbDimensionObjectContextData
  2
*D25
293
     0
 10
-2.023545489515372
 20
354.9531524406485
294
     1
140
0.0
298
     0
291
     0
 70
     0
292
     0
 71
     0
280
     0
295
     0
296
     0
297
     0
100
AcDbAlignedDimensionObjectContextData
 11
8.636126798660548
 21
392.5056774344791
 31
0.0
  0
XRECORD
  5
17A
102
{ACAD_REACTORS
330
178
102
}
330
178
100
AcDbXrecord
280
     1
270
     1
271
     1
  0
XRECORD
  5
179
102
{ACAD_REACTORS
330
178
102
}
330
178
100
AcDbXrecord
280
     1
270
     1
271
     1
  0
XRECORD
  5
17D
102
{ACAD_REACTORS
330
178
102
}
330
178
100
AcDbXrecord
280
     1
270
     1
271
     1
  0
XRECORD
  5
17C
102
{ACAD_REACTORS
330
178
102
}
330
178
100
AcDbXrecord
280
     1
270
     1
271
     1
  0
XRECORD
  5
17E
102
{ACAD_REACTORS
330
178
102
}
330
178
100
AcDbXrecord
280
     1
270
     1
271
     1
  0
XRECORD
  5
17B
102
{ACAD_REACTORS
330
178
102
}
330
178
100
AcDbXrecord
280
     1
270
     1
271
     1
  0
XRECORD
  5
172
102
{ACAD_REACTORS
330
170
102
}
330
170
100
AcDbXrecord
280
     1
270
     1
271
     1
  0
XRECORD
  5
171
102
{ACAD_REACTORS
330
170
102
}
330
170
100
AcDbXrecord
280
     1
270
     1
271
     1
  0
XRECORD
  5
175
102
{ACAD_REACTORS
330
170
102
}
330
170
100
AcDbXrecord
280
     1
270
     1
271
     1
  0
XRECORD
  5
174
102
{ACAD_REACTORS
330
170
102
}
330
170
100
AcDbXrecord
280
     1
270
     1
271
     1
  0
XRECORD
  5
176
102
{ACAD_REACTORS
330
170
102
}
330
170
100
AcDbXrecord
280
     1
270
     1
271
     1
  0
XRECORD
  5
173
102
{ACAD_REACTORS
330
170
102
}
330
170
100
AcDbXrecord
280
     1
270
     1
271
     1
  0
XRECORD
  5
182
102
{ACAD_REACTORS
330
180
102
}
330
180
100
AcDbXrecord
280
     1
270
     1
271
     1
  0
XRECORD
  5
181
102
{ACAD_REACTORS
330
180
102
}
330
180
100
AcDbXrecord
280
     1
270
     1
271
     1
  0
XRECORD
  5
185
102
{ACAD_REACTORS
330
180
102
}
330
180
100
AcDbXrecord
280
     1
270
     1
271
     1
  0
XRECORD
  5
184
102
{ACAD_REACTORS
330
180
102
}
330
180
100
AcDbXrecord
280
     1
270
     1
271
     1
  0
XRECORD
  5
186
102
{ACAD_REACTORS
330
180
102
}
330
180
100
AcDbXrecord
280
     1
270
     1
271
     1
  0
XRECORD
  5
183
102
{ACAD_REACTORS
330
180
102
}
330
180
100
AcDbXrecord
280
     1
270
     1
271
     1
  0
CELLSTYLEMAP
  5
2F1
102
{ACAD_REACTORS
330
2F0
102
}
330
2F0
100
AcDbCellStyleMap
 90
        3
300
CELLSTYLE
  1
TABLEFORMAT_BEGIN
 90
        5
170
     1
 91
        0
 92
    32768
 62
   257
 93
        1
300
CONTENTFORMAT
  1
CONTENTFORMAT_BEGIN
 90
        0
 91
        0
 92
      512
 93
        0
300

 40
0.0
140
1.0
 94
        5
 62
     0
340
11
144
6.0
309
CONTENTFORMAT_END
171
     1
301
MARGIN
  1
CELLMARGIN_BEGIN
 40
1.5
 40
1.5
 40
1.5
 40
1.5
 40
4.5
 40
4.5
309
CELLMARGIN_END
 94
        6
 95
        1
302
GRIDFORMAT
  1
GRIDFORMAT_BEGIN
 90
        0
 91
        1
 62
     0
 92
       -2
340
0
 93
        0
 40
1.125
309
GRIDFORMAT_END
 95
        2
302
GRIDFORMAT
  1
GRIDFORMAT_BEGIN
 90
        0
 91
        1
 62
     0
 92
       -2
340
0
 93
        0
 40
1.125
309
GRIDFORMAT_END
 95
        4
302
GRIDFORMAT
  1
GRIDFORMAT_BEGIN
 90
        0
 91
        1
 62
     0
 92
       -2
340
0
 93
        0
 40
1.125
309
GRIDFORMAT_END
 95
        8
302
GRIDFORMAT
  1
GRIDFORMAT_BEGIN
 90
        0
 91
        1
 62
     0
 92
       -2
340
0
 93
        0
 40
1.125
309
GRIDFORMAT_END
 95
       16
302
GRIDFORMAT
  1
GRIDFORMAT_BEGIN
 90
        0
 91
        1
 62
     0
 92
       -2
340
0
 93
        0
 40
1.125
309
GRIDFORMAT_END
 95
       32
302
GRIDFORMAT
  1
GRIDFORMAT_BEGIN
 90
        0
 91
        1
 62
     0
 92
       -2
340
0
 93
        0
 40
1.125
309
GRIDFORMAT_END
309
TABLEFORMAT_END
  1
CELLSTYLE_BEGIN
 90
        1
 91
        1
300
_TITLE
309
CELLSTYLE_END
300
CELLSTYLE
  1
TABLEFORMAT_BEGIN
 90
        5
170
     1
 91
        0
 92
        0
 62
   257
 93
        1
300
CONTENTFORMAT
  1
CONTENTFORMAT_BEGIN
 90
        0
 91
        0
 92
      512
 93
        0
300

 40
0.0
140
1.0
 94
        5
 62
     0
340
11
144
4.5
309
CONTENTFORMAT_END
171
     1
301
MARGIN
  1
CELLMARGIN_BEGIN
 40
1.5
 40
1.5
 40
1.5
 40
1.5
 40
4.5
 40
4.5
309
CELLMARGIN_END
 94
        6
 95
        1
302
GRIDFORMAT
  1
GRIDFORMAT_BEGIN
 90
        0
 91
        1
 62
     0
 92
       -2
340
0
 93
        0
 40
1.125
309
GRIDFORMAT_END
 95
        2
302
GRIDFORMAT
  1
GRIDFORMAT_BEGIN
 90
        0
 91
        1
 62
     0
 92
       -2
340
0
 93
        0
 40
1.125
309
GRIDFORMAT_END
 95
        4
302
GRIDFORMAT
  1
GRIDFORMAT_BEGIN
 90
        0
 91
        1
 62
     0
 92
       -2
340
0
 93
        0
 40
1.125
309
GRIDFORMAT_END
 95
        8
302
GRIDFORMAT
  1
GRIDFORMAT_BEGIN
 90
        0
 91
        1
 62
     0
 92
       -2
340
0
 93
        0
 40
1.125
309
GRIDFORMAT_END
 95
       16
302
GRIDFORMAT
  1
GRIDFORMAT_BEGIN
 90
        0
 91
        1
 62
     0
 92
       -2
340
0
 93
        0
 40
1.125
309
GRIDFORMAT_END
 95
       32
302
GRIDFORMAT
  1
GRIDFORMAT_BEGIN
 90
        0
 91
        1
 62
     0
 92
       -2
340
0
 93
        0
 40
1.125
309
GRIDFORMAT_END
309
TABLEFORMAT_END
  1
CELLSTYLE_BEGIN
 90
        2
 91
        1
300
_HEADER
309
CELLSTYLE_END
300
CELLSTYLE
  1
TABLEFORMAT_BEGIN
 90
        5
170
     1
 91
        0
 92
        0
 62
   257
 93
        1
300
CONTENTFORMAT
  1
CONTENTFORMAT_BEGIN
 90
        0
 91
        0
 92
      512
 93
        0
300

 40
0.0
140
1.0
 94
        2
 62
     0
340
11
144
4.5
309
CONTENTFORMAT_END
171
     1
301
MARGIN
  1
CELLMARGIN_BEGIN
 40
1.5
 40
1.5
 40
1.5
 40
1.5
 40
4.5
 40
4.5
309
CELLMARGIN_END
 94
        6
 95
        1
302
GRIDFORMAT
  1
GRIDFORMAT_BEGIN
 90
        0
 91
        1
 62
     0
 92
       -2
340
0
 93
        0
 40
1.125
309
GRIDFORMAT_END
 95
        2
302
GRIDFORMAT
  1
GRIDFORMAT_BEGIN
 90
        0
 91
        1
 62
     0
 92
       -2
340
0
 93
        0
 40
1.125
309
GRIDFORMAT_END
 95
        4
302
GRIDFORMAT
  1
GRIDFORMAT_BEGIN
 90
        0
 91
        1
 62
     0
 92
       -2
340
0
 93
        0
 40
1.125
309
GRIDFORMAT_END
 95
        8
302
GRIDFORMAT
  1
GRIDFORMAT_BEGIN
 90
        0
 91
        1
 62
     0
 92
       -2
340
0
 93
        0
 40
1.125
309
GRIDFORMAT_END
 95
       16
302
GRIDFORMAT
  1
GRIDFORMAT_BEGIN
 90
        0
 91
        1
 62
     0
 92
       -2
340
0
 93
        0
 40
1.125
309
GRIDFORMAT_END
 95
       32
302
GRIDFORMAT
  1
GRIDFORMAT_BEGIN
 90
        0
 91
        1
 62
     0
 92
       -2
340
0
 93
        0
 40
1.125
309
GRIDFORMAT_END
309
TABLEFORMAT_END
  1
CELLSTYLE_BEGIN
 90
        3
 91
        2
300
_DATA
309
CELLSTYLE_END
  0
ENDSEC
  0
EOF
