  0
SECTION
  2
HEADER
  9
$ACADVER
  1
AC1027
  9
$ACADMAINTVER
 70
   125
  9
$DWGCODEPAGE
  3
ANSI_1252
  9
$LASTSAVEDBY
  1
fleminab
  9
$REQUIREDVERSIONS
160
                 0
  9
$INSBASE
 10
0.0
 20
0.0
 30
0.0
  9
$EXTMIN
 10
-778.0633104858253
 20
-2600.366125842166
 30
-0.0015258207003583
  9
$EXTMAX
 10
-488.7656917495799
 20
-2435.072766067348
 30
0.0000000349246037
  9
$LIMMIN
 10
0.0
 20
0.0
  9
$LIMMAX
 10
0.0
 20
0.0
  9
$ORTHOMODE
 70
     0
  9
$REGENMODE
 70
     1
  9
$FILLMODE
 70
     1
  9
$QTEXTMODE
 70
     0
  9
$MIRRTEXT
 70
     1
  9
$LTSCALE
 40
0.5
  9
$ATTMODE
 70
     1
  9
$TEXTSIZE
 40
2.5
  9
$TRACEWID
 40
1.0
  9
$TEXTSTYLE
  7
Standard
  9
$CLAYER
  8
0
  9
$CELTYPE
  6
ByLayer
  9
$CECOLOR
 62
   256
  9
$CELTSCALE
 40
0.5
  9
$DISPSILH
 70
     0
  9
$DIMSCALE
 40
1.0
  9
$DIMASZ
 40
2.5
  9
$DIMEXO
 40
1.0
  9
$DIMDLI
 40
3.75
  9
$DIMRND
 40
0.0
  9
$DIMDLE
 40
0.0
  9
$DIMEXE
 40
1.0
  9
$DIMTP
 40
0.0
  9
$DIMTM
 40
0.0
  9
$DIMTXT
 40
2.5
  9
$DIMCEN
 40
2.5
  9
$DIMTSZ
 40
0.0
  9
$DIMTOL
 70
     0
  9
$DIMLIM
 70
     0
  9
$DIMTIH
 70
     0
  9
$DIMTOH
 70
     0
  9
$DIMSE1
 70
     0
  9
$DIMSE2
 70
     0
  9
$DIMTAD
 70
     1
  9
$DIMZIN
 70
     8
  9
$DIMBLK
  1
Open30
  9
$DIMASO
 70
     1
  9
$DIMSHO
 70
     1
  9
$DIMPOST
  1

  9
$DIMAPOST
  1

  9
$DIMALT
 70
     0
  9
$DIMALTD
 70
     3
  9
$DIMALTF
 40
0.0393700787401575
  9
$DIMLFAC
 40
1.0
  9
$DIMTOFL
 70
     1
  9
$DIMTVP
 40
0.0
  9
$DIMTIX
 70
     0
  9
$DIMSOXD
 70
     0
  9
$DIMSAH
 70
     0
  9
$DIMBLK1
  1

  9
$DIMBLK2
  1

  9
$DIMSTYLE
  2
ISO-25
  9
$DIMCLRD
 70
     0
  9
$DIMCLRE
 70
     0
  9
$DIMCLRT
 70
     0
  9
$DIMTFAC
 40
1.0
  9
$DIMGAP
 40
0.526
  9
$DIMJUST
 70
     0
  9
$DIMSD1
 70
     0
  9
$DIMSD2
 70
     0
  9
$DIMTOLJ
 70
     0
  9
$DIMTZIN
 70
     0
  9
$DIMALTZ
 70
     0
  9
$DIMALTTZ
 70
     0
  9
$DIMUPT
 70
     0
  9
$DIMDEC
 70
     1
  9
$DIMTDEC
 70
     1
  9
$DIMALTU
 70
     2
  9
$DIMALTTD
 70
     3
  9
$DIMTXSTY
  7
Standard
  9
$DIMAUNIT
 70
     0
  9
$DIMADEC
 70
     0
  9
$DIMALTRND
 40
0.0
  9
$DIMAZIN
 70
     0
  9
$DIMDSEP
 70
    46
  9
$DIMATFIT
 70
     3
  9
$DIMFRAC
 70
     0
  9
$DIMLDRBLK
  1

  9
$DIMLUNIT
 70
     2
  9
$DIMLWD
 70
    -2
  9
$DIMLWE
 70
    -2
  9
$DIMTMOVE
 70
     0
  9
$DIMFXL
 40
1.0
  9
$DIMFXLON
 70
     0
  9
$DIMJOGANG
 40
0.7853981633974483
  9
$DIMTFILL
 70
     0
  9
$DIMTFILLCLR
 70
     0
  9
$DIMARCSYM
 70
     0
  9
$DIMLTYPE
  6

  9
$DIMLTEX1
  6

  9
$DIMLTEX2
  6

  9
$DIMTXTDIRECTION
 70
     0
  9
$LUNITS
 70
     2
  9
$LUPREC
 70
     4
  9
$SKETCHINC
 40
1.0
  9
$FILLETRAD
 40
1.5
  9
$AUNITS
 70
     0
  9
$AUPREC
 70
     0
  9
$MENU
  1
.
  9
$ELEVATION
 40
0.0
  9
$PELEVATION
 40
0.0
  9
$THICKNESS
 40
0.0
  9
$LIMCHECK
 70
     0
  9
$CHAMFERA
 40
0.5
  9
$CHAMFERB
 40
0.5
  9
$CHAMFERC
 40
20.0
  9
$CHAMFERD
 40
0.0
  9
$SKPOLY
 70
     0
  9
$TDCREATE
 40
2454454.816539352
  9
$TDUCREATE
 40
2454454.358216864
  9
$TDUPDATE
 40
2458219.411516203
  9
$TDUUPDATE
 40
2458218.994849537
  9
$TDINDWG
 40
6.7195261574
  9
$TDUSRTIMER
 40
6.7195261574
  9
$USRTIMER
 70
     1
  9
$ANGBASE
 50
0.0
  9
$ANGDIR
 70
     0
  9
$PDMODE
 70
     0
  9
$PDSIZE
 40
-1.0
  9
$PLINEWID
 40
0.0
  9
$SPLFRAME
 70
     0
  9
$SPLINETYPE
 70
     6
  9
$SPLINESEGS
 70
     8
  9
$HANDSEED
  5
101A2E0
  9
$SURFTAB1
 70
     6
  9
$SURFTAB2
 70
     6
  9
$SURFTYPE
 70
     6
  9
$SURFU
 70
     6
  9
$SURFV
 70
     6
  9
$UCSBASE
  2

  9
$UCSNAME
  2

  9
$UCSORG
 10
0.0
 20
0.0
 30
0.0
  9
$UCSXDIR
 10
1.0
 20
0.0
 30
0.0
  9
$UCSYDIR
 10
0.0
 20
1.0
 30
0.0
  9
$UCSORTHOREF
  2

  9
$UCSORTHOVIEW
 70
     0
  9
$UCSORGTOP
 10
0.0
 20
0.0
 30
0.0
  9
$UCSORGBOTTOM
 10
0.0
 20
0.0
 30
0.0
  9
$UCSORGLEFT
 10
0.0
 20
0.0
 30
0.0
  9
$UCSORGRIGHT
 10
0.0
 20
0.0
 30
0.0
  9
$UCSORGFRONT
 10
0.0
 20
0.0
 30
0.0
  9
$UCSORGBACK
 10
0.0
 20
0.0
 30
0.0
  9
$PUCSBASE
  2

  9
$PUCSNAME
  2

  9
$PUCSORG
 10
0.0
 20
0.0
 30
0.0
  9
$PUCSXDIR
 10
1.0
 20
0.0
 30
0.0
  9
$PUCSYDIR
 10
0.0
 20
1.0
 30
0.0
  9
$PUCSORTHOREF
  2

  9
$PUCSORTHOVIEW
 70
     0
  9
$PUCSORGTOP
 10
0.0
 20
0.0
 30
0.0
  9
$PUCSORGBOTTOM
 10
0.0
 20
0.0
 30
0.0
  9
$PUCSORGLEFT
 10
0.0
 20
0.0
 30
0.0
  9
$PUCSORGRIGHT
 10
0.0
 20
0.0
 30
0.0
  9
$PUCSORGFRONT
 10
0.0
 20
0.0
 30
0.0
  9
$PUCSORGBACK
 10
0.0
 20
0.0
 30
0.0
  9
$USERI1
 70
     0
  9
$USERI2
 70
     0
  9
$USERI3
 70
     0
  9
$USERI4
 70
     0
  9
$USERI5
 70
     0
  9
$USERR1
 40
0.0
  9
$USERR2
 40
0.0
  9
$USERR3
 40
0.0
  9
$USERR4
 40
0.0
  9
$USERR5
 40
0.0
  9
$WORLDVIEW
 70
     1
  9
$SHADEDGE
 70
     3
  9
$SHADEDIF
 70
    70
  9
$TILEMODE
 70
     1
  9
$MAXACTVP
 70
    64
  9
$PINSBASE
 10
0.0
 20
0.0
 30
0.0
  9
$PLIMCHECK
 70
     0
  9
$PEXTMIN
 10
1.000000000000000E+20
 20
1.000000000000000E+20
 30
1.000000000000000E+20
  9
$PEXTMAX
 10
-1.000000000000000E+20
 20
-1.000000000000000E+20
 30
-1.000000000000000E+20
  9
$PLIMMIN
 10
0.0
 20
0.0
  9
$PLIMMAX
 10
420.0
 20
297.0
  9
$UNITMODE
 70
     0
  9
$VISRETAIN
 70
     1
  9
$PLINEGEN
 70
     0
  9
$PSLTSCALE
 70
     1
  9
$TREEDEPTH
 70
  3020
  9
$CMLSTYLE
  2
Standard
  9
$CMLJUST
 70
     0
  9
$CMLSCALE
 40
20.0
  9
$PROXYGRAPHICS
 70
     1
  9
$MEASUREMENT
 70
     1
  9
$CELWEIGHT
370
    -1
  9
$ENDCAPS
280
     0
  9
$JOINSTYLE
280
     0
  9
$LWDISPLAY
290
     0
  9
$INSUNITS
 70
     4
  9
$HYPERLINKBASE
  1

  9
$STYLESHEET
  1

  9
$XEDIT
290
     1
  9
$CEPSNTYPE
380
     0
  9
$PSTYLEMODE
290
     1
  9
$FINGERPRINTGUID
  2
{A12051D7-B147-4678-A729-AB49B70941BD}
  9
$VERSIONGUID
  2
{58CC22FD-9942-B946-A41D-9EE87411CA19}
  9
$EXTNAMES
290
     1
  9
$PSVPSCALE
 40
0.0
  9
$OLESTARTUP
290
     0
  9
$SORTENTS
280
   127
  9
$INDEXCTL
280
     0
  9
$HIDETEXT
280
     0
  9
$XCLIPFRAME
280
     2
  9
$HALOGAP
280
     0
  9
$OBSCOLOR
 70
   257
  9
$OBSLTYPE
280
     0
  9
$INTERSECTIONDISPLAY
280
     0
  9
$INTERSECTIONCOLOR
 70
   257
  9
$DIMASSOC
280
     1
  9
$PROJECTNAME
  1

  9
$CAMERADISPLAY
290
     0
  9
$LENSLENGTH
 40
50.0
  9
$CAMERAHEIGHT
 40
0.0
  9
$STEPSPERSEC
 40
2.0
  9
$STEPSIZE
 40
6.0
  9
$3DDWFPREC
 40
2.0
  9
$PSOLWIDTH
 40
0.25
  9
$PSOLHEIGHT
 40
4.0
  9
$LOFTANG1
 40
1.570796326794896
  9
$LOFTANG2
 40
1.570796326794896
  9
$LOFTMAG1
 40
0.0
  9
$LOFTMAG2
 40
0.0
  9
$LOFTPARAM
 70
     7
  9
$LOFTNORMALS
280
     1
  9
$LATITUDE
 40
37.795
  9
$LONGITUDE
 40
-122.394
  9
$NORTHDIRECTION
 40
0.0
  9
$TIMEZONE
 70
 -8000
  9
$LIGHTGLYPHDISPLAY
280
     1
  9
$TILEMODELIGHTSYNCH
280
     1
  9
$CMATERIAL
347
101A0BE
  9
$SOLIDHIST
280
     0
  9
$SHOWHIST
280
     1
  9
$DWFFRAME
280
     2
  9
$DGNFRAME
280
     0
  9
$REALWORLDSCALE
290
     1
  9
$INTERFERECOLOR
 62
     1
  9
$INTERFEREOBJVS
345
101A0E0
  9
$INTERFEREVPVS
346
101A0DD
  9
$CSHADOW
280
     0
  9
$SHADOWPLANELOCATION
 40
0.0
  0
ENDSEC
  0
SECTION
  2
CLASSES
  0
CLASS
  1
ACDBDICTIONARYWDFLT
  2
AcDbDictionaryWithDefault
  3
ObjectDBX Classes
 90
        0
 91
        1
280
     0
281
     0
  0
CLASS
  1
TABLESTYLE
  2
AcDbTableStyle
  3
ObjectDBX Classes
 90
     4095
 91
        1
280
     0
281
     0
  0
CLASS
  1
SORTENTSTABLE
  2
AcDbSortentsTable
  3
ObjectDBX Classes
 90
        0
 91
        1
280
     0
281
     0
  0
CLASS
  1
DICTIONARYVAR
  2
AcDbDictionaryVar
  3
ObjectDBX Classes
 90
        0
 91
       19
280
     0
281
     0
  0
CLASS
  1
DIMASSOC
  2
AcDbDimAssoc
  3
"AcDbDimAssoc|Product Desc:     AcDim ARX App For Dimension|Company:          Autodesk, Inc.|WEB Address:      www.autodesk.com"
 90
        0
 91
        0
280
     0
281
     0
  0
CLASS
  1
ARC_DIMENSION
  2
AcDbArcDimension
  3
ObjectDBX Classes
 90
     1025
 91
        0
280
     0
281
     1
  0
CLASS
  1
MATERIAL
  2
AcDbMaterial
  3
ObjectDBX Classes
 90
     1153
 91
        3
280
     0
281
     0
  0
CLASS
  1
VISUALSTYLE
  2
AcDbVisualStyle
  3
ObjectDBX Classes
 90
     4095
 91
       24
280
     0
281
     0
  0
CLASS
  1
SCALE
  2
AcDbScale
  3
ObjectDBX Classes
 90
     1153
 91
       17
280
     0
281
     0
  0
CLASS
  1
MLEADERSTYLE
  2
AcDbMLeaderStyle
  3
ACDB_MLEADERSTYLE_CLASS
 90
     4095
 91
        1
280
     0
281
     0
  0
CLASS
  1
ACDBSECTIONVIEWSTYLE
  2
AcDbSectionViewStyle
  3
ObjectDBX Classes
 90
     1025
 91
        1
280
     0
281
     0
  0
CLASS
  1
ACDBDETAILVIEWSTYLE
  2
AcDbDetailViewStyle
  3
ObjectDBX Classes
 90
     1025
 91
        1
280
     0
281
     0
  0
CLASS
  1
CELLSTYLEMAP
  2
AcDbCellStyleMap
  3
ObjectDBX Classes
 90
     1152
 91
        1
280
     0
281
     0
  0
ENDSEC
  0
SECTION
  2
TABLES
  0
TABLE
  2
VPORT
  5
8
330
0
100
AcDbSymbolTable
 70
     1
1001
ACAD
1000
DbSaveVer
1071
        5
  0
VPORT
  5
1A0B5
330
8
100
AcDbSymbolTableRecord
100
AcDbViewportTableRecord
  2
*Active
 70
     0
 10
0.0
 20
0.0
 11
1.0
 21
1.0
 12
-633.4145011177025
 22
-2517.719445954757
 13
0.0
 23
0.0
 14
10.0
 24
10.0
 15
10.0
 25
10.0
 16
0.0
 26
0.0
 36
1.0
 17
0.0
 27
0.0
 37
0.0
 40
166.47684445101
 41
2.292712066905615
 42
50.0
 43
0.0
 44
0.0
 50
0.0
 51
0.0
 71
     0
 72
  2000
 73
     1
 74
     3
 75
     0
 76
     0
 77
     0
 78
     0
281
     0
 65
     1
110
0.0
120
0.0
130
0.0
111
1.0
121
0.0
131
0.0
112
0.0
122
1.0
132
0.0
 79
     0
146
0.0
348
101A0DC
 60
     3
 61
     5
292
     1
282
     1
141
0.0
142
0.0
 63
   250
421
  3355443
1001
ACAD_NAV_VCDISPLAY
1070
     3
  0
ENDTAB
  0
TABLE
  2
LTYPE
  5
5
330
0
100
AcDbSymbolTable
 70
     4
  0
LTYPE
  5
14
330
5
100
AcDbSymbolTableRecord
100
AcDbLinetypeTableRecord
  2
ByBlock
 70
     0
  3

 72
    65
 73
     0
 40
0.0
  0
LTYPE
  5
15
330
5
100
AcDbSymbolTableRecord
100
AcDbLinetypeTableRecord
  2
ByLayer
 70
     0
  3

 72
    65
 73
     0
 40
0.0
  0
LTYPE
  5
16
330
5
100
AcDbSymbolTableRecord
100
AcDbLinetypeTableRecord
  2
Continuous
 70
     0
  3
Solid line
 72
    65
 73
     0
 40
0.0
  0
LTYPE
  5
40E
330
5
100
AcDbSymbolTableRecord
100
AcDbLinetypeTableRecord
  2
CENTER2
 70
     0
  3
Center (.5x) ___ _ ___ _ ___ _ ___ _ ___ _ ___
 72
    65
 73
     4
 40
28.575
 49
19.05
 74
     0
 49
-3.174999999999999
 74
     0
 49
3.174999999999999
 74
     0
 49
-3.174999999999999
 74
     0
  0
LTYPE
  5
281C
330
5
100
AcDbSymbolTableRecord
100
AcDbLinetypeTableRecord
  2
PHANTOM
 70
     0
  3
Phantom ______  __  __  ______  __  __  ______
 72
    65
 73
     6
 40
63.5
 49
31.75
 74
     0
 49
-6.349999999999999
 74
     0
 49
6.349999999999999
 74
     0
 49
-6.349999999999999
 74
     0
 49
6.349999999999999
 74
     0
 49
-6.349999999999999
 74
     0
  0
LTYPE
  5
2EF9
330
5
100
AcDbSymbolTableRecord
100
AcDbLinetypeTableRecord
  2
ACAD_ISO02W100
 70
     0
  3
ISO dash __ __ __ __ __ __ __ __ __ __ __ __ __
 72
    65
 73
     2
 40
15.0
 49
12.0
 74
     0
 49
-3.0
 74
     0
  0
ENDTAB
  0
TABLE
  2
LAYER
  5
2
102
{ACAD_XDICTIONARY
360
411
102
}
330
0
100
AcDbSymbolTable
 70
    10
  0
LAYER
  5
10
102
{ACAD_XDICTIONARY
360
101A2B1
102
}
330
2
100
AcDbSymbolTableRecord
100
AcDbLayerTableRecord
  2
0
 70
     0
 62
     7
  6
Continuous
370
    50
390
F
347
101A0CE
348
0
  0
LAYER
  5
20A
330
2
100
AcDbSymbolTableRecord
100
AcDbLayerTableRecord
  2
Defpoints
 70
     0
 62
     7
  6
Continuous
290
     0
370
    -3
390
F
347
101A0CE
348
0
  0
LAYER
  5
40A
102
{ACAD_XDICTIONARY
360
101A2B3
102
}
330
2
100
AcDbSymbolTableRecord
100
AcDbLayerTableRecord
  2
中心线
 70
     0
 62
     1
  6
CENTER2
370
    -3
390
F
347
101A0CE
348
0
1001
AcAecLayerStandard
1000

1000

1001
AcadStringInfo
1000
MIFCodePage
1070
     5
  0
LAYER
  5
40F
102
{ACAD_XDICTIONARY
360
101A2B5
102
}
330
2
100
AcDbSymbolTableRecord
100
AcDbLayerTableRecord
  2
尺寸线
 70
     0
 62
     5
  6
Continuous
370
    -3
390
F
347
101A0CE
348
0
1001
AcAecLayerStandard
1000

1000

1001
AcadStringInfo
1000
MIFCodePage
1070
     5
  0
LAYER
  5
410
102
{ACAD_XDICTIONARY
360
101A2B7
102
}
330
2
100
AcDbSymbolTableRecord
100
AcDbLayerTableRecord
  2
细实线
 70
     0
 62
     7
  6
Continuous
370
    -3
390
F
347
101A0CE
348
0
1001
AcAecLayerStandard
1000

1000

1001
AcadStringInfo
1000
MIFCodePage
1070
     5
  0
LAYER
  5
281D
102
{ACAD_XDICTIONARY
360
101A2B9
102
}
330
2
100
AcDbSymbolTableRecord
100
AcDbLayerTableRecord
  2
双点划线
 70
     0
 62
     7
  6
PHANTOM
370
    -3
390
F
347
101A0CE
348
0
1001
AcadStringInfo
1000
MIFCodePage
1070
     5
  0
LAYER
  5
4262
102
{ACAD_XDICTIONARY
360
101A2BB
102
}
330
2
100
AcDbSymbolTableRecord
100
AcDbLayerTableRecord
  2
虚线
 70
     0
 62
     7
  6
ACAD_ISO02W100
370
    -3
390
F
347
101A0CE
348
0
1001
AcAecLayerStandard
1000

1000

1001
AcadStringInfo
1000
MIFCodePage
1070
     5
  0
LAYER
  5
CAEE
102
{ACAD_XDICTIONARY
360
101A2BD
102
}
330
2
100
AcDbSymbolTableRecord
100
AcDbLayerTableRecord
  2
图层3
 70
     0
 62
     5
  6
Continuous
370
    15
390
F
347
101A0CE
348
0
1001
AcadStringInfo
1000
MIFCodePage
1070
     5
  0
LAYER
  5
CAF2
102
{ACAD_XDICTIONARY
360
101A2BF
102
}
330
2
100
AcDbSymbolTableRecord
100
AcDbLayerTableRecord
  2
图层7
 70
     0
 62
     7
  6
Continuous
370
    15
390
F
347
101A0CE
348
0
1001
AcadStringInfo
1000
MIFCodePage
1070
     5
  0
LAYER
  5
1A009
102
{ACAD_XDICTIONARY
360
101A2C1
102
}
330
2
100
AcDbSymbolTableRecord
100
AcDbLayerTableRecord
  2
02___PRT_ALL_AXES
 70
     0
 62
     7
  6
Continuous
370
    -3
390
F
347
101A0CE
348
0
  0
ENDTAB
  0
TABLE
  2
STYLE
  5
3
330
0
100
AcDbSymbolTable
 70
     3
  0
STYLE
  5
11
330
3
100
AcDbSymbolTableRecord
100
AcDbTextStyleTableRecord
  2
Standard
 70
     0
 40
0.0
 41
1.0
 50
0.0
 71
     0
 42
2.5
  3
txt
  4

  0
STYLE
  5
281F
330
3
100
AcDbSymbolTableRecord
100
AcDbTextStyleTableRecord
  2
样式 1
 70
     0
 40
2.5
 41
1.0
 50
0.0
 71
     0
 42
2.5
  3
SimSun.ttf
  4

1001
ACAD
1000
SimSun
1071
    34306
1001
AcadStringInfo
1000
MIFCodePage
1070
     5
  0
STYLE
  5
CAF4
330
3
100
AcDbSymbolTableRecord
100
AcDbTextStyleTableRecord
  2
样式 2
 70
     0
 40
3.2
 41
1.0
 50
0.0
 71
     0
 42
3.2
  3
SimSun.ttf
  4

1001
ACAD
1000
SimSun
1071
    34306
1001
AcadStringInfo
1000
MIFCodePage
1070
     5
  0
ENDTAB
  0
TABLE
  2
VIEW
  5
6
330
0
100
AcDbSymbolTable
 70
     0
  0
ENDTAB
  0
TABLE
  2
UCS
  5
7
330
0
100
AcDbSymbolTable
 70
     0
  0
ENDTAB
  0
TABLE
  2
APPID
  5
9
330
0
100
AcDbSymbolTable
 70
    15
  0
APPID
  5
12
330
9
100
AcDbSymbolTableRecord
100
AcDbRegAppTableRecord
  2
ACAD
 70
     0
  0
APPID
  5
26F
330
9
100
AcDbSymbolTableRecord
100
AcDbRegAppTableRecord
  2
ACAD_DSTYLE_DIMTEXT_FILL
 70
     0
  0
APPID
  5
270
330
9
100
AcDbSymbolTableRecord
100
AcDbRegAppTableRecord
  2
ACAD_DSTYLE_DIMEXT_LENGTH
 70
     0
  0
APPID
  5
271
330
9
100
AcDbSymbolTableRecord
100
AcDbRegAppTableRecord
  2
ACAD_DSTYLE_DIMEXT_ENABLED
 70
     0
  0
APPID
  5
272
330
9
100
AcDbSymbolTableRecord
100
AcDbRegAppTableRecord
  2
ACAD_DSTYLE_DIM_LINETYPE
 70
     0
  0
APPID
  5
273
330
9
100
AcDbSymbolTableRecord
100
AcDbRegAppTableRecord
  2
ACAD_DSTYLE_DIM_EXT1_LINETYPE
 70
     0
  0
APPID
  5
274
330
9
100
AcDbSymbolTableRecord
100
AcDbRegAppTableRecord
  2
ACAD_DSTYLE_DIM_EXT2_LINETYPE
 70
     0
  0
APPID
  5
330
330
9
100
AcDbSymbolTableRecord
100
AcDbRegAppTableRecord
  2
ACAD_DSTYLE_DIMJOGGED_JOGANGLE_SYMBOL
 70
     0
  0
APPID
  5
3C4
330
9
100
AcDbSymbolTableRecord
100
AcDbRegAppTableRecord
  2
ACAD_DSTYLE_DIMARC_LENGTH_SYMBOL
 70
     0
  0
APPID
  5
3FB
330
9
100
AcDbSymbolTableRecord
100
AcDbRegAppTableRecord
  2
ACAD_EXEMPT_FROM_CAD_STANDARDS
 70
     0
  0
APPID
  5
40B
330
9
100
AcDbSymbolTableRecord
100
AcDbRegAppTableRecord
  2
AcAecLayerStandard
 70
     0
  0
APPID
  5
5D3
330
9
100
AcDbSymbolTableRecord
100
AcDbRegAppTableRecord
  2
ACAD_PSEXT
 70
     0
  0
APPID
  5
AB62
330
9
100
AcDbSymbolTableRecord
100
AcDbRegAppTableRecord
  2
DCO15
 70
     0
  0
APPID
  5
101A104
330
9
100
AcDbSymbolTableRecord
100
AcDbRegAppTableRecord
  2
AcadStringInfo
 70
     0
  0
APPID
  5
101A2C3
330
9
100
AcDbSymbolTableRecord
100
AcDbRegAppTableRecord
  2
ACAD_NAV_VCDISPLAY
 70
     0
  0
ENDTAB
  0
TABLE
  2
DIMSTYLE
  5
A
330
0
100
AcDbSymbolTable
 70
     2
100
AcDbDimStyleTable
 71
     1
340
27
  0
DIMSTYLE
105
27
102
{ACAD_REACTORS
330
DEC0
330
DEDA
330
DEE6
330
DEF3
330
DF09
330
DF13
330
DF1D
330
DF40
330
DF4D
330
DF57
330
DF61
330
DF7B
330
DF8A
330
DF9B
330
DFC0
330
14377
330
19F24
102
}
330
A
100
AcDbSymbolTableRecord
100
AcDbDimStyleTableRecord
  2
ISO-25
 70
     0
 41
2.5
 42
0.625
 43
3.75
 44
1.25
 73
     0
 74
     0
 77
     1
 78
     8
140
2.5
141
2.5
143
0.03937007874016
147
0.625
171
     3
172
     1
271
     2
272
     2
274
     3
278
    44
283
     0
284
     8
340
11
  0
DIMSTYLE
105
AB60
330
A
100
AcDbSymbolTableRecord
100
AcDbDimStyleTableRecord
  2
STANDARD
 70
     0
 41
0.1875
 47
0.01
 48
0.01
 78
     4
140
0.15625
271
     2
272
     2
284
     4
340
11
  0
ENDTAB
  0
TABLE
  2
BLOCK_RECORD
  5
1
330
0
100
AcDbSymbolTable
 70
    20
  0
BLOCK_RECORD
  5
1F
102
{ACAD_XDICTIONARY
360
206
102
}
330
1
100
AcDbSymbolTableRecord
100
AcDbBlockTableRecord
  2
*Model_Space
340
22
 70
     0
280
     1
281
     0
  0
BLOCK_RECORD
  5
1B
330
1
100
AcDbSymbolTableRecord
100
AcDbBlockTableRecord
  2
*Paper_Space
340
1E
 70
     0
280
     1
281
     0
  0
BLOCK_RECORD
  5
23
330
1
100
AcDbSymbolTableRecord
100
AcDbBlockTableRecord
  2
*Paper_Space0
340
26
 70
     0
280
     1
281
     0
  0
BLOCK_RECORD
  5
111D
330
1
100
AcDbSymbolTableRecord
100
AcDbBlockTableRecord
  2
_Open30
340
0
102
{BLKREFS
331
101A29B
331
101A29C
331
101A2A2
331
101A2A3
331
101A2AB
331
101A2AC
331
101A228
331
101A229
331
101A232
331
101A233
331
101A239
331
101A23A
331
101A240
331
101A241
331
101A249
331
101A24F
331
101A255
331
101A256
331
101A25E
331
101A25F
331
101A267
331
101A26D
331
101A273
331
101A274
331
101A27E
331
101A27F
331
101A289
331
101A28A
331
101A292
331
101A293
102
}
 70
     0
280
     1
281
     0
  0
BLOCK_RECORD
  5
12E9
330
1
100
AcDbSymbolTableRecord
100
AcDbBlockTableRecord
  2
_DotSmall
340
0
 70
     0
280
     1
281
     0
  0
BLOCK_RECORD
  5
DEC1
330
1
100
AcDbSymbolTableRecord
100
AcDbBlockTableRecord
  2
*D3
340
0
 70
     0
280
     1
281
     0
  0
BLOCK_RECORD
  5
DEDB
330
1
100
AcDbSymbolTableRecord
100
AcDbBlockTableRecord
  2
*D4
340
0
 70
     0
280
     1
281
     0
  0
BLOCK_RECORD
  5
DEE7
330
1
100
AcDbSymbolTableRecord
100
AcDbBlockTableRecord
  2
*D5
340
0
 70
     0
280
     1
281
     0
  0
BLOCK_RECORD
  5
DEF4
330
1
100
AcDbSymbolTableRecord
100
AcDbBlockTableRecord
  2
*D6
340
0
 70
     0
280
     1
281
     0
  0
BLOCK_RECORD
  5
DF0A
330
1
100
AcDbSymbolTableRecord
100
AcDbBlockTableRecord
  2
*D7
340
0
 70
     0
280
     1
281
     0
  0
BLOCK_RECORD
  5
DF14
330
1
100
AcDbSymbolTableRecord
100
AcDbBlockTableRecord
  2
*D8
340
0
 70
     0
280
     1
281
     0
  0
BLOCK_RECORD
  5
DF1E
330
1
100
AcDbSymbolTableRecord
100
AcDbBlockTableRecord
  2
*D9
340
0
 70
     0
280
     1
281
     0
  0
BLOCK_RECORD
  5
DF41
330
1
100
AcDbSymbolTableRecord
100
AcDbBlockTableRecord
  2
*D10
340
0
 70
     0
280
     1
281
     0
  0
BLOCK_RECORD
  5
DF4E
330
1
100
AcDbSymbolTableRecord
100
AcDbBlockTableRecord
  2
*D11
340
0
 70
     0
280
     1
281
     0
  0
BLOCK_RECORD
  5
DF58
330
1
100
AcDbSymbolTableRecord
100
AcDbBlockTableRecord
  2
*D12
340
0
 70
     0
280
     1
281
     0
  0
BLOCK_RECORD
  5
DF62
330
1
100
AcDbSymbolTableRecord
100
AcDbBlockTableRecord
  2
*D13
340
0
 70
     0
280
     1
281
     0
  0
BLOCK_RECORD
  5
DF7C
330
1
100
AcDbSymbolTableRecord
100
AcDbBlockTableRecord
  2
*D14
340
0
 70
     0
280
     1
281
     0
  0
BLOCK_RECORD
  5
DF8B
330
1
100
AcDbSymbolTableRecord
100
AcDbBlockTableRecord
  2
*D15
340
0
 70
     0
280
     1
281
     0
  0
BLOCK_RECORD
  5
DF9C
330
1
100
AcDbSymbolTableRecord
100
AcDbBlockTableRecord
  2
*D16
340
0
 70
     0
280
     1
281
     0
  0
BLOCK_RECORD
  5
DFC1
330
1
100
AcDbSymbolTableRecord
100
AcDbBlockTableRecord
  2
*D17
340
0
 70
     0
280
     1
281
     0
  0
BLOCK_RECORD
  5
14378
330
1
100
AcDbSymbolTableRecord
100
AcDbBlockTableRecord
  2
*D18
340
0
 70
     0
280
     1
281
     0
  0
BLOCK_RECORD
  5
19F25
330
1
100
AcDbSymbolTableRecord
100
AcDbBlockTableRecord
  2
*D19
340
0
 70
     0
280
     1
281
     0
  0
ENDTAB
  0
ENDSEC
  0
SECTION
  2
BLOCKS
  0
BLOCK
  5
20
330
1F
100
AcDbEntity
  8
0
100
AcDbBlockBegin
  2
*Model_Space
 70
     0
 10
0.0
 20
0.0
 30
0.0
  3
*Model_Space
  1

  0
ENDBLK
  5
21
330
1F
100
AcDbEntity
  8
0
100
AcDbBlockEnd
  0
BLOCK
  5
1C
330
1B
100
AcDbEntity
 67
     1
  8
0
100
AcDbBlockBegin
  2
*Paper_Space
 70
     0
 10
0.0
 20
0.0
 30
0.0
  3
*Paper_Space
  1

  0
ENDBLK
  5
1D
330
1B
100
AcDbEntity
 67
     1
  8
0
100
AcDbBlockEnd
  0
BLOCK
  5
24
330
23
100
AcDbEntity
 67
     1
  8
0
100
AcDbBlockBegin
  2
*Paper_Space0
 70
     0
 10
0.0
 20
0.0
 30
0.0
  3
*Paper_Space0
  1

  0
ENDBLK
  5
25
330
23
100
AcDbEntity
 67
     1
  8
0
100
AcDbBlockEnd
  0
BLOCK
  5
1121
330
111D
100
AcDbEntity
  8
0
 48
0.5
100
AcDbBlockBegin
  2
_Open30
 70
     0
 10
0.0
 20
0.0
 30
0.0
  3
_Open30
  1

  0
LINE
  5
111E
330
111D
100
AcDbEntity
  8
0
  6
ByBlock
 62
     0
370
    -2
100
AcDbLine
 10
-1.0
 20
0.26794919
 30
0.0
 11
0.0
 21
0.0
 31
0.0
  0
LINE
  5
111F
330
111D
100
AcDbEntity
  8
0
  6
ByBlock
 62
     0
370
    -2
100
AcDbLine
 10
0.0
 20
0.0
 30
0.0
 11
-1.0
 21
-0.26794919
 31
0.0
  0
LINE
  5
1120
330
111D
100
AcDbEntity
  8
0
  6
ByBlock
 62
     0
370
    -2
100
AcDbLine
 10
0.0
 20
0.0
 30
0.0
 11
-1.0
 21
0.0
 31
0.0
  0
ENDBLK
  5
1122
330
111D
100
AcDbEntity
  8
0
 48
0.5
100
AcDbBlockEnd
  0
BLOCK
  5
12EB
330
12E9
100
AcDbEntity
  8
0
 48
0.5
100
AcDbBlockBegin
  2
_DotSmall
 70
     0
 10
0.0
 20
0.0
 30
0.0
  3
_DotSmall
  1

  0
LWPOLYLINE
  5
12EA
330
12E9
100
AcDbEntity
  8
0
  6
ByBlock
 62
     0
100
AcDbPolyline
 90
        2
 70
     1
 43
0.5
 10
-0.0625
 20
0.0
 42
1.0
 10
0.0625
 20
0.0
 42
1.0
  0
ENDBLK
  5
12EC
330
12E9
100
AcDbEntity
  8
0
 48
0.5
100
AcDbBlockEnd
  0
BLOCK
  5
DECB
330
DEC1
100
AcDbEntity
  8
0
 48
0.5
100
AcDbBlockBegin
  2
*D3
 70
     1
 10
0.0
 20
0.0
 30
0.0
  3
*D3
  1

  0
LINE
  5
101A225
330
DEC1
100
AcDbEntity
  8
尺寸线
 62
     0
440
 16777216
 48
0.5
370
    -2
100
AcDbLine
 10
-572.9895517442131
 20
-2457.356714049232
 30
0.0
 11
-564.0387510250035
 21
-2457.379096442651
 31
0.0
  0
LINE
  5
101A226
330
DEC1
100
AcDbEntity
  8
尺寸线
 62
     0
440
 16777216
 48
0.5
370
    -2
100
AcDbLine
 10
-573.1583418759223
 20
-2524.856503011061
 30
0.0
 11
-564.2075411567093
 21
-2524.87888540448
 31
0.0
  0
LINE
  5
101A227
330
DEC1
100
AcDbEntity
  8
尺寸线
 62
     0
440
 16777216
 48
0.5
370
    -2
100
AcDbLine
 10
-565.0449993848716
 20
-2459.876588031879
 30
0.0
 11
-565.2012865438584
 21
-2522.376392626165
 31
0.0
  0
INSERT
  5
101A228
330
DEC1
100
AcDbEntity
  8
尺寸线
 62
     0
440
 16777216
 48
0.5
370
    -2
100
AcDbBlockReference
  2
_Open30
 10
-565.0387478985122
 20
-2457.376595848108
 30
0.0
 41
2.5
 42
2.5
 43
2.5
 50
89.85672633705275
  0
INSERT
  5
101A229
330
DEC1
100
AcDbEntity
  8
尺寸线
 62
     0
440
 16777216
 48
0.5
370
    -2
100
AcDbBlockReference
  2
_Open30
 10
-565.2075380302179
 20
-2524.876384809937
 30
0.0
 41
2.5
 42
2.5
 43
2.5
 50
269.8567263370528
  0
MTEXT
  5
101A22A
330
DEC1
100
AcDbEntity
  8
尺寸线
 62
     0
440
 16777216
 48
0.5
100
AcDbMText
 10
-566.8991374117164
 20
-2491.122049273112
 30
0.0
 40
2.5
 41
0.0
 46
0.0
 71
     5
 72
     1
  1
67.5
 11
0.0025005945437892
 21
0.9999968735085763
 31
0.0
 73
     1
 44
1.0
  0
POINT
  5
101A22B
330
DEC1
100
AcDbEntity
  8
Defpoints
 62
     0
440
 16777216
 48
0.5
100
AcDbPoint
 10
-573.9895486177217
 20
-2457.354213454689
 30
0.0
  0
POINT
  5
101A22C
330
DEC1
100
AcDbEntity
  8
Defpoints
 62
     0
440
 16777216
 48
0.5
100
AcDbPoint
 10
-574.1583387494309
 20
-2524.854002416518
 30
0.0
  0
POINT
  5
101A22D
330
DEC1
100
AcDbEntity
  8
Defpoints
 62
     0
440
 16777216
 48
0.5
100
AcDbPoint
 10
-565.2075380302179
 20
-2524.876384809937
 30
0.0
  0
ENDBLK
  5
DECC
330
DEC1
100
AcDbEntity
  8
0
 48
0.5
100
AcDbBlockEnd
  0
BLOCK
  5
DEE4
330
DEDB
100
AcDbEntity
  8
0
 48
0.5
100
AcDbBlockBegin
  2
*D4
 70
     1
 10
0.0
 20
0.0
 30
0.0
  3
*D4
  1

  0
LINE
  5
101A22E
330
DEDB
100
AcDbEntity
  8
尺寸线
 62
     0
440
 16777216
 48
0.5
370
    -2
100
AcDbLine
 10
-606.8573658581549
 20
-2453.040756299637
 30
0.0
 11
-601.5005536800879
 21
-2464.057607116109
 31
0.0
  0
LINE
  5
101A22F
330
DEDB
100
AcDbEntity
  8
尺寸线
 62
     0
440
 16777216
 48
0.5
370
    -2
100
AcDbLine
 10
-590.5684273933097
 20
-2486.540681079647
 30
0.0
 11
-589.475214764632
 21
-2488.788988476001
 31
0.0
  0
MTEXT
  5
101A230
330
DEDB
100
AcDbEntity
  8
尺寸线
 62
     0
440
 16777216
 48
0.5
100
AcDbMText
 10
-603.6636405608641
 20
-2455.54756616986
 30
0.0
 40
2.5
 41
0.0
 46
0.0
 71
     5
 72
     1
  1
∅20
 11
0.4372850514711236
 21
-0.8993229585415335
 31
0.0
 73
     1
 44
1.0
  0
LINE
  5
101A231
330
DEDB
100
AcDbEntity
  8
尺寸线
 62
     0
440
 16777216
 48
0.5
370
    -2
100
AcDbLine
 10
-591.6616400219876
 20
-2484.292373683294
 30
0.0
 11
-600.40734105141
 21
-2466.305914512463
 31
0.0
  0
INSERT
  5
101A232
330
DEDB
100
AcDbEntity
  8
尺寸线
 62
     0
440
 16777216
 48
0.5
370
    -2
100
AcDbBlockReference
  2
_Open30
 10
-591.6616400219876
 20
-2484.292373683294
 30
0.0
 41
2.5
 42
2.5
 43
2.5
 50
115.9307846262147
  0
INSERT
  5
101A233
330
DEDB
100
AcDbEntity
  8
尺寸线
 62
     0
440
 16777216
 48
0.5
370
    -2
100
AcDbBlockReference
  2
_Open30
 10
-600.40734105141
 20
-2466.305914512463
 30
0.0
 41
2.5
 42
2.5
 43
2.5
 50
295.9307846262147
  0
POINT
  5
101A234
330
DEDB
100
AcDbEntity
  8
Defpoints
 62
     0
440
 16777216
 48
0.5
100
AcDbPoint
 10
-600.40734105141
 20
-2466.305914512463
 30
0.0
  0
POINT
  5
101A235
330
DEDB
100
AcDbEntity
  8
Defpoints
 62
     0
440
 16777216
 48
0.5
100
AcDbPoint
 10
-591.6616400219876
 20
-2484.292373683294
 30
0.0
  0
ENDBLK
  5
DEE5
330
DEDB
100
AcDbEntity
  8
0
 48
0.5
100
AcDbBlockEnd
  0
BLOCK
  5
DEF1
330
DEE7
100
AcDbEntity
  8
0
 48
0.5
100
AcDbBlockBegin
  2
*D5
 70
     1
 10
0.0
 20
0.0
 30
0.0
  3
*D5
  1

  0
LINE
  5
101A236
330
DEE7
100
AcDbEntity
  8
尺寸线
 62
     0
440
 16777216
 48
0.5
370
    -2
100
AcDbLine
 10
-632.1548860053715
 20
-2469.708804155899
 30
0.0
 11
-632.148634519012
 21
-2467.208811972127
 31
0.0
  0
LINE
  5
101A237
330
DEE7
100
AcDbEntity
  8
尺寸线
 62
     0
440
 16777216
 48
0.5
370
    -2
100
AcDbLine
 10
-632.1823925453531
 20
-2480.708769764493
 30
0.0
 11
-632.1886440317126
 21
-2483.208761948265
 31
0.0
  0
LINE
  5
101A238
330
DEE7
100
AcDbEntity
  8
尺寸线
 62
     0
440
 16777216
 48
0.5
370
    -2
100
AcDbLine
 10
-632.161137491731
 20
-2472.20879633967
 30
0.0
 11
-632.1761410589937
 21
-2478.208777580721
 31
0.0
  0
INSERT
  5
101A239
330
DEE7
100
AcDbEntity
  8
尺寸线
 62
     0
440
 16777216
 48
0.5
370
    -2
100
AcDbBlockReference
  2
_Open30
 10
-632.161137491731
 20
-2472.20879633967
 30
0.0
 41
2.5
 42
2.5
 43
2.5
 50
269.8567263370528
  0
INSERT
  5
101A23A
330
DEE7
100
AcDbEntity
  8
尺寸线
 62
     0
440
 16777216
 48
0.5
370
    -2
100
AcDbBlockReference
  2
_Open30
 10
-632.1761410589937
 20
-2478.208777580721
 30
0.0
 41
2.5
 42
2.5
 43
2.5
 50
89.85672633705277
  0
MTEXT
  5
101A23B
330
DEE7
100
AcDbEntity
  8
尺寸线
 62
     0
440
 16777216
 48
0.5
100
AcDbMText
 10
-633.9446337227136
 20
-2475.204345904286
 30
0.0
 40
2.5
 41
0.0
 46
0.0
 71
     5
 72
     1
  1
6
 11
0.0025005945437892
 21
0.9999968735085763
 31
0.0
 73
     1
 44
1.0
  0
POINT
  5
101A23C
330
DEE7
100
AcDbEntity
  8
Defpoints
 62
     0
440
 16777216
 48
0.5
100
AcDbPoint
 10
-632.1611374917305
 20
-2472.20879633967
 30
0.0
  0
POINT
  5
101A23D
330
DEE7
100
AcDbEntity
  8
Defpoints
 62
     0
440
 16777216
 48
0.5
100
AcDbPoint
 10
-632.1761410589937
 20
-2478.208777580721
 30
0.0
  0
POINT
  5
101A23E
330
DEE7
100
AcDbEntity
  8
Defpoints
 62
     0
440
 16777216
 48
0.5
100
AcDbPoint
 10
-632.1761410589937
 20
-2478.208777580721
 30
0.0
  0
ENDBLK
  5
DEF2
330
DEE7
100
AcDbEntity
  8
0
 48
0.5
100
AcDbBlockEnd
  0
BLOCK
  5
DEFC
330
DEF4
100
AcDbEntity
  8
0
 48
0.5
100
AcDbBlockBegin
  2
*D6
 70
     1
 10
0.0
 20
0.0
 30
0.0
  3
*D6
  1

  0
LINE
  5
101A23F
330
DEF4
100
AcDbEntity
  8
尺寸线
 62
     0
440
 16777216
 48
0.5
370
    -2
100
AcDbLine
 10
-632.3556802075682
 20
-2550.00713757061
 30
0.0
 11
-632.3731843693747
 21
-2557.007115685169
 31
0.0
  0
INSERT
  5
101A240
330
DEF4
100
AcDbEntity
  8
尺寸线
 62
     0
440
 16777216
 48
0.5
370
    -2
100
AcDbBlockReference
  2
_Open30
 10
-632.3494287212087
 20
-2547.507145386838
 30
0.0
 41
2.5
 42
2.5
 43
2.5
 50
89.85672633705275
  0
INSERT
  5
101A241
330
DEF4
100
AcDbEntity
  8
尺寸线
 62
     0
440
 16777216
 48
0.5
370
    -2
100
AcDbBlockReference
  2
_Open30
 10
-632.3794358557342
 20
-2559.507107868941
 30
0.0
 41
2.5
 42
2.5
 43
2.5
 50
269.8567263370528
  0
MTEXT
  5
101A242
330
DEF4
100
AcDbEntity
  8
尺寸线
 62
     0
440
 16777216
 48
0.5
100
AcDbMText
 10
-634.1404267358227
 20
-2553.50268557198
 30
0.0
 40
2.5
 41
0.0
 46
0.0
 71
     5
 72
     1
  1
12
 11
0.0025005945437892
 21
0.9999968735085763
 31
0.0
 73
     1
 44
1.0
  0
POINT
  5
101A243
330
DEF4
100
AcDbEntity
  8
Defpoints
 62
     0
440
 16777216
 48
0.5
100
AcDbPoint
 10
-632.3494287212081
 20
-2547.507145386838
 30
0.0
  0
POINT
  5
101A244
330
DEF4
100
AcDbEntity
  8
Defpoints
 62
     0
440
 16777216
 48
0.5
100
AcDbPoint
 10
-632.3794358557342
 20
-2559.507107868941
 30
0.0
  0
POINT
  5
101A245
330
DEF4
100
AcDbEntity
  8
Defpoints
 62
     0
440
 16777216
 48
0.5
100
AcDbPoint
 10
-632.3794358557342
 20
-2559.507107868941
 30
0.0
  0
ENDBLK
  5
DEFD
330
DEF4
100
AcDbEntity
  8
0
 48
0.5
100
AcDbBlockEnd
  0
BLOCK
  5
DF11
330
DF0A
100
AcDbEntity
  8
0
 48
0.5
100
AcDbBlockBegin
  2
*D7
 70
     1
 10
0.0
 20
0.0
 30
0.0
  3
*D7
  1

  0
LINE
  5
101A246
330
DF0A
100
AcDbEntity
  8
尺寸线
 62
     0
440
 16777216
 48
0.5
370
    -2
100
AcDbLine
 10
-775.2903360430845
 20
-2539.69140582789
 30
0.0
 11
-770.9988997207566
 21
-2546.107120082945
 31
0.0
  0
MTEXT
  5
101A247
330
DF0A
100
AcDbEntity
  8
尺寸线
 62
     0
440
 16777216
 48
0.5
100
AcDbMText
 10
-772.3633931737589
 20
-2540.872846424851
 30
0.0
 40
2.5
 41
0.0
 46
0.0
 71
     5
 72
     1
  1
R6
 11
0.555981558429088
 21
-0.8311946262379002
 31
0.0
 73
     1
 44
1.0
  0
LINE
  5
101A248
330
DF0A
100
AcDbEntity
  8
尺寸线
 62
     0
440
 16777216
 48
0.5
370
    -2
100
AcDbLine
 10
-766.2730564741089
 20
-2553.172274405968
 30
0.0
 11
-769.6089458246839
 21
-2548.18510664854
 31
0.0
  0
INSERT
  5
101A249
330
DF0A
100
AcDbEntity
  8
尺寸线
 62
     0
440
 16777216
 48
0.5
370
    -2
100
AcDbBlockReference
  2
_Open30
 10
-769.6089458246839
 20
-2548.18510664854
 30
0.0
 41
2.5
 42
2.5
 43
2.5
 50
303.7783487296388
  0
POINT
  5
101A24A
330
DF0A
100
AcDbEntity
  8
Defpoints
 62
     0
440
 16777216
 48
0.5
100
AcDbPoint
 10
-769.6089458246839
 20
-2548.18510664854
 30
0.0
  0
POINT
  5
101A24B
330
DF0A
100
AcDbEntity
  8
Defpoints
 62
     0
440
 16777216
 48
0.5
100
AcDbPoint
 10
-766.2730564741089
 20
-2553.172274405968
 30
0.0
  0
ENDBLK
  5
DF12
330
DF0A
100
AcDbEntity
  8
0
 48
0.5
100
AcDbBlockEnd
  0
BLOCK
  5
DF1B
330
DF14
100
AcDbEntity
  8
0
 48
0.5
100
AcDbBlockBegin
  2
*D8
 70
     1
 10
0.0
 20
0.0
 30
0.0
  3
*D8
  1

  0
LINE
  5
101A24C
330
DF14
100
AcDbEntity
  8
尺寸线
 62
     0
440
 16777216
 48
0.5
370
    -2
100
AcDbLine
 10
-775.8896631504857
 20
-2600.294439553602
 30
0.0
 11
-771.3534617341878
 21
-2594.049386165369
 31
0.0
  0
MTEXT
  5
101A24D
330
DF14
100
AcDbEntity
  8
尺寸线
 62
     0
440
 16777216
 48
0.5
100
AcDbMText
 10
-775.7931119225416
 20
-2597.139526828212
 30
0.0
 40
2.5
 41
0.0
 46
0.0
 71
     5
 72
     1
  1
R6
 11
0.5876923583042606
 21
0.8090844776602605
 31
0.0
 73
     1
 44
1.0
  0
LINE
  5
101A24E
330
DF14
100
AcDbEntity
  8
尺寸线
 62
     0
440
 16777216
 48
0.5
370
    -2
100
AcDbLine
 10
-766.3580766886002
 20
-2587.172168105254
 30
0.0
 11
-769.8842308384272
 21
-2592.026674971217
 31
0.0
  0
INSERT
  5
101A24F
330
DF14
100
AcDbEntity
  8
尺寸线
 62
     0
440
 16777216
 48
0.5
370
    -2
100
AcDbBlockReference
  2
_Open30
 10
-769.8842308384272
 20
-2592.026674971217
 30
0.0
 41
2.5
 42
2.5
 43
2.5
 50
54.00657861518929
  0
POINT
  5
101A250
330
DF14
100
AcDbEntity
  8
Defpoints
 62
     0
440
 16777216
 48
0.5
100
AcDbPoint
 10
-769.8842308384272
 20
-2592.026674971217
 30
0.0
  0
POINT
  5
101A251
330
DF14
100
AcDbEntity
  8
Defpoints
 62
     0
440
 16777216
 48
0.5
100
AcDbPoint
 10
-766.3580766886002
 20
-2587.172168105254
 30
0.0
  0
ENDBLK
  5
DF1C
330
DF14
100
AcDbEntity
  8
0
 48
0.5
100
AcDbBlockEnd
  0
BLOCK
  5
DF28
330
DF1E
100
AcDbEntity
  8
0
 48
0.5
100
AcDbBlockBegin
  2
*D9
 70
     1
 10
0.0
 20
0.0
 30
0.0
  3
*D9
  1

  0
LINE
  5
101A252
330
DF1E
100
AcDbEntity
  8
尺寸线
 62
     0
440
 16777216
 48
0.5
370
    -2
100
AcDbLine
 10
-595.9865972901404
 20
-2456.146460213346
 30
0.0
 11
-595.9652844923558
 21
-2447.623394688269
 31
0.0
  0
LINE
  5
101A253
330
DF1E
100
AcDbEntity
  8
尺寸线
 62
     0
440
 16777216
 48
0.5
370
    -2
100
AcDbLine
 10
-608.9931900823378
 20
-2458.766687955917
 30
0.0
 11
-608.9652438479666
 21
-2447.590886959197
 31
0.0
  0
LINE
  5
101A254
330
DF1E
100
AcDbEntity
  8
尺寸线
 62
     0
440
 16777216
 48
0.5
370
    -2
100
AcDbLine
 10
-598.4677772706712
 20
-2448.617140075417
 30
0.0
 11
-606.4677522587393
 21
-2448.597135319066
 31
0.0
  0
INSERT
  5
101A255
330
DF1E
100
AcDbEntity
  8
尺寸线
 62
     0
440
 16777216
 48
0.5
370
    -2
100
AcDbBlockReference
  2
_Open30
 10
-595.9677850868998
 20
-2448.623391561778
 30
0.0
 41
2.5
 42
2.5
 43
2.5
 50
359.8567263370398
  0
INSERT
  5
101A256
330
DF1E
100
AcDbEntity
  8
尺寸线
 62
     0
440
 16777216
 48
0.5
370
    -2
100
AcDbBlockReference
  2
_Open30
 10
-608.9677444425107
 20
-2448.590883832706
 30
0.0
 41
2.5
 42
2.5
 43
2.5
 50
179.8567263370397
  0
MTEXT
  5
101A257
330
DF1E
100
AcDbEntity
  8
尺寸线
 62
     0
440
 16777216
 48
0.5
100
AcDbMText
 10
-602.463323708795
 20
-2446.83114324989
 30
0.0
 40
2.5
 41
0.0
 46
0.0
 71
     5
 72
     1
  1
13
 11
0.9999968735085756
 21
-0.0025005945440174
 31
0.0
 73
     1
 44
1.0
  0
POINT
  5
101A258
330
DF1E
100
AcDbEntity
  8
Defpoints
 62
     0
440
 16777216
 48
0.5
100
AcDbPoint
 10
-595.9890978846845
 20
-2457.146457086855
 30
0.0
  0
POINT
  5
101A259
330
DF1E
100
AcDbEntity
  8
Defpoints
 62
     0
440
 16777216
 48
0.5
100
AcDbPoint
 10
-608.9956906768819
 20
-2459.766684829425
 30
0.0
  0
POINT
  5
101A25A
330
DF1E
100
AcDbEntity
  8
Defpoints
 62
     0
440
 16777216
 48
0.5
100
AcDbPoint
 10
-608.9677444425107
 20
-2448.590883832706
 30
0.0
  0
ENDBLK
  5
DF29
330
DF1E
100
AcDbEntity
  8
0
 48
0.5
100
AcDbBlockEnd
  0
BLOCK
  5
DF4B
330
DF41
100
AcDbEntity
  8
0
 48
0.5
100
AcDbBlockBegin
  2
*D10
 70
     1
 10
0.0
 20
0.0
 30
0.0
  3
*D10
  1

  0
LINE
  5
101A25B
330
DF41
100
AcDbEntity
  8
尺寸线
 62
     0
440
 16777216
 48
0.5
370
    -2
100
AcDbLine
 10
-573.9932995095379
 20
-2458.854208764951
 30
0.0
 11
-573.9393493778455
 21
-2437.279354438028
 31
0.0
  0
LINE
  5
101A25C
330
DF41
100
AcDbEntity
  8
尺寸线
 62
     0
440
 16777216
 48
0.5
370
    -2
100
AcDbLine
 10
-608.9931900823378
 20
-2458.766687955917
 30
0.0
 11
-608.9392399506452
 21
-2437.191833628987
 31
0.0
  0
LINE
  5
101A25D
330
DF41
100
AcDbEntity
  8
尺寸线
 62
     0
440
 16777216
 48
0.5
370
    -2
100
AcDbLine
 10
-576.4418421561609
 20
-2438.273099825176
 30
0.0
 11
-606.4417483614179
 21
-2438.198081988856
 31
0.0
  0
INSERT
  5
101A25E
330
DF41
100
AcDbEntity
  8
尺寸线
 62
     0
440
 16777216
 48
0.5
370
    -2
100
AcDbBlockReference
  2
_Open30
 10
-573.9418499723894
 20
-2438.279351311536
 30
0.0
 41
2.5
 42
2.5
 43
2.5
 50
359.8567263370398
  0
INSERT
  5
101A25F
330
DF41
100
AcDbEntity
  8
尺寸线
 62
     0
440
 16777216
 48
0.5
370
    -2
100
AcDbBlockReference
  2
_Open30
 10
-608.9417405451893
 20
-2438.191830502496
 30
0.0
 41
2.5
 42
2.5
 43
2.5
 50
179.8567263370397
  0
MTEXT
  5
101A260
330
DF41
100
AcDbEntity
  8
尺寸线
 62
     0
440
 16777216
 48
0.5
100
AcDbMText
 10
-591.4373542028792
 20
-2436.459596459665
 30
0.0
 40
2.5
 41
0.0
 46
0.0
 71
     5
 72
     1
  1
35
 11
0.9999968735085756
 21
-0.0025005945440174
 31
0.0
 73
     1
 44
1.0
  0
POINT
  5
101A261
330
DF41
100
AcDbEntity
  8
Defpoints
 62
     0
440
 16777216
 48
0.5
100
AcDbPoint
 10
-573.9958001040819
 20
-2459.854205638459
 30
0.0
  0
POINT
  5
101A262
330
DF41
100
AcDbEntity
  8
Defpoints
 62
     0
440
 16777216
 48
0.5
100
AcDbPoint
 10
-608.9956906768819
 20
-2459.766684829426
 30
0.0
  0
POINT
  5
101A263
330
DF41
100
AcDbEntity
  8
Defpoints
 62
     0
440
 16777216
 48
0.5
100
AcDbPoint
 10
-608.9417405451893
 20
-2438.191830502496
 30
0.0
  0
ENDBLK
  5
DF4C
330
DF41
100
AcDbEntity
  8
0
 48
0.5
100
AcDbBlockEnd
  0
BLOCK
  5
DF55
330
DF4E
100
AcDbEntity
  8
0
 48
0.5
100
AcDbBlockBegin
  2
*D11
 70
     1
 10
0.0
 20
0.0
 30
0.0
  3
*D11
  1

  0
LINE
  5
101A264
330
DF4E
100
AcDbEntity
  8
尺寸线
 62
     0
440
 16777216
 48
0.5
370
    -2
100
AcDbLine
 10
-577.1707351801849
 20
-2489.950692899761
 30
0.0
 11
-584.58292530827
 21
-2484.193617315501
 31
0.0
  0
MTEXT
  5
101A265
330
DF4E
100
AcDbEntity
  8
尺寸线
 62
     0
440
 16777216
 48
0.5
100
AcDbMText
 10
-578.8002067290525
 20
-2486.436300740482
 30
0.0
 40
2.5
 41
0.0
 46
0.0
 71
     5
 72
     1
  1
R12
 11
0.7897631192021542
 21
-0.6134119460428563
 31
0.0
 73
     1
 44
1.0
  0
LINE
  5
101A266
330
DF4E
100
AcDbEntity
  8
尺寸线
 62
     0
440
 16777216
 48
0.5
370
    -2
100
AcDbLine
 10
-596.0344905366992
 20
-2475.299144097881
 30
0.0
 11
-586.5573331062754
 21
-2482.660087450394
 31
0.0
  0
INSERT
  5
101A267
330
DF4E
100
AcDbEntity
  8
尺寸线
 62
     0
440
 16777216
 48
0.5
370
    -2
100
AcDbBlockReference
  2
_Open30
 10
-586.5573331062754
 20
-2482.660087450394
 30
0.0
 41
2.5
 42
2.5
 43
2.5
 50
142.1633801252287
  0
POINT
  5
101A268
330
DF4E
100
AcDbEntity
  8
Defpoints
 62
     0
440
 16777216
 48
0.5
100
AcDbPoint
 10
-586.5573331062754
 20
-2482.660087450394
 30
0.0
  0
POINT
  5
101A269
330
DF4E
100
AcDbEntity
  8
Defpoints
 62
     0
440
 16777216
 48
0.5
100
AcDbPoint
 10
-596.0344905366992
 20
-2475.299144097881
 30
0.0
  0
ENDBLK
  5
DF56
330
DF4E
100
AcDbEntity
  8
0
 48
0.5
100
AcDbBlockEnd
  0
BLOCK
  5
DF5F
330
DF58
100
AcDbEntity
  8
0
 48
0.5
100
AcDbBlockBegin
  2
*D12
 70
     1
 10
0.0
 20
0.0
 30
0.0
  3
*D12
  1

  0
LINE
  5
101A26A
330
DF58
100
AcDbEntity
  8
尺寸线
 62
     0
440
 16777216
 48
0.5
370
    -2
100
AcDbLine
 10
-567.3203106135986
 20
-2583.799973384972
 30
0.0
 11
-574.4023296525661
 21
-2578.297066143388
 31
0.0
  0
MTEXT
  5
101A26B
330
DF58
100
AcDbEntity
  8
尺寸线
 62
     0
440
 16777216
 48
0.5
100
AcDbMText
 10
-568.7845691786752
 20
-2580.413081747244
 30
0.0
 40
2.5
 41
0.0
 46
0.0
 71
     5
 72
     1
  1
R10
 11
0.7896401217907667
 21
-0.61357027149159
 31
0.0
 73
     1
 44
1.0
  0
LINE
  5
101A26C
330
DF58
100
AcDbEntity
  8
尺寸线
 62
     0
440
 16777216
 48
0.5
370
    -2
100
AcDbLine
 10
-584.2728311749497
 20
-2570.627437749744
 30
0.0
 11
-576.3764299570429
 21
-2576.763140464659
 31
0.0
  0
INSERT
  5
101A26D
330
DF58
100
AcDbEntity
  8
尺寸线
 62
     0
440
 16777216
 48
0.5
370
    -2
100
AcDbBlockReference
  2
_Open30
 10
-576.3764299570429
 20
-2576.763140464659
 30
0.0
 41
2.5
 42
2.5
 43
2.5
 50
142.1518930271449
  0
POINT
  5
101A26E
330
DF58
100
AcDbEntity
  8
Defpoints
 62
     0
440
 16777216
 48
0.5
100
AcDbPoint
 10
-576.3764299570429
 20
-2576.763140464659
 30
0.0
  0
POINT
  5
101A26F
330
DF58
100
AcDbEntity
  8
Defpoints
 62
     0
440
 16777216
 48
0.5
100
AcDbPoint
 10
-584.2728311749497
 20
-2570.627437749744
 30
0.0
  0
ENDBLK
  5
DF60
330
DF58
100
AcDbEntity
  8
0
 48
0.5
100
AcDbBlockEnd
  0
BLOCK
  5
DF6C
330
DF62
100
AcDbEntity
  8
0
 48
0.5
100
AcDbBlockBegin
  2
*D13
 70
     1
 10
0.0
 20
0.0
 30
0.0
  3
*D13
  1

  0
LINE
  5
101A270
330
DF62
100
AcDbEntity
  8
尺寸线
 62
     0
440
 16777216
 48
0.5
370
    -2
100
AcDbLine
 10
-548.0392284697479
 20
-2464.419126772052
 30
0.0
 11
-547.9942507570747
 21
-2446.432375517908
 31
0.0
  0
LINE
  5
101A271
330
DF62
100
AcDbEntity
  8
尺寸线
 62
     0
440
 16777216
 48
0.5
370
    -2
100
AcDbLine
 10
-499.0393816678294
 20
-2464.541655904699
 30
0.0
 11
-498.9944039551564
 21
-2446.554904650565
 31
0.0
  0
LINE
  5
101A272
330
DF62
100
AcDbEntity
  8
尺寸线
 62
     0
440
 16777216
 48
0.5
370
    -2
100
AcDbLine
 10
-545.4967591678472
 20
-2447.438623877776
 30
0.0
 11
-501.4968967334717
 21
-2447.548650037714
 31
0.0
  0
INSERT
  5
101A273
330
DF62
100
AcDbEntity
  8
尺寸线
 62
     0
440
 16777216
 48
0.5
370
    -2
100
AcDbBlockReference
  2
_Open30
 10
-547.9967513516187
 20
-2447.432372391417
 30
0.0
 41
2.5
 42
2.5
 43
2.5
 50
179.8567263370397
  0
INSERT
  5
101A274
330
DF62
100
AcDbEntity
  8
尺寸线
 62
     0
440
 16777216
 48
0.5
370
    -2
100
AcDbBlockReference
  2
_Open30
 10
-498.9969045497003
 20
-2447.554901524074
 30
0.0
 41
2.5
 42
2.5
 43
2.5
 50
359.8567263370398
  0
MTEXT
  5
101A275
330
DF62
100
AcDbEntity
  8
尺寸线
 62
     0
440
 16777216
 48
0.5
100
AcDbMText
 10
-523.4923868947494
 20
-2445.717642510394
 30
0.0
 40
2.5
 41
0.0
 46
0.0
 71
     5
 72
     1
  1
49
 11
0.9999968735085756
 21
-0.0025005945440174
 31
0.0
 73
     1
 44
1.0
  0
POINT
  5
101A276
330
DF62
100
AcDbEntity
  8
Defpoints
 62
     0
440
 16777216
 48
0.5
100
AcDbPoint
 10
-548.0417290642918
 20
-2465.41912364556
 30
0.0
  0
POINT
  5
101A277
330
DF62
100
AcDbEntity
  8
Defpoints
 62
     0
440
 16777216
 48
0.5
100
AcDbPoint
 10
-499.0418822623734
 20
-2465.541652778208
 30
0.0
  0
POINT
  5
101A278
330
DF62
100
AcDbEntity
  8
Defpoints
 62
     0
440
 16777216
 48
0.5
100
AcDbPoint
 10
-498.9969045497003
 20
-2447.554901524074
 30
0.0
  0
ENDBLK
  5
DF6D
330
DF62
100
AcDbEntity
  8
0
 48
0.5
100
AcDbBlockEnd
  0
BLOCK
  5
DF88
330
DF7C
100
AcDbEntity
  8
0
 48
0.5
100
AcDbBlockBegin
  2
*D14
 70
     1
 10
0.0
 20
0.0
 30
0.0
  3
*D14
  1

  0
LINE
  5
101A279
330
DF7C
100
AcDbEntity
  8
尺寸线
 62
     0
440
 16777216
 48
0.5
370
    -2
100
AcDbLine
 10
-500.5393769780923
 20
-2464.537905012884
 30
0.0
 11
-500.5070885583449
 21
-2451.625648255713
 31
0.0
  0
LINE
  5
101A27A
330
DF7C
100
AcDbEntity
  8
尺寸线
 62
     0
440
 16777216
 48
0.5
370
    -2
100
AcDbLine
 10
-499.0393816678294
 20
-2464.541655904699
 30
0.0
 11
-499.007093248082
 21
-2451.62939914753
 31
0.0
  0
LINE
  5
101A27B
330
DF7C
100
AcDbEntity
  8
尺寸线
 62
     0
440
 16777216
 48
0.5
370
    -2
100
AcDbLine
 10
-503.0095813366604
 20
-2452.619393642863
 30
0.0
 11
-505.5095735204318
 21
-2452.613142156502
 31
0.0
  0
LINE
  5
101A27C
330
DF7C
100
AcDbEntity
  8
尺寸线
 62
     0
440
 16777216
 48
0.5
370
    -2
100
AcDbLine
 10
-496.5096016588546
 20
-2452.635647507398
 30
0.0
 11
-488.7909591245331
 21
-2452.654948763152
 31
0.0
  0
LINE
  5
101A27D
330
DF7C
100
AcDbEntity
  8
尺寸线
 62
     0
440
 16777216
 48
0.5
370
    -2
100
AcDbLine
 10
-500.5095891528889
 20
-2452.625645129222
 30
0.0
 11
-499.0095938426261
 21
-2452.629396021038
 31
0.0
  0
INSERT
  5
101A27E
330
DF7C
100
AcDbEntity
  8
尺寸线
 62
     0
440
 16777216
 48
0.5
370
    -2
100
AcDbBlockReference
  2
_Open30
 10
-500.5095891528889
 20
-2452.625645129222
 30
0.0
 41
2.5
 42
2.5
 43
2.5
 50
359.8567263370398
  0
INSERT
  5
101A27F
330
DF7C
100
AcDbEntity
  8
尺寸线
 62
     0
440
 16777216
 48
0.5
370
    -2
100
AcDbBlockReference
  2
_Open30
 10
-499.0095938426261
 20
-2452.629396021038
 30
0.0
 41
2.5
 42
2.5
 43
2.5
 50
179.8567263370397
  0
MTEXT
  5
101A280
330
DF7C
100
AcDbEntity
  8
尺寸线
 62
     0
440
 16777216
 48
0.5
100
AcDbMText
 10
-491.3958432438979
 20
-2450.872429431104
 30
0.0
 40
2.5
 41
0.0
 46
0.0
 71
     5
 72
     1
  1
1.5
 11
0.9999968735085756
 21
-0.0025005945440174
 31
0.0
 73
     1
 44
1.0
  0
POINT
  5
101A281
330
DF7C
100
AcDbEntity
  8
Defpoints
 62
     0
440
 16777216
 48
0.5
100
AcDbPoint
 10
-500.5418775726363
 20
-2465.537901886392
 30
0.0
  0
POINT
  5
101A282
330
DF7C
100
AcDbEntity
  8
Defpoints
 62
     0
440
 16777216
 48
0.5
100
AcDbPoint
 10
-499.0418822623734
 20
-2465.541652778208
 30
0.0
  0
POINT
  5
101A283
330
DF7C
100
AcDbEntity
  8
Defpoints
 62
     0
440
 16777216
 48
0.5
100
AcDbPoint
 10
-499.0095938426261
 20
-2452.629396021038
 30
0.0
  0
ENDBLK
  5
DF89
330
DF7C
100
AcDbEntity
  8
0
 48
0.5
100
AcDbBlockEnd
  0
BLOCK
  5
DF97
330
DF8B
100
AcDbEntity
  8
0
 48
0.5
100
AcDbBlockBegin
  2
*D15
 70
     1
 10
0.0
 20
0.0
 30
0.0
  3
*D15
  1

  0
LINE
  5
101A284
330
DF8B
100
AcDbEntity
  8
尺寸线
 62
     0
440
 16777216
 48
0.5
370
    -2
100
AcDbLine
 10
-546.5392331594858
 20
-2464.422877663868
 30
0.0
 11
-546.5078167308065
 21
-2451.859333313453
 31
0.0
  0
LINE
  5
101A285
330
DF8B
100
AcDbEntity
  8
尺寸线
 62
     0
440
 16777216
 48
0.5
370
    -2
100
AcDbLine
 10
-548.0392284697479
 20
-2464.419126772052
 30
0.0
 11
-548.0078120410685
 21
-2451.855582421638
 31
0.0
  0
LINE
  5
101A286
330
DF8B
100
AcDbEntity
  8
尺寸线
 62
     0
440
 16777216
 48
0.5
370
    -2
100
AcDbLine
 10
-544.0103251415791
 20
-2452.865581673322
 30
0.0
 11
-541.5103329578077
 21
-2452.871833159682
 31
0.0
  0
LINE
  5
101A287
330
DF8B
100
AcDbEntity
  8
尺寸线
 62
     0
440
 16777216
 48
0.5
370
    -2
100
AcDbLine
 10
-550.5103048193839
 20
-2452.849327808786
 30
0.0
 11
-558.2289473537055
 21
-2452.830026553032
 31
0.0
  0
LINE
  5
101A288
330
DF8B
100
AcDbEntity
  8
尺寸线
 62
     0
440
 16777216
 48
0.5
370
    -2
100
AcDbLine
 10
-546.5103173253505
 20
-2452.859330186962
 30
0.0
 11
-548.0103126356125
 21
-2452.855579295146
 31
0.0
  0
INSERT
  5
101A289
330
DF8B
100
AcDbEntity
  8
尺寸线
 62
     0
440
 16777216
 48
0.5
370
    -2
100
AcDbBlockReference
  2
_Open30
 10
-546.5103173253505
 20
-2452.859330186962
 30
0.0
 41
2.5
 42
2.5
 43
2.5
 50
179.8567263370397
  0
INSERT
  5
101A28A
330
DF8B
100
AcDbEntity
  8
尺寸线
 62
     0
440
 16777216
 48
0.5
370
    -2
100
AcDbBlockReference
  2
_Open30
 10
-548.0103126356125
 20
-2452.855579295146
 30
0.0
 41
2.5
 42
2.5
 43
2.5
 50
359.8567263370398
  0
MTEXT
  5
101A28B
330
DF8B
100
AcDbEntity
  8
尺寸线
 62
     0
440
 16777216
 48
0.5
100
AcDbMText
 10
-555.6151811225202
 20
-2451.060556990378
 30
0.0
 40
2.5
 41
0.0
 46
0.0
 71
     5
 72
     1
  1
1.5
 11
0.9999968735085756
 21
-0.0025005945440174
 31
0.0
 73
     1
 44
1.0
  0
POINT
  5
101A28C
330
DF8B
100
AcDbEntity
  8
Defpoints
 62
     0
440
 16777216
 48
0.5
100
AcDbPoint
 10
-546.5417337540299
 20
-2465.422874537376
 30
0.0
  0
POINT
  5
101A28D
330
DF8B
100
AcDbEntity
  8
Defpoints
 62
     0
440
 16777216
 48
0.5
100
AcDbPoint
 10
-548.0417290642918
 20
-2465.41912364556
 30
0.0
  0
POINT
  5
101A28E
330
DF8B
100
AcDbEntity
  8
Defpoints
 62
     0
440
 16777216
 48
0.5
100
AcDbPoint
 10
-548.0103126356125
 20
-2452.855579295146
 30
0.0
  0
ENDBLK
  5
DF98
330
DF8B
100
AcDbEntity
  8
0
 48
0.5
100
AcDbBlockEnd
  0
BLOCK
  5
DFA6
330
DF9C
100
AcDbEntity
  8
0
 48
0.5
100
AcDbBlockBegin
  2
*D16
 70
     1
 10
0.0
 20
0.0
 30
0.0
  3
*D16
  1

  0
LINE
  5
101A28F
330
DF9C
100
AcDbEntity
  8
尺寸线
 62
     0
440
 16777216
 48
0.5
370
    -2
100
AcDbLine
 10
-513.5318345500715
 20
-2461.505406663288
 30
0.0
 11
-513.5076315544332
 21
-2451.8265404809
 31
0.0
  0
LINE
  5
101A290
330
DF9C
100
AcDbEntity
  8
尺寸线
 62
     0
440
 16777216
 48
0.5
370
    -2
100
AcDbLine
 10
-533.5317720202425
 20
-2461.455394772411
 30
0.0
 11
-533.5075690246042
 21
-2451.776528590019
 31
0.0
  0
LINE
  5
101A291
330
DF9C
100
AcDbEntity
  8
尺寸线
 62
     0
440
 16777216
 48
0.5
370
    -2
100
AcDbLine
 10
-516.0101243327487
 20
-2452.820285868048
 30
0.0
 11
-531.0100774353768
 21
-2452.782776949888
 31
0.0
  0
INSERT
  5
101A292
330
DF9C
100
AcDbEntity
  8
尺寸线
 62
     0
440
 16777216
 48
0.5
370
    -2
100
AcDbBlockReference
  2
_Open30
 10
-513.5101321489773
 20
-2452.826537354408
 30
0.0
 41
2.5
 42
2.5
 43
2.5
 50
359.8567263370398
  0
INSERT
  5
101A293
330
DF9C
100
AcDbEntity
  8
尺寸线
 62
     0
440
 16777216
 48
0.5
370
    -2
100
AcDbBlockReference
  2
_Open30
 10
-533.5100696191481
 20
-2452.776525463528
 30
0.0
 41
2.5
 42
2.5
 43
2.5
 50
179.8567263370397
  0
MTEXT
  5
101A294
330
DF9C
100
AcDbEntity
  8
尺寸线
 62
     0
440
 16777216
 48
0.5
100
AcDbMText
 10
-523.5056598281524
 20
-2451.025536961617
 30
0.0
 40
2.5
 41
0.0
 46
0.0
 71
     5
 72
     1
  1
20
 11
0.9999968735085756
 21
-0.0025005945440174
 31
0.0
 73
     1
 44
1.0
  0
POINT
  5
101A295
330
DF9C
100
AcDbEntity
  8
Defpoints
 62
     0
440
 16777216
 48
0.5
100
AcDbPoint
 10
-513.5343351446156
 20
-2462.505403536796
 30
0.0
  0
POINT
  5
101A296
330
DF9C
100
AcDbEntity
  8
Defpoints
 62
     0
440
 16777216
 48
0.5
100
AcDbPoint
 10
-533.5342726147866
 20
-2462.455391645919
 30
0.0
  0
POINT
  5
101A297
330
DF9C
100
AcDbEntity
  8
Defpoints
 62
     0
440
 16777216
 48
0.5
100
AcDbPoint
 10
-533.5100696191481
 20
-2452.776525463528
 30
0.0
  0
ENDBLK
  5
DFA7
330
DF9C
100
AcDbEntity
  8
0
 48
0.5
100
AcDbBlockEnd
  0
BLOCK
  5
DFCB
330
DFC1
100
AcDbEntity
  8
0
 48
0.5
100
AcDbBlockBegin
  2
*D17
 70
     1
 10
0.0
 20
0.0
 30
0.0
  3
*D17
  1

  0
LINE
  5
101A298
330
DFC1
100
AcDbEntity
  8
尺寸线
 62
     0
440
 16777216
 48
0.5
370
    -2
100
AcDbLine
 10
-596.0729517577273
 20
-2490.679926589495
 30
0.0
 11
-596.0868868889301
 21
-2496.252636354906
 31
0.0
  0
LINE
  5
101A299
330
DFC1
100
AcDbEntity
  8
尺寸线
 62
     0
440
 16777216
 48
0.5
370
    -2
100
AcDbLine
 10
-772.0872470802261
 20
-2478.858918665043
 30
0.0
 11
-772.1296410542827
 21
-2495.812423428005
 31
0.0
  0
LINE
  5
101A29A
330
DFC1
100
AcDbEntity
  8
尺寸线
 62
     0
440
 16777216
 48
0.5
370
    -2
100
AcDbLine
 10
-598.5843784781575
 20
-2495.246387995038
 30
0.0
 11
-769.6271482759673
 21
-2494.818678040856
 31
0.0
  0
INSERT
  5
101A29B
330
DFC1
100
AcDbEntity
  8
尺寸线
 62
     0
440
 16777216
 48
0.5
370
    -2
100
AcDbBlockReference
  2
_Open30
 10
-596.0843862943861
 20
-2495.252639481398
 30
0.0
 41
2.5
 42
2.5
 43
2.5
 50
359.8567263370398
  0
INSERT
  5
101A29C
330
DFC1
100
AcDbEntity
  8
尺寸线
 62
     0
440
 16777216
 48
0.5
370
    -2
100
AcDbBlockReference
  2
_Open30
 10
-772.1271404597387
 20
-2494.812426554496
 30
0.0
 41
2.5
 42
2.5
 43
2.5
 50
179.8567263370397
  0
MTEXT
  5
101A29D
330
DFC1
100
AcDbEntity
  8
尺寸线
 62
     0
440
 16777216
 48
0.5
100
AcDbMText
 10
-684.1013223211522
 20
-2493.256538570595
 30
0.0
 40
2.5
 41
0.0
 46
0.0
 71
     5
 72
     1
  1
380
 11
0.9999968735085756
 21
-0.0025005945440174
 31
0.0
 73
     1
 44
1.0
  0
POINT
  5
101A29E
330
DFC1
100
AcDbEntity
  8
Defpoints
 62
     0
440
 16777216
 48
0.5
100
AcDbPoint
 10
-596.0704511631832
 20
-2489.679929715987
 30
0.0
  0
POINT
  5
101A29F
330
DFC1
100
AcDbEntity
  8
Defpoints
 62
     0
440
 16777216
 48
0.5
100
AcDbPoint
 10
-772.0847464856821
 20
-2477.858921791535
 30
0.0
  0
POINT
  5
101A2A0
330
DFC1
100
AcDbEntity
  8
Defpoints
 62
     0
440
 16777216
 48
0.5
100
AcDbPoint
 10
-772.1271404597387
 20
-2494.812426554496
 30
0.0
  0
ENDBLK
  5
DFCC
330
DFC1
100
AcDbEntity
  8
0
 48
0.5
100
AcDbBlockEnd
  0
BLOCK
  5
14380
330
14378
100
AcDbEntity
  8
0
 48
0.5
100
AcDbBlockBegin
  2
*D18
 70
     1
 10
0.0
 20
0.0
 30
0.0
  3
*D18
  1

  0
LINE
  5
101A2A1
330
14378
100
AcDbEntity
  8
尺寸线
 62
     0
440
 16777216
 48
0.5
370
    -2
100
AcDbLine
 10
-632.4034022480313
 20
-2584.007124537803
 30
0.0
 11
-632.4209064098379
 21
-2591.007102652362
 31
0.0
  0
INSERT
  5
101A2A2
330
14378
100
AcDbEntity
  8
尺寸线
 62
     0
440
 16777216
 48
0.5
370
    -2
100
AcDbBlockReference
  2
_Open30
 10
-632.3971507616719
 20
-2581.507132354032
 30
0.0
 41
2.5
 42
2.5
 43
2.5
 50
89.85672633705275
  0
INSERT
  5
101A2A3
330
14378
100
AcDbEntity
  8
尺寸线
 62
     0
440
 16777216
 48
0.5
370
    -2
100
AcDbBlockReference
  2
_Open30
 10
-632.4271578961973
 20
-2593.507094836134
 30
0.0
 41
2.5
 42
2.5
 43
2.5
 50
269.8567263370528
  0
MTEXT
  5
101A2A4
330
14378
100
AcDbEntity
  8
尺寸线
 62
     0
440
 16777216
 48
0.5
100
AcDbMText
 10
-634.188148776286
 20
-2587.502672539173
 30
0.0
 40
2.5
 41
0.0
 46
0.0
 71
     5
 72
     1
  1
12
 11
0.0025005945437892
 21
0.9999968735085763
 31
0.0
 73
     1
 44
1.0
  0
POINT
  5
101A2A5
330
14378
100
AcDbEntity
  8
Defpoints
 62
     0
440
 16777216
 48
0.5
100
AcDbPoint
 10
-632.3971507616715
 20
-2581.507132354032
 30
0.0
  0
POINT
  5
101A2A6
330
14378
100
AcDbEntity
  8
Defpoints
 62
     0
440
 16777216
 48
0.5
100
AcDbPoint
 10
-632.4271578961973
 20
-2593.507094836134
 30
0.0
  0
POINT
  5
101A2A7
330
14378
100
AcDbEntity
  8
Defpoints
 62
     0
440
 16777216
 48
0.5
100
AcDbPoint
 10
-632.4271578961973
 20
-2593.507094836134
 30
0.0
  0
ENDBLK
  5
14381
330
14378
100
AcDbEntity
  8
0
 48
0.5
100
AcDbBlockEnd
  0
BLOCK
  5
19F2F
330
19F25
100
AcDbEntity
  8
0
 48
0.5
100
AcDbBlockBegin
  2
*D19
 70
     1
 10
0.0
 20
0.0
 30
0.0
  3
*D19
  1

  0
LINE
  5
101A2A8
330
19F25
100
AcDbEntity
  8
尺寸线
 62
     0
440
 16777216
 48
0.5
370
    -2
100
AcDbLine
 10
-572.9895517442136
 20
-2457.356714049232
 30
0.0
 11
-569.0419530884246
 21
-2457.366585423755
 31
0.0
  0
LINE
  5
101A2A9
330
19F25
100
AcDbEntity
  8
尺寸线
 62
     0
440
 16777216
 48
0.5
370
    -2
100
AcDbLine
 10
-579.4873702789506
 20
-2475.340521865878
 30
0.0
 11
-569.0869637902128
 21
-2475.366529146908
 31
0.0
  0
LINE
  5
101A2AA
330
19F25
100
AcDbEntity
  8
尺寸线
 62
     0
440
 16777216
 48
0.5
370
    -2
100
AcDbLine
 10
-570.0482014482926
 20
-2459.864077012982
 30
0.0
 11
-570.0807091773619
 21
-2472.864036368593
 31
0.0
  0
INSERT
  5
101A2AB
330
19F25
100
AcDbEntity
  8
尺寸线
 62
     0
440
 16777216
 48
0.5
370
    -2
100
AcDbBlockReference
  2
_Open30
 10
-570.0419499619331
 20
-2457.364084829211
 30
0.0
 41
2.5
 42
2.5
 43
2.5
 50
89.85672633705275
  0
INSERT
  5
101A2AC
330
19F25
100
AcDbEntity
  8
尺寸线
 62
     0
440
 16777216
 48
0.5
370
    -2
100
AcDbBlockReference
  2
_Open30
 10
-570.0869606637213
 20
-2475.364028552364
 30
0.0
 41
2.5
 42
2.5
 43
2.5
 50
269.8567263370528
  0
MTEXT
  5
101A2AD
330
19F25
100
AcDbEntity
  8
尺寸线
 62
     0
440
 16777216
 48
0.5
100
AcDbMText
 10
-571.8404497601786
 20
-2466.359615634877
 30
0.0
 40
2.5
 41
0.0
 46
0.0
 71
     5
 72
     1
  1
18
 11
0.0025005945437892
 21
0.9999968735085763
 31
0.0
 73
     1
 44
1.0
  0
POINT
  5
101A2AE
330
19F25
100
AcDbEntity
  8
Defpoints
 62
     0
440
 16777216
 48
0.5
100
AcDbPoint
 10
-573.9895486177222
 20
-2457.354213454689
 30
0.0
  0
POINT
  5
101A2AF
330
19F25
100
AcDbEntity
  8
Defpoints
 62
     0
440
 16777216
 48
0.5
100
AcDbPoint
 10
-580.4873671524591
 20
-2475.338021271333
 30
0.0
  0
POINT
  5
101A2B0
330
19F25
100
AcDbEntity
  8
Defpoints
 62
     0
440
 16777216
 48
0.5
100
AcDbPoint
 10
-570.0869606637213
 20
-2475.364028552364
 30
0.0
  0
ENDBLK
  5
19F30
330
19F25
100
AcDbEntity
  8
0
 48
0.5
100
AcDbBlockEnd
  0
ENDSEC
  0
SECTION
  2
ENTITIES
  0
LINE
  5
DC0A
330
1F
100
AcDbEntity
  8
0
 48
0.5
100
AcDbLine
 10
-586.3303385964761
 20
-2593.622364651353
 30
0.0
 11
-674.0153826723997
 21
-2593.40309922303
 31
0.0
  0
LINE
  5
DC25
330
1F
100
AcDbEntity
  8
0
 48
0.5
100
AcDbLine
 10
-586.21531124746
 20
-2547.622508469959
 30
0.0
 11
-661.5700277835697
 21
-2547.434076287805
 31
0.0
  0
LINE
  5
DC2C
330
1F
100
AcDbEntity
  8
0
 48
0.5
100
AcDbLine
 10
-609.2977589581039
 20
-2580.564891621234
 30
0.0
 11
-609.2477470672272
 21
-2560.564954151062
 31
0.0
  0
LINE
  5
DC30
330
1F
100
AcDbEntity
  8
中心线
 48
0.5
100
AcDbLine
 10
-566.0956104240551
 20
-2570.672891750887
 30
0.0
 11
-616.4634616745204
 21
-2570.546941783084
 31
0.0
  0
ARC
  5
DC3A
330
1F
100
AcDbEntity
  8
0
 48
0.5
100
AcDbCircle
 10
-584.2728311749513
 20
-2570.627437749744
 30
0.0
 40
9.999999999999932
100
AcDbArc
 50
269.8567263370528
 51
89.85672633705277
  0
LINE
  5
DC3D
330
1F
100
AcDbEntity
  8
0
 48
0.5
100
AcDbLine
 10
-609.1582293222306
 20
-2524.766481607483
 30
0.0
 11
-609.0419516759427
 21
-2478.266626989334
 31
0.0
  0
LINE
  5
DC3E
330
1F
100
AcDbEntity
  8
0
 48
0.5
100
AcDbLine
 10
-573.995800104082
 20
-2459.854205638459
 30
0.0
 11
-608.9956906768819
 21
-2459.766684829425
 31
0.0
  0
LINE
  5
DC40
330
1F
100
AcDbEntity
  8
0
 48
0.5
100
AcDbLine
 10
-574.1583387494308
 20
-2524.854002416517
 30
0.0
 11
-573.995800104082
 21
-2459.854205638459
 31
0.0
  0
LINE
  5
DC41
330
1F
100
AcDbEntity
  8
0
 48
0.5
100
AcDbLine
 10
-574.1583387494308
 20
-2524.854002416517
 30
0.0
 11
-609.1582293222306
 21
-2524.766481607483
 31
0.0
  0
LINE
  5
DC55
330
1F
100
AcDbEntity
  8
中心线
 48
0.5
100
AcDbLine
 10
-580.487367152459
 20
-2475.338021271334
 30
0.0
 11
-611.777284278601
 21
-2475.259777630663
 31
0.0
  0
LINE
  5
DC56
330
1F
100
AcDbEntity
  8
中心线
 48
0.5
100
AcDbLine
 10
-596.0704511631831
 20
-2489.679929715987
 30
0.0
 11
-595.9890978846845
 21
-2457.146457086855
 31
0.0
  0
LINE
  5
DC5D
330
1F
100
AcDbEntity
  8
0
 48
0.5
100
AcDbLine
 10
-605.5813545096732
 20
-2478.275280566782
 30
0.0
 11
-665.8652190060745
 21
-2478.124534592835
 31
0.0
  0
LINE
  5
DC5E
330
1F
100
AcDbEntity
  8
0
 48
0.5
100
AcDbLine
 10
-605.5663509424105
 20
-2472.275299325731
 30
0.0
 11
-665.9419031249442
 21
-2472.124324077339
 31
0.0
  0
LINE
  5
DC61
330
1F
100
AcDbEntity
  8
0
 48
0.5
100
AcDbLine
 10
-586.2115603556442
 20
-2546.122513159696
 30
0.0
 11
-586.2453183819859
 21
-2559.622470952062
 31
0.0
  0
LINE
  5
DC62
330
1F
100
AcDbEntity
  8
0
 48
0.5
100
AcDbLine
 10
-586.3003314619502
 20
-2581.62240216925
 30
0.0
 11
-586.3340894882919
 21
-2595.122359961616
 31
0.0
  0
LINE
  5
DC64
330
1F
100
AcDbEntity
  8
0
 48
0.5
100
AcDbLine
 10
-584.2978371203896
 20
-2580.62740648483
 30
0.0
 11
-609.2977589581034
 21
-2580.564891621234
 31
0.0
  0
LINE
  5
DC65
330
1F
100
AcDbEntity
  8
0
 48
0.5
100
AcDbLine
 10
-584.2478252295129
 20
-2560.627469014658
 30
0.0
 11
-609.2477470672272
 21
-2560.564954151062
 31
0.0
  0
LINE
  5
DC67
330
1F
100
AcDbEntity
  8
0
 48
0.5
100
AcDbLine
 10
-586.3003314619502
 20
-2581.62240216925
 30
0.0
 11
-666.0589522516259
 21
-2581.422957573718
 31
0.0
  0
LINE
  5
DC68
330
1F
100
AcDbEntity
  8
中心线
 48
0.5
100
AcDbLine
 10
-596.2168967123041
 20
-2548.244038648377
 30
0.0
 11
-596.3271159055091
 21
-2592.3210957937
 31
0.0
  0
LINE
  5
DC69
330
1F
100
AcDbEntity
  8
0
 48
0.5
100
AcDbLine
 10
-605.7508912800724
 20
-2546.073653062636
 30
0.0
 11
-605.7846493064142
 21
-2559.573610855001
 31
0.0
  0
LINE
  5
DC6A
330
1F
100
AcDbEntity
  8
0
 48
0.5
100
AcDbLine
 10
-605.8396623863784
 20
-2581.57354207219
 30
0.0
 11
-605.8734204127201
 21
-2595.073499864556
 31
0.0
  0
LINE
  5
DC6B
330
1F
100
AcDbEntity
  8
0
 48
0.5
100
AcDbLine
 10
-586.2453183819859
 20
-2559.622470952062
 30
0.0
 11
-674.7450585817261
 21
-2559.401168292687
 31
0.0
  0
LINE
  5
DC6C
330
1F
100
AcDbEntity
  8
0
 48
0.5
100
AcDbLine
 10
-587.2453152554942
 20
-2559.619970357518
 30
0.0
 11
-587.2478158500382
 21
-2560.619967231027
 31
0.0
  0
LINE
  5
DC6D
330
1F
100
AcDbEntity
  8
0
 48
0.5
100
AcDbLine
 10
-605.2452589786487
 20
-2559.574959655729
 30
0.0
 11
-605.2477595731927
 21
-2560.574956529237
 31
0.0
  0
LINE
  5
DC6E
330
1F
100
AcDbEntity
  8
0
 48
0.5
100
AcDbLine
 10
-587.2978277409149
 20
-2580.619904701198
 30
0.0
 11
-587.3003283354584
 21
-2581.619901574706
 31
0.0
  0
LINE
  5
DC6F
330
1F
100
AcDbEntity
  8
0
 48
0.5
100
AcDbLine
 10
-605.2977714640694
 20
-2580.574893999409
 30
0.0
 11
-605.300272058613
 21
-2581.574890872918
 31
0.0
  0
LINE
  5
DC71
330
1F
100
AcDbEntity
  8
0
 48
0.5
100
AcDbLine
 10
-609.0269481086795
 20
-2472.266645748283
 30
0.0
 11
-608.9956906768819
 21
-2459.766684829425
 31
0.0
  0
LINE
  5
DC75
330
1F
100
AcDbEntity
  8
0
 48
0.5
100
AcDbLine
 10
-513.6968737899649
 20
-2527.505200314854
 30
0.0
 11
-533.6968112601359
 21
-2527.455188423977
 31
0.0
  0
LINE
  5
DC76
330
1F
100
AcDbEntity
  8
0
 48
0.5
100
AcDbLine
 10
-513.5343351446156
 20
-2462.505403536797
 30
0.0
 11
-533.5342726147866
 21
-2462.45539164592
 31
0.0
  0
LINE
  5
DC77
330
1F
100
AcDbEntity
  8
中心线
 48
0.5
100
AcDbLine
 10
-497.1244580480936
 20
-2475.546478758739
 30
0.0
 11
-549.5790289067488
 21
-2475.415310734955
 31
0.0
  0
LINE
  5
DC79
330
1F
100
AcDbEntity
  8
中心线
 48
0.5
100
AcDbLine
 10
-523.5274173480127
 20
-2459.726448465564
 30
0.0
 11
-523.7131599538649
 21
-2534.005593634426
 31
0.0
  0
LINE
  5
DC7A
330
1F
100
AcDbEntity
  8
0
 48
0.5
100
AcDbLine
 10
-500.5418775726363
 20
-2465.537901886392
 30
0.0
 11
-500.591889463513
 21
-2485.537839356563
 31
0.0
  0
LINE
  5
DC7B
330
1F
100
AcDbEntity
  8
0
 48
0.5
100
AcDbLine
 10
-546.54173375403
 20
-2465.422874537376
 30
0.0
 11
-546.5917456449067
 21
-2485.422812007547
 31
0.0
  0
LINE
  5
DC7C
330
1F
100
AcDbEntity
  8
0
 48
0.5
100
AcDbLine
 10
-548.0417290642919
 20
-2465.41912364556
 30
0.0
 11
-534.541771271927
 21
-2465.452881671903
 31
0.0
  0
LINE
  5
DC7D
330
1F
100
AcDbEntity
  8
0
 48
0.5
100
AcDbLine
 10
-512.5418400547394
 20
-2465.507894751866
 30
0.0
 11
-499.0418822623735
 21
-2465.541652778208
 31
0.0
  0
LINE
  5
DC7F
330
1F
100
AcDbEntity
  8
0
 48
0.5
100
AcDbLine
 10
-534.5892825682597
 20
-2484.452822268565
 30
0.0
 11
-533.5892856947509
 21
-2484.455322863109
 31
0.0
  0
LINE
  5
DC80
330
1F
100
AcDbEntity
  8
0
 48
0.5
100
AcDbLine
 10
-513.5893482245803
 20
-2484.505334753985
 30
0.0
 11
-512.589351351072
 21
-2484.507835348529
 31
0.0
  0
LINE
  5
DC81
330
1F
100
AcDbEntity
  8
0
 48
0.5
100
AcDbLine
 10
-534.5442718664705
 20
-2466.452878545411
 30
0.0
 11
-533.5442749929618
 21
-2466.455379139954
 31
0.0
  0
LINE
  5
DC82
330
1F
100
AcDbEntity
  8
0
 48
0.5
100
AcDbLine
 10
-513.5443375227912
 20
-2466.50539103083
 30
0.0
 11
-512.5443406492829
 21
-2466.507891625374
 31
0.0
  0
LINE
  5
DC86
330
1F
100
AcDbEntity
  8
0
 48
0.5
100
AcDbLine
 10
-548.0917409551686
 20
-2485.419061115731
 30
0.0
 11
-534.5917831628037
 21
-2485.452819142073
 31
0.0
  0
LINE
  5
DC87
330
1F
100
AcDbEntity
  8
0
 48
0.5
100
AcDbLine
 10
-512.5918519456161
 20
-2485.507832222037
 30
0.0
 11
-499.0918941532502
 21
-2485.541590248379
 31
0.0
  0
LINE
  5
DC8B
330
1F
100
AcDbEntity
  8
0
 48
0.5
100
AcDbLine
 10
-513.6968737899649
 20
-2527.505200314854
 30
0.0
 11
-513.5343351446156
 21
-2462.505403536797
 31
0.0
  0
LINE
  5
DCB7
330
1F
100
AcDbEntity
  8
0
 48
0.5
100
AcDbLine
 10
-512.5418400547394
 20
-2465.507894751866
 30
0.0
 11
-512.5918519456161
 21
-2485.507832222037
 31
0.0
  0
LINE
  5
DCB8
330
1F
100
AcDbEntity
  8
0
 48
0.5
100
AcDbLine
 10
-534.541771271927
 20
-2465.452881671903
 30
0.0
 11
-534.5917831628037
 21
-2485.452819142073
 31
0.0
  0
LINE
  5
DCB9
330
1F
100
AcDbEntity
  8
0
 48
0.5
100
AcDbLine
 10
-533.5342726147866
 20
-2462.45539164592
 30
0.0
 11
-533.6968112601359
 21
-2527.455188423977
 31
0.0
  0
LINE
  5
DCD2
330
1F
100
AcDbEntity
  8
中心线
 48
0.5
100
AcDbLine
 10
-528.0910160944879
 20
-2522.469190656103
 30
0.0
 11
-535.4080071454388
 21
-2522.450893770999
 31
0.0
  0
LINE
  5
DDAD
330
1F
100
AcDbEntity
  8
0
 48
0.5
100
AcDbLine
 10
-772.0847464856822
 20
-2477.858921791535
 30
0.0
 11
-772.069742918419
 21
-2471.858940550483
 31
0.0
  0
LINE
  5
DDB3
330
1F
100
AcDbEntity
  8
0
 48
0.5
100
AcDbLine
 10
-499.0418822623735
 20
-2465.541652778208
 30
0.0
 11
-499.0918941532502
 21
-2485.541590248379
 31
0.0
  0
LINE
  5
DDCD
330
1F
100
AcDbEntity
  8
0
 48
0.5
100
AcDbLine
 10
-548.0417290642919
 20
-2465.41912364556
 30
0.0
 11
-548.0917409551686
 21
-2485.419061115731
 31
0.0
  0
ARC
  5
DDCF
330
1F
100
AcDbEntity
  8
0
 48
0.5
100
AcDbCircle
 10
-766.2730564741084
 20
-2553.172274405966
 30
0.0
 40
5.999999999999886
100
AcDbArc
 50
89.85672633705277
 51
269.8567263370528
  0
ARC
  5
DDD0
330
1F
100
AcDbEntity
  8
0
 48
0.5
100
AcDbCircle
 10
-766.3580766885986
 20
-2587.172168105258
 30
0.0
 40
5.999999999999961
100
AcDbArc
 50
89.85672633705277
 51
269.8567263370528
  0
SPLINE
  5
DDD1
330
1F
100
AcDbEntity
  8
细实线
 48
0.5
100
AcDbSpline
210
0.0
220
0.0
230
1.0
 70
  1064
 71
     3
 72
    10
 73
     6
 74
     4
 42
0.000000001
 43
0.0000000001
 44
0.0000000001
 40
0.0
 40
0.0
 40
0.0
 40
0.0
 40
22.41061400207975
 40
34.29794433777622
 40
55.33096725088455
 40
55.33096725088455
 40
55.33096725088455
 40
55.33096725088455
 10
-661.570027783571
 20
-2547.434076287805
 30
0.0
 10
-669.9088365248456
 20
-2553.675110949524
 30
0.0
 10
-682.6708250194508
 20
-2563.226596661513
 30
0.0
 10
-660.3204990942579
 20
-2575.040983577733
 30
0.0
 10
-668.6766101880428
 20
-2586.244866938517
 30
0.0
 10
-674.0153826724001
 20
-2593.40309922303
 30
0.0
 11
-661.570027783571
 21
-2547.434076287805
 31
0.0
 11
-675.2227907351205
 21
-2565.205899034474
 31
0.0
 11
-666.8382241518495
 21
-2573.632503672206
 31
0.0
 11
-674.0153826724001
 21
-2593.40309922303
 31
0.0
  0
LINE
  5
DDD3
330
1F
100
AcDbEntity
  8
0
 48
0.5
100
AcDbLine
 10
-686.7389426107999
 20
-2559.371176357955
 30
0.0
 11
-766.2880600413711
 21
-2559.172255647018
 31
0.0
  0
LINE
  5
DDD4
330
1F
100
AcDbEntity
  8
0
 48
0.5
100
AcDbLine
 10
-673.5639118126434
 20
-2547.404084353073
 30
0.0
 11
-766.2580529068452
 21
-2547.172293164915
 31
0.0
  0
LINE
  5
DDD5
330
1F
100
AcDbEntity
  8
0
 48
0.5
100
AcDbLine
 10
-678.4960152202568
 20
-2581.391857424683
 30
0.0
 11
-766.3430731213354
 21
-2581.172186864206
 31
0.0
  0
LINE
  5
DDD6
330
1F
100
AcDbEntity
  8
0
 48
0.5
100
AcDbLine
 10
-686.009266701473
 20
-2593.373107288298
 30
0.0
 11
-766.3730802558614
 21
-2593.172149346309
 31
0.0
  0
SPLINE
  5
DDD8
330
1F
100
AcDbEntity
  8
细实线
 48
0.5
100
AcDbSpline
210
0.0
220
0.0
230
1.0
 70
  1064
 71
     3
 72
     9
 73
     5
 74
     3
 42
0.000000001
 43
0.0000000001
 44
0.0000000001
 40
0.0
 40
0.0
 40
0.0
 40
0.0
 40
3.777604820766206
 40
7.988879772541569
 40
7.988879772541569
 40
7.988879772541569
 40
7.988879772541569
 10
-665.8652190060754
 20
-2478.124534592835
 30
0.0
 10
-667.1463083019455
 20
-2477.255752608727
 30
0.0
 10
-669.8555563170728
 20
-2475.41845221631
 30
0.0
 10
-667.2928261280028
 20
-2473.26139812542
 30
0.0
 10
-665.9419031249442
 20
-2472.124324077338
 30
0.0
 11
-665.8652190060754
 21
-2478.124534592835
 31
0.0
 11
-668.5297011270002
 21
-2475.446693445727
 31
0.0
 11
-665.9419031249442
 21
-2472.124324077338
 31
0.0
  0
SPLINE
  5
DDD9
330
1F
100
AcDbEntity
  8
细实线
 48
0.5
100
AcDbSpline
210
0.0
220
0.0
230
1.0
 70
  1064
 71
     3
 72
     9
 73
     5
 74
     3
 42
0.000000001
 43
0.0000000001
 44
0.0000000001
 40
0.0
 40
0.0
 40
0.0
 40
0.0
 40
3.777604820766206
 40
7.988879772541569
 40
7.988879772541569
 40
7.988879772541569
 40
7.988879772541569
 10
-672.8433830122865
 20
-2478.107084979439
 30
0.0
 10
-674.124472308157
 20
-2477.238302995332
 30
0.0
 10
-676.8337203232838
 20
-2475.401002602915
 30
0.0
 10
-674.2709901342139
 20
-2473.243948512024
 30
0.0
 10
-672.9200671311557
 20
-2472.106874463943
 30
0.0
 11
-672.8433830122865
 21
-2478.107084979439
 31
0.0
 11
-675.5078651332117
 21
-2475.429243832331
 31
0.0
 11
-672.9200671311557
 21
-2472.106874463943
 31
0.0
  0
LINE
  5
DDDA
330
1F
100
AcDbEntity
  8
0
 48
0.5
100
AcDbLine
 10
-672.9200671311552
 20
-2472.106874463943
 30
0.0
 11
-772.069742918419
 21
-2471.858940550483
 31
0.0
  0
LINE
  5
DDDB
330
1F
100
AcDbEntity
  8
0
 48
0.5
100
AcDbLine
 10
-672.8433830122855
 20
-2478.107084979439
 30
0.0
 11
-772.0847464856822
 21
-2477.858921791535
 31
0.0
  0
CIRCLE
  5
DE2D
330
1F
100
AcDbEntity
  8
0
 48
0.5
100
AcDbCircle
 10
-596.0344905366999
 20
-2475.299144097878
 30
0.0
 40
10.0
  0
LINE
  5
DE2E
330
1F
100
AcDbEntity
  8
0
 48
0.5
100
AcDbLine
 10
-586.2115603556442
 20
-2546.122513159696
 30
0.0
 11
-605.7508912800724
 21
-2546.073653062636
 31
0.0
  0
LINE
  5
DE2F
330
1F
100
AcDbEntity
  8
0
 48
0.5
100
AcDbLine
 10
-586.3340894882919
 20
-2595.122359961616
 30
0.0
 11
-605.8734204127201
 21
-2595.073499864556
 31
0.0
  0
LINE
  5
DEBB
330
1F
100
AcDbEntity
  8
中心线
100
AcDbLine
 10
-766.3518252022388
 20
-2584.672175921487
 30
0.0
 11
-766.364328174958
 21
-2589.672160289029
 31
0.0
  0
LINE
  5
DEBC
330
1F
100
AcDbEntity
  8
中心线
100
AcDbLine
 10
-768.8580688723698
 20
-2587.165916618898
 30
0.0
 11
-763.858084504827
 21
-2587.178419591617
 31
0.0
  0
LINE
  5
DEBD
330
1F
100
AcDbEntity
  8
中心线
100
AcDbLine
 10
-766.2668049877486
 20
-2550.672282222194
 30
0.0
 11
-766.2793079604678
 21
-2555.672266589738
 31
0.0
  0
LINE
  5
DEBE
330
1F
100
AcDbEntity
  8
中心线
100
AcDbLine
 10
-768.7730486578796
 20
-2553.166022919607
 30
0.0
 11
-763.7730642903368
 21
-2553.178525892326
 31
0.0
  0
DIMENSION
  5
DEC0
330
1F
100
AcDbEntity
  8
尺寸线
 48
0.5
100
AcDbDimension
280
     0
  2
*D3
 10
-565.2075380302179
 20
-2524.876384809937
 30
0.0
 11
-566.8991374117164
 21
-2491.122049273112
 31
0.0
 70
    32
 71
     5
 42
67.5
 73
     0
 74
     0
 75
     0
  3
ISO-25
100
AcDbAlignedDimension
 13
-573.9895486177217
 23
-2457.354213454688
 33
0.0
 14
-574.1583387494308
 24
-2524.854002416517
 34
0.0
 50
269.8567263370528
100
AcDbRotatedDimension
1001
ACAD
1000
DSTYLE
1002
{
1070
    42
1040
1.0
1070
    44
1040
1.0
1070
   143
1040
0.0393700787401575
1070
   147
1040
0.526
1070
   271
1070
     1
1070
   272
1070
     1
1070
   278
1070
    46
1070
   284
1070
     0
1070
   341
1005
12E9
1070
   342
1005
111D
1002
}
  0
DIMENSION
  5
DEDA
330
1F
100
AcDbEntity
  8
尺寸线
 48
0.5
100
AcDbDimension
280
     0
  2
*D4
 10
-591.6616400219876
 20
-2484.292373683294
 30
0.0
 11
-605.2608381352339
 21
-2456.324184421272
 31
0.0
 70
   163
 71
     5
 42
20.0
 73
     0
 74
     0
 75
     0
  3
ISO-25
100
AcDbDiametricDimension
 15
-600.40734105141
 25
-2466.305914512463
 35
0.0
 40
0.0
1001
ACAD
1000
DSTYLE
1002
{
1070
    42
1040
1.0
1070
    44
1040
1.0
1070
   143
1040
0.0393700787401575
1070
   147
1040
0.526
1070
   271
1070
     1
1070
   272
1070
     1
1070
   278
1070
    46
1070
   284
1070
     0
1070
   288
1070
     1
1070
   341
1005
12E9
1070
   342
1005
111D
1002
}
  0
DIMENSION
  5
DEE6
330
1F
100
AcDbEntity
  8
尺寸线
 48
0.5
100
AcDbDimension
280
     0
  2
*D5
 10
-632.1761410589937
 20
-2478.208777580721
 30
0.0
 11
-633.9446337227136
 21
-2475.204345904286
 31
0.0
 70
    32
 71
     5
 42
6.0
 73
     0
 74
     0
 75
     0
  3
ISO-25
100
AcDbAlignedDimension
 13
-632.1611374917304
 23
-2472.20879633967
 33
0.0
 14
-632.1761410589935
 24
-2478.208777580721
 34
0.0
 50
269.8567263370528
100
AcDbRotatedDimension
1001
ACAD
1000
DSTYLE
1002
{
1070
    42
1040
1.0
1070
    44
1040
1.0
1070
   143
1040
0.0393700787401575
1070
   147
1040
0.526
1070
   271
1070
     1
1070
   272
1070
     1
1070
   278
1070
    46
1070
   284
1070
     0
1070
   341
1005
12E9
1070
   342
1005
111D
1002
}
  0
DIMENSION
  5
DEF3
330
1F
100
AcDbEntity
  8
尺寸线
 48
0.5
100
AcDbDimension
280
     0
  2
*D6
 10
-632.3794358557342
 20
-2559.507107868941
 30
0.0
 11
-634.1404267358227
 21
-2553.50268557198
 31
0.0
 70
    32
 71
     5
 42
11.99999999999954
 73
     0
 74
     0
 75
     0
  3
ISO-25
100
AcDbAlignedDimension
 13
-632.3494287212081
 23
-2547.507145386838
 33
0.0
 14
-632.379435855734
 24
-2559.507107868941
 34
0.0
 50
269.8567263370528
100
AcDbRotatedDimension
1001
ACAD
1000
DSTYLE
1002
{
1070
    42
1040
1.0
1070
    44
1040
1.0
1070
   143
1040
0.0393700787401575
1070
   147
1040
0.526
1070
   271
1070
     1
1070
   272
1070
     1
1070
   278
1070
    46
1070
   284
1070
     0
1070
   341
1005
12E9
1070
   342
1005
111D
1002
}
  0
DIMENSION
  5
DF09
330
1F
100
AcDbEntity
  8
尺寸线
 48
0.5
100
AcDbDimension
280
     0
  2
*D7
 10
-766.2730564741089
 20
-2553.172274405968
 30
0.0
 11
-772.3633931737589
 21
-2540.872846424851
 31
0.0
 70
    36
 71
     5
 42
6.000000000000909
 73
     0
 74
     0
 75
     0
  3
ISO-25
100
AcDbRadialDimension
 15
-769.6089458246839
 25
-2548.18510664854
 35
0.0
 40
0.0
1001
ACAD
1000
DSTYLE
1002
{
1070
    42
1040
1.0
1070
    44
1040
1.0
1070
   143
1040
0.0393700787401575
1070
   147
1040
0.526
1070
   271
1070
     1
1070
   272
1070
     1
1070
   278
1070
    46
1070
   284
1070
     0
1070
   288
1070
     1
1070
   341
1005
12E9
1070
   342
1005
111D
1002
}
  0
DIMENSION
  5
DF13
330
1F
100
AcDbEntity
  8
尺寸线
 48
0.5
100
AcDbDimension
280
     0
  2
*D8
 10
-766.3580766886002
 20
-2587.172168105254
 30
0.0
 11
-775.7931119225416
 21
-2597.139526828212
 31
0.0
 70
    36
 71
     5
 42
6.000000000002728
 73
     0
 74
     0
 75
     0
  3
ISO-25
100
AcDbRadialDimension
 15
-769.8842308384272
 25
-2592.026674971217
 35
0.0
 40
0.0
1001
ACAD
1000
DSTYLE
1002
{
1070
    42
1040
1.0
1070
    44
1040
1.0
1070
   143
1040
0.0393700787401575
1070
   147
1040
0.526
1070
   271
1070
     1
1070
   272
1070
     1
1070
   278
1070
    46
1070
   284
1070
     0
1070
   288
1070
     1
1070
   341
1005
12E9
1070
   342
1005
111D
1002
}
  0
DIMENSION
  5
DF1D
330
1F
100
AcDbEntity
  8
尺寸线
 48
0.5
100
AcDbDimension
280
     0
  2
*D9
 10
-608.9677444425107
 20
-2448.590883832706
 30
0.0
 11
-602.463323708795
 21
-2446.83114324989
 31
0.0
 70
    32
 71
     5
 42
12.99999999999943
 73
     0
 74
     0
 75
     0
  3
ISO-25
100
AcDbAlignedDimension
 13
-595.9890978846845
 23
-2457.146457086855
 33
0.0
 14
-608.9956906768819
 24
-2459.766684829425
 34
0.0
 50
359.8567263370398
100
AcDbRotatedDimension
1001
ACAD
1000
DSTYLE
1002
{
1070
    42
1040
1.0
1070
    44
1040
1.0
1070
   143
1040
0.0393700787401575
1070
   147
1040
0.526
1070
   271
1070
     1
1070
   272
1070
     1
1070
   278
1070
    46
1070
   284
1070
     0
1070
   341
1005
12E9
1070
   342
1005
111D
1002
}
  0
DIMENSION
  5
DF40
330
1F
100
AcDbEntity
  8
尺寸线
 48
0.5
100
AcDbDimension
280
     0
  2
*D10
 10
-608.9417405451893
 20
-2438.191830502496
 30
0.0
 11
-591.4373542028792
 21
-2436.459596459665
 31
0.0
 70
    32
 71
     5
 42
34.99999999999966
 73
     0
 74
     0
 75
     0
  3
ISO-25
100
AcDbAlignedDimension
 13
-573.995800104082
 23
-2459.854205638459
 33
0.0
 14
-608.9956906768819
 24
-2459.766684829426
 34
0.0
 50
359.8567263370398
100
AcDbRotatedDimension
1001
ACAD
1000
DSTYLE
1002
{
1070
    42
1040
1.0
1070
    44
1040
1.0
1070
   143
1040
0.0393700787401575
1070
   147
1040
0.526
1070
   271
1070
     1
1070
   272
1070
     1
1070
   278
1070
    46
1070
   284
1070
     0
1070
   341
1005
12E9
1070
   342
1005
111D
1002
}
  0
DIMENSION
  5
DF4D
330
1F
100
AcDbEntity
  8
尺寸线
 48
0.5
100
AcDbDimension
280
     0
  2
*D11
 10
-596.0344905366992
 20
-2475.299144097881
 30
0.0
 11
-578.8002067290525
 21
-2486.436300740482
 31
0.0
 70
    36
 71
     5
 42
11.99999999999727
 73
     0
 74
     0
 75
     0
  3
ISO-25
100
AcDbRadialDimension
 15
-586.5573331062754
 25
-2482.660087450394
 35
0.0
 40
0.0
1001
ACAD
1000
DSTYLE
1002
{
1070
    42
1040
1.0
1070
    44
1040
1.0
1070
   143
1040
0.0393700787401575
1070
   147
1040
0.526
1070
   271
1070
     1
1070
   272
1070
     1
1070
   278
1070
    46
1070
   284
1070
     0
1070
   288
1070
     1
1070
   341
1005
12E9
1070
   342
1005
111D
1002
}
  0
DIMENSION
  5
DF57
330
1F
100
AcDbEntity
  8
尺寸线
 48
0.5
100
AcDbDimension
280
     0
  2
*D12
 10
-584.2728311749497
 20
-2570.627437749744
 30
0.0
 11
-568.7845691786752
 21
-2580.413081747244
 31
0.0
 70
    36
 71
     5
 42
9.999999999998863
 73
     0
 74
     0
 75
     0
  3
ISO-25
100
AcDbRadialDimension
 15
-576.3764299570429
 25
-2576.763140464659
 35
0.0
 40
0.0
1001
ACAD
1000
DSTYLE
1002
{
1070
    42
1040
1.0
1070
    44
1040
1.0
1070
   143
1040
0.0393700787401575
1070
   147
1040
0.526
1070
   271
1070
     1
1070
   272
1070
     1
1070
   278
1070
    46
1070
   284
1070
     0
1070
   288
1070
     1
1070
   341
1005
12E9
1070
   342
1005
111D
1002
}
  0
DIMENSION
  5
DF61
330
1F
100
AcDbEntity
  8
尺寸线
 48
0.5
100
AcDbDimension
280
     0
  2
*D13
 10
-498.9969045497003
 20
-2447.554901524074
 30
0.0
 11
-523.4923868947494
 21
-2445.717642510394
 31
0.0
 70
    32
 71
     5
 42
48.99999999999818
 73
     0
 74
     0
 75
     0
  3
ISO-25
100
AcDbAlignedDimension
 13
-548.0417290642919
 23
-2465.41912364556
 33
0.0
 14
-499.0418822623735
 24
-2465.541652778208
 34
0.0
 50
359.8567263370398
100
AcDbRotatedDimension
1001
ACAD
1000
DSTYLE
1002
{
1070
    42
1040
1.0
1070
    44
1040
1.0
1070
   143
1040
0.0393700787401575
1070
   147
1040
0.526
1070
   271
1070
     1
1070
   272
1070
     1
1070
   278
1070
    46
1070
   284
1070
     0
1070
   341
1005
12E9
1070
   342
1005
111D
1002
}
  0
DIMENSION
  5
DF7B
330
1F
100
AcDbEntity
  8
尺寸线
 48
0.5
100
AcDbDimension
280
     0
  2
*D14
 10
-499.0095938426261
 20
-2452.629396021038
 30
0.0
 11
-491.3958432438979
 21
-2450.872429431104
 31
0.0
 70
    32
 71
     5
 42
1.5
 73
     0
 74
     0
 75
     0
  3
ISO-25
100
AcDbAlignedDimension
 13
-500.5418775726363
 23
-2465.537901886392
 33
0.0
 14
-499.0418822623735
 24
-2465.541652778208
 34
0.0
 50
359.8567263370398
100
AcDbRotatedDimension
1001
ACAD
1000
DSTYLE
1002
{
1070
    42
1040
1.0
1070
    44
1040
1.0
1070
   143
1040
0.0393700787401575
1070
   147
1040
0.526
1070
   271
1070
     1
1070
   272
1070
     1
1070
   278
1070
    46
1070
   284
1070
     0
1070
   341
1005
12E9
1070
   342
1005
111D
1002
}
  0
DIMENSION
  5
DF8A
330
1F
100
AcDbEntity
  8
尺寸线
 48
0.5
100
AcDbDimension
280
     0
  2
*D15
 10
-548.0103126356125
 20
-2452.855579295146
 30
0.0
 11
-555.6151811225202
 21
-2451.060556990378
 31
0.0
 70
    32
 71
     5
 42
1.49999999999909
 73
     0
 74
     0
 75
     0
  3
ISO-25
100
AcDbAlignedDimension
 13
-546.54173375403
 23
-2465.422874537376
 33
0.0
 14
-548.0417290642919
 24
-2465.41912364556
 34
0.0
 50
359.8567263370398
100
AcDbRotatedDimension
1001
ACAD
1000
DSTYLE
1002
{
1070
    42
1040
1.0
1070
    44
1040
1.0
1070
   143
1040
0.0393700787401575
1070
   147
1040
0.526
1070
   271
1070
     1
1070
   272
1070
     1
1070
   278
1070
    46
1070
   284
1070
     0
1070
   341
1005
12E9
1070
   342
1005
111D
1002
}
  0
DIMENSION
  5
DF9B
330
1F
100
AcDbEntity
  8
尺寸线
 48
0.5
100
AcDbDimension
280
     0
  2
*D16
 10
-533.5100696191481
 20
-2452.776525463528
 30
0.0
 11
-523.5056598281524
 21
-2451.025536961617
 31
0.0
 70
    32
 71
     5
 42
19.99999999999949
 73
     0
 74
     0
 75
     0
  3
ISO-25
100
AcDbAlignedDimension
 13
-513.5343351446156
 23
-2462.505403536797
 33
0.0
 14
-533.5342726147866
 24
-2462.45539164592
 34
0.0
 50
359.8567263370398
100
AcDbRotatedDimension
1001
ACAD
1000
DSTYLE
1002
{
1070
    42
1040
1.0
1070
    44
1040
1.0
1070
   143
1040
0.0393700787401575
1070
   147
1040
0.526
1070
   271
1070
     1
1070
   272
1070
     1
1070
   278
1070
    46
1070
   284
1070
     0
1070
   341
1005
12E9
1070
   342
1005
111D
1002
}
  0
DIMENSION
  5
DFC0
330
1F
100
AcDbEntity
  8
尺寸线
 48
0.5
100
AcDbDimension
280
     0
  2
*D17
 10
-772.1271404597387
 20
-2494.812426554496
 30
0.0
 11
-684.1013223211522
 21
-2493.256538570595
 31
0.0
 70
    32
  1
380
 71
     5
 42
176.0433045632347
 73
     0
 74
     0
 75
     0
  3
ISO-25
100
AcDbAlignedDimension
 13
-596.0704511631831
 23
-2489.679929715987
 33
0.0
 14
-772.0847464856822
 24
-2477.858921791535
 34
0.0
 50
359.8567263370398
100
AcDbRotatedDimension
1001
ACAD
1000
DSTYLE
1002
{
1070
    42
1040
1.0
1070
    44
1040
1.0
1070
   143
1040
0.0393700787401575
1070
   147
1040
0.526
1070
   271
1070
     1
1070
   272
1070
     1
1070
   278
1070
    46
1070
   284
1070
     0
1070
   341
1005
12E9
1070
   342
1005
111D
1002
}
  0
DIMENSION
  5
14377
330
1F
100
AcDbEntity
  8
尺寸线
 48
0.5
100
AcDbDimension
280
     0
  2
*D18
 10
-632.4271578961973
 20
-2593.507094836134
 30
0.0
 11
-634.188148776286
 21
-2587.502672539173
 31
0.0
 70
    32
 71
     5
 42
11.99999999999954
 73
     0
 74
     0
 75
     0
  3
ISO-25
100
AcDbAlignedDimension
 13
-632.3971507616713
 23
-2581.507132354032
 33
0.0
 14
-632.4271578961973
 24
-2593.507094836134
 34
0.0
 50
269.8567263370528
100
AcDbRotatedDimension
1001
ACAD
1000
DSTYLE
1002
{
1070
    42
1040
1.0
1070
    44
1040
1.0
1070
   143
1040
0.0393700787401575
1070
   147
1040
0.526
1070
   271
1070
     1
1070
   272
1070
     1
1070
   278
1070
    46
1070
   284
1070
     0
1070
   341
1005
12E9
1070
   342
1005
111D
1002
}
  0
SPLINE
  5
1438F
330
1F
100
AcDbEntity
  8
细实线
 48
0.5
100
AcDbSpline
210
0.0
220
0.0
230
1.0
 70
  1064
 71
     3
 72
    10
 73
     6
 74
     4
 42
0.000000001
 43
0.0000000001
 44
0.0000000001
 40
0.0
 40
0.0
 40
0.0
 40
0.0
 40
22.41061400207975
 40
34.29794433777622
 40
55.33096725088455
 40
55.33096725088455
 40
55.33096725088455
 40
55.33096725088455
 10
-673.5639118126439
 20
-2547.404084353073
 30
0.0
 10
-681.9027205539184
 20
-2553.645119014792
 30
0.0
 10
-694.6647090485241
 20
-2563.196604726781
 30
0.0
 10
-672.3143831233317
 20
-2575.010991643001
 30
0.0
 10
-680.6704942171165
 20
-2586.214875003785
 30
0.0
 10
-686.009266701474
 20
-2593.373107288299
 30
0.0
 11
-673.5639118126439
 21
-2547.404084353073
 31
0.0
 11
-687.2166747641938
 21
-2565.175907099741
 31
0.0
 11
-678.8321081809229
 21
-2573.602511737475
 31
0.0
 11
-686.009266701474
 21
-2593.373107288299
 31
0.0
  0
LINE
  5
143D5
330
1F
100
AcDbEntity
  8
中心线
 48
0.5
100
AcDbLine
 10
-584.2385017124395
 20
-2556.898960549895
 30
0.0
 11
-584.3042227739795
 21
-2583.181052633081
 31
0.0
  0
LINE
  5
19ECC
330
1F
100
AcDbEntity
  8
0
 48
0.5
100
AcDbLine
 10
-513.5305842527984
 20
-2461.005408226534
 30
0.0
 11
-513.5343351446143
 21
-2462.505403536797
 31
0.0
  0
LINE
  5
19ECD
330
1F
100
AcDbEntity
  8
0
 48
0.5
100
AcDbLine
 10
-533.5305217229699
 20
-2460.955396335657
 30
0.0
 11
-533.5342726147858
 21
-2462.45539164592
 31
0.0
  0
ARC
  5
19ECE
330
1F
100
AcDbEntity
  8
0
 48
0.5
100
AcDbCircle
 10
-523.6543324178044
 20
-2510.480247519772
 30
0.0
 40
50.50000000000229
100
AcDbArc
 50
78.4355400620599
 51
101.277912612039
  0
LINE
  5
19EDA
330
1F
100
AcDbEntity
  8
0
 48
0.5
100
AcDbLine
 10
-608.9919397850656
 20
-2458.266689519163
 30
0.0
 11
-608.9956906768813
 21
-2459.766684829425
 31
0.0
  0
LINE
  5
19EDB
330
1F
100
AcDbEntity
  8
0
 48
0.5
100
AcDbLine
 10
-573.9895486177217
 20
-2457.354213454688
 30
0.0
 11
-573.995800104082
 21
-2459.854205638459
 31
0.0
  0
LINE
  5
19EDC
330
1F
100
AcDbEntity
  8
0
 48
0.5
100
AcDbLine
 10
-598.989470455436
 20
-2457.291698591092
 30
0.0
 11
-573.9895486177217
 21
-2457.354213454688
 31
0.0
  0
ARC
  5
19EDD
330
1F
100
AcDbEntity
  8
0
 48
0.5
100
AcDbCircle
 10
-599.1157504798995
 20
-2507.791540703275
 30
0.0
 40
50.5
100
AcDbArc
 50
89.85672633705277
 51
101.277912612039
  0
DIMENSION
  5
19F24
330
1F
100
AcDbEntity
  8
尺寸线
 48
0.5
100
AcDbDimension
280
     0
  2
*D19
 10
-570.0869606637213
 20
-2475.364028552364
 30
0.0
 11
-571.8404497601786
 21
-2466.359615634877
 31
0.0
 70
    32
 71
     5
 42
17.99999999999909
 73
     0
 74
     0
 75
     0
  3
ISO-25
100
AcDbAlignedDimension
 13
-573.9895486177222
 23
-2457.354213454688
 33
0.0
 14
-580.487367152459
 24
-2475.338021271334
 34
0.0
 50
269.8567263370528
100
AcDbRotatedDimension
1001
ACAD
1000
DSTYLE
1002
{
1070
    42
1040
1.0
1070
    44
1040
1.0
1070
   143
1040
0.0393700787401575
1070
   147
1040
0.526
1070
   271
1070
     1
1070
   272
1070
     1
1070
   278
1070
    46
1070
   284
1070
     0
1070
   342
1005
111D
1002
}
  0
ENDSEC
  0
SECTION
  2
OBJECTS
  0
DICTIONARY
  5
C
330
0
100
AcDbDictionary
281
     1
  3
ACAD_CIP_PREVIOUS_PRODUCT_INFO
350
101A10C
  3
ACAD_COLOR
350
1D4
  3
ACAD_DETAILVIEWSTYLE
350
101A106
  3
ACAD_GROUP
350
D
  3
ACAD_LAYOUT
350
1A
  3
ACAD_MATERIAL
350
1D3
  3
ACAD_MLEADERSTYLE
350
101A101
  3
ACAD_MLINESTYLE
350
17
  3
ACAD_PLOTSETTINGS
350
19
  3
ACAD_PLOTSTYLENAME
350
E
  3
ACAD_SCALELIST
350
101A0EF
  3
ACAD_SECTIONVIEWSTYLE
350
101A103
  3
ACAD_TABLESTYLE
350
1D5
  3
ACAD_VISUALSTYLE
350
101A0D6
  3
AcadDim
350
158D3
  3
ACDB_RECOMPOSE_DATA
350
101A2DF
  3
AcDbVariableDictionary
350
265
  0
DICTIONARY
  5
411
330
2
100
AcDbDictionary
280
     1
281
     1
  3
ACAD_LAYERFILTERS
360
4264
  3
ACLYDICTIONARY
360
4263
  0
DICTIONARY
  5
101A2B1
330
10
100
AcDbDictionary
280
     1
281
     1
  3
ADSK_XREC_LAYER_RECONCILED
360
101A2B2
  0
DICTIONARY
  5
101A2B3
330
40A
100
AcDbDictionary
280
     1
281
     1
  3
ADSK_XREC_LAYER_RECONCILED
360
101A2B4
  0
DICTIONARY
  5
101A2B5
330
40F
100
AcDbDictionary
280
     1
281
     1
  3
ADSK_XREC_LAYER_RECONCILED
360
101A2B6
  0
DICTIONARY
  5
101A2B7
330
410
100
AcDbDictionary
280
     1
281
     1
  3
ADSK_XREC_LAYER_RECONCILED
360
101A2B8
  0
DICTIONARY
  5
101A2B9
330
281D
100
AcDbDictionary
280
     1
281
     1
  3
ADSK_XREC_LAYER_RECONCILED
360
101A2BA
  0
DICTIONARY
  5
101A2BB
330
4262
100
AcDbDictionary
280
     1
281
     1
  3
ADSK_XREC_LAYER_RECONCILED
360
101A2BC
  0
DICTIONARY
  5
101A2BD
330
CAEE
100
AcDbDictionary
280
     1
281
     1
  3
ADSK_XREC_LAYER_RECONCILED
360
101A2BE
  0
DICTIONARY
  5
101A2BF
330
CAF2
100
AcDbDictionary
280
     1
281
     1
  3
ADSK_XREC_LAYER_RECONCILED
360
101A2C0
  0
DICTIONARY
  5
101A2C1
330
1A009
100
AcDbDictionary
280
     1
281
     1
  3
ADSK_XREC_LAYER_RECONCILED
360
101A2C2
  0
DICTIONARY
  5
206
330
1F
100
AcDbDictionary
280
     1
281
     1
  3
ACAD_SORTENTS
360
207
  0
XRECORD
  5
101A10C
102
{ACAD_REACTORS
330
C
102
}
330
C
100
AcDbXrecord
280
     1
300
ACD
300
2017
300
ACD_F_S
  0
DICTIONARY
  5
1D4
102
{ACAD_REACTORS
330
C
102
}
330
C
100
AcDbDictionary
281
     1
  0
DICTIONARY
  5
101A106
102
{ACAD_REACTORS
330
C
102
}
330
C
100
AcDbDictionary
281
     1
  3
Metric50
350
101A107
  0
DICTIONARY
  5
D
102
{ACAD_REACTORS
330
C
102
}
330
C
100
AcDbDictionary
281
     1
  0
DICTIONARY
  5
1A
102
{ACAD_REACTORS
330
C
102
}
330
C
100
AcDbDictionary
281
     1
  3
Layout1
350
1E
  3
Layout2
350
26
  3
Model
350
22
  0
DICTIONARY
  5
1D3
102
{ACAD_REACTORS
330
C
102
}
330
C
100
AcDbDictionary
281
     1
  3
ByBlock
350
101A0C6
  3
ByLayer
350
101A0BE
  3
Global
350
101A0CE
  0
DICTIONARY
  5
101A101
102
{ACAD_REACTORS
330
C
102
}
330
C
100
AcDbDictionary
281
     1
  3
Standard
350
101A102
  0
DICTIONARY
  5
17
102
{ACAD_REACTORS
330
C
102
}
330
C
100
AcDbDictionary
281
     1
  3
Standard
350
18
  0
DICTIONARY
  5
19
102
{ACAD_REACTORS
330
C
102
}
330
C
100
AcDbDictionary
281
     1
  0
ACDBDICTIONARYWDFLT
  5
E
102
{ACAD_REACTORS
330
C
102
}
330
C
100
AcDbDictionary
281
     1
  3
Normal
350
F
100
AcDbDictionaryWithDefault
340
F
  0
DICTIONARY
  5
101A0EF
102
{ACAD_REACTORS
330
C
102
}
330
C
100
AcDbDictionary
281
     1
  3
A0
350
101A0F0
  3
A1
350
101A0F1
  3
A2
350
101A0F2
  3
A3
350
101A0F3
  3
A4
350
101A0F4
  3
A5
350
101A0F5
  3
A6
350
101A0F6
  3
A7
350
101A0F7
  3
A8
350
101A0F8
  3
A9
350
101A0F9
  3
B0
350
101A0FA
  3
B1
350
101A0FB
  3
B2
350
101A0FC
  3
B3
350
101A0FD
  3
B4
350
101A0FE
  3
B5
350
101A0FF
  3
B6
350
101A100
  0
DICTIONARY
  5
101A103
102
{ACAD_REACTORS
330
C
102
}
330
C
100
AcDbDictionary
281
     1
  3
Metric50
350
101A105
  0
DICTIONARY
  5
1D5
102
{ACAD_REACTORS
330
C
102
}
330
C
100
AcDbDictionary
281
     1
  3
Standard
350
1D6
  0
DICTIONARY
  5
101A0D6
102
{ACAD_REACTORS
330
C
102
}
330
C
100
AcDbDictionary
281
     1
  3
2dWireframe
350
101A0DC
  3
Basic
350
101A0DB
  3
Brighten
350
101A0E2
  3
ColorChange
350
101A0E6
  3
Conceptual
350
101A0DF
  3
Dim
350
101A0E1
  3
EdgeColorOff
350
101A0EE
  3
Facepattern
350
101A0E5
  3
Flat
350
101A0D7
  3
FlatWithEdges
350
101A0D8
  3
Gouraud
350
101A0D9
  3
GouraudWithEdges
350
101A0DA
  3
Hidden
350
101A0DE
  3
JitterOff
350
101A0EC
  3
Linepattern
350
101A0E4
  3
OverhangOff
350
101A0ED
  3
Realistic
350
101A0E0
  3
Shaded
350
101A0EB
  3
Shaded with edges
350
101A0EA
  3
Shades of Gray
350
101A0E7
  3
Sketchy
350
101A0E8
  3
Thicken
350
101A0E3
  3
Wireframe
350
101A0DD
  3
X-Ray
350
101A0E9
  0
XRECORD
  5
158D3
102
{ACAD_REACTORS
330
C
102
}
330
C
100
AcDbXrecord
280
     1
 90
   990106
  3

 60
     0
 61
     0
 62
     1
 63
     3
 64
     0
 65
     0
 66
     0
 67
     3
 68
     1
 69
     0
 70
     0
 71
     0
 72
     0
 40
51.92405077377407
170
     0
340
0
  0
XRECORD
  5
101A2DF
102
{ACAD_REACTORS
330
C
102
}
330
C
100
AcDbXrecord
280
     1
 90
        1
330
1D6
330
101A105
330
101A107
  0
DICTIONARY
  5
265
102
{ACAD_REACTORS
330
C
102
}
330
C
100
AcDbDictionary
281
     1
  3
CANNOSCALE
350
101A2D5
  3
CMLEADERSTYLE
350
101A2D1
  3
CTABLESTYLE
350
266
  3
CVIEWDETAILSTYLE
350
101A2D2
  3
CVIEWSECTIONSTYLE
350
101A2D3
  3
DIMASSOC
350
19E91
  3
LAYEREVAL
350
101A2D7
  3
LAYERNOTIFY
350
101A2D8
  3
LIGHTINGUNITS
350
101A2D6
  3
MSLTSCALE
350
101A2D4
  3
PROJECTNAME
350
19E92
  0
DICTIONARY
  5
4264
102
{ACAD_REACTORS
330
411
102
}
330
411
100
AcDbDictionary
281
     1
  0
DICTIONARY
  5
4263
102
{ACAD_REACTORS
330
411
102
}
330
411
100
AcDbDictionary
281
     1
1001
ACAD
1000
<All
  0
XRECORD
  5
101A2B2
102
{ACAD_REACTORS
330
101A2B1
102
}
330
101A2B1
100
AcDbXrecord
280
     1
290
     1
  0
XRECORD
  5
101A2B4
102
{ACAD_REACTORS
330
101A2B3
102
}
330
101A2B3
100
AcDbXrecord
280
     1
290
     1
  0
XRECORD
  5
101A2B6
102
{ACAD_REACTORS
330
101A2B5
102
}
330
101A2B5
100
AcDbXrecord
280
     1
290
     1
  0
XRECORD
  5
101A2B8
102
{ACAD_REACTORS
330
101A2B7
102
}
330
101A2B7
100
AcDbXrecord
280
     1
290
     1
  0
XRECORD
  5
101A2BA
102
{ACAD_REACTORS
330
101A2B9
102
}
330
101A2B9
100
AcDbXrecord
280
     1
290
     1
  0
XRECORD
  5
101A2BC
102
{ACAD_REACTORS
330
101A2BB
102
}
330
101A2BB
100
AcDbXrecord
280
     1
290
     1
  0
XRECORD
  5
101A2BE
102
{ACAD_REACTORS
330
101A2BD
102
}
330
101A2BD
100
AcDbXrecord
280
     1
290
     1
  0
XRECORD
  5
101A2C0
102
{ACAD_REACTORS
330
101A2BF
102
}
330
101A2BF
100
AcDbXrecord
280
     1
290
     1
  0
XRECORD
  5
101A2C2
102
{ACAD_REACTORS
330
101A2C1
102
}
330
101A2C1
100
AcDbXrecord
280
     1
290
     1
  0
SORTENTSTABLE
  5
207
102
{ACAD_REACTORS
330
206
102
}
330
206
100
AcDbSortentsTable
330
1F
331
143D5
  5
146C7
331
DF1D
  5
DFE3
331
DC56
  5
DC90
331
DDDA
  5
DC81
331
DE2E
  5
DC79
331
DC5E
  5
DC80
331
DCB9
  5
DDCC
331
14377
  5
146C5
331
DC67
  5
DCB0
331
DCD2
  5
DCE8
331
DC6F
  5
DCB8
331
DC6B
  5
DCC1
331
DEF3
  5
DFE0
331
DC77
  5
DCF6
331
DC7F
  5
DD98
331
DC7B
  5
DD87
331
DC0A
  5
DC74
331
DDCF
  5
DE4E
331
DC86
  5
DDB8
331
DEBB
  5
DFBB
331
DC82
  5
DD9B
331
DDD3
  5
DCC2
331
DFC0
  5
E034
331
DF61
  5
DFE8
331
DDDB
  5
DC85
331
DE2F
  5
DC75
331
DC64
  5
DCAA
331
DC6C
  5
DCB9
331
DC68
  5
DCB6
331
DF8A
  5
DFF5
331
DF57
  5
DFE7
331
DDB3
  5
DD86
331
DC7C
  5
DD8B
331
DEBC
  5
DFBC
331
DC87
  5
DDB9
331
DDD4
  5
DC7A
331
DF13
  5
DFE2
331
DDD0
  5
DE4F
331
DC40
  5
DC91
331
DC8B
  5
DCC8
331
DC2C
  5
DC7B
331
DEC0
  5
DFD8
331
DDD8
  5
DE51
331
DCB7
  5
DD8E
331
DC30
  5
DC8B
331
DF40
  5
DFE5
331
DC65
  5
DCAF
331
DC61
  5
DCA5
331
DC6D
  5
DCB7
331
DC69
  5
DCBC
331
DC75
  5
DCD6
331
DC71
  5
DC8E
331
DC7D
  5
DD8C
331
DC79
  5
DD66
331
DF9B
  5
DFF6
331
DDCD
  5
DE4D
331
DC3D
  5
DC8D
331
DEBD
  5
DFBD
331
DDD5
  5
DCB1
331
DC80
  5
DD99
331
DDD1
  5
DE50
331
DC41
  5
DC86
331
DC25
  5
DC77
331
DC55
  5
DC7F
331
DDD9
  5
DE52
331
DE2D
  5
DE53
331
DC5D
  5
DC82
331
DCB8
  5
DDB7
331
DF7B
  5
DFF4
331
DEDA
  5
DFDE
331
DF4D
  5
DFE6
331
DEE6
  5
DFDF
331
DC62
  5
DCA6
331
DC6E
  5
DCBB
331
DDAD
  5
DC94
331
DC6A
  5
DCBF
331
DC76
  5
DCF1
331
DC7A
  5
DD78
331
1438F
  5
146C6
331
DF09
  5
DFE1
331
DC3E
  5
DC7C
331
DEBE
  5
DFC0
331
DC81
  5
DD9A
331
DDD6
  5
DC76
331
DC3A
  5
DC8C
  0
ACDBDETAILVIEWSTYLE
  5
101A107
102
{ACAD_XDICTIONARY
360
101A2DD
102
}
102
{ACAD_REACTORS
330
101A106
102
}
330
101A106
100
AcDbModelDocViewStyle
 70
     0
  3
Metric50
290
     0
100
AcDbDetailViewStyle
 70
     0
 71
     0
 90
        3
 71
     1
340
11
 62
   256
 40
5.0
340
0
 62
   256
 40
5.0
300

 40
0.0
280
     1
 71
     2
340
16
 90
       25
 62
   256
 71
     3
340
11
 62
   256
 40
5.0
 90
        0
 40
15.0
 90
        1
300
%<\AcVar ViewDetailId>% (%<\AcVar ViewScale \f "%sn">%)
 71
     4
340
16
 90
       25
 62
   256
340
16
 90
       25
 62
   256
280
     0
  0
LAYOUT
  5
1E
102
{ACAD_REACTORS
330
1A
102
}
330
1A
100
AcDbPlotSettings
  1

  2

  4

  6

 40
0.0
 41
0.0
 42
0.0
 43
0.0
 44
0.0
 45
0.0
 46
0.0
 47
0.0
 48
0.0
 49
0.0
140
0.0
141
0.0
142
1.0
143
1.0
 70
   688
 72
     0
 73
     0
 74
     5
  7

 75
    16
147
1.0
 76
     0
 77
     2
 78
   300
148
0.0
149
0.0
100
AcDbLayout
  1
Layout1
 70
     1
 71
     1
 10
0.0
 20
0.0
 11
420.0
 21
297.0
 12
0.0
 22
0.0
 32
0.0
 14
1.000000000000000E+20
 24
1.000000000000000E+20
 34
1.000000000000000E+20
 15
-1.000000000000000E+20
 25
-1.000000000000000E+20
 35
-1.000000000000000E+20
146
0.0
 13
0.0
 23
0.0
 33
0.0
 16
1.0
 26
0.0
 36
0.0
 17
0.0
 27
1.0
 37
0.0
 76
     0
330
1B
  0
LAYOUT
  5
26
102
{ACAD_REACTORS
330
1A
102
}
330
1A
100
AcDbPlotSettings
  1

  2

  4

  6

 40
0.0
 41
0.0
 42
0.0
 43
0.0
 44
0.0
 45
0.0
 46
0.0
 47
0.0
 48
0.0
 49
0.0
140
0.0
141
0.0
142
1.0
143
1.0
 70
   688
 72
     0
 73
     0
 74
     5
  7

 75
    16
147
1.0
 76
     0
 77
     2
 78
   300
148
0.0
149
0.0
100
AcDbLayout
  1
Layout2
 70
     1
 71
     2
 10
0.0
 20
0.0
 11
0.0
 21
0.0
 12
0.0
 22
0.0
 32
0.0
 14
0.0
 24
0.0
 34
0.0
 15
0.0
 25
0.0
 35
0.0
146
0.0
 13
0.0
 23
0.0
 33
0.0
 16
1.0
 26
0.0
 36
0.0
 17
0.0
 27
1.0
 37
0.0
 76
     0
330
23
  0
LAYOUT
  5
22
102
{ACAD_REACTORS
330
1A
102
}
330
1A
100
AcDbPlotSettings
  1

  2
Adobe PDF
  4
A4
  6

 40
3.174999952316284
 41
3.174999952316284
 42
3.175003051757812
 43
3.17498779296875
 44
209.9733276367187
 45
297.0318298339844
 46
0.0
 47
0.0
 48
0.0
 49
0.0
140
0.0
141
0.0
142
1.0
143
0.7475498042581874
 70
 11952
 72
     1
 73
     1
 74
     0
  7

 75
     0
147
1.337703513938212
 76
     0
 77
     2
 78
   300
148
-62.04520941299825
149
-114.2038463351312
100
AcDbLayout
  1
Model
 70
     1
 71
     0
 10
0.0
 20
0.0
 11
0.0
 21
0.0
 12
0.0
 22
0.0
 32
0.0
 14
0.0
 24
0.0
 34
0.0
 15
297.0
 25
210.0
 35
0.0
146
0.0
 13
0.0
 23
0.0
 33
0.0
 16
1.0
 26
0.0
 36
0.0
 17
0.0
 27
1.0
 37
0.0
 76
     0
330
1F
331
1A0B5
1001
ACAD_PSEXT
1000
Adobe PDF
1000
Adobe PDF Converter
1000
My Documents
1000

1070
     0
  0
MATERIAL
  5
101A0C6
102
{ACAD_XDICTIONARY
360
101A0C7
102
}
102
{ACAD_REACTORS
330
1D3
102
}
330
1D3
100
AcDbMaterial
  1
ByBlock
 72
     0
 43
0.0008202099737533
 43
0.0
 43
0.0
 43
0.0
 43
0.0
 43
0.0008202099737533
 43
0.0
 43
0.0
 43
0.0
 43
0.0
 43
1.0
 43
0.0
 43
0.0
 43
0.0
 43
0.0
 43
1.0
 77
     0
 47
0.0008202099737533
 47
0.0
 47
0.0
 47
0.0
 47
0.0
 47
0.0008202099737533
 47
0.0
 47
0.0
 47
0.0
 47
0.0
 47
1.0
 47
0.0
 47
0.0
 47
0.0
 47
0.0
 47
1.0
171
     0
 49
0.0008202099737533
 49
0.0
 49
0.0
 49
0.0
 49
0.0
 49
0.0008202099737533
 49
0.0
 49
0.0
 49
0.0
 49
0.0
 49
1.0
 49
0.0
 49
0.0
 49
0.0
 49
0.0
 49
1.0
175
     0
142
0.0008202099737533
142
0.0
142
0.0
142
0.0
142
0.0
142
0.0008202099737533
142
0.0
142
0.0
142
0.0
142
0.0
142
1.0
142
0.0
142
0.0
142
0.0
142
0.0
142
1.0
179
     0
144
0.0008202099737533
144
0.0
144
0.0
144
0.0
144
0.0
144
0.0008202099737533
144
0.0
144
0.0
144
0.0
144
0.0
144
1.0
144
0.0
144
0.0
144
0.0
144
0.0
144
1.0
147
0.0008202099737533
147
0.0
147
0.0
147
0.0
147
0.0
147
0.0008202099737533
147
0.0
147
0.0
147
0.0
147
0.0
147
1.0
147
0.0
147
0.0
147
0.0
147
0.0
147
1.0
  0
MATERIAL
  5
101A0BE
102
{ACAD_XDICTIONARY
360
101A0BF
102
}
102
{ACAD_REACTORS
330
1D3
102
}
330
1D3
100
AcDbMaterial
  1
ByLayer
 72
     0
 43
0.0008202099737533
 43
0.0
 43
0.0
 43
0.0
 43
0.0
 43
0.0008202099737533
 43
0.0
 43
0.0
 43
0.0
 43
0.0
 43
1.0
 43
0.0
 43
0.0
 43
0.0
 43
0.0
 43
1.0
 77
     0
 47
0.0008202099737533
 47
0.0
 47
0.0
 47
0.0
 47
0.0
 47
0.0008202099737533
 47
0.0
 47
0.0
 47
0.0
 47
0.0
 47
1.0
 47
0.0
 47
0.0
 47
0.0
 47
0.0
 47
1.0
171
     0
 49
0.0008202099737533
 49
0.0
 49
0.0
 49
0.0
 49
0.0
 49
0.0008202099737533
 49
0.0
 49
0.0
 49
0.0
 49
0.0
 49
1.0
 49
0.0
 49
0.0
 49
0.0
 49
0.0
 49
1.0
175
     0
142
0.0008202099737533
142
0.0
142
0.0
142
0.0
142
0.0
142
0.0008202099737533
142
0.0
142
0.0
142
0.0
142
0.0
142
1.0
142
0.0
142
0.0
142
0.0
142
0.0
142
1.0
179
     0
144
0.0008202099737533
144
0.0
144
0.0
144
0.0
144
0.0
144
0.0008202099737533
144
0.0
144
0.0
144
0.0
144
0.0
144
1.0
144
0.0
144
0.0
144
0.0
144
0.0
144
1.0
147
0.0008202099737533
147
0.0
147
0.0
147
0.0
147
0.0
147
0.0008202099737533
147
0.0
147
0.0
147
0.0
147
0.0
147
1.0
147
0.0
147
0.0
147
0.0
147
0.0
147
1.0
  0
MATERIAL
  5
101A0CE
102
{ACAD_XDICTIONARY
360
101A0CF
102
}
102
{ACAD_REACTORS
330
1D3
102
}
330
1D3
100
AcDbMaterial
  1
Global
 72
     0
 43
0.0008202099737533
 43
0.0
 43
0.0
 43
0.0
 43
0.0
 43
0.0008202099737533
 43
0.0
 43
0.0
 43
0.0
 43
0.0
 43
1.0
 43
0.0
 43
0.0
 43
0.0
 43
0.0
 43
1.0
 77
     0
 47
0.0008202099737533
 47
0.0
 47
0.0
 47
0.0
 47
0.0
 47
0.0008202099737533
 47
0.0
 47
0.0
 47
0.0
 47
0.0
 47
1.0
 47
0.0
 47
0.0
 47
0.0
 47
0.0
 47
1.0
171
     0
 49
0.0008202099737533
 49
0.0
 49
0.0
 49
0.0
 49
0.0
 49
0.0008202099737533
 49
0.0
 49
0.0
 49
0.0
 49
0.0
 49
1.0
 49
0.0
 49
0.0
 49
0.0
 49
0.0
 49
1.0
175
     0
142
0.0008202099737533
142
0.0
142
0.0
142
0.0
142
0.0
142
0.0008202099737533
142
0.0
142
0.0
142
0.0
142
0.0
142
1.0
142
0.0
142
0.0
142
0.0
142
0.0
142
1.0
179
     0
144
0.0008202099737533
144
0.0
144
0.0
144
0.0
144
0.0
144
0.0008202099737533
144
0.0
144
0.0
144
0.0
144
0.0
144
1.0
144
0.0
144
0.0
144
0.0
144
0.0
144
1.0
147
0.0008202099737533
147
0.0
147
0.0
147
0.0
147
0.0
147
0.0008202099737533
147
0.0
147
0.0
147
0.0
147
0.0
147
1.0
147
0.0
147
0.0
147
0.0
147
0.0
147
1.0
  0
MLEADERSTYLE
  5
101A102
102
{ACAD_REACTORS
330
101A101
102
}
330
101A101
100
AcDbMLeaderStyle
179
     2
170
     2
171
     1
172
     0
 90
        2
 40
0.0
 41
0.0
173
     1
 91
-1056964608
340
14
 92
       -2
290
     1
 42
2.0
291
     1
 43
0.36
  3
Standard
 44
4.0
300

342
11
174
     1
178
     6
175
     1
176
     0
 93
-1056964608
 45
4.0
292
     0
297
     0
 46
4.0
 94
-1056964608
 47
1.0
 49
1.0
140
1.0
293
     1
141
0.0
294
     1
177
     0
142
1.0
295
     1
296
     0
143
0.125
271
     0
272
     9
273
     9
298
     1
  0
MLINESTYLE
  5
18
102
{ACAD_REACTORS
330
17
102
}
330
17
100
AcDbMlineStyle
  2
STANDARD
 70
     0
  3

 62
   256
 51
90.0
 52
90.0
 71
     2
 49
0.5
 62
   256
  6
BYLAYER
 49
-0.5
 62
   256
  6
BYLAYER
  0
ACDBPLACEHOLDER
  5
F
102
{ACAD_REACTORS
330
E
102
}
330
E
  0
SCALE
  5
101A0F0
102
{ACAD_REACTORS
330
101A0EF
102
}
330
101A0EF
100
AcDbScale
 70
     0
300
1:1
140
1.0
141
1.0
290
     1
  0
SCALE
  5
101A0F1
102
{ACAD_REACTORS
330
101A0EF
102
}
330
101A0EF
100
AcDbScale
 70
     0
300
1:2
140
1.0
141
2.0
290
     0
  0
SCALE
  5
101A0F2
102
{ACAD_REACTORS
330
101A0EF
102
}
330
101A0EF
100
AcDbScale
 70
     0
300
1:4
140
1.0
141
4.0
290
     0
  0
SCALE
  5
101A0F3
102
{ACAD_REACTORS
330
101A0EF
102
}
330
101A0EF
100
AcDbScale
 70
     0
300
1:5
140
1.0
141
5.0
290
     0
  0
SCALE
  5
101A0F4
102
{ACAD_REACTORS
330
101A0EF
102
}
330
101A0EF
100
AcDbScale
 70
     0
300
1:8
140
1.0
141
8.0
290
     0
  0
SCALE
  5
101A0F5
102
{ACAD_REACTORS
330
101A0EF
102
}
330
101A0EF
100
AcDbScale
 70
     0
300
1:10
140
1.0
141
10.0
290
     0
  0
SCALE
  5
101A0F6
102
{ACAD_REACTORS
330
101A0EF
102
}
330
101A0EF
100
AcDbScale
 70
     0
300
1:16
140
1.0
141
16.0
290
     0
  0
SCALE
  5
101A0F7
102
{ACAD_REACTORS
330
101A0EF
102
}
330
101A0EF
100
AcDbScale
 70
     0
300
1:20
140
1.0
141
20.0
290
     0
  0
SCALE
  5
101A0F8
102
{ACAD_REACTORS
330
101A0EF
102
}
330
101A0EF
100
AcDbScale
 70
     0
300
1:30
140
1.0
141
30.0
290
     0
  0
SCALE
  5
101A0F9
102
{ACAD_REACTORS
330
101A0EF
102
}
330
101A0EF
100
AcDbScale
 70
     0
300
1:40
140
1.0
141
40.0
290
     0
  0
SCALE
  5
101A0FA
102
{ACAD_REACTORS
330
101A0EF
102
}
330
101A0EF
100
AcDbScale
 70
     0
300
1:50
140
1.0
141
50.0
290
     0
  0
SCALE
  5
101A0FB
102
{ACAD_REACTORS
330
101A0EF
102
}
330
101A0EF
100
AcDbScale
 70
     0
300
1:100
140
1.0
141
100.0
290
     0
  0
SCALE
  5
101A0FC
102
{ACAD_REACTORS
330
101A0EF
102
}
330
101A0EF
100
AcDbScale
 70
     0
300
2:1
140
2.0
141
1.0
290
     0
  0
SCALE
  5
101A0FD
102
{ACAD_REACTORS
330
101A0EF
102
}
330
101A0EF
100
AcDbScale
 70
     0
300
4:1
140
4.0
141
1.0
290
     0
  0
SCALE
  5
101A0FE
102
{ACAD_REACTORS
330
101A0EF
102
}
330
101A0EF
100
AcDbScale
 70
     0
300
8:1
140
8.0
141
1.0
290
     0
  0
SCALE
  5
101A0FF
102
{ACAD_REACTORS
330
101A0EF
102
}
330
101A0EF
100
AcDbScale
 70
     0
300
10:1
140
10.0
141
1.0
290
     0
  0
SCALE
  5
101A100
102
{ACAD_REACTORS
330
101A0EF
102
}
330
101A0EF
100
AcDbScale
 70
     0
300
100:1
140
100.0
141
1.0
290
     0
  0
ACDBSECTIONVIEWSTYLE
  5
101A105
102
{ACAD_XDICTIONARY
360
101A2DB
102
}
102
{ACAD_REACTORS
330
101A103
102
}
330
101A103
100
AcDbModelDocViewStyle
 70
     0
  3
Metric50
290
     0
100
AcDbSectionViewStyle
 70
     0
 71
     0
 90
      102
 71
     1
340
11
 62
   256
 40
5.0
340
0
340
0
 62
   256
 40
5.0
300
I, O, Q, S, X, Z
 40
10.0
 90
        0
 40
2.5
 90
        0
 71
     2
340
16
 90
       25
 62
   256
340
16
 90
       50
 62
   256
 40
5.0
 40
2.5
 40
5.0
 71
     3
340
11
 62
   256
 40
5.0
 90
        0
 40
15.0
 90
        1
300
%<\AcVar ViewSectionStartId>%-%<\AcVar ViewSectionEndId>% (%<\AcVar ViewScale \f "%sn">%)
 71
     4
 62
   256
 62
   257
300
ANSI31
 40
1.0
 90
        0
290
     0
290
     0
 90
        6
 40
0.0
 40
1.570796326794896
 40
0.2617993877991494
 40
1.308996938995747
 40
-0.2617993877991494
 40
1.832595714594046
  0
TABLESTYLE
  5
1D6
102
{ACAD_XDICTIONARY
360
101A2D9
102
}
102
{ACAD_REACTORS
330
1D5
102
}
330
1D5
100
AcDbTableStyle
280
     0
  3
Standard
 70
     0
 71
     0
 40
1.5
 41
1.5
280
     0
281
     0
  7
Standard
140
4.5
170
     2
 62
     0
 63
     7
283
     0
 90
        4
 91
        0
  1

274
    -2
284
     1
 64
     0
275
    -2
285
     1
 65
     0
276
    -2
286
     1
 66
     0
277
    -2
287
     1
 67
     0
278
    -2
288
     1
 68
     0
279
    -2
289
     1
 69
     0
  7
Standard
140
6.0
170
     5
 62
     0
 63
     7
283
     0
 90
        4
 91
        0
  1

274
    -2
284
     1
 64
     0
275
    -2
285
     1
 65
     0
276
    -2
286
     1
 66
     0
277
    -2
287
     1
 67
     0
278
    -2
288
     1
 68
     0
279
    -2
289
     1
 69
     0
  7
Standard
140
4.5
170
     5
 62
     0
 63
     7
283
     0
 90
        4
 91
        0
  1

274
    -2
284
     1
 64
     0
275
    -2
285
     1
 65
     0
276
    -2
286
     1
 66
     0
277
    -2
287
     1
 67
     0
278
    -2
288
     1
 68
     0
279
    -2
289
     1
 69
     0
  0
VISUALSTYLE
  5
101A0DC
102
{ACAD_REACTORS
330
101A0D6
102
}
330
101A0D6
100
AcDbVisualStyle
  2
2dWireframe
 70
     4
177
     3
291
     0
 70
    58
 90
        0
176
     1
 90
        2
176
     1
 90
        0
176
     1
 90
        0
176
     1
 40
0.6
176
     1
 40
30.0
176
     1
 62
     7
420
 16777215
176
     1
 90
        1
176
     1
 90
        4
176
     1
 62
     7
176
     1
 62
   257
176
     1
 90
        1
176
     1
 90
        1
176
     1
 40
1.0
176
     1
 90
        0
176
     1
 62
   257
176
     1
 40
1.0
176
     1
 90
        1
176
     1
 90
        6
176
     1
 90
        2
176
     1
 62
     7
176
     1
 90
        5
176
     1
 90
        0
176
     1
 90
        0
176
     1
290
     0
176
     1
 90
        1
176
     1
 40
0.0
176
     1
 90
        0
176
     1
290
     1
176
     1
290
     1
176
     1
290
     0
176
     1
290
     0
176
     1
290
     0
176
     1
290
     0
176
     1
290
     0
176
     1
290
     0
176
     1
290
     0
176
     1
 90
       50
176
     1
 40
0.0
176
     1
 40
1.0
176
     1
 90
        0
176
     1
 62
    18
420
        0
176
     1
 90
       50
176
     1
 90
        3
176
     1
 62
     5
420
      255
176
     1
290
     0
176
     1
 90
       50
176
     1
 90
       50
176
     1
 90
       50
176
     1
290
     0
176
     1
 90
       50
176
     1
 62
   256
176
     0
 40
1.0
176
     0
 90
        2
176
     1
  1
strokes_ogs.tif
176
     1
290
     0
176
     1
 40
1.0
176
     1
 40
1.0
176
     1
  0
VISUALSTYLE
  5
101A0DB
102
{ACAD_REACTORS
330
101A0D6
102
}
330
101A0D6
100
AcDbVisualStyle
  2
Basic
 70
     7
177
     3
291
     1
 70
    58
 90
        1
176
     1
 90
        0
176
     1
 90
        1
176
     1
 90
        0
176
     1
 40
0.6
176
     1
 40
30.0
176
     1
 62
     7
420
 16777215
176
     1
 90
        0
176
     1
 90
        4
176
     1
 62
     7
176
     1
 62
   257
176
     1
 90
        1
176
     1
 90
        1
176
     1
 40
1.0
176
     1
 90
        8
176
     1
 62
     7
176
     1
 40
1.0
176
     1
 90
        1
176
     1
 90
        6
176
     1
 90
        2
176
     1
 62
     7
176
     1
 90
        5
176
     1
 90
        0
176
     1
 90
        0
176
     1
290
     0
176
     1
 90
        1
176
     1
 40
0.0
176
     1
 90
        0
176
     1
290
     0
176
     1
290
     1
176
     1
290
     1
176
     1
290
     0
176
     1
290
     0
176
     1
290
     0
176
     1
290
     0
176
     1
290
     0
176
     1
290
     0
176
     1
 90
       50
176
     1
 40
0.0
176
     1
 40
1.0
176
     1
 90
        0
176
     1
 62
    18
420
        0
176
     1
 90
       50
176
     1
 90
        3
176
     1
 62
     5
420
      255
176
     1
290
     0
176
     1
 90
       50
176
     1
 90
       50
176
     1
 90
       50
176
     1
290
     0
176
     1
 90
       50
176
     1
 62
   256
176
     0
 40
1.0
176
     0
 90
        2
176
     1
  1
strokes_ogs.tif
176
     1
290
     0
176
     1
 40
1.0
176
     1
 40
1.0
176
     1
  0
VISUALSTYLE
  5
101A0E2
102
{ACAD_REACTORS
330
101A0D6
102
}
330
101A0D6
100
AcDbVisualStyle
  2
Brighten
 70
    12
177
     3
291
     1
 70
    58
 90
        2
176
     1
 90
        2
176
     1
 90
        0
176
     1
 90
        0
176
     1
 40
0.6
176
     1
 40
30.0
176
     1
 62
     7
420
 16777215
176
     1
 90
        1
176
     1
 90
        4
176
     1
 62
     7
176
     1
 62
   257
176
     1
 90
        1
176
     1
 90
        1
176
     1
 40
1.0
176
     1
 90
        8
176
     1
 62
     7
176
     1
 40
1.0
176
     1
 90
        1
176
     1
 90
        6
176
     1
 90
        2
176
     1
 62
     7
176
     1
 90
        5
176
     1
 90
        0
176
     1
 90
        0
176
     1
290
     0
176
     1
 90
        1
176
     1
 40
50.0
176
     1
 90
        0
176
     1
290
     0
176
     1
290
     1
176
     1
290
     1
176
     1
290
     0
176
     1
290
     0
176
     1
290
     0
176
     1
290
     0
176
     1
290
     0
176
     1
290
     0
176
     1
 90
       50
176
     1
 40
0.0
176
     1
 40
1.0
176
     1
 90
        0
176
     1
 62
    18
420
        0
176
     1
 90
       50
176
     1
 90
        3
176
     1
 62
     5
420
      255
176
     1
290
     0
176
     1
 90
       50
176
     1
 90
       50
176
     1
 90
       50
176
     1
290
     0
176
     1
 90
       50
176
     1
 62
   256
176
     0
 40
1.0
176
     0
 90
        2
176
     1
  1
strokes_ogs.tif
176
     1
290
     0
176
     1
 40
1.0
176
     1
 40
1.0
176
     1
  0
VISUALSTYLE
  5
101A0E6
102
{ACAD_REACTORS
330
101A0D6
102
}
330
101A0D6
100
AcDbVisualStyle
  2
ColorChange
 70
    16
177
     3
291
     1
 70
    58
 90
        2
176
     1
 90
        2
176
     1
 90
        3
176
     1
 90
        0
176
     1
 40
0.6
176
     1
 40
30.0
176
     1
 62
     8
420
  8421504
176
     1
 90
        1
176
     1
 90
        4
176
     1
 62
     7
176
     1
 62
   257
176
     1
 90
        1
176
     1
 90
        1
176
     1
 40
1.0
176
     1
 90
        8
176
     1
 62
     8
420
  8421504
176
     1
 40
1.0
176
     1
 90
        1
176
     1
 90
        6
176
     1
 90
        2
176
     1
 62
     7
176
     1
 90
        5
176
     1
 90
        0
176
     1
 90
        0
176
     1
290
     0
176
     1
 90
        1
176
     1
 40
0.0
176
     1
 90
        0
176
     1
290
     0
176
     1
290
     1
176
     1
290
     1
176
     1
290
     0
176
     1
290
     0
176
     1
290
     0
176
     1
290
     0
176
     1
290
     0
176
     1
290
     0
176
     1
 90
       50
176
     1
 40
0.0
176
     1
 40
1.0
176
     1
 90
        0
176
     1
 62
    18
420
        0
176
     1
 90
       50
176
     1
 90
        3
176
     1
 62
     5
420
      255
176
     1
290
     0
176
     1
 90
       50
176
     1
 90
       50
176
     1
 90
       50
176
     1
290
     0
176
     1
 90
       50
176
     1
 62
   256
176
     0
 40
1.0
176
     0
 90
        2
176
     1
  1
strokes_ogs.tif
176
     1
290
     0
176
     1
 40
1.0
176
     1
 40
1.0
176
     1
  0
VISUALSTYLE
  5
101A0DF
102
{ACAD_REACTORS
330
101A0D6
102
}
330
101A0D6
100
AcDbVisualStyle
  2
Conceptual
 70
     9
177
     3
291
     0
 70
    58
 90
        3
176
     1
 90
        2
176
     1
 90
        0
176
     1
 90
        0
176
     1
 40
0.6
176
     1
 40
30.0
176
     1
 62
     7
420
 16777215
176
     1
 90
        2
176
     1
 90
        2
176
     1
 62
     7
176
     1
 62
   257
176
     1
 90
        1
176
     1
 90
        1
176
     1
 40
179.0
176
     1
 90
        8
176
     1
 62
     7
176
     1
 40
1.0
176
     1
 90
        1
176
     1
 90
        6
176
     1
 90
        2
176
     1
 62
     7
176
     1
 90
        3
176
     1
 90
        0
176
     1
 90
        0
176
     1
290
     0
176
     1
 90
        1
176
     1
 40
0.0
176
     1
 90
        0
176
     1
290
     0
176
     1
290
     1
176
     1
290
     1
176
     1
290
     0
176
     1
290
     0
176
     1
290
     0
176
     1
290
     0
176
     1
290
     0
176
     1
290
     0
176
     1
 90
       50
176
     1
 40
0.0
176
     1
 40
1.0
176
     1
 90
        0
176
     1
 62
    18
420
        0
176
     1
 90
       50
176
     1
 90
        3
176
     1
 62
     5
420
      255
176
     1
290
     0
176
     1
 90
       50
176
     1
 90
       50
176
     1
 90
       50
176
     1
290
     0
176
     1
 90
       50
176
     1
 62
   256
176
     0
 40
1.0
176
     0
 90
        2
176
     1
  1
strokes_ogs.tif
176
     1
290
     0
176
     1
 40
1.0
176
     1
 40
1.0
176
     1
  0
VISUALSTYLE
  5
101A0E1
102
{ACAD_REACTORS
330
101A0D6
102
}
330
101A0D6
100
AcDbVisualStyle
  2
Dim
 70
    11
177
     3
291
     1
 70
    58
 90
        2
176
     1
 90
        2
176
     1
 90
        0
176
     1
 90
        0
176
     1
 40
0.6
176
     1
 40
30.0
176
     1
 62
     7
420
 16777215
176
     1
 90
        1
176
     1
 90
        4
176
     1
 62
     7
176
     1
 62
   257
176
     1
 90
        1
176
     1
 90
        1
176
     1
 40
1.0
176
     1
 90
        8
176
     1
 62
     7
176
     1
 40
1.0
176
     1
 90
        1
176
     1
 90
        6
176
     1
 90
        2
176
     1
 62
     7
176
     1
 90
        5
176
     1
 90
        0
176
     1
 90
        0
176
     1
290
     0
176
     1
 90
        1
176
     1
 40
-50.0
176
     1
 90
        0
176
     1
290
     0
176
     1
290
     1
176
     1
290
     1
176
     1
290
     0
176
     1
290
     0
176
     1
290
     0
176
     1
290
     0
176
     1
290
     0
176
     1
290
     0
176
     1
 90
       50
176
     1
 40
0.0
176
     1
 40
1.0
176
     1
 90
        0
176
     1
 62
    18
420
        0
176
     1
 90
       50
176
     1
 90
        3
176
     1
 62
     5
420
      255
176
     1
290
     0
176
     1
 90
       50
176
     1
 90
       50
176
     1
 90
       50
176
     1
290
     0
176
     1
 90
       50
176
     1
 62
   256
176
     0
 40
1.0
176
     0
 90
        2
176
     1
  1
strokes_ogs.tif
176
     1
290
     0
176
     1
 40
1.0
176
     1
 40
1.0
176
     1
  0
VISUALSTYLE
  5
101A0EE
102
{ACAD_REACTORS
330
101A0D6
102
}
330
101A0D6
100
AcDbVisualStyle
  2
EdgeColorOff
 70
    22
177
     3
291
     1
 70
    58
 90
        2
176
     0
 90
        2
176
     0
 90
        0
176
     0
 90
        0
176
     0
 40
0.6
176
     0
 40
30.0
176
     0
 62
     7
420
 16777215
176
     0
 90
        1
176
     0
 90
        4
176
     0
 62
     7
176
     0
 62
   257
176
     0
 90
        1
176
     0
 90
        1
176
     0
 40
1.0
176
     0
 90
        8
176
     2
 62
     7
176
     0
 40
1.0
176
     0
 90
        1
176
     0
 90
        6
176
     0
 90
        2
176
     0
 62
     7
176
     0
 90
        5
176
     0
 90
        0
176
     0
 90
        0
176
     0
290
     0
176
     0
 90
        1
176
     0
 40
0.0
176
     0
 90
        0
176
     0
290
     0
176
     0
290
     1
176
     0
290
     1
176
     0
290
     0
176
     0
290
     0
176
     0
290
     0
176
     0
290
     0
176
     0
290
     0
176
     0
290
     0
176
     0
 90
       50
176
     0
 40
0.0
176
     0
 40
1.0
176
     0
 90
        0
176
     0
 62
    18
420
        0
176
     0
 90
       50
176
     0
 90
        3
176
     0
 62
     5
420
      255
176
     0
290
     0
176
     0
 90
       50
176
     0
 90
       50
176
     0
 90
       50
176
     0
290
     0
176
     0
 90
       50
176
     0
 62
   256
176
     0
 40
1.0
176
     0
 90
        2
176
     0
  1
strokes_ogs.tif
176
     0
290
     0
176
     0
 40
1.0
176
     0
 40
1.0
176
     0
  0
VISUALSTYLE
  5
101A0E5
102
{ACAD_REACTORS
330
101A0D6
102
}
330
101A0D6
100
AcDbVisualStyle
  2
Facepattern
 70
    15
177
     3
291
     1
 70
    58
 90
        2
176
     1
 90
        2
176
     1
 90
        0
176
     1
 90
        0
176
     1
 40
0.6
176
     1
 40
30.0
176
     1
 62
     7
420
 16777215
176
     1
 90
        1
176
     1
 90
        4
176
     1
 62
     7
176
     1
 62
   257
176
     1
 90
        1
176
     1
 90
        1
176
     1
 40
1.0
176
     1
 90
        8
176
     1
 62
     7
176
     1
 40
1.0
176
     1
 90
        1
176
     1
 90
        6
176
     1
 90
        2
176
     1
 62
     7
176
     1
 90
        5
176
     1
 90
        0
176
     1
 90
        0
176
     1
290
     0
176
     1
 90
        1
176
     1
 40
0.0
176
     1
 90
        0
176
     1
290
     0
176
     1
290
     1
176
     1
290
     1
176
     1
290
     0
176
     1
290
     0
176
     1
290
     0
176
     1
290
     0
176
     1
290
     0
176
     1
290
     0
176
     1
 90
       50
176
     1
 40
0.0
176
     1
 40
1.0
176
     1
 90
        0
176
     1
 62
    18
420
        0
176
     1
 90
       50
176
     1
 90
        3
176
     1
 62
     5
420
      255
176
     1
290
     0
176
     1
 90
       50
176
     1
 90
       50
176
     1
 90
       50
176
     1
290
     0
176
     1
 90
       50
176
     1
 62
   256
176
     0
 40
1.0
176
     0
 90
        2
176
     1
  1
strokes_ogs.tif
176
     1
290
     0
176
     1
 40
1.0
176
     1
 40
1.0
176
     1
  0
VISUALSTYLE
  5
101A0D7
102
{ACAD_REACTORS
330
101A0D6
102
}
330
101A0D6
100
AcDbVisualStyle
  2
Flat
 70
     0
177
     3
291
     1
 70
    58
 90
        2
176
     1
 90
        1
176
     1
 90
        1
176
     1
 90
        2
176
     1
 40
0.6
176
     1
 40
30.0
176
     1
 62
     7
420
 16777215
176
     1
 90
        0
176
     1
 90
        0
176
     1
 62
     7
176
     1
 62
   257
176
     1
 90
        1
176
     1
 90
        1
176
     1
 40
1.0
176
     1
 90
        8
176
     1
 62
     7
176
     1
 40
1.0
176
     1
 90
        1
176
     1
 90
        6
176
     1
 90
        2
176
     1
 62
     7
176
     1
 90
        5
176
     1
 90
        0
176
     1
 90
        0
176
     1
290
     0
176
     1
 90
       13
176
     1
 40
0.0
176
     1
 90
        0
176
     1
290
     0
176
     1
290
     1
176
     1
290
     1
176
     1
290
     0
176
     1
290
     0
176
     1
290
     0
176
     1
290
     0
176
     1
290
     0
176
     1
290
     0
176
     1
 90
       50
176
     1
 40
0.0
176
     1
 40
1.0
176
     1
 90
        0
176
     1
 62
    18
420
        0
176
     1
 90
       50
176
     1
 90
        3
176
     1
 62
     5
420
      255
176
     1
290
     0
176
     1
 90
       50
176
     1
 90
       50
176
     1
 90
       50
176
     1
290
     0
176
     1
 90
       50
176
     1
 62
   256
176
     0
 40
1.0
176
     0
 90
        2
176
     1
  1
strokes_ogs.tif
176
     1
290
     0
176
     1
 40
1.0
176
     1
 40
1.0
176
     1
  0
VISUALSTYLE
  5
101A0D8
102
{ACAD_REACTORS
330
101A0D6
102
}
330
101A0D6
100
AcDbVisualStyle
  2
FlatWithEdges
 70
     1
177
     3
291
     1
 70
    58
 90
        2
176
     1
 90
        1
176
     1
 90
        1
176
     1
 90
        2
176
     1
 40
0.6
176
     1
 40
30.0
176
     1
 62
     7
420
 16777215
176
     1
 90
        1
176
     1
 90
        0
176
     1
 62
     7
176
     1
 62
   257
176
     1
 90
        1
176
     1
 90
        1
176
     1
 40
1.0
176
     1
 90
        0
176
     1
 62
   257
176
     1
 40
1.0
176
     1
 90
        1
176
     1
 90
        6
176
     1
 90
        2
176
     1
 62
     7
176
     1
 90
        5
176
     1
 90
        0
176
     1
 90
        0
176
     1
290
     0
176
     1
 90
       13
176
     1
 40
0.0
176
     1
 90
        0
176
     1
290
     0
176
     1
290
     1
176
     1
290
     1
176
     1
290
     0
176
     1
290
     0
176
     1
290
     0
176
     1
290
     0
176
     1
290
     0
176
     1
290
     0
176
     1
 90
       50
176
     1
 40
0.0
176
     1
 40
1.0
176
     1
 90
        0
176
     1
 62
    18
420
        0
176
     1
 90
       50
176
     1
 90
        3
176
     1
 62
     5
420
      255
176
     1
290
     0
176
     1
 90
       50
176
     1
 90
       50
176
     1
 90
       50
176
     1
290
     0
176
     1
 90
       50
176
     1
 62
   256
176
     0
 40
1.0
176
     0
 90
        2
176
     1
  1
strokes_ogs.tif
176
     1
290
     0
176
     1
 40
1.0
176
     1
 40
1.0
176
     1
  0
VISUALSTYLE
  5
101A0D9
102
{ACAD_REACTORS
330
101A0D6
102
}
330
101A0D6
100
AcDbVisualStyle
  2
Gouraud
 70
     2
177
     3
291
     1
 70
    58
 90
        2
176
     1
 90
        2
176
     1
 90
        1
176
     1
 90
        2
176
     1
 40
0.6
176
     1
 40
30.0
176
     1
 62
     7
420
 16777215
176
     1
 90
        0
176
     1
 90
        0
176
     1
 62
     7
176
     1
 62
   257
176
     1
 90
        1
176
     1
 90
        1
176
     1
 40
1.0
176
     1
 90
        0
176
     1
 62
     7
176
     1
 40
1.0
176
     1
 90
        1
176
     1
 90
        6
176
     1
 90
        2
176
     1
 62
     7
176
     1
 90
        5
176
     1
 90
        0
176
     1
 90
        0
176
     1
290
     0
176
     1
 90
       13
176
     1
 40
0.0
176
     1
 90
        0
176
     1
290
     0
176
     1
290
     1
176
     1
290
     1
176
     1
290
     0
176
     1
290
     0
176
     1
290
     0
176
     1
290
     0
176
     1
290
     0
176
     1
290
     0
176
     1
 90
       50
176
     1
 40
0.0
176
     1
 40
1.0
176
     1
 90
        0
176
     1
 62
    18
420
        0
176
     1
 90
       50
176
     1
 90
        3
176
     1
 62
     5
420
      255
176
     1
290
     0
176
     1
 90
       50
176
     1
 90
       50
176
     1
 90
       50
176
     1
290
     0
176
     1
 90
       50
176
     1
 62
   256
176
     0
 40
1.0
176
     0
 90
        2
176
     1
  1
strokes_ogs.tif
176
     1
290
     0
176
     1
 40
1.0
176
     1
 40
1.0
176
     1
  0
VISUALSTYLE
  5
101A0DA
102
{ACAD_REACTORS
330
101A0D6
102
}
330
101A0D6
100
AcDbVisualStyle
  2
GouraudWithEdges
 70
     3
177
     3
291
     1
 70
    58
 90
        2
176
     1
 90
        2
176
     1
 90
        1
176
     1
 90
        2
176
     1
 40
0.6
176
     1
 40
30.0
176
     1
 62
     7
420
 16777215
176
     1
 90
        1
176
     1
 90
        0
176
     1
 62
     7
176
     1
 62
   257
176
     1
 90
        1
176
     1
 90
        1
176
     1
 40
1.0
176
     1
 90
        0
176
     1
 62
   257
176
     1
 40
1.0
176
     1
 90
        1
176
     1
 90
        6
176
     1
 90
        2
176
     1
 62
     7
176
     1
 90
        5
176
     1
 90
        0
176
     1
 90
        0
176
     1
290
     0
176
     1
 90
       13
176
     1
 40
0.0
176
     1
 90
        0
176
     1
290
     0
176
     1
290
     1
176
     1
290
     1
176
     1
290
     0
176
     1
290
     0
176
     1
290
     0
176
     1
290
     0
176
     1
290
     0
176
     1
290
     0
176
     1
 90
       50
176
     1
 40
0.0
176
     1
 40
1.0
176
     1
 90
        0
176
     1
 62
    18
420
        0
176
     1
 90
       50
176
     1
 90
        3
176
     1
 62
     5
420
      255
176
     1
290
     0
176
     1
 90
       50
176
     1
 90
       50
176
     1
 90
       50
176
     1
290
     0
176
     1
 90
       50
176
     1
 62
   256
176
     0
 40
1.0
176
     0
 90
        2
176
     1
  1
strokes_ogs.tif
176
     1
290
     0
176
     1
 40
1.0
176
     1
 40
1.0
176
     1
  0
VISUALSTYLE
  5
101A0DE
102
{ACAD_REACTORS
330
101A0D6
102
}
330
101A0D6
100
AcDbVisualStyle
  2
Hidden
 70
     6
177
     3
291
     0
 70
    58
 90
        1
176
     1
 90
        2
176
     1
 90
        2
176
     1
 90
        0
176
     1
 40
0.6
176
     1
 40
30.0
176
     1
 62
     7
420
 16777215
176
     1
 90
        2
176
     1
 90
        2
176
     1
 62
     7
176
     1
 62
   257
176
     1
 90
        2
176
     1
 90
        1
176
     1
 40
40.0
176
     1
 90
        0
176
     1
 62
   257
176
     1
 40
1.0
176
     1
 90
        1
176
     1
 90
        6
176
     1
 90
        2
176
     1
 62
     7
176
     1
 90
        3
176
     1
 90
        0
176
     1
 90
        0
176
     1
290
     0
176
     1
 90
        1
176
     1
 40
0.0
176
     1
 90
        0
176
     1
290
     0
176
     1
290
     1
176
     1
290
     1
176
     1
290
     0
176
     1
290
     0
176
     1
290
     0
176
     1
290
     0
176
     1
290
     0
176
     1
290
     0
176
     1
 90
       50
176
     1
 40
0.0
176
     1
 40
1.0
176
     1
 90
        0
176
     1
 62
    18
420
        0
176
     1
 90
       50
176
     1
 90
        3
176
     1
 62
     5
420
      255
176
     1
290
     0
176
     1
 90
       50
176
     1
 90
       50
176
     1
 90
       50
176
     1
290
     0
176
     1
 90
       50
176
     1
 62
   256
176
     0
 40
1.0
176
     0
 90
        2
176
     1
  1
strokes_ogs.tif
176
     1
290
     0
176
     1
 40
1.0
176
     1
 40
1.0
176
     1
  0
VISUALSTYLE
  5
101A0EC
102
{ACAD_REACTORS
330
101A0D6
102
}
330
101A0D6
100
AcDbVisualStyle
  2
JitterOff
 70
    20
177
     3
291
     1
 70
    58
 90
        2
176
     0
 90
        2
176
     0
 90
        0
176
     0
 90
        0
176
     0
 40
0.6
176
     0
 40
30.0
176
     0
 62
     7
420
 16777215
176
     0
 90
        1
176
     0
 90
        4
176
     0
 62
     7
176
     0
 62
   257
176
     0
 90
        1
176
     0
 90
        1
176
     0
 40
1.0
176
     0
 90
       10
176
     2
 62
     7
176
     0
 40
1.0
176
     0
 90
        1
176
     0
 90
        6
176
     0
 90
        2
176
     0
 62
     7
176
     0
 90
        5
176
     0
 90
        0
176
     0
 90
        0
176
     0
290
     0
176
     0
 90
        1
176
     0
 40
0.0
176
     0
 90
        0
176
     0
290
     0
176
     0
290
     1
176
     0
290
     1
176
     0
290
     0
176
     0
290
     0
176
     0
290
     0
176
     0
290
     0
176
     0
290
     0
176
     0
290
     0
176
     0
 90
       50
176
     0
 40
0.0
176
     0
 40
1.0
176
     0
 90
        0
176
     0
 62
    18
420
        0
176
     0
 90
       50
176
     0
 90
        3
176
     0
 62
     5
420
      255
176
     0
290
     0
176
     0
 90
       50
176
     0
 90
       50
176
     0
 90
       50
176
     0
290
     0
176
     0
 90
       50
176
     0
 62
   256
176
     0
 40
1.0
176
     0
 90
        2
176
     0
  1
strokes_ogs.tif
176
     0
290
     0
176
     0
 40
1.0
176
     0
 40
1.0
176
     0
  0
VISUALSTYLE
  5
101A0E4
102
{ACAD_REACTORS
330
101A0D6
102
}
330
101A0D6
100
AcDbVisualStyle
  2
Linepattern
 70
    14
177
     3
291
     1
 70
    58
 90
        2
176
     1
 90
        2
176
     1
 90
        0
176
     1
 90
        0
176
     1
 40
0.6
176
     1
 40
30.0
176
     1
 62
     7
420
 16777215
176
     1
 90
        1
176
     1
 90
        4
176
     1
 62
     7
176
     1
 62
   257
176
     1
 90
        7
176
     1
 90
        7
176
     1
 40
1.0
176
     1
 90
        8
176
     1
 62
     7
176
     1
 40
1.0
176
     1
 90
        1
176
     1
 90
        6
176
     1
 90
        2
176
     1
 62
     7
176
     1
 90
        5
176
     1
 90
        0
176
     1
 90
        0
176
     1
290
     0
176
     1
 90
        1
176
     1
 40
0.0
176
     1
 90
        0
176
     1
290
     0
176
     1
290
     1
176
     1
290
     1
176
     1
290
     0
176
     1
290
     0
176
     1
290
     0
176
     1
290
     0
176
     1
290
     0
176
     1
290
     0
176
     1
 90
       50
176
     1
 40
0.0
176
     1
 40
1.0
176
     1
 90
        0
176
     1
 62
    18
420
        0
176
     1
 90
       50
176
     1
 90
        3
176
     1
 62
     5
420
      255
176
     1
290
     0
176
     1
 90
       50
176
     1
 90
       50
176
     1
 90
       50
176
     1
290
     0
176
     1
 90
       50
176
     1
 62
   256
176
     0
 40
1.0
176
     0
 90
        2
176
     1
  1
strokes_ogs.tif
176
     1
290
     0
176
     1
 40
1.0
176
     1
 40
1.0
176
     1
  0
VISUALSTYLE
  5
101A0ED
102
{ACAD_REACTORS
330
101A0D6
102
}
330
101A0D6
100
AcDbVisualStyle
  2
OverhangOff
 70
    21
177
     3
291
     1
 70
    58
 90
        2
176
     0
 90
        2
176
     0
 90
        0
176
     0
 90
        0
176
     0
 40
0.6
176
     0
 40
30.0
176
     0
 62
     7
420
 16777215
176
     0
 90
        1
176
     0
 90
        4
176
     0
 62
     7
176
     0
 62
   257
176
     0
 90
        1
176
     0
 90
        1
176
     0
 40
1.0
176
     0
 90
        9
176
     2
 62
     7
176
     0
 40
1.0
176
     0
 90
        1
176
     0
 90
        6
176
     0
 90
        2
176
     0
 62
     7
176
     0
 90
        5
176
     0
 90
        0
176
     0
 90
        0
176
     0
290
     0
176
     0
 90
        1
176
     0
 40
0.0
176
     0
 90
        0
176
     0
290
     0
176
     0
290
     1
176
     0
290
     1
176
     0
290
     0
176
     0
290
     0
176
     0
290
     0
176
     0
290
     0
176
     0
290
     0
176
     0
290
     0
176
     0
 90
       50
176
     0
 40
0.0
176
     0
 40
1.0
176
     0
 90
        0
176
     0
 62
    18
420
        0
176
     0
 90
       50
176
     0
 90
        3
176
     0
 62
     5
420
      255
176
     0
290
     0
176
     0
 90
       50
176
     0
 90
       50
176
     0
 90
       50
176
     0
290
     0
176
     0
 90
       50
176
     0
 62
   256
176
     0
 40
1.0
176
     0
 90
        2
176
     0
  1
strokes_ogs.tif
176
     0
290
     0
176
     0
 40
1.0
176
     0
 40
1.0
176
     0
  0
VISUALSTYLE
  5
101A0E0
102
{ACAD_REACTORS
330
101A0D6
102
}
330
101A0D6
100
AcDbVisualStyle
  2
Realistic
 70
     8
177
     3
291
     0
 70
    58
 90
        2
176
     1
 90
        3
176
     1
 90
        0
176
     1
 90
        2
176
     1
 40
0.6
176
     1
 40
30.0
176
     1
 62
     7
420
 16777215
176
     1
 90
        0
176
     1
 90
        0
176
     1
 62
     7
176
     1
 62
   257
176
     1
 90
        1
176
     1
 90
        1
176
     1
 40
1.0
176
     1
 90
        8
176
     1
 62
   257
176
     1
 40
1.0
176
     1
 90
        1
176
     1
 90
        6
176
     1
 90
        2
176
     1
 62
     7
176
     1
 90
        3
176
     1
 90
        0
176
     1
 90
        0
176
     1
290
     0
176
     1
 90
       13
176
     1
 40
0.0
176
     1
 90
        0
176
     1
290
     0
176
     1
290
     1
176
     1
290
     1
176
     1
290
     0
176
     1
290
     0
176
     1
290
     0
176
     1
290
     0
176
     1
290
     0
176
     1
290
     0
176
     1
 90
       50
176
     1
 40
0.0
176
     1
 40
1.0
176
     1
 90
        0
176
     1
 62
    18
420
        0
176
     1
 90
       50
176
     1
 90
        3
176
     1
 62
     5
420
      255
176
     1
290
     0
176
     1
 90
       50
176
     1
 90
       50
176
     1
 90
       50
176
     1
290
     0
176
     1
 90
       50
176
     1
 62
   256
176
     0
 40
1.0
176
     0
 90
        2
176
     1
  1
strokes_ogs.tif
176
     1
290
     0
176
     1
 40
1.0
176
     1
 40
1.0
176
     1
  0
VISUALSTYLE
  5
101A0EB
102
{ACAD_REACTORS
330
101A0D6
102
}
330
101A0D6
100
AcDbVisualStyle
  2
Shaded
 70
    27
177
     3
291
     0
 70
    58
 90
        2
176
     1
 90
        2
176
     1
 90
        1
176
     1
 90
        2
176
     1
 40
0.6
176
     1
 40
30.0
176
     1
 62
     7
420
 16777215
176
     1
 90
        0
176
     1
 90
        4
176
     1
 62
     7
176
     1
 62
   257
176
     1
 90
        1
176
     1
 90
        1
176
     1
 40
1.0
176
     1
 90
        8
176
     1
 62
   257
176
     1
 40
1.0
176
     1
 90
        1
176
     1
 90
        6
176
     1
 90
        2
176
     1
 62
     8
420
  7895160
176
     1
 90
        3
176
     1
 90
        0
176
     1
 90
        0
176
     1
290
     0
176
     1
 90
        5
176
     1
 40
0.0
176
     1
 90
        0
176
     1
290
     0
176
     1
290
     1
176
     1
290
     1
176
     1
290
     0
176
     1
290
     0
176
     1
290
     0
176
     1
290
     0
176
     1
290
     0
176
     1
290
     0
176
     1
 90
       50
176
     1
 40
0.0
176
     1
 40
1.0
176
     1
 90
        0
176
     1
 62
    18
420
        0
176
     1
 90
       50
176
     1
 90
        3
176
     1
 62
     5
420
      255
176
     1
290
     0
176
     1
 90
       50
176
     1
 90
       50
176
     1
 90
       50
176
     1
290
     0
176
     1
 90
       50
176
     1
 62
   256
176
     0
 40
1.0
176
     0
 90
        2
176
     1
  1
strokes_ogs.tif
176
     1
290
     0
176
     1
 40
1.0
176
     1
 40
1.0
176
     1
  0
VISUALSTYLE
  5
101A0EA
102
{ACAD_REACTORS
330
101A0D6
102
}
330
101A0D6
100
AcDbVisualStyle
  2
Shaded with edges
 70
    26
177
     3
291
     0
 70
    58
 90
        2
176
     1
 90
        2
176
     1
 90
        1
176
     1
 90
        2
176
     1
 40
0.6
176
     1
 40
30.0
176
     1
 62
     7
420
 16777215
176
     1
 90
        1
176
     1
 90
        2
176
     1
 62
     7
176
     1
 62
   257
176
     1
 90
        2
176
     1
 90
        1
176
     1
 40
1.0
176
     1
 90
        8
176
     1
 62
   257
176
     1
 40
1.0
176
     1
 90
        1
176
     1
 90
        6
176
     1
 90
        2
176
     1
 62
     7
176
     1
 90
        3
176
     1
 90
        0
176
     1
 90
        0
176
     1
290
     0
176
     1
 90
        5
176
     1
 40
0.0
176
     1
 90
        0
176
     1
290
     0
176
     1
290
     1
176
     1
290
     1
176
     1
290
     0
176
     1
290
     0
176
     1
290
     0
176
     1
290
     0
176
     1
290
     0
176
     1
290
     0
176
     1
 90
       50
176
     1
 40
0.0
176
     1
 40
1.0
176
     1
 90
        0
176
     1
 62
    18
420
        0
176
     1
 90
       50
176
     1
 90
        3
176
     1
 62
     5
420
      255
176
     1
290
     0
176
     1
 90
       50
176
     1
 90
       50
176
     1
 90
       50
176
     1
290
     0
176
     1
 90
       50
176
     1
 62
   256
176
     0
 40
1.0
176
     0
 90
        2
176
     1
  1
strokes_ogs.tif
176
     1
290
     0
176
     1
 40
1.0
176
     1
 40
1.0
176
     1
  0
VISUALSTYLE
  5
101A0E7
102
{ACAD_REACTORS
330
101A0D6
102
}
330
101A0D6
100
AcDbVisualStyle
  2
Shades of Gray
 70
    23
177
     3
291
     0
 70
    58
 90
        2
176
     1
 90
        2
176
     1
 90
        3
176
     1
 90
        0
176
     1
 40
0.6
176
     1
 40
30.0
176
     1
 62
     7
420
 16777215
176
     1
 90
        2
176
     1
 90
        2
176
     1
 62
     7
176
     1
 62
     7
176
     1
 90
        1
176
     1
 90
        1
176
     1
 40
40.0
176
     1
 90
        8
176
     1
 62
     7
176
     1
 40
1.0
176
     1
 90
        1
176
     1
 90
        6
176
     1
 90
        2
176
     1
 62
     7
176
     1
 90
        3
176
     1
 90
        0
176
     1
 90
        0
176
     1
290
     0
176
     1
 90
        1
176
     1
 40
0.0
176
     1
 90
        0
176
     1
290
     0
176
     1
290
     1
176
     1
290
     1
176
     1
290
     0
176
     1
290
     0
176
     1
290
     0
176
     1
290
     0
176
     1
290
     0
176
     1
290
     0
176
     1
 90
       50
176
     1
 40
0.0
176
     1
 40
1.0
176
     1
 90
        0
176
     1
 62
    18
420
        0
176
     1
 90
       50
176
     1
 90
        3
176
     1
 62
     5
420
      255
176
     1
290
     0
176
     1
 90
       50
176
     1
 90
       50
176
     1
 90
       50
176
     1
290
     0
176
     1
 90
       50
176
     1
 62
   256
176
     0
 40
1.0
176
     0
 90
        2
176
     1
  1
strokes_ogs.tif
176
     1
290
     0
176
     1
 40
1.0
176
     1
 40
1.0
176
     1
  0
VISUALSTYLE
  5
101A0E8
102
{ACAD_REACTORS
330
101A0D6
102
}
330
101A0D6
100
AcDbVisualStyle
  2
Sketchy
 70
    24
177
     3
291
     0
 70
    58
 90
        1
176
     1
 90
        2
176
     1
 90
        2
176
     1
 90
        0
176
     1
 40
0.6
176
     1
 40
30.0
176
     1
 62
     7
420
 16777215
176
     1
 90
        2
176
     1
 90
        2
176
     1
 62
     7
176
     1
 62
     7
176
     1
 90
        1
176
     1
 90
        1
176
     1
 40
40.0
176
     1
 90
       11
176
     1
 62
     7
176
     1
 40
1.0
176
     1
 90
        1
176
     1
 90
        6
176
     1
 90
        2
176
     1
 62
     7
176
     1
 90
        6
176
     1
 90
        0
176
     1
 90
        0
176
     1
290
     0
176
     1
 90
        1
176
     1
 40
0.0
176
     1
 90
        0
176
     1
290
     0
176
     1
290
     1
176
     1
290
     1
176
     1
290
     0
176
     1
290
     0
176
     1
290
     0
176
     1
290
     0
176
     1
290
     0
176
     1
290
     0
176
     1
 90
       50
176
     1
 40
0.0
176
     1
 40
1.0
176
     1
 90
        0
176
     1
 62
    18
420
        0
176
     1
 90
       50
176
     1
 90
        3
176
     1
 62
     5
420
      255
176
     1
290
     0
176
     1
 90
       50
176
     1
 90
       50
176
     1
 90
       50
176
     1
290
     0
176
     1
 90
       50
176
     1
 62
   256
176
     0
 40
1.0
176
     0
 90
        2
176
     1
  1
strokes_ogs.tif
176
     1
290
     0
176
     1
 40
1.0
176
     1
 40
1.0
176
     1
  0
VISUALSTYLE
  5
101A0E3
102
{ACAD_REACTORS
330
101A0D6
102
}
330
101A0D6
100
AcDbVisualStyle
  2
Thicken
 70
    13
177
     3
291
     1
 70
    58
 90
        2
176
     1
 90
        2
176
     1
 90
        0
176
     1
 90
        0
176
     1
 40
0.6
176
     1
 40
30.0
176
     1
 62
     7
420
 16777215
176
     1
 90
        1
176
     1
 90
        4
176
     1
 62
     7
176
     1
 62
   257
176
     1
 90
        1
176
     1
 90
        1
176
     1
 40
1.0
176
     1
 90
       12
176
     1
 62
     7
176
     1
 40
1.0
176
     1
 90
        1
176
     1
 90
        6
176
     1
 90
        2
176
     1
 62
     7
176
     1
 90
        5
176
     1
 90
        0
176
     1
 90
        0
176
     1
290
     0
176
     1
 90
        1
176
     1
 40
0.0
176
     1
 90
        0
176
     1
290
     0
176
     1
290
     1
176
     1
290
     1
176
     1
290
     0
176
     1
290
     0
176
     1
290
     0
176
     1
290
     0
176
     1
290
     0
176
     1
290
     0
176
     1
 90
       50
176
     1
 40
0.0
176
     1
 40
1.0
176
     1
 90
        0
176
     1
 62
    18
420
        0
176
     1
 90
       50
176
     1
 90
        3
176
     1
 62
     5
420
      255
176
     1
290
     0
176
     1
 90
       50
176
     1
 90
       50
176
     1
 90
       50
176
     1
290
     0
176
     1
 90
       50
176
     1
 62
   256
176
     0
 40
1.0
176
     0
 90
        2
176
     1
  1
strokes_ogs.tif
176
     1
290
     0
176
     1
 40
1.0
176
     1
 40
1.0
176
     1
  0
VISUALSTYLE
  5
101A0DD
102
{ACAD_REACTORS
330
101A0D6
102
}
330
101A0D6
100
AcDbVisualStyle
  2
Wireframe
 70
     5
177
     3
291
     0
 70
    58
 90
        0
176
     1
 90
        2
176
     1
 90
        0
176
     1
 90
        0
176
     1
 40
0.6
176
     1
 40
30.0
176
     1
 62
     7
420
 16777215
176
     1
 90
        1
176
     1
 90
        4
176
     1
 62
     7
176
     1
 62
   257
176
     1
 90
        1
176
     1
 90
        1
176
     1
 40
1.0
176
     1
 90
        0
176
     1
 62
   257
176
     1
 40
1.0
176
     1
 90
        1
176
     1
 90
        6
176
     1
 90
        2
176
     1
 62
     7
176
     1
 90
        3
176
     1
 90
        0
176
     1
 90
        0
176
     1
290
     0
176
     1
 90
        1
176
     1
 40
0.0
176
     1
 90
        0
176
     1
290
     0
176
     1
290
     1
176
     1
290
     1
176
     1
290
     0
176
     1
290
     0
176
     1
290
     0
176
     1
290
     0
176
     1
290
     0
176
     1
290
     0
176
     1
 90
       50
176
     1
 40
0.0
176
     1
 40
1.0
176
     1
 90
        0
176
     1
 62
    18
420
        0
176
     1
 90
       50
176
     1
 90
        3
176
     1
 62
     5
420
      255
176
     1
290
     0
176
     1
 90
       50
176
     1
 90
       50
176
     1
 90
       50
176
     1
290
     0
176
     1
 90
       50
176
     1
 62
   256
176
     0
 40
1.0
176
     0
 90
        2
176
     1
  1
strokes_ogs.tif
176
     1
290
     0
176
     1
 40
1.0
176
     1
 40
1.0
176
     1
  0
VISUALSTYLE
  5
101A0E9
102
{ACAD_REACTORS
330
101A0D6
102
}
330
101A0D6
100
AcDbVisualStyle
  2
X-Ray
 70
    25
177
     3
291
     0
 70
    58
 90
        2
176
     1
 90
        2
176
     1
 90
        1
176
     1
 90
        1
176
     1
 40
0.5
176
     1
 40
30.0
176
     1
 62
     7
420
 16777215
176
     1
 90
        1
176
     1
 90
        0
176
     1
 62
     7
176
     1
 62
   257
176
     1
 90
        1
176
     1
 90
        1
176
     1
 40
1.0
176
     1
 90
        8
176
     1
 62
     7
176
     1
 40
1.0
176
     1
 90
        1
176
     1
 90
        6
176
     1
 90
        2
176
     1
 62
     7
176
     1
 90
        3
176
     1
 90
        0
176
     1
 90
        0
176
     1
290
     0
176
     1
 90
       13
176
     1
 40
0.0
176
     1
 90
        0
176
     1
290
     0
176
     1
290
     1
176
     1
290
     1
176
     1
290
     0
176
     1
290
     0
176
     1
290
     0
176
     1
290
     0
176
     1
290
     0
176
     1
290
     0
176
     1
 90
       50
176
     1
 40
0.0
176
     1
 40
1.0
176
     1
 90
        0
176
     1
 62
    18
420
        0
176
     1
 90
       50
176
     1
 90
        3
176
     1
 62
     5
420
      255
176
     1
290
     0
176
     1
 90
       50
176
     1
 90
       50
176
     1
 90
       50
176
     1
290
     0
176
     1
 90
       50
176
     1
 62
   256
176
     0
 40
1.0
176
     0
 90
        2
176
     1
  1
strokes_ogs.tif
176
     1
290
     0
176
     1
 40
1.0
176
     1
 40
1.0
176
     1
  0
DICTIONARYVAR
  5
101A2D5
102
{ACAD_REACTORS
330
265
102
}
330
265
100
DictionaryVariables
280
     0
  1
1:1
  0
DICTIONARYVAR
  5
101A2D1
102
{ACAD_REACTORS
330
265
102
}
330
265
100
DictionaryVariables
280
     0
  1
STANDARD
  0
DICTIONARYVAR
  5
266
102
{ACAD_REACTORS
330
265
102
}
330
265
100
DictionaryVariables
280
     0
  1
STANDARD
  0
DICTIONARYVAR
  5
101A2D2
102
{ACAD_REACTORS
330
265
102
}
330
265
100
DictionaryVariables
280
     0
  1
Metric50
  0
DICTIONARYVAR
  5
101A2D3
102
{ACAD_REACTORS
330
265
102
}
330
265
100
DictionaryVariables
280
     0
  1
Metric50
  0
DICTIONARYVAR
  5
19E91
102
{ACAD_REACTORS
330
265
102
}
330
265
100
DictionaryVariables
280
     0
  1
1
  0
DICTIONARYVAR
  5
101A2D7
102
{ACAD_REACTORS
330
265
102
}
330
265
100
DictionaryVariables
280
     0
  1
1
  0
DICTIONARYVAR
  5
101A2D8
102
{ACAD_REACTORS
330
265
102
}
330
265
100
DictionaryVariables
280
     0
  1
15
  0
DICTIONARYVAR
  5
101A2D6
102
{ACAD_REACTORS
330
265
102
}
330
265
100
DictionaryVariables
280
     0
  1
0
  0
DICTIONARYVAR
  5
101A2D4
102
{ACAD_REACTORS
330
265
102
}
330
265
100
DictionaryVariables
280
     0
  1
0
  0
DICTIONARYVAR
  5
19E92
102
{ACAD_REACTORS
330
265
102
}
330
265
100
DictionaryVariables
280
     0
  1

  0
DICTIONARY
  5
101A2DD
330
101A107
100
AcDbDictionary
280
     1
281
     1
  3
ACAD_XREC_ROUNDTRIP
360
101A2DE
  0
DICTIONARY
  5
101A0C7
330
101A0C6
100
AcDbDictionary
280
     1
281
     1
  3
BUMPTILE
360
101A0C9
  3
DIFFUSETILE
360
101A0C8
  3
OPACITYTILE
360
101A0CC
  3
REFLECTIONTILE
360
101A0CB
  3
REFRACTIONTILE
360
101A0CD
  3
SPECULARTILE
360
101A0CA
  0
DICTIONARY
  5
101A0BF
330
101A0BE
100
AcDbDictionary
280
     1
281
     1
  3
BUMPTILE
360
101A0C1
  3
DIFFUSETILE
360
101A0C0
  3
OPACITYTILE
360
101A0C4
  3
REFLECTIONTILE
360
101A0C3
  3
REFRACTIONTILE
360
101A0C5
  3
SPECULARTILE
360
101A0C2
  0
DICTIONARY
  5
101A0CF
330
101A0CE
100
AcDbDictionary
280
     1
281
     1
  3
BUMPTILE
360
101A0D1
  3
DIFFUSETILE
360
101A0D0
  3
OPACITYTILE
360
101A0D4
  3
REFLECTIONTILE
360
101A0D3
  3
REFRACTIONTILE
360
101A0D5
  3
SPECULARTILE
360
101A0D2
  0
DICTIONARY
  5
101A2DB
330
101A105
100
AcDbDictionary
280
     1
281
     1
  3
ACAD_XREC_ROUNDTRIP
360
101A2DC
  0
DICTIONARY
  5
101A2D9
330
1D6
100
AcDbDictionary
280
     1
281
     1
  3
ACAD_ROUNDTRIP_2008_TABLESTYLE_CELLSTYLEMAP
360
101A2DA
  0
XRECORD
  5
101A2DE
102
{ACAD_REACTORS
330
101A2DD
102
}
330
101A2DD
100
AcDbXrecord
280
     1
102
DISPLAYNAME
  1
Metric50
102
FLAGS
 90
        0
  0
XRECORD
  5
101A0C9
102
{ACAD_REACTORS
330
101A0C7
102
}
330
101A0C7
100
AcDbXrecord
280
     1
270
     1
271
     1
  0
XRECORD
  5
101A0C8
102
{ACAD_REACTORS
330
101A0C7
102
}
330
101A0C7
100
AcDbXrecord
280
     1
270
     1
271
     1
  0
XRECORD
  5
101A0CC
102
{ACAD_REACTORS
330
101A0C7
102
}
330
101A0C7
100
AcDbXrecord
280
     1
270
     1
271
     1
  0
XRECORD
  5
101A0CB
102
{ACAD_REACTORS
330
101A0C7
102
}
330
101A0C7
100
AcDbXrecord
280
     1
270
     1
271
     1
  0
XRECORD
  5
101A0CD
102
{ACAD_REACTORS
330
101A0C7
102
}
330
101A0C7
100
AcDbXrecord
280
     1
270
     1
271
     1
  0
XRECORD
  5
101A0CA
102
{ACAD_REACTORS
330
101A0C7
102
}
330
101A0C7
100
AcDbXrecord
280
     1
270
     1
271
     1
  0
XRECORD
  5
101A0C1
102
{ACAD_REACTORS
330
101A0BF
102
}
330
101A0BF
100
AcDbXrecord
280
     1
270
     1
271
     1
  0
XRECORD
  5
101A0C0
102
{ACAD_REACTORS
330
101A0BF
102
}
330
101A0BF
100
AcDbXrecord
280
     1
270
     1
271
     1
  0
XRECORD
  5
101A0C4
102
{ACAD_REACTORS
330
101A0BF
102
}
330
101A0BF
100
AcDbXrecord
280
     1
270
     1
271
     1
  0
XRECORD
  5
101A0C3
102
{ACAD_REACTORS
330
101A0BF
102
}
330
101A0BF
100
AcDbXrecord
280
     1
270
     1
271
     1
  0
XRECORD
  5
101A0C5
102
{ACAD_REACTORS
330
101A0BF
102
}
330
101A0BF
100
AcDbXrecord
280
     1
270
     1
271
     1
  0
XRECORD
  5
101A0C2
102
{ACAD_REACTORS
330
101A0BF
102
}
330
101A0BF
100
AcDbXrecord
280
     1
270
     1
271
     1
  0
XRECORD
  5
101A0D1
102
{ACAD_REACTORS
330
101A0CF
102
}
330
101A0CF
100
AcDbXrecord
280
     1
270
     1
271
     1
  0
XRECORD
  5
101A0D0
102
{ACAD_REACTORS
330
101A0CF
102
}
330
101A0CF
100
AcDbXrecord
280
     1
270
     1
271
     1
  0
XRECORD
  5
101A0D4
102
{ACAD_REACTORS
330
101A0CF
102
}
330
101A0CF
100
AcDbXrecord
280
     1
270
     1
271
     1
  0
XRECORD
  5
101A0D3
102
{ACAD_REACTORS
330
101A0CF
102
}
330
101A0CF
100
AcDbXrecord
280
     1
270
     1
271
     1
  0
XRECORD
  5
101A0D5
102
{ACAD_REACTORS
330
101A0CF
102
}
330
101A0CF
100
AcDbXrecord
280
     1
270
     1
271
     1
  0
XRECORD
  5
101A0D2
102
{ACAD_REACTORS
330
101A0CF
102
}
330
101A0CF
100
AcDbXrecord
280
     1
270
     1
271
     1
  0
XRECORD
  5
101A2DC
102
{ACAD_REACTORS
330
101A2DB
102
}
330
101A2DB
100
AcDbXrecord
280
     1
102
DISPLAYNAME
  1
Metric50
102
FLAGS
 90
        0
  0
CELLSTYLEMAP
  5
101A2DA
102
{ACAD_REACTORS
330
101A2D9
102
}
330
101A2D9
100
AcDbCellStyleMap
 90
        3
300
CELLSTYLE
  1
TABLEFORMAT_BEGIN
 90
        5
170
     1
 91
        0
 92
    32768
 62
   257
 93
        1
300
CONTENTFORMAT
  1
CONTENTFORMAT_BEGIN
 90
        0
 91
        0
 92
        4
 93
        0
300

 40
0.0
140
1.0
 94
        5
 62
     0
340
11
144
6.0
309
CONTENTFORMAT_END
171
     1
301
MARGIN
  1
CELLMARGIN_BEGIN
 40
1.5
 40
1.5
 40
1.5
 40
1.5
 40
0.18
 40
0.18
309
CELLMARGIN_END
 94
        6
 95
        1
302
GRIDFORMAT
  1
GRIDFORMAT_BEGIN
 90
        0
 91
        1
 62
     0
 92
       -2
340
0
 93
        0
 40
0.045
309
GRIDFORMAT_END
 95
        2
302
GRIDFORMAT
  1
GRIDFORMAT_BEGIN
 90
        0
 91
        1
 62
     0
 92
       -2
340
0
 93
        0
 40
0.045
309
GRIDFORMAT_END
 95
        4
302
GRIDFORMAT
  1
GRIDFORMAT_BEGIN
 90
        0
 91
        1
 62
     0
 92
       -2
340
0
 93
        0
 40
0.045
309
GRIDFORMAT_END
 95
        8
302
GRIDFORMAT
  1
GRIDFORMAT_BEGIN
 90
        0
 91
        1
 62
     0
 92
       -2
340
0
 93
        0
 40
0.045
309
GRIDFORMAT_END
 95
       16
302
GRIDFORMAT
  1
GRIDFORMAT_BEGIN
 90
        0
 91
        1
 62
     0
 92
       -2
340
0
 93
        0
 40
0.045
309
GRIDFORMAT_END
 95
       32
302
GRIDFORMAT
  1
GRIDFORMAT_BEGIN
 90
        0
 91
        1
 62
     0
 92
       -2
340
0
 93
        0
 40
0.045
309
GRIDFORMAT_END
309
TABLEFORMAT_END
  1
CELLSTYLE_BEGIN
 90
        1
 91
        1
300
_TITLE
309
CELLSTYLE_END
300
CELLSTYLE
  1
TABLEFORMAT_BEGIN
 90
        5
170
     1
 91
        0
 92
        0
 62
   257
 93
        1
300
CONTENTFORMAT
  1
CONTENTFORMAT_BEGIN
 90
        0
 91
        0
 92
        4
 93
        0
300

 40
0.0
140
1.0
 94
        5
 62
     0
340
11
144
4.5
309
CONTENTFORMAT_END
171
     1
301
MARGIN
  1
CELLMARGIN_BEGIN
 40
1.5
 40
1.5
 40
1.5
 40
1.5
 40
0.18
 40
0.18
309
CELLMARGIN_END
 94
        6
 95
        1
302
GRIDFORMAT
  1
GRIDFORMAT_BEGIN
 90
        0
 91
        1
 62
     0
 92
       -2
340
0
 93
        0
 40
0.045
309
GRIDFORMAT_END
 95
        2
302
GRIDFORMAT
  1
GRIDFORMAT_BEGIN
 90
        0
 91
        1
 62
     0
 92
       -2
340
0
 93
        0
 40
0.045
309
GRIDFORMAT_END
 95
        4
302
GRIDFORMAT
  1
GRIDFORMAT_BEGIN
 90
        0
 91
        1
 62
     0
 92
       -2
340
0
 93
        0
 40
0.045
309
GRIDFORMAT_END
 95
        8
302
GRIDFORMAT
  1
GRIDFORMAT_BEGIN
 90
        0
 91
        1
 62
     0
 92
       -2
340
0
 93
        0
 40
0.045
309
GRIDFORMAT_END
 95
       16
302
GRIDFORMAT
  1
GRIDFORMAT_BEGIN
 90
        0
 91
        1
 62
     0
 92
       -2
340
0
 93
        0
 40
0.045
309
GRIDFORMAT_END
 95
       32
302
GRIDFORMAT
  1
GRIDFORMAT_BEGIN
 90
        0
 91
        1
 62
     0
 92
       -2
340
0
 93
        0
 40
0.045
309
GRIDFORMAT_END
309
TABLEFORMAT_END
  1
CELLSTYLE_BEGIN
 90
        2
 91
        1
300
_HEADER
309
CELLSTYLE_END
300
CELLSTYLE
  1
TABLEFORMAT_BEGIN
 90
        5
170
     1
 91
        0
 92
        0
 62
   257
 93
        1
300
CONTENTFORMAT
  1
CONTENTFORMAT_BEGIN
 90
        0
 91
        0
 92
        4
 93
        0
300

 40
0.0
140
1.0
 94
        2
 62
     0
340
11
144
4.5
309
CONTENTFORMAT_END
171
     1
301
MARGIN
  1
CELLMARGIN_BEGIN
 40
1.5
 40
1.5
 40
1.5
 40
1.5
 40
0.18
 40
0.18
309
CELLMARGIN_END
 94
        6
 95
        1
302
GRIDFORMAT
  1
GRIDFORMAT_BEGIN
 90
        0
 91
        1
 62
     0
 92
       -2
340
0
 93
        0
 40
0.045
309
GRIDFORMAT_END
 95
        2
302
GRIDFORMAT
  1
GRIDFORMAT_BEGIN
 90
        0
 91
        1
 62
     0
 92
       -2
340
0
 93
        0
 40
0.045
309
GRIDFORMAT_END
 95
        4
302
GRIDFORMAT
  1
GRIDFORMAT_BEGIN
 90
        0
 91
        1
 62
     0
 92
       -2
340
0
 93
        0
 40
0.045
309
GRIDFORMAT_END
 95
        8
302
GRIDFORMAT
  1
GRIDFORMAT_BEGIN
 90
        0
 91
        1
 62
     0
 92
       -2
340
0
 93
        0
 40
0.045
309
GRIDFORMAT_END
 95
       16
302
GRIDFORMAT
  1
GRIDFORMAT_BEGIN
 90
        0
 91
        1
 62
     0
 92
       -2
340
0
 93
        0
 40
0.045
309
GRIDFORMAT_END
 95
       32
302
GRIDFORMAT
  1
GRIDFORMAT_BEGIN
 90
        0
 91
        1
 62
     0
 92
       -2
340
0
 93
        0
 40
0.045
309
GRIDFORMAT_END
309
TABLEFORMAT_END
  1
CELLSTYLE_BEGIN
 90
        3
 91
        2
300
_DATA
309
CELLSTYLE_END
  0
ENDSEC
  0
EOF
