  0
SECTION
  2
HEADER
  9
$ACADVER
  1
AC1027
  9
$ACADMAINTVER
 70
   125
  9
$DWGCODEPAGE
  3
ANSI_1252
  9
$LASTSAVEDBY
  1
fleminab
  9
$REQUIREDVERSIONS
160
                 0
  9
$INSBASE
 10
0.0
 20
0.0
 30
0.0
  9
$EXTMIN
 10
855.0259022245517
 20
341.9088981257469
 30
-0.0000000349181948
  9
$EXTMAX
 10
957.8194474870612
 20
510.6231077581401
 30
0.0000000814935747
  9
$LIMMIN
 10
0.0
 20
0.0
  9
$LIMMAX
 10
420.0
 20
297.0
  9
$ORTHOMODE
 70
     0
  9
$REGENMODE
 70
     1
  9
$FILLMODE
 70
     1
  9
$QTEXTMODE
 70
     0
  9
$MIRRTEXT
 70
     0
  9
$LTSCALE
 40
1.0
  9
$ATTMODE
 70
     1
  9
$TEXTSIZE
 40
0.2
  9
$TRACEWID
 40
1.0
  9
$TEXTSTYLE
  7
GN3
  9
$CLAYER
  8
0
  9
$CELTYPE
  6
ByLayer
  9
$CECOLOR
 62
   256
  9
$CELTSCALE
 40
0.5
  9
$DISPSILH
 70
     0
  9
$DIMSCALE
 40
1.0
  9
$DIMASZ
 40
2.5
  9
$DIMEXO
 40
0.625
  9
$DIMDLI
 40
3.75
  9
$DIMRND
 40
0.0
  9
$DIMDLE
 40
0.0
  9
$DIMEXE
 40
1.25
  9
$DIMTP
 40
0.0
  9
$DIMTM
 40
0.0
  9
$DIMTXT
 40
2.5
  9
$DIMCEN
 40
2.5
  9
$DIMTSZ
 40
0.0
  9
$DIMTOL
 70
     0
  9
$DIMLIM
 70
     0
  9
$DIMTIH
 70
     0
  9
$DIMTOH
 70
     0
  9
$DIMSE1
 70
     0
  9
$DIMSE2
 70
     0
  9
$DIMTAD
 70
     1
  9
$DIMZIN
 70
     8
  9
$DIMBLK
  1
ClosedBlank
  9
$DIMASO
 70
     1
  9
$DIMSHO
 70
     1
  9
$DIMPOST
  1

  9
$DIMAPOST
  1

  9
$DIMALT
 70
     0
  9
$DIMALTD
 70
     3
  9
$DIMALTF
 40
0.03937007874016
  9
$DIMLFAC
 40
1.0
  9
$DIMTOFL
 70
     1
  9
$DIMTVP
 40
0.0
  9
$DIMTIX
 70
     0
  9
$DIMSOXD
 70
     0
  9
$DIMSAH
 70
     0
  9
$DIMBLK1
  1

  9
$DIMBLK2
  1

  9
$DIMSTYLE
  2
线性标注
  9
$DIMCLRD
 70
     0
  9
$DIMCLRE
 70
     0
  9
$DIMCLRT
 70
     0
  9
$DIMTFAC
 40
1.0
  9
$DIMGAP
 40
0.625
  9
$DIMJUST
 70
     0
  9
$DIMSD1
 70
     0
  9
$DIMSD2
 70
     0
  9
$DIMTOLJ
 70
     0
  9
$DIMTZIN
 70
     8
  9
$DIMALTZ
 70
     0
  9
$DIMALTTZ
 70
     0
  9
$DIMUPT
 70
     0
  9
$DIMDEC
 70
     1
  9
$DIMTDEC
 70
     1
  9
$DIMALTU
 70
     2
  9
$DIMALTTD
 70
     3
  9
$DIMTXSTY
  7
Standard
  9
$DIMAUNIT
 70
     0
  9
$DIMADEC
 70
     0
  9
$DIMALTRND
 40
0.0
  9
$DIMAZIN
 70
     0
  9
$DIMDSEP
 70
    46
  9
$DIMATFIT
 70
     3
  9
$DIMFRAC
 70
     0
  9
$DIMLDRBLK
  1

  9
$DIMLUNIT
 70
     2
  9
$DIMLWD
 70
    -2
  9
$DIMLWE
 70
    -2
  9
$DIMTMOVE
 70
     0
  9
$DIMFXL
 40
1.0
  9
$DIMFXLON
 70
     0
  9
$DIMJOGANG
 40
0.7853981633974483
  9
$DIMTFILL
 70
     0
  9
$DIMTFILLCLR
 70
     0
  9
$DIMARCSYM
 70
     0
  9
$DIMLTYPE
  6

  9
$DIMLTEX1
  6

  9
$DIMLTEX2
  6

  9
$DIMTXTDIRECTION
 70
     0
  9
$LUNITS
 70
     2
  9
$LUPREC
 70
     4
  9
$SKETCHINC
 40
1.0
  9
$FILLETRAD
 40
0.5
  9
$AUNITS
 70
     0
  9
$AUPREC
 70
     0
  9
$MENU
  1
.
  9
$ELEVATION
 40
0.0
  9
$PELEVATION
 40
0.0
  9
$THICKNESS
 40
0.0
  9
$LIMCHECK
 70
     0
  9
$CHAMFERA
 40
2.0
  9
$CHAMFERB
 40
1.0
  9
$CHAMFERC
 40
0.0
  9
$CHAMFERD
 40
0.0
  9
$SKPOLY
 70
     0
  9
$TDCREATE
 40
2453349.503912037
  9
$TDUCREATE
 40
2453349.045580150
  9
$TDUPDATE
 40
2458015.604201389
  9
$TDUUPDATE
 40
2458015.187534722
  9
$TDINDWG
 40
1.1495277546
  9
$TDUSRTIMER
 40
1.1495273611
  9
$USRTIMER
 70
     1
  9
$ANGBASE
 50
0.0
  9
$ANGDIR
 70
     0
  9
$PDMODE
 70
     0
  9
$PDSIZE
 40
0.0
  9
$PLINEWID
 40
1.0
  9
$SPLFRAME
 70
     0
  9
$SPLINETYPE
 70
     6
  9
$SPLINESEGS
 70
     8
  9
$HANDSEED
  5
8E88
  9
$SURFTAB1
 70
     6
  9
$SURFTAB2
 70
     6
  9
$SURFTYPE
 70
     6
  9
$SURFU
 70
     6
  9
$SURFV
 70
     6
  9
$UCSBASE
  2

  9
$UCSNAME
  2

  9
$UCSORG
 10
0.0
 20
0.0
 30
0.0
  9
$UCSXDIR
 10
1.0
 20
0.0
 30
0.0
  9
$UCSYDIR
 10
0.0
 20
1.0
 30
0.0
  9
$UCSORTHOREF
  2

  9
$UCSORTHOVIEW
 70
     0
  9
$UCSORGTOP
 10
0.0
 20
0.0
 30
0.0
  9
$UCSORGBOTTOM
 10
0.0
 20
0.0
 30
0.0
  9
$UCSORGLEFT
 10
0.0
 20
0.0
 30
0.0
  9
$UCSORGRIGHT
 10
0.0
 20
0.0
 30
0.0
  9
$UCSORGFRONT
 10
0.0
 20
0.0
 30
0.0
  9
$UCSORGBACK
 10
0.0
 20
0.0
 30
0.0
  9
$PUCSBASE
  2

  9
$PUCSNAME
  2

  9
$PUCSORG
 10
0.0
 20
0.0
 30
0.0
  9
$PUCSXDIR
 10
1.0
 20
0.0
 30
0.0
  9
$PUCSYDIR
 10
0.0
 20
1.0
 30
0.0
  9
$PUCSORTHOREF
  2

  9
$PUCSORTHOVIEW
 70
     0
  9
$PUCSORGTOP
 10
0.0
 20
0.0
 30
0.0
  9
$PUCSORGBOTTOM
 10
0.0
 20
0.0
 30
0.0
  9
$PUCSORGLEFT
 10
0.0
 20
0.0
 30
0.0
  9
$PUCSORGRIGHT
 10
0.0
 20
0.0
 30
0.0
  9
$PUCSORGFRONT
 10
0.0
 20
0.0
 30
0.0
  9
$PUCSORGBACK
 10
0.0
 20
0.0
 30
0.0
  9
$USERI1
 70
     0
  9
$USERI2
 70
     0
  9
$USERI3
 70
     0
  9
$USERI4
 70
     0
  9
$USERI5
 70
     0
  9
$USERR1
 40
0.0
  9
$USERR2
 40
0.0
  9
$USERR3
 40
0.0
  9
$USERR4
 40
0.0
  9
$USERR5
 40
0.0
  9
$WORLDVIEW
 70
     1
  9
$SHADEDGE
 70
     3
  9
$SHADEDIF
 70
    70
  9
$TILEMODE
 70
     1
  9
$MAXACTVP
 70
    64
  9
$PINSBASE
 10
0.0
 20
0.0
 30
0.0
  9
$PLIMCHECK
 70
     0
  9
$PEXTMIN
 10
0.0
 20
0.0
 30
0.0
  9
$PEXTMAX
 10
0.0
 20
0.0
 30
0.0
  9
$PLIMMIN
 10
0.0
 20
0.0
  9
$PLIMMAX
 10
12.0
 20
9.0
  9
$UNITMODE
 70
     0
  9
$VISRETAIN
 70
     1
  9
$PLINEGEN
 70
     0
  9
$PSLTSCALE
 70
     1
  9
$TREEDEPTH
 70
  3020
  9
$CMLSTYLE
  2
Standard
  9
$CMLJUST
 70
     0
  9
$CMLSCALE
 40
20.0
  9
$PROXYGRAPHICS
 70
     1
  9
$MEASUREMENT
 70
     1
  9
$CELWEIGHT
370
    -1
  9
$ENDCAPS
280
     0
  9
$JOINSTYLE
280
     0
  9
$LWDISPLAY
290
     1
  9
$INSUNITS
 70
     4
  9
$HYPERLINKBASE
  1

  9
$STYLESHEET
  1

  9
$XEDIT
290
     1
  9
$CEPSNTYPE
380
     0
  9
$PSTYLEMODE
290
     1
  9
$FINGERPRINTGUID
  2
{FDEAD578-A652-11D2-9A35-0060089B3A3F}
  9
$VERSIONGUID
  2
{42CC3FA8-83E2-B341-9D4E-C444B142D534}
  9
$EXTNAMES
290
     1
  9
$PSVPSCALE
 40
0.0
  9
$OLESTARTUP
290
     0
  9
$SORTENTS
280
     1
  9
$INDEXCTL
280
     0
  9
$HIDETEXT
280
     1
  9
$XCLIPFRAME
280
     2
  9
$HALOGAP
280
     0
  9
$OBSCOLOR
 70
   257
  9
$OBSLTYPE
280
     0
  9
$INTERSECTIONDISPLAY
280
     0
  9
$INTERSECTIONCOLOR
 70
   257
  9
$DIMASSOC
280
     2
  9
$PROJECTNAME
  1

  9
$CAMERADISPLAY
290
     0
  9
$LENSLENGTH
 40
50.0
  9
$CAMERAHEIGHT
 40
0.0
  9
$STEPSPERSEC
 40
2.0
  9
$STEPSIZE
 40
6.0
  9
$3DDWFPREC
 40
2.0
  9
$PSOLWIDTH
 40
0.25
  9
$PSOLHEIGHT
 40
4.0
  9
$LOFTANG1
 40
1.570796326794896
  9
$LOFTANG2
 40
1.570796326794896
  9
$LOFTMAG1
 40
0.0
  9
$LOFTMAG2
 40
0.0
  9
$LOFTPARAM
 70
     7
  9
$LOFTNORMALS
280
     1
  9
$LATITUDE
 40
37.795
  9
$LONGITUDE
 40
-122.394
  9
$NORTHDIRECTION
 40
0.0
  9
$TIMEZONE
 70
 -8000
  9
$LIGHTGLYPHDISPLAY
280
     1
  9
$TILEMODELIGHTSYNCH
280
     1
  9
$CMATERIAL
347
8CB0
  9
$SOLIDHIST
280
     0
  9
$SHOWHIST
280
     1
  9
$DWFFRAME
280
     2
  9
$DGNFRAME
280
     0
  9
$REALWORLDSCALE
290
     1
  9
$INTERFERECOLOR
 62
     1
  9
$INTERFEREOBJVS
345
8CD2
  9
$INTERFEREVPVS
346
8E19
  9
$CSHADOW
280
     0
  9
$SHADOWPLANELOCATION
 40
0.0
  0
ENDSEC
  0
SECTION
  2
CLASSES
  0
CLASS
  1
ACDBDICTIONARYWDFLT
  2
AcDbDictionaryWithDefault
  3
ObjectDBX Classes
 90
        0
 91
        1
280
     0
281
     0
  0
CLASS
  1
DICTIONARYVAR
  2
AcDbDictionaryVar
  3
ObjectDBX Classes
 90
        0
 91
       21
280
     0
281
     0
  0
CLASS
  1
DIMASSOC
  2
AcDbDimAssoc
  3
"AcDbDimAssoc|Product Desc:     AcDim ARX App For Dimension|Company:          Autodesk, Inc.|WEB Address:      www.autodesk.com"
 90
        0
 91
        0
280
     0
281
     0
  0
CLASS
  1
SORTENTSTABLE
  2
AcDbSortentsTable
  3
ObjectDBX Classes
 90
        0
 91
        1
280
     0
281
     0
  0
CLASS
  1
TABLESTYLE
  2
AcDbTableStyle
  3
ObjectDBX Classes
 90
     4095
 91
        1
280
     0
281
     0
  0
CLASS
  1
MATERIAL
  2
AcDbMaterial
  3
ObjectDBX Classes
 90
     1153
 91
        3
280
     0
281
     0
  0
CLASS
  1
VISUALSTYLE
  2
AcDbVisualStyle
  3
ObjectDBX Classes
 90
     4095
 91
       26
280
     0
281
     0
  0
CLASS
  1
SCALE
  2
AcDbScale
  3
ObjectDBX Classes
 90
     1153
 91
       17
280
     0
281
     0
  0
CLASS
  1
MLEADERSTYLE
  2
AcDbMLeaderStyle
  3
ACDB_MLEADERSTYLE_CLASS
 90
     4095
 91
        1
280
     0
281
     0
  0
CLASS
  1
CELLSTYLEMAP
  2
AcDbCellStyleMap
  3
ObjectDBX Classes
 90
     1152
 91
        2
280
     0
281
     0
  0
CLASS
  1
ACDBSECTIONVIEWSTYLE
  2
AcDbSectionViewStyle
  3
ObjectDBX Classes
 90
     1025
 91
        1
280
     0
281
     0
  0
CLASS
  1
ACDBDETAILVIEWSTYLE
  2
AcDbDetailViewStyle
  3
ObjectDBX Classes
 90
     1025
 91
        1
280
     0
281
     0
  0
ENDSEC
  0
SECTION
  2
TABLES
  0
TABLE
  2
VPORT
  5
8
330
0
100
AcDbSymbolTable
 70
     1
1001
ACAD
1000
DbSaveVer
1071
        5
  0
VPORT
  5
8CA2
330
8
100
AcDbSymbolTableRecord
100
AcDbViewportTableRecord
  2
*Active
 70
     0
 10
0.0
 20
0.0
 11
1.0
 21
1.0
 12
906.4226748558064
 22
426.2660029419435
 13
0.0
 23
0.0
 14
10.0
 24
10.0
 15
10.0
 25
10.0
 16
0.0
 26
0.0
 36
1.0
 17
0.0
 27
0.0
 37
0.0
 40
169.9221872669927
 41
2.292712066905615
 42
50.0
 43
0.0
 44
0.0
 50
0.0
 51
0.0
 71
     0
 72
  1000
 73
     1
 74
     3
 75
     0
 76
     0
 77
     0
 78
     0
281
     0
 65
     1
110
0.0
120
0.0
130
0.0
111
1.0
121
0.0
131
0.0
112
0.0
122
1.0
132
0.0
 79
     0
146
0.0
348
8CCE
 60
     3
 61
     5
292
     1
282
     1
141
0.0
142
0.0
 63
   250
421
  3355443
1001
ACAD_NAV_VCDISPLAY
1070
     3
  0
ENDTAB
  0
TABLE
  2
LTYPE
  5
5
330
0
100
AcDbSymbolTable
 70
     7
  0
LTYPE
  5
14
330
5
100
AcDbSymbolTableRecord
100
AcDbLinetypeTableRecord
  2
ByBlock
 70
     0
  3

 72
    65
 73
     0
 40
0.0
  0
LTYPE
  5
15
330
5
100
AcDbSymbolTableRecord
100
AcDbLinetypeTableRecord
  2
ByLayer
 70
     0
  3

 72
    65
 73
     0
 40
0.0
  0
LTYPE
  5
16
330
5
100
AcDbSymbolTableRecord
100
AcDbLinetypeTableRecord
  2
Continuous
 70
     0
  3
Solid line
 72
    65
 73
     0
 40
0.0
  0
LTYPE
  5
B0
330
5
100
AcDbSymbolTableRecord
100
AcDbLinetypeTableRecord
  2
CENTER2
 70
     0
  3
Center (.5x) ___ _ ___ _ ___ _ ___ _ ___ _ ___
 72
    65
 73
     4
 40
28.575
 49
19.05
 74
     0
 49
-3.174999999999998
 74
     0
 49
3.174999999999998
 74
     0
 49
-3.174999999999998
 74
     0
  0
LTYPE
  5
2E1F
330
5
100
AcDbSymbolTableRecord
100
AcDbLinetypeTableRecord
  2
ZIGZAG
 70
     0
  3
Zig zag /\/\/\/\/\/\/\/\/\/\/\/\/\/\/\/\/\/\/\/
 72
    65
 73
     4
 40
20.32254
 49
0.00254
 74
     0
 49
-5.08
 74
     4
 75
   131
340
AF
 46
5.08
 50
0.0
 44
-5.08
 45
0.0
 49
-10.16
 74
     4
 75
   131
340
AF
 46
5.08
 50
180.0
 44
5.08
 45
0.0
 49
-5.08
 74
     0
  0
LTYPE
  5
3CCB
330
5
100
AcDbSymbolTableRecord
100
AcDbLinetypeTableRecord
  2
PHANTOM
 70
     0
  3
Phantom ______  __  __  ______  __  __  ______
 72
    65
 73
     6
 40
63.5
 49
31.75
 74
     0
 49
-6.349999999999997
 74
     0
 49
6.349999999999997
 74
     0
 49
-6.349999999999997
 74
     0
 49
6.349999999999997
 74
     0
 49
-6.349999999999997
 74
     0
  0
LTYPE
  5
7C12
330
5
100
AcDbSymbolTableRecord
100
AcDbLinetypeTableRecord
  2
ACAD_ISO02W100
 70
     0
  3
ISO dash __ __ __ __ __ __ __ __ __ __ __ __ __
 72
    65
 73
     2
 40
15.0
 49
12.0
 74
     0
 49
-3.0
 74
     0
  0
LTYPE
  5
7C13
330
5
100
AcDbSymbolTableRecord
100
AcDbLinetypeTableRecord
  2
DASHED2
 70
     0
  3
Dashed (.5x) _ _ _ _ _ _ _ _ _ _ _ _ _ _ _ _ _
 72
    65
 73
     2
 40
9.524999999999996
 49
6.349999999999997
 74
     0
 49
-3.174999999999998
 74
     0
  0
LTYPE
  5
7FB6
330
5
100
AcDbSymbolTableRecord
100
AcDbLinetypeTableRecord
  2
CENTER
 70
     0
  3
Center ____ _ ____ _ ____ _ ____ _ ____ _ ____
 72
    65
 73
     4
 40
50.8
 49
31.75
 74
     0
 49
-6.349999999999997
 74
     0
 49
6.349999999999997
 74
     0
 49
-6.349999999999997
 74
     0
  0
ENDTAB
  0
TABLE
  2
LAYER
  5
2
330
0
100
AcDbSymbolTable
 70
     8
  0
LAYER
  5
10
102
{ACAD_XDICTIONARY
360
8CF5
102
}
330
2
100
AcDbSymbolTableRecord
100
AcDbLayerTableRecord
  2
0
 70
     0
 62
     7
  6
Continuous
370
    -3
390
F
347
8CC0
348
0
  0
LAYER
  5
8A
330
2
100
AcDbSymbolTableRecord
100
AcDbLayerTableRecord
  2
Defpoints
 70
     0
 62
     7
  6
Continuous
290
     0
370
    -3
390
F
347
8CC0
348
0
  0
LAYER
  5
B2
102
{ACAD_XDICTIONARY
360
8CF7
102
}
330
2
100
AcDbSymbolTableRecord
100
AcDbLayerTableRecord
  2
轮廓线
 70
     0
 62
     7
  6
Continuous
370
    -3
390
F
347
8CC0
348
0
  0
LAYER
  5
3CCF
102
{ACAD_XDICTIONARY
360
8CF9
102
}
330
2
100
AcDbSymbolTableRecord
100
AcDbLayerTableRecord
  2
双点划线
 70
     0
 62
     7
  6
PHANTOM
370
    -3
390
F
347
8CC0
348
0
  0
LAYER
  5
3CD4
102
{ACAD_XDICTIONARY
360
8CFB
102
}
330
2
100
AcDbSymbolTableRecord
100
AcDbLayerTableRecord
  2
图层2
 70
     0
 62
     1
  6
CENTER2
370
     9
390
F
347
8CC0
348
0
  0
LAYER
  5
3CD6
102
{ACAD_XDICTIONARY
360
8CFD
102
}
330
2
100
AcDbSymbolTableRecord
100
AcDbLayerTableRecord
  2
图层4
 70
     0
 62
     5
  6
Continuous
370
    15
390
F
347
8CC0
348
0
  0
LAYER
  5
7251
102
{ACAD_XDICTIONARY
360
8CFF
102
}
330
2
100
AcDbSymbolTableRecord
100
AcDbLayerTableRecord
  2
图层1
 70
     0
 62
     7
  6
Continuous
370
     9
390
F
347
8CC0
348
0
  0
LAYER
  5
7C14
102
{ACAD_XDICTIONARY
360
8D01
102
}
330
2
100
AcDbSymbolTableRecord
100
AcDbLayerTableRecord
  2
图层3
 70
     0
 62
     7
  6
DASHED2
370
    15
390
F
347
8CC0
348
0
  0
ENDTAB
  0
TABLE
  2
STYLE
  5
3
330
0
100
AcDbSymbolTable
 70
     5
  0
STYLE
  5
11
330
3
100
AcDbSymbolTableRecord
100
AcDbTextStyleTableRecord
  2
Standard
 70
     0
 40
0.0
 41
1.0
 50
0.0
 71
     0
 42
2.5
  3
txt
  4

  0
STYLE
  5
AF
330
3
100
AcDbSymbolTableRecord
100
AcDbTextStyleTableRecord
  2

 70
     1
 40
0.0
 41
1.0
 50
0.0
 71
     0
 42
2.5
  3
ltypeshp.shx
  4

  0
STYLE
  5
3CDA
330
3
100
AcDbSymbolTableRecord
100
AcDbTextStyleTableRecord
  2
样式 1
 70
     0
 40
2.5
 41
1.0
 50
0.0
 71
     0
 42
2.5
  3
SimSun.ttf
  4

1001
ACAD
1000
SimSun
1071
    34306
  0
STYLE
  5
6D85
330
3
100
AcDbSymbolTableRecord
100
AcDbTextStyleTableRecord
  2
GN3
 70
     0
 40
0.156
 41
1.0
 50
0.0
 71
     0
 42
0.2
  3
ARIAL.TTF
  4

1001
ACAD
1000
Arial
1071
       34
  0
STYLE
  5
6D86
330
3
100
AcDbSymbolTableRecord
100
AcDbTextStyleTableRecord
  2
GN4
 70
     0
 40
0.188
 41
1.0
 50
0.0
 71
     0
 42
0.2
  3
ROMAND
  4

  0
ENDTAB
  0
TABLE
  2
VIEW
  5
6
330
0
100
AcDbSymbolTable
 70
     0
  0
ENDTAB
  0
TABLE
  2
UCS
  5
7
330
0
100
AcDbSymbolTable
 70
     0
  0
ENDTAB
  0
TABLE
  2
APPID
  5
9
330
0
100
AcDbSymbolTable
 70
    10
  0
APPID
  5
12
330
9
100
AcDbSymbolTableRecord
100
AcDbRegAppTableRecord
  2
ACAD
 70
     0
  0
APPID
  5
3CDB
330
9
100
AcDbSymbolTableRecord
100
AcDbRegAppTableRecord
  2
DCO15
 70
     0
  0
APPID
  5
3F72
330
9
100
AcDbSymbolTableRecord
100
AcDbRegAppTableRecord
  2
ACAD_EXEMPT_FROM_CAD_STANDARDS
 70
     0
  0
APPID
  5
6D87
330
9
100
AcDbSymbolTableRecord
100
AcDbRegAppTableRecord
  2
ACAD_DSTYLE_DIMEXT_LENGTH
 70
     0
  0
APPID
  5
6D88
330
9
100
AcDbSymbolTableRecord
100
AcDbRegAppTableRecord
  2
ACAD_DSTYLE_DIMEXT_ENABLED
 70
     0
  0
APPID
  5
6D89
330
9
100
AcDbSymbolTableRecord
100
AcDbRegAppTableRecord
  2
ACAD_DSTYLE_DIMJOGGED_JOGANGLE_SYMBOL
 70
     0
  0
APPID
  5
6D8A
330
9
100
AcDbSymbolTableRecord
100
AcDbRegAppTableRecord
  2
ACAD_DSTYLE_DIMARC_LENGTH_SYMBOL
 70
     0
  0
APPID
  5
6D8B
330
9
100
AcDbSymbolTableRecord
100
AcDbRegAppTableRecord
  2
PSP
 70
     0
  0
APPID
  5
8D3E
330
9
100
AcDbSymbolTableRecord
100
AcDbRegAppTableRecord
  2
ACAD_MLEADERVER
 70
     0
  0
APPID
  5
8E27
330
9
100
AcDbSymbolTableRecord
100
AcDbRegAppTableRecord
  2
ACAD_NAV_VCDISPLAY
 70
     0
  0
ENDTAB
  0
TABLE
  2
DIMSTYLE
  5
A
330
0
100
AcDbSymbolTable
 70
     3
100
AcDbDimStyleTable
 71
     2
340
87
340
7252
  0
DIMSTYLE
105
87
330
A
100
AcDbSymbolTableRecord
100
AcDbDimStyleTableRecord
  2
线性标注
 70
     0
 41
2.5
 42
0.625
 43
3.75
 44
1.25
 73
     0
 74
     0
 77
     1
 78
     8
140
2.5
141
2.5
143
0.03937007874016
147
0.625
171
     3
172
     1
271
     1
272
     1
274
     3
283
     0
284
     8
340
11
342
1E9F
  0
DIMSTYLE
105
184
330
A
100
AcDbSymbolTableRecord
100
AcDbDimStyleTableRecord
  2
STANDARD
 70
     0
 41
4.0
 42
1.0
 43
2.5
 44
2.0
 47
0.01
 48
0.01
 73
     0
 74
     0
 77
     1
140
4.5
147
1.0
178
   256
271
     0
272
     0
340
11
  0
DIMSTYLE
105
7252
102
{ACAD_REACTORS
330
8DAA
330
8DAB
102
}
330
A
100
AcDbSymbolTableRecord
100
AcDbDimStyleTableRecord
  2
ISO-25
 70
     0
 41
2.0
 42
0.625
 43
3.75
 44
1.25
 73
     0
 74
     0
 77
     1
 78
     8
140
2.5
141
2.5
143
0.03937007874016
147
0.625
171
     3
172
     1
176
   256
177
   256
178
   256
271
     1
272
     1
274
     3
283
     0
284
     8
340
11
342
718E
371
    -1
372
    -1
  0
ENDTAB
  0
TABLE
  2
BLOCK_RECORD
  5
1
330
0
100
AcDbSymbolTable
 70
    18
  0
BLOCK_RECORD
  5
1F
102
{ACAD_XDICTIONARY
360
AE9
102
}
330
1
100
AcDbSymbolTableRecord
100
AcDbBlockTableRecord
  2
*Model_Space
340
22
 70
     0
280
     1
281
     0
  0
BLOCK_RECORD
  5
50
330
1
100
AcDbSymbolTableRecord
100
AcDbBlockTableRecord
  2
*Paper_Space
340
51
 70
     0
280
     1
281
     0
  0
BLOCK_RECORD
  5
55
330
1
100
AcDbSymbolTableRecord
100
AcDbBlockTableRecord
  2
*Paper_Space0
340
56
 70
     0
280
     1
281
     0
  0
BLOCK_RECORD
  5
1E9F
330
1
100
AcDbSymbolTableRecord
100
AcDbBlockTableRecord
  2
_ClosedBlank
340
0
 70
     0
280
     1
281
     0
  0
BLOCK_RECORD
  5
3BC1
330
1
100
AcDbSymbolTableRecord
100
AcDbBlockTableRecord
  2
123456
340
0
310
2800000020000000200000000100080000000000000400000000000000000000000000000000000000000000000080000080000000808000800000008000800080800000C0C0C000C0DCC000F0CAA6000020400000206000002080000020A0000020C0000020E00000400000004020000040400000406000004080000040A0
310
000040C0000040E00000600000006020000060400000606000006080000060A0000060C0000060E00000800000008020000080400000806000008080000080A0000080C0000080E00000A0000000A0200000A0400000A0600000A0800000A0A00000A0C00000A0E00000C0000000C0200000C0400000C0600000C0800000C0
310
A00000C0C00000C0E00000E0000000E0200000E0400000E0600000E0800000E0A00000E0C00000E0E00040000000400020004000400040006000400080004000A0004000C0004000E00040200000402020004020400040206000402080004020A0004020C0004020E000404000004040200040404000404060004040800040
310
40A0004040C0004040E00040600000406020004060400040606000406080004060A0004060C0004060E00040800000408020004080400040806000408080004080A0004080C0004080E00040A0000040A0200040A0400040A0600040A0800040A0A00040A0C00040A0E00040C0000040C0200040C0400040C0600040C08000
310
40C0A00040C0C00040C0E00040E0000040E0200040E0400040E0600040E0800040E0A00040E0C00040E0E00080000000800020008000400080006000800080008000A0008000C0008000E00080200000802020008020400080206000802080008020A0008020C0008020E00080400000804020008040400080406000804080
310
008040A0008040C0008040E00080600000806020008060400080606000806080008060A0008060C0008060E00080800000808020008080400080806000808080008080A0008080C0008080E00080A0000080A0200080A0400080A0600080A0800080A0A00080A0C00080A0E00080C0000080C0200080C0400080C0600080C0
310
800080C0A00080C0C00080C0E00080E0000080E0200080E0400080E0600080E0800080E0A00080E0C00080E0E000C0000000C0002000C0004000C0006000C0008000C000A000C000C000C000E000C0200000C0202000C0204000C0206000C0208000C020A000C020C000C020E000C0400000C0402000C0404000C0406000C0
310
408000C040A000C040C000C040E000C0600000C0602000C0604000C0606000C0608000C060A000C060C000C060E000C0800000C0802000C0804000C0806000C0808000C080A000C080C000C080E000C0A00000C0A02000C0A04000C0A06000C0A08000C0A0A000C0A0C000C0A0E000C0C00000C0C02000C0C04000C0C06000
310
C0C08000C0C0A000F0FBFF00A4A0A000808080000000FF0000FF000000FFFF00FF000000FF00FF00FFFF0000FFFFFF00000000000000000000000000000000000000000000000000000000000000000000000000FFFFFFFFFFFFFFFFFFFFFFFFFFFFFFFFFFFFFFFFFF0000000000000000000000FFFFFFFFFFFFFFFFFFFFFF
310
FFFFFFFFFFFFFFFFFFFF0000000000000000000000FFFFFFFFFFFFFFFFFFFFFFFFFFFFFFFF000000FFFF0000000000000000000000FFFFFFFFFFFFFFFFFFFFFFFFFFFFFFFFFFFFFFFFFF0000000000000000000000FFFFFFFFFFFFFFFFFFFFFFFFFFFFFFFFFFFFFFFFFF0000000000000000000000FFFFFFFFFFFFFFFFFFFF
310
FF00000000FFFFFFFFFFFF0000000000000000000000FFFFFFFFFFFFFFFFFFFFFFFFFFFFFFFFFFFFFFFFFF0000000000000000000000FFFFFF00000000000000000000000000000000FFFF0000000000000000000000FFFFFF00000000000000000000000000000000FFFF0000000000000000000000FF00FF000000000000
310
00000000000000000000FFFF0000000000000000000000FF00FF00000000000000000000000000000000FFFF0000000000000000000000FF00FF00000000000000000000000000000000FFFF0000000000000000000000FF00FF00000000000000000000000000000000FFFF0000000000000000000000FF00FF0000000000
310
0000000000000000000000FFFF0000000000000000000000FF00FF00000000000000000000000000000000FFFF0000000000000000000000FF00FF00000000000000000000000000000000FFFF0000000000000000000000FF00FF00000000000000000000000000000000FFFF0000000000000000000000FF00FF00000000
310
000000000000000000000000FFFF0000000000000000000000FF00FF00000000000000000000000000000000FFFF0000000000000000000000FF00FF00000000000000000000000000000000FFFF0000000000000000000000FF00FF00000000000000000000000000000000FFFF0000000000000000000000FF00FF000000
310
00000000000000000000000000FFFF0000000000000000000000FF00FF00000000000000000000000000000000FFFF0000000000000000000000FF00FF00000000000000000000000000000000FFFF0000000000000000000000FF00FF00000000000000000000000000000000FFFF0000000000000000000000FF00FF0000
310
0000000000000000000000000000FFFF0000000000000000000000FF00FF00000000000000000000000000000000FFFF0000000000000000000000FF00FFFFFFFFFFFFFF00000000000000000000FFFF0000000000000000000000FF00FFFFFFFFFFFFFFFFFFFFFFFFFFFFFFFFFFFFFF0000000000000000000000FFFFFFFF
310
FFFFFFFFFFFFFFFFFFFFFFFFFFFFFFFFFF000000000000000000000000000000000000000000000000000000000000000000000000000000
 70
     4
280
     1
281
     0
  0
BLOCK_RECORD
  5
6D81
330
1
100
AcDbSymbolTableRecord
100
AcDbBlockTableRecord
  2
_DotSmall
340
0
 70
     0
280
     1
281
     0
  0
BLOCK_RECORD
  5
718E
330
1
100
AcDbSymbolTableRecord
100
AcDbBlockTableRecord
  2
_Open30
340
0
102
{BLKREFS
331
8C53
331
8C54
331
8C5C
331
8C5D
331
8C65
331
8C66
331
8C6E
331
8C6F
331
8C76
331
8C7B
331
8C80
331
8C81
331
8C8B
331
8C8C
331
8DCE
331
8DCF
331
8DD7
331
8DD8
102
}
 70
     0
280
     1
281
     0
  0
BLOCK_RECORD
  5
84B2
330
1
100
AcDbSymbolTableRecord
100
AcDbBlockTableRecord
  2
_Dot
340
0
 70
     0
280
     1
281
     0
  0
BLOCK_RECORD
  5
8BAD
330
1
100
AcDbSymbolTableRecord
100
AcDbBlockTableRecord
  2
*D6
340
0
 70
     0
280
     1
281
     0
  0
BLOCK_RECORD
  5
8BB9
330
1
100
AcDbSymbolTableRecord
100
AcDbBlockTableRecord
  2
*D7
340
0
 70
     0
280
     1
281
     0
  0
BLOCK_RECORD
  5
8BC5
330
1
100
AcDbSymbolTableRecord
100
AcDbBlockTableRecord
  2
*D8
340
0
 70
     0
280
     1
281
     0
  0
BLOCK_RECORD
  5
8BD1
330
1
100
AcDbSymbolTableRecord
100
AcDbBlockTableRecord
  2
*D9
340
0
 70
     0
280
     1
281
     0
  0
BLOCK_RECORD
  5
8BDD
330
1
100
AcDbSymbolTableRecord
100
AcDbBlockTableRecord
  2
*D10
340
0
 70
     0
280
     1
281
     0
  0
BLOCK_RECORD
  5
8BE9
330
1
100
AcDbSymbolTableRecord
100
AcDbBlockTableRecord
  2
*D11
340
0
 70
     0
280
     1
281
     0
  0
BLOCK_RECORD
  5
8BF1
330
1
100
AcDbSymbolTableRecord
100
AcDbBlockTableRecord
  2
*D12
340
0
 70
     0
280
     1
281
     0
  0
BLOCK_RECORD
  5
8BF9
330
1
100
AcDbSymbolTableRecord
100
AcDbBlockTableRecord
  2
*D13
340
0
 70
     0
280
     1
281
     0
  0
BLOCK_RECORD
  5
8D49
330
1
100
AcDbSymbolTableRecord
100
AcDbBlockTableRecord
  2
*D14
340
0
 70
     0
280
     1
281
     0
  0
BLOCK_RECORD
  5
8D55
330
1
100
AcDbSymbolTableRecord
100
AcDbBlockTableRecord
  2
*D15
340
0
 70
     0
280
     1
281
     0
  0
BLOCK_RECORD
  5
8DB3
330
1
100
AcDbSymbolTableRecord
100
AcDbBlockTableRecord
  2
*D16
340
0
 70
     0
280
     1
281
     0
  0
BLOCK_RECORD
  5
8DBF
330
1
100
AcDbSymbolTableRecord
100
AcDbBlockTableRecord
  2
*D17
340
0
 70
     0
280
     1
281
     0
  0
ENDTAB
  0
ENDSEC
  0
SECTION
  2
BLOCKS
  0
BLOCK
  5
20
330
1F
100
AcDbEntity
  8
0
100
AcDbBlockBegin
  2
*Model_Space
 70
     0
 10
0.0
 20
0.0
 30
0.0
  3
*Model_Space
  1

  0
ENDBLK
  5
21
330
1F
100
AcDbEntity
  8
0
100
AcDbBlockEnd
  0
BLOCK
  5
52
330
50
100
AcDbEntity
 67
     1
  8
0
100
AcDbBlockBegin
  2
*Paper_Space
 70
     0
 10
0.0
 20
0.0
 30
0.0
  3
*Paper_Space
  1

  0
ENDBLK
  5
53
330
50
100
AcDbEntity
 67
     1
  8
0
100
AcDbBlockEnd
  0
BLOCK
  5
57
330
55
100
AcDbEntity
 67
     1
  8
0
100
AcDbBlockBegin
  2
*Paper_Space0
 70
     0
 10
0.0
 20
0.0
 30
0.0
  3
*Paper_Space0
  1

  0
ENDBLK
  5
58
330
55
100
AcDbEntity
 67
     1
  8
0
100
AcDbBlockEnd
  0
BLOCK
  5
1EA3
330
1E9F
100
AcDbEntity
  8
0
 48
0.2
370
    35
100
AcDbBlockBegin
  2
_ClosedBlank
 70
     0
 10
0.0
 20
0.0
 30
0.0
  3
_ClosedBlank
  1

  0
LINE
  5
1EA0
330
1E9F
100
AcDbEntity
  8
0
  6
ByBlock
 62
     0
370
    -2
100
AcDbLine
 10
-1.0
 20
0.1666666666666666
 30
0.0
 11
0.0
 21
0.0
 31
0.0
  0
LINE
  5
1EA1
330
1E9F
100
AcDbEntity
  8
0
  6
ByBlock
 62
     0
370
    -2
100
AcDbLine
 10
0.0
 20
0.0
 30
0.0
 11
-1.0
 21
-0.1666666666666666
 31
0.0
  0
LINE
  5
1EA2
330
1E9F
100
AcDbEntity
  8
0
  6
ByBlock
 62
     0
370
    -2
100
AcDbLine
 10
-1.0
 20
0.1666666666666666
 30
0.0
 11
-1.0
 21
-0.1666666666666666
 31
0.0
  0
ENDBLK
  5
1EA4
330
1E9F
100
AcDbEntity
  8
0
 48
0.2
370
    35
100
AcDbBlockEnd
  0
BLOCK
  5
3BC2
330
3BC1
100
AcDbEntity
  8
0
 48
0.5
100
AcDbBlockBegin
  2
123456
 70
     0
 10
0.0
 20
0.0
 30
0.0
  3
123456
  1

  0
LINE
  5
3BC3
330
3BC1
100
AcDbEntity
  8
双点划线
100
AcDbLine
 10
81.15399999999988
 20
291.5110000000002
 30
0.0
 11
81.15399999999988
 21
280.7802
 31
0.0
  0
LINE
  5
3BC4
330
3BC1
100
AcDbEntity
  8
0
100
AcDbLine
 10
104.9753327763418
 20
5.479499999999971
 30
0.0
 11
104.9753327763418
 21
32.94953759584036
 31
0.0
  0
TEXT
  5
3BC5
330
3BC1
100
AcDbEntity
  8
双点划线
100
AcDbText
 10
110.0417889320188
 20
8.080482332218423
 30
0.0
 40
2.339749999999999
  1
共    张        第    张
  7
样式 1
 72
     1
 11
130.1191967532479
 21
8.080482332218423
 31
0.0
100
AcDbText
  0
TEXT
  5
3BC6
330
3BC1
100
AcDbEntity
  8
双点划线
100
AcDbText
 10
107.9098244793001
 20
27.04709866567515
 30
0.0
 40
2.339749999999999
  1
阶段标记
  7
样式 1
 72
     1
 11
114.6022937530431
 21
27.04709866567515
 31
0.0
100
AcDbText
  0
LINE
  5
3BC7
330
3BC1
100
AcDbEntity
  8
双点划线
100
AcDbLine
 10
111.4753327763418
 20
13.97949999999997
 30
0.0
 11
111.4753327763418
 21
22.97949999999997
 31
0.0
  0
LINE
  5
3BC8
330
3BC1
100
AcDbEntity
  8
0
100
AcDbLine
 10
104.9753327763418
 20
22.97949999999997
 30
0.0
 11
204.0594999999998
 21
22.97949999999997
 31
0.0
  0
LINE
  5
3BC9
330
3BC1
100
AcDbEntity
  8
0
100
AcDbLine
 10
104.9753327763418
 20
13.97949999999997
 30
0.0
 11
154.9753327763417
 21
13.97949999999997
 31
0.0
  0
TEXT
  5
3BCA
330
3BC1
100
AcDbEntity
  8
双点划线
100
AcDbText
 10
88.29658298313285
 20
34.96806952012588
 30
0.0
 40
2.339749999999999
  1
（年月日）
  7
样式 1
 72
     1
 11
96.66216957531162
 21
34.96806952012588
 31
0.0
100
AcDbText
  0
LINE
  5
3BCB
330
3BC1
100
AcDbEntity
  8
0
100
AcDbLine
 10
104.9539999999999
 20
32.94953759584036
 30
0.0
 11
104.9539999999999
 21
60.99499999999995
 31
0.0
  0
TEXT
  5
3BCC
330
3BC1
100
AcDbEntity
  8
双点划线
100
AcDbText
 10
88.29658298313285
 20
28.33321842070115
 30
0.0
 40
2.339749999999999
  1
（年月日）
  7
样式 1
 72
     1
 11
96.66216957531162
 21
28.33321842070115
 31
0.0
100
AcDbText
  0
LINE
  5
3BCD
330
3BC1
100
AcDbEntity
  8
0
100
AcDbLine
 10
88.97533277634181
 20
5.479499999999971
 30
0.0
 11
88.97533277634181
 21
32.94953759584036
 31
0.0
  0
LINE
  5
3BCE
330
3BC1
100
AcDbEntity
  8
0
100
AcDbLine
 10
88.95399999999996
 20
32.94953759584036
 30
0.0
 11
88.95399999999996
 21
60.99499999999995
 31
0.0
  0
LINE
  5
3BCF
330
3BC1
100
AcDbEntity
  8
0
100
AcDbLine
 10
204.0594999999998
 20
291.511
 30
0.0
 11
25.0
 21
291.511
 31
0.0
  0
LINE
  5
3BD0
330
3BC1
100
AcDbEntity
  8
0
100
AcDbLine
 10
210.039
 20
297.011
 30
0.0
 11
0.0
 21
297.011
 31
0.0
  0
LINE
  5
3BD1
330
3BC1
100
AcDbEntity
  8
双点划线
100
AcDbLine
 10
24.99999999999989
 20
280.7802
 30
0.0
 11
81.15399999999988
 21
280.7802
 31
0.0
  0
LINE
  5
3BD2
330
3BC1
100
AcDbEntity
  8
双点划线
100
AcDbLine
 10
24.99999999999989
 20
291.511
 30
0.0
 11
24.99999999999989
 21
280.7802
 31
0.0
  0
TEXT
  5
3BD3
330
3BC1
100
AcDbEntity
  8
双点划线
100
AcDbText
 10
48.47433373991572
 20
28.33321842070115
 30
0.0
 40
2.339749999999999
  1
（年月日）
  7
样式 1
 72
     1
 11
56.83992033209449
 21
28.33321842070115
 31
0.0
100
AcDbText
  0
TEXT
  5
3BD4
330
3BC1
100
AcDbEntity
  8
双点划线
100
AcDbText
 10
35.96192005248924
 20
28.33321842070115
 30
0.0
 40
2.339749999999999
  1
（签名）
  7
样式 1
 72
     1
 11
42.65438932623225
 21
28.33321842070115
 31
0.0
100
AcDbText
  0
LINE
  5
3BD5
330
3BC1
100
AcDbEntity
  8
0
100
AcDbLine
 10
48.97533277634181
 20
5.479499999999971
 30
0.0
 11
48.97533277634181
 21
32.94953759584036
 31
0.0
  0
LINE
  5
3BD6
330
3BC1
100
AcDbEntity
  8
0
100
AcDbLine
 10
25.0
 20
5.479499999999971
 30
0.0
 11
204.0594999999998
 21
5.479499999999971
 31
0.0
  0
LINE
  5
3BD7
330
3BC1
100
AcDbEntity
  8
0
100
AcDbLine
 10
24.99999999999989
 20
291.511
 30
0.0
 11
25.0
 21
5.47950000000003
 31
0.0
  0
LINE
  5
3BD8
330
3BC1
100
AcDbEntity
  8
0
100
AcDbLine
 10
0.0
 20
297.011
 30
0.0
 11
0.0
 21
0.0
 31
0.0
  0
LINE
  5
3BD9
330
3BC1
100
AcDbEntity
  8
0
100
AcDbLine
 10
0.0
 20
0.0
 30
0.0
 11
210.039
 21
0.0
 31
0.0
  0
LINE
  5
3BDA
330
3BC1
100
AcDbEntity
  8
双点划线
100
AcDbLine
 10
25.0
 20
53.34629999999997
 30
0.0
 11
0.0
 21
53.34629999999997
 31
0.0
  0
LINE
  5
3BDB
330
3BC1
100
AcDbEntity
  8
双点划线
100
AcDbLine
 10
25.0
 20
65.51299999999997
 30
0.0
 11
0.0
 21
65.51299999999997
 31
0.0
  0
LINE
  5
3BDC
330
3BC1
100
AcDbEntity
  8
双点划线
100
AcDbLine
 10
25.0
 20
60.83350000000002
 30
0.0
 11
0.0
 21
60.83350000000002
 31
0.0
  0
LINE
  5
3BDD
330
3BC1
100
AcDbEntity
  8
双点划线
100
AcDbLine
 10
25.0
 20
73.0002
 30
0.0
 11
0.0
 21
73.0002
 31
0.0
  0
LINE
  5
3BDE
330
3BC1
100
AcDbEntity
  8
双点划线
100
AcDbLine
 10
25.0
 20
77.67969999999997
 30
0.0
 11
0.0
 21
77.67969999999997
 31
0.0
  0
LINE
  5
3BDF
330
3BC1
100
AcDbEntity
  8
双点划线
100
AcDbLine
 10
25.0
 20
82.35919999999993
 30
0.0
 11
0.0
 21
82.35919999999993
 31
0.0
  0
TEXT
  5
3BE0
330
3BC1
100
AcDbEntity
  8
双点划线
100
AcDbText
 10
7.437848032109572
 20
74.252974655022
 30
0.0
 40
2.339749999999999
  1
描　　　图
  7
样式 1
 72
     1
 11
15.80343462428834
 21
74.252974655022
 31
0.0
100
AcDbText
  0
TEXT
  5
3BE1
330
3BC1
100
AcDbEntity
  8
双点划线
100
AcDbText
 10
7.204886376206054
 20
62.15440610421996
 30
0.0
 40
2.339749999999999
  1
描　　　校
  7
样式 1
 72
     1
 11
15.57047296838482
 21
62.15440610421996
 31
0.0
100
AcDbText
  0
TEXT
  5
3BE2
330
3BC1
100
AcDbEntity
  8
双点划线
100
AcDbText
 10
6.433977641048135
 20
78.90626984034901
 30
0.0
 40
1.871799999999995
  1
借(通)用件登记
  7
样式 1
 72
     1
 11
15.80343462428834
 21
78.90626984034901
 31
0.0
100
AcDbText
  0
LINE
  5
3BE3
330
3BC1
100
AcDbEntity
  8
双点划线
100
AcDbLine
 10
25.0
 20
5.47950000000003
 30
0.0
 11
0.0
 21
5.47950000000003
 31
0.0
  0
LINE
  5
3BE4
330
3BC1
100
AcDbEntity
  8
双点划线
100
AcDbLine
 10
25.0
 20
12.16669999999999
 30
0.0
 11
0.0
 21
12.16669999999999
 31
0.0
  0
LINE
  5
3BE5
330
3BC1
100
AcDbEntity
  8
双点划线
100
AcDbLine
 10
25.0
 20
16.84620000000001
 30
0.0
 11
0.0
 21
16.84620000000001
 31
0.0
  0
LINE
  5
3BE6
330
3BC1
100
AcDbEntity
  8
双点划线
100
AcDbLine
 10
25.0
 20
24.33339999999998
 30
0.0
 11
0.0
 21
24.33339999999998
 31
0.0
  0
LINE
  5
3BE7
330
3BC1
100
AcDbEntity
  8
双点划线
100
AcDbLine
 10
25.0
 20
29.0129
 30
0.0
 11
0.0
 21
29.0129
 31
0.0
  0
LINE
  5
3BE8
330
3BC1
100
AcDbEntity
  8
双点划线
100
AcDbLine
 10
25.0
 20
41.17959999999999
 30
0.0
 11
0.0
 21
41.17959999999999
 31
0.0
  0
LINE
  5
3BE9
330
3BC1
100
AcDbEntity
  8
双点划线
100
AcDbLine
 10
25.0
 20
36.50009999999998
 30
0.0
 11
0.0
 21
36.50009999999998
 31
0.0
  0
LINE
  5
3BEA
330
3BC1
100
AcDbEntity
  8
双点划线
100
AcDbLine
 10
25.0
 20
48.66680000000002
 30
0.0
 11
0.0
 21
48.66680000000002
 31
0.0
  0
TEXT
  5
3BEB
330
3BC1
100
AcDbEntity
  8
双点划线
100
AcDbText
 10
6.971924720302533
 20
12.82947072604469
 30
0.0
 40
2.339749999999999
  1
日　　　期
  7
样式 1
 72
     1
 11
15.3375113124813
 21
12.82947072604469
 31
0.0
100
AcDbText
  0
TEXT
  5
3BEC
330
3BC1
100
AcDbEntity
  8
双点划线
100
AcDbText
 10
6.971924720302533
 20
24.92803994494108
 30
0.0
 40
2.339749999999999
  1
签　　　字
  7
样式 1
 72
     1
 11
15.3375113124813
 21
24.92803994494108
 31
0.0
100
AcDbText
  0
TEXT
  5
3BED
330
3BC1
100
AcDbEntity
  8
双点划线
100
AcDbText
 10
8.645042038738285
 20
37.25927378948495
 30
0.0
 40
2.339749999999999
  1
底图总号
  7
样式 1
 72
     1
 11
15.3375113124813
 21
37.25927378948495
 31
0.0
100
AcDbText
  0
TEXT
  5
3BEE
330
3BC1
100
AcDbEntity
  8
双点划线
100
AcDbText
 10
7.437849316770272
 20
49.59050763402894
 30
0.0
 40
2.339749999999999
  1
旧底图总号
  7
样式 1
 72
     1
 11
15.80343590894904
 21
49.59050763402894
 31
0.0
100
AcDbText
  0
TEXT
  5
3BEF
330
3BC1
100
AcDbEntity
  8
双点划线
100
AcDbText
 10
26.7448669964567
 20
34.58146801547815
 30
0.0
 40
2.339749999999999
  1
标记
  7
样式 1
 72
     1
 11
30.09110163332821
 21
34.58146801547815
 31
0.0
100
AcDbText
  0
TEXT
  5
3BF0
330
3BC1
100
AcDbEntity
  8
双点划线
100
AcDbText
 10
36.50873761543721
 20
34.52945361067988
 30
0.0
 40
2.339749999999999
  1
处数
  7
样式 1
 72
     1
 11
39.85497225230871
 21
34.52945361067988
 31
0.0
100
AcDbText
  0
TEXT
  5
3BF1
330
3BC1
100
AcDbEntity
  8
双点划线
100
AcDbText
 10
27.26547361905919
 20
14.2188469205193
 30
0.0
 40
2.339749999999999
  1
审核
  7
样式 1
 72
     1
 11
30.6117082559307
 21
14.2188469205193
 31
0.0
100
AcDbText
  0
TEXT
  5
3BF2
330
3BC1
100
AcDbEntity
  8
双点划线
100
AcDbText
 10
27.46928320219819
 20
28.33321842070115
 30
0.0
 40
2.339749999999999
  1
设计
  7
样式 1
 72
     1
 11
30.81551783906969
 21
28.33321842070115
 31
0.0
100
AcDbText
  0
TEXT
  5
3BF3
330
3BC1
100
AcDbEntity
  8
双点划线
100
AcDbText
 10
47.20427101311237
 20
34.73927674876148
 30
0.0
 40
2.05898
  1
分    区
  7
样式 1
 72
     1
 11
53.09364397400623
 21
34.73927674876148
 31
0.0
100
AcDbText
  0
LINE
  5
3BF4
330
3BC1
100
AcDbEntity
  8
0
100
AcDbLine
 10
34.98719999999992
 20
32.94953759584036
 30
0.0
 11
34.98719999999992
 21
60.99499999999995
 31
0.0
  0
LINE
  5
3BF5
330
3BC1
100
AcDbEntity
  8
0
100
AcDbLine
 10
44.97439999999992
 20
32.94953759584036
 30
0.0
 11
44.97439999999992
 21
60.99499999999995
 31
0.0
  0
LINE
  5
3BF6
330
3BC1
100
AcDbEntity
  8
0
100
AcDbLine
 10
36.97533277634182
 20
5.479499999999971
 30
0.0
 11
36.97533277634182
 21
32.94953759584036
 31
0.0
  0
TEXT
  5
3BF7
330
3BC1
100
AcDbEntity
  8
双点划线
100
AcDbText
 10
27.24684094043537
 20
7.229866164063477
 30
0.0
 40
2.339749999999999
  1
工艺
  7
样式 1
 72
     1
 11
30.59307557730688
 21
7.229866164063477
 31
0.0
100
AcDbText
  0
LINE
  5
3BF8
330
3BC1
100
AcDbEntity
  8
0
100
AcDbLine
 10
25.0
 20
60.99499999999995
 30
0.0
 11
204.0594999999998
 21
60.99499999999995
 31
0.0
  0
LINE
  5
3BF9
330
3BC1
100
AcDbEntity
  8
0
100
AcDbLine
 10
25.0
 20
11.959
 30
0.0
 11
104.9753327763418
 21
11.959
 31
0.0
  0
LINE
  5
3BFA
330
3BC1
100
AcDbEntity
  8
0
100
AcDbLine
 10
25.0
 20
18.93238501502094
 30
0.0
 11
104.9753327763418
 21
18.93238501502094
 31
0.0
  0
LINE
  5
3BFB
330
3BC1
100
AcDbEntity
  8
0
100
AcDbLine
 10
25.0
 20
25.91188501502093
 30
0.0
 11
104.9753327763418
 21
25.91188501502093
 31
0.0
  0
LINE
  5
3BFC
330
3BC1
100
AcDbEntity
  8
0
100
AcDbLine
 10
25.0
 20
32.94953759584036
 30
0.0
 11
154.9753327763417
 21
32.94953759584036
 31
0.0
  0
LINE
  5
3BFD
330
3BC1
100
AcDbEntity
  8
0
100
AcDbLine
 10
25.0
 20
39.97700000000003
 30
0.0
 11
104.9539999999999
 21
39.97700000000003
 31
0.0
  0
LINE
  5
3BFE
330
3BC1
100
AcDbEntity
  8
0
100
AcDbLine
 10
25.0
 20
46.95649999999996
 30
0.0
 11
104.9539999999999
 21
46.95649999999996
 31
0.0
  0
LINE
  5
3BFF
330
3BC1
100
AcDbEntity
  8
0
100
AcDbLine
 10
25.0
 20
53.93599999999998
 30
0.0
 11
104.9539999999999
 21
53.93599999999998
 31
0.0
  0
TEXT
  5
3C00
330
3BC1
100
AcDbEntity
  8
双点划线
100
AcDbText
 10
79.41030400668445
 20
28.33321842070115
 30
0.0
 40
2.339749999999999
  1
签名
  7
样式 1
 72
     1
 11
82.75653864355595
 21
28.33321842070115
 31
0.0
100
AcDbText
  0
TEXT
  5
3C01
330
3BC1
100
AcDbEntity
  8
双点划线
100
AcDbText
 10
65.80666080101773
 20
28.33321842070115
 30
0.0
 40
2.339749999999999
  1
标准化
  7
样式 1
 72
     1
 11
70.82601275632498
 21
28.33321842070115
 31
0.0
100
AcDbText
  0
LINE
  5
3C02
330
3BC1
100
AcDbEntity
  8
0
100
AcDbLine
 10
76.97533277634182
 20
5.479499999999971
 30
0.0
 11
76.97533277634182
 21
32.94953759584036
 31
0.0
  0
LINE
  5
3C03
330
3BC1
100
AcDbEntity
  8
0
100
AcDbLine
 10
64.97533277634182
 20
5.479499999999971
 30
0.0
 11
64.97533277634182
 21
32.94953759584036
 31
0.0
  0
TEXT
  5
3C04
330
3BC1
100
AcDbEntity
  8
双点划线
100
AcDbText
 10
79.44377835189901
 20
34.65993115721875
 30
0.0
 40
2.339749999999999
  1
签字
  7
样式 1
 72
     1
 11
82.79001298877052
 21
34.65993115721875
 31
0.0
100
AcDbText
  0
LINE
  5
3C05
330
3BC1
100
AcDbEntity
  8
0
100
AcDbLine
 10
76.92319999999995
 20
32.94953759584036
 30
0.0
 11
76.92319999999995
 21
60.99499999999995
 31
0.0
  0
LINE
  5
3C06
330
3BC1
100
AcDbEntity
  8
0
100
AcDbLine
 10
60.94879999999989
 20
32.94953759584036
 30
0.0
 11
60.94879999999999
 21
60.99499999999995
 31
0.0
  0
TEXT
  5
3C07
330
3BC1
100
AcDbEntity
  8
双点划线
100
AcDbText
 10
60.66455597152725
 20
34.65993115721875
 30
0.0
 40
2.339749999999999
  1
更改文件号
  7
样式 1
 72
     1
 11
69.03014256370602
 21
34.65993115721875
 31
0.0
100
AcDbText
  0
TEXT
  5
3C08
330
3BC1
100
AcDbEntity
  8
双点划线
100
AcDbText
 10
67.46746072184544
 20
7.229866164063477
 30
0.0
 40
2.339749999999999
  1
批准
  7
样式 1
 72
     1
 11
70.81369535871694
 21
7.229866164063477
 31
0.0
100
AcDbText
  0
TEXT
  5
3C09
330
3BC1
100
AcDbEntity
  8
双点划线
100
AcDbText
 10
145.7648826533977
 20
27.04709866567515
 30
0.0
 40
2.339749999999999
  1
比例
  7
样式 1
 72
     1
 11
149.1111172902692
 21
27.04709866567515
 31
0.0
100
AcDbText
  0
TEXT
  5
3C0A
330
3BC1
100
AcDbEntity
  8
双点划线
100
AcDbText
 10
135.7984357629066
 20
27.04709866567515
 30
0.0
 40
2.339749999999999
  1
重量
  7
样式 1
 72
     1
 11
139.1446703997781
 21
27.04709866567515
 31
0.0
100
AcDbText
  0
TEXT
  5
3C0B
330
3BC1
100
AcDbEntity
  8
双点划线
100
AcDbText
 10
126.4548910473656
 20
27.04709866567515
 30
0.0
 40
2.339749999999999
  1
材料
  7
样式 1
 72
     1
 11
129.8011256842371
 21
27.04709866567515
 31
0.0
100
AcDbText
  0
LINE
  5
3C0C
330
3BC1
100
AcDbEntity
  8
0
100
AcDbLine
 10
144.4753327763418
 20
13.97949999999997
 30
0.0
 11
144.4753327763418
 21
32.94953759584036
 31
0.0
  0
LINE
  5
3C0D
330
3BC1
100
AcDbEntity
  8
0
100
AcDbLine
 10
134.4753327763418
 20
13.97949999999997
 30
0.0
 11
134.4753327763418
 21
32.94953759584036
 31
0.0
  0
LINE
  5
3C0E
330
3BC1
100
AcDbEntity
  8
0
100
AcDbLine
 10
124.4753327763418
 20
13.97949999999997
 30
0.0
 11
124.4753327763418
 21
32.94953759584036
 31
0.0
  0
LINE
  5
3C0F
330
3BC1
100
AcDbEntity
  8
0
100
AcDbLine
 10
154.9753327763417
 20
5.479499999999971
 30
0.0
 11
154.9753327763419
 21
60.99499999999995
 31
0.0
  0
MTEXT
  5
3C10
330
3BC1
100
AcDbEntity
  8
双点划线
100
AcDbMText
 10
180.0183301976884
 20
52.77403245273347
 30
0.0
 40
2.5
 41
131.1745308102817
 46
0.0
 71
     5
 72
     5
  1
{\fSimSun|b0|i0|c134|p2;浙江金鑫五金制造有限公司}
 73
     1
 44
1.0
  0
LINE
  5
3C11
330
3BC1
100
AcDbEntity
  8
0
100
AcDbLine
 10
204.0594999999998
 20
5.479499999999971
 30
0.0
 11
204.0594999999998
 21
291.511
 31
0.0
  0
LINE
  5
3C12
330
3BC1
100
AcDbEntity
  8
0
100
AcDbLine
 10
210.039
 20
0.0
 30
0.0
 11
210.039
 21
297.011
 31
0.0
  0
LINE
  5
3C13
330
3BC1
100
AcDbEntity
  8
0
100
AcDbLine
 10
154.9753327763419
 20
42.97949999999997
 30
0.0
 11
204.0594999999998
 21
42.97949999999997
 31
0.0
  0
LINE
  5
3C14
330
3BC1
100
AcDbEntity
  8
双点划线
100
AcDbLine
 10
117.9753327763418
 20
13.97949999999997
 30
0.0
 11
117.9753327763418
 21
22.97949999999997
 31
0.0
  0
ENDBLK
  5
3C15
330
3BC1
100
AcDbEntity
  8
0
 48
0.5
100
AcDbBlockEnd
  0
BLOCK
  5
6D82
330
6D81
100
AcDbEntity
  8
0
100
AcDbBlockBegin
  2
_DotSmall
 70
     0
 10
0.0
 20
0.0
 30
0.0
  3
_DotSmall
  1

  0
LWPOLYLINE
  5
6D83
330
6D81
100
AcDbEntity
  8
0
  6
ByBlock
 62
     0
100
AcDbPolyline
 90
        2
 70
     1
 43
0.5
 10
-0.0625
 20
0.0
 42
1.0
 10
0.0625
 20
0.0
 42
1.0
  0
ENDBLK
  5
6D84
330
6D81
100
AcDbEntity
  8
0
100
AcDbBlockEnd
  0
BLOCK
  5
718F
330
718E
100
AcDbEntity
  8
0
100
AcDbBlockBegin
  2
_Open30
 70
     0
 10
0.0
 20
0.0
 30
0.0
  3
_Open30
  1

  0
LINE
  5
7190
330
718E
100
AcDbEntity
  8
图层4
 62
     0
370
    -2
100
AcDbLine
 10
-1.0
 20
0.26794919
 30
0.0
 11
0.0
 21
0.0
 31
0.0
  0
LINE
  5
7191
330
718E
100
AcDbEntity
  8
图层4
 62
     0
370
    -2
100
AcDbLine
 10
0.0
 20
0.0
 30
0.0
 11
-1.0
 21
-0.26794919
 31
0.0
  0
LINE
  5
7192
330
718E
100
AcDbEntity
  8
图层4
 62
     0
370
    -2
100
AcDbLine
 10
0.0
 20
0.0
 30
0.0
 11
-1.0
 21
0.0
 31
0.0
  0
ENDBLK
  5
7193
330
718E
100
AcDbEntity
  8
0
100
AcDbBlockEnd
  0
BLOCK
  5
84B3
330
84B2
100
AcDbEntity
  8
0
100
AcDbBlockBegin
  2
_Dot
 70
     0
 10
0.0
 20
0.0
 30
0.0
  3
_Dot
  1

  0
LWPOLYLINE
  5
84B4
330
84B2
100
AcDbEntity
  8
0
  6
ByBlock
 62
     0
100
AcDbPolyline
 90
        2
 70
     1
 43
0.5
 10
-0.25
 20
0.0
 42
1.0
 10
0.25
 20
0.0
 42
1.0
  0
LINE
  5
84B5
330
84B2
100
AcDbEntity
  8
0
  6
ByBlock
 62
     0
370
    -2
100
AcDbLine
 10
-0.5
 20
0.0
 30
0.0
 11
-1.0
 21
0.0
 31
0.0
  0
ENDBLK
  5
84B6
330
84B2
100
AcDbEntity
  8
0
100
AcDbBlockEnd
  0
BLOCK
  5
8BB7
330
8BAD
100
AcDbEntity
  8
0
 48
0.5
100
AcDbBlockBegin
  2
*D6
 70
     1
 10
0.0
 20
0.0
 30
0.0
  3
*D6
  1

  0
LINE
  5
8C88
330
8BAD
100
AcDbEntity
  8
图层4
100
AcDbLine
 10
933.8722284623743
 20
472.8869569766945
 30
0.0
 11
953.4835589506494
 21
472.8869569766945
 31
0.0
  0
LINE
  5
8C89
330
8BAD
100
AcDbEntity
  8
图层4
100
AcDbLine
 10
886.8722284623745
 20
337.8869569766945
 30
0.0
 11
953.4835589506494
 21
337.8869569766944
 31
0.0
  0
LINE
  5
8C8A
330
8BAD
100
AcDbEntity
  8
图层4
100
AcDbLine
 10
952.2335589506493
 20
470.8869569766944
 30
0.0
 11
952.2335589506493
 21
339.8869569766944
 31
0.0
  0
INSERT
  5
8C8B
330
8BAD
100
AcDbEntity
  8
图层4
100
AcDbBlockReference
  2
_Open30
 10
952.2335589506493
 20
472.8869569766945
 30
0.0
 41
2.0
 42
2.0
 43
2.0
 50
90.0
  0
INSERT
  5
8C8C
330
8BAD
100
AcDbEntity
  8
图层4
100
AcDbBlockReference
  2
_Open30
 10
952.2335589506493
 20
337.8869569766944
 30
0.0
 41
2.0
 42
2.0
 43
2.0
 50
270.0
  0
MTEXT
  5
8C8D
330
8BAD
100
AcDbEntity
  8
图层4
100
AcDbMText
 10
950.3585589506492
 20
405.3869569766946
 30
0.0
 40
2.5
 41
0.0
 46
0.0
 71
     5
 72
     1
  1
135
 11
0.0000000000000001
 21
1.0
 31
0.0
 73
     1
 44
1.0
  0
POINT
  5
8C8E
330
8BAD
100
AcDbEntity
  8
Defpoints
 62
     0
100
AcDbPoint
 10
933.2472284623744
 20
472.8869569766945
 30
0.0
  0
POINT
  5
8C8F
330
8BAD
100
AcDbEntity
  8
Defpoints
 62
     0
100
AcDbPoint
 10
886.2472284623745
 20
337.8869569766945
 30
0.0
  0
POINT
  5
8C90
330
8BAD
100
AcDbEntity
  8
Defpoints
 62
     0
100
AcDbPoint
 10
952.2335589506493
 20
337.8869569766944
 30
0.0
  0
ENDBLK
  5
8BB8
330
8BAD
100
AcDbEntity
  8
0
 48
0.5
100
AcDbBlockEnd
  0
BLOCK
  5
8BC3
330
8BB9
100
AcDbEntity
  8
0
 48
0.5
100
AcDbBlockBegin
  2
*D7
 70
     1
 10
0.0
 20
0.0
 30
0.0
  3
*D7
  1

  0
LINE
  5
8C50
330
8BB9
100
AcDbEntity
  8
图层4
100
AcDbLine
 10
933.8722284623743
 20
472.8869569766945
 30
0.0
 11
948.2753292854731
 21
472.8869569766945
 31
0.0
  0
LINE
  5
8C51
330
8BB9
100
AcDbEntity
  8
图层4
100
AcDbLine
 10
933.8722284623743
 20
466.8869569766944
 30
0.0
 11
948.2753292854731
 21
466.8869569766944
 31
0.0
  0
LINE
  5
8C52
330
8BB9
100
AcDbEntity
  8
图层4
100
AcDbLine
 10
947.0253292854735
 20
470.8869569766944
 30
0.0
 11
947.0253292854735
 21
468.8869569766945
 31
0.0
  0
INSERT
  5
8C53
330
8BB9
100
AcDbEntity
  8
图层4
100
AcDbBlockReference
  2
_Open30
 10
947.0253292854735
 20
472.8869569766945
 30
0.0
 41
2.0
 42
2.0
 43
2.0
 50
90.0
  0
INSERT
  5
8C54
330
8BB9
100
AcDbEntity
  8
图层4
100
AcDbBlockReference
  2
_Open30
 10
947.0253292854735
 20
466.8869569766944
 30
0.0
 41
2.0
 42
2.0
 43
2.0
 50
270.0
  0
MTEXT
  5
8C55
330
8BB9
100
AcDbEntity
  8
图层4
100
AcDbMText
 10
945.1503292854731
 20
469.8869569766946
 30
0.0
 40
2.5
 41
0.0
 46
0.0
 71
     5
 72
     1
  1
6
 11
0.0000000000000001
 21
1.0
 31
0.0
 73
     1
 44
1.0
  0
POINT
  5
8C56
330
8BB9
100
AcDbEntity
  8
Defpoints
 62
     0
100
AcDbPoint
 10
933.2472284623744
 20
472.8869569766945
 30
0.0
  0
POINT
  5
8C57
330
8BB9
100
AcDbEntity
  8
Defpoints
 62
     0
100
AcDbPoint
 10
933.2472284623744
 20
466.8869569766944
 30
0.0
  0
POINT
  5
8C58
330
8BB9
100
AcDbEntity
  8
Defpoints
 62
     0
100
AcDbPoint
 10
947.0253292854735
 20
466.8869569766944
 30
0.0
  0
ENDBLK
  5
8BC4
330
8BB9
100
AcDbEntity
  8
0
 48
0.5
100
AcDbBlockEnd
  0
BLOCK
  5
8BCF
330
8BC5
100
AcDbEntity
  8
0
 48
0.5
100
AcDbBlockBegin
  2
*D8
 70
     1
 10
0.0
 20
0.0
 30
0.0
  3
*D8
  1

  0
LINE
  5
8C59
330
8BC5
100
AcDbEntity
  8
图层4
100
AcDbLine
 10
922.9472284623744
 20
473.5119569766943
 30
0.0
 11
922.9472284623744
 21
483.7545445151707
 31
0.0
  0
LINE
  5
8C5A
330
8BC5
100
AcDbEntity
  8
图层4
100
AcDbLine
 10
849.5472284623744
 20
473.5119569766943
 30
0.0
 11
849.5472284623744
 21
483.7545445151707
 31
0.0
  0
LINE
  5
8C5B
330
8BC5
100
AcDbEntity
  8
图层4
100
AcDbLine
 10
920.9472284623743
 20
482.5045445151705
 30
0.0
 11
851.5472284623744
 21
482.5045445151705
 31
0.0
  0
INSERT
  5
8C5C
330
8BC5
100
AcDbEntity
  8
图层4
100
AcDbBlockReference
  2
_Open30
 10
922.9472284623744
 20
482.5045445151705
 30
0.0
 41
2.0
 42
2.0
 43
2.0
  0
INSERT
  5
8C5D
330
8BC5
100
AcDbEntity
  8
图层4
100
AcDbBlockReference
  2
_Open30
 10
849.5472284623744
 20
482.5045445151705
 30
0.0
 41
2.0
 42
2.0
 43
2.0
 50
180.0
  0
MTEXT
  5
8C5E
330
8BC5
100
AcDbEntity
  8
图层4
100
AcDbMText
 10
886.2472284623745
 20
484.3795445151704
 30
0.0
 40
2.5
 41
0.0
 46
0.0
 71
     5
 72
     1
  1
%%C73.4
 73
     1
 44
1.0
  0
POINT
  5
8C5F
330
8BC5
100
AcDbEntity
  8
Defpoints
 62
     0
100
AcDbPoint
 10
922.9472284623744
 20
472.8869569766945
 30
0.0
  0
POINT
  5
8C60
330
8BC5
100
AcDbEntity
  8
Defpoints
 62
     0
100
AcDbPoint
 10
849.5472284623744
 20
472.8869569766945
 30
0.0
  0
POINT
  5
8C61
330
8BC5
100
AcDbEntity
  8
Defpoints
 62
     0
100
AcDbPoint
 10
849.5472284623744
 20
482.5045445151705
 30
0.0
  0
ENDBLK
  5
8BD0
330
8BC5
100
AcDbEntity
  8
0
 48
0.5
100
AcDbBlockEnd
  0
BLOCK
  5
8BDB
330
8BD1
100
AcDbEntity
  8
0
 48
0.5
100
AcDbBlockBegin
  2
*D9
 70
     1
 10
0.0
 20
0.0
 30
0.0
  3
*D9
  1

  0
LINE
  5
8C62
330
8BD1
100
AcDbEntity
  8
图层4
100
AcDbLine
 10
844.7472284623744
 20
467.5119569766945
 30
0.0
 11
844.7472284623744
 21
494.794719528804
 31
0.0
  0
LINE
  5
8C63
330
8BD1
100
AcDbEntity
  8
图层4
100
AcDbLine
 10
927.7472284623744
 20
467.5119569766945
 30
0.0
 11
927.7472284623744
 21
494.794719528804
 31
0.0
  0
LINE
  5
8C64
330
8BD1
100
AcDbEntity
  8
图层4
100
AcDbLine
 10
846.7472284623744
 20
493.544719528804
 30
0.0
 11
925.7472284623744
 21
493.544719528804
 31
0.0
  0
INSERT
  5
8C65
330
8BD1
100
AcDbEntity
  8
图层4
100
AcDbBlockReference
  2
_Open30
 10
844.7472284623744
 20
493.544719528804
 30
0.0
 41
2.0
 42
2.0
 43
2.0
 50
180.0
  0
INSERT
  5
8C66
330
8BD1
100
AcDbEntity
  8
图层4
100
AcDbBlockReference
  2
_Open30
 10
927.7472284623744
 20
493.544719528804
 30
0.0
 41
2.0
 42
2.0
 43
2.0
  0
MTEXT
  5
8C67
330
8BD1
100
AcDbEntity
  8
图层4
100
AcDbMText
 10
886.2472284623745
 20
496.2113861954708
 30
0.0
 40
2.5
 41
0.0
 46
0.0
 71
     5
 72
     1
  1
%%C83{\H0.7x;\S0^ -0.5;}
 73
     1
 44
1.0
  0
POINT
  5
8C68
330
8BD1
100
AcDbEntity
  8
Defpoints
 62
     0
100
AcDbPoint
 10
844.7472284623744
 20
466.8869569766944
 30
0.0
  0
POINT
  5
8C69
330
8BD1
100
AcDbEntity
  8
Defpoints
 62
     0
100
AcDbPoint
 10
927.7472284623744
 20
466.8869569766944
 30
0.0
  0
POINT
  5
8C6A
330
8BD1
100
AcDbEntity
  8
Defpoints
 62
     0
100
AcDbPoint
 10
927.7472284623744
 20
493.544719528804
 30
0.0
  0
ENDBLK
  5
8BDC
330
8BD1
100
AcDbEntity
  8
0
 48
0.5
100
AcDbBlockEnd
  0
BLOCK
  5
8BE7
330
8BDD
100
AcDbEntity
  8
0
 48
0.5
100
AcDbBlockBegin
  2
*D10
 70
     1
 10
0.0
 20
0.0
 30
0.0
  3
*D10
  1

  0
LINE
  5
8C6B
330
8BDD
100
AcDbEntity
  8
图层4
100
AcDbLine
 10
839.2472284623744
 20
473.5119569766943
 30
0.0
 11
839.2472284623744
 21
502.325125705157
 31
0.0
  0
LINE
  5
8C6C
330
8BDD
100
AcDbEntity
  8
图层4
100
AcDbLine
 10
933.2472284623744
 20
473.5119569766943
 30
0.0
 11
933.2472284623744
 21
502.325125705157
 31
0.0
  0
LINE
  5
8C6D
330
8BDD
100
AcDbEntity
  8
图层4
100
AcDbLine
 10
841.2472284623744
 20
501.0751257051571
 30
0.0
 11
931.2472284623744
 21
501.0751257051571
 31
0.0
  0
INSERT
  5
8C6E
330
8BDD
100
AcDbEntity
  8
图层4
100
AcDbBlockReference
  2
_Open30
 10
839.2472284623744
 20
501.0751257051571
 30
0.0
 41
2.0
 42
2.0
 43
2.0
 50
180.0
  0
INSERT
  5
8C6F
330
8BDD
100
AcDbEntity
  8
图层4
100
AcDbBlockReference
  2
_Open30
 10
933.2472284623744
 20
501.0751257051571
 30
0.0
 41
2.0
 42
2.0
 43
2.0
  0
MTEXT
  5
8C70
330
8BDD
100
AcDbEntity
  8
图层4
100
AcDbMText
 10
886.2472284623745
 20
502.950125705157
 30
0.0
 40
2.5
 41
0.0
 46
0.0
 71
     5
 72
     1
  1
%%C94
 73
     1
 44
1.0
  0
POINT
  5
8C71
330
8BDD
100
AcDbEntity
  8
Defpoints
 62
     0
100
AcDbPoint
 10
839.2472284623744
 20
472.8869569766945
 30
0.0
  0
POINT
  5
8C72
330
8BDD
100
AcDbEntity
  8
Defpoints
 62
     0
100
AcDbPoint
 10
933.2472284623744
 20
472.8869569766945
 30
0.0
  0
POINT
  5
8C73
330
8BDD
100
AcDbEntity
  8
Defpoints
 62
     0
100
AcDbPoint
 10
933.2472284623744
 20
501.0751257051571
 30
0.0
  0
ENDBLK
  5
8BE8
330
8BDD
100
AcDbEntity
  8
0
 48
0.5
100
AcDbBlockEnd
  0
BLOCK
  5
8BEF
330
8BE9
100
AcDbEntity
  8
0
 48
0.5
100
AcDbBlockBegin
  2
*D11
 70
     1
 10
0.0
 20
0.0
 30
0.0
  3
*D11
  1

  0
LINE
  5
8C74
330
8BE9
100
AcDbEntity
  8
图层4
100
AcDbLine
 10
900.1348277455509
 20
364.1131308789733
 30
0.0
 11
909.7415075644416
 21
354.9310257006561
 31
0.0
  0
MTEXT
  5
8C75
330
8BE9
100
AcDbEntity
  8
图层4
100
AcDbMText
 10
905.4966797791417
 20
361.5819665678553
 30
0.0
 40
2.5
 41
0.0
 46
0.0
 71
     5
 72
     1
  1
R34.5
 11
0.7229008954482278
 21
-0.6909517315704119
 31
0.0
 73
     1
 44
1.0
  0
INSERT
  5
8C76
330
8BE9
100
AcDbEntity
  8
图层4
100
AcDbBlockReference
  2
_Open30
 10
911.1873093553382
 20
353.5491222375153
 30
0.0
 41
2.0
 42
2.0
 43
2.0
 50
316.294506038452
  0
POINT
  5
8C77
330
8BE9
100
AcDbEntity
  8
Defpoints
 62
     0
100
AcDbPoint
 10
911.1873093553382
 20
353.5491222375153
 30
0.0
  0
POINT
  5
8C78
330
8BE9
100
AcDbEntity
  8
Defpoints
 62
     0
100
AcDbPoint
 10
886.2472284623745
 20
377.3869569766945
 30
0.0
  0
ENDBLK
  5
8BF0
330
8BE9
100
AcDbEntity
  8
0
 48
0.5
100
AcDbBlockEnd
  0
BLOCK
  5
8BF7
330
8BF1
100
AcDbEntity
  8
0
 48
0.5
100
AcDbBlockBegin
  2
*D12
 70
     1
 10
0.0
 20
0.0
 30
0.0
  3
*D12
  1

  0
LINE
  5
8C79
330
8BF1
100
AcDbEntity
  8
图层4
100
AcDbLine
 10
895.8409802483252
 20
360.7664106755432
 30
0.0
 11
904.9941139339138
 21
344.9092063600493
 31
0.0
  0
MTEXT
  5
8C7A
330
8BF1
100
AcDbEntity
  8
图层4
100
AcDbMText
 10
900.2769005998883
 20
356.8320923566233
 30
0.0
 40
2.5
 41
0.0
 46
0.0
 71
     5
 72
     1
  1
R39.5
 11
0.4999169459077077
 21
-0.8660733497772058
 31
0.0
 73
     1
 44
1.0
  0
INSERT
  5
8C7B
330
8BF1
100
AcDbEntity
  8
图层4
100
AcDbBlockReference
  2
_Open30
 10
905.9939478257293
 20
343.1770596604949
 30
0.0
 41
2.0
 42
2.0
 43
2.0
 50
299.9945053375898
  0
POINT
  5
8C7C
330
8BF1
100
AcDbEntity
  8
Defpoints
 62
     0
100
AcDbPoint
 10
905.9939478257293
 20
343.1770596604949
 30
0.0
  0
POINT
  5
8C7D
330
8BF1
100
AcDbEntity
  8
Defpoints
 62
     0
100
AcDbPoint
 10
886.2472284623747
 20
377.3869569766946
 30
0.0
  0
ENDBLK
  5
8BF8
330
8BF1
100
AcDbEntity
  8
0
 48
0.5
100
AcDbBlockEnd
  0
BLOCK
  5
8C04
330
8BF9
100
AcDbEntity
  8
0
 48
0.5
100
AcDbBlockBegin
  2
*D13
 70
     1
 10
0.0
 20
0.0
 30
0.0
  3
*D13
  1

  0
LINE
  5
8C7E
330
8BF9
100
AcDbEntity
  8
图层4
100
AcDbLine
 10
933.8722284623743
 20
466.8869569766944
 30
0.0
 11
937.8570549984036
 21
466.8869569766944
 31
0.0
  0
ARC
  5
8C7F
330
8BF9
100
AcDbEntity
  8
图层4
100
AcDbCircle
 10
927.7472284623744
 20
466.8869569766944
 30
0.0
 40
8.859826536029187
100
AcDbArc
 50
281.687566701657
 51
347.0385420099217
  0
INSERT
  5
8C80
330
8BF9
100
AcDbEntity
  8
图层4
100
AcDbBlockReference
  2
_Open30
 10
927.5502588760902
 20
458.0293202021024
 30
0.0
 41
2.0
 42
2.0
 43
2.0
 50
185.2068377066177
  0
INSERT
  5
8C81
330
8BF9
100
AcDbEntity
  8
图层4
100
AcDbBlockReference
  2
_Open30
 10
936.6070549984037
 20
466.8869569766944
 30
0.0
 41
2.0
 42
2.0
 43
2.0
 50
83.51927100496087
  0
MTEXT
  5
8C82
102
{ACAD_XDICTIONARY
360
8E2C
102
}
330
8BF9
100
AcDbEntity
  8
图层4
100
AcDbMText
 10
932.6310365446447
 20
461.8933390143381
 30
0.0
 40
2.5
 41
0.0
 46
0.0
 71
     5
 72
     1
  1
91°
 11
0.7149236901729871
 21
0.6992024865726944
 31
0.0
 73
     1
 44
1.0
  0
POINT
  5
8C83
330
8BF9
100
AcDbEntity
  8
Defpoints
 62
     0
100
AcDbPoint
 10
932.0629294565312
 20
459.1493054481258
 30
0.0
  0
POINT
  5
8C84
330
8BF9
100
AcDbEntity
  8
Defpoints
 62
     0
100
AcDbPoint
 10
927.7472284623744
 20
466.8869569766944
 30
0.0
  0
POINT
  5
8C85
330
8BF9
100
AcDbEntity
  8
Defpoints
 62
     0
100
AcDbPoint
 10
927.7472284623744
 20
466.8869569766944
 30
0.0
  0
POINT
  5
8C86
330
8BF9
100
AcDbEntity
  8
Defpoints
 62
     0
100
AcDbPoint
 10
925.7374657907901
 20
376.5088022378202
 30
0.0
  0
POINT
  5
8C87
330
8BF9
100
AcDbEntity
  8
Defpoints
 62
     0
100
AcDbPoint
 10
933.2472284623746
 20
466.8869569766944
 30
0.0
  0
ENDBLK
  5
8C05
330
8BF9
100
AcDbEntity
  8
0
 48
0.5
100
AcDbBlockEnd
  0
BLOCK
  5
8D4A
330
8D49
100
AcDbEntity
  8
0
100
AcDbBlockBegin
  2
*D14
 70
     1
 10
0.0
 20
0.0
 30
0.0
  3
*D14
  1

  0
LINE
  5
8D4B
330
8D49
100
AcDbEntity
  8
图层4
100
AcDbLine
 10
94.08230656524743
 20
285.6999415961398
 30
0.0
 11
65.02176072960496
 21
285.6999415961398
 31
0.0
  0
LINE
  5
8D4C
330
8D49
100
AcDbEntity
  8
图层4
100
AcDbLine
 10
81.83230656524736
 20
128.6999415961393
 30
0.0
 11
65.02176072960494
 21
128.6999415961393
 31
0.0
  0
LINE
  5
8D4D
330
8D49
100
AcDbEntity
  8
图层4
100
AcDbLine
 10
66.27176072960496
 20
283.6999415961398
 30
0.0
 11
66.27176072960494
 21
130.6999415961394
 31
0.0
  0
SOLID
  5
8D4E
330
8D49
100
AcDbEntity
  8
图层4
100
AcDbTrace
 10
65.93842739627163
 20
283.6999415961398
 30
0.0
 11
66.60509406293829
 21
283.6999415961398
 31
0.0
 12
66.27176072960496
 22
285.6999415961398
 32
0.0
 13
66.27176072960496
 23
285.6999415961398
 33
0.0
  0
SOLID
  5
8D4F
330
8D49
100
AcDbEntity
  8
图层4
100
AcDbTrace
 10
65.9384273962716
 20
130.6999415961394
 30
0.0
 11
66.60509406293826
 21
130.6999415961394
 31
0.0
 12
66.27176072960494
 22
128.6999415961393
 32
0.0
 13
66.27176072960494
 23
128.6999415961393
 33
0.0
  0
MTEXT
  5
8D50
330
8D49
100
AcDbEntity
  8
图层4
100
AcDbMText
 10
64.37152641093152
 20
207.1999415961396
 30
0.0
 40
2.5
 41
0.0
 46
0.0
 71
     5
 72
     1
  1
157
 11
0.0000000000000001
 21
1.0
 31
0.0
 73
     1
 44
1.0
  0
POINT
  5
8D51
330
8D49
100
AcDbEntity
  8
Defpoints
 62
     0
100
AcDbPoint
 10
94.70730656524743
 20
285.6999415961398
 30
0.0
  0
POINT
  5
8D52
330
8D49
100
AcDbEntity
  8
Defpoints
 62
     0
100
AcDbPoint
 10
82.45730656524736
 20
128.6999415961393
 30
0.0
  0
POINT
  5
8D53
330
8D49
100
AcDbEntity
  8
Defpoints
 62
     0
100
AcDbPoint
 10
66.27176072960494
 20
128.6999415961393
 30
0.0
  0
ENDBLK
  5
8D54
330
8D49
100
AcDbEntity
  8
0
100
AcDbBlockEnd
  0
BLOCK
  5
8D56
330
8D55
100
AcDbEntity
  8
0
100
AcDbBlockBegin
  2
*D15
 70
     1
 10
0.0
 20
0.0
 30
0.0
  3
*D15
  1

  0
LINE
  5
8D57
330
8D55
100
AcDbEntity
  8
图层4
100
AcDbLine
 10
93.70730656524731
 20
285.3249415961398
 30
0.0
 11
93.70730656524731
 21
295.5054769583072
 31
0.0
  0
LINE
  5
8D58
330
8D55
100
AcDbEntity
  8
图层4
100
AcDbLine
 10
125.7073065652472
 20
285.3249415961398
 30
0.0
 11
125.7073065652472
 21
295.5054769583072
 31
0.0
  0
LINE
  5
8D59
330
8D55
100
AcDbEntity
  8
图层4
100
AcDbLine
 10
95.70730656524736
 20
294.2554769583072
 30
0.0
 11
123.7073065652472
 21
294.2554769583072
 31
0.0
  0
SOLID
  5
8D5A
330
8D55
100
AcDbEntity
  8
图层4
100
AcDbTrace
 10
95.70730656524736
 20
294.5888102916405
 30
0.0
 11
95.70730656524736
 21
293.9221436249738
 31
0.0
 12
93.70730656524731
 22
294.2554769583072
 32
0.0
 13
93.70730656524731
 23
294.2554769583072
 33
0.0
  0
SOLID
  5
8D5B
330
8D55
100
AcDbEntity
  8
图层4
100
AcDbTrace
 10
123.7073065652472
 20
294.5888102916405
 30
0.0
 11
123.7073065652472
 21
293.9221436249738
 31
0.0
 12
125.7073065652472
 22
294.2554769583072
 32
0.0
 13
125.7073065652472
 23
294.2554769583072
 33
0.0
  0
MTEXT
  5
8D5C
330
8D55
100
AcDbEntity
  8
图层4
100
AcDbMText
 10
109.7073065652472
 20
296.1845504983216
 30
0.0
 40
2.5
 41
0.0
 46
0.0
 71
     5
 72
     1
  1
%%C32
 73
     1
 44
1.0
  0
POINT
  5
8D5D
330
8D55
100
AcDbEntity
  8
Defpoints
 62
     0
100
AcDbPoint
 10
93.70730656524731
 20
284.6999415961398
 30
0.0
  0
POINT
  5
8D5E
330
8D55
100
AcDbEntity
  8
Defpoints
 62
     0
100
AcDbPoint
 10
125.7073065652472
 20
284.6999415961398
 30
0.0
  0
POINT
  5
8D5F
330
8D55
100
AcDbEntity
  8
Defpoints
 62
     0
100
AcDbPoint
 10
125.7073065652472
 20
294.2554769583072
 30
0.0
  0
ENDBLK
  5
8D60
330
8D55
100
AcDbEntity
  8
0
100
AcDbBlockEnd
  0
BLOCK
  5
8DB4
330
8DB3
100
AcDbEntity
  8
0
 48
0.5
100
AcDbBlockBegin
  2
*D16
 70
     1
 10
0.0
 20
0.0
 30
0.0
  3
*D16
  1

  0
LINE
  5
8DCB
330
8DB3
100
AcDbEntity
  8
图层4
440
 16777216
100
AcDbLine
 10
885.9750766006152
 20
498.9196005032836
 30
0.0
 11
856.9145307649726
 21
498.9196005032836
 31
0.0
  0
LINE
  5
8DCC
330
8DB3
100
AcDbEntity
  8
图层4
440
 16777216
100
AcDbLine
 10
873.7250766006152
 20
341.9196005032832
 30
0.0
 11
856.9145307649726
 21
341.9196005032832
 31
0.0
  0
LINE
  5
8DCD
330
8DB3
100
AcDbEntity
  8
图层4
440
 16777216
100
AcDbLine
 10
858.1645307649727
 20
496.9196005032833
 30
0.0
 11
858.1645307649727
 21
343.9196005032832
 31
0.0
  0
INSERT
  5
8DCE
330
8DB3
100
AcDbEntity
  8
图层4
440
 16777216
100
AcDbBlockReference
  2
_Open30
 10
858.1645307649727
 20
498.9196005032836
 30
0.0
 41
2.0
 42
2.0
 43
2.0
 50
90.0
  0
INSERT
  5
8DCF
330
8DB3
100
AcDbEntity
  8
图层4
440
 16777216
100
AcDbBlockReference
  2
_Open30
 10
858.1645307649727
 20
341.9196005032832
 30
0.0
 41
2.0
 42
2.0
 43
2.0
 50
270.0
  0
MTEXT
  5
8DD0
330
8DB3
100
AcDbEntity
  8
图层4
440
 16777216
100
AcDbMText
 10
856.2895307649725
 20
420.4196005032834
 30
0.0
 40
2.5
 41
0.0
 46
0.0
 71
     5
 72
     1
  1
157
 11
0.0000000000000001
 21
1.0
 31
0.0
 73
     1
 44
1.0
  0
POINT
  5
8DD1
330
8DB3
100
AcDbEntity
  8
Defpoints
 62
     0
440
 16777216
100
AcDbPoint
 10
886.6000766006152
 20
498.9196005032836
 30
0.0
  0
POINT
  5
8DD2
330
8DB3
100
AcDbEntity
  8
Defpoints
 62
     0
440
 16777216
100
AcDbPoint
 10
874.3500766006151
 20
341.9196005032832
 30
0.0
  0
POINT
  5
8DD3
330
8DB3
100
AcDbEntity
  8
Defpoints
 62
     0
440
 16777216
100
AcDbPoint
 10
858.1645307649727
 20
341.9196005032832
 30
0.0
  0
ENDBLK
  5
8DB5
330
8DB3
100
AcDbEntity
  8
0
 48
0.5
100
AcDbBlockEnd
  0
BLOCK
  5
8DC0
330
8DBF
100
AcDbEntity
  8
0
 48
0.5
100
AcDbBlockBegin
  2
*D17
 70
     1
 10
0.0
 20
0.0
 30
0.0
  3
*D17
  1

  0
LINE
  5
8DD4
330
8DBF
100
AcDbEntity
  8
图层4
440
 16777216
100
AcDbLine
 10
885.6000766006149
 20
498.5446005032834
 30
0.0
 11
885.6000766006149
 21
508.7251358654508
 31
0.0
  0
LINE
  5
8DD5
330
8DBF
100
AcDbEntity
  8
图层4
440
 16777216
100
AcDbLine
 10
917.6000766006152
 20
498.5446005032834
 30
0.0
 11
917.6000766006152
 21
508.7251358654508
 31
0.0
  0
LINE
  5
8DD6
330
8DBF
100
AcDbEntity
  8
图层4
440
 16777216
100
AcDbLine
 10
887.6000766006152
 20
507.4751358654507
 30
0.0
 11
915.6000766006147
 21
507.4751358654507
 31
0.0
  0
INSERT
  5
8DD7
330
8DBF
100
AcDbEntity
  8
图层4
440
 16777216
100
AcDbBlockReference
  2
_Open30
 10
885.6000766006149
 20
507.4751358654507
 30
0.0
 41
2.0
 42
2.0
 43
2.0
 50
180.0
  0
INSERT
  5
8DD8
330
8DBF
100
AcDbEntity
  8
图层4
440
 16777216
100
AcDbBlockReference
  2
_Open30
 10
917.6000766006152
 20
507.4751358654507
 30
0.0
 41
2.0
 42
2.0
 43
2.0
  0
MTEXT
  5
8DD9
330
8DBF
100
AcDbEntity
  8
图层4
440
 16777216
100
AcDbMText
 10
901.6000766006147
 20
509.3501358654509
 30
0.0
 40
2.5
 41
0.0
 46
0.0
 71
     5
 72
     1
  1
%%C32
 73
     1
 44
1.0
  0
POINT
  5
8DDA
330
8DBF
100
AcDbEntity
  8
Defpoints
 62
     0
440
 16777216
100
AcDbPoint
 10
885.6000766006149
 20
497.9196005032833
 30
0.0
  0
POINT
  5
8DDB
330
8DBF
100
AcDbEntity
  8
Defpoints
 62
     0
440
 16777216
100
AcDbPoint
 10
917.6000766006152
 20
497.9196005032833
 30
0.0
  0
POINT
  5
8DDC
330
8DBF
100
AcDbEntity
  8
Defpoints
 62
     0
440
 16777216
100
AcDbPoint
 10
917.6000766006152
 20
507.4751358654507
 30
0.0
  0
ENDBLK
  5
8DC1
330
8DBF
100
AcDbEntity
  8
0
 48
0.5
100
AcDbBlockEnd
  0
ENDSEC
  0
SECTION
  2
ENTITIES
  0
ARC
  5
8D8D
330
1F
100
AcDbEntity
  8
0
100
AcDbCircle
 10
928.8500766006151
 20
343.9196005032832
 30
0.0
 40
2.0
100
AcDbArc
 50
270.0
 51
0.0
  0
LINE
  5
8D8E
330
1F
100
AcDbEntity
  8
0
100
AcDbLine
 10
874.3500766006151
 20
341.9196005032832
 30
0.0
 11
928.8500766006151
 21
341.9196005032832
 31
0.0
  0
LINE
  5
8D8F
330
1F
100
AcDbEntity
  8
0
100
AcDbLine
 10
930.8500766006153
 20
343.9196005032832
 30
0.0
 11
930.8500766006153
 21
418.1196005032831
 31
0.0
  0
ARC
  5
8D90
330
1F
100
AcDbEntity
  8
0
100
AcDbCircle
 10
933.3500766006151
 20
418.1196005032831
 30
0.0
 40
2.5
100
AcDbArc
 50
110.9650307611556
 51
180.0
  0
LINE
  5
8D91
330
1F
100
AcDbEntity
  8
0
100
AcDbLine
 10
932.4555813700431
 20
420.4540979400956
 30
0.0
 11
935.139067061759
 21
421.4823128846473
 31
0.0
  0
ARC
  5
8D92
330
1F
100
AcDbEntity
  8
0
100
AcDbCircle
 10
874.3500766006151
 20
343.9196005032832
 30
0.0
 40
2.0
100
AcDbArc
 50
180.0
 51
270.0
  0
LINE
  5
8D93
330
1F
100
AcDbEntity
  8
0
100
AcDbLine
 10
872.3500766006152
 20
343.9196005032832
 30
0.0
 11
872.3500766006152
 21
418.1196005032831
 31
0.0
  0
ARC
  5
8D94
330
1F
100
AcDbEntity
  8
0
100
AcDbCircle
 10
869.8500766006151
 20
418.1196005032831
 30
0.0
 40
2.5
100
AcDbArc
 50
0.0
 51
69.03496923884444
  0
LINE
  5
8D95
330
1F
100
AcDbEntity
  8
0
100
AcDbLine
 10
870.7445718311872
 20
420.4540979400956
 30
0.0
 11
868.0610861394711
 21
421.4823128846473
 31
0.0
  0
ARC
  5
8D96
330
1F
100
AcDbEntity
  8
0
100
AcDbCircle
 10
869.8500766006151
 20
426.1513077582722
 30
0.0
 40
5.0
100
AcDbArc
 50
180.0
 51
249.0349692388444
  0
LINE
  5
8D97
330
1F
100
AcDbEntity
  8
0
100
AcDbLine
 10
869.0825037203801
 20
435.6200142335683
 30
0.0
 11
887.1000766006151
 21
436.6932495772647
 31
0.0
  0
ARC
  5
8D98
330
1F
100
AcDbEntity
  8
0
100
AcDbCircle
 10
869.3500766006151
 20
431.1279763047702
 30
0.0
 40
4.5
100
AcDbArc
 50
93.40885444397065
 51
180.0
  0
LINE
  5
8D99
330
1F
100
AcDbEntity
  8
0
100
AcDbLine
 10
864.8500766006151
 20
426.1513077582722
 30
0.0
 11
864.8500766006151
 21
431.1279763047702
 31
0.0
  0
ARC
  5
8D9A
330
1F
100
AcDbEntity
  8
0
100
AcDbCircle
 10
923.1444494158079
 20
351.9196005032832
 30
0.0
 40
10.0
100
AcDbArc
 50
263.6239530586909
 51
270.0
  0
ARC
  5
8D9B
330
1F
100
AcDbEntity
  8
0
100
AcDbCircle
 10
880.0557037854227
 20
351.9196005032832
 30
0.0
 40
10.0
100
AcDbArc
 50
270.0
 51
276.3760469413091
  0
LINE
  5
8D9C
330
1F
100
AcDbEntity
  8
0
 48
0.2
100
AcDbLine
 10
887.1000766006153
 20
462.9196005032833
 30
0.0
 11
887.1000766006151
 21
436.6932495772647
 31
0.0
  0
LINE
  5
8D9D
330
1F
100
AcDbEntity
  8
0
 48
0.2
100
AcDbLine
 10
916.1000766006152
 20
462.9196005032833
 30
0.0
 11
916.1000766006152
 21
436.6932495772646
 31
0.0
  0
LINE
  5
8D9E
330
1F
100
AcDbEntity
  8
0
 48
0.1
100
AcDbLine
 10
886.6000766006148
 20
498.9196005032836
 30
0.0
 11
916.6000766006147
 21
498.9196005032834
 31
0.0
  0
LINE
  5
8D9F
330
1F
100
AcDbEntity
  8
0
 48
0.1
100
AcDbLine
 10
885.6000766006149
 20
462.9196005032953
 30
0.0
 11
917.6000766006152
 21
462.9196005032833
 31
0.0
  0
LINE
  5
8DA0
330
1F
100
AcDbEntity
  8
0
 48
0.1
100
AcDbLine
 10
917.6000766006152
 20
497.9196005032833
 30
0.0
 11
917.6000766006152
 21
495.9196005032876
 31
0.0
  0
LINE
  5
8DA1
330
1F
100
AcDbEntity
  8
0
 48
0.1
100
AcDbLine
 10
917.6000766006152
 20
488.9196005032586
 30
0.0
 11
917.6000766006152
 21
462.9196005032833
 31
0.0
  0
ARC
  5
8DA2
330
1F
100
AcDbEntity
  8
0
 48
0.1
100
AcDbCircle
 10
916.6000766006147
 20
497.9196005032833
 30
0.0
 40
1.0
100
AcDbArc
 50
0.0
 51
90.0
  0
LINE
  5
8DA3
330
1F
100
AcDbEntity
  8
0
 48
0.1
100
AcDbLine
 10
885.6000766006149
 20
497.9196005032833
 30
0.0
 11
885.6000766006149
 21
462.9196005032834
 31
0.0
  0
ARC
  5
8DA4
330
1F
100
AcDbEntity
  8
0
 48
0.1
100
AcDbCircle
 10
886.6000766006152
 20
497.9196005032833
 30
0.0
 40
0.9999999999999998
100
AcDbArc
 50
90.0
 51
180.0
  0
LINE
  5
8DA5
330
1F
100
AcDbEntity
  8
0
 48
0.2
100
AcDbLine
 10
917.6000766006152
 20
488.9196005032876
 30
0.0
 11
951.2376585073226
 21
488.9196005032876
 31
0.0
  0
LINE
  5
8DA6
330
1F
100
AcDbEntity
  8
0
 48
0.2
100
AcDbLine
 10
953.2376585073237
 20
488.9196005032876
 30
0.0
 11
954.2376585073228
 21
488.9196005032876
 31
0.0
  0
LINE
  5
8DA7
330
1F
100
AcDbEntity
  8
0
 48
0.2
100
AcDbLine
 10
917.6000766006152
 20
495.9196005032876
 30
0.0
 11
954.2376585073228
 21
495.9196005032878
 31
0.0
  0
ARC
  5
8DA8
330
1F
100
AcDbEntity
  8
0
 48
0.2
100
AcDbCircle
 10
954.2376585073228
 20
492.4196005032876
 30
0.0
 40
3.500000000000113
100
AcDbArc
 50
270.0
 51
90.0
  0
ARC
  5
8DA9
330
1F
100
AcDbEntity
  8
0
 48
0.2
100
AcDbCircle
 10
952.237658507323
 20
483.2881067201744
 30
0.0
 40
5.719591089338878
100
AcDbArc
 50
79.93078814409845
 51
100.0692118559015
  0
DIMENSION
  5
8DAA
330
1F
100
AcDbEntity
  8
图层4
100
AcDbDimension
280
     0
  2
*D16
 10
858.1645307649727
 20
341.9196005032832
 30
0.0
 11
856.2895307649725
 21
420.4196005032834
 31
0.0
 70
    32
 71
     5
 42
157.0000000000004
 73
     0
 74
     0
 75
     0
  3
ISO-25
100
AcDbAlignedDimension
 13
886.6000766006152
 23
498.9196005032836
 33
0.0
 14
874.3500766006151
 24
341.9196005032832
 34
0.0
 50
90.0
100
AcDbRotatedDimension
  0
DIMENSION
  5
8DAB
330
1F
100
AcDbEntity
  8
图层4
100
AcDbDimension
280
     0
  2
*D17
 10
917.6000766006152
 20
507.4751358654507
 30
0.0
 11
901.6000766006147
 21
509.3501358654509
 31
0.0
 70
    32
  1
%%C<>
 71
     5
 42
31.99999999999989
 73
     0
 74
     0
 75
     0
  3
ISO-25
100
AcDbAlignedDimension
 13
885.6000766006149
 23
497.9196005032833
 33
0.0
 14
917.6000766006152
 24
497.9196005032833
 34
0.0
100
AcDbRotatedDimension
  0
LINE
  5
8DAC
330
1F
100
AcDbEntity
  8
0
100
AcDbLine
 10
934.11764948085
 20
435.6200142335683
 30
0.0
 11
916.1000766006152
 21
436.6932495772647
 31
0.0
  0
LINE
  5
8DAD
330
1F
100
AcDbEntity
  8
0
100
AcDbLine
 10
887.1000766006151
 20
436.6932495772647
 30
0.0
 11
916.1000766006152
 21
436.6932495772647
 31
0.0
  0
ARC
  5
8DAE
330
1F
100
AcDbEntity
  8
图层4
 62
     0
100
AcDbCircle
 10
926.2417400701632
 20
492.4196005032731
 30
0.0
 40
9.323537285870999
100
AcDbArc
 50
157.9513331762515
 51
202.0486668235556
  0
LINE
  5
8DAF
330
1F
100
AcDbEntity
  8
图层4
 62
     0
100
AcDbLine
 10
872.3500766006152
 20
418.1196005032831
 30
0.0
 11
930.8500766006153
 21
418.1196005032831
 31
0.0
  0
LINE
  5
8DB0
330
1F
100
AcDbEntity
  8
图层4
 62
     0
100
AcDbLine
 10
870.7445718311872
 20
420.4540979400956
 30
0.0
 11
932.4555813700431
 21
420.4540979400956
 31
0.0
  0
LINE
  5
8DB1
330
1F
100
AcDbEntity
  8
图层4
 62
     0
100
AcDbLine
 10
864.8500766006151
 20
431.1279763047702
 30
0.0
 11
938.3500766005647
 21
431.1283235128337
 31
0.0
  0
LINE
  5
8DB2
330
1F
100
AcDbEntity
  8
图层4
 62
     0
100
AcDbLine
 10
864.8500766006151
 20
426.1513077582722
 30
0.0
 11
938.3500766006148
 21
426.1513077582722
 31
0.0
  0
ARC
  5
8DDD
330
1F
100
AcDbEntity
  8
0
100
AcDbCircle
 10
933.8500766006147
 20
431.1279763047702
 30
0.0
 40
4.5
100
AcDbArc
 50
0.000000000000007
 51
86.59114555602942
  0
LINE
  5
8DDE
330
1F
100
AcDbEntity
  8
0
100
AcDbLine
 10
938.3500766006148
 20
426.1513077582722
 30
0.0
 11
938.3500766006148
 21
431.1279763047702
 31
0.0
  0
ARC
  5
8DDF
330
1F
100
AcDbEntity
  8
0
100
AcDbCircle
 10
933.3500766006151
 20
426.1513077582722
 30
0.0
 40
5.0
100
AcDbArc
 50
290.9650307611496
 51
0.000000000000007
  0
ENDSEC
  0
SECTION
  2
OBJECTS
  0
DICTIONARY
  5
C
330
0
100
AcDbDictionary
281
     1
  3
ACAD_CIP_PREVIOUS_PRODUCT_INFO
350
8E23
  3
ACAD_COLOR
350
6B
  3
ACAD_DETAILVIEWSTYLE
350
8E69
  3
ACAD_GROUP
350
D
  3
ACAD_LAYOUT
350
1A
  3
ACAD_MATERIAL
350
6A
  3
ACAD_MLEADERSTYLE
350
8CEE
  3
ACAD_MLINESTYLE
350
17
  3
ACAD_PLOTSETTINGS
350
19
  3
ACAD_PLOTSTYLENAME
350
E
  3
ACAD_SCALELIST
350
8CDC
  3
ACAD_SECTIONVIEWSTYLE
350
8E67
  3
ACAD_TABLESTYLE
350
3F1B
  3
ACAD_VISUALSTYLE
350
8CC8
  3
ACDB_RECOMPOSE_DATA
350
8E87
  3
AcDbVariableDictionary
350
5E
  3
ASE_INDEX_DICTIONARY
350
6BF1
  0
DICTIONARY
  5
8CF5
330
10
100
AcDbDictionary
280
     1
281
     1
  3
ADSK_XREC_LAYER_RECONCILED
360
8CF6
  0
DICTIONARY
  5
8CF7
330
B2
100
AcDbDictionary
280
     1
281
     1
  3
ADSK_XREC_LAYER_RECONCILED
360
8CF8
  0
DICTIONARY
  5
8CF9
330
3CCF
100
AcDbDictionary
280
     1
281
     1
  3
ADSK_XREC_LAYER_RECONCILED
360
8CFA
  0
DICTIONARY
  5
8CFB
330
3CD4
100
AcDbDictionary
280
     1
281
     1
  3
ADSK_XREC_LAYER_RECONCILED
360
8CFC
  0
DICTIONARY
  5
8CFD
330
3CD6
100
AcDbDictionary
280
     1
281
     1
  3
ADSK_XREC_LAYER_RECONCILED
360
8CFE
  0
DICTIONARY
  5
8CFF
330
7251
100
AcDbDictionary
280
     1
281
     1
  3
ADSK_XREC_LAYER_RECONCILED
360
8D00
  0
DICTIONARY
  5
8D01
330
7C14
100
AcDbDictionary
280
     1
281
     1
  3
ADSK_XREC_LAYER_RECONCILED
360
8D02
  0
DICTIONARY
  5
AE9
330
1F
100
AcDbDictionary
280
     1
281
     1
  3
ACAD_SORTENTS
360
3F26
  0
DICTIONARY
  5
8E2C
330
8C82
100
AcDbDictionary
280
     1
281
     1
  0
XRECORD
  5
8E23
102
{ACAD_REACTORS
330
C
102
}
330
C
100
AcDbXrecord
280
     1
300
ACD
300
2017
300
ACD_F_S
  0
DICTIONARY
  5
6B
102
{ACAD_REACTORS
330
C
102
}
330
C
100
AcDbDictionary
281
     1
  0
DICTIONARY
  5
8E69
102
{ACAD_REACTORS
330
C
102
}
330
C
100
AcDbDictionary
281
     1
  3
Metric50
350
8E6A
  0
DICTIONARY
  5
D
102
{ACAD_REACTORS
330
C
102
}
330
C
100
AcDbDictionary
281
     1
  0
DICTIONARY
  5
1A
102
{ACAD_REACTORS
330
C
102
}
330
C
100
AcDbDictionary
281
     1
  3
Model
350
22
  3
布局1
350
51
  3
布局2
350
56
  0
DICTIONARY
  5
6A
102
{ACAD_REACTORS
330
C
102
}
330
C
100
AcDbDictionary
281
     1
  3
ByBlock
350
8CB8
  3
ByLayer
350
8CB0
  3
Global
350
8CC0
  0
DICTIONARY
  5
8CEE
102
{ACAD_REACTORS
330
C
102
}
330
C
100
AcDbDictionary
281
     1
  3
Standard
350
8CEF
  0
DICTIONARY
  5
17
102
{ACAD_REACTORS
330
C
102
}
330
C
100
AcDbDictionary
281
     1
  3
Standard
350
18
  0
DICTIONARY
  5
19
102
{ACAD_REACTORS
330
C
102
}
330
C
100
AcDbDictionary
281
     1
  0
ACDBDICTIONARYWDFLT
  5
E
102
{ACAD_REACTORS
330
C
102
}
330
C
100
AcDbDictionary
281
     1
  3
Normal
350
F
100
AcDbDictionaryWithDefault
340
F
  0
DICTIONARY
  5
8CDC
102
{ACAD_REACTORS
330
C
102
}
330
C
100
AcDbDictionary
281
     1
  3
A0
350
8CDD
  3
A1
350
8CDE
  3
A2
350
8CDF
  3
A3
350
8CE0
  3
A4
350
8CE1
  3
A5
350
8CE2
  3
A6
350
8CE3
  3
A7
350
8CE4
  3
A8
350
8CE5
  3
A9
350
8CE6
  3
B0
350
8CE7
  3
B1
350
8CE8
  3
B2
350
8CE9
  3
B3
350
8CEA
  3
B4
350
8CEB
  3
B5
350
8CEC
  3
B6
350
8CED
  0
DICTIONARY
  5
8E67
102
{ACAD_REACTORS
330
C
102
}
330
C
100
AcDbDictionary
281
     1
  3
Metric50
350
8E68
  0
DICTIONARY
  5
3F1B
102
{ACAD_REACTORS
330
C
102
}
330
C
100
AcDbDictionary
281
     1
  3
Standard
350
3F1C
  0
DICTIONARY
  5
8CC8
102
{ACAD_REACTORS
330
C
102
}
330
C
100
AcDbDictionary
281
     1
  3
2dWireframe
350
8CCE
  3
3D Hidden
350
8CD0
  3
3dWireframe
350
8CCF
  3
Basic
350
8CCD
  3
Brighten
350
8CD4
  3
ColorChange
350
8CD8
  3
Conceptual
350
8CD1
  3
Dim
350
8CD3
  3
EdgeColorOff
350
8CDB
  3
Facepattern
350
8CD7
  3
Flat
350
8CC9
  3
FlatWithEdges
350
8CCA
  3
Gouraud
350
8CCB
  3
GouraudWithEdges
350
8CCC
  3
Hidden
350
8E1A
  3
JitterOff
350
8CD9
  3
Linepattern
350
8CD6
  3
OverhangOff
350
8CDA
  3
Realistic
350
8CD2
  3
Shaded
350
8E1F
  3
Shaded with edges
350
8E1E
  3
Shades of Gray
350
8E1B
  3
Sketchy
350
8E1C
  3
Thicken
350
8CD5
  3
Wireframe
350
8E19
  3
X-Ray
350
8E1D
  0
XRECORD
  5
8E87
102
{ACAD_REACTORS
330
C
102
}
330
C
100
AcDbXrecord
280
     1
 90
        1
330
3F1C
330
8E68
330
8E6A
  0
DICTIONARY
  5
5E
102
{ACAD_REACTORS
330
C
102
}
330
C
100
AcDbDictionary
281
     1
  3
CANNOSCALE
350
8D04
  3
CMLEADERSTYLE
350
8D03
  3
CTABLESTYLE
350
3F42
  3
CVIEWDETAILSTYLE
350
8E7C
  3
CVIEWSECTIONSTYLE
350
8E7D
  3
DIMASSOC
350
5F
  3
HIDETEXT
350
63
  3
INDEXCTL
350
8D05
  3
LAYEREVAL
350
8E80
  3
LAYERNOTIFY
350
8E81
  3
LIGHTINGUNITS
350
8E7F
  3
MSLTSCALE
350
8E7E
  3
PROJECTNAME
350
228D
  3
SORTENTS
350
228C
  0
DICTIONARY
  5
6BF1
102
{ACAD_REACTORS
330
C
102
}
330
C
100
AcDbDictionary
281
     1
  3
ASEBlockHierarchyIndexRecord
350
6BF2
1001
DCO15
1040
1566916489.75
  0
XRECORD
  5
8CF6
102
{ACAD_REACTORS
330
8CF5
102
}
330
8CF5
100
AcDbXrecord
280
     1
290
     1
  0
XRECORD
  5
8CF8
102
{ACAD_REACTORS
330
8CF7
102
}
330
8CF7
100
AcDbXrecord
280
     1
290
     1
  0
XRECORD
  5
8CFA
102
{ACAD_REACTORS
330
8CF9
102
}
330
8CF9
100
AcDbXrecord
280
     1
290
     1
  0
XRECORD
  5
8CFC
102
{ACAD_REACTORS
330
8CFB
102
}
330
8CFB
100
AcDbXrecord
280
     1
290
     1
  0
XRECORD
  5
8CFE
102
{ACAD_REACTORS
330
8CFD
102
}
330
8CFD
100
AcDbXrecord
280
     1
290
     1
  0
XRECORD
  5
8D00
102
{ACAD_REACTORS
330
8CFF
102
}
330
8CFF
100
AcDbXrecord
280
     1
290
     1
  0
XRECORD
  5
8D02
102
{ACAD_REACTORS
330
8D01
102
}
330
8D01
100
AcDbXrecord
280
     1
290
     1
  0
SORTENTSTABLE
  5
3F26
102
{ACAD_REACTORS
330
AE9
102
}
330
AE9
100
AcDbSortentsTable
330
1F
  0
ACDBDETAILVIEWSTYLE
  5
8E6A
102
{ACAD_XDICTIONARY
360
8E85
102
}
102
{ACAD_REACTORS
330
8E69
102
}
330
8E69
100
AcDbModelDocViewStyle
 70
     0
  3
Metric50
290
     0
100
AcDbDetailViewStyle
 70
     0
 71
     0
 90
        3
 71
     1
340
11
 62
   256
 40
5.0
340
0
 62
   256
 40
5.0
300

 40
0.0
280
     1
 71
     2
340
16
 90
       25
 62
   256
 71
     3
340
11
 62
   256
 40
5.0
 90
        0
 40
15.0
 90
        1
300
%<\AcVar ViewDetailId>% (%<\AcVar ViewScale \f "%sn">%)
 71
     4
340
16
 90
       25
 62
   256
340
16
 90
       25
 62
   256
280
     0
  0
LAYOUT
  5
22
102
{ACAD_REACTORS
330
1A
102
}
330
1A
100
AcDbPlotSettings
  1

  2
在 STELA 上自动 hp LaserJet 1000
  4
A4
  6

 40
4.984749794006346
 41
5.027060508728027
 42
6.12774658203125
 43
4.9847412109375
 44
210.0156707763672
 45
297.0106506347656
 46
0.0
 47
0.7900000000000002
 48
501.4519197462588
 49
120.0328227865057
140
701.4519197462586
141
407.0328227865056
142
1.0
143
1.005514369506556
 70
 11956
 72
     1
 73
     0
 74
     4
  7
110.ctb
 75
     0
147
0.9945158720016479
 76
     0
 77
     2
 78
   300
148
-501.4519197462588
149
-120.0328227865057
100
AcDbLayout
  1
Model
 70
     1
 71
     0
 10
0.0
 20
0.0
 11
12.0
 21
9.0
 12
0.0
 22
0.0
 32
0.0
 14
0.0
 24
0.0
 34
0.0
 15
0.0
 25
0.0
 35
0.0
146
0.0
 13
0.0
 23
0.0
 33
0.0
 16
1.0
 26
0.0
 36
0.0
 17
0.0
 27
1.0
 37
0.0
 76
     0
330
1F
331
8CA2
  0
LAYOUT
  5
51
102
{ACAD_REACTORS
330
1A
102
}
330
1A
100
AcDbPlotSettings
  1

  2
None
  4

  6

 40
0.0
 41
0.0
 42
0.0
 43
0.0
 44
0.0
 45
0.0
 46
0.0
 47
0.0
 48
0.0
 49
0.0
140
0.0
141
0.0
142
1.0
143
1.0
 70
   688
 72
     0
 73
     0
 74
     5
  7
110.ctb
 75
    16
147
1.0
 76
     0
 77
     2
 78
   300
148
0.0
149
0.0
100
AcDbLayout
  1
布局1
 70
     1
 71
     1
 10
0.0
 20
0.0
 11
12.0
 21
9.0
 12
0.0
 22
0.0
 32
0.0
 14
0.0
 24
0.0
 34
0.0
 15
0.0
 25
0.0
 35
0.0
146
0.0
 13
0.0
 23
0.0
 33
0.0
 16
1.0
 26
0.0
 36
0.0
 17
0.0
 27
1.0
 37
0.0
 76
     0
330
50
  0
LAYOUT
  5
56
102
{ACAD_REACTORS
330
1A
102
}
330
1A
100
AcDbPlotSettings
  1

  2
None
  4

  6

 40
0.0
 41
0.0
 42
0.0
 43
0.0
 44
0.0
 45
0.0
 46
0.0
 47
0.0
 48
0.0
 49
0.0
140
0.0
141
0.0
142
1.0
143
1.0
 70
   688
 72
     0
 73
     0
 74
     5
  7
110.ctb
 75
    16
147
1.0
 76
     0
 77
     2
 78
   300
148
0.0
149
0.0
100
AcDbLayout
  1
布局2
 70
     1
 71
     2
 10
0.0
 20
0.0
 11
12.0
 21
9.0
 12
0.0
 22
0.0
 32
0.0
 14
0.0
 24
0.0
 34
0.0
 15
0.0
 25
0.0
 35
0.0
146
0.0
 13
0.0
 23
0.0
 33
0.0
 16
1.0
 26
0.0
 36
0.0
 17
0.0
 27
1.0
 37
0.0
 76
     0
330
55
  0
MATERIAL
  5
8CB8
102
{ACAD_XDICTIONARY
360
8CB9
102
}
102
{ACAD_REACTORS
330
6A
102
}
330
6A
100
AcDbMaterial
  1
ByBlock
 72
     0
 43
0.0008202099737533
 43
0.0
 43
0.0
 43
0.0
 43
0.0
 43
0.0008202099737533
 43
0.0
 43
0.0
 43
0.0
 43
0.0
 43
1.0
 43
0.0
 43
0.0
 43
0.0
 43
0.0
 43
1.0
 77
     0
 47
0.0008202099737533
 47
0.0
 47
0.0
 47
0.0
 47
0.0
 47
0.0008202099737533
 47
0.0
 47
0.0
 47
0.0
 47
0.0
 47
1.0
 47
0.0
 47
0.0
 47
0.0
 47
0.0
 47
1.0
171
     0
 49
0.0008202099737533
 49
0.0
 49
0.0
 49
0.0
 49
0.0
 49
0.0008202099737533
 49
0.0
 49
0.0
 49
0.0
 49
0.0
 49
1.0
 49
0.0
 49
0.0
 49
0.0
 49
0.0
 49
1.0
175
     0
142
0.0008202099737533
142
0.0
142
0.0
142
0.0
142
0.0
142
0.0008202099737533
142
0.0
142
0.0
142
0.0
142
0.0
142
1.0
142
0.0
142
0.0
142
0.0
142
0.0
142
1.0
179
     0
144
0.0008202099737533
144
0.0
144
0.0
144
0.0
144
0.0
144
0.0008202099737533
144
0.0
144
0.0
144
0.0
144
0.0
144
1.0
144
0.0
144
0.0
144
0.0
144
0.0
144
1.0
147
0.0008202099737533
147
0.0
147
0.0
147
0.0
147
0.0
147
0.0008202099737533
147
0.0
147
0.0
147
0.0
147
0.0
147
1.0
147
0.0
147
0.0
147
0.0
147
0.0
147
1.0
  0
MATERIAL
  5
8CB0
102
{ACAD_XDICTIONARY
360
8CB1
102
}
102
{ACAD_REACTORS
330
6A
102
}
330
6A
100
AcDbMaterial
  1
ByLayer
 72
     0
 43
0.0008202099737533
 43
0.0
 43
0.0
 43
0.0
 43
0.0
 43
0.0008202099737533
 43
0.0
 43
0.0
 43
0.0
 43
0.0
 43
1.0
 43
0.0
 43
0.0
 43
0.0
 43
0.0
 43
1.0
 77
     0
 47
0.0008202099737533
 47
0.0
 47
0.0
 47
0.0
 47
0.0
 47
0.0008202099737533
 47
0.0
 47
0.0
 47
0.0
 47
0.0
 47
1.0
 47
0.0
 47
0.0
 47
0.0
 47
0.0
 47
1.0
171
     0
 49
0.0008202099737533
 49
0.0
 49
0.0
 49
0.0
 49
0.0
 49
0.0008202099737533
 49
0.0
 49
0.0
 49
0.0
 49
0.0
 49
1.0
 49
0.0
 49
0.0
 49
0.0
 49
0.0
 49
1.0
175
     0
142
0.0008202099737533
142
0.0
142
0.0
142
0.0
142
0.0
142
0.0008202099737533
142
0.0
142
0.0
142
0.0
142
0.0
142
1.0
142
0.0
142
0.0
142
0.0
142
0.0
142
1.0
179
     0
144
0.0008202099737533
144
0.0
144
0.0
144
0.0
144
0.0
144
0.0008202099737533
144
0.0
144
0.0
144
0.0
144
0.0
144
1.0
144
0.0
144
0.0
144
0.0
144
0.0
144
1.0
147
0.0008202099737533
147
0.0
147
0.0
147
0.0
147
0.0
147
0.0008202099737533
147
0.0
147
0.0
147
0.0
147
0.0
147
1.0
147
0.0
147
0.0
147
0.0
147
0.0
147
1.0
  0
MATERIAL
  5
8CC0
102
{ACAD_XDICTIONARY
360
8CC1
102
}
102
{ACAD_REACTORS
330
6A
102
}
330
6A
100
AcDbMaterial
  1
Global
 72
     0
 43
0.0008202099737533
 43
0.0
 43
0.0
 43
0.0
 43
0.0
 43
0.0008202099737533
 43
0.0
 43
0.0
 43
0.0
 43
0.0
 43
1.0
 43
0.0
 43
0.0
 43
0.0
 43
0.0
 43
1.0
 77
     0
 47
0.0008202099737533
 47
0.0
 47
0.0
 47
0.0
 47
0.0
 47
0.0008202099737533
 47
0.0
 47
0.0
 47
0.0
 47
0.0
 47
1.0
 47
0.0
 47
0.0
 47
0.0
 47
0.0
 47
1.0
171
     0
 49
0.0008202099737533
 49
0.0
 49
0.0
 49
0.0
 49
0.0
 49
0.0008202099737533
 49
0.0
 49
0.0
 49
0.0
 49
0.0
 49
1.0
 49
0.0
 49
0.0
 49
0.0
 49
0.0
 49
1.0
175
     0
142
0.0008202099737533
142
0.0
142
0.0
142
0.0
142
0.0
142
0.0008202099737533
142
0.0
142
0.0
142
0.0
142
0.0
142
1.0
142
0.0
142
0.0
142
0.0
142
0.0
142
1.0
179
     0
144
0.0008202099737533
144
0.0
144
0.0
144
0.0
144
0.0
144
0.0008202099737533
144
0.0
144
0.0
144
0.0
144
0.0
144
1.0
144
0.0
144
0.0
144
0.0
144
0.0
144
1.0
147
0.0008202099737533
147
0.0
147
0.0
147
0.0
147
0.0
147
0.0008202099737533
147
0.0
147
0.0
147
0.0
147
0.0
147
1.0
147
0.0
147
0.0
147
0.0
147
0.0
147
1.0
  0
MLEADERSTYLE
  5
8CEF
102
{ACAD_REACTORS
330
8CEE
102
}
330
8CEE
100
AcDbMLeaderStyle
179
     2
170
     2
171
     1
172
     0
 90
        2
 40
0.0
 41
0.0
173
     1
 91
-1056964608
340
14
 92
       -2
290
     1
 42
2.0
291
     1
 43
0.36
  3
Standard
 44
4.0
300

342
11
174
     1
178
     6
175
     1
176
     0
 93
-1056964608
 45
4.0
292
     0
297
     0
 46
4.0
 94
-1056964608
 47
1.0
 49
1.0
140
1.0
293
     1
141
0.0
294
     1
177
     0
142
1.0
295
     0
296
     0
143
0.125
271
     0
272
     9
273
     9
298
     0
1001
ACAD_MLEADERVER
1070
     2
  0
MLINESTYLE
  5
18
102
{ACAD_REACTORS
330
17
102
}
330
17
100
AcDbMlineStyle
  2
STANDARD
 70
     0
  3

 62
   256
 51
90.0
 52
90.0
 71
     2
 49
0.5
 62
   256
  6
BYLAYER
 49
-0.5
 62
   256
  6
BYLAYER
  0
ACDBPLACEHOLDER
  5
F
102
{ACAD_REACTORS
330
E
102
}
330
E
  0
SCALE
  5
8CDD
102
{ACAD_REACTORS
330
8CDC
102
}
330
8CDC
100
AcDbScale
 70
     0
300
1:1
140
1.0
141
1.0
290
     1
  0
SCALE
  5
8CDE
102
{ACAD_REACTORS
330
8CDC
102
}
330
8CDC
100
AcDbScale
 70
     0
300
1:2
140
1.0
141
2.0
290
     0
  0
SCALE
  5
8CDF
102
{ACAD_REACTORS
330
8CDC
102
}
330
8CDC
100
AcDbScale
 70
     0
300
1:4
140
1.0
141
4.0
290
     0
  0
SCALE
  5
8CE0
102
{ACAD_REACTORS
330
8CDC
102
}
330
8CDC
100
AcDbScale
 70
     0
300
1:5
140
1.0
141
5.0
290
     0
  0
SCALE
  5
8CE1
102
{ACAD_REACTORS
330
8CDC
102
}
330
8CDC
100
AcDbScale
 70
     0
300
1:8
140
1.0
141
8.0
290
     0
  0
SCALE
  5
8CE2
102
{ACAD_REACTORS
330
8CDC
102
}
330
8CDC
100
AcDbScale
 70
     0
300
1:10
140
1.0
141
10.0
290
     0
  0
SCALE
  5
8CE3
102
{ACAD_REACTORS
330
8CDC
102
}
330
8CDC
100
AcDbScale
 70
     0
300
1:16
140
1.0
141
16.0
290
     0
  0
SCALE
  5
8CE4
102
{ACAD_REACTORS
330
8CDC
102
}
330
8CDC
100
AcDbScale
 70
     0
300
1:20
140
1.0
141
20.0
290
     0
  0
SCALE
  5
8CE5
102
{ACAD_REACTORS
330
8CDC
102
}
330
8CDC
100
AcDbScale
 70
     0
300
1:30
140
1.0
141
30.0
290
     0
  0
SCALE
  5
8CE6
102
{ACAD_REACTORS
330
8CDC
102
}
330
8CDC
100
AcDbScale
 70
     0
300
1:40
140
1.0
141
40.0
290
     0
  0
SCALE
  5
8CE7
102
{ACAD_REACTORS
330
8CDC
102
}
330
8CDC
100
AcDbScale
 70
     0
300
1:50
140
1.0
141
50.0
290
     0
  0
SCALE
  5
8CE8
102
{ACAD_REACTORS
330
8CDC
102
}
330
8CDC
100
AcDbScale
 70
     0
300
1:100
140
1.0
141
100.0
290
     0
  0
SCALE
  5
8CE9
102
{ACAD_REACTORS
330
8CDC
102
}
330
8CDC
100
AcDbScale
 70
     0
300
2:1
140
2.0
141
1.0
290
     0
  0
SCALE
  5
8CEA
102
{ACAD_REACTORS
330
8CDC
102
}
330
8CDC
100
AcDbScale
 70
     0
300
4:1
140
4.0
141
1.0
290
     0
  0
SCALE
  5
8CEB
102
{ACAD_REACTORS
330
8CDC
102
}
330
8CDC
100
AcDbScale
 70
     0
300
8:1
140
8.0
141
1.0
290
     0
  0
SCALE
  5
8CEC
102
{ACAD_REACTORS
330
8CDC
102
}
330
8CDC
100
AcDbScale
 70
     0
300
10:1
140
10.0
141
1.0
290
     0
  0
SCALE
  5
8CED
102
{ACAD_REACTORS
330
8CDC
102
}
330
8CDC
100
AcDbScale
 70
     0
300
100:1
140
100.0
141
1.0
290
     0
  0
ACDBSECTIONVIEWSTYLE
  5
8E68
102
{ACAD_XDICTIONARY
360
8E83
102
}
102
{ACAD_REACTORS
330
8E67
102
}
330
8E67
100
AcDbModelDocViewStyle
 70
     0
  3
Metric50
290
     0
100
AcDbSectionViewStyle
 70
     0
 71
     0
 90
      102
 71
     1
340
11
 62
   256
 40
5.0
340
0
340
0
 62
   256
 40
5.0
300
I, O, Q, S, X, Z
 40
10.0
 90
        0
 40
2.5
 90
        0
 71
     2
340
16
 90
       25
 62
   256
340
16
 90
       50
 62
   256
 40
5.0
 40
2.5
 40
5.0
 71
     3
340
11
 62
   256
 40
5.0
 90
        0
 40
15.0
 90
        1
300
%<\AcVar ViewSectionStartId>%-%<\AcVar ViewSectionEndId>% (%<\AcVar ViewScale \f "%sn">%)
 71
     4
 62
   256
 62
   257
300
ANSI31
 40
1.0
 90
        0
290
     0
290
     0
 90
        6
 40
0.0
 40
1.570796326794896
 40
0.2617993877991494
 40
1.308996938995747
 40
-0.2617993877991494
 40
1.832595714594046
  0
TABLESTYLE
  5
3F1C
102
{ACAD_XDICTIONARY
360
8D08
102
}
102
{ACAD_REACTORS
330
3F1B
102
}
330
3F1B
100
AcDbTableStyle
280
     0
  3
Standard
 70
     0
 71
     0
 40
1.5
 41
1.5
280
     0
281
     0
  7
Standard
140
4.5
170
     2
 62
     0
 63
     7
283
     0
 90
        4
 91
        0
  1

274
    -2
284
     1
 64
     0
275
    -2
285
     1
 65
     0
276
    -2
286
     1
 66
     0
277
    -2
287
     1
 67
     0
278
    -2
288
     1
 68
     0
279
    -2
289
     1
 69
     0
  7
Standard
140
6.0
170
     5
 62
     0
 63
     7
283
     0
 90
        4
 91
        0
  1

274
    -2
284
     1
 64
     0
275
    -2
285
     1
 65
     0
276
    -2
286
     1
 66
     0
277
    -2
287
     1
 67
     0
278
    -2
288
     1
 68
     0
279
    -2
289
     1
 69
     0
  7
Standard
140
4.5
170
     5
 62
     0
 63
     7
283
     0
 90
        4
 91
        0
  1

274
    -2
284
     1
 64
     0
275
    -2
285
     1
 65
     0
276
    -2
286
     1
 66
     0
277
    -2
287
     1
 67
     0
278
    -2
288
     1
 68
     0
279
    -2
289
     1
 69
     0
  0
VISUALSTYLE
  5
8CCE
102
{ACAD_REACTORS
330
8CC8
102
}
330
8CC8
100
AcDbVisualStyle
  2

 70
     4
177
     3
291
     0
 70
    58
 90
        0
176
     1
 90
        2
176
     1
 90
        0
176
     1
 90
        0
176
     1
 40
0.6
176
     1
 40
30.0
176
     1
 62
     7
176
     1
 90
        1
176
     1
 90
        4
176
     1
 62
     7
176
     1
 62
   257
176
     1
 90
        1
176
     1
 90
        1
176
     1
 40
1.0
176
     1
 90
        0
176
     1
 62
   257
176
     1
 40
1.0
176
     1
 90
        1
176
     1
 90
        6
176
     1
 90
        2
176
     1
 62
     7
176
     1
 90
        5
176
     1
 90
        0
176
     1
 90
        0
176
     1
290
     0
176
     1
 90
        1
176
     1
 40
0.0
176
     1
 90
        0
176
     1
290
     1
176
     1
290
     1
176
     1
290
     0
176
     1
290
     0
176
     1
290
     0
176
     1
290
     0
176
     1
290
     0
176
     1
290
     0
176
     1
290
     0
176
     1
 90
       50
176
     1
 40
0.0
176
     1
 40
1.0
176
     1
 90
        0
176
     1
 62
    18
420
        0
176
     1
 90
       50
176
     1
 90
        3
176
     1
 62
     5
420
      255
176
     1
290
     0
176
     1
 90
       50
176
     1
 90
       50
176
     1
 90
       50
176
     1
290
     0
176
     1
 90
       50
176
     1
 62
   256
176
     0
 40
1.0
176
     0
 90
        2
176
     1
  1
strokes_ogs.tif
176
     1
290
     0
176
     1
 40
1.0
176
     1
 40
1.0
176
     1
1001
ACAD
1000
AcDbSavedByObjectVersion
1070
     0
  0
VISUALSTYLE
  5
8CD0
102
{ACAD_REACTORS
330
8CC8
102
}
330
8CC8
100
AcDbVisualStyle
  2

 70
     6
177
     3
291
     0
 70
    58
 90
        1
176
     1
 90
        2
176
     1
 90
        2
176
     1
 90
        0
176
     1
 40
0.6
176
     1
 40
30.0
176
     1
 62
     7
176
     1
 90
        2
176
     1
 90
        2
176
     1
 62
     7
176
     1
 62
   257
176
     1
 90
        2
176
     1
 90
        1
176
     1
 40
179.0
176
     1
 90
        0
176
     1
 62
   257
176
     1
 40
1.0
176
     1
 90
        1
176
     1
 90
        6
176
     1
 90
        2
176
     1
 62
     7
176
     1
 90
        3
176
     1
 90
        0
176
     1
 90
        0
176
     1
290
     0
176
     1
 90
        1
176
     1
 40
0.0
176
     1
 90
        0
176
     1
290
     0
176
     1
290
     1
176
     1
290
     1
176
     1
290
     0
176
     1
290
     0
176
     1
290
     0
176
     1
290
     0
176
     1
290
     0
176
     1
290
     0
176
     1
 90
       50
176
     1
 40
0.0
176
     1
 40
1.0
176
     1
 90
        0
176
     1
 62
    18
420
        0
176
     1
 90
       50
176
     1
 90
        3
176
     1
 62
     5
420
      255
176
     1
290
     0
176
     1
 90
       50
176
     1
 90
       50
176
     1
 90
       50
176
     1
290
     0
176
     1
 90
       50
176
     1
 62
   256
176
     0
 40
1.0
176
     0
 90
        2
176
     1
  1
strokes_ogs.tif
176
     1
290
     0
176
     1
 40
1.0
176
     1
 40
1.0
176
     1
1001
ACAD
1000
AcDbSavedByObjectVersion
1070
     0
  0
VISUALSTYLE
  5
8CCF
102
{ACAD_REACTORS
330
8CC8
102
}
330
8CC8
100
AcDbVisualStyle
  2

 70
     5
177
     3
291
     0
 70
    58
 90
        0
176
     1
 90
        2
176
     1
 90
        0
176
     1
 90
        0
176
     1
 40
0.6
176
     1
 40
30.0
176
     1
 62
     7
176
     1
 90
        1
176
     1
 90
        4
176
     1
 62
     7
176
     1
 62
   257
176
     1
 90
        1
176
     1
 90
        1
176
     1
 40
1.0
176
     1
 90
        0
176
     1
 62
   257
176
     1
 40
1.0
176
     1
 90
        1
176
     1
 90
        6
176
     1
 90
        2
176
     1
 62
     7
176
     1
 90
        5
176
     1
 90
        0
176
     1
 90
        0
176
     1
290
     0
176
     1
 90
        1
176
     1
 40
0.0
176
     1
 90
        0
176
     1
290
     0
176
     1
290
     1
176
     1
290
     1
176
     1
290
     0
176
     1
290
     0
176
     1
290
     0
176
     1
290
     0
176
     1
290
     0
176
     1
290
     0
176
     1
 90
       50
176
     1
 40
0.0
176
     1
 40
1.0
176
     1
 90
        0
176
     1
 62
    18
420
        0
176
     1
 90
       50
176
     1
 90
        3
176
     1
 62
     5
420
      255
176
     1
290
     0
176
     1
 90
       50
176
     1
 90
       50
176
     1
 90
       50
176
     1
290
     0
176
     1
 90
       50
176
     1
 62
   256
176
     0
 40
1.0
176
     0
 90
        2
176
     1
  1
strokes_ogs.tif
176
     1
290
     0
176
     1
 40
1.0
176
     1
 40
1.0
176
     1
1001
ACAD
1000
AcDbSavedByObjectVersion
1070
     0
  0
VISUALSTYLE
  5
8CCD
102
{ACAD_REACTORS
330
8CC8
102
}
330
8CC8
100
AcDbVisualStyle
  2

 70
     7
177
     3
291
     1
 70
    58
 90
        1
176
     1
 90
        0
176
     1
 90
        1
176
     1
 90
        0
176
     1
 40
0.6
176
     1
 40
30.0
176
     1
 62
     7
176
     1
 90
        0
176
     1
 90
        4
176
     1
 62
     7
176
     1
 62
   257
176
     1
 90
        1
176
     1
 90
        1
176
     1
 40
1.0
176
     1
 90
        8
176
     1
 62
     7
176
     1
 40
1.0
176
     1
 90
        1
176
     1
 90
        6
176
     1
 90
        2
176
     1
 62
     7
176
     1
 90
        5
176
     1
 90
        0
176
     1
 90
        0
176
     1
290
     0
176
     1
 90
        1
176
     1
 40
0.0
176
     1
 90
        0
176
     1
290
     0
176
     1
290
     1
176
     1
290
     1
176
     1
290
     0
176
     1
290
     0
176
     1
290
     0
176
     1
290
     0
176
     1
290
     0
176
     1
290
     0
176
     1
 90
       50
176
     1
 40
0.0
176
     1
 40
1.0
176
     1
 90
        0
176
     1
 62
    18
420
        0
176
     1
 90
       50
176
     1
 90
        3
176
     1
 62
     5
420
      255
176
     1
290
     0
176
     1
 90
       50
176
     1
 90
       50
176
     1
 90
       50
176
     1
290
     0
176
     1
 90
       50
176
     1
 62
   256
176
     0
 40
1.0
176
     0
 90
        2
176
     1
  1
strokes_ogs.tif
176
     1
290
     0
176
     1
 40
1.0
176
     1
 40
1.0
176
     1
1001
ACAD
1000
AcDbSavedByObjectVersion
1070
     0
  0
VISUALSTYLE
  5
8CD4
102
{ACAD_REACTORS
330
8CC8
102
}
330
8CC8
100
AcDbVisualStyle
  2

 70
    12
177
     3
291
     1
 70
    58
 90
        2
176
     1
 90
        2
176
     1
 90
        0
176
     1
 90
        0
176
     1
 40
0.6
176
     1
 40
30.0
176
     1
 62
     7
176
     1
 90
        1
176
     1
 90
        4
176
     1
 62
     7
176
     1
 62
   257
176
     1
 90
        1
176
     1
 90
        1
176
     1
 40
1.0
176
     1
 90
        8
176
     1
 62
     7
176
     1
 40
1.0
176
     1
 90
        1
176
     1
 90
        6
176
     1
 90
        2
176
     1
 62
     7
176
     1
 90
        5
176
     1
 90
        0
176
     1
 90
        0
176
     1
290
     0
176
     1
 90
        1
176
     1
 40
50.0
176
     1
 90
        0
176
     1
290
     0
176
     1
290
     1
176
     1
290
     1
176
     1
290
     0
176
     1
290
     0
176
     1
290
     0
176
     1
290
     0
176
     1
290
     0
176
     1
290
     0
176
     1
 90
       50
176
     1
 40
0.0
176
     1
 40
1.0
176
     1
 90
        0
176
     1
 62
    18
420
        0
176
     1
 90
       50
176
     1
 90
        3
176
     1
 62
     5
420
      255
176
     1
290
     0
176
     1
 90
       50
176
     1
 90
       50
176
     1
 90
       50
176
     1
290
     0
176
     1
 90
       50
176
     1
 62
   256
176
     0
 40
1.0
176
     0
 90
        2
176
     1
  1
strokes_ogs.tif
176
     1
290
     0
176
     1
 40
1.0
176
     1
 40
1.0
176
     1
1001
ACAD
1000
AcDbSavedByObjectVersion
1070
     0
  0
VISUALSTYLE
  5
8CD8
102
{ACAD_REACTORS
330
8CC8
102
}
330
8CC8
100
AcDbVisualStyle
  2

 70
    16
177
     3
291
     1
 70
    58
 90
        2
176
     1
 90
        2
176
     1
 90
        3
176
     1
 90
        0
176
     1
 40
0.6
176
     1
 40
30.0
176
     1
 62
     8
176
     1
 90
        1
176
     1
 90
        4
176
     1
 62
     7
176
     1
 62
   257
176
     1
 90
        1
176
     1
 90
        1
176
     1
 40
1.0
176
     1
 90
        8
176
     1
 62
     8
176
     1
 40
1.0
176
     1
 90
        1
176
     1
 90
        6
176
     1
 90
        2
176
     1
 62
     7
176
     1
 90
        5
176
     1
 90
        0
176
     1
 90
        0
176
     1
290
     0
176
     1
 90
        1
176
     1
 40
0.0
176
     1
 90
        0
176
     1
290
     0
176
     1
290
     1
176
     1
290
     1
176
     1
290
     0
176
     1
290
     0
176
     1
290
     0
176
     1
290
     0
176
     1
290
     0
176
     1
290
     0
176
     1
 90
       50
176
     1
 40
0.0
176
     1
 40
1.0
176
     1
 90
        0
176
     1
 62
    18
420
        0
176
     1
 90
       50
176
     1
 90
        3
176
     1
 62
     5
420
      255
176
     1
290
     0
176
     1
 90
       50
176
     1
 90
       50
176
     1
 90
       50
176
     1
290
     0
176
     1
 90
       50
176
     1
 62
   256
176
     0
 40
1.0
176
     0
 90
        2
176
     1
  1
strokes_ogs.tif
176
     1
290
     0
176
     1
 40
1.0
176
     1
 40
1.0
176
     1
1001
ACAD
1000
AcDbSavedByObjectVersion
1070
     0
  0
VISUALSTYLE
  5
8CD1
102
{ACAD_REACTORS
330
8CC8
102
}
330
8CC8
100
AcDbVisualStyle
  2

 70
     9
177
     3
291
     0
 70
    58
 90
        3
176
     1
 90
        2
176
     1
 90
        0
176
     1
 90
        0
176
     1
 40
0.6
176
     1
 40
30.0
176
     1
 62
     7
176
     1
 90
        2
176
     1
 90
        2
176
     1
 62
     7
176
     1
 62
   257
176
     1
 90
        1
176
     1
 90
        1
176
     1
 40
179.0
176
     1
 90
        8
176
     1
 62
     7
176
     1
 40
1.0
176
     1
 90
        1
176
     1
 90
        6
176
     1
 90
        2
176
     1
 62
     7
176
     1
 90
        3
176
     1
 90
        0
176
     1
 90
        0
176
     1
290
     0
176
     1
 90
        1
176
     1
 40
0.0
176
     1
 90
        0
176
     1
290
     0
176
     1
290
     1
176
     1
290
     1
176
     1
290
     0
176
     1
290
     0
176
     1
290
     0
176
     1
290
     0
176
     1
290
     0
176
     1
290
     0
176
     1
 90
       50
176
     1
 40
0.0
176
     1
 40
1.0
176
     1
 90
        0
176
     1
 62
    18
420
        0
176
     1
 90
       50
176
     1
 90
        3
176
     1
 62
     5
420
      255
176
     1
290
     0
176
     1
 90
       50
176
     1
 90
       50
176
     1
 90
       50
176
     1
290
     0
176
     1
 90
       50
176
     1
 62
   256
176
     0
 40
1.0
176
     0
 90
        2
176
     1
  1
strokes_ogs.tif
176
     1
290
     0
176
     1
 40
1.0
176
     1
 40
1.0
176
     1
1001
ACAD
1000
AcDbSavedByObjectVersion
1070
     0
  0
VISUALSTYLE
  5
8CD3
102
{ACAD_REACTORS
330
8CC8
102
}
330
8CC8
100
AcDbVisualStyle
  2

 70
    11
177
     3
291
     1
 70
    58
 90
        2
176
     1
 90
        2
176
     1
 90
        0
176
     1
 90
        0
176
     1
 40
0.6
176
     1
 40
30.0
176
     1
 62
     7
176
     1
 90
        1
176
     1
 90
        4
176
     1
 62
     7
176
     1
 62
   257
176
     1
 90
        1
176
     1
 90
        1
176
     1
 40
1.0
176
     1
 90
        8
176
     1
 62
     7
176
     1
 40
1.0
176
     1
 90
        1
176
     1
 90
        6
176
     1
 90
        2
176
     1
 62
     7
176
     1
 90
        5
176
     1
 90
        0
176
     1
 90
        0
176
     1
290
     0
176
     1
 90
        1
176
     1
 40
-50.0
176
     1
 90
        0
176
     1
290
     0
176
     1
290
     1
176
     1
290
     1
176
     1
290
     0
176
     1
290
     0
176
     1
290
     0
176
     1
290
     0
176
     1
290
     0
176
     1
290
     0
176
     1
 90
       50
176
     1
 40
0.0
176
     1
 40
1.0
176
     1
 90
        0
176
     1
 62
    18
420
        0
176
     1
 90
       50
176
     1
 90
        3
176
     1
 62
     5
420
      255
176
     1
290
     0
176
     1
 90
       50
176
     1
 90
       50
176
     1
 90
       50
176
     1
290
     0
176
     1
 90
       50
176
     1
 62
   256
176
     0
 40
1.0
176
     0
 90
        2
176
     1
  1
strokes_ogs.tif
176
     1
290
     0
176
     1
 40
1.0
176
     1
 40
1.0
176
     1
1001
ACAD
1000
AcDbSavedByObjectVersion
1070
     0
  0
VISUALSTYLE
  5
8CDB
102
{ACAD_REACTORS
330
8CC8
102
}
330
8CC8
100
AcDbVisualStyle
  2

 70
    22
177
     3
291
     1
 70
    58
 90
        2
176
     0
 90
        2
176
     0
 90
        0
176
     0
 90
        0
176
     0
 40
0.6
176
     0
 40
30.0
176
     0
 62
     7
176
     0
 90
        1
176
     0
 90
        4
176
     0
 62
     7
176
     0
 62
   257
176
     0
 90
        1
176
     0
 90
        1
176
     0
 40
1.0
176
     0
 90
        8
176
     2
 62
     7
176
     0
 40
1.0
176
     0
 90
        1
176
     0
 90
        6
176
     0
 90
        2
176
     0
 62
     7
176
     0
 90
        5
176
     0
 90
        0
176
     0
 90
        0
176
     0
290
     0
176
     0
 90
        1
176
     0
 40
0.0
176
     0
 90
        0
176
     0
290
     0
176
     1
290
     1
176
     1
290
     1
176
     1
290
     0
176
     1
290
     0
176
     1
290
     0
176
     1
290
     0
176
     1
290
     0
176
     1
290
     0
176
     1
 90
       50
176
     1
 40
0.0
176
     1
 40
1.0
176
     1
 90
        0
176
     1
 62
    18
420
        0
176
     1
 90
       50
176
     1
 90
        3
176
     1
 62
     5
420
      255
176
     1
290
     0
176
     1
 90
       50
176
     1
 90
       50
176
     1
 90
       50
176
     1
290
     0
176
     1
 90
       50
176
     1
 62
   256
176
     0
 40
1.0
176
     0
 90
        2
176
     1
  1
strokes_ogs.tif
176
     1
290
     0
176
     1
 40
1.0
176
     1
 40
1.0
176
     1
1001
ACAD
1000
AcDbSavedByObjectVersion
1070
     0
  0
VISUALSTYLE
  5
8CD7
102
{ACAD_REACTORS
330
8CC8
102
}
330
8CC8
100
AcDbVisualStyle
  2

 70
    15
177
     3
291
     1
 70
    58
 90
        2
176
     1
 90
        2
176
     1
 90
        0
176
     1
 90
        0
176
     1
 40
0.6
176
     1
 40
30.0
176
     1
 62
     7
176
     1
 90
        1
176
     1
 90
        4
176
     1
 62
     7
176
     1
 62
   257
176
     1
 90
        1
176
     1
 90
        1
176
     1
 40
1.0
176
     1
 90
        8
176
     1
 62
     7
176
     1
 40
1.0
176
     1
 90
        1
176
     1
 90
        6
176
     1
 90
        2
176
     1
 62
     7
176
     1
 90
        5
176
     1
 90
        0
176
     1
 90
        0
176
     1
290
     0
176
     1
 90
        1
176
     1
 40
0.0
176
     1
 90
        0
176
     1
290
     0
176
     1
290
     1
176
     1
290
     1
176
     1
290
     0
176
     1
290
     0
176
     1
290
     0
176
     1
290
     0
176
     1
290
     0
176
     1
290
     0
176
     1
 90
       50
176
     1
 40
0.0
176
     1
 40
1.0
176
     1
 90
        0
176
     1
 62
    18
420
        0
176
     1
 90
       50
176
     1
 90
        3
176
     1
 62
     5
420
      255
176
     1
290
     0
176
     1
 90
       50
176
     1
 90
       50
176
     1
 90
       50
176
     1
290
     0
176
     1
 90
       50
176
     1
 62
   256
176
     0
 40
1.0
176
     0
 90
        2
176
     1
  1
strokes_ogs.tif
176
     1
290
     0
176
     1
 40
1.0
176
     1
 40
1.0
176
     1
1001
ACAD
1000
AcDbSavedByObjectVersion
1070
     0
  0
VISUALSTYLE
  5
8CC9
102
{ACAD_REACTORS
330
8CC8
102
}
330
8CC8
100
AcDbVisualStyle
  2

 70
     0
177
     3
291
     1
 70
    58
 90
        2
176
     1
 90
        1
176
     1
 90
        1
176
     1
 90
        2
176
     1
 40
0.6
176
     1
 40
30.0
176
     1
 62
     7
176
     1
 90
        0
176
     1
 90
        4
176
     1
 62
     7
176
     1
 62
   257
176
     1
 90
        1
176
     1
 90
        1
176
     1
 40
1.0
176
     1
 90
        8
176
     1
 62
     7
176
     1
 40
1.0
176
     1
 90
        1
176
     1
 90
        6
176
     1
 90
        2
176
     1
 62
     7
176
     1
 90
        5
176
     1
 90
        0
176
     1
 90
        0
176
     1
290
     0
176
     1
 90
       13
176
     1
 40
0.0
176
     1
 90
        0
176
     1
290
     0
176
     1
290
     1
176
     1
290
     1
176
     1
290
     0
176
     1
290
     0
176
     1
290
     0
176
     1
290
     0
176
     1
290
     0
176
     1
290
     0
176
     1
 90
       50
176
     1
 40
0.0
176
     1
 40
1.0
176
     1
 90
        0
176
     1
 62
    18
420
        0
176
     1
 90
       50
176
     1
 90
        3
176
     1
 62
     5
420
      255
176
     1
290
     0
176
     1
 90
       50
176
     1
 90
       50
176
     1
 90
       50
176
     1
290
     0
176
     1
 90
       50
176
     1
 62
   256
176
     0
 40
1.0
176
     0
 90
        2
176
     1
  1
strokes_ogs.tif
176
     1
290
     0
176
     1
 40
1.0
176
     1
 40
1.0
176
     1
1001
ACAD
1000
AcDbSavedByObjectVersion
1070
     0
  0
VISUALSTYLE
  5
8CCA
102
{ACAD_REACTORS
330
8CC8
102
}
330
8CC8
100
AcDbVisualStyle
  2

 70
     1
177
     3
291
     1
 70
    58
 90
        2
176
     1
 90
        1
176
     1
 90
        1
176
     1
 90
        2
176
     1
 40
0.6
176
     1
 40
30.0
176
     1
 62
     7
176
     1
 90
        1
176
     1
 90
        4
176
     1
 62
     7
176
     1
 62
   257
176
     1
 90
        1
176
     1
 90
        1
176
     1
 40
1.0
176
     1
 90
        0
176
     1
 62
   257
176
     1
 40
1.0
176
     1
 90
        1
176
     1
 90
        6
176
     1
 90
        2
176
     1
 62
     7
176
     1
 90
        5
176
     1
 90
        0
176
     1
 90
        0
176
     1
290
     0
176
     1
 90
       13
176
     1
 40
0.0
176
     1
 90
        0
176
     1
290
     0
176
     1
290
     1
176
     1
290
     1
176
     1
290
     0
176
     1
290
     0
176
     1
290
     0
176
     1
290
     0
176
     1
290
     0
176
     1
290
     0
176
     1
 90
       50
176
     1
 40
0.0
176
     1
 40
1.0
176
     1
 90
        0
176
     1
 62
    18
420
        0
176
     1
 90
       50
176
     1
 90
        3
176
     1
 62
     5
420
      255
176
     1
290
     0
176
     1
 90
       50
176
     1
 90
       50
176
     1
 90
       50
176
     1
290
     0
176
     1
 90
       50
176
     1
 62
   256
176
     0
 40
1.0
176
     0
 90
        2
176
     1
  1
strokes_ogs.tif
176
     1
290
     0
176
     1
 40
1.0
176
     1
 40
1.0
176
     1
1001
ACAD
1000
AcDbSavedByObjectVersion
1070
     0
  0
VISUALSTYLE
  5
8CCB
102
{ACAD_REACTORS
330
8CC8
102
}
330
8CC8
100
AcDbVisualStyle
  2

 70
     2
177
     3
291
     1
 70
    58
 90
        2
176
     1
 90
        2
176
     1
 90
        1
176
     1
 90
        2
176
     1
 40
0.6
176
     1
 40
30.0
176
     1
 62
     7
176
     1
 90
        0
176
     1
 90
        4
176
     1
 62
     7
176
     1
 62
   257
176
     1
 90
        1
176
     1
 90
        1
176
     1
 40
1.0
176
     1
 90
        0
176
     1
 62
     7
176
     1
 40
1.0
176
     1
 90
        1
176
     1
 90
        6
176
     1
 90
        2
176
     1
 62
     7
176
     1
 90
        5
176
     1
 90
        0
176
     1
 90
        0
176
     1
290
     0
176
     1
 90
       13
176
     1
 40
0.0
176
     1
 90
        0
176
     1
290
     0
176
     1
290
     1
176
     1
290
     1
176
     1
290
     0
176
     1
290
     0
176
     1
290
     0
176
     1
290
     0
176
     1
290
     0
176
     1
290
     0
176
     1
 90
       50
176
     1
 40
0.0
176
     1
 40
1.0
176
     1
 90
        0
176
     1
 62
    18
420
        0
176
     1
 90
       50
176
     1
 90
        3
176
     1
 62
     5
420
      255
176
     1
290
     0
176
     1
 90
       50
176
     1
 90
       50
176
     1
 90
       50
176
     1
290
     0
176
     1
 90
       50
176
     1
 62
   256
176
     0
 40
1.0
176
     0
 90
        2
176
     1
  1
strokes_ogs.tif
176
     1
290
     0
176
     1
 40
1.0
176
     1
 40
1.0
176
     1
1001
ACAD
1000
AcDbSavedByObjectVersion
1070
     0
  0
VISUALSTYLE
  5
8CCC
102
{ACAD_REACTORS
330
8CC8
102
}
330
8CC8
100
AcDbVisualStyle
  2

 70
     3
177
     3
291
     1
 70
    58
 90
        2
176
     1
 90
        2
176
     1
 90
        1
176
     1
 90
        2
176
     1
 40
0.6
176
     1
 40
30.0
176
     1
 62
     7
176
     1
 90
        1
176
     1
 90
        4
176
     1
 62
     7
176
     1
 62
   257
176
     1
 90
        1
176
     1
 90
        1
176
     1
 40
1.0
176
     1
 90
        0
176
     1
 62
   257
176
     1
 40
1.0
176
     1
 90
        1
176
     1
 90
        6
176
     1
 90
        2
176
     1
 62
     7
176
     1
 90
        5
176
     1
 90
        0
176
     1
 90
        0
176
     1
290
     0
176
     1
 90
       13
176
     1
 40
0.0
176
     1
 90
        0
176
     1
290
     0
176
     1
290
     1
176
     1
290
     1
176
     1
290
     0
176
     1
290
     0
176
     1
290
     0
176
     1
290
     0
176
     1
290
     0
176
     1
290
     0
176
     1
 90
       50
176
     1
 40
0.0
176
     1
 40
1.0
176
     1
 90
        0
176
     1
 62
    18
420
        0
176
     1
 90
       50
176
     1
 90
        3
176
     1
 62
     5
420
      255
176
     1
290
     0
176
     1
 90
       50
176
     1
 90
       50
176
     1
 90
       50
176
     1
290
     0
176
     1
 90
       50
176
     1
 62
   256
176
     0
 40
1.0
176
     0
 90
        2
176
     1
  1
strokes_ogs.tif
176
     1
290
     0
176
     1
 40
1.0
176
     1
 40
1.0
176
     1
1001
ACAD
1000
AcDbSavedByObjectVersion
1070
     0
  0
VISUALSTYLE
  5
8E1A
102
{ACAD_REACTORS
330
8CC8
102
}
330
8CC8
100
AcDbVisualStyle
  2

 70
     6
177
     3
291
     0
 70
    58
 90
        1
176
     1
 90
        2
176
     1
 90
        2
176
     1
 90
        0
176
     1
 40
0.6
176
     1
 40
30.0
176
     1
 62
     7
420
 16777215
176
     1
 90
        2
176
     1
 90
        2
176
     1
 62
     7
176
     1
 62
   257
176
     1
 90
        2
176
     1
 90
        1
176
     1
 40
40.0
176
     1
 90
        0
176
     1
 62
   257
176
     1
 40
1.0
176
     1
 90
        1
176
     1
 90
        6
176
     1
 90
        2
176
     1
 62
     7
176
     1
 90
        3
176
     1
 90
        0
176
     1
 90
        0
176
     1
290
     0
176
     1
 90
        1
176
     1
 40
0.0
176
     1
 90
        0
176
     1
290
     0
176
     1
290
     1
176
     1
290
     1
176
     1
290
     0
176
     1
290
     0
176
     1
290
     0
176
     1
290
     0
176
     1
290
     0
176
     1
290
     0
176
     1
 90
       50
176
     1
 40
0.0
176
     1
 40
1.0
176
     1
 90
        0
176
     1
 62
    18
420
        0
176
     1
 90
       50
176
     1
 90
        3
176
     1
 62
     5
420
      255
176
     1
290
     0
176
     1
 90
       50
176
     1
 90
       50
176
     1
 90
       50
176
     1
290
     0
176
     1
 90
       50
176
     1
 62
   256
176
     0
 40
1.0
176
     0
 90
        2
176
     1
  1
strokes_ogs.tif
176
     1
290
     0
176
     1
 40
1.0
176
     1
 40
1.0
176
     1
1001
ACAD
1000
AcDbSavedByObjectVersion
1070
     0
  0
VISUALSTYLE
  5
8CD9
102
{ACAD_REACTORS
330
8CC8
102
}
330
8CC8
100
AcDbVisualStyle
  2

 70
    20
177
     3
291
     1
 70
    58
 90
        2
176
     0
 90
        2
176
     0
 90
        0
176
     0
 90
        0
176
     0
 40
0.6
176
     0
 40
30.0
176
     0
 62
     7
176
     0
 90
        1
176
     0
 90
        4
176
     0
 62
     7
176
     0
 62
   257
176
     0
 90
        1
176
     0
 90
        1
176
     0
 40
1.0
176
     0
 90
       10
176
     2
 62
     7
176
     0
 40
1.0
176
     0
 90
        1
176
     0
 90
        6
176
     0
 90
        2
176
     0
 62
     7
176
     0
 90
        5
176
     0
 90
        0
176
     0
 90
        0
176
     0
290
     0
176
     0
 90
        1
176
     0
 40
0.0
176
     0
 90
        0
176
     0
290
     0
176
     1
290
     1
176
     1
290
     1
176
     1
290
     0
176
     1
290
     0
176
     1
290
     0
176
     1
290
     0
176
     1
290
     0
176
     1
290
     0
176
     1
 90
       50
176
     1
 40
0.0
176
     1
 40
1.0
176
     1
 90
        0
176
     1
 62
    18
420
        0
176
     1
 90
       50
176
     1
 90
        3
176
     1
 62
     5
420
      255
176
     1
290
     0
176
     1
 90
       50
176
     1
 90
       50
176
     1
 90
       50
176
     1
290
     0
176
     1
 90
       50
176
     1
 62
   256
176
     0
 40
1.0
176
     0
 90
        2
176
     1
  1
strokes_ogs.tif
176
     1
290
     0
176
     1
 40
1.0
176
     1
 40
1.0
176
     1
1001
ACAD
1000
AcDbSavedByObjectVersion
1070
     0
  0
VISUALSTYLE
  5
8CD6
102
{ACAD_REACTORS
330
8CC8
102
}
330
8CC8
100
AcDbVisualStyle
  2

 70
    14
177
     3
291
     1
 70
    58
 90
        2
176
     1
 90
        2
176
     1
 90
        0
176
     1
 90
        0
176
     1
 40
0.6
176
     1
 40
30.0
176
     1
 62
     7
176
     1
 90
        1
176
     1
 90
        4
176
     1
 62
     7
176
     1
 62
   257
176
     1
 90
        7
176
     1
 90
        7
176
     1
 40
1.0
176
     1
 90
        8
176
     1
 62
     7
176
     1
 40
1.0
176
     1
 90
        1
176
     1
 90
        6
176
     1
 90
        2
176
     1
 62
     7
176
     1
 90
        5
176
     1
 90
        0
176
     1
 90
        0
176
     1
290
     0
176
     1
 90
        1
176
     1
 40
0.0
176
     1
 90
        0
176
     1
290
     0
176
     1
290
     1
176
     1
290
     1
176
     1
290
     0
176
     1
290
     0
176
     1
290
     0
176
     1
290
     0
176
     1
290
     0
176
     1
290
     0
176
     1
 90
       50
176
     1
 40
0.0
176
     1
 40
1.0
176
     1
 90
        0
176
     1
 62
    18
420
        0
176
     1
 90
       50
176
     1
 90
        3
176
     1
 62
     5
420
      255
176
     1
290
     0
176
     1
 90
       50
176
     1
 90
       50
176
     1
 90
       50
176
     1
290
     0
176
     1
 90
       50
176
     1
 62
   256
176
     0
 40
1.0
176
     0
 90
        2
176
     1
  1
strokes_ogs.tif
176
     1
290
     0
176
     1
 40
1.0
176
     1
 40
1.0
176
     1
1001
ACAD
1000
AcDbSavedByObjectVersion
1070
     0
  0
VISUALSTYLE
  5
8CDA
102
{ACAD_REACTORS
330
8CC8
102
}
330
8CC8
100
AcDbVisualStyle
  2

 70
    21
177
     3
291
     1
 70
    58
 90
        2
176
     0
 90
        2
176
     0
 90
        0
176
     0
 90
        0
176
     0
 40
0.6
176
     0
 40
30.0
176
     0
 62
     7
176
     0
 90
        1
176
     0
 90
        4
176
     0
 62
     7
176
     0
 62
   257
176
     0
 90
        1
176
     0
 90
        1
176
     0
 40
1.0
176
     0
 90
        9
176
     2
 62
     7
176
     0
 40
1.0
176
     0
 90
        1
176
     0
 90
        6
176
     0
 90
        2
176
     0
 62
     7
176
     0
 90
        5
176
     0
 90
        0
176
     0
 90
        0
176
     0
290
     0
176
     0
 90
        1
176
     0
 40
0.0
176
     0
 90
        0
176
     0
290
     0
176
     1
290
     1
176
     1
290
     1
176
     1
290
     0
176
     1
290
     0
176
     1
290
     0
176
     1
290
     0
176
     1
290
     0
176
     1
290
     0
176
     1
 90
       50
176
     1
 40
0.0
176
     1
 40
1.0
176
     1
 90
        0
176
     1
 62
    18
420
        0
176
     1
 90
       50
176
     1
 90
        3
176
     1
 62
     5
420
      255
176
     1
290
     0
176
     1
 90
       50
176
     1
 90
       50
176
     1
 90
       50
176
     1
290
     0
176
     1
 90
       50
176
     1
 62
   256
176
     0
 40
1.0
176
     0
 90
        2
176
     1
  1
strokes_ogs.tif
176
     1
290
     0
176
     1
 40
1.0
176
     1
 40
1.0
176
     1
1001
ACAD
1000
AcDbSavedByObjectVersion
1070
     0
  0
VISUALSTYLE
  5
8CD2
102
{ACAD_REACTORS
330
8CC8
102
}
330
8CC8
100
AcDbVisualStyle
  2

 70
     8
177
     3
291
     0
 70
    58
 90
        2
176
     1
 90
        2
176
     1
 90
        0
176
     1
 90
        0
176
     1
 40
0.6
176
     1
 40
30.0
176
     1
 62
     7
176
     1
 90
        1
176
     1
 90
        0
176
     1
 62
     7
176
     1
 62
   257
176
     1
 90
        1
176
     1
 90
        1
176
     1
 40
1.0
176
     1
 90
        8
176
     1
 62
     8
176
     1
 40
1.0
176
     1
 90
        1
176
     1
 90
        6
176
     1
 90
        2
176
     1
 62
     7
176
     1
 90
        5
176
     1
 90
        0
176
     1
 90
        0
176
     1
290
     0
176
     1
 90
       13
176
     1
 40
0.0
176
     1
 90
        0
176
     1
290
     0
176
     1
290
     1
176
     1
290
     1
176
     1
290
     0
176
     1
290
     0
176
     1
290
     0
176
     1
290
     0
176
     1
290
     0
176
     1
290
     0
176
     1
 90
       50
176
     1
 40
0.0
176
     1
 40
1.0
176
     1
 90
        0
176
     1
 62
    18
420
        0
176
     1
 90
       50
176
     1
 90
        3
176
     1
 62
     5
420
      255
176
     1
290
     0
176
     1
 90
       50
176
     1
 90
       50
176
     1
 90
       50
176
     1
290
     0
176
     1
 90
       50
176
     1
 62
   256
176
     0
 40
1.0
176
     0
 90
        2
176
     1
  1
strokes_ogs.tif
176
     1
290
     0
176
     1
 40
1.0
176
     1
 40
1.0
176
     1
1001
ACAD
1000
AcDbSavedByObjectVersion
1070
     0
  0
VISUALSTYLE
  5
8E1F
102
{ACAD_REACTORS
330
8CC8
102
}
330
8CC8
100
AcDbVisualStyle
  2

 70
    27
177
     3
291
     0
 70
    58
 90
        2
176
     1
 90
        2
176
     1
 90
        1
176
     1
 90
        2
176
     1
 40
0.6
176
     1
 40
30.0
176
     1
 62
     7
420
 16777215
176
     1
 90
        0
176
     1
 90
        4
176
     1
 62
     7
176
     1
 62
   257
176
     1
 90
        1
176
     1
 90
        1
176
     1
 40
1.0
176
     1
 90
        8
176
     1
 62
   257
176
     1
 40
1.0
176
     1
 90
        1
176
     1
 90
        6
176
     1
 90
        2
176
     1
 62
     8
420
  7895160
176
     1
 90
        3
176
     1
 90
        0
176
     1
 90
        0
176
     1
290
     0
176
     1
 90
        5
176
     1
 40
0.0
176
     1
 90
        0
176
     1
290
     0
176
     1
290
     1
176
     1
290
     1
176
     1
290
     0
176
     1
290
     0
176
     1
290
     0
176
     1
290
     0
176
     1
290
     0
176
     1
290
     0
176
     1
 90
       50
176
     1
 40
0.0
176
     1
 40
1.0
176
     1
 90
        0
176
     1
 62
    18
420
        0
176
     1
 90
       50
176
     1
 90
        3
176
     1
 62
     5
420
      255
176
     1
290
     0
176
     1
 90
       50
176
     1
 90
       50
176
     1
 90
       50
176
     1
290
     0
176
     1
 90
       50
176
     1
 62
   256
176
     0
 40
1.0
176
     0
 90
        2
176
     1
  1
strokes_ogs.tif
176
     1
290
     0
176
     1
 40
1.0
176
     1
 40
1.0
176
     1
1001
ACAD
1000
AcDbSavedByObjectVersion
1070
     0
  0
VISUALSTYLE
  5
8E1E
102
{ACAD_REACTORS
330
8CC8
102
}
330
8CC8
100
AcDbVisualStyle
  2

 70
    26
177
     3
291
     0
 70
    58
 90
        2
176
     1
 90
        2
176
     1
 90
        1
176
     1
 90
        2
176
     1
 40
0.6
176
     1
 40
30.0
176
     1
 62
     7
420
 16777215
176
     1
 90
        1
176
     1
 90
       10
176
     1
 62
     7
176
     1
 62
   257
176
     1
 90
        2
176
     1
 90
        1
176
     1
 40
1.0
176
     1
 90
        8
176
     1
 62
   257
176
     1
 40
1.0
176
     1
 90
        1
176
     1
 90
        6
176
     1
 90
        2
176
     1
 62
     7
176
     1
 90
        3
176
     1
 90
        0
176
     1
 90
        0
176
     1
290
     0
176
     1
 90
        5
176
     1
 40
0.0
176
     1
 90
        0
176
     1
290
     0
176
     1
290
     1
176
     1
290
     1
176
     1
290
     0
176
     1
290
     0
176
     1
290
     0
176
     1
290
     0
176
     1
290
     0
176
     1
290
     0
176
     1
 90
       50
176
     1
 40
0.0
176
     1
 40
1.0
176
     1
 90
        0
176
     1
 62
    18
420
        0
176
     1
 90
       50
176
     1
 90
        3
176
     1
 62
     5
420
      255
176
     1
290
     0
176
     1
 90
       50
176
     1
 90
       50
176
     1
 90
       50
176
     1
290
     0
176
     1
 90
       50
176
     1
 62
   256
176
     0
 40
1.0
176
     0
 90
        2
176
     1
  1
strokes_ogs.tif
176
     1
290
     0
176
     1
 40
1.0
176
     1
 40
1.0
176
     1
1001
ACAD
1000
AcDbSavedByObjectVersion
1070
     0
  0
VISUALSTYLE
  5
8E1B
102
{ACAD_REACTORS
330
8CC8
102
}
330
8CC8
100
AcDbVisualStyle
  2

 70
    23
177
     3
291
     0
 70
    58
 90
        2
176
     1
 90
        2
176
     1
 90
        3
176
     1
 90
        0
176
     1
 40
0.6
176
     1
 40
30.0
176
     1
 62
     7
420
 16777215
176
     1
 90
        2
176
     1
 90
        2
176
     1
 62
     7
176
     1
 62
     7
176
     1
 90
        1
176
     1
 90
        1
176
     1
 40
40.0
176
     1
 90
        8
176
     1
 62
     7
176
     1
 40
1.0
176
     1
 90
        1
176
     1
 90
        6
176
     1
 90
        2
176
     1
 62
     7
176
     1
 90
        3
176
     1
 90
        0
176
     1
 90
        0
176
     1
290
     0
176
     1
 90
        1
176
     1
 40
0.0
176
     1
 90
        0
176
     1
290
     0
176
     1
290
     1
176
     1
290
     1
176
     1
290
     0
176
     1
290
     0
176
     1
290
     0
176
     1
290
     0
176
     1
290
     0
176
     1
290
     0
176
     1
 90
       50
176
     1
 40
0.0
176
     1
 40
1.0
176
     1
 90
        0
176
     1
 62
    18
420
        0
176
     1
 90
       50
176
     1
 90
        3
176
     1
 62
     5
420
      255
176
     1
290
     0
176
     1
 90
       50
176
     1
 90
       50
176
     1
 90
       50
176
     1
290
     0
176
     1
 90
       50
176
     1
 62
   256
176
     0
 40
1.0
176
     0
 90
        2
176
     1
  1
strokes_ogs.tif
176
     1
290
     0
176
     1
 40
1.0
176
     1
 40
1.0
176
     1
1001
ACAD
1000
AcDbSavedByObjectVersion
1070
     0
  0
VISUALSTYLE
  5
8E1C
102
{ACAD_REACTORS
330
8CC8
102
}
330
8CC8
100
AcDbVisualStyle
  2

 70
    24
177
     3
291
     0
 70
    58
 90
        1
176
     1
 90
        2
176
     1
 90
        2
176
     1
 90
        0
176
     1
 40
0.6
176
     1
 40
30.0
176
     1
 62
     7
420
 16777215
176
     1
 90
        2
176
     1
 90
        2
176
     1
 62
     7
176
     1
 62
     7
176
     1
 90
        1
176
     1
 90
        1
176
     1
 40
40.0
176
     1
 90
       11
176
     1
 62
     7
176
     1
 40
1.0
176
     1
 90
        1
176
     1
 90
        6
176
     1
 90
        2
176
     1
 62
     7
176
     1
 90
        6
176
     1
 90
        0
176
     1
 90
        0
176
     1
290
     0
176
     1
 90
        1
176
     1
 40
0.0
176
     1
 90
        0
176
     1
290
     0
176
     1
290
     1
176
     1
290
     1
176
     1
290
     0
176
     1
290
     0
176
     1
290
     0
176
     1
290
     0
176
     1
290
     0
176
     1
290
     0
176
     1
 90
       50
176
     1
 40
0.0
176
     1
 40
1.0
176
     1
 90
        0
176
     1
 62
    18
420
        0
176
     1
 90
       50
176
     1
 90
        3
176
     1
 62
     5
420
      255
176
     1
290
     0
176
     1
 90
       50
176
     1
 90
       50
176
     1
 90
       50
176
     1
290
     0
176
     1
 90
       50
176
     1
 62
   256
176
     0
 40
1.0
176
     0
 90
        2
176
     1
  1
strokes_ogs.tif
176
     1
290
     0
176
     1
 40
1.0
176
     1
 40
1.0
176
     1
1001
ACAD
1000
AcDbSavedByObjectVersion
1070
     0
  0
VISUALSTYLE
  5
8CD5
102
{ACAD_REACTORS
330
8CC8
102
}
330
8CC8
100
AcDbVisualStyle
  2

 70
    13
177
     3
291
     1
 70
    58
 90
        2
176
     1
 90
        2
176
     1
 90
        0
176
     1
 90
        0
176
     1
 40
0.6
176
     1
 40
30.0
176
     1
 62
     7
176
     1
 90
        1
176
     1
 90
        4
176
     1
 62
     7
176
     1
 62
   257
176
     1
 90
        1
176
     1
 90
        1
176
     1
 40
1.0
176
     1
 90
       12
176
     1
 62
     7
176
     1
 40
1.0
176
     1
 90
        1
176
     1
 90
        6
176
     1
 90
        2
176
     1
 62
     7
176
     1
 90
        5
176
     1
 90
        0
176
     1
 90
        0
176
     1
290
     0
176
     1
 90
        1
176
     1
 40
0.0
176
     1
 90
        0
176
     1
290
     0
176
     1
290
     1
176
     1
290
     1
176
     1
290
     0
176
     1
290
     0
176
     1
290
     0
176
     1
290
     0
176
     1
290
     0
176
     1
290
     0
176
     1
 90
       50
176
     1
 40
0.0
176
     1
 40
1.0
176
     1
 90
        0
176
     1
 62
    18
420
        0
176
     1
 90
       50
176
     1
 90
        3
176
     1
 62
     5
420
      255
176
     1
290
     0
176
     1
 90
       50
176
     1
 90
       50
176
     1
 90
       50
176
     1
290
     0
176
     1
 90
       50
176
     1
 62
   256
176
     0
 40
1.0
176
     0
 90
        2
176
     1
  1
strokes_ogs.tif
176
     1
290
     0
176
     1
 40
1.0
176
     1
 40
1.0
176
     1
1001
ACAD
1000
AcDbSavedByObjectVersion
1070
     0
  0
VISUALSTYLE
  5
8E19
102
{ACAD_REACTORS
330
8CC8
102
}
330
8CC8
100
AcDbVisualStyle
  2

 70
     5
177
     3
291
     0
 70
    58
 90
        0
176
     1
 90
        2
176
     1
 90
        0
176
     1
 90
        0
176
     1
 40
0.6
176
     1
 40
30.0
176
     1
 62
     7
420
 16777215
176
     1
 90
        1
176
     1
 90
        4
176
     1
 62
     7
176
     1
 62
   257
176
     1
 90
        1
176
     1
 90
        1
176
     1
 40
1.0
176
     1
 90
        0
176
     1
 62
   257
176
     1
 40
1.0
176
     1
 90
        1
176
     1
 90
        6
176
     1
 90
        2
176
     1
 62
     7
176
     1
 90
        3
176
     1
 90
        0
176
     1
 90
        0
176
     1
290
     0
176
     1
 90
        1
176
     1
 40
0.0
176
     1
 90
        0
176
     1
290
     0
176
     1
290
     1
176
     1
290
     1
176
     1
290
     0
176
     1
290
     0
176
     1
290
     0
176
     1
290
     0
176
     1
290
     0
176
     1
290
     0
176
     1
 90
       50
176
     1
 40
0.0
176
     1
 40
1.0
176
     1
 90
        0
176
     1
 62
    18
420
        0
176
     1
 90
       50
176
     1
 90
        3
176
     1
 62
     5
420
      255
176
     1
290
     0
176
     1
 90
       50
176
     1
 90
       50
176
     1
 90
       50
176
     1
290
     0
176
     1
 90
       50
176
     1
 62
   256
176
     0
 40
1.0
176
     0
 90
        2
176
     1
  1
strokes_ogs.tif
176
     1
290
     0
176
     1
 40
1.0
176
     1
 40
1.0
176
     1
1001
ACAD
1000
AcDbSavedByObjectVersion
1070
     0
  0
VISUALSTYLE
  5
8E1D
102
{ACAD_REACTORS
330
8CC8
102
}
330
8CC8
100
AcDbVisualStyle
  2

 70
    25
177
     3
291
     0
 70
    58
 90
        2
176
     1
 90
        2
176
     1
 90
        1
176
     1
 90
        1
176
     1
 40
0.5
176
     1
 40
30.0
176
     1
 62
     7
420
 16777215
176
     1
 90
        1
176
     1
 90
        0
176
     1
 62
     7
176
     1
 62
   257
176
     1
 90
        1
176
     1
 90
        1
176
     1
 40
1.0
176
     1
 90
        8
176
     1
 62
     7
176
     1
 40
1.0
176
     1
 90
        1
176
     1
 90
        6
176
     1
 90
        2
176
     1
 62
     7
176
     1
 90
        3
176
     1
 90
        0
176
     1
 90
        0
176
     1
290
     0
176
     1
 90
       13
176
     1
 40
0.0
176
     1
 90
        0
176
     1
290
     0
176
     1
290
     1
176
     1
290
     1
176
     1
290
     0
176
     1
290
     0
176
     1
290
     0
176
     1
290
     0
176
     1
290
     0
176
     1
290
     0
176
     1
 90
       50
176
     1
 40
0.0
176
     1
 40
1.0
176
     1
 90
        0
176
     1
 62
    18
420
        0
176
     1
 90
       50
176
     1
 90
        3
176
     1
 62
     5
420
      255
176
     1
290
     0
176
     1
 90
       50
176
     1
 90
       50
176
     1
 90
       50
176
     1
290
     0
176
     1
 90
       50
176
     1
 62
   256
176
     0
 40
1.0
176
     0
 90
        2
176
     1
  1
strokes_ogs.tif
176
     1
290
     0
176
     1
 40
1.0
176
     1
 40
1.0
176
     1
1001
ACAD
1000
AcDbSavedByObjectVersion
1070
     0
  0
DICTIONARYVAR
  5
8D04
102
{ACAD_REACTORS
330
5E
102
}
330
5E
100
DictionaryVariables
280
     0
  1
1:1
  0
DICTIONARYVAR
  5
8D03
102
{ACAD_REACTORS
330
5E
102
}
330
5E
100
DictionaryVariables
280
     0
  1
STANDARD
  0
DICTIONARYVAR
  5
3F42
102
{ACAD_REACTORS
330
5E
102
}
330
5E
100
DictionaryVariables
280
     0
  1
STANDARD
  0
DICTIONARYVAR
  5
8E7C
102
{ACAD_REACTORS
330
5E
102
}
330
5E
100
DictionaryVariables
280
     0
  1
Metric50
  0
DICTIONARYVAR
  5
8E7D
102
{ACAD_REACTORS
330
5E
102
}
330
5E
100
DictionaryVariables
280
     0
  1
Metric50
  0
DICTIONARYVAR
  5
5F
102
{ACAD_REACTORS
330
5E
102
}
330
5E
100
DictionaryVariables
280
     0
  1
2
  0
DICTIONARYVAR
  5
63
102
{ACAD_REACTORS
330
5E
102
}
330
5E
100
DictionaryVariables
280
     0
  1
1
  0
DICTIONARYVAR
  5
8D05
102
{ACAD_REACTORS
330
5E
102
}
330
5E
100
DictionaryVariables
280
     0
  1
0
  0
DICTIONARYVAR
  5
8E80
102
{ACAD_REACTORS
330
5E
102
}
330
5E
100
DictionaryVariables
280
     0
  1
1
  0
DICTIONARYVAR
  5
8E81
102
{ACAD_REACTORS
330
5E
102
}
330
5E
100
DictionaryVariables
280
     0
  1
15
  0
DICTIONARYVAR
  5
8E7F
102
{ACAD_REACTORS
330
5E
102
}
330
5E
100
DictionaryVariables
280
     0
  1
0
  0
DICTIONARYVAR
  5
8E7E
102
{ACAD_REACTORS
330
5E
102
}
330
5E
100
DictionaryVariables
280
     0
  1
0
  0
DICTIONARYVAR
  5
228D
102
{ACAD_REACTORS
330
5E
102
}
330
5E
100
DictionaryVariables
280
     0
  1

  0
DICTIONARYVAR
  5
228C
102
{ACAD_REACTORS
330
5E
102
}
330
5E
100
DictionaryVariables
280
     0
  1
1
  0
XRECORD
  5
6BF2
102
{ACAD_REACTORS
330
6BF1
102
}
330
6BF1
100
AcDbXrecord
280
     1
330
0
330
0
330
0
330
0
330
0
330
0
330
0
330
0
330
0
330
0
330
0
330
0
330
0
330
0
330
0
330
0
330
0
330
0
330
0
330
0
330
0
330
0
330
0
330
0
330
0
330
0
330
0
330
0
330
0
330
0
330
0
330
0
330
0
330
0
330
0
330
0
330
0
330
0
330
0
330
0
330
0
330
0
330
0
330
0
330
0
330
0
330
0
330
0
330
0
330
0
330
0
330
0
330
0
330
0
330
0
330
0
330
0
330
0
330
0
330
0
330
0
330
0
330
0
330
0
330
0
330
0
330
0
330
0
330
0
330
0
330
0
330
0
330
0
330
0
330
0
330
0
330
0
330
0
330
0
330
0
330
0
330
0
330
0
330
0
330
0
330
0
330
0
330
0
330
0
330
0
330
0
330
0
330
0
330
0
330
0
330
0
330
0
330
0
330
0
330
0
330
0
330
0
330
0
330
0
330
0
330
0
330
0
330
0
330
0
330
0
330
0
330
0
330
0
330
0
330
0
330
0
330
0
330
0
330
0
330
0
330
0
330
0
330
0
330
0
330
0
330
0
330
0
330
0
330
0
330
0
330
0
330
0
330
0
330
0
330
0
330
0
330
0
330
0
330
0
330
0
330
0
330
0
330
0
330
0
330
0
330
0
330
0
330
0
330
0
330
0
330
0
330
0
330
0
330
0
330
0
330
0
330
0
330
0
330
0
330
0
330
0
330
0
330
0
330
0
330
0
330
0
330
0
330
0
330
0
330
0
330
0
330
0
330
0
  0
DICTIONARY
  5
8E85
330
8E6A
100
AcDbDictionary
280
     1
281
     1
  3
ACAD_XREC_ROUNDTRIP
360
8E86
  0
DICTIONARY
  5
8CB9
330
8CB8
100
AcDbDictionary
280
     1
281
     1
  3
ACAD_XREC_ROUNDTRIP
360
8D16
  3
BUMPTILE
360
8CBB
  3
DIFFUSETILE
360
8CBA
  3
OPACITYTILE
360
8CBE
  3
REFLECTIONTILE
360
8CBD
  3
REFRACTIONTILE
360
8CBF
  3
SPECULARTILE
360
8CBC
  0
DICTIONARY
  5
8CB1
330
8CB0
100
AcDbDictionary
280
     1
281
     1
  3
ACAD_XREC_ROUNDTRIP
360
8D15
  3
BUMPTILE
360
8CB3
  3
DIFFUSETILE
360
8CB2
  3
OPACITYTILE
360
8CB6
  3
REFLECTIONTILE
360
8CB5
  3
REFRACTIONTILE
360
8CB7
  3
SPECULARTILE
360
8CB4
  0
DICTIONARY
  5
8CC1
330
8CC0
100
AcDbDictionary
280
     1
281
     1
  3
ACAD_XREC_ROUNDTRIP
360
8D17
  3
BUMPTILE
360
8CC3
  3
DIFFUSETILE
360
8CC2
  3
OPACITYTILE
360
8CC6
  3
REFLECTIONTILE
360
8CC5
  3
REFRACTIONTILE
360
8CC7
  3
SPECULARTILE
360
8CC4
  0
DICTIONARY
  5
8E83
330
8E68
100
AcDbDictionary
280
     1
281
     1
  3
ACAD_XREC_ROUNDTRIP
360
8E84
  0
DICTIONARY
  5
8D08
330
3F1C
100
AcDbDictionary
280
     1
281
     1
  3
ACAD_ROUNDTRIP_2008_TABLESTYLE_CELLSTYLEMAP
360
8E82
  0
XRECORD
  5
8E86
102
{ACAD_REACTORS
330
8E85
102
}
330
8E85
100
AcDbXrecord
280
     1
102
DISPLAYNAME
  1
Metric50
102
FLAGS
 90
        0
  0
XRECORD
  5
8D16
102
{ACAD_REACTORS
330
8CB9
102
}
330
8CB9
100
AcDbXrecord
280
     1
102
MATERIAL
148
0.0
149
0.0
149
0.0
 93
        0
 94
      127
282
     0
 72
     0
 77
     0
171
     0
175
     0
179
     0
273
     0
  0
XRECORD
  5
8CBB
102
{ACAD_REACTORS
330
8CB9
102
}
330
8CB9
100
AcDbXrecord
280
     1
270
     1
271
     1
  0
XRECORD
  5
8CBA
102
{ACAD_REACTORS
330
8CB9
102
}
330
8CB9
100
AcDbXrecord
280
     1
270
     1
271
     1
  0
XRECORD
  5
8CBE
102
{ACAD_REACTORS
330
8CB9
102
}
330
8CB9
100
AcDbXrecord
280
     1
270
     1
271
     1
  0
XRECORD
  5
8CBD
102
{ACAD_REACTORS
330
8CB9
102
}
330
8CB9
100
AcDbXrecord
280
     1
270
     1
271
     1
  0
XRECORD
  5
8CBF
102
{ACAD_REACTORS
330
8CB9
102
}
330
8CB9
100
AcDbXrecord
280
     1
270
     1
271
     1
  0
XRECORD
  5
8CBC
102
{ACAD_REACTORS
330
8CB9
102
}
330
8CB9
100
AcDbXrecord
280
     1
270
     1
271
     1
  0
XRECORD
  5
8D15
102
{ACAD_REACTORS
330
8CB1
102
}
330
8CB1
100
AcDbXrecord
280
     1
102
MATERIAL
148
0.0
149
0.0
149
0.0
 93
        0
 94
      127
282
     0
 72
     0
 77
     0
171
     0
175
     0
179
     0
273
     0
  0
XRECORD
  5
8CB3
102
{ACAD_REACTORS
330
8CB1
102
}
330
8CB1
100
AcDbXrecord
280
     1
270
     1
271
     1
  0
XRECORD
  5
8CB2
102
{ACAD_REACTORS
330
8CB1
102
}
330
8CB1
100
AcDbXrecord
280
     1
270
     1
271
     1
  0
XRECORD
  5
8CB6
102
{ACAD_REACTORS
330
8CB1
102
}
330
8CB1
100
AcDbXrecord
280
     1
270
     1
271
     1
  0
XRECORD
  5
8CB5
102
{ACAD_REACTORS
330
8CB1
102
}
330
8CB1
100
AcDbXrecord
280
     1
270
     1
271
     1
  0
XRECORD
  5
8CB7
102
{ACAD_REACTORS
330
8CB1
102
}
330
8CB1
100
AcDbXrecord
280
     1
270
     1
271
     1
  0
XRECORD
  5
8CB4
102
{ACAD_REACTORS
330
8CB1
102
}
330
8CB1
100
AcDbXrecord
280
     1
270
     1
271
     1
  0
XRECORD
  5
8D17
102
{ACAD_REACTORS
330
8CC1
102
}
330
8CC1
100
AcDbXrecord
280
     1
102
MATERIAL
148
0.0
149
0.0
149
0.0
 93
        0
 94
      127
282
     0
 72
     0
 77
     0
171
     0
175
     0
179
     0
273
     0
  0
XRECORD
  5
8CC3
102
{ACAD_REACTORS
330
8CC1
102
}
330
8CC1
100
AcDbXrecord
280
     1
270
     1
271
     1
  0
XRECORD
  5
8CC2
102
{ACAD_REACTORS
330
8CC1
102
}
330
8CC1
100
AcDbXrecord
280
     1
270
     1
271
     1
  0
XRECORD
  5
8CC6
102
{ACAD_REACTORS
330
8CC1
102
}
330
8CC1
100
AcDbXrecord
280
     1
270
     1
271
     1
  0
XRECORD
  5
8CC5
102
{ACAD_REACTORS
330
8CC1
102
}
330
8CC1
100
AcDbXrecord
280
     1
270
     1
271
     1
  0
XRECORD
  5
8CC7
102
{ACAD_REACTORS
330
8CC1
102
}
330
8CC1
100
AcDbXrecord
280
     1
270
     1
271
     1
  0
XRECORD
  5
8CC4
102
{ACAD_REACTORS
330
8CC1
102
}
330
8CC1
100
AcDbXrecord
280
     1
270
     1
271
     1
  0
XRECORD
  5
8E84
102
{ACAD_REACTORS
330
8E83
102
}
330
8E83
100
AcDbXrecord
280
     1
102
DISPLAYNAME
  1
Metric50
102
FLAGS
 90
        0
  0
CELLSTYLEMAP
  5
8E82
102
{ACAD_REACTORS
330
8D08
102
}
330
8D08
100
AcDbCellStyleMap
 90
        3
300
CELLSTYLE
  1
TABLEFORMAT_BEGIN
 90
        5
170
     1
 91
        0
 92
    32768
 62
   257
 93
        1
300
CONTENTFORMAT
  1
CONTENTFORMAT_BEGIN
 90
        0
 91
        0
 92
        4
 93
        0
300

 40
0.0
140
1.0
 94
        5
 62
     0
340
11
144
6.0
309
CONTENTFORMAT_END
171
     1
301
MARGIN
  1
CELLMARGIN_BEGIN
 40
1.5
 40
1.5
 40
1.5
 40
1.5
 40
0.18
 40
0.18
309
CELLMARGIN_END
 94
        6
 95
        1
302
GRIDFORMAT
  1
GRIDFORMAT_BEGIN
 90
        0
 91
        1
 62
     0
 92
       -2
340
0
 93
        0
 40
0.045
309
GRIDFORMAT_END
 95
        2
302
GRIDFORMAT
  1
GRIDFORMAT_BEGIN
 90
        0
 91
        1
 62
     0
 92
       -2
340
0
 93
        0
 40
0.045
309
GRIDFORMAT_END
 95
        4
302
GRIDFORMAT
  1
GRIDFORMAT_BEGIN
 90
        0
 91
        1
 62
     0
 92
       -2
340
0
 93
        0
 40
0.045
309
GRIDFORMAT_END
 95
        8
302
GRIDFORMAT
  1
GRIDFORMAT_BEGIN
 90
        0
 91
        1
 62
     0
 92
       -2
340
0
 93
        0
 40
0.045
309
GRIDFORMAT_END
 95
       16
302
GRIDFORMAT
  1
GRIDFORMAT_BEGIN
 90
        0
 91
        1
 62
     0
 92
       -2
340
0
 93
        0
 40
0.045
309
GRIDFORMAT_END
 95
       32
302
GRIDFORMAT
  1
GRIDFORMAT_BEGIN
 90
        0
 91
        1
 62
     0
 92
       -2
340
0
 93
        0
 40
0.045
309
GRIDFORMAT_END
309
TABLEFORMAT_END
  1
CELLSTYLE_BEGIN
 90
        1
 91
        1
300
_TITLE
309
CELLSTYLE_END
300
CELLSTYLE
  1
TABLEFORMAT_BEGIN
 90
        5
170
     1
 91
        0
 92
        0
 62
   257
 93
        1
300
CONTENTFORMAT
  1
CONTENTFORMAT_BEGIN
 90
        0
 91
        0
 92
        4
 93
        0
300

 40
0.0
140
1.0
 94
        5
 62
     0
340
11
144
4.5
309
CONTENTFORMAT_END
171
     1
301
MARGIN
  1
CELLMARGIN_BEGIN
 40
1.5
 40
1.5
 40
1.5
 40
1.5
 40
0.18
 40
0.18
309
CELLMARGIN_END
 94
        6
 95
        1
302
GRIDFORMAT
  1
GRIDFORMAT_BEGIN
 90
        0
 91
        1
 62
     0
 92
       -2
340
0
 93
        0
 40
0.045
309
GRIDFORMAT_END
 95
        2
302
GRIDFORMAT
  1
GRIDFORMAT_BEGIN
 90
        0
 91
        1
 62
     0
 92
       -2
340
0
 93
        0
 40
0.045
309
GRIDFORMAT_END
 95
        4
302
GRIDFORMAT
  1
GRIDFORMAT_BEGIN
 90
        0
 91
        1
 62
     0
 92
       -2
340
0
 93
        0
 40
0.045
309
GRIDFORMAT_END
 95
        8
302
GRIDFORMAT
  1
GRIDFORMAT_BEGIN
 90
        0
 91
        1
 62
     0
 92
       -2
340
0
 93
        0
 40
0.045
309
GRIDFORMAT_END
 95
       16
302
GRIDFORMAT
  1
GRIDFORMAT_BEGIN
 90
        0
 91
        1
 62
     0
 92
       -2
340
0
 93
        0
 40
0.045
309
GRIDFORMAT_END
 95
       32
302
GRIDFORMAT
  1
GRIDFORMAT_BEGIN
 90
        0
 91
        1
 62
     0
 92
       -2
340
0
 93
        0
 40
0.045
309
GRIDFORMAT_END
309
TABLEFORMAT_END
  1
CELLSTYLE_BEGIN
 90
        2
 91
        1
300
_HEADER
309
CELLSTYLE_END
300
CELLSTYLE
  1
TABLEFORMAT_BEGIN
 90
        5
170
     1
 91
        0
 92
        0
 62
   257
 93
        1
300
CONTENTFORMAT
  1
CONTENTFORMAT_BEGIN
 90
        0
 91
        0
 92
        4
 93
        0
300

 40
0.0
140
1.0
 94
        2
 62
     0
340
11
144
4.5
309
CONTENTFORMAT_END
171
     1
301
MARGIN
  1
CELLMARGIN_BEGIN
 40
1.5
 40
1.5
 40
1.5
 40
1.5
 40
0.18
 40
0.18
309
CELLMARGIN_END
 94
        6
 95
        1
302
GRIDFORMAT
  1
GRIDFORMAT_BEGIN
 90
        0
 91
        1
 62
     0
 92
       -2
340
0
 93
        0
 40
0.045
309
GRIDFORMAT_END
 95
        2
302
GRIDFORMAT
  1
GRIDFORMAT_BEGIN
 90
        0
 91
        1
 62
     0
 92
       -2
340
0
 93
        0
 40
0.045
309
GRIDFORMAT_END
 95
        4
302
GRIDFORMAT
  1
GRIDFORMAT_BEGIN
 90
        0
 91
        1
 62
     0
 92
       -2
340
0
 93
        0
 40
0.045
309
GRIDFORMAT_END
 95
        8
302
GRIDFORMAT
  1
GRIDFORMAT_BEGIN
 90
        0
 91
        1
 62
     0
 92
       -2
340
0
 93
        0
 40
0.045
309
GRIDFORMAT_END
 95
       16
302
GRIDFORMAT
  1
GRIDFORMAT_BEGIN
 90
        0
 91
        1
 62
     0
 92
       -2
340
0
 93
        0
 40
0.045
309
GRIDFORMAT_END
 95
       32
302
GRIDFORMAT
  1
GRIDFORMAT_BEGIN
 90
        0
 91
        1
 62
     0
 92
       -2
340
0
 93
        0
 40
0.045
309
GRIDFORMAT_END
309
TABLEFORMAT_END
  1
CELLSTYLE_BEGIN
 90
        3
 91
        2
300
_DATA
309
CELLSTYLE_END
  0
ENDSEC
  0
EOF
