  0
SECTION
  2
HEADER
  9
$ACADVER
  1
AC1027
  9
$ACADMAINTVER
 70
   125
  9
$DWGCODEPAGE
  3
ANSI_1252
  9
$LASTSAVEDBY
  1
fleminab
  9
$REQUIREDVERSIONS
160
                 0
  9
$INSBASE
 10
0.0
 20
0.0
 30
0.0
  9
$EXTMIN
 10
301.3703697722249
 20
318.2095717550296
 30
-0.0015258207003583
  9
$EXTMAX
 10
970.7804429498773
 20
734.4627634620279
 30
0.0000000349246037
  9
$LIMMIN
 10
0.0
 20
0.0
  9
$LIMMAX
 10
0.0
 20
0.0
  9
$ORTHOMODE
 70
     0
  9
$REGENMODE
 70
     1
  9
$FILLMODE
 70
     1
  9
$QTEXTMODE
 70
     0
  9
$MIRRTEXT
 70
     1
  9
$LTSCALE
 40
0.5
  9
$ATTMODE
 70
     1
  9
$TEXTSIZE
 40
2.5
  9
$TRACEWID
 40
1.0
  9
$TEXTSTYLE
  7
Standard
  9
$CLAYER
  8
0
  9
$CELTYPE
  6
ByLayer
  9
$CECOLOR
 62
   256
  9
$CELTSCALE
 40
0.5
  9
$DISPSILH
 70
     0
  9
$DIMSCALE
 40
1.0
  9
$DIMASZ
 40
2.5
  9
$DIMEXO
 40
1.0
  9
$DIMDLI
 40
3.75
  9
$DIMRND
 40
0.0
  9
$DIMDLE
 40
0.0
  9
$DIMEXE
 40
1.0
  9
$DIMTP
 40
0.0
  9
$DIMTM
 40
0.0
  9
$DIMTXT
 40
8.0
  9
$DIMCEN
 40
2.5
  9
$DIMTSZ
 40
0.0
  9
$DIMTOL
 70
     0
  9
$DIMLIM
 70
     0
  9
$DIMTIH
 70
     0
  9
$DIMTOH
 70
     0
  9
$DIMSE1
 70
     0
  9
$DIMSE2
 70
     0
  9
$DIMTAD
 70
     1
  9
$DIMZIN
 70
     8
  9
$DIMBLK
  1
Open30
  9
$DIMASO
 70
     1
  9
$DIMSHO
 70
     1
  9
$DIMPOST
  1

  9
$DIMAPOST
  1

  9
$DIMALT
 70
     0
  9
$DIMALTD
 70
     3
  9
$DIMALTF
 40
0.0393700787401575
  9
$DIMLFAC
 40
1.0
  9
$DIMTOFL
 70
     1
  9
$DIMTVP
 40
0.0
  9
$DIMTIX
 70
     0
  9
$DIMSOXD
 70
     0
  9
$DIMSAH
 70
     0
  9
$DIMBLK1
  1

  9
$DIMBLK2
  1

  9
$DIMSTYLE
  2
ISO-25
  9
$DIMCLRD
 70
     0
  9
$DIMCLRE
 70
     0
  9
$DIMCLRT
 70
     0
  9
$DIMTFAC
 40
1.0
  9
$DIMGAP
 40
0.526
  9
$DIMJUST
 70
     0
  9
$DIMSD1
 70
     0
  9
$DIMSD2
 70
     0
  9
$DIMTOLJ
 70
     0
  9
$DIMTZIN
 70
     0
  9
$DIMALTZ
 70
     0
  9
$DIMALTTZ
 70
     0
  9
$DIMUPT
 70
     0
  9
$DIMDEC
 70
     1
  9
$DIMTDEC
 70
     1
  9
$DIMALTU
 70
     2
  9
$DIMALTTD
 70
     3
  9
$DIMTXSTY
  7
Standard
  9
$DIMAUNIT
 70
     0
  9
$DIMADEC
 70
     0
  9
$DIMALTRND
 40
0.0
  9
$DIMAZIN
 70
     0
  9
$DIMDSEP
 70
    46
  9
$DIMATFIT
 70
     3
  9
$DIMFRAC
 70
     0
  9
$DIMLDRBLK
  1

  9
$DIMLUNIT
 70
     2
  9
$DIMLWD
 70
    -2
  9
$DIMLWE
 70
    -2
  9
$DIMTMOVE
 70
     0
  9
$DIMFXL
 40
1.0
  9
$DIMFXLON
 70
     0
  9
$DIMJOGANG
 40
0.7853981633974483
  9
$DIMTFILL
 70
     0
  9
$DIMTFILLCLR
 70
     0
  9
$DIMARCSYM
 70
     0
  9
$DIMLTYPE
  6

  9
$DIMLTEX1
  6

  9
$DIMLTEX2
  6

  9
$DIMTXTDIRECTION
 70
     0
  9
$LUNITS
 70
     2
  9
$LUPREC
 70
     4
  9
$SKETCHINC
 40
1.0
  9
$FILLETRAD
 40
3.0
  9
$AUNITS
 70
     0
  9
$AUPREC
 70
     0
  9
$MENU
  1
.
  9
$ELEVATION
 40
0.0
  9
$PELEVATION
 40
0.0
  9
$THICKNESS
 40
0.0
  9
$LIMCHECK
 70
     0
  9
$CHAMFERA
 40
0.5
  9
$CHAMFERB
 40
0.5
  9
$CHAMFERC
 40
20.0
  9
$CHAMFERD
 40
0.0
  9
$SKPOLY
 70
     0
  9
$TDCREATE
 40
2454454.816539352
  9
$TDUCREATE
 40
2454454.358216840
  9
$TDUPDATE
 40
2458219.412037037
  9
$TDUUPDATE
 40
2458218.995370371
  9
$TDINDWG
 40
13.3884927662
  9
$TDUSRTIMER
 40
13.3884927662
  9
$USRTIMER
 70
     1
  9
$ANGBASE
 50
0.0
  9
$ANGDIR
 70
     0
  9
$PDMODE
 70
     0
  9
$PDSIZE
 40
-1.0
  9
$PLINEWID
 40
0.0
  9
$SPLFRAME
 70
     0
  9
$SPLINETYPE
 70
     6
  9
$SPLINESEGS
 70
     8
  9
$HANDSEED
  5
20226C8
  9
$SURFTAB1
 70
     6
  9
$SURFTAB2
 70
     6
  9
$SURFTYPE
 70
     6
  9
$SURFU
 70
     6
  9
$SURFV
 70
     6
  9
$UCSBASE
  2

  9
$UCSNAME
  2

  9
$UCSORG
 10
0.0
 20
0.0
 30
0.0
  9
$UCSXDIR
 10
1.0
 20
0.0
 30
0.0
  9
$UCSYDIR
 10
0.0
 20
1.0
 30
0.0
  9
$UCSORTHOREF
  2

  9
$UCSORTHOVIEW
 70
     0
  9
$UCSORGTOP
 10
0.0
 20
0.0
 30
0.0
  9
$UCSORGBOTTOM
 10
0.0
 20
0.0
 30
0.0
  9
$UCSORGLEFT
 10
0.0
 20
0.0
 30
0.0
  9
$UCSORGRIGHT
 10
0.0
 20
0.0
 30
0.0
  9
$UCSORGFRONT
 10
0.0
 20
0.0
 30
0.0
  9
$UCSORGBACK
 10
0.0
 20
0.0
 30
0.0
  9
$PUCSBASE
  2

  9
$PUCSNAME
  2

  9
$PUCSORG
 10
0.0
 20
0.0
 30
0.0
  9
$PUCSXDIR
 10
1.0
 20
0.0
 30
0.0
  9
$PUCSYDIR
 10
0.0
 20
1.0
 30
0.0
  9
$PUCSORTHOREF
  2

  9
$PUCSORTHOVIEW
 70
     0
  9
$PUCSORGTOP
 10
0.0
 20
0.0
 30
0.0
  9
$PUCSORGBOTTOM
 10
0.0
 20
0.0
 30
0.0
  9
$PUCSORGLEFT
 10
0.0
 20
0.0
 30
0.0
  9
$PUCSORGRIGHT
 10
0.0
 20
0.0
 30
0.0
  9
$PUCSORGFRONT
 10
0.0
 20
0.0
 30
0.0
  9
$PUCSORGBACK
 10
0.0
 20
0.0
 30
0.0
  9
$USERI1
 70
     0
  9
$USERI2
 70
     0
  9
$USERI3
 70
     0
  9
$USERI4
 70
     0
  9
$USERI5
 70
     0
  9
$USERR1
 40
0.0
  9
$USERR2
 40
0.0
  9
$USERR3
 40
0.0
  9
$USERR4
 40
0.0
  9
$USERR5
 40
0.0
  9
$WORLDVIEW
 70
     1
  9
$SHADEDGE
 70
     3
  9
$SHADEDIF
 70
    70
  9
$TILEMODE
 70
     1
  9
$MAXACTVP
 70
    64
  9
$PINSBASE
 10
0.0
 20
0.0
 30
0.0
  9
$PLIMCHECK
 70
     0
  9
$PEXTMIN
 10
1.000000000000000E+20
 20
1.000000000000000E+20
 30
1.000000000000000E+20
  9
$PEXTMAX
 10
-1.000000000000000E+20
 20
-1.000000000000000E+20
 30
-1.000000000000000E+20
  9
$PLIMMIN
 10
0.0
 20
0.0
  9
$PLIMMAX
 10
420.0
 20
297.0
  9
$UNITMODE
 70
     0
  9
$VISRETAIN
 70
     1
  9
$PLINEGEN
 70
     0
  9
$PSLTSCALE
 70
     1
  9
$TREEDEPTH
 70
  3020
  9
$CMLSTYLE
  2
Standard
  9
$CMLJUST
 70
     0
  9
$CMLSCALE
 40
20.0
  9
$PROXYGRAPHICS
 70
     1
  9
$MEASUREMENT
 70
     1
  9
$CELWEIGHT
370
    -1
  9
$ENDCAPS
280
     0
  9
$JOINSTYLE
280
     0
  9
$LWDISPLAY
290
     0
  9
$INSUNITS
 70
     4
  9
$HYPERLINKBASE
  1

  9
$STYLESHEET
  1

  9
$XEDIT
290
     1
  9
$CEPSNTYPE
380
     0
  9
$PSTYLEMODE
290
     1
  9
$FINGERPRINTGUID
  2
{A12051D7-B147-4678-A729-AB49B70941BD}
  9
$VERSIONGUID
  2
{719FF766-89F6-084E-BE18-8DAF51ACAA1D}
  9
$EXTNAMES
290
     1
  9
$PSVPSCALE
 40
0.0
  9
$OLESTARTUP
290
     0
  9
$SORTENTS
280
   127
  9
$INDEXCTL
280
     0
  9
$HIDETEXT
280
     0
  9
$XCLIPFRAME
280
     2
  9
$HALOGAP
280
     0
  9
$OBSCOLOR
 70
   257
  9
$OBSLTYPE
280
     0
  9
$INTERSECTIONDISPLAY
280
     0
  9
$INTERSECTIONCOLOR
 70
   257
  9
$DIMASSOC
280
     1
  9
$PROJECTNAME
  1

  9
$CAMERADISPLAY
290
     0
  9
$LENSLENGTH
 40
50.0
  9
$CAMERAHEIGHT
 40
0.0
  9
$STEPSPERSEC
 40
2.0
  9
$STEPSIZE
 40
6.0
  9
$3DDWFPREC
 40
2.0
  9
$PSOLWIDTH
 40
0.25
  9
$PSOLHEIGHT
 40
4.0
  9
$LOFTANG1
 40
1.570796326794896
  9
$LOFTANG2
 40
1.570796326794896
  9
$LOFTMAG1
 40
0.0
  9
$LOFTMAG2
 40
0.0
  9
$LOFTPARAM
 70
     7
  9
$LOFTNORMALS
280
     1
  9
$LATITUDE
 40
37.795
  9
$LONGITUDE
 40
-122.394
  9
$NORTHDIRECTION
 40
0.0
  9
$TIMEZONE
 70
 -8000
  9
$LIGHTGLYPHDISPLAY
280
     1
  9
$TILEMODELIGHTSYNCH
280
     1
  9
$CMATERIAL
347
2022652
  9
$SOLIDHIST
280
     0
  9
$SHOWHIST
280
     1
  9
$DWFFRAME
280
     2
  9
$DGNFRAME
280
     0
  9
$REALWORLDSCALE
290
     1
  9
$INTERFERECOLOR
 62
     1
  9
$INTERFEREOBJVS
345
2022674
  9
$INTERFEREVPVS
346
2022671
  9
$CSHADOW
280
     0
  9
$SHADOWPLANELOCATION
 40
0.0
  0
ENDSEC
  0
SECTION
  2
CLASSES
  0
CLASS
  1
ACDBDICTIONARYWDFLT
  2
AcDbDictionaryWithDefault
  3
ObjectDBX Classes
 90
        0
 91
        1
280
     0
281
     0
  0
CLASS
  1
DICTIONARYVAR
  2
AcDbDictionaryVar
  3
ObjectDBX Classes
 90
        0
 91
       23
280
     0
281
     0
  0
CLASS
  1
TABLESTYLE
  2
AcDbTableStyle
  3
ObjectDBX Classes
 90
     4095
 91
        1
280
     0
281
     0
  0
CLASS
  1
SORTENTSTABLE
  2
AcDbSortentsTable
  3
ObjectDBX Classes
 90
        0
 91
        3
280
     0
281
     0
  0
CLASS
  1
MATERIAL
  2
AcDbMaterial
  3
ObjectDBX Classes
 90
     1153
 91
        3
280
     0
281
     0
  0
CLASS
  1
VISUALSTYLE
  2
AcDbVisualStyle
  3
ObjectDBX Classes
 90
     4095
 91
       24
280
     0
281
     0
  0
CLASS
  1
SCALE
  2
AcDbScale
  3
ObjectDBX Classes
 90
     1153
 91
       17
280
     0
281
     0
  0
CLASS
  1
MLEADERSTYLE
  2
AcDbMLeaderStyle
  3
ACDB_MLEADERSTYLE_CLASS
 90
     4095
 91
        1
280
     0
281
     0
  0
CLASS
  1
ACDBSECTIONVIEWSTYLE
  2
AcDbSectionViewStyle
  3
ObjectDBX Classes
 90
     1025
 91
        1
280
     0
281
     0
  0
CLASS
  1
ACDBDETAILVIEWSTYLE
  2
AcDbDetailViewStyle
  3
ObjectDBX Classes
 90
     1025
 91
        1
280
     0
281
     0
  0
CLASS
  1
CELLSTYLEMAP
  2
AcDbCellStyleMap
  3
ObjectDBX Classes
 90
     1152
 91
        1
280
     0
281
     0
  0
ENDSEC
  0
SECTION
  2
TABLES
  0
TABLE
  2
VPORT
  5
8
330
0
100
AcDbSymbolTable
 70
     1
1001
ACAD
1000
DbSaveVer
1071
        5
  0
VPORT
  5
22648
330
8
100
AcDbSymbolTableRecord
100
AcDbViewportTableRecord
  2
*Active
 70
     0
 10
0.0
 20
0.0
 11
1.0
 21
1.0
 12
636.0754063610512
 22
526.3361676085287
 13
0.0
 23
0.0
 14
10.0
 24
10.0
 15
10.0
 25
10.0
 16
0.0
 26
0.0
 36
1.0
 17
0.0
 27
0.0
 37
0.0
 40
419.2335248218454
 41
2.292712066905615
 42
50.0
 43
0.0
 44
0.0
 50
0.0
 51
0.0
 71
     0
 72
   100
 73
     1
 74
     3
 75
     0
 76
     0
 77
     0
 78
     0
281
     0
 65
     1
110
0.0
120
0.0
130
0.0
111
1.0
121
0.0
131
0.0
112
0.0
122
1.0
132
0.0
 79
     0
146
0.0
348
2022670
 60
     3
 61
     5
292
     1
282
     1
141
0.0
142
0.0
 63
   250
421
  3355443
1001
ACAD_NAV_VCDISPLAY
1070
     3
  0
ENDTAB
  0
TABLE
  2
LTYPE
  5
5
330
0
100
AcDbSymbolTable
 70
     2
  0
LTYPE
  5
14
330
5
100
AcDbSymbolTableRecord
100
AcDbLinetypeTableRecord
  2
ByBlock
 70
     0
  3

 72
    65
 73
     0
 40
0.0
  0
LTYPE
  5
15
330
5
100
AcDbSymbolTableRecord
100
AcDbLinetypeTableRecord
  2
ByLayer
 70
     0
  3

 72
    65
 73
     0
 40
0.0
  0
LTYPE
  5
16
330
5
100
AcDbSymbolTableRecord
100
AcDbLinetypeTableRecord
  2
Continuous
 70
     0
  3
Solid line
 72
    65
 73
     0
 40
0.0
  0
LTYPE
  5
20600
330
5
100
AcDbSymbolTableRecord
100
AcDbLinetypeTableRecord
  2
CENTER2
 70
     0
  3
Center (.5x) ___ _ ___ _ ___ _ ___ _ ___ _ ___
 72
    65
 73
     4
 40
28.575
 49
19.05
 74
     0
 49
-3.174999999999999
 74
     0
 49
3.174999999999999
 74
     0
 49
-3.174999999999999
 74
     0
  0
ENDTAB
  0
TABLE
  2
LAYER
  5
2
102
{ACAD_XDICTIONARY
360
20601
102
}
330
0
100
AcDbSymbolTable
 70
     6
  0
LAYER
  5
10
102
{ACAD_XDICTIONARY
360
20226A1
102
}
330
2
100
AcDbSymbolTableRecord
100
AcDbLayerTableRecord
  2
0
 70
     0
 62
     7
  6
Continuous
370
    50
390
F
347
2022662
348
0
  0
LAYER
  5
20A
330
2
100
AcDbSymbolTableRecord
100
AcDbLayerTableRecord
  2
Defpoints
 70
     0
 62
     7
  6
Continuous
290
     0
370
    -3
390
F
347
2022662
348
0
  0
LAYER
  5
40A
102
{ACAD_XDICTIONARY
360
20226A3
102
}
330
2
100
AcDbSymbolTableRecord
100
AcDbLayerTableRecord
  2
中心线
 70
     0
 62
     1
  6
CENTER2
370
    -3
390
F
347
2022662
348
0
1001
AcAecLayerStandard
1000

1000

1001
AcadStringInfo
1000
MIFCodePage
1070
     5
  0
LAYER
  5
40F
102
{ACAD_XDICTIONARY
360
20226A5
102
}
330
2
100
AcDbSymbolTableRecord
100
AcDbLayerTableRecord
  2
尺寸线
 70
     0
 62
     5
  6
Continuous
370
    -3
390
F
347
2022662
348
0
1001
AcAecLayerStandard
1000

1000

1001
AcadStringInfo
1000
MIFCodePage
1070
     5
  0
LAYER
  5
410
102
{ACAD_XDICTIONARY
360
20226A7
102
}
330
2
100
AcDbSymbolTableRecord
100
AcDbLayerTableRecord
  2
细实线
 70
     0
 62
     7
  6
Continuous
370
    -3
390
F
347
2022662
348
0
1001
AcAecLayerStandard
1000

1000

1001
AcadStringInfo
1000
MIFCodePage
1070
     5
  0
LAYER
  5
CAF2
102
{ACAD_XDICTIONARY
360
20226A9
102
}
330
2
100
AcDbSymbolTableRecord
100
AcDbLayerTableRecord
  2
图层7
 70
     0
 62
     7
  6
Continuous
370
    15
390
F
347
2022662
348
0
1001
AcadStringInfo
1000
MIFCodePage
1070
     5
  0
ENDTAB
  0
TABLE
  2
STYLE
  5
3
330
0
100
AcDbSymbolTable
 70
     3
  0
STYLE
  5
11
330
3
100
AcDbSymbolTableRecord
100
AcDbTextStyleTableRecord
  2
Standard
 70
     0
 40
0.0
 41
1.0
 50
0.0
 71
     0
 42
2.5
  3
txt
  4

  0
STYLE
  5
281F
330
3
100
AcDbSymbolTableRecord
100
AcDbTextStyleTableRecord
  2
样式 1
 70
     0
 40
2.5
 41
1.0
 50
0.0
 71
     0
 42
2.5
  3
SimSun.ttf
  4

1001
ACAD
1000
SimSun
1071
    34306
1001
AcadStringInfo
1000
MIFCodePage
1070
     5
  0
STYLE
  5
21D02
330
3
100
AcDbSymbolTableRecord
100
AcDbTextStyleTableRecord
  2
样式 2
 70
     0
 40
3.2
 41
1.0
 50
0.0
 71
     0
 42
3.2
  3
SimSun.ttf
  4

1001
ACAD
1000
SimSun
1071
    34306
1001
AcadStringInfo
1000
MIFCodePage
1070
     5
  0
ENDTAB
  0
TABLE
  2
VIEW
  5
6
330
0
100
AcDbSymbolTable
 70
     0
  0
ENDTAB
  0
TABLE
  2
UCS
  5
7
330
0
100
AcDbSymbolTable
 70
     0
  0
ENDTAB
  0
TABLE
  2
APPID
  5
9
330
0
100
AcDbSymbolTable
 70
    15
  0
APPID
  5
12
330
9
100
AcDbSymbolTableRecord
100
AcDbRegAppTableRecord
  2
ACAD
 70
     0
  0
APPID
  5
205F4
330
9
100
AcDbSymbolTableRecord
100
AcDbRegAppTableRecord
  2
ACAD_DSTYLE_DIMTEXT_FILL
 70
     0
  0
APPID
  5
205F5
330
9
100
AcDbSymbolTableRecord
100
AcDbRegAppTableRecord
  2
ACAD_DSTYLE_DIMEXT_LENGTH
 70
     0
  0
APPID
  5
205F6
330
9
100
AcDbSymbolTableRecord
100
AcDbRegAppTableRecord
  2
ACAD_DSTYLE_DIMEXT_ENABLED
 70
     0
  0
APPID
  5
205F7
330
9
100
AcDbSymbolTableRecord
100
AcDbRegAppTableRecord
  2
ACAD_DSTYLE_DIM_LINETYPE
 70
     0
  0
APPID
  5
205F8
330
9
100
AcDbSymbolTableRecord
100
AcDbRegAppTableRecord
  2
ACAD_DSTYLE_DIM_EXT1_LINETYPE
 70
     0
  0
APPID
  5
205F9
330
9
100
AcDbSymbolTableRecord
100
AcDbRegAppTableRecord
  2
ACAD_DSTYLE_DIM_EXT2_LINETYPE
 70
     0
  0
APPID
  5
205FA
330
9
100
AcDbSymbolTableRecord
100
AcDbRegAppTableRecord
  2
ACAD_DSTYLE_DIMJOGGED_JOGANGLE_SYMBOL
 70
     0
  0
APPID
  5
205FB
330
9
100
AcDbSymbolTableRecord
100
AcDbRegAppTableRecord
  2
ACAD_DSTYLE_DIMARC_LENGTH_SYMBOL
 70
     0
  0
APPID
  5
205FC
330
9
100
AcDbSymbolTableRecord
100
AcDbRegAppTableRecord
  2
ACAD_EXEMPT_FROM_CAD_STANDARDS
 70
     0
  0
APPID
  5
205FD
330
9
100
AcDbSymbolTableRecord
100
AcDbRegAppTableRecord
  2
AcAecLayerStandard
 70
     0
  0
APPID
  5
205FE
330
9
100
AcDbSymbolTableRecord
100
AcDbRegAppTableRecord
  2
ACAD_PSEXT
 70
     0
  0
APPID
  5
205FF
330
9
100
AcDbSymbolTableRecord
100
AcDbRegAppTableRecord
  2
DCO15
 70
     0
  0
APPID
  5
2022698
330
9
100
AcDbSymbolTableRecord
100
AcDbRegAppTableRecord
  2
AcadStringInfo
 70
     0
  0
APPID
  5
20226AB
330
9
100
AcDbSymbolTableRecord
100
AcDbRegAppTableRecord
  2
ACAD_NAV_VCDISPLAY
 70
     0
  0
ENDTAB
  0
TABLE
  2
DIMSTYLE
  5
A
330
0
100
AcDbSymbolTable
 70
     2
100
AcDbDimStyleTable
 71
     1
340
20602
  0
DIMSTYLE
105
27
330
A
100
AcDbSymbolTableRecord
100
AcDbDimStyleTableRecord
  2
Standard
 70
     0
 41
0.1875
 47
0.01
 48
0.01
 78
     4
140
0.15625
271
     2
272
     2
284
     4
340
11
  0
DIMSTYLE
105
20602
102
{ACAD_REACTORS
330
2228C
330
2228F
330
22290
330
22291
330
22292
330
22293
330
22294
330
22295
330
22296
330
22297
330
22298
330
2229C
102
}
330
A
100
AcDbSymbolTableRecord
100
AcDbDimStyleTableRecord
  2
ISO-25
 70
     0
 41
2.5
 42
0.625
 43
3.75
 44
1.25
 73
     0
 74
     0
 77
     1
 78
     8
140
2.5
141
2.5
143
0.03937007874016
147
0.625
171
     3
172
     1
271
     2
272
     2
274
     3
278
    44
283
     0
284
     8
340
11
  0
ENDTAB
  0
TABLE
  2
BLOCK_RECORD
  5
1
330
0
100
AcDbSymbolTable
 70
    46
  0
BLOCK_RECORD
  5
1F
102
{ACAD_XDICTIONARY
360
206C5
102
}
330
1
100
AcDbSymbolTableRecord
100
AcDbBlockTableRecord
  2
*Model_Space
340
22
 70
     0
280
     1
281
     0
  0
BLOCK_RECORD
  5
73
330
1
100
AcDbSymbolTableRecord
100
AcDbBlockTableRecord
  2
*Paper_Space
340
74
 70
     0
280
     1
281
     0
  0
BLOCK_RECORD
  5
23
330
1
100
AcDbSymbolTableRecord
100
AcDbBlockTableRecord
  2
*Paper_Space0
340
26
 70
     0
280
     1
281
     0
  0
BLOCK_RECORD
  5
111D
330
1
100
AcDbSymbolTableRecord
100
AcDbBlockTableRecord
  2
_Open30
340
0
102
{BLKREFS
331
225EA
331
225EB
331
225F3
331
225F4
331
225FC
331
225FD
331
22604
331
2260A
331
2260B
331
22613
331
22614
331
2261C
331
2261D
331
22625
331
22626
331
22630
331
22631
331
22639
331
2263A
331
22642
331
22643
331
225E1
331
225E2
102
}
 70
     0
280
     1
281
     0
  0
BLOCK_RECORD
  5
21C65
102
{ACAD_XDICTIONARY
360
21CFD
102
}
330
1
100
AcDbSymbolTableRecord
100
AcDbBlockTableRecord
  2
A$C7ADC14DD
340
0
 70
     4
280
     1
281
     0
  0
BLOCK_RECORD
  5
2233C
330
1
100
AcDbSymbolTableRecord
100
AcDbBlockTableRecord
  2
*D27
340
0
 70
     0
280
     1
281
     0
  0
BLOCK_RECORD
  5
22348
330
1
100
AcDbSymbolTableRecord
100
AcDbBlockTableRecord
  2
*D28
340
0
 70
     0
280
     1
281
     0
  0
BLOCK_RECORD
  5
22354
330
1
100
AcDbSymbolTableRecord
100
AcDbBlockTableRecord
  2
*D29
340
0
 70
     0
280
     1
281
     0
  0
BLOCK_RECORD
  5
22360
330
1
100
AcDbSymbolTableRecord
100
AcDbBlockTableRecord
  2
*D30
340
0
 70
     0
280
     1
281
     0
  0
BLOCK_RECORD
  5
2236C
330
1
100
AcDbSymbolTableRecord
100
AcDbBlockTableRecord
  2
*D31
340
0
 70
     0
280
     1
281
     0
  0
BLOCK_RECORD
  5
22374
330
1
100
AcDbSymbolTableRecord
100
AcDbBlockTableRecord
  2
*D32
340
0
 70
     0
280
     1
281
     0
  0
BLOCK_RECORD
  5
22380
330
1
100
AcDbSymbolTableRecord
100
AcDbBlockTableRecord
  2
*D33
340
0
 70
     0
280
     1
281
     0
  0
BLOCK_RECORD
  5
2238C
330
1
100
AcDbSymbolTableRecord
100
AcDbBlockTableRecord
  2
*D34
340
0
 70
     0
280
     1
281
     0
  0
BLOCK_RECORD
  5
22398
330
1
100
AcDbSymbolTableRecord
100
AcDbBlockTableRecord
  2
*D35
340
0
 70
     0
280
     1
281
     0
  0
BLOCK_RECORD
  5
223A4
330
1
100
AcDbSymbolTableRecord
100
AcDbBlockTableRecord
  2
*D36
340
0
 70
     0
280
     1
281
     0
  0
BLOCK_RECORD
  5
223B2
330
1
100
AcDbSymbolTableRecord
100
AcDbBlockTableRecord
  2
*D37
340
0
 70
     0
280
     1
281
     0
  0
BLOCK_RECORD
  5
223BE
330
1
100
AcDbSymbolTableRecord
100
AcDbBlockTableRecord
  2
*D38
340
0
 70
     0
280
     1
281
     0
  0
BLOCK_RECORD
  5
225D1
102
{ACAD_XDICTIONARY
360
225D6
102
}
330
1
100
AcDbSymbolTableRecord
100
AcDbBlockTableRecord
  2
A$C4E227BF4
340
0
 70
     4
280
     1
281
     0
  0
ENDTAB
  0
ENDSEC
  0
SECTION
  2
BLOCKS
  0
BLOCK
  5
20
330
1F
100
AcDbEntity
  8
0
100
AcDbBlockBegin
  2
*Model_Space
 70
     0
 10
0.0
 20
0.0
 30
0.0
  3
*Model_Space
  1

  0
ENDBLK
  5
21
330
1F
100
AcDbEntity
  8
0
100
AcDbBlockEnd
  0
BLOCK
  5
75
330
73
100
AcDbEntity
 67
     1
  8
0
100
AcDbBlockBegin
  2
*Paper_Space
 70
     0
 10
0.0
 20
0.0
 30
0.0
  3
*Paper_Space
  1

  0
ENDBLK
  5
76
330
73
100
AcDbEntity
 67
     1
  8
0
100
AcDbBlockEnd
  0
BLOCK
  5
20603
330
23
100
AcDbEntity
 67
     1
  8
0
100
AcDbBlockBegin
  2
*Paper_Space0
 70
     0
 10
0.0
 20
0.0
 30
0.0
  3
*Paper_Space0
  1

  0
ENDBLK
  5
20604
330
23
100
AcDbEntity
 67
     1
  8
0
100
AcDbBlockEnd
  0
BLOCK
  5
20605
330
111D
100
AcDbEntity
  8
0
100
AcDbBlockBegin
  2
_Open30
 70
     0
 10
0.0
 20
0.0
 30
0.0
  3
_Open30
  1

  0
LINE
  5
111E
330
111D
100
AcDbEntity
  8
0
  6
ByBlock
 62
     0
370
    -2
100
AcDbLine
 10
-1.0
 20
0.26794919
 30
0.0
 11
0.0
 21
0.0
 31
0.0
  0
LINE
  5
111F
330
111D
100
AcDbEntity
  8
0
  6
ByBlock
 62
     0
370
    -2
100
AcDbLine
 10
0.0
 20
0.0
 30
0.0
 11
-1.0
 21
-0.26794919
 31
0.0
  0
LINE
  5
1120
330
111D
100
AcDbEntity
  8
0
  6
ByBlock
 62
     0
370
    -2
100
AcDbLine
 10
0.0
 20
0.0
 30
0.0
 11
-1.0
 21
0.0
 31
0.0
  0
ENDBLK
  5
20606
330
111D
100
AcDbEntity
  8
0
100
AcDbBlockEnd
  0
BLOCK
  5
21CFF
330
21C65
100
AcDbEntity
  8
0
 48
0.5
100
AcDbBlockBegin
  2
A$C7ADC14DD
 70
     0
 10
0.0
 20
0.0
 30
0.0
  3
A$C7ADC14DD
  1

  0
MTEXT
  5
21C66
330
21C65
100
AcDbEntity
  8
0
370
    13
100
AcDbMText
 10
196.7185379365422
 20
70.27969676996019
 30
0.0
 40
6.75
 41
93.63893346390955
 46
0.0
 71
     5
 72
     5
  1
{\fSimSun|b0|i0|c134|p54;装配图}
 73
     1
 44
1.0
1001
ACAD
1000
ACAD_MTEXT_DEFINED_HEIGHT_BEGIN
1070
    46
1040
0.0
1000
ACAD_MTEXT_DEFINED_HEIGHT_END
  0
MTEXT
  5
21C67
330
21C65
100
AcDbEntity
  8
0
370
    13
100
AcDbMText
 10
270.0274947172607
 20
49.73022937294001
 30
0.0
 40
3.75
 41
196.7617962154226
 46
0.0
 71
     5
 72
     5
  1
{\fSimSun|b0|i0|c134|p2;7159}
 73
     1
 44
1.0
1001
ACAD
1000
ACAD_MTEXT_DEFINED_HEIGHT_BEGIN
1070
    46
1040
0.0
1000
ACAD_MTEXT_DEFINED_HEIGHT_END
  0
MTEXT
  5
21C68
330
21C65
100
AcDbEntity
  8
0
370
    13
100
AcDbMText
 10
270.0274947172607
 20
21.1823347531082
 30
0.0
 40
3.75
 41
196.7617962154226
 46
0.0
 71
     5
 72
     5
  1
{\fSimSun|b0|i0|c134|p2;7159皂碟架}
 73
     1
 44
1.0
1001
ACAD
1000
ACAD_MTEXT_DEFINED_HEIGHT_BEGIN
1070
    46
1040
0.0
1000
ACAD_MTEXT_DEFINED_HEIGHT_END
  0
LINE
  5
21C69
330
21C65
100
AcDbEntity
  8
0
370
    13
100
AcDbLine
 10
157.4629985852405
 20
8.21925041397742
 30
0.0
 11
157.4629985852405
 21
49.42430680773793
 31
0.0
  0
TEXT
  5
21C6A
330
21C65
100
AcDbEntity
  8
0
370
    13
100
AcDbText
 10
165.2299945505999
 20
12.12072391230515
 30
0.0
 40
3.509624999999999
  1
共    张        第    张
  7
样式 1
 72
     1
 11
195.1787945505999
 21
12.12072391230515
 31
0.0
100
AcDbText
  0
TEXT
  5
21C6B
330
21C65
100
AcDbEntity
  8
0
370
    13
100
AcDbText
 10
161.9205067169593
 20
40.57064841249018
 30
0.0
 40
3.509624999999999
  1
阶段标记
  7
样式 1
 72
     1
 11
171.9034400502926
 21
40.57064841249018
 31
0.0
100
AcDbText
  0
LINE
  5
21C6C
330
21C65
100
AcDbEntity
  8
0
370
    13
100
AcDbLine
 10
167.2129985852405
 20
20.96925041397742
 30
0.0
 11
167.2129985852405
 21
34.46925041397742
 31
0.0
  0
LINE
  5
21C6D
330
21C65
100
AcDbEntity
  8
0
370
    13
100
AcDbLine
 10
157.4629985852405
 20
34.46925041397742
 30
0.0
 11
306.0892494207276
 21
34.46925041397742
 31
0.0
  0
LINE
  5
21C6E
330
21C65
100
AcDbEntity
  8
0
370
    13
100
AcDbLine
 10
157.4629985852405
 20
20.96925041397742
 30
0.0
 11
232.4629985852405
 21
20.96925041397742
 31
0.0
  0
TEXT
  5
21C6F
330
21C65
100
AcDbEntity
  8
0
370
    13
100
AcDbText
 10
132.5145871170285
 20
52.45210469416623
 30
0.0
 40
3.509624999999999
  1
（年月日）
  7
样式 1
 72
     1
 11
144.9932537836951
 21
52.45210469416623
 31
0.0
100
AcDbText
  0
LINE
  5
21C70
330
21C65
100
AcDbEntity
  8
0
370
    13
100
AcDbLine
 10
157.4309994207279
 20
49.42430680773793
 30
0.0
 11
157.4309994207279
 21
91.49250041397738
 31
0.0
  0
TEXT
  5
21C71
330
21C65
100
AcDbEntity
  8
0
370
    13
100
AcDbText
 10
132.5145871170285
 20
42.49982804502917
 30
0.0
 40
3.509624999999999
  1
（年月日）
  7
样式 1
 72
     1
 11
144.9932537836951
 21
42.49982804502917
 31
0.0
100
AcDbText
  0
LINE
  5
21C72
330
21C65
100
AcDbEntity
  8
0
370
    13
100
AcDbLine
 10
133.4629985852405
 20
8.21925041397742
 30
0.0
 11
133.4629985852405
 21
49.42430680773793
 31
0.0
  0
LINE
  5
21C73
330
21C65
100
AcDbEntity
  8
0
370
    13
100
AcDbLine
 10
133.4309994207279
 20
49.42430680773793
 30
0.0
 11
133.4309994207279
 21
91.49250041397738
 31
0.0
  0
LINE
  5
21C74
330
21C65
100
AcDbEntity
  8
0
370
    13
100
AcDbLine
 10
306.0892494207276
 20
437.2665004139775
 30
0.0
 11
37.49999942072782
 21
437.2665004139775
 31
0.0
  0
LINE
  5
21C75
330
21C65
100
AcDbEntity
  8
0
370
    13
100
AcDbLine
 10
315.058499420728
 20
445.5165004139774
 30
0.0
 11
-0.0000005792721822
 21
445.5165004139774
 31
0.0
  0
TEXT
  5
21C76
330
21C65
100
AcDbEntity
  8
0
370
    13
100
AcDbText
 10
72.78121325220289
 20
42.49982804502917
 30
0.0
 40
3.509624999999999
  1
（年月日）
  7
样式 1
 72
     1
 11
85.25987991886955
 21
42.49982804502917
 31
0.0
100
AcDbText
  0
TEXT
  5
21C77
330
21C65
100
AcDbEntity
  8
0
370
    13
100
AcDbText
 10
53.99865007674293
 20
42.49982804502917
 30
0.0
 40
3.509624999999999
  1
（签名）
  7
样式 1
 72
     1
 11
63.98158341007627
 21
42.49982804502917
 31
0.0
100
AcDbText
  0
LINE
  5
21C78
330
21C65
100
AcDbEntity
  8
0
370
    13
100
AcDbLine
 10
73.46299858524059
 20
8.21925041397742
 30
0.0
 11
73.46299858524059
 21
49.42430680773793
 31
0.0
  0
LINE
  5
21C79
330
21C65
100
AcDbEntity
  8
0
370
    13
100
AcDbLine
 10
37.49999942072782
 20
8.21925041397742
 30
0.0
 11
306.0892494207276
 21
8.21925041397742
 31
0.0
  0
LINE
  5
21C7A
330
21C65
100
AcDbEntity
  8
0
370
    13
100
AcDbLine
 10
37.49999942072771
 20
437.2665004139775
 30
0.0
 11
37.49999942072782
 21
8.21925041397742
 31
0.0
  0
LINE
  5
21C7B
330
21C65
100
AcDbEntity
  8
0
370
    13
100
AcDbLine
 10
-0.0000005792721822
 20
445.5165004139774
 30
0.0
 11
-0.0000005792721822
 21
0.0000004139775456
 31
0.0
  0
LINE
  5
21C7C
330
21C65
100
AcDbEntity
  8
0
370
    13
100
AcDbLine
 10
-0.0000005792721822
 20
0.0000004139775456
 30
0.0
 11
315.058499420728
 21
0.0000004139775456
 31
0.0
  0
LINE
  5
21C7D
330
21C65
100
AcDbEntity
  8
0
370
    13
100
AcDbLine
 10
37.49999942072782
 20
80.01945041397755
 30
0.0
 11
-0.0000005792721822
 21
80.01945041397755
 31
0.0
  0
LINE
  5
21C7E
330
21C65
100
AcDbEntity
  8
0
370
    13
100
AcDbLine
 10
37.49999942072782
 20
98.26950041397743
 30
0.0
 11
-0.0000005792721822
 21
98.26950041397743
 31
0.0
  0
LINE
  5
21C7F
330
21C65
100
AcDbEntity
  8
0
370
    13
100
AcDbLine
 10
37.49999942072782
 20
91.25025041397737
 30
0.0
 11
-0.0000005792721822
 21
91.25025041397737
 31
0.0
  0
LINE
  5
21C80
330
21C65
100
AcDbEntity
  8
0
370
    13
100
AcDbLine
 10
37.49999942072782
 20
109.5003004139774
 30
0.0
 11
-0.0000005792721822
 21
109.5003004139774
 31
0.0
  0
LINE
  5
21C81
330
21C65
100
AcDbEntity
  8
0
370
    13
100
AcDbLine
 10
37.49999942072782
 20
116.5195504139773
 30
0.0
 11
-0.0000005792721822
 21
116.5195504139773
 31
0.0
  0
LINE
  5
21C82
330
21C65
100
AcDbEntity
  8
0
370
    13
100
AcDbLine
 10
37.49999942072782
 20
123.5388004139773
 30
0.0
 11
-0.0000005792721822
 21
123.5388004139773
 31
0.0
  0
TEXT
  5
21C83
330
21C65
100
AcDbEntity
  8
0
370
    13
100
AcDbText
 10
11.22648469049372
 20
111.3794623965103
 30
0.0
 40
3.509624999999999
  1
描　　　图
  7
样式 1
 72
     1
 11
23.70515135716039
 21
111.3794623965103
 31
0.0
100
AcDbText
  0
TEXT
  5
21C84
330
21C65
100
AcDbEntity
  8
0
370
    13
100
AcDbText
 10
10.87704220663838
 20
93.23160957030735
 30
0.0
 40
3.509624999999999
  1
描　　　校
  7
样式 1
 72
     1
 11
23.35570887330505
 21
93.23160957030735
 31
0.0
100
AcDbText
  0
TEXT
  5
21C85
330
21C65
100
AcDbEntity
  8
0
370
    13
100
AcDbText
 10
9.729044690493722
 20
118.3594051745009
 30
0.0
 40
2.807699999999999
  1
借(通)用件登记
  7
样式 1
 72
     1
 11
23.70515135716039
 21
118.3594051745009
 31
0.0
100
AcDbText
  0
LINE
  5
21C86
330
21C65
100
AcDbEntity
  8
0
370
    13
100
AcDbLine
 10
37.49999942072782
 20
8.21925041397742
 30
0.0
 11
-0.0000005792721822
 21
8.21925041397742
 31
0.0
  0
LINE
  5
21C87
330
21C65
100
AcDbEntity
  8
0
370
    13
100
AcDbLine
 10
37.49999942072782
 20
18.25005041397742
 30
0.0
 11
-0.0000005792721822
 21
18.25005041397742
 31
0.0
  0
LINE
  5
21C88
330
21C65
100
AcDbEntity
  8
0
370
    13
100
AcDbLine
 10
37.49999942072782
 20
25.26930041397748
 30
0.0
 11
-0.0000005792721822
 21
25.26930041397748
 31
0.0
  0
LINE
  5
21C89
330
21C65
100
AcDbEntity
  8
0
370
    13
100
AcDbLine
 10
37.49999942072782
 20
36.50010041397752
 30
0.0
 11
-0.0000005792721822
 21
36.50010041397752
 31
0.0
  0
LINE
  5
21C8A
330
21C65
100
AcDbEntity
  8
0
370
    13
100
AcDbLine
 10
37.49999942072782
 20
43.51935041397735
 30
0.0
 11
-0.0000005792721822
 21
43.51935041397735
 31
0.0
  0
LINE
  5
21C8B
330
21C65
100
AcDbEntity
  8
0
370
    13
100
AcDbLine
 10
37.49999942072782
 20
61.76940041397745
 30
0.0
 11
-0.0000005792721822
 21
61.76940041397745
 31
0.0
  0
LINE
  5
21C8C
330
21C65
100
AcDbEntity
  8
0
370
    13
100
AcDbLine
 10
37.49999942072782
 20
54.75015041397762
 30
0.0
 11
-0.0000005792721822
 21
54.75015041397762
 31
0.0
  0
LINE
  5
21C8D
330
21C65
100
AcDbEntity
  8
0
370
    13
100
AcDbLine
 10
37.49999942072782
 20
73.0002004139775
 30
0.0
 11
-0.0000005792721822
 21
73.0002004139775
 31
0.0
  0
TEXT
  5
21C8E
330
21C65
100
AcDbEntity
  8
0
370
    13
100
AcDbText
 10
10.52759972278315
 20
19.24420650304444
 30
0.0
 40
3.509624999999999
  1
日　　　期
  7
样式 1
 72
     1
 11
23.00626638944982
 21
19.24420650304444
 31
0.0
100
AcDbText
  0
TEXT
  5
21C8F
330
21C65
100
AcDbEntity
  8
0
370
    13
100
AcDbText
 10
10.52759972278315
 20
37.39206033138896
 30
0.0
 40
3.509624999999999
  1
签　　　字
  7
样式 1
 72
     1
 11
23.00626638944982
 21
37.39206033138896
 31
0.0
100
AcDbText
  0
TEXT
  5
21C90
330
21C65
100
AcDbEntity
  8
0
370
    13
100
AcDbText
 10
13.02333305611649
 20
55.88891109820486
 30
0.0
 40
3.509624999999999
  1
底图总号
  7
样式 1
 72
     1
 11
23.00626638944982
 21
55.88891109820486
 31
0.0
100
AcDbText
  0
TEXT
  5
21C91
330
21C65
100
AcDbEntity
  8
0
370
    13
100
AcDbText
 10
11.22648661748471
 20
74.38576186502075
 30
0.0
 40
3.509624999999999
  1
旧底图总号
  7
样式 1
 72
     1
 11
23.70515328415138
 21
74.38576186502075
 31
0.0
100
AcDbText
  0
TEXT
  5
21C92
330
21C65
100
AcDbEntity
  8
0
370
    13
100
AcDbText
 10
40.14518520405346
 20
51.87220243719469
 30
0.0
 40
3.509624999999999
  1
标记
  7
样式 1
 72
     1
 11
45.13665187072013
 21
51.87220243719469
 31
0.0
100
AcDbText
  0
TEXT
  5
21C93
330
21C65
100
AcDbEntity
  8
0
370
    13
100
AcDbText
 10
54.7909911325242
 20
51.79418082999735
 30
0.0
 40
3.509624999999999
  1
处数
  7
样式 1
 72
     1
 11
59.78245779919086
 21
51.79418082999735
 31
0.0
100
AcDbText
  0
TEXT
  5
21C94
330
21C65
100
AcDbEntity
  8
0
370
    13
100
AcDbText
 10
40.92609513795724
 20
21.32827079475635
 30
0.0
 40
3.509624999999999
  1
审核
  7
样式 1
 72
     1
 11
45.91756180462391
 21
21.32827079475635
 31
0.0
100
AcDbText
  0
TEXT
  5
21C95
330
21C65
100
AcDbEntity
  8
0
370
    13
100
AcDbText
 10
41.23180951266573
 20
42.49982804502917
 30
0.0
 40
3.509624999999999
  1
设计
  7
样式 1
 72
     1
 11
46.22327617933239
 21
42.49982804502917
 31
0.0
100
AcDbText
  0
TEXT
  5
21C96
330
21C65
100
AcDbEntity
  8
0
370
    13
100
AcDbText
 10
70.85548404840388
 20
52.10891553711974
 30
0.0
 40
3.08847
  1
分    区
  7
样式 1
 72
     1
 11
79.64046538173722
 21
52.10891553711974
 31
0.0
100
AcDbText
  0
LINE
  5
21C97
330
21C65
100
AcDbEntity
  8
0
370
    13
100
AcDbLine
 10
52.48079942072775
 20
49.42430680773793
 30
0.0
 11
52.48079942072775
 21
91.49250041397738
 31
0.0
  0
LINE
  5
21C98
330
21C65
100
AcDbEntity
  8
0
370
    13
100
AcDbLine
 10
67.46159942072779
 20
49.42430680773793
 30
0.0
 11
67.46159942072779
 21
91.49250041397738
 31
0.0
  0
LINE
  5
21C99
330
21C65
100
AcDbEntity
  8
0
370
    13
100
AcDbLine
 10
55.4629985852406
 20
8.21925041397742
 30
0.0
 11
55.4629985852406
 21
49.42430680773793
 31
0.0
  0
TEXT
  5
21C9A
330
21C65
100
AcDbEntity
  8
0
370
    13
100
AcDbText
 10
40.89814612002152
 20
10.84479966007268
 30
0.0
 40
3.509624999999999
  1
工艺
  7
样式 1
 72
     1
 11
45.88961278668818
 21
10.84479966007268
 31
0.0
100
AcDbText
  0
LINE
  5
21C9B
330
21C65
100
AcDbEntity
  8
0
370
    13
100
AcDbLine
 10
37.49999942072782
 20
91.49250041397738
 30
0.0
 11
306.0892494207276
 21
91.49250041397738
 31
0.0
  0
LINE
  5
21C9C
330
21C65
100
AcDbEntity
  8
0
370
    13
100
AcDbLine
 10
37.49999942072782
 20
17.93850041397752
 30
0.0
 11
157.4629985852405
 21
17.93850041397752
 31
0.0
  0
LINE
  5
21C9D
330
21C65
100
AcDbEntity
  8
0
370
    13
100
AcDbLine
 10
37.49999942072782
 20
28.39857793650879
 30
0.0
 11
157.4629985852405
 21
28.39857793650879
 31
0.0
  0
LINE
  5
21C9E
330
21C65
100
AcDbEntity
  8
0
370
    13
100
AcDbLine
 10
37.49999942072782
 20
38.86782793650889
 30
0.0
 11
157.4629985852405
 21
38.86782793650889
 31
0.0
  0
LINE
  5
21C9F
330
21C65
100
AcDbEntity
  8
0
370
    13
100
AcDbLine
 10
37.49999942072782
 20
49.42430680773793
 30
0.0
 11
232.4629985852405
 21
49.42430680773793
 31
0.0
  0
LINE
  5
21CA0
330
21C65
100
AcDbEntity
  8
0
370
    13
100
AcDbLine
 10
37.49999942072782
 20
59.96550041397757
 30
0.0
 11
157.4309994207279
 21
59.96550041397757
 31
0.0
  0
LINE
  5
21CA1
330
21C65
100
AcDbEntity
  8
0
370
    13
100
AcDbLine
 10
37.49999942072782
 20
70.43475041397744
 30
0.0
 11
157.4309994207279
 21
70.43475041397744
 31
0.0
  0
LINE
  5
21CA2
330
21C65
100
AcDbEntity
  8
0
370
    13
100
AcDbLine
 10
37.49999942072782
 20
80.90400041397732
 30
0.0
 11
157.4309994207279
 21
80.90400041397732
 31
0.0
  0
TEXT
  5
21CA3
330
21C65
100
AcDbEntity
  8
0
370
    13
100
AcDbText
 10
119.1433407193949
 20
42.49982804502917
 30
0.0
 40
3.509624999999999
  1
签名
  7
样式 1
 72
     1
 11
124.1348073860616
 21
42.49982804502917
 31
0.0
100
AcDbText
  0
TEXT
  5
21CA4
330
21C65
100
AcDbEntity
  8
0
370
    13
100
AcDbText
 10
98.75181855521541
 20
42.49982804502917
 30
0.0
 40
3.509624999999999
  1
标准化
  7
样式 1
 72
     1
 11
106.2390185552154
 21
42.49982804502917
 31
0.0
100
AcDbText
  0
LINE
  5
21CA5
330
21C65
100
AcDbEntity
  8
0
370
    13
100
AcDbLine
 10
115.4629985852405
 20
8.21925041397742
 30
0.0
 11
115.4629985852405
 21
49.42430680773793
 31
0.0
  0
LINE
  5
21CA6
330
21C65
100
AcDbEntity
  8
0
370
    13
100
AcDbLine
 10
97.46299858524054
 20
8.21925041397742
 30
0.0
 11
97.46299858524054
 21
49.42430680773793
 31
0.0
  0
TEXT
  5
21CA7
330
21C65
100
AcDbEntity
  8
0
370
    13
100
AcDbText
 10
119.1935522372171
 20
51.98989714980564
 30
0.0
 40
3.509624999999999
  1
签字
  7
样式 1
 72
     1
 11
124.1850189038837
 21
51.98989714980564
 31
0.0
100
AcDbText
  0
LINE
  5
21CA8
330
21C65
100
AcDbEntity
  8
0
370
    13
100
AcDbLine
 10
115.3847994207279
 20
49.42430680773793
 30
0.0
 11
115.3847994207279
 21
91.49250041397738
 31
0.0
  0
LINE
  5
21CA9
330
21C65
100
AcDbEntity
  8
0
370
    13
100
AcDbLine
 10
91.42319942072759
 20
49.42430680773793
 30
0.0
 11
91.42319942072782
 21
91.49250041397738
 31
0.0
  0
TEXT
  5
21CAA
330
21C65
100
AcDbEntity
  8
0
370
    13
100
AcDbText
 10
96.05801326628679
 20
51.98989714980564
 30
0.0
 40
3.509624999999999
  1
版本号
  7
样式 1
 72
     1
 11
103.5452132662868
 21
51.98989714980564
 31
0.0
100
AcDbText
  0
TEXT
  5
21CAB
330
21C65
100
AcDbEntity
  8
0
370
    13
100
AcDbText
 10
101.2290757921366
 20
10.84479966007268
 30
0.0
 40
3.509624999999999
  1
批准
  7
样式 1
 72
     1
 11
106.2205424588033
 21
10.84479966007268
 31
0.0
100
AcDbText
  0
TEXT
  5
21CAC
330
21C65
100
AcDbEntity
  8
0
370
    13
100
AcDbText
 10
218.6752086894651
 20
40.57064841249018
 30
0.0
 40
3.509624999999999
  1
比例
  7
样式 1
 72
     1
 11
223.6666753561317
 21
40.57064841249018
 31
0.0
100
AcDbText
  0
TEXT
  5
21CAD
330
21C65
100
AcDbEntity
  8
0
370
    13
100
AcDbText
 10
203.7255383537283
 20
40.57064841249018
 30
0.0
 40
3.509624999999999
  1
重量
  7
样式 1
 72
     1
 11
208.717005020395
 21
40.57064841249018
 31
0.0
100
AcDbText
  0
TEXT
  5
21CAE
330
21C65
100
AcDbEntity
  8
0
370
    13
100
AcDbText
 10
189.710221280417
 20
40.57064841249018
 30
0.0
 40
3.509624999999999
  1
材料
  7
样式 1
 72
     1
 11
194.7016879470837
 21
40.57064841249018
 31
0.0
100
AcDbText
  0
LINE
  5
21CAF
330
21C65
100
AcDbEntity
  8
0
370
    13
100
AcDbLine
 10
216.7129985852406
 20
20.96925041397742
 30
0.0
 11
216.7129985852406
 21
49.42430680773793
 31
0.0
  0
LINE
  5
21CB0
330
21C65
100
AcDbEntity
  8
0
370
    13
100
AcDbLine
 10
201.7129985852406
 20
20.96925041397742
 30
0.0
 11
201.7129985852406
 21
49.42430680773793
 31
0.0
  0
LINE
  5
21CB1
330
21C65
100
AcDbEntity
  8
0
370
    13
100
AcDbLine
 10
186.7129985852405
 20
20.96925041397742
 30
0.0
 11
186.7129985852405
 21
49.42430680773793
 31
0.0
  0
LINE
  5
21CB2
330
21C65
100
AcDbEntity
  8
0
370
    13
100
AcDbLine
 10
232.4629985852405
 20
8.21925041397742
 30
0.0
 11
232.4629985852407
 21
91.49250041397738
 31
0.0
  0
MTEXT
  5
21CB3
330
21C65
100
AcDbEntity
  8
0
370
    13
100
AcDbMText
 10
270.0274947172607
 20
79.16104909307785
 30
0.0
 40
3.75
 41
196.7617962154226
 46
0.0
 71
     5
 72
     5
  1
{\fSimSun|b0|i0|c134|p2;浙江金鑫五金制造有限公司}
 73
     1
 44
1.0
  0
LINE
  5
21CB4
330
21C65
100
AcDbEntity
  8
0
370
    13
100
AcDbLine
 10
306.0892494207276
 20
8.21925041397742
 30
0.0
 11
306.0892494207276
 21
437.2665004139775
 31
0.0
  0
LINE
  5
21CB5
330
21C65
100
AcDbEntity
  8
0
370
    13
100
AcDbLine
 10
315.058499420728
 20
0.0000004139775456
 30
0.0
 11
315.058499420728
 21
445.5165004139774
 31
0.0
  0
LINE
  5
21CB6
330
21C65
100
AcDbEntity
  8
0
370
    13
100
AcDbLine
 10
232.4629985852407
 20
64.46925041397742
 30
0.0
 11
306.0892494207276
 21
64.46925041397742
 31
0.0
  0
LINE
  5
21CB7
330
21C65
100
AcDbEntity
  8
0
370
    13
100
AcDbLine
 10
176.9629985852405
 20
20.96925041397742
 30
0.0
 11
176.9629985852405
 21
34.46925041397742
 31
0.0
  0
MTEXT
  5
21CB8
330
21C65
100
AcDbEntity
  8
0
370
    13
100
AcDbMText
 10
224.2355925332707
 20
27.78162394467597
 30
0.0
 40
3.75
 41
196.7617962154226
 46
0.0
 71
     5
 72
     5
  1
{\fSimSun|b0|i0|c134|p2;1：1}
 73
     1
 44
1.0
  0
TEXT
  5
21CB9
330
21C65
100
AcDbEntity
  8
0
370
    13
100
AcDbText
 10
56.49438341007627
 20
31.87042352949527
 30
0.0
 40
3.509624999999999
  1
张亦建
  7
样式 1
 72
     1
 11
63.98158341007627
 21
31.87042352949527
 31
0.0
100
AcDbText
  0
TEXT
  5
21CBA
330
21C65
100
AcDbEntity
  8
0
370
    13
100
AcDbText
 10
72.78121325220289
 20
32.03769729364592
 30
0.0
 40
3.509624999999999
  1
2008.07.10
  7
样式 1
 72
     1
 11
85.25987991886955
 21
32.03769729364592
 31
0.0
100
AcDbText
  0
TEXT
  5
21CBB
330
21C65
100
AcDbEntity
  8
0
370
    13
100
AcDbText
 10
98.55374659962013
 20
63.21881769673507
 30
0.0
 40
3.509624999999999
  1
A-01
  7
样式 1
 72
     1
 11
103.5452132662868
 21
63.21881769673507
 31
0.0
100
AcDbText
  0
MTEXT
  5
21CBC
330
21C65
100
AcDbEntity
  8
0
370
    13
100
AcDbMText
 10
209.3714840707963
 20
132.4895283718564
 30
0.0
 40
2.582588493552992
 41
11.50697232029353
 46
0.0
 71
     5
 72
     5
  1
{\fSimSun|b0|i0|c134|p54;1}
 73
     1
 44
1.0
  0
MTEXT
  5
21CBD
330
21C65
100
AcDbEntity
  8
0
370
    13
100
AcDbMText
 10
188.528368425518
 20
132.4895283718562
 30
0.0
 40
2.582588493552992
 41
28.85882626409554
 46
0.0
 71
     5
 72
     5
  1
{\fSimSun|b0|i0|c134|p54;7100单杯塑料圈}
 73
     1
 44
1.0
1001
ACAD
1000
ACAD_MTEXT_DEFINED_HEIGHT_BEGIN
1070
    46
1040
0.0
1000
ACAD_MTEXT_DEFINED_HEIGHT_END
  0
MTEXT
  5
21CBE
330
21C65
100
AcDbEntity
  8
0
370
    13
100
AcDbMText
 10
209.1327063262125
 20
121.5403449085867
 30
0.0
 40
2.582588493552992
 41
11.50697232029353
 46
0.0
 71
     5
 72
     5
  1
{\fSimSun|b0|i0|c134|p54;2}
 73
     1
 44
1.0
1001
ACAD
1000
ACAD_MTEXT_DEFINED_HEIGHT_BEGIN
1070
    46
1040
0.0
1000
ACAD_MTEXT_DEFINED_HEIGHT_END
  0
MTEXT
  5
21CBF
330
21C65
100
AcDbEntity
  8
0
370
    13
100
AcDbMText
 10
209.3714840707963
 20
110.4953562850252
 30
0.0
 40
2.582588493552992
 41
11.50697232029353
 46
0.0
 71
     5
 72
     5
  1
{\fSimSun|b0|i0|c134|p54;1}
 73
     1
 44
1.0
  0
MTEXT
  5
21CC0
330
21C65
100
AcDbEntity
  8
0
370
    13
100
AcDbMText
 10
189.1180196914895
 20
110.495356285025
 30
0.0
 40
2.582588493552992
 41
19.18130453538239
 46
0.0
 71
     5
 72
     5
  1
{\fSimSun|b0|i0|c134|p54;7100左底座}
 73
     1
 44
1.0
1001
ACAD
1000
ACAD_MTEXT_DEFINED_HEIGHT_BEGIN
1070
    46
1040
0.0
1000
ACAD_MTEXT_DEFINED_HEIGHT_END
  0
MTEXT
  5
21CC1
330
21C65
100
AcDbEntity
  8
0
370
    13
100
AcDbMText
 10
232.5087805273352
 20
105.0659688932966
 30
0.0
 40
2.582588493552992
 41
34.76762059278466
 46
0.0
 71
     5
 72
     5
  1
{\fSimSun|b0|i0|c134|p2;不锈钢}
 73
     1
 44
1.0
1001
ACAD
1000
ACAD_MTEXT_DEFINED_HEIGHT_BEGIN
1070
    46
1040
0.0
1000
ACAD_MTEXT_DEFINED_HEIGHT_END
  0
MTEXT
  5
21CC2
330
21C65
100
AcDbEntity
  8
0
370
    13
100
AcDbMText
 10
209.3714840707963
 20
105.0659688932966
 30
0.0
 40
2.582588493552992
 41
11.50697232029353
 46
0.0
 71
     5
 72
     5
  1
{\fSimSun|b0|i0|c134|p54;1}
 73
     1
 44
1.0
1001
ACAD
1000
ACAD_MTEXT_DEFINED_HEIGHT_BEGIN
1070
    46
1040
0.0
1000
ACAD_MTEXT_DEFINED_HEIGHT_END
  0
MTEXT
  5
21CC3
330
21C65
100
AcDbEntity
  8
0
370
    13
100
AcDbMText
 10
179.0208865347668
 20
105.3380096107927
 30
0.0
 40
2.582588493552992
 41
53.1614048139884
 46
0.0
 71
     5
 72
     5
  1
{\fSimSun|b0|i0|c134|p2;内六角锥头紧定螺钉(GB78-85)}
 73
     1
 44
1.0
1001
ACAD
1000
ACAD_MTEXT_DEFINED_HEIGHT_BEGIN
1070
    46
1040
0.0
1000
ACAD_MTEXT_DEFINED_HEIGHT_END
  0
MTEXT
  5
21CC4
330
21C65
100
AcDbEntity
  8
0
370
    13
100
AcDbMText
 10
150.2335786235147
 20
132.212905851935
 30
0.0
 40
2.582588493552992
 41
10.68857697531401
 46
0.0
 71
     5
 72
     5
  1
{\fSimSun|b0|i0|c134|p2;6}
 73
     1
 44
1.0
  0
MTEXT
  5
21CC5
330
21C65
100
AcDbEntity
  8
0
370
    13
100
AcDbMText
 10
150.2335786235147
 20
126.7835184602069
 30
0.0
 40
2.582588493552992
 41
10.68857697531401
 46
0.0
 71
     5
 72
     5
  1
{\fSimSun|b0|i0|c134|p2;5}
 73
     1
 44
1.0
  0
MTEXT
  5
21CC6
330
21C65
100
AcDbEntity
  8
0
370
    13
100
AcDbMText
 10
150.2335786235147
 20
121.3541310684799
 30
0.0
 40
2.582588493552992
 41
10.68857697531401
 46
0.0
 71
     5
 72
     5
  1
{\fSimSun|b0|i0|c134|p2;4}
 73
     1
 44
1.0
  0
MTEXT
  5
21CC7
330
21C65
100
AcDbEntity
  8
0
370
    13
100
AcDbMText
 10
150.2335786235147
 20
115.9247436767522
 30
0.0
 40
2.582588493552992
 41
10.68857697531401
 46
0.0
 71
     5
 72
     5
  1
{\fSimSun|b0|i0|c134|p2;3}
 73
     1
 44
1.0
  0
MTEXT
  5
21CC8
330
21C65
100
AcDbEntity
  8
0
370
    13
100
AcDbMText
 10
150.2335786235147
 20
110.4953562850252
 30
0.0
 40
2.582588493552992
 41
10.68857697531401
 46
0.0
 71
     5
 72
     5
  1
{\fSimSun|b0|i0|c134|p2;2}
 73
     1
 44
1.0
  0
MTEXT
  5
21CC9
330
21C65
100
AcDbEntity
  8
0
370
    13
100
AcDbMText
 10
150.2335786235147
 20
105.0659688932968
 30
0.0
 40
2.582588493552992
 41
10.68857697531401
 46
0.0
 71
     5
 72
     5
  1
{\fSimSun|b0|i0|c134|p2;1}
 73
     1
 44
1.0
  0
MTEXT
  5
21CCA
330
21C65
100
AcDbEntity
  8
0
370
    13
100
AcDbMText
 10
284.0079983569797
 20
96.92188780570484
 30
0.0
 40
3.87388274032949
 41
33.76866361207043
 46
0.0
 71
     5
 72
     5
  1
{\fSimSun|b0|i0|c134|p54;备 注}
 73
     1
 44
1.0
  0
MTEXT
  5
21CCB
330
21C65
100
AcDbEntity
  8
0
370
    13
100
AcDbMText
 10
261.5309053085187
 20
94.20719410984077
 30
0.0
 40
3.87388274032949
 41
23.27662896958224
 46
0.0
 71
     5
 72
     5
  1
{\fSimSun|b0|i0|c134|p54;重  量}
 73
     1
 44
1.0
  0
MTEXT
  5
21CCC
330
21C65
100
AcDbEntity
  8
0
370
    13
100
AcDbMText
 10
267.7183646632876
 20
99.63658150156778
 30
0.0
 40
3.87388274032949
 41
10.90171026004494
 46
0.0
 71
     5
 72
     5
  1
{\fSimSun|b0|i0|c134|p54;总件}
 73
     1
 44
1.0
  0
MTEXT
  5
21CCD
330
21C65
100
AcDbEntity
  8
0
370
    13
100
AcDbMText
 10
256.0800501784964
 20
99.63658150156778
 30
0.0
 40
3.87388274032949
 41
12.3749187095373
 46
0.0
 71
     5
 72
     5
  1
{\fSimSun|b0|i0|c134|p54;单件}
 73
     1
 44
1.0
  0
MTEXT
  5
21CCE
330
21C65
100
AcDbEntity
  8
0
370
    13
100
AcDbMText
 10
232.5087805273352
 20
96.92188780570484
 30
0.0
 40
3.87388274032949
 41
34.76762059278466
 46
0.0
 71
     5
 72
     5
  1
{\fSimSun|b0|i0|c134|p54;材    料}
 73
     1
 44
1.0
  0
MTEXT
  5
21CCF
330
21C65
100
AcDbEntity
  8
0
370
    13
100
AcDbMText
 10
209.3714840707967
 20
96.92188780570484
 30
0.0
 40
3.87388274032949
 41
11.50697232029265
 46
0.0
 71
     5
 72
     5
  1
{\fSimSun|b0|i0|c134|p54;数量}
 73
     1
 44
1.0
  0
MTEXT
  5
21CD0
330
21C65
100
AcDbEntity
  8
0
370
    13
100
AcDbMText
 10
189.1885847786023
 20
96.92188780570484
 30
0.0
 40
3.87388274032949
 41
28.85882626409613
 46
0.0
 71
     5
 72
     5
  1
{\fSimSun|b0|i0|c134|p54;名   称}
 73
     1
 44
1.0
  0
MTEXT
  5
21CD1
330
21C65
100
AcDbEntity
  8
0
370
    13
100
AcDbMText
 10
165.1685193788642
 20
96.92188780570484
 30
0.0
 40
3.87388274032949
 41
19.18130453538239
 46
0.0
 71
     5
 72
     5
  1
{\fSimSun|b0|i0|c134|p54;代  号}
 73
     1
 44
1.0
  0
MTEXT
  5
21CD2
330
21C65
100
AcDbEntity
  8
0
370
    13
100
AcDbMText
 10
150.2335786235135
 20
96.92188780570484
 30
0.0
 40
3.87388274032949
 41
10.68857697531401
 46
0.0
 71
     5
 72
     5
  1
{\fSimSun|b0|i0|c134|p2;序号}
 73
     1
 44
1.0
  0
LINE
  5
21CD3
330
21C65
100
AcDbEntity
  8
0
370
    13
100
AcDbLine
 10
174.7591716465543
 20
91.49250041397715
 30
0.0
 11
174.7591716465543
 21
113.2100499808877
 31
0.0
  0
LINE
  5
21CD4
330
21C65
100
AcDbEntity
  8
0
370
    13
100
AcDbLine
 10
174.7591716465543
 20
113.3594363789087
 30
0.0
 11
174.7591716465544
 21
140.3569869395295
 31
0.0
  0
LINE
  5
21CD5
330
21C65
100
AcDbEntity
  8
0
370
    13
100
AcDbLine
 10
174.7591716465543
 20
124.0688247643426
 30
0.0
 11
174.7591716465544
 21
134.9275995478
 31
0.0
  0
LINE
  5
21CD6
330
21C65
100
AcDbEntity
  8
0
370
    13
100
AcDbLine
 10
155.5778671111719
 20
91.49250041397648
 30
0.0
 11
155.577867111172
 21
140.3569869395295
 31
0.0
  0
LINE
  5
21CD7
330
21C65
100
AcDbEntity
  8
0
370
    13
100
AcDbLine
 10
306.0892494207276
 20
134.9275995478
 30
0.0
 11
144.8892901358577
 21
134.9275995478
 31
0.0
  0
LINE
  5
21CD8
330
21C65
100
AcDbEntity
  8
0
370
    13
100
AcDbLine
 10
306.0892494207276
 20
140.3569869395295
 30
0.0
 11
144.8892901358577
 21
140.3569869395295
 31
0.0
  0
LINE
  5
21CD9
330
21C65
100
AcDbEntity
  8
0
370
    13
100
AcDbLine
 10
306.0892494207276
 20
129.4982121560705
 30
0.0
 11
144.8892901358577
 21
129.4982121560705
 31
0.0
  0
LINE
  5
21CDA
330
21C65
100
AcDbEntity
  8
0
370
    13
100
AcDbLine
 10
306.0892494207276
 20
124.0688247643426
 30
0.0
 11
144.8892901358577
 21
124.0688247643426
 31
0.0
  0
LINE
  5
21CDB
330
21C65
100
AcDbEntity
  8
0
370
    13
100
AcDbLine
 10
306.0892494207276
 20
118.6394373726156
 30
0.0
 11
144.8892901358577
 21
118.6394373726156
 31
0.0
  0
LINE
  5
21CDC
330
21C65
100
AcDbEntity
  8
0
370
    13
100
AcDbLine
 10
306.0892494207276
 20
113.2100499808877
 30
0.0
 11
144.8892901358577
 21
113.2100499808877
 31
0.0
  0
LINE
  5
21CDD
330
21C65
100
AcDbEntity
  8
0
370
    13
100
AcDbLine
 10
306.0892494207276
 20
107.7806625891607
 30
0.0
 11
144.8892901358577
 21
107.7806625891607
 31
0.0
  0
LINE
  5
21CDE
330
21C65
100
AcDbEntity
  8
0
370
    13
100
AcDbLine
 10
306.0892494207276
 20
102.3512751974321
 30
0.0
 11
144.8892901358577
 21
102.3512751974321
 31
0.0
  0
LINE
  5
21CDF
330
21C65
100
AcDbEntity
  8
0
370
    13
100
AcDbLine
 10
249.8925908237275
 20
96.92188780570461
 30
0.0
 11
273.1692197933096
 21
96.92188780570461
 31
0.0
  0
LINE
  5
21CE0
330
21C65
100
AcDbEntity
  8
0
370
    13
100
AcDbLine
 10
273.1692197933096
 20
91.49250041397715
 30
0.0
 11
273.1692197933097
 21
140.3569869395295
 31
0.0
  0
LINE
  5
21CE1
330
21C65
100
AcDbEntity
  8
0
370
    13
100
AcDbLine
 10
262.267509533265
 20
96.92188780570461
 30
0.0
 11
262.2675095332648
 21
140.3569869395295
 31
0.0
  0
LINE
  5
21CE2
330
21C65
100
AcDbEntity
  8
0
370
    13
100
AcDbLine
 10
249.8925908237275
 20
140.3569869395295
 30
0.0
 11
249.8925908237275
 21
91.49250041397715
 31
0.0
  0
LINE
  5
21CE3
330
21C65
100
AcDbEntity
  8
0
370
    13
100
AcDbLine
 10
215.1249702309429
 20
140.3569869395295
 30
0.0
 11
215.1249702309429
 21
91.49250041397715
 31
0.0
  0
LINE
  5
21CE4
330
21C65
100
AcDbEntity
  8
0
370
    13
100
AcDbLine
 10
203.6179979106503
 20
91.49250041397715
 30
0.0
 11
203.6179979106477
 21
140.3569869395295
 31
0.0
  0
MTEXT
  5
21CE5
330
21C65
100
AcDbEntity
  8
0
370
    13
100
AcDbMText
 10
208.5233873983819
 20
166.2831631053271
 30
0.0
 40
5.810824110494235
 41
40.10531801215686
 46
0.0
 71
     1
 72
     5
  1
{\fSimSun|b0|i0|c134|p2;技术要求}
 73
     1
 44
1.0
  0
MTEXT
  5
21CE6
330
21C65
100
AcDbEntity
  8
0
370
    13
100
AcDbMText
 10
169.9444164593945
 20
154.7611876790025
 30
0.0
 40
3.228235616941241
 41
144.7494509462173
 46
0.0
 71
     1
 72
     5
  1
{\fSimSun|b0|i0|c134|p2;1、装配牢固、到位，外形美观，外表无划伤、拧伤等缺陷}
 73
     1
 44
1.0
  0
MTEXT
  5
21CE7
330
21C65
100
AcDbEntity
  8
0
370
    13
100
AcDbMText
 10
232.5087805273352
 20
110.495356285025
 30
0.0
 40
2.582588493552992
 41
34.76762059278466
 46
0.0
 71
     5
 72
     5
  1
{\fSimSun|b0|i0|c134|p2;塑料}
 73
     1
 44
1.0
1001
ACAD
1000
ACAD_MTEXT_DEFINED_HEIGHT_BEGIN
1070
    46
1040
0.0
1000
ACAD_MTEXT_DEFINED_HEIGHT_END
  0
MTEXT
  5
21CE8
330
21C65
100
AcDbEntity
  8
0
370
    13
100
AcDbMText
 10
188.9849068253382
 20
115.9276771586086
 30
0.0
 40
2.582588493552992
 41
28.85882626409554
 46
0.0
 71
     5
 72
     5
  1
{\fSimSun|b0|i0|c134|p54;7100单杯架脚}
 73
     1
 44
1.0
1001
ACAD
1000
ACAD_MTEXT_DEFINED_HEIGHT_BEGIN
1070
    46
1040
0.0
1000
ACAD_MTEXT_DEFINED_HEIGHT_END
  0
MTEXT
  5
21CE9
330
21C65
100
AcDbEntity
  8
0
370
    13
100
AcDbMText
 10
188.6567013942561
 20
126.8630221988606
 30
0.0
 40
2.582588493552992
 41
28.85882626409554
 46
0.0
 71
     5
 72
     5
  1
{\fSimSun|b0|i0|c134|p54;7100单杯圈}
 73
     1
 44
1.0
1001
ACAD
1000
ACAD_MTEXT_DEFINED_HEIGHT_BEGIN
1070
    46
1040
0.0
1000
ACAD_MTEXT_DEFINED_HEIGHT_END
  0
MTEXT
  5
21CEA
330
21C65
100
AcDbEntity
  8
0
370
    13
100
AcDbMText
 10
209.3714840707963
 20
116.2505642178188
 30
0.0
 40
2.582588493552992
 41
11.50697232029353
 46
0.0
 71
     5
 72
     5
  1
{\fSimSun|b0|i0|c134|p54;1}
 73
     1
 44
1.0
  0
MTEXT
  5
21CEB
330
21C65
100
AcDbEntity
  8
0
370
    13
100
AcDbMText
 10
209.3714840707963
 20
127.2827643252197
 30
0.0
 40
2.582588493552992
 41
11.50697232029353
 46
0.0
 71
     5
 72
     5
  1
{\fSimSun|b0|i0|c134|p54;1}
 73
     1
 44
1.0
  0
LINE
  5
21CEC
330
21C65
100
AcDbEntity
  8
0
370
    13
100
AcDbLine
 10
144.8892901358576
 20
140.3569869395295
 30
0.0
 11
144.8892901358577
 21
91.49250041397648
 31
0.0
  0
MTEXT
  5
21CED
330
21C65
100
AcDbEntity
  8
0
370
    13
100
AcDbMText
 10
165.018906086596
 20
110.8459105981009
 30
0.0
 40
2.582588493552992
 41
19.18130453538239
 46
0.0
 71
     5
 72
     5
  1
{\fSimSun|b0|i0|c134|p2;7100-01-A}
 73
     1
 44
1.0
1001
ACAD
1000
ACAD_MTEXT_DEFINED_HEIGHT_BEGIN
1070
    46
1040
0.0
1000
ACAD_MTEXT_DEFINED_HEIGHT_END
  0
MTEXT
  5
21CEE
330
21C65
100
AcDbEntity
  8
0
370
    13
100
AcDbMText
 10
232.5087805273352
 20
116.0976211890453
 30
0.0
 40
2.582588493552992
 41
34.76762059278466
 46
0.0
 71
     5
 72
     5
  1
{\fSimSun|b0|i0|c134|p2;锌合金}
 73
     1
 44
1.0
1001
ACAD
1000
ACAD_MTEXT_DEFINED_HEIGHT_BEGIN
1070
    46
1040
0.0
1000
ACAD_MTEXT_DEFINED_HEIGHT_END
  0
MTEXT
  5
21CEF
330
21C65
100
AcDbEntity
  8
0
370
    13
100
AcDbMText
 10
232.5087805273352
 20
126.8430565648619
 30
0.0
 40
2.582588493552992
 41
34.76762059278466
 46
0.0
 71
     5
 72
     5
  1
{\fSimSun|b0|i0|c134|p2;锌合金}
 73
     1
 44
1.0
1001
ACAD
1000
ACAD_MTEXT_DEFINED_HEIGHT_BEGIN
1070
    46
1040
0.0
1000
ACAD_MTEXT_DEFINED_HEIGHT_END
  0
MTEXT
  5
21CF0
330
21C65
100
AcDbEntity
  8
0
370
    13
100
AcDbMText
 10
232.5087805273352
 20
132.441182182352
 30
0.0
 40
2.582588493552992
 41
34.76762059278466
 46
0.0
 71
     5
 72
     5
  1
{\fSimSun|b0|i0|c134|p2;塑料}
 73
     1
 44
1.0
1001
ACAD
1000
ACAD_MTEXT_DEFINED_HEIGHT_BEGIN
1070
    46
1040
0.0
1000
ACAD_MTEXT_DEFINED_HEIGHT_END
  0
MTEXT
  5
21CF1
330
21C65
100
AcDbEntity
  8
0
370
    13
100
AcDbMText
 10
165.018906086596
 20
116.151169672417
 30
0.0
 40
2.582588493552992
 41
19.18130453538239
 46
0.0
 71
     5
 72
     5
  1
{\fSimSun|b0|i0|c134|p2;7158-01}
 73
     1
 44
1.0
1001
ACAD
1000
ACAD_MTEXT_DEFINED_HEIGHT_BEGIN
1070
    46
1040
0.0
1000
ACAD_MTEXT_DEFINED_HEIGHT_END
  0
MTEXT
  5
21CF2
330
21C65
100
AcDbEntity
  8
0
370
    13
100
AcDbMText
 10
232.5087805273352
 20
121.5573163382183
 30
0.0
 40
2.582588493552992
 41
34.76762059278466
 46
0.0
 71
     5
 72
     5
  1
{\fSimSun|b0|i0|c134|p2;不锈钢}
 73
     1
 44
1.0
1001
ACAD
1000
ACAD_MTEXT_DEFINED_HEIGHT_BEGIN
1070
    46
1040
0.0
1000
ACAD_MTEXT_DEFINED_HEIGHT_END
  0
MTEXT
  5
21CF3
330
21C65
100
AcDbEntity
  8
0
370
    13
100
AcDbMText
 10
165.018906086596
 20
126.776447815722
 30
0.0
 40
2.582588493552992
 41
19.18130453538239
 46
0.0
 71
     5
 72
     5
  1
{\fSimSun|b0|i0|c134|p2;7158-02}
 73
     1
 44
1.0
1001
ACAD
1000
ACAD_MTEXT_DEFINED_HEIGHT_BEGIN
1070
    46
1040
0.0
1000
ACAD_MTEXT_DEFINED_HEIGHT_END
  0
MTEXT
  5
21CF4
330
21C65
100
AcDbEntity
  8
0
370
    13
100
AcDbMText
 10
165.018906086596
 20
132.0069134142828
 30
0.0
 40
2.582588493552992
 41
19.18130453538239
 46
0.0
 71
     5
 72
     5
  1
{\fSimSun|b0|i0|c134|p2;7158-03}
 73
     1
 44
1.0
1001
ACAD
1000
ACAD_MTEXT_DEFINED_HEIGHT_BEGIN
1070
    46
1040
0.0
1000
ACAD_MTEXT_DEFINED_HEIGHT_END
  0
MTEXT
  5
21CF5
330
21C65
100
AcDbEntity
  8
0
370
    13
100
AcDbMText
 10
179.0208865347668
 20
121.6261717859762
 30
0.0
 40
2.582588493552992
 41
53.1614048139884
 46
0.0
 71
     5
 72
     5
  1
{\fSimSun|b0|i0|c134|p2;内六角锥头紧定螺钉(GB78-85)}
 73
     1
 44
1.0
1001
ACAD
1000
ACAD_MTEXT_DEFINED_HEIGHT_BEGIN
1070
    46
1040
0.0
1000
ACAD_MTEXT_DEFINED_HEIGHT_END
  0
MTEXT
  5
21CF6
330
21C65
100
AcDbEntity
  8
0
370
    13
100
AcDbMText
 10
289.1688136068801
 20
105.0659688932966
 30
0.0
 40
2.582588493552992
 41
34.76762059278466
 46
0.0
 71
     5
 72
     5
  1
{\fSimSun|b0|i0|c134|p2;M5X8}
 73
     1
 44
1.0
1001
ACAD
1000
ACAD_MTEXT_DEFINED_HEIGHT_BEGIN
1070
    46
1040
0.0
1000
ACAD_MTEXT_DEFINED_HEIGHT_END
  0
MTEXT
  5
21CF7
330
21C65
100
AcDbEntity
  8
0
370
    13
100
AcDbMText
 10
289.1688136068801
 20
121.3541310684799
 30
0.0
 40
2.582588493552992
 41
34.76762059278466
 46
0.0
 71
     5
 72
     5
  1
{\fSimSun|b0|i0|c134|p2;M4X5}
 73
     1
 44
1.0
1001
ACAD
1000
ACAD_MTEXT_DEFINED_HEIGHT_BEGIN
1070
    46
1040
0.0
1000
ACAD_MTEXT_DEFINED_HEIGHT_END
  0
MTEXT
  5
21CF8
330
21C65
100
AcDbEntity
  8
0
370
    13
100
AcDbMText
 10
209.3714840707963
 20
137.9189157635859
 30
0.0
 40
2.582588493552992
 41
11.50697232029353
 46
0.0
 71
     5
 72
     5
  1
{\fSimSun|b0|i0|c134|p54;1}
 73
     1
 44
1.0
  0
MTEXT
  5
21CF9
330
21C65
100
AcDbEntity
  8
0
370
    13
100
AcDbMText
 10
188.528368425518
 20
137.9189157635857
 30
0.0
 40
2.582588493552992
 41
28.85882626409554
 46
0.0
 71
     5
 72
     5
  1
{\fSimSun|b0|i0|c134|p54;皂碟}
 73
     1
 44
1.0
1001
ACAD
1000
ACAD_MTEXT_DEFINED_HEIGHT_BEGIN
1070
    46
1040
0.0
1000
ACAD_MTEXT_DEFINED_HEIGHT_END
  0
MTEXT
  5
21CFA
330
21C65
100
AcDbEntity
  8
0
370
    13
100
AcDbMText
 10
150.2335786235146
 20
137.6422932436645
 30
0.0
 40
2.582588493552992
 41
10.68857697531401
 46
0.0
 71
     5
 72
     5
  1
{\fSimSun|b0|i0|c134|p2;7}
 73
     1
 44
1.0
1001
ACAD
1000
ACAD_MTEXT_DEFINED_HEIGHT_BEGIN
1070
    46
1040
0.0
1000
ACAD_MTEXT_DEFINED_HEIGHT_END
  0
MTEXT
  5
21CFB
330
21C65
100
AcDbEntity
  8
0
370
    13
100
AcDbMText
 10
232.5087805273352
 20
137.8705695740815
 30
0.0
 40
2.582588493552992
 41
34.76762059278466
 46
0.0
 71
     5
 72
     5
  1
{\fSimSun|b0|i0|c134|p2;玻璃}
 73
     1
 44
1.0
1001
ACAD
1000
ACAD_MTEXT_DEFINED_HEIGHT_BEGIN
1070
    46
1040
0.0
1000
ACAD_MTEXT_DEFINED_HEIGHT_END
  0
MTEXT
  5
21CFC
330
21C65
100
AcDbEntity
  8
0
370
    13
100
AcDbMText
 10
165.018906086596
 20
137.4363008060123
 30
0.0
 40
2.582588493552992
 41
19.18130453538239
 46
0.0
 71
     5
 72
     5
  1
{\fSimSun|b0|i0|c134|p2;5658-04}
 73
     1
 44
1.0
1001
ACAD
1000
ACAD_MTEXT_DEFINED_HEIGHT_BEGIN
1070
    46
1040
0.0
1000
ACAD_MTEXT_DEFINED_HEIGHT_END
  0
ENDBLK
  5
21D00
330
21C65
100
AcDbEntity
  8
0
 48
0.5
100
AcDbBlockEnd
  0
BLOCK
  5
22346
330
2233C
100
AcDbEntity
  8
0
 48
0.5
100
AcDbBlockBegin
  2
*D27
 70
     1
 10
0.0
 20
0.0
 30
0.0
  3
*D27
  1

  0
LINE
  5
225DE
330
2233C
100
AcDbEntity
  8
尺寸线
 62
     0
440
 16777216
 48
0.5
370
    -2
100
AcDbLine
 10
357.7786444416633
 20
337.031165100484
 30
0.0
 11
357.7786444416633
 21
318.2405437654225
 31
0.0
  0
LINE
  5
225DF
330
2233C
100
AcDbEntity
  8
尺寸线
 62
     0
440
 16777216
 48
0.5
370
    -2
100
AcDbLine
 10
742.9377986288364
 20
337.031165100484
 30
0.0
 11
742.9377986288364
 21
318.2405437654225
 31
0.0
  0
LINE
  5
225E0
330
2233C
100
AcDbEntity
  8
尺寸线
 62
     0
440
 16777216
 48
0.5
370
    -2
100
AcDbLine
 10
360.2786444416633
 20
319.2405437654224
 30
0.0
 11
740.4377986288364
 21
319.2405437654224
 31
0.0
  0
INSERT
  5
225E1
330
2233C
100
AcDbEntity
  8
尺寸线
 62
     0
440
 16777216
 48
0.5
370
    -2
100
AcDbBlockReference
  2
_Open30
 10
357.7786444416633
 20
319.2405437654224
 30
0.0
 41
2.5
 42
2.5
 43
2.5
 50
180.0
  0
INSERT
  5
225E2
330
2233C
100
AcDbEntity
  8
尺寸线
 62
     0
440
 16777216
 48
0.5
370
    -2
100
AcDbBlockReference
  2
_Open30
 10
742.9377986288364
 20
319.2405437654224
 30
0.0
 41
2.5
 42
2.5
 43
2.5
  0
MTEXT
  5
225E3
330
2233C
100
AcDbEntity
  8
尺寸线
 62
     0
440
 16777216
 48
0.5
100
AcDbMText
 10
550.3582215352499
 20
323.7665437654225
 30
0.0
 40
8.0
 41
0.0
 46
0.0
 71
     5
 72
     1
  1
560
 73
     1
 44
1.0
  0
POINT
  5
225E4
330
2233C
100
AcDbEntity
  8
Defpoints
 62
     0
440
 16777216
 48
0.5
100
AcDbPoint
 10
357.7786444416633
 20
338.031165100484
 30
0.0
  0
POINT
  5
225E5
330
2233C
100
AcDbEntity
  8
Defpoints
 62
     0
440
 16777216
 48
0.5
100
AcDbPoint
 10
742.9377986288364
 20
338.031165100484
 30
0.0
  0
POINT
  5
225E6
330
2233C
100
AcDbEntity
  8
Defpoints
 62
     0
440
 16777216
 48
0.5
100
AcDbPoint
 10
742.9377986288364
 20
319.2405437654224
 30
0.0
  0
ENDBLK
  5
22347
330
2233C
100
AcDbEntity
  8
0
 48
0.5
100
AcDbBlockEnd
  0
BLOCK
  5
22352
330
22348
100
AcDbEntity
  8
0
 48
0.5
100
AcDbBlockBegin
  2
*D28
 70
     1
 10
0.0
 20
0.0
 30
0.0
  3
*D28
  1

  0
LINE
  5
225E7
330
22348
100
AcDbEntity
  8
尺寸线
 62
     0
440
 16777216
 48
0.5
370
    -2
100
AcDbLine
 10
346.7786444416633
 20
581.3507764129313
 30
0.0
 11
308.9872331175812
 21
581.3507764129313
 31
0.0
  0
LINE
  5
225E8
330
22348
100
AcDbEntity
  8
尺寸线
 62
     0
440
 16777216
 48
0.5
370
    -2
100
AcDbLine
 10
356.7786444416634
 20
343.8507764129308
 30
0.0
 11
308.9872331175811
 21
343.8507764129308
 31
0.0
  0
LINE
  5
225E9
330
22348
100
AcDbEntity
  8
尺寸线
 62
     0
440
 16777216
 48
0.5
370
    -2
100
AcDbLine
 10
309.9872331175812
 20
578.8507764129312
 30
0.0
 11
309.9872331175811
 21
346.3507764129308
 31
0.0
  0
INSERT
  5
225EA
330
22348
100
AcDbEntity
  8
尺寸线
 62
     0
440
 16777216
 48
0.5
370
    -2
100
AcDbBlockReference
  2
_Open30
 10
309.9872331175812
 20
581.3507764129313
 30
0.0
 41
2.5
 42
2.5
 43
2.5
 50
90.0
  0
INSERT
  5
225EB
330
22348
100
AcDbEntity
  8
尺寸线
 62
     0
440
 16777216
 48
0.5
370
    -2
100
AcDbBlockReference
  2
_Open30
 10
309.9872331175811
 20
343.8507764129308
 30
0.0
 41
2.5
 42
2.5
 43
2.5
 50
270.0
  0
MTEXT
  5
225EC
330
22348
100
AcDbEntity
  8
尺寸线
 62
     0
440
 16777216
 48
0.5
100
AcDbMText
 10
305.4612331175811
 20
462.6007764129311
 30
0.0
 40
8.0
 41
0.0
 46
0.0
 71
     5
 72
     1
  1
237.5
 11
0.0000000000000001
 21
1.0
 31
0.0
 73
     1
 44
1.0
  0
POINT
  5
225ED
330
22348
100
AcDbEntity
  8
Defpoints
 62
     0
440
 16777216
 48
0.5
100
AcDbPoint
 10
347.7786444416633
 20
581.3507764129313
 30
0.0
  0
POINT
  5
225EE
330
22348
100
AcDbEntity
  8
Defpoints
 62
     0
440
 16777216
 48
0.5
100
AcDbPoint
 10
357.7786444416633
 20
343.8507764129308
 30
0.0
  0
POINT
  5
225EF
330
22348
100
AcDbEntity
  8
Defpoints
 62
     0
440
 16777216
 48
0.5
100
AcDbPoint
 10
309.9872331175811
 20
343.8507764129308
 30
0.0
  0
ENDBLK
  5
22353
330
22348
100
AcDbEntity
  8
0
 48
0.5
100
AcDbBlockEnd
  0
BLOCK
  5
2235E
330
22354
100
AcDbEntity
  8
0
 48
0.5
100
AcDbBlockBegin
  2
*D29
 70
     1
 10
0.0
 20
0.0
 30
0.0
  3
*D29
  1

  0
LINE
  5
225F0
330
22354
100
AcDbEntity
  8
尺寸线
 62
     0
440
 16777216
 48
0.5
370
    -2
100
AcDbLine
 10
347.0786444416631
 20
675.4038516134596
 30
0.0
 11
334.4384997299731
 21
675.4038516134596
 31
0.0
  0
LINE
  5
225F1
330
22354
100
AcDbEntity
  8
尺寸线
 62
     0
440
 16777216
 48
0.5
370
    -2
100
AcDbLine
 10
356.7786444416634
 20
640.4038516134597
 30
0.0
 11
334.4384997299731
 21
640.4038516134597
 31
0.0
  0
LINE
  5
225F2
330
22354
100
AcDbEntity
  8
尺寸线
 62
     0
440
 16777216
 48
0.5
370
    -2
100
AcDbLine
 10
335.438499729973
 20
672.9038516134596
 30
0.0
 11
335.438499729973
 21
642.9038516134596
 31
0.0
  0
INSERT
  5
225F3
330
22354
100
AcDbEntity
  8
尺寸线
 62
     0
440
 16777216
 48
0.5
370
    -2
100
AcDbBlockReference
  2
_Open30
 10
335.438499729973
 20
675.4038516134596
 30
0.0
 41
2.5
 42
2.5
 43
2.5
 50
90.0
  0
INSERT
  5
225F4
330
22354
100
AcDbEntity
  8
尺寸线
 62
     0
440
 16777216
 48
0.5
370
    -2
100
AcDbBlockReference
  2
_Open30
 10
335.438499729973
 20
640.4038516134597
 30
0.0
 41
2.5
 42
2.5
 43
2.5
 50
270.0
  0
MTEXT
  5
225F5
330
22354
100
AcDbEntity
  8
尺寸线
 62
     0
440
 16777216
 48
0.5
100
AcDbMText
 10
330.9124997299729
 20
657.9038516134597
 30
0.0
 40
8.0
 41
0.0
 46
0.0
 71
     5
 72
     1
  1
35
 11
0.0000000000000001
 21
1.0
 31
0.0
 73
     1
 44
1.0
  0
POINT
  5
225F6
330
22354
100
AcDbEntity
  8
Defpoints
 62
     0
440
 16777216
 48
0.5
100
AcDbPoint
 10
348.0786444416631
 20
675.4038516134596
 30
0.0
  0
POINT
  5
225F7
330
22354
100
AcDbEntity
  8
Defpoints
 62
     0
440
 16777216
 48
0.5
100
AcDbPoint
 10
357.7786444416633
 20
640.4038516134597
 30
0.0
  0
POINT
  5
225F8
330
22354
100
AcDbEntity
  8
Defpoints
 62
     0
440
 16777216
 48
0.5
100
AcDbPoint
 10
335.438499729973
 20
640.4038516134597
 30
0.0
  0
ENDBLK
  5
2235F
330
22354
100
AcDbEntity
  8
0
 48
0.5
100
AcDbBlockEnd
  0
BLOCK
  5
2236A
330
22360
100
AcDbEntity
  8
0
 48
0.5
100
AcDbBlockBegin
  2
*D30
 70
     1
 10
0.0
 20
0.0
 30
0.0
  3
*D30
  1

  0
LINE
  5
225F9
330
22360
100
AcDbEntity
  8
尺寸线
 62
     0
440
 16777216
 48
0.5
370
    -2
100
AcDbLine
 10
956.3163840960759
 20
506.3007764129316
 30
0.0
 11
970.5907547358892
 21
506.3007764129316
 31
0.0
  0
LINE
  5
225FA
330
22360
100
AcDbEntity
  8
尺寸线
 62
     0
440
 16777216
 48
0.5
370
    -2
100
AcDbLine
 10
956.3163840960759
 20
494.3007764129315
 30
0.0
 11
970.5907547358892
 21
494.3007764129315
 31
0.0
  0
LINE
  5
225FB
330
22360
100
AcDbEntity
  8
尺寸线
 62
     0
440
 16777216
 48
0.5
370
    -2
100
AcDbLine
 10
969.5907547358892
 20
503.8007764129315
 30
0.0
 11
969.5907547358892
 21
496.8007764129315
 31
0.0
  0
INSERT
  5
225FC
330
22360
100
AcDbEntity
  8
尺寸线
 62
     0
440
 16777216
 48
0.5
370
    -2
100
AcDbBlockReference
  2
_Open30
 10
969.5907547358892
 20
506.3007764129316
 30
0.0
 41
2.5
 42
2.5
 43
2.5
 50
90.0
  0
INSERT
  5
225FD
330
22360
100
AcDbEntity
  8
尺寸线
 62
     0
440
 16777216
 48
0.5
370
    -2
100
AcDbBlockReference
  2
_Open30
 10
969.5907547358892
 20
494.3007764129315
 30
0.0
 41
2.5
 42
2.5
 43
2.5
 50
270.0
  0
MTEXT
  5
225FE
330
22360
100
AcDbEntity
  8
尺寸线
 62
     0
440
 16777216
 48
0.5
100
AcDbMText
 10
965.0647547358891
 20
500.3007764129317
 30
0.0
 40
8.0
 41
0.0
 46
0.0
 71
     5
 72
     1
  1
12
 11
0.0000000000000001
 21
1.0
 31
0.0
 73
     1
 44
1.0
  0
POINT
  5
225FF
330
22360
100
AcDbEntity
  8
Defpoints
 62
     0
440
 16777216
 48
0.5
100
AcDbPoint
 10
955.316384096076
 20
506.3007764129316
 30
0.0
  0
POINT
  5
22600
330
22360
100
AcDbEntity
  8
Defpoints
 62
     0
440
 16777216
 48
0.5
100
AcDbPoint
 10
955.316384096076
 20
494.3007764129315
 30
0.0
  0
POINT
  5
22601
330
22360
100
AcDbEntity
  8
Defpoints
 62
     0
440
 16777216
 48
0.5
100
AcDbPoint
 10
969.5907547358892
 20
494.3007764129315
 30
0.0
  0
ENDBLK
  5
2236B
330
22360
100
AcDbEntity
  8
0
 48
0.5
100
AcDbBlockEnd
  0
BLOCK
  5
22372
330
2236C
100
AcDbEntity
  8
0
 48
0.5
100
AcDbBlockBegin
  2
*D31
 70
     1
 10
0.0
 20
0.0
 30
0.0
  3
*D31
  1

  0
LINE
  5
22602
330
2236C
100
AcDbEntity
  8
尺寸线
 62
     0
440
 16777216
 48
0.5
370
    -2
100
AcDbLine
 10
395.6897643784556
 20
698.9802227633556
 30
0.0
 11
365.9853123511871
 21
717.7530401162599
 31
0.0
  0
MTEXT
  5
22603
330
2236C
100
AcDbEntity
  8
尺寸线
 62
     0
440
 16777216
 48
0.5
100
AcDbMText
 10
389.2097537258462
 20
708.429604433183
 30
0.0
 40
8.0
 41
0.0
 46
0.0
 71
     5
 72
     1
  1
R20
 11
0.845333262312878
 21
-0.5342393430172164
 31
0.0
 73
     1
 44
1.0
  0
INSERT
  5
22604
330
2236C
100
AcDbEntity
  8
尺寸线
 62
     0
440
 16777216
 48
0.5
370
    -2
100
AcDbBlockReference
  2
_Open30
 10
363.8719791954049
 20
719.0886384738027
 30
0.0
 41
2.5
 42
2.5
 43
2.5
 50
147.707659774024
  0
POINT
  5
22605
330
2236C
100
AcDbEntity
  8
Defpoints
 62
     0
440
 16777216
 48
0.5
100
AcDbPoint
 10
363.8719791954049
 20
719.0886384738027
 30
0.0
  0
POINT
  5
22606
330
2236C
100
AcDbEntity
  8
Defpoints
 62
     0
440
 16777216
 48
0.5
100
AcDbPoint
 10
380.7786444416605
 20
708.4038516134597
 30
0.0
  0
ENDBLK
  5
22373
330
2236C
100
AcDbEntity
  8
0
 48
0.5
100
AcDbBlockEnd
  0
BLOCK
  5
2237E
330
22374
100
AcDbEntity
  8
0
 48
0.5
100
AcDbBlockBegin
  2
*D32
 70
     1
 10
0.0
 20
0.0
 30
0.0
  3
*D32
  1

  0
LINE
  5
22607
330
22374
100
AcDbEntity
  8
尺寸线
 62
     0
440
 16777216
 48
0.5
370
    -2
100
AcDbLine
 10
379.7786444416634
 20
734.4038516134596
 30
0.0
 11
316.6387121279131
 21
734.4038516134596
 31
0.0
  0
LINE
  5
22608
330
22374
100
AcDbEntity
  8
尺寸线
 62
     0
440
 16777216
 48
0.5
370
    -2
100
AcDbLine
 10
356.7786444416634
 20
640.4038516134597
 30
0.0
 11
316.6387121279131
 21
640.4038516134597
 31
0.0
  0
LINE
  5
22609
330
22374
100
AcDbEntity
  8
尺寸线
 62
     0
440
 16777216
 48
0.5
370
    -2
100
AcDbLine
 10
317.6387121279131
 20
731.9038516134597
 30
0.0
 11
317.6387121279131
 21
642.9038516134596
 31
0.0
  0
INSERT
  5
2260A
330
22374
100
AcDbEntity
  8
尺寸线
 62
     0
440
 16777216
 48
0.5
370
    -2
100
AcDbBlockReference
  2
_Open30
 10
317.6387121279131
 20
734.4038516134596
 30
0.0
 41
2.5
 42
2.5
 43
2.5
 50
90.0
  0
INSERT
  5
2260B
330
22374
100
AcDbEntity
  8
尺寸线
 62
     0
440
 16777216
 48
0.5
370
    -2
100
AcDbBlockReference
  2
_Open30
 10
317.6387121279131
 20
640.4038516134597
 30
0.0
 41
2.5
 42
2.5
 43
2.5
 50
270.0
  0
MTEXT
  5
2260C
330
22374
100
AcDbEntity
  8
尺寸线
 62
     0
440
 16777216
 48
0.5
100
AcDbMText
 10
313.112712127913
 20
687.4038516134597
 30
0.0
 40
8.0
 41
0.0
 46
0.0
 71
     5
 72
     1
  1
94
 11
0.0000000000000001
 21
1.0
 31
0.0
 73
     1
 44
1.0
  0
POINT
  5
2260D
330
22374
100
AcDbEntity
  8
Defpoints
 62
     0
440
 16777216
 48
0.5
100
AcDbPoint
 10
380.7786444416633
 20
734.4038516134596
 30
0.0
  0
POINT
  5
2260E
330
22374
100
AcDbEntity
  8
Defpoints
 62
     0
440
 16777216
 48
0.5
100
AcDbPoint
 10
357.7786444416633
 20
640.4038516134597
 30
0.0
  0
POINT
  5
2260F
330
22374
100
AcDbEntity
  8
Defpoints
 62
     0
440
 16777216
 48
0.5
100
AcDbPoint
 10
317.6387121279131
 20
640.4038516134597
 30
0.0
  0
ENDBLK
  5
2237F
330
22374
100
AcDbEntity
  8
0
 48
0.5
100
AcDbBlockEnd
  0
BLOCK
  5
2238A
330
22380
100
AcDbEntity
  8
0
 48
0.5
100
AcDbBlockBegin
  2
*D33
 70
     1
 10
0.0
 20
0.0
 30
0.0
  3
*D33
  1

  0
LINE
  5
22610
330
22380
100
AcDbEntity
  8
尺寸线
 62
     0
440
 16777216
 48
0.5
370
    -2
100
AcDbLine
 10
366.7786444416634
 20
525.3007764129315
 30
0.0
 11
324.549586317075
 21
525.3007764129315
 31
0.0
  0
LINE
  5
22611
330
22380
100
AcDbEntity
  8
尺寸线
 62
     0
440
 16777216
 48
0.5
370
    -2
100
AcDbLine
 10
366.7786444416634
 20
475.3007764129311
 30
0.0
 11
324.549586317075
 21
475.3007764129311
 31
0.0
  0
LINE
  5
22612
330
22380
100
AcDbEntity
  8
尺寸线
 62
     0
440
 16777216
 48
0.5
370
    -2
100
AcDbLine
 10
325.549586317075
 20
522.8007764129315
 30
0.0
 11
325.549586317075
 21
477.8007764129311
 31
0.0
  0
INSERT
  5
22613
330
22380
100
AcDbEntity
  8
尺寸线
 62
     0
440
 16777216
 48
0.5
370
    -2
100
AcDbBlockReference
  2
_Open30
 10
325.549586317075
 20
525.3007764129315
 30
0.0
 41
2.5
 42
2.5
 43
2.5
 50
90.0
  0
INSERT
  5
22614
330
22380
100
AcDbEntity
  8
尺寸线
 62
     0
440
 16777216
 48
0.5
370
    -2
100
AcDbBlockReference
  2
_Open30
 10
325.549586317075
 20
475.3007764129311
 30
0.0
 41
2.5
 42
2.5
 43
2.5
 50
270.0
  0
MTEXT
  5
22615
330
22380
100
AcDbEntity
  8
尺寸线
 62
     0
440
 16777216
 48
0.5
100
AcDbMText
 10
321.0235863170749
 20
500.3007764129314
 30
0.0
 40
8.0
 41
0.0
 46
0.0
 71
     5
 72
     1
  1
50
 11
0.0000000000000001
 21
1.0
 31
0.0
 73
     1
 44
1.0
  0
POINT
  5
22616
330
22380
100
AcDbEntity
  8
Defpoints
 62
     0
440
 16777216
 48
0.5
100
AcDbPoint
 10
367.7786444416633
 20
525.3007764129315
 30
0.0
  0
POINT
  5
22617
330
22380
100
AcDbEntity
  8
Defpoints
 62
     0
440
 16777216
 48
0.5
100
AcDbPoint
 10
367.7786444416633
 20
475.3007764129311
 30
0.0
  0
POINT
  5
22618
330
22380
100
AcDbEntity
  8
Defpoints
 62
     0
440
 16777216
 48
0.5
100
AcDbPoint
 10
325.549586317075
 20
475.3007764129311
 30
0.0
  0
ENDBLK
  5
2238B
330
22380
100
AcDbEntity
  8
0
 48
0.5
100
AcDbBlockEnd
  0
BLOCK
  5
22396
330
2238C
100
AcDbEntity
  8
0
 48
0.5
100
AcDbBlockBegin
  2
*D34
 70
     1
 10
0.0
 20
0.0
 30
0.0
  3
*D34
  1

  0
LINE
  5
22619
330
2238C
100
AcDbEntity
  8
尺寸线
 62
     0
440
 16777216
 48
0.5
370
    -2
100
AcDbLine
 10
366.7786444416634
 20
469.3007764129311
 30
0.0
 11
324.5495863170754
 21
469.3007764129311
 31
0.0
  0
LINE
  5
2261A
330
2238C
100
AcDbEntity
  8
尺寸线
 62
     0
440
 16777216
 48
0.5
370
    -2
100
AcDbLine
 10
366.7786444416634
 20
419.300776412931
 30
0.0
 11
324.5495863170754
 21
419.300776412931
 31
0.0
  0
LINE
  5
2261B
330
2238C
100
AcDbEntity
  8
尺寸线
 62
     0
440
 16777216
 48
0.5
370
    -2
100
AcDbLine
 10
325.5495863170754
 20
466.8007764129311
 30
0.0
 11
325.5495863170754
 21
421.800776412931
 31
0.0
  0
INSERT
  5
2261C
330
2238C
100
AcDbEntity
  8
尺寸线
 62
     0
440
 16777216
 48
0.5
370
    -2
100
AcDbBlockReference
  2
_Open30
 10
325.5495863170754
 20
469.3007764129311
 30
0.0
 41
2.5
 42
2.5
 43
2.5
 50
90.0
  0
INSERT
  5
2261D
330
2238C
100
AcDbEntity
  8
尺寸线
 62
     0
440
 16777216
 48
0.5
370
    -2
100
AcDbBlockReference
  2
_Open30
 10
325.5495863170754
 20
419.300776412931
 30
0.0
 41
2.5
 42
2.5
 43
2.5
 50
270.0
  0
MTEXT
  5
2261E
330
2238C
100
AcDbEntity
  8
尺寸线
 62
     0
440
 16777216
 48
0.5
100
AcDbMText
 10
321.0235863170753
 20
444.3007764129311
 30
0.0
 40
8.0
 41
0.0
 46
0.0
 71
     5
 72
     1
  1
50
 11
0.0000000000000001
 21
1.0
 31
0.0
 73
     1
 44
1.0
  0
POINT
  5
2261F
330
2238C
100
AcDbEntity
  8
Defpoints
 62
     0
440
 16777216
 48
0.5
100
AcDbPoint
 10
367.7786444416633
 20
469.3007764129311
 30
0.0
  0
POINT
  5
22620
330
2238C
100
AcDbEntity
  8
Defpoints
 62
     0
440
 16777216
 48
0.5
100
AcDbPoint
 10
367.7786444416633
 20
419.300776412931
 30
0.0
  0
POINT
  5
22621
330
2238C
100
AcDbEntity
  8
Defpoints
 62
     0
440
 16777216
 48
0.5
100
AcDbPoint
 10
325.5495863170754
 20
419.300776412931
 30
0.0
  0
ENDBLK
  5
22397
330
2238C
100
AcDbEntity
  8
0
 48
0.5
100
AcDbBlockEnd
  0
BLOCK
  5
223A2
330
22398
100
AcDbEntity
  8
0
 48
0.5
100
AcDbBlockBegin
  2
*D35
 70
     1
 10
0.0
 20
0.0
 30
0.0
  3
*D35
  1

  0
LINE
  5
22622
330
22398
100
AcDbEntity
  8
尺寸线
 62
     0
440
 16777216
 48
0.5
370
    -2
100
AcDbLine
 10
366.7786444416634
 20
413.3007764129311
 30
0.0
 11
324.5495863170755
 21
413.3007764129311
 31
0.0
  0
LINE
  5
22623
330
22398
100
AcDbEntity
  8
尺寸线
 62
     0
440
 16777216
 48
0.5
370
    -2
100
AcDbLine
 10
366.7786444416634
 20
363.3007764129311
 30
0.0
 11
324.5495863170754
 21
363.3007764129311
 31
0.0
  0
LINE
  5
22624
330
22398
100
AcDbEntity
  8
尺寸线
 62
     0
440
 16777216
 48
0.5
370
    -2
100
AcDbLine
 10
325.5495863170755
 20
410.800776412931
 30
0.0
 11
325.5495863170754
 21
365.8007764129311
 31
0.0
  0
INSERT
  5
22625
330
22398
100
AcDbEntity
  8
尺寸线
 62
     0
440
 16777216
 48
0.5
370
    -2
100
AcDbBlockReference
  2
_Open30
 10
325.5495863170755
 20
413.3007764129311
 30
0.0
 41
2.5
 42
2.5
 43
2.5
 50
90.0
  0
INSERT
  5
22626
330
22398
100
AcDbEntity
  8
尺寸线
 62
     0
440
 16777216
 48
0.5
370
    -2
100
AcDbBlockReference
  2
_Open30
 10
325.5495863170754
 20
363.3007764129311
 30
0.0
 41
2.5
 42
2.5
 43
2.5
 50
270.0
  0
MTEXT
  5
22627
330
22398
100
AcDbEntity
  8
尺寸线
 62
     0
440
 16777216
 48
0.5
100
AcDbMText
 10
321.0235863170753
 20
388.3007764129311
 30
0.0
 40
8.0
 41
0.0
 46
0.0
 71
     5
 72
     1
  1
50
 11
0.0000000000000001
 21
1.0
 31
0.0
 73
     1
 44
1.0
  0
POINT
  5
22628
330
22398
100
AcDbEntity
  8
Defpoints
 62
     0
440
 16777216
 48
0.5
100
AcDbPoint
 10
367.7786444416633
 20
413.3007764129311
 30
0.0
  0
POINT
  5
22629
330
22398
100
AcDbEntity
  8
Defpoints
 62
     0
440
 16777216
 48
0.5
100
AcDbPoint
 10
367.7786444416633
 20
363.3007764129311
 30
0.0
  0
POINT
  5
2262A
330
22398
100
AcDbEntity
  8
Defpoints
 62
     0
440
 16777216
 48
0.5
100
AcDbPoint
 10
325.5495863170754
 20
363.3007764129311
 30
0.0
  0
ENDBLK
  5
223A3
330
22398
100
AcDbEntity
  8
0
 48
0.5
100
AcDbBlockEnd
  0
BLOCK
  5
223B0
330
223A4
100
AcDbEntity
  8
0
 48
0.5
100
AcDbBlockBegin
  2
*D36
 70
     1
 10
0.0
 20
0.0
 30
0.0
  3
*D36
  1

  0
LINE
  5
2262B
330
223A4
100
AcDbEntity
  8
尺寸线
 62
     0
440
 16777216
 48
0.5
370
    -2
100
AcDbLine
 10
346.7786444416633
 20
581.3507764129308
 30
0.0
 11
334.8350909824949
 21
581.3507764129308
 31
0.0
  0
LINE
  5
2262C
330
223A4
100
AcDbEntity
  8
尺寸线
 62
     0
440
 16777216
 48
0.5
370
    -2
100
AcDbLine
 10
350.1815965483893
 20
576.3507764129307
 30
0.0
 11
334.8350909824949
 21
576.3507764129307
 31
0.0
  0
LINE
  5
2262D
330
223A4
100
AcDbEntity
  8
尺寸线
 62
     0
440
 16777216
 48
0.5
370
    -2
100
AcDbLine
 10
335.8350909824949
 20
583.8507764129308
 30
0.0
 11
335.8350909824949
 21
586.3507764129308
 31
0.0
  0
LINE
  5
2262E
330
223A4
100
AcDbEntity
  8
尺寸线
 62
     0
440
 16777216
 48
0.5
370
    -2
100
AcDbLine
 10
335.8350909824949
 20
573.8507764129308
 30
0.0
 11
335.8350909824949
 21
564.9654430795975
 31
0.0
  0
LINE
  5
2262F
330
223A4
100
AcDbEntity
  8
尺寸线
 62
     0
440
 16777216
 48
0.5
370
    -2
100
AcDbLine
 10
335.8350909824949
 20
581.3507764129308
 30
0.0
 11
335.8350909824949
 21
576.3507764129307
 31
0.0
  0
INSERT
  5
22630
330
223A4
100
AcDbEntity
  8
尺寸线
 62
     0
440
 16777216
 48
0.5
370
    -2
100
AcDbBlockReference
  2
_Open30
 10
335.8350909824949
 20
581.3507764129308
 30
0.0
 41
2.5
 42
2.5
 43
2.5
 50
270.0
  0
INSERT
  5
22631
330
223A4
100
AcDbEntity
  8
尺寸线
 62
     0
440
 16777216
 48
0.5
370
    -2
100
AcDbBlockReference
  2
_Open30
 10
335.8350909824949
 20
576.3507764129307
 30
0.0
 41
2.5
 42
2.5
 43
2.5
 50
90.0
  0
MTEXT
  5
22632
330
223A4
100
AcDbEntity
  8
尺寸线
 62
     0
440
 16777216
 48
0.5
100
AcDbMText
 10
331.3090909824948
 20
568.1581097462642
 30
0.0
 40
8.0
 41
0.0
 46
0.0
 71
     5
 72
     1
  1
5
 11
0.0000000000000001
 21
1.0
 31
0.0
 73
     1
 44
1.0
  0
POINT
  5
22633
330
223A4
100
AcDbEntity
  8
Defpoints
 62
     0
440
 16777216
 48
0.5
100
AcDbPoint
 10
347.7786444416633
 20
581.3507764129308
 30
0.0
  0
POINT
  5
22634
330
223A4
100
AcDbEntity
  8
Defpoints
 62
     0
440
 16777216
 48
0.5
100
AcDbPoint
 10
351.1815965483893
 20
576.3507764129307
 30
0.0
  0
POINT
  5
22635
330
223A4
100
AcDbEntity
  8
Defpoints
 62
     0
440
 16777216
 48
0.5
100
AcDbPoint
 10
335.8350909824949
 20
576.3507764129307
 30
0.0
  0
ENDBLK
  5
223B1
330
223A4
100
AcDbEntity
  8
0
 48
0.5
100
AcDbBlockEnd
  0
BLOCK
  5
223BC
330
223B2
100
AcDbEntity
  8
0
 48
0.5
100
AcDbBlockBegin
  2
*D37
 70
     1
 10
0.0
 20
0.0
 30
0.0
  3
*D37
  1

  0
LINE
  5
22636
330
223B2
100
AcDbEntity
  8
尺寸线
 62
     0
440
 16777216
 48
0.5
370
    -2
100
AcDbLine
 10
346.7786444416633
 20
581.3507764129308
 30
0.0
 11
324.5495863170745
 21
581.3507764129308
 31
0.0
  0
LINE
  5
22637
330
223B2
100
AcDbEntity
  8
尺寸线
 62
     0
440
 16777216
 48
0.5
370
    -2
100
AcDbLine
 10
366.7786444416634
 20
531.3007764129316
 30
0.0
 11
324.5495863170745
 21
531.3007764129316
 31
0.0
  0
LINE
  5
22638
330
223B2
100
AcDbEntity
  8
尺寸线
 62
     0
440
 16777216
 48
0.5
370
    -2
100
AcDbLine
 10
325.5495863170745
 20
578.8507764129308
 30
0.0
 11
325.5495863170745
 21
533.8007764129315
 31
0.0
  0
INSERT
  5
22639
330
223B2
100
AcDbEntity
  8
尺寸线
 62
     0
440
 16777216
 48
0.5
370
    -2
100
AcDbBlockReference
  2
_Open30
 10
325.5495863170745
 20
581.3507764129308
 30
0.0
 41
2.5
 42
2.5
 43
2.5
 50
90.0
  0
INSERT
  5
2263A
330
223B2
100
AcDbEntity
  8
尺寸线
 62
     0
440
 16777216
 48
0.5
370
    -2
100
AcDbBlockReference
  2
_Open30
 10
325.5495863170745
 20
531.3007764129316
 30
0.0
 41
2.5
 42
2.5
 43
2.5
 50
270.0
  0
MTEXT
  5
2263B
330
223B2
100
AcDbEntity
  8
尺寸线
 62
     0
440
 16777216
 48
0.5
100
AcDbMText
 10
321.0235863170745
 20
556.3257764129312
 30
0.0
 40
8.0
 41
0.0
 46
0.0
 71
     5
 72
     1
  1
50
 11
0.0000000000000001
 21
1.0
 31
0.0
 73
     1
 44
1.0
  0
POINT
  5
2263C
330
223B2
100
AcDbEntity
  8
Defpoints
 62
     0
440
 16777216
 48
0.5
100
AcDbPoint
 10
347.7786444416633
 20
581.3507764129308
 30
0.0
  0
POINT
  5
2263D
330
223B2
100
AcDbEntity
  8
Defpoints
 62
     0
440
 16777216
 48
0.5
100
AcDbPoint
 10
367.7786444416633
 20
531.3007764129316
 30
0.0
  0
POINT
  5
2263E
330
223B2
100
AcDbEntity
  8
Defpoints
 62
     0
440
 16777216
 48
0.5
100
AcDbPoint
 10
325.5495863170745
 20
531.3007764129316
 30
0.0
  0
ENDBLK
  5
223BD
330
223B2
100
AcDbEntity
  8
0
 48
0.5
100
AcDbBlockEnd
  0
BLOCK
  5
223C8
330
223BE
100
AcDbEntity
  8
0
 48
0.5
100
AcDbBlockBegin
  2
*D38
 70
     1
 10
0.0
 20
0.0
 30
0.0
  3
*D38
  1

  0
LINE
  5
2263F
330
223BE
100
AcDbEntity
  8
尺寸线
 62
     0
440
 16777216
 48
0.5
370
    -2
100
AcDbLine
 10
347.7786444416633
 20
649.4038516134597
 30
0.0
 11
347.7786444416633
 21
627.8146989567521
 31
0.0
  0
LINE
  5
22640
330
223BE
100
AcDbEntity
  8
尺寸线
 62
     0
440
 16777216
 48
0.5
370
    -2
100
AcDbLine
 10
367.7786444416633
 20
649.4038516134597
 30
0.0
 11
367.7786444416633
 21
627.8146989567521
 31
0.0
  0
LINE
  5
22641
330
223BE
100
AcDbEntity
  8
尺寸线
 62
     0
440
 16777216
 48
0.5
370
    -2
100
AcDbLine
 10
350.2786444416634
 20
628.8146989567522
 30
0.0
 11
365.2786444416634
 21
628.8146989567522
 31
0.0
  0
INSERT
  5
22642
330
223BE
100
AcDbEntity
  8
尺寸线
 62
     0
440
 16777216
 48
0.5
370
    -2
100
AcDbBlockReference
  2
_Open30
 10
347.7786444416633
 20
628.8146989567522
 30
0.0
 41
2.5
 42
2.5
 43
2.5
 50
180.0
  0
INSERT
  5
22643
330
223BE
100
AcDbEntity
  8
尺寸线
 62
     0
440
 16777216
 48
0.5
370
    -2
100
AcDbBlockReference
  2
_Open30
 10
367.7786444416633
 20
628.8146989567522
 30
0.0
 41
2.5
 42
2.5
 43
2.5
  0
MTEXT
  5
22644
330
223BE
100
AcDbEntity
  8
尺寸线
 62
     0
440
 16777216
 48
0.5
100
AcDbMText
 10
357.7786444416633
 20
633.3406989567521
 30
0.0
 40
8.0
 41
0.0
 46
0.0
 71
     5
 72
     1
  1
20
 73
     1
 44
1.0
  0
POINT
  5
22645
330
223BE
100
AcDbEntity
  8
Defpoints
 62
     0
440
 16777216
 48
0.5
100
AcDbPoint
 10
347.7786444416633
 20
650.4038516134596
 30
0.0
  0
POINT
  5
22646
330
223BE
100
AcDbEntity
  8
Defpoints
 62
     0
440
 16777216
 48
0.5
100
AcDbPoint
 10
367.7786444416633
 20
650.4038516134596
 30
0.0
  0
POINT
  5
22647
330
223BE
100
AcDbEntity
  8
Defpoints
 62
     0
440
 16777216
 48
0.5
100
AcDbPoint
 10
367.7786444416633
 20
628.8146989567522
 30
0.0
  0
ENDBLK
  5
223C9
330
223BE
100
AcDbEntity
  8
0
 48
0.5
100
AcDbBlockEnd
  0
BLOCK
  5
225D8
330
225D1
100
AcDbEntity
  8
0
 48
0.5
100
AcDbBlockBegin
  2
A$C4E227BF4
 70
     0
 10
0.0
 20
0.0
 30
0.0
  3
A$C4E227BF4
  1

  0
LINE
  5
225D2
330
225D1
100
AcDbEntity
  8
0
 48
0.5
100
AcDbLine
 10
0.0000006528044878
 20
1.500000072747781
 30
0.0
 11
0.0000006528044878
 21
0.0000000727477527
 31
0.0
  0
LINE
  5
225D3
330
225D1
100
AcDbEntity
  8
0
 48
0.5
100
AcDbLine
 10
35.00000065280449
 20
2.500000072747724
 30
0.0
 11
35.00000065280415
 21
0.0000000727477527
 31
0.0
  0
LINE
  5
225D4
330
225D1
100
AcDbEntity
  8
0
 48
0.5
100
AcDbLine
 10
10.00000065280449
 20
2.500000072747781
 30
0.0
 11
35.00000065280437
 21
2.500000072747724
 31
0.0
  0
ARC
  5
225D5
330
225D1
100
AcDbEntity
  8
0
 48
0.5
100
AcDbCircle
 10
10.00000065280437
 20
-47.99999992725227
 30
0.0
 40
50.5
100
AcDbArc
 50
90.0
 51
101.4211862749991
  0
ENDBLK
  5
225D9
330
225D1
100
AcDbEntity
  8
0
 48
0.5
100
AcDbBlockEnd
  0
ENDSEC
  0
SECTION
  2
ENTITIES
  0
LINE
  5
22175
330
1F
100
AcDbEntity
  8
0
 48
0.5
100
AcDbLine
 10
896.316384096076
 20
344.8507764129308
 30
0.0
 11
896.316384096076
 21
581.3507764129313
 31
0.0
  0
LINE
  5
22178
330
1F
100
AcDbEntity
  8
0
 48
0.5
100
AcDbLine
 10
861.316384096076
 20
344.8507764129308
 30
0.0
 11
861.316384096076
 21
581.3507764129313
 31
0.0
  0
LINE
  5
2217A
330
1F
100
AcDbEntity
  8
0
 48
0.5
100
AcDbLine
 10
955.316384096076
 20
494.3007764129315
 30
0.0
 11
955.316384096076
 21
506.3007764129316
 31
0.0
  0
LINE
  5
2219B
330
1F
100
AcDbEntity
  8
0
 48
0.5
100
AcDbLine
 10
520.97816921811
 20
469.3007764129311
 30
0.0
 11
367.7786444416633
 21
469.3007764129311
 31
0.0
  0
LINE
  5
2219F
330
1F
100
AcDbEntity
  8
0
 48
0.5
100
AcDbLine
 10
514.1115745583756
 20
475.3007764129311
 30
0.0
 11
367.7786444416633
 21
475.3007764129311
 31
0.0
  0
LINE
  5
221A3
330
1F
100
AcDbEntity
  8
0
 48
0.5
100
AcDbLine
 10
505.6611387859466
 20
525.3007764129315
 30
0.0
 11
367.7786444416629
 21
525.3007764129315
 31
0.0
  0
LINE
  5
221A6
330
1F
100
AcDbEntity
  8
0
 48
0.5
100
AcDbLine
 10
509.1150216085684
 20
531.3007764129316
 30
0.0
 11
367.7786444416629
 21
531.3007764129316
 31
0.0
  0
LINE
  5
221D5
330
1F
100
AcDbEntity
  8
0
 48
0.5
100
AcDbLine
 10
566.3053368911942
 20
413.3007764129311
 30
0.0
 11
367.7786444416633
 21
413.3007764129311
 31
0.0
  0
LINE
  5
221D9
330
1F
100
AcDbEntity
  8
0
 48
0.5
100
AcDbLine
 10
565.0170835585522
 20
419.300776412931
 30
0.0
 11
367.7786444416633
 21
419.300776412931
 31
0.0
  0
LINE
  5
221DD
330
1F
100
AcDbEntity
  8
0
 48
0.5
100
AcDbLine
 10
554.8001114910371
 20
357.3007764129311
 30
0.0
 11
367.7786444416633
 21
357.3007764129311
 31
0.0
  0
LINE
  5
221E2
330
1F
100
AcDbEntity
  8
0
 48
0.5
100
AcDbLine
 10
557.4831471259049
 20
363.3007764129311
 30
0.0
 11
367.7786444416633
 21
363.3007764129311
 31
0.0
  0
LINE
  5
2220E
330
1F
100
AcDbEntity
  8
0
 48
0.5
100
AcDbLine
 10
499.1160169323356
 20
506.3007764129316
 30
0.0
 11
354.7786444416634
 21
506.3007764129316
 31
0.0
  0
LINE
  5
22210
330
1F
100
AcDbEntity
  8
0
 48
0.5
100
AcDbLine
 10
500.2263232573364
 20
494.3007764129315
 30
0.0
 11
354.7786444416634
 21
494.3007764129315
 31
0.0
  0
LINE
  5
22211
330
1F
100
AcDbEntity
  8
0
 48
0.5
100
AcDbLine
 10
367.7786444416633
 20
581.3507764129308
 30
0.0
 11
347.7786444416633
 21
581.3507764129308
 31
0.0
  0
LINE
  5
22212
330
1F
100
AcDbEntity
  8
中心线
 48
0.5
100
AcDbLine
 10
364.9077654781763
 20
576.3507764129307
 30
0.0
 11
351.1815965483893
 21
576.3507764129307
 31
0.0
  0
LINE
  5
22213
330
1F
100
AcDbEntity
  8
0
 48
0.5
100
AcDbLine
 10
367.7786444416633
 20
346.3507764129308
 30
0.0
 11
347.7786444416633
 21
346.3507764129308
 31
0.0
  0
LINE
  5
22214
330
1F
100
AcDbEntity
  8
0
 48
0.5
100
AcDbLine
 10
347.7786444416633
 20
581.3507764129313
 30
0.0
 11
347.7786444416629
 21
344.8507764129308
 31
0.0
  0
LINE
  5
22215
330
1F
100
AcDbEntity
  8
0
 48
0.5
100
AcDbLine
 10
367.7786444416633
 20
581.3507764129313
 30
0.0
 11
367.7786444416633
 21
506.3007764129316
 31
0.0
  0
LINE
  5
22216
330
1F
100
AcDbEntity
  8
0
 48
0.5
100
AcDbLine
 10
367.7786444416629
 20
494.3007764129315
 30
0.0
 11
367.7786444416629
 21
344.8507764129308
 31
0.0
  0
LINE
  5
22217
330
1F
100
AcDbEntity
  8
0
 48
0.5
100
AcDbLine
 10
360.8786444416633
 20
494.2507764129311
 30
0.0
 11
354.6786444416635
 21
494.2507764129311
 31
0.0
  0
LINE
  5
22218
330
1F
100
AcDbEntity
  8
0
 48
0.5
100
AcDbLine
 10
360.8786444416633
 20
506.4507764129312
 30
0.0
 11
354.6786444416635
 21
506.4507764129311
 31
0.0
  0
LINE
  5
22219
330
1F
100
AcDbEntity
  8
中心线
 48
0.5
100
AcDbLine
 10
357.7786444416633
 20
338.031165100484
 30
0.0
 11
357.7786444416633
 21
588.0576079418324
 31
0.0
  0
LINE
  5
2221A
330
1F
100
AcDbEntity
  8
0
 48
0.5
100
AcDbLine
 10
354.7786444416634
 20
494.3007764129315
 30
0.0
 11
354.7786444416634
 21
506.3007764129315
 31
0.0
  0
LINE
  5
2221B
330
1F
100
AcDbEntity
  8
0
 48
0.5
100
AcDbLine
 10
354.6786444416635
 20
494.250776412931
 30
0.0
 11
354.6786444416635
 21
506.4507764129311
 31
0.0
  0
LINE
  5
2221C
330
1F
100
AcDbEntity
  8
0
 48
0.5
100
AcDbLine
 10
360.8786444416633
 20
494.2507764129312
 30
0.0
 11
360.8786444416637
 21
494.3007764129315
 31
0.0
  0
LINE
  5
2221D
330
1F
100
AcDbEntity
  8
0
 48
0.5
100
AcDbLine
 10
360.8786444416633
 20
506.3007764129316
 30
0.0
 11
360.8786444416633
 21
506.4507764129312
 31
0.0
  0
LINE
  5
2221F
330
1F
100
AcDbEntity
  8
0
100
AcDbLine
 10
367.7786444416633
 20
675.1038516134599
 30
0.0
 11
367.7786444416633
 21
650.4038516134596
 31
0.0
  0
LINE
  5
22220
330
1F
100
AcDbEntity
  8
0
100
AcDbLine
 10
348.0786444416631
 20
675.4038516134596
 30
0.0
 11
367.4786444416632
 21
675.4038516134596
 31
0.0
  0
LINE
  5
22221
330
1F
100
AcDbEntity
  8
0
100
AcDbLine
 10
367.4786444416632
 20
675.4038516134596
 30
0.0
 11
348.0786444416631
 21
675.4038516134596
 31
0.0
  0
ARC
  5
22222
330
1F
100
AcDbEntity
  8
0
100
AcDbCircle
 10
357.7786444416633
 20
650.4038516134596
 30
0.0
 40
10.00000000000003
100
AcDbArc
 50
270.0
 51
0.0
  0
ARC
  5
22223
330
1F
100
AcDbEntity
  8
0
100
AcDbCircle
 10
357.7786444416633
 20
650.4038516134596
 30
0.0
 40
10.0
100
AcDbArc
 50
180.0
 51
270.0
  0
ARC
  5
22224
330
1F
100
AcDbEntity
  8
0
100
AcDbCircle
 10
357.7786444416633
 20
650.4038516134596
 30
0.0
 40
10.0
100
AcDbArc
 50
180.0
 51
270.0
  0
ARC
  5
22225
330
1F
100
AcDbEntity
  8
0
100
AcDbCircle
 10
357.7786444416633
 20
650.4038516134596
 30
0.0
 40
10.00000000000003
100
AcDbArc
 50
270.0
 51
0.0
  0
ARC
  5
22226
330
1F
100
AcDbEntity
  8
0
100
AcDbCircle
 10
367.4786444416632
 20
675.1038516134599
 30
0.0
 40
0.3000000000000398
100
AcDbArc
 50
0.0
 51
90.0
  0
ARC
  5
22227
330
1F
100
AcDbEntity
  8
0
100
AcDbCircle
 10
367.4786444416632
 20
675.1038516134599
 30
0.0
 40
0.3000000000000398
100
AcDbArc
 50
0.0
 51
90.0
  0
ARC
  5
22228
330
1F
100
AcDbEntity
  8
0
100
AcDbCircle
 10
348.0786444416631
 20
675.1038516134599
 30
0.0
 40
0.3000000000000114
100
AcDbArc
 50
90.0
 51
180.0
  0
ARC
  5
22229
330
1F
100
AcDbEntity
  8
0
100
AcDbCircle
 10
348.0786444416631
 20
675.1038516134599
 30
0.0
 40
0.3000000000000114
100
AcDbArc
 50
90.0
 51
180.0
  0
LINE
  5
2222A
330
1F
100
AcDbEntity
  8
0
 48
0.5
100
AcDbLine
 10
347.7786444416633
 20
675.1038516134599
 30
0.0
 11
347.7786444416633
 21
650.4038516134596
 31
0.0
  0
LINE
  5
2222B
330
1F
100
AcDbEntity
  8
0
100
AcDbLine
 10
755.0498209752941
 20
675.1038516134599
 30
0.0
 11
755.0498209752941
 21
650.4038516134596
 31
0.0
  0
LINE
  5
2222C
330
1F
100
AcDbEntity
  8
0
100
AcDbLine
 10
735.3498209752938
 20
675.4038516134596
 30
0.0
 11
754.7498209752939
 21
675.4038516134596
 31
0.0
  0
LINE
  5
2222D
330
1F
100
AcDbEntity
  8
0
100
AcDbLine
 10
754.7498209752939
 20
675.4038516134596
 30
0.0
 11
735.3498209752938
 21
675.4038516134596
 31
0.0
  0
LINE
  5
2222E
330
1F
100
AcDbEntity
  8
0
100
AcDbLine
 10
735.0498209752941
 20
651.4038516134596
 30
0.0
 11
367.7786444416633
 21
651.4038516134596
 31
0.0
  0
LINE
  5
2222F
330
1F
100
AcDbEntity
  8
0
100
AcDbLine
 10
735.0498209752941
 20
667.4038516134596
 30
0.0
 11
367.7786444416633
 21
667.4038516134596
 31
0.0
  0
ARC
  5
22230
330
1F
100
AcDbEntity
  8
0
100
AcDbCircle
 10
745.049820975294
 20
650.4038516134596
 30
0.0
 40
10.00000000000003
100
AcDbArc
 50
270.0
 51
0.0
  0
ARC
  5
22231
330
1F
100
AcDbEntity
  8
0
100
AcDbCircle
 10
745.049820975294
 20
650.4038516134596
 30
0.0
 40
10.0
100
AcDbArc
 50
180.0
 51
270.0
  0
ARC
  5
22232
330
1F
100
AcDbEntity
  8
0
100
AcDbCircle
 10
745.049820975294
 20
650.4038516134596
 30
0.0
 40
10.0
100
AcDbArc
 50
180.0
 51
270.0
  0
ARC
  5
22233
330
1F
100
AcDbEntity
  8
0
100
AcDbCircle
 10
745.049820975294
 20
650.4038516134596
 30
0.0
 40
10.00000000000003
100
AcDbArc
 50
270.0
 51
0.0
  0
ARC
  5
22234
330
1F
100
AcDbEntity
  8
0
100
AcDbCircle
 10
754.7498209752939
 20
675.1038516134599
 30
0.0
 40
0.3000000000000398
100
AcDbArc
 50
0.0
 51
90.0
  0
ARC
  5
22235
330
1F
100
AcDbEntity
  8
0
100
AcDbCircle
 10
754.7498209752939
 20
675.1038516134599
 30
0.0
 40
0.3000000000000398
100
AcDbArc
 50
0.0
 51
90.0
  0
ARC
  5
22236
330
1F
100
AcDbEntity
  8
0
100
AcDbCircle
 10
735.3498209752938
 20
675.1038516134599
 30
0.0
 40
0.3000000000000114
100
AcDbArc
 50
90.0
 51
180.0
  0
ARC
  5
22237
330
1F
100
AcDbEntity
  8
0
100
AcDbCircle
 10
735.3498209752938
 20
675.1038516134599
 30
0.0
 40
0.3000000000000114
100
AcDbArc
 50
90.0
 51
180.0
  0
LINE
  5
22238
330
1F
100
AcDbEntity
  8
0
 48
0.5
100
AcDbLine
 10
735.0498209752941
 20
675.1038516134599
 30
0.0
 11
735.0498209752941
 21
650.4038516134596
 31
0.0
  0
LINE
  5
22239
330
1F
100
AcDbEntity
  8
0
370
    13
100
AcDbLine
 10
354.7786444416634
 20
675.4038516134596
 30
0.0
 11
354.7786444416634
 21
708.4038516134596
 31
0.0
  0
LINE
  5
2223A
330
1F
100
AcDbEntity
  8
0
  6
Continuous
 62
     7
370
    15
100
AcDbLine
 10
360.7786444416634
 20
675.4038516134596
 30
0.0
 11
360.7786444416634
 21
708.4038516134596
 31
0.0
  0
ARC
  5
2223B
330
1F
100
AcDbEntity
  8
0
  6
Continuous
 62
     7
370
    15
100
AcDbCircle
 10
380.7786444416633
 20
708.4038516134596
 30
0.0
 40
20.0
100
AcDbArc
 50
90.0
 51
180.0
  0
ARC
  5
2223C
330
1F
100
AcDbEntity
  8
0
  6
Continuous
 62
     7
370
    15
100
AcDbCircle
 10
380.7786444416633
 20
708.4038516134596
 30
0.0
 40
26.0
100
AcDbArc
 50
90.0
 51
180.0
  0
LINE
  5
2223D
330
1F
100
AcDbEntity
  8
0
  6
Continuous
 62
     7
370
    15
100
AcDbLine
 10
380.7786444416633
 20
734.4038516134596
 30
0.0
 11
548.3177098675632
 21
734.4038516134596
 31
0.0
  0
LINE
  5
2223E
330
1F
100
AcDbEntity
  8
0
  6
Continuous
 62
     7
370
    15
100
AcDbLine
 10
380.7786444416633
 20
728.4038516134597
 30
0.0
 11
544.8750921199771
 21
728.4038516134597
 31
0.0
  0
LINE
  5
2223F
330
1F
100
AcDbEntity
  8
0
  6
Continuous
 62
     7
370
    15
100
AcDbLine
 10
553.8886634525742
 20
734.4038516134596
 30
0.0
 11
722.0498209752941
 21
734.4038516134596
 31
0.0
  0
LINE
  5
22240
330
1F
100
AcDbEntity
  8
0
  6
Continuous
 62
     7
370
    15
100
AcDbLine
 10
550.4460457049872
 20
728.4038516134597
 30
0.0
 11
722.0498209752941
 21
728.4038516134597
 31
0.0
  0
LINE
  5
22241
330
1F
100
AcDbEntity
  8
0
  6
Continuous
 62
     7
370
    15
100
AcDbLine
 10
748.0498209752941
 20
708.4038516134596
 30
0.0
 11
748.0498209752941
 21
675.4038516134596
 31
0.0
  0
LINE
  5
22242
330
1F
100
AcDbEntity
  8
0
  6
Continuous
 62
     7
370
    15
100
AcDbLine
 10
742.0498209752941
 20
708.4038516134592
 30
0.0
 11
742.0498209752941
 21
675.4038516134596
 31
0.0
  0
ARC
  5
22243
330
1F
100
AcDbEntity
  8
0
  6
Continuous
 62
     7
370
    15
100
AcDbCircle
 10
722.0498209752941
 20
708.4038516134596
 30
0.0
 40
20.0
100
AcDbArc
 50
0.0
 51
90.0
  0
ARC
  5
22244
330
1F
100
AcDbEntity
  8
0
  6
Continuous
 62
     7
370
    15
100
AcDbCircle
 10
722.0498209752941
 20
708.4038516134596
 30
0.0
 40
26.0
100
AcDbArc
 50
0.0
 51
90.0
  0
SPLINE
  5
22245
330
1F
100
AcDbEntity
  8
图层7
 48
0.5
100
AcDbSpline
210
0.0
220
0.0
230
1.0
 70
     8
 71
     3
 72
     8
 73
     4
 74
     0
 42
0.000000001
 43
0.0000000001
 40
69.42981878933008
 40
69.42981878933008
 40
69.42981878933008
 40
69.42981878933008
 40
75.6390043985978
 40
75.6390043985978
 40
75.6390043985978
 40
75.6390043985978
 10
553.8886634525742
 20
734.4038516134596
 30
0.0
 10
552.7774425833722
 20
732.3770498251524
 30
0.0
 10
551.5971969361971
 20
730.3696000684722
 30
0.0
 10
550.4460457049872
 20
728.4038516134592
 30
0.0
  0
SPLINE
  5
22246
330
1F
100
AcDbEntity
  8
图层7
 48
0.5
100
AcDbSpline
210
0.0
220
0.0
230
1.0
 70
     8
 71
     3
 72
     8
 73
     4
 74
     0
 42
0.000000001
 43
0.0000000001
 40
69.42981878933024
 40
69.42981878933024
 40
69.42981878933024
 40
69.42981878933024
 40
75.63900439859793
 40
75.63900439859793
 40
75.63900439859793
 40
75.63900439859793
 10
548.3177098675632
 20
734.4038516134596
 30
0.0
 10
547.2064889983612
 20
732.3770498251524
 30
0.0
 10
546.0262433511862
 20
730.3696000684722
 30
0.0
 10
544.8750921199762
 20
728.4038516134592
 30
0.0
  0
LINE
  5
22247
330
1F
100
AcDbEntity
  8
0
370
    13
100
AcDbLine
 10
354.7786444416634
 20
675.4038516134596
 30
0.0
 11
360.7786444416634
 21
675.4038516134596
 31
0.0
  0
LINE
  5
22248
330
1F
100
AcDbEntity
  8
0
 48
0.5
100
AcDbLine
 10
861.316384096076
 20
344.8507764129308
 30
0.0
 11
896.316384096076
 21
344.8507764129308
 31
0.0
  0
LINE
  5
22249
330
1F
100
AcDbEntity
  8
0
 48
0.5
100
AcDbLine
 10
861.316384096076
 20
346.3507764129308
 30
0.0
 11
896.316384096076
 21
346.3507764129308
 31
0.0
  0
LINE
  5
2224A
330
1F
100
AcDbEntity
  8
0
 48
0.5
100
AcDbLine
 10
896.316384096076
 20
506.3007764129316
 30
0.0
 11
955.316384096076
 21
506.3007764129316
 31
0.0
  0
LINE
  5
2224B
330
1F
100
AcDbEntity
  8
0
 48
0.5
100
AcDbLine
 10
896.316384096076
 20
494.3007764129315
 30
0.0
 11
955.316384096076
 21
494.3007764129315
 31
0.0
  0
CIRCLE
  5
2224C
330
1F
100
AcDbEntity
  8
0
 48
0.5
100
AcDbCircle
 10
357.7786444416633
 20
576.3507764129307
 30
0.0
 40
2.5
  0
CIRCLE
  5
2224D
330
1F
100
AcDbEntity
  8
0
 48
0.5
100
AcDbCircle
 10
357.7786444416633
 20
576.3507764129307
 30
0.0
 40
2.1
  0
DIMENSION
  5
2228C
330
1F
100
AcDbEntity
  8
尺寸线
 48
0.5
100
AcDbDimension
280
     0
  2
*D27
 10
742.9377986288364
 20
319.2405437654224
 30
0.0
 11
550.3582215352499
 21
323.7665437654225
 31
0.0
 70
    32
  1
560
 71
     5
 42
385.159154187173
 73
     0
 74
     0
 75
     0
  3
ISO-25
100
AcDbAlignedDimension
 13
357.7786444416633
 23
338.031165100484
 33
0.0
 14
742.9377986288364
 24
338.031165100484
 34
0.0
100
AcDbRotatedDimension
1001
ACAD
1000
DSTYLE
1002
{
1070
    42
1040
1.0
1070
    44
1040
1.0
1070
   140
1040
8.0
1070
   143
1040
0.0393700787401575
1070
   147
1040
0.526
1070
   271
1070
     1
1070
   272
1070
     1
1070
   278
1070
    46
1070
   284
1070
     0
1070
   342
1005
111D
1002
}
  0
SPLINE
  5
2228D
330
1F
100
AcDbEntity
  8
细实线
 48
0.5
100
AcDbSpline
210
0.0
220
0.0
230
1.0
 70
     8
 71
     3
 72
    10
 73
     6
 74
     0
 42
0.000000001
 43
0.0000000001
 40
37.23297287726203
 40
37.23297287726203
 40
37.23297287726203
 40
37.23297287726203
 40
80.46635734642704
 40
155.0561562916376
 40
250.5389269091127
 40
250.5389269091127
 40
250.5389269091127
 40
250.5389269091127
 10
509.1150216085684
 20
531.3007764129316
 30
0.0
 10
500.9480717076053
 20
518.0584605447323
 30
0.0
 10
488.915748664534
 20
483.7553792175041
 30
0.0
 10
576.1586223528393
 20
440.6968087690358
 30
0.0
 10
569.5862611345287
 20
388.9154106837937
 30
0.0
 10
554.8001114910371
 20
357.3007764129309
 30
0.0
  0
SPLINE
  5
2228E
330
1F
100
AcDbEntity
  8
细实线
 48
0.5
100
AcDbSpline
210
0.0
220
0.0
230
1.0
 70
     8
 71
     3
 72
    10
 73
     6
 74
     0
 42
0.000000001
 43
0.0000000001
 40
37.23297287726203
 40
37.23297287726203
 40
37.23297287726203
 40
37.23297287726203
 40
80.46635734642704
 40
155.0561562916376
 40
250.5389269091126
 40
250.5389269091126
 40
250.5389269091126
 40
250.5389269091126
 10
537.7879534671051
 20
531.3007764129316
 30
0.0
 10
529.6210035661419
 20
518.0584605447323
 30
0.0
 10
517.5886805230707
 20
483.7553792175041
 30
0.0
 10
604.8315542113759
 20
440.6968087690358
 30
0.0
 10
598.2591929930654
 20
388.9154106837937
 30
0.0
 10
583.4730433495733
 20
357.300776412931
 30
0.0
  0
DIMENSION
  5
2228F
330
1F
100
AcDbEntity
  8
尺寸线
 48
0.5
100
AcDbDimension
280
     0
  2
*D28
 10
309.9872331175811
 20
343.8507764129308
 30
0.0
 11
305.4612331175811
 21
462.6007764129311
 31
0.0
 70
    32
 71
     5
 42
237.5000000000005
 73
     0
 74
     0
 75
     0
  3
ISO-25
100
AcDbAlignedDimension
 13
347.7786444416633
 23
581.3507764129313
 33
0.0
 14
357.7786444416633
 24
343.8507764129308
 34
0.0
 50
90.0
100
AcDbRotatedDimension
1001
ACAD
1000
DSTYLE
1002
{
1070
    42
1040
1.0
1070
    44
1040
1.0
1070
   140
1040
8.0
1070
   143
1040
0.0393700787401575
1070
   147
1040
0.526
1070
   271
1070
     1
1070
   272
1070
     1
1070
   278
1070
    46
1070
   284
1070
     0
1070
   342
1005
111D
1002
}
  0
DIMENSION
  5
22290
330
1F
100
AcDbEntity
  8
尺寸线
 48
0.5
100
AcDbDimension
280
     0
  2
*D29
 10
335.438499729973
 20
640.4038516134597
 30
0.0
 11
330.9124997299729
 21
657.9038516134597
 31
0.0
 70
    32
 71
     5
 42
35.0
 73
     0
 74
     0
 75
     0
  3
ISO-25
100
AcDbAlignedDimension
 13
348.0786444416631
 23
675.4038516134596
 33
0.0
 14
357.7786444416633
 24
640.4038516134597
 34
0.0
 50
90.0
100
AcDbRotatedDimension
1001
ACAD
1000
DSTYLE
1002
{
1070
    42
1040
1.0
1070
    44
1040
1.0
1070
   140
1040
8.0
1070
   143
1040
0.0393700787401575
1070
   147
1040
0.526
1070
   271
1070
     1
1070
   272
1070
     1
1070
   278
1070
    46
1070
   284
1070
     0
1070
   342
1005
111D
1002
}
  0
DIMENSION
  5
22291
330
1F
100
AcDbEntity
  8
尺寸线
 48
0.5
100
AcDbDimension
280
     0
  2
*D30
 10
969.5907547358892
 20
494.3007764129315
 30
0.0
 11
965.0647547358891
 21
500.3007764129317
 31
0.0
 70
    32
 71
     5
 42
12.0
 73
     0
 74
     0
 75
     0
  3
ISO-25
100
AcDbAlignedDimension
 13
955.316384096076
 23
506.3007764129316
 33
0.0
 14
955.316384096076
 24
494.3007764129315
 34
0.0
 50
90.0
100
AcDbRotatedDimension
1001
ACAD
1000
DSTYLE
1002
{
1070
    42
1040
1.0
1070
    44
1040
1.0
1070
   140
1040
8.0
1070
   143
1040
0.0393700787401575
1070
   147
1040
0.526
1070
   271
1070
     1
1070
   272
1070
     1
1070
   278
1070
    46
1070
   284
1070
     0
1070
   342
1005
111D
1002
}
  0
DIMENSION
  5
22292
330
1F
100
AcDbEntity
  8
尺寸线
 48
0.5
100
AcDbDimension
280
     0
  2
*D31
 10
380.7786444416605
 20
708.4038516134597
 30
0.0
 11
386.7917864593502
 21
704.6036260879549
 31
0.0
 70
   164
 71
     5
 42
19.99999999999772
 73
     0
 74
     0
 75
     0
  3
ISO-25
100
AcDbRadialDimension
 15
363.8719791954049
 25
719.0886384738027
 35
0.0
 40
0.0
1001
ACAD
1000
DSTYLE
1002
{
1070
    42
1040
1.0
1070
    44
1040
1.0
1070
   140
1040
8.0
1070
   143
1040
0.0393700787401575
1070
   147
1040
0.526
1070
   271
1070
     1
1070
   272
1070
     1
1070
   278
1070
    46
1070
   279
1070
     1
1070
   284
1070
     0
1070
   288
1070
     1
1070
   342
1005
111D
1002
}
  0
DIMENSION
  5
22293
330
1F
100
AcDbEntity
  8
尺寸线
 48
0.5
100
AcDbDimension
280
     0
  2
*D32
 10
317.6387121279131
 20
640.4038516134597
 30
0.0
 11
313.112712127913
 21
687.4038516134597
 31
0.0
 70
    32
 71
     5
 42
94.0
 73
     0
 74
     0
 75
     0
  3
ISO-25
100
AcDbAlignedDimension
 13
380.7786444416633
 23
734.4038516134596
 33
0.0
 14
357.7786444416633
 24
640.4038516134597
 34
0.0
 50
90.0
100
AcDbRotatedDimension
1001
ACAD
1000
DSTYLE
1002
{
1070
    42
1040
1.0
1070
    44
1040
1.0
1070
   140
1040
8.0
1070
   143
1040
0.0393700787401575
1070
   147
1040
0.526
1070
   271
1070
     1
1070
   272
1070
     1
1070
   278
1070
    46
1070
   284
1070
     0
1070
   342
1005
111D
1002
}
  0
DIMENSION
  5
22294
330
1F
100
AcDbEntity
  8
尺寸线
 48
0.5
100
AcDbDimension
280
     0
  2
*D33
 10
325.549586317075
 20
475.3007764129311
 30
0.0
 11
321.0235863170749
 21
500.3007764129314
 31
0.0
 70
    32
 71
     5
 42
50.00000000000051
 73
     0
 74
     0
 75
     0
  3
ISO-25
100
AcDbAlignedDimension
 13
367.7786444416633
 23
525.3007764129315
 33
0.0
 14
367.7786444416633
 24
475.3007764129311
 34
0.0
 50
90.0
100
AcDbRotatedDimension
1001
ACAD
1000
DSTYLE
1002
{
1070
    42
1040
1.0
1070
    44
1040
1.0
1070
   140
1040
8.0
1070
   143
1040
0.0393700787401575
1070
   147
1040
0.526
1070
   271
1070
     1
1070
   272
1070
     1
1070
   278
1070
    46
1070
   284
1070
     0
1070
   342
1005
111D
1002
}
  0
DIMENSION
  5
22295
330
1F
100
AcDbEntity
  8
尺寸线
 48
0.5
100
AcDbDimension
280
     0
  2
*D34
 10
325.5495863170754
 20
419.300776412931
 30
0.0
 11
321.0235863170753
 21
444.3007764129311
 31
0.0
 70
    32
 71
     5
 42
50.0
 73
     0
 74
     0
 75
     0
  3
ISO-25
100
AcDbAlignedDimension
 13
367.7786444416633
 23
469.3007764129311
 33
0.0
 14
367.7786444416633
 24
419.300776412931
 34
0.0
 50
90.0
100
AcDbRotatedDimension
1001
ACAD
1000
DSTYLE
1002
{
1070
    42
1040
1.0
1070
    44
1040
1.0
1070
   140
1040
8.0
1070
   143
1040
0.0393700787401575
1070
   147
1040
0.526
1070
   271
1070
     1
1070
   272
1070
     1
1070
   278
1070
    46
1070
   284
1070
     0
1070
   342
1005
111D
1002
}
  0
DIMENSION
  5
22296
330
1F
100
AcDbEntity
  8
尺寸线
 48
0.5
100
AcDbDimension
280
     0
  2
*D35
 10
325.5495863170754
 20
363.3007764129311
 30
0.0
 11
321.0235863170753
 21
388.3007764129311
 31
0.0
 70
    32
 71
     5
 42
50.0
 73
     0
 74
     0
 75
     0
  3
ISO-25
100
AcDbAlignedDimension
 13
367.7786444416633
 23
413.3007764129311
 33
0.0
 14
367.7786444416633
 24
363.3007764129311
 34
0.0
 50
90.0
100
AcDbRotatedDimension
1001
ACAD
1000
DSTYLE
1002
{
1070
    42
1040
1.0
1070
    44
1040
1.0
1070
   140
1040
8.0
1070
   143
1040
0.0393700787401575
1070
   147
1040
0.526
1070
   271
1070
     1
1070
   272
1070
     1
1070
   278
1070
    46
1070
   284
1070
     0
1070
   342
1005
111D
1002
}
  0
DIMENSION
  5
22297
330
1F
100
AcDbEntity
  8
尺寸线
 48
0.5
100
AcDbDimension
280
     0
  2
*D36
 10
335.8350909824949
 20
576.3507764129307
 30
0.0
 11
331.3090909824948
 21
568.1581097462642
 31
0.0
 70
    32
 71
     5
 42
5.0
 73
     0
 74
     0
 75
     0
  3
ISO-25
100
AcDbAlignedDimension
 13
347.7786444416633
 23
581.3507764129308
 33
0.0
 14
351.1815965483893
 24
576.3507764129307
 34
0.0
 50
90.0
100
AcDbRotatedDimension
1001
ACAD
1000
DSTYLE
1002
{
1070
    42
1040
1.0
1070
    44
1040
1.0
1070
   140
1040
8.0
1070
   143
1040
0.0393700787401575
1070
   147
1040
0.526
1070
   271
1070
     1
1070
   272
1070
     1
1070
   278
1070
    46
1070
   284
1070
     0
1070
   342
1005
111D
1002
}
  0
DIMENSION
  5
22298
330
1F
100
AcDbEntity
  8
尺寸线
 48
0.5
100
AcDbDimension
280
     0
  2
*D37
 10
325.5495863170745
 20
531.3007764129316
 30
0.0
 11
321.0235863170745
 21
556.3257764129312
 31
0.0
 70
    32
 71
     5
 42
50.04999999999927
 73
     0
 74
     0
 75
     0
  3
ISO-25
100
AcDbAlignedDimension
 13
347.7786444416633
 23
581.3507764129308
 33
0.0
 14
367.7786444416633
 24
531.3007764129316
 34
0.0
 50
90.0
100
AcDbRotatedDimension
1001
ACAD
1000
DSTYLE
1002
{
1070
    42
1040
1.0
1070
    44
1040
1.0
1070
   140
1040
8.0
1070
   143
1040
0.0393700787401575
1070
   147
1040
0.526
1070
   271
1070
     1
1070
   272
1070
     1
1070
   278
1070
    46
1070
   284
1070
     0
1070
   342
1005
111D
1002
}
  0
DIMENSION
  5
2229C
330
1F
100
AcDbEntity
  8
尺寸线
 48
0.5
100
AcDbDimension
280
     0
  2
*D38
 10
367.7786444416633
 20
628.8146989567522
 30
0.0
 11
357.7786444416633
 21
633.3406989567521
 31
0.0
 70
    32
 71
     5
 42
20.0
 73
     0
 74
     0
 75
     0
  3
ISO-25
100
AcDbAlignedDimension
 13
347.7786444416633
 23
650.4038516134596
 33
0.0
 14
367.7786444416633
 24
650.4038516134596
 34
0.0
100
AcDbRotatedDimension
1001
ACAD
1000
DSTYLE
1002
{
1070
    42
1040
1.0
1070
    44
1040
1.0
1070
   140
1040
8.0
1070
   143
1040
0.0393700787401575
1070
   147
1040
0.526
1070
   271
1070
     1
1070
   272
1070
     1
1070
   278
1070
    46
1070
   284
1070
     0
1070
   342
1005
111D
1002
}
  0
LINE
  5
22436
330
1F
100
AcDbEntity
  8
0
 48
0.5
100
AcDbLine
 10
861.316384096076
 20
581.3507764129313
 30
0.0
 11
896.316384096076
 21
581.3507764129313
 31
0.0
  0
LINE
  5
22437
330
1F
100
AcDbEntity
  8
0
 48
0.5
100
AcDbLine
 10
549.6511010766466
 20
469.3007764129311
 30
0.0
 11
732.9377986288363
 21
469.3007764129311
 31
0.0
  0
LINE
  5
22438
330
1F
100
AcDbEntity
  8
0
 48
0.5
100
AcDbLine
 10
542.7845064169123
 20
475.3007764129311
 30
0.0
 11
732.9377986288363
 21
475.3007764129311
 31
0.0
  0
LINE
  5
22439
330
1F
100
AcDbEntity
  8
0
 48
0.5
100
AcDbLine
 10
534.3340706444837
 20
525.3007764129315
 30
0.0
 11
732.9377986288368
 21
525.3007764129315
 31
0.0
  0
LINE
  5
2243A
330
1F
100
AcDbEntity
  8
0
 48
0.5
100
AcDbLine
 10
537.7879534671051
 20
531.3007764129316
 30
0.0
 11
732.9377986288368
 21
531.3007764129316
 31
0.0
  0
LINE
  5
2243B
330
1F
100
AcDbEntity
  8
0
 48
0.5
100
AcDbLine
 10
594.9782687497313
 20
413.3007764129311
 30
0.0
 11
732.9377986288363
 21
413.3007764129311
 31
0.0
  0
LINE
  5
2243C
330
1F
100
AcDbEntity
  8
0
 48
0.5
100
AcDbLine
 10
593.6900154170894
 20
419.300776412931
 30
0.0
 11
732.9377986288363
 21
419.300776412931
 31
0.0
  0
LINE
  5
2243D
330
1F
100
AcDbEntity
  8
0
 48
0.5
100
AcDbLine
 10
583.4730433495733
 20
357.3007764129311
 30
0.0
 11
732.9377986288363
 21
357.3007764129311
 31
0.0
  0
LINE
  5
2243E
330
1F
100
AcDbEntity
  8
0
 48
0.5
100
AcDbLine
 10
586.1560789844416
 20
363.3007764129311
 30
0.0
 11
732.9377986288363
 21
363.3007764129311
 31
0.0
  0
LINE
  5
2243F
330
1F
100
AcDbEntity
  8
0
 48
0.5
100
AcDbLine
 10
527.7889487908715
 20
506.3007764129316
 30
0.0
 11
745.9377986288363
 21
506.3007764129316
 31
0.0
  0
LINE
  5
22440
330
1F
100
AcDbEntity
  8
0
 48
0.5
100
AcDbLine
 10
528.899255115873
 20
494.3007764129315
 30
0.0
 11
745.9377986288363
 21
494.3007764129315
 31
0.0
  0
LINE
  5
22441
330
1F
100
AcDbEntity
  8
0
 48
0.5
100
AcDbLine
 10
732.9377986288363
 20
581.3507764129308
 30
0.0
 11
752.9377986288364
 21
581.3507764129308
 31
0.0
  0
LINE
  5
22442
330
1F
100
AcDbEntity
  8
中心线
 48
0.5
100
AcDbLine
 10
735.8086775923234
 20
576.3507764129307
 30
0.0
 11
749.5348465221105
 21
576.3507764129307
 31
0.0
  0
LINE
  5
22443
330
1F
100
AcDbEntity
  8
0
 48
0.5
100
AcDbLine
 10
732.9377986288363
 20
346.3507764129308
 30
0.0
 11
752.9377986288364
 21
346.3507764129308
 31
0.0
  0
LINE
  5
22444
330
1F
100
AcDbEntity
  8
0
 48
0.5
100
AcDbLine
 10
752.9377986288364
 20
581.3507764129313
 30
0.0
 11
752.9377986288368
 21
344.8507764129308
 31
0.0
  0
LINE
  5
22445
330
1F
100
AcDbEntity
  8
0
 48
0.5
100
AcDbLine
 10
732.9377986288363
 20
581.3507764129313
 30
0.0
 11
732.9377986288363
 21
506.3007764129316
 31
0.0
  0
LINE
  5
22446
330
1F
100
AcDbEntity
  8
0
 48
0.5
100
AcDbLine
 10
732.9377986288368
 20
494.3007764129315
 30
0.0
 11
732.9377986288368
 21
344.8507764129308
 31
0.0
  0
LINE
  5
22447
330
1F
100
AcDbEntity
  8
0
 48
0.5
100
AcDbLine
 10
739.8377986288364
 20
494.2507764129311
 30
0.0
 11
746.0377986288363
 21
494.2507764129311
 31
0.0
  0
LINE
  5
22448
330
1F
100
AcDbEntity
  8
0
 48
0.5
100
AcDbLine
 10
739.8377986288364
 20
506.4507764129312
 30
0.0
 11
746.0377986288363
 21
506.4507764129311
 31
0.0
  0
LINE
  5
22449
330
1F
100
AcDbEntity
  8
中心线
 48
0.5
100
AcDbLine
 10
742.9377986288364
 20
338.031165100484
 30
0.0
 11
742.9377986288364
 21
588.0576079418324
 31
0.0
  0
LINE
  5
2244A
330
1F
100
AcDbEntity
  8
0
 48
0.5
100
AcDbLine
 10
745.9377986288363
 20
494.3007764129315
 30
0.0
 11
745.9377986288363
 21
506.3007764129315
 31
0.0
  0
LINE
  5
2244B
330
1F
100
AcDbEntity
  8
0
 48
0.5
100
AcDbLine
 10
746.0377986288363
 20
494.250776412931
 30
0.0
 11
746.0377986288363
 21
506.4507764129311
 31
0.0
  0
LINE
  5
2244C
330
1F
100
AcDbEntity
  8
0
 48
0.5
100
AcDbLine
 10
739.8377986288364
 20
494.2507764129312
 30
0.0
 11
739.837798628836
 21
494.3007764129315
 31
0.0
  0
LINE
  5
2244D
330
1F
100
AcDbEntity
  8
0
 48
0.5
100
AcDbLine
 10
739.8377986288364
 20
506.3007764129316
 30
0.0
 11
739.8377986288364
 21
506.4507764129312
 31
0.0
  0
CIRCLE
  5
2244F
330
1F
100
AcDbEntity
  8
0
 48
0.5
100
AcDbCircle
 10
742.9377986288364
 20
576.3507764129307
 30
0.0
 40
2.499999999999999
  0
CIRCLE
  5
22450
330
1F
100
AcDbEntity
  8
0
 48
0.5
100
AcDbCircle
 10
742.9377986288364
 20
576.3507764129307
 30
0.0
 40
2.099999999999999
  0
LINE
  5
225B4
330
1F
100
AcDbEntity
  8
0
 48
0.5
100
AcDbLine
 10
752.9377986288368
 20
344.8507764129308
 30
0.0
 11
752.9377986288368
 21
346.3507764129308
 31
0.0
  0
LINE
  5
225B5
330
1F
100
AcDbEntity
  8
0
 48
0.5
100
AcDbLine
 10
732.9377986288368
 20
344.8507764129308
 30
0.0
 11
732.9377986288368
 21
346.3507764129308
 31
0.0
  0
ARC
  5
225B6
330
1F
100
AcDbEntity
  8
0
 48
0.5
100
AcDbCircle
 10
742.9377986288364
 20
394.3507764129331
 30
0.0
 40
50.50000000000229
100
AcDbArc
 50
258.5788137250075
 51
281.4211862749925
  0
LINE
  5
225B7
330
1F
100
AcDbEntity
  8
0
 48
0.5
100
AcDbLine
 10
367.7786444416643
 20
344.8507764129308
 30
0.0
 11
367.7786444416643
 21
346.3507764129308
 31
0.0
  0
LINE
  5
225B8
330
1F
100
AcDbEntity
  8
0
 48
0.5
100
AcDbLine
 10
347.7786444416643
 20
344.8507764129308
 30
0.0
 11
347.7786444416643
 21
346.3507764129308
 31
0.0
  0
ARC
  5
225B9
330
1F
100
AcDbEntity
  8
0
 48
0.5
100
AcDbCircle
 10
357.7786444416638
 20
394.3507764129331
 30
0.0
 40
50.50000000000229
100
AcDbArc
 50
258.5788137250075
 51
281.4211862749925
  0
LINE
  5
225CD
330
1F
100
AcDbEntity
  8
0
 48
0.5
100
AcDbLine
 10
861.316384096076
 20
344.8507764129307
 30
0.0
 11
861.316384096076
 21
346.3507764129308
 31
0.0
  0
LINE
  5
225CE
330
1F
100
AcDbEntity
  8
0
 48
0.5
100
AcDbLine
 10
896.316384096076
 20
343.8507764129308
 30
0.0
 11
896.316384096076
 21
346.3507764129308
 31
0.0
  0
LINE
  5
225CF
330
1F
100
AcDbEntity
  8
0
 48
0.5
100
AcDbLine
 10
871.316384096076
 20
343.8507764129307
 30
0.0
 11
896.316384096076
 21
343.8507764129308
 31
0.0
  0
ARC
  5
225D0
330
1F
100
AcDbEntity
  8
0
 48
0.5
100
AcDbCircle
 10
871.316384096076
 20
394.3507764129308
 30
0.0
 40
50.5
100
AcDbArc
 50
258.5788137250075
 51
270.0
  0
ENDSEC
  0
SECTION
  2
OBJECTS
  0
DICTIONARY
  5
C
330
0
100
AcDbDictionary
281
     1
  3
ACAD_CIP_PREVIOUS_PRODUCT_INFO
350
20226A0
  3
ACAD_COLOR
350
6C
  3
ACAD_DETAILVIEWSTYLE
350
202269A
  3
ACAD_GROUP
350
D
  3
ACAD_LAYOUT
350
1A
  3
ACAD_MATERIAL
350
6B
  3
ACAD_MLEADERSTYLE
350
2022695
  3
ACAD_MLINESTYLE
350
17
  3
ACAD_PLOTSETTINGS
350
19
  3
ACAD_PLOTSTYLENAME
350
E
  3
ACAD_SCALELIST
350
2022683
  3
ACAD_SECTIONVIEWSTYLE
350
2022697
  3
ACAD_TABLESTYLE
350
92
  3
ACAD_VISUALSTYLE
350
202266A
  3
AcadDim
350
21832
  3
ACDB_RECOMPOSE_DATA
350
20226C7
  3
AcDbVariableDictionary
350
59
  0
DICTIONARY
  5
20601
330
2
100
AcDbDictionary
280
     1
281
     1
  3
ACAD_LAYERFILTERS
360
4264
  3
ACLYDICTIONARY
360
4263
  0
DICTIONARY
  5
20226A1
330
10
100
AcDbDictionary
280
     1
281
     1
  3
ADSK_XREC_LAYER_RECONCILED
360
20226A2
  0
DICTIONARY
  5
20226A3
330
40A
100
AcDbDictionary
280
     1
281
     1
  3
ADSK_XREC_LAYER_RECONCILED
360
20226A4
  0
DICTIONARY
  5
20226A5
330
40F
100
AcDbDictionary
280
     1
281
     1
  3
ADSK_XREC_LAYER_RECONCILED
360
20226A6
  0
DICTIONARY
  5
20226A7
330
410
100
AcDbDictionary
280
     1
281
     1
  3
ADSK_XREC_LAYER_RECONCILED
360
20226A8
  0
DICTIONARY
  5
20226A9
330
CAF2
100
AcDbDictionary
280
     1
281
     1
  3
ADSK_XREC_LAYER_RECONCILED
360
20226AA
  0
DICTIONARY
  5
206C5
330
1F
100
AcDbDictionary
280
     1
281
     1
  3
ACAD_SORTENTS
360
206C6
  0
DICTIONARY
  5
21CFD
330
21C65
100
AcDbDictionary
280
     1
281
     1
  3
ACAD_SORTENTS
360
21CFE
  0
DICTIONARY
  5
225D6
330
225D1
100
AcDbDictionary
280
     1
281
     1
  3
ACAD_SORTENTS
360
225D7
  0
XRECORD
  5
20226A0
102
{ACAD_REACTORS
330
C
102
}
330
C
100
AcDbXrecord
280
     1
300
ACD
300
2017
300
ACD_F_S
  0
DICTIONARY
  5
6C
102
{ACAD_REACTORS
330
C
102
}
330
C
100
AcDbDictionary
281
     1
  0
DICTIONARY
  5
202269A
102
{ACAD_REACTORS
330
C
102
}
330
C
100
AcDbDictionary
281
     1
  3
Metric50
350
202269B
  0
DICTIONARY
  5
D
102
{ACAD_REACTORS
330
C
102
}
330
C
100
AcDbDictionary
281
     1
  0
DICTIONARY
  5
1A
102
{ACAD_REACTORS
330
C
102
}
330
C
100
AcDbDictionary
281
     1
  3
Layout1
350
74
  3
Layout2
350
26
  3
Model
350
22
  0
DICTIONARY
  5
6B
102
{ACAD_REACTORS
330
C
102
}
330
C
100
AcDbDictionary
281
     1
  3
ByBlock
350
202265A
  3
ByLayer
350
2022652
  3
Global
350
2022662
  0
DICTIONARY
  5
2022695
102
{ACAD_REACTORS
330
C
102
}
330
C
100
AcDbDictionary
281
     1
  3
Standard
350
2022696
  0
DICTIONARY
  5
17
102
{ACAD_REACTORS
330
C
102
}
330
C
100
AcDbDictionary
281
     1
  3
Standard
350
18
  0
DICTIONARY
  5
19
102
{ACAD_REACTORS
330
C
102
}
330
C
100
AcDbDictionary
281
     1
  0
ACDBDICTIONARYWDFLT
  5
E
102
{ACAD_REACTORS
330
C
102
}
330
C
100
AcDbDictionary
281
     1
  3
Normal
350
F
100
AcDbDictionaryWithDefault
340
F
  0
DICTIONARY
  5
2022683
102
{ACAD_REACTORS
330
C
102
}
330
C
100
AcDbDictionary
281
     1
  3
A0
350
2022684
  3
A1
350
2022685
  3
A2
350
2022686
  3
A3
350
2022687
  3
A4
350
2022688
  3
A5
350
2022689
  3
A6
350
202268A
  3
A7
350
202268B
  3
A8
350
202268C
  3
A9
350
202268D
  3
B0
350
202268E
  3
B1
350
202268F
  3
B2
350
2022690
  3
B3
350
2022691
  3
B4
350
2022692
  3
B5
350
2022693
  3
B6
350
2022694
  0
DICTIONARY
  5
2022697
102
{ACAD_REACTORS
330
C
102
}
330
C
100
AcDbDictionary
281
     1
  3
Metric50
350
2022699
  0
DICTIONARY
  5
92
102
{ACAD_REACTORS
330
C
102
}
330
C
100
AcDbDictionary
281
     1
  3
STANDARD
350
1D6
  0
DICTIONARY
  5
202266A
102
{ACAD_REACTORS
330
C
102
}
330
C
100
AcDbDictionary
281
     1
  3
2dWireframe
350
2022670
  3
Basic
350
202266F
  3
Brighten
350
2022676
  3
ColorChange
350
202267A
  3
Conceptual
350
2022673
  3
Dim
350
2022675
  3
EdgeColorOff
350
2022682
  3
Facepattern
350
2022679
  3
Flat
350
202266B
  3
FlatWithEdges
350
202266C
  3
Gouraud
350
202266D
  3
GouraudWithEdges
350
202266E
  3
Hidden
350
2022672
  3
JitterOff
350
2022680
  3
Linepattern
350
2022678
  3
OverhangOff
350
2022681
  3
Realistic
350
2022674
  3
Shaded
350
202267F
  3
Shaded with edges
350
202267E
  3
Shades of Gray
350
202267B
  3
Sketchy
350
202267C
  3
Thicken
350
2022677
  3
Wireframe
350
2022671
  3
X-Ray
350
202267D
  0
XRECORD
  5
21832
102
{ACAD_REACTORS
330
C
102
}
330
C
100
AcDbXrecord
280
     1
 90
   990106
  3

 60
     0
 61
     0
 62
     1
 63
     3
 64
     0
 65
     0
 66
     0
 67
     3
 68
     1
 69
     0
 70
     0
 71
     0
 72
     0
 40
51.92405077377407
170
     0
340
0
  0
XRECORD
  5
20226C7
102
{ACAD_REACTORS
330
C
102
}
330
C
100
AcDbXrecord
280
     1
 90
        1
330
1D6
330
2022699
330
202269B
  0
DICTIONARY
  5
59
102
{ACAD_REACTORS
330
C
102
}
330
C
100
AcDbDictionary
281
     1
  3
CANNOSCALE
350
20226BD
  3
CMLEADERSTYLE
350
20226B9
  3
CTABLESTYLE
350
266
  3
CVIEWDETAILSTYLE
350
20226BA
  3
CVIEWSECTIONSTYLE
350
20226BB
  3
DIMASSOC
350
19F0C
  3
HALOGAP
350
19F0D
  3
HIDETEXT
350
19F10
  3
INDEXCTL
350
19F0E
  3
LAYEREVAL
350
20226BF
  3
LAYERNOTIFY
350
20226C0
  3
LIGHTINGUNITS
350
20226BE
  3
MSLTSCALE
350
20226BC
  3
PROJECTNAME
350
20F06
  0
DICTIONARY
  5
4264
102
{ACAD_REACTORS
330
20601
102
}
330
20601
100
AcDbDictionary
281
     1
  0
DICTIONARY
  5
4263
102
{ACAD_REACTORS
330
20601
102
}
330
20601
100
AcDbDictionary
281
     1
  0
XRECORD
  5
20226A2
102
{ACAD_REACTORS
330
20226A1
102
}
330
20226A1
100
AcDbXrecord
280
     1
290
     1
  0
XRECORD
  5
20226A4
102
{ACAD_REACTORS
330
20226A3
102
}
330
20226A3
100
AcDbXrecord
280
     1
290
     1
  0
XRECORD
  5
20226A6
102
{ACAD_REACTORS
330
20226A5
102
}
330
20226A5
100
AcDbXrecord
280
     1
290
     1
  0
XRECORD
  5
20226A8
102
{ACAD_REACTORS
330
20226A7
102
}
330
20226A7
100
AcDbXrecord
280
     1
290
     1
  0
XRECORD
  5
20226AA
102
{ACAD_REACTORS
330
20226A9
102
}
330
20226A9
100
AcDbXrecord
280
     1
290
     1
  0
SORTENTSTABLE
  5
206C6
102
{ACAD_REACTORS
330
206C5
102
}
330
206C5
100
AcDbSortentsTable
330
1F
  0
SORTENTSTABLE
  5
21CFE
102
{ACAD_REACTORS
330
21CFD
102
}
330
21CFD
100
AcDbSortentsTable
330
21C65
  0
SORTENTSTABLE
  5
225D7
102
{ACAD_REACTORS
330
225D6
102
}
330
225D6
100
AcDbSortentsTable
330
225D1
  0
ACDBDETAILVIEWSTYLE
  5
202269B
102
{ACAD_XDICTIONARY
360
20226C5
102
}
102
{ACAD_REACTORS
330
202269A
102
}
330
202269A
100
AcDbModelDocViewStyle
 70
     0
  3
Metric50
290
     0
100
AcDbDetailViewStyle
 70
     0
 71
     0
 90
        3
 71
     1
340
11
 62
   256
 40
5.0
340
0
 62
   256
 40
5.0
300

 40
0.0
280
     1
 71
     2
340
16
 90
       25
 62
   256
 71
     3
340
11
 62
   256
 40
5.0
 90
        0
 40
15.0
 90
        1
300
%<\AcVar ViewDetailId>% (%<\AcVar ViewScale \f "%sn">%)
 71
     4
340
16
 90
       25
 62
   256
340
16
 90
       25
 62
   256
280
     0
  0
LAYOUT
  5
74
102
{ACAD_REACTORS
330
1A
102
}
330
1A
100
AcDbPlotSettings
  1

  2
\\ADSCCNDC1\hq601xrx1
  4

  6

 40
0.0
 41
0.0
 42
0.0
 43
0.0
 44
0.0
 45
0.0
 46
0.0
 47
0.0
 48
0.0
 49
0.0
140
0.0
141
0.0
142
1.0
143
1.0
 70
   688
 72
     0
 73
     0
 74
     5
  7

 75
    16
147
1.0
 76
     0
 77
     2
 78
   300
148
0.0
149
0.0
100
AcDbLayout
  1
Layout1
 70
     1
 71
     1
 10
0.0
 20
0.0
 11
420.0
 21
297.0
 12
0.0
 22
0.0
 32
0.0
 14
1.000000000000000E+20
 24
1.000000000000000E+20
 34
1.000000000000000E+20
 15
-1.000000000000000E+20
 25
-1.000000000000000E+20
 35
-1.000000000000000E+20
146
0.0
 13
0.0
 23
0.0
 33
0.0
 16
1.0
 26
0.0
 36
0.0
 17
0.0
 27
1.0
 37
0.0
 76
     0
330
73
  0
LAYOUT
  5
26
102
{ACAD_REACTORS
330
1A
102
}
330
1A
100
AcDbPlotSettings
  1

  2
none_device
  4

  6

 40
0.0
 41
0.0
 42
0.0
 43
0.0
 44
0.0
 45
0.0
 46
0.0
 47
0.0
 48
0.0
 49
0.0
140
0.0
141
0.0
142
1.0
143
1.0
 70
   688
 72
     0
 73
     0
 74
     5
  7

 75
    16
147
1.0
 76
     0
 77
     2
 78
   300
148
0.0
149
0.0
100
AcDbLayout
  1
Layout2
 70
     1
 71
     2
 10
0.0
 20
0.0
 11
0.0
 21
0.0
 12
0.0
 22
0.0
 32
0.0
 14
0.0
 24
0.0
 34
0.0
 15
0.0
 25
0.0
 35
0.0
146
0.0
 13
0.0
 23
0.0
 33
0.0
 16
1.0
 26
0.0
 36
0.0
 17
0.0
 27
1.0
 37
0.0
 76
     0
330
23
  0
LAYOUT
  5
22
102
{ACAD_REACTORS
330
1A
102
}
330
1A
100
AcDbPlotSettings
  1

  2
Adobe PDF
  4
A4
  6

 40
0.0
 41
0.0423333333333744
 42
0.0635000000000048
 43
0.0
 44
210.0
 45
297.0
 46
0.0
 47
0.0
 48
0.0
 49
0.0
140
0.0
141
0.0
142
1.0
143
10.05472155908891
 70
 11952
 72
     1
 73
     1
 74
     0
  7

 75
     0
147
0.0994557625612273
 76
     0
 77
     2
 78
   300
148
-62.04520941299825
149
-114.2038463351312
100
AcDbLayout
  1
Model
 70
     1
 71
     0
 10
0.0
 20
0.0
 11
0.0
 21
0.0
 12
0.0
 22
0.0
 32
0.0
 14
0.0
 24
0.0
 34
0.0
 15
0.0
 25
0.0
 35
0.0
146
0.0
 13
0.0
 23
0.0
 33
0.0
 16
1.0
 26
0.0
 36
0.0
 17
0.0
 27
1.0
 37
0.0
 76
     0
330
1F
331
22648
  0
MATERIAL
  5
202265A
102
{ACAD_XDICTIONARY
360
202265B
102
}
102
{ACAD_REACTORS
330
6B
102
}
330
6B
100
AcDbMaterial
  1
ByBlock
 72
     0
 43
0.0008202099737533
 43
0.0
 43
0.0
 43
0.0
 43
0.0
 43
0.0008202099737533
 43
0.0
 43
0.0
 43
0.0
 43
0.0
 43
1.0
 43
0.0
 43
0.0
 43
0.0
 43
0.0
 43
1.0
 77
     0
 47
0.0008202099737533
 47
0.0
 47
0.0
 47
0.0
 47
0.0
 47
0.0008202099737533
 47
0.0
 47
0.0
 47
0.0
 47
0.0
 47
1.0
 47
0.0
 47
0.0
 47
0.0
 47
0.0
 47
1.0
171
     0
 49
0.0008202099737533
 49
0.0
 49
0.0
 49
0.0
 49
0.0
 49
0.0008202099737533
 49
0.0
 49
0.0
 49
0.0
 49
0.0
 49
1.0
 49
0.0
 49
0.0
 49
0.0
 49
0.0
 49
1.0
175
     0
142
0.0008202099737533
142
0.0
142
0.0
142
0.0
142
0.0
142
0.0008202099737533
142
0.0
142
0.0
142
0.0
142
0.0
142
1.0
142
0.0
142
0.0
142
0.0
142
0.0
142
1.0
179
     0
144
0.0008202099737533
144
0.0
144
0.0
144
0.0
144
0.0
144
0.0008202099737533
144
0.0
144
0.0
144
0.0
144
0.0
144
1.0
144
0.0
144
0.0
144
0.0
144
0.0
144
1.0
147
0.0008202099737533
147
0.0
147
0.0
147
0.0
147
0.0
147
0.0008202099737533
147
0.0
147
0.0
147
0.0
147
0.0
147
1.0
147
0.0
147
0.0
147
0.0
147
0.0
147
1.0
  0
MATERIAL
  5
2022652
102
{ACAD_XDICTIONARY
360
2022653
102
}
102
{ACAD_REACTORS
330
6B
102
}
330
6B
100
AcDbMaterial
  1
ByLayer
 72
     0
 43
0.0008202099737533
 43
0.0
 43
0.0
 43
0.0
 43
0.0
 43
0.0008202099737533
 43
0.0
 43
0.0
 43
0.0
 43
0.0
 43
1.0
 43
0.0
 43
0.0
 43
0.0
 43
0.0
 43
1.0
 77
     0
 47
0.0008202099737533
 47
0.0
 47
0.0
 47
0.0
 47
0.0
 47
0.0008202099737533
 47
0.0
 47
0.0
 47
0.0
 47
0.0
 47
1.0
 47
0.0
 47
0.0
 47
0.0
 47
0.0
 47
1.0
171
     0
 49
0.0008202099737533
 49
0.0
 49
0.0
 49
0.0
 49
0.0
 49
0.0008202099737533
 49
0.0
 49
0.0
 49
0.0
 49
0.0
 49
1.0
 49
0.0
 49
0.0
 49
0.0
 49
0.0
 49
1.0
175
     0
142
0.0008202099737533
142
0.0
142
0.0
142
0.0
142
0.0
142
0.0008202099737533
142
0.0
142
0.0
142
0.0
142
0.0
142
1.0
142
0.0
142
0.0
142
0.0
142
0.0
142
1.0
179
     0
144
0.0008202099737533
144
0.0
144
0.0
144
0.0
144
0.0
144
0.0008202099737533
144
0.0
144
0.0
144
0.0
144
0.0
144
1.0
144
0.0
144
0.0
144
0.0
144
0.0
144
1.0
147
0.0008202099737533
147
0.0
147
0.0
147
0.0
147
0.0
147
0.0008202099737533
147
0.0
147
0.0
147
0.0
147
0.0
147
1.0
147
0.0
147
0.0
147
0.0
147
0.0
147
1.0
  0
MATERIAL
  5
2022662
102
{ACAD_XDICTIONARY
360
2022663
102
}
102
{ACAD_REACTORS
330
6B
102
}
330
6B
100
AcDbMaterial
  1
Global
 72
     0
 43
0.0008202099737533
 43
0.0
 43
0.0
 43
0.0
 43
0.0
 43
0.0008202099737533
 43
0.0
 43
0.0
 43
0.0
 43
0.0
 43
1.0
 43
0.0
 43
0.0
 43
0.0
 43
0.0
 43
1.0
 77
     0
 47
0.0008202099737533
 47
0.0
 47
0.0
 47
0.0
 47
0.0
 47
0.0008202099737533
 47
0.0
 47
0.0
 47
0.0
 47
0.0
 47
1.0
 47
0.0
 47
0.0
 47
0.0
 47
0.0
 47
1.0
171
     0
 49
0.0008202099737533
 49
0.0
 49
0.0
 49
0.0
 49
0.0
 49
0.0008202099737533
 49
0.0
 49
0.0
 49
0.0
 49
0.0
 49
1.0
 49
0.0
 49
0.0
 49
0.0
 49
0.0
 49
1.0
175
     0
142
0.0008202099737533
142
0.0
142
0.0
142
0.0
142
0.0
142
0.0008202099737533
142
0.0
142
0.0
142
0.0
142
0.0
142
1.0
142
0.0
142
0.0
142
0.0
142
0.0
142
1.0
179
     0
144
0.0008202099737533
144
0.0
144
0.0
144
0.0
144
0.0
144
0.0008202099737533
144
0.0
144
0.0
144
0.0
144
0.0
144
1.0
144
0.0
144
0.0
144
0.0
144
0.0
144
1.0
147
0.0008202099737533
147
0.0
147
0.0
147
0.0
147
0.0
147
0.0008202099737533
147
0.0
147
0.0
147
0.0
147
0.0
147
1.0
147
0.0
147
0.0
147
0.0
147
0.0
147
1.0
  0
MLEADERSTYLE
  5
2022696
102
{ACAD_REACTORS
330
2022695
102
}
330
2022695
100
AcDbMLeaderStyle
179
     2
170
     2
171
     1
172
     0
 90
        2
 40
0.0
 41
0.0
173
     1
 91
-1056964608
340
14
 92
       -2
290
     1
 42
2.0
291
     1
 43
0.36
  3
Standard
 44
4.0
300

342
11
174
     1
178
     6
175
     1
176
     0
 93
-1056964608
 45
4.0
292
     0
297
     0
 46
4.0
 94
-1056964608
 47
1.0
 49
1.0
140
1.0
293
     1
141
0.0
294
     1
177
     0
142
1.0
295
     1
296
     0
143
0.125
271
     0
272
     9
273
     9
298
     1
  0
MLINESTYLE
  5
18
102
{ACAD_REACTORS
330
17
102
}
330
17
100
AcDbMlineStyle
  2
STANDARD
 70
     0
  3

 62
   256
 51
90.0
 52
90.0
 71
     2
 49
0.5
 62
   256
  6
BYLAYER
 49
-0.5
 62
   256
  6
BYLAYER
  0
ACDBPLACEHOLDER
  5
F
102
{ACAD_REACTORS
330
E
102
}
330
E
  0
SCALE
  5
2022684
102
{ACAD_REACTORS
330
2022683
102
}
330
2022683
100
AcDbScale
 70
     0
300
1:1
140
1.0
141
1.0
290
     1
  0
SCALE
  5
2022685
102
{ACAD_REACTORS
330
2022683
102
}
330
2022683
100
AcDbScale
 70
     0
300
1:2
140
1.0
141
2.0
290
     0
  0
SCALE
  5
2022686
102
{ACAD_REACTORS
330
2022683
102
}
330
2022683
100
AcDbScale
 70
     0
300
1:4
140
1.0
141
4.0
290
     0
  0
SCALE
  5
2022687
102
{ACAD_REACTORS
330
2022683
102
}
330
2022683
100
AcDbScale
 70
     0
300
1:5
140
1.0
141
5.0
290
     0
  0
SCALE
  5
2022688
102
{ACAD_REACTORS
330
2022683
102
}
330
2022683
100
AcDbScale
 70
     0
300
1:8
140
1.0
141
8.0
290
     0
  0
SCALE
  5
2022689
102
{ACAD_REACTORS
330
2022683
102
}
330
2022683
100
AcDbScale
 70
     0
300
1:10
140
1.0
141
10.0
290
     0
  0
SCALE
  5
202268A
102
{ACAD_REACTORS
330
2022683
102
}
330
2022683
100
AcDbScale
 70
     0
300
1:16
140
1.0
141
16.0
290
     0
  0
SCALE
  5
202268B
102
{ACAD_REACTORS
330
2022683
102
}
330
2022683
100
AcDbScale
 70
     0
300
1:20
140
1.0
141
20.0
290
     0
  0
SCALE
  5
202268C
102
{ACAD_REACTORS
330
2022683
102
}
330
2022683
100
AcDbScale
 70
     0
300
1:30
140
1.0
141
30.0
290
     0
  0
SCALE
  5
202268D
102
{ACAD_REACTORS
330
2022683
102
}
330
2022683
100
AcDbScale
 70
     0
300
1:40
140
1.0
141
40.0
290
     0
  0
SCALE
  5
202268E
102
{ACAD_REACTORS
330
2022683
102
}
330
2022683
100
AcDbScale
 70
     0
300
1:50
140
1.0
141
50.0
290
     0
  0
SCALE
  5
202268F
102
{ACAD_REACTORS
330
2022683
102
}
330
2022683
100
AcDbScale
 70
     0
300
1:100
140
1.0
141
100.0
290
     0
  0
SCALE
  5
2022690
102
{ACAD_REACTORS
330
2022683
102
}
330
2022683
100
AcDbScale
 70
     0
300
2:1
140
2.0
141
1.0
290
     0
  0
SCALE
  5
2022691
102
{ACAD_REACTORS
330
2022683
102
}
330
2022683
100
AcDbScale
 70
     0
300
4:1
140
4.0
141
1.0
290
     0
  0
SCALE
  5
2022692
102
{ACAD_REACTORS
330
2022683
102
}
330
2022683
100
AcDbScale
 70
     0
300
8:1
140
8.0
141
1.0
290
     0
  0
SCALE
  5
2022693
102
{ACAD_REACTORS
330
2022683
102
}
330
2022683
100
AcDbScale
 70
     0
300
10:1
140
10.0
141
1.0
290
     0
  0
SCALE
  5
2022694
102
{ACAD_REACTORS
330
2022683
102
}
330
2022683
100
AcDbScale
 70
     0
300
100:1
140
100.0
141
1.0
290
     0
  0
ACDBSECTIONVIEWSTYLE
  5
2022699
102
{ACAD_XDICTIONARY
360
20226C3
102
}
102
{ACAD_REACTORS
330
2022697
102
}
330
2022697
100
AcDbModelDocViewStyle
 70
     0
  3
Metric50
290
     0
100
AcDbSectionViewStyle
 70
     0
 71
     0
 90
      102
 71
     1
340
11
 62
   256
 40
5.0
340
0
340
0
 62
   256
 40
5.0
300
I, O, Q, S, X, Z
 40
10.0
 90
        0
 40
2.5
 90
        0
 71
     2
340
16
 90
       25
 62
   256
340
16
 90
       50
 62
   256
 40
5.0
 40
2.5
 40
5.0
 71
     3
340
11
 62
   256
 40
5.0
 90
        0
 40
15.0
 90
        1
300
%<\AcVar ViewSectionStartId>%-%<\AcVar ViewSectionEndId>% (%<\AcVar ViewScale \f "%sn">%)
 71
     4
 62
   256
 62
   257
300
ANSI31
 40
1.0
 90
        0
290
     0
290
     0
 90
        6
 40
0.0
 40
1.570796326794896
 40
0.2617993877991494
 40
1.308996938995747
 40
-0.2617993877991494
 40
1.832595714594046
  0
TABLESTYLE
  5
1D6
102
{ACAD_XDICTIONARY
360
20226C1
102
}
102
{ACAD_REACTORS
330
92
102
}
330
92
100
AcDbTableStyle
280
     0
  3
Standard
 70
     0
 71
     0
 40
1.5
 41
1.5
280
     0
281
     0
  7
Standard
140
4.5
170
     2
 62
     0
 63
     7
283
     0
 90
      512
 91
        0
  1

274
    -2
284
     1
 64
     0
275
    -2
285
     1
 65
     0
276
    -2
286
     1
 66
     0
277
    -2
287
     1
 67
     0
278
    -2
288
     1
 68
     0
279
    -2
289
     1
 69
     0
  7
Standard
140
6.0
170
     5
 62
     0
 63
     7
283
     0
 90
      512
 91
        0
  1

274
    -2
284
     1
 64
     0
275
    -2
285
     1
 65
     0
276
    -2
286
     1
 66
     0
277
    -2
287
     1
 67
     0
278
    -2
288
     1
 68
     0
279
    -2
289
     1
 69
     0
  7
Standard
140
4.5
170
     5
 62
     0
 63
     7
283
     0
 90
      512
 91
        0
  1

274
    -2
284
     1
 64
     0
275
    -2
285
     1
 65
     0
276
    -2
286
     1
 66
     0
277
    -2
287
     1
 67
     0
278
    -2
288
     1
 68
     0
279
    -2
289
     1
 69
     0
  0
VISUALSTYLE
  5
2022670
102
{ACAD_REACTORS
330
202266A
102
}
330
202266A
100
AcDbVisualStyle
  2
2dWireframe
 70
     4
177
     3
291
     0
 70
    58
 90
        0
176
     1
 90
        2
176
     1
 90
        0
176
     1
 90
        0
176
     1
 40
0.6
176
     1
 40
30.0
176
     1
 62
     7
420
 16777215
176
     1
 90
        1
176
     1
 90
        4
176
     1
 62
     7
176
     1
 62
   257
176
     1
 90
        1
176
     1
 90
        1
176
     1
 40
1.0
176
     1
 90
        0
176
     1
 62
   257
176
     1
 40
1.0
176
     1
 90
        1
176
     1
 90
        6
176
     1
 90
        2
176
     1
 62
     7
176
     1
 90
        5
176
     1
 90
        0
176
     1
 90
        0
176
     1
290
     0
176
     1
 90
        1
176
     1
 40
0.0
176
     1
 90
        0
176
     1
290
     1
176
     1
290
     1
176
     1
290
     0
176
     1
290
     0
176
     1
290
     0
176
     1
290
     0
176
     1
290
     0
176
     1
290
     0
176
     1
290
     0
176
     1
 90
       50
176
     1
 40
0.0
176
     1
 40
1.0
176
     1
 90
        0
176
     1
 62
    18
420
        0
176
     1
 90
       50
176
     1
 90
        3
176
     1
 62
     5
420
      255
176
     1
290
     0
176
     1
 90
       50
176
     1
 90
       50
176
     1
 90
       50
176
     1
290
     0
176
     1
 90
       50
176
     1
 62
   256
176
     0
 40
1.0
176
     0
 90
        2
176
     1
  1
strokes_ogs.tif
176
     1
290
     0
176
     1
 40
1.0
176
     1
 40
1.0
176
     1
  0
VISUALSTYLE
  5
202266F
102
{ACAD_REACTORS
330
202266A
102
}
330
202266A
100
AcDbVisualStyle
  2
Basic
 70
     7
177
     3
291
     1
 70
    58
 90
        1
176
     1
 90
        0
176
     1
 90
        1
176
     1
 90
        0
176
     1
 40
0.6
176
     1
 40
30.0
176
     1
 62
     7
420
 16777215
176
     1
 90
        0
176
     1
 90
        4
176
     1
 62
     7
176
     1
 62
   257
176
     1
 90
        1
176
     1
 90
        1
176
     1
 40
1.0
176
     1
 90
        8
176
     1
 62
     7
176
     1
 40
1.0
176
     1
 90
        1
176
     1
 90
        6
176
     1
 90
        2
176
     1
 62
     7
176
     1
 90
        5
176
     1
 90
        0
176
     1
 90
        0
176
     1
290
     0
176
     1
 90
        1
176
     1
 40
0.0
176
     1
 90
        0
176
     1
290
     0
176
     1
290
     1
176
     1
290
     1
176
     1
290
     0
176
     1
290
     0
176
     1
290
     0
176
     1
290
     0
176
     1
290
     0
176
     1
290
     0
176
     1
 90
       50
176
     1
 40
0.0
176
     1
 40
1.0
176
     1
 90
        0
176
     1
 62
    18
420
        0
176
     1
 90
       50
176
     1
 90
        3
176
     1
 62
     5
420
      255
176
     1
290
     0
176
     1
 90
       50
176
     1
 90
       50
176
     1
 90
       50
176
     1
290
     0
176
     1
 90
       50
176
     1
 62
   256
176
     0
 40
1.0
176
     0
 90
        2
176
     1
  1
strokes_ogs.tif
176
     1
290
     0
176
     1
 40
1.0
176
     1
 40
1.0
176
     1
  0
VISUALSTYLE
  5
2022676
102
{ACAD_REACTORS
330
202266A
102
}
330
202266A
100
AcDbVisualStyle
  2
Brighten
 70
    12
177
     3
291
     1
 70
    58
 90
        2
176
     1
 90
        2
176
     1
 90
        0
176
     1
 90
        0
176
     1
 40
0.6
176
     1
 40
30.0
176
     1
 62
     7
420
 16777215
176
     1
 90
        1
176
     1
 90
        4
176
     1
 62
     7
176
     1
 62
   257
176
     1
 90
        1
176
     1
 90
        1
176
     1
 40
1.0
176
     1
 90
        8
176
     1
 62
     7
176
     1
 40
1.0
176
     1
 90
        1
176
     1
 90
        6
176
     1
 90
        2
176
     1
 62
     7
176
     1
 90
        5
176
     1
 90
        0
176
     1
 90
        0
176
     1
290
     0
176
     1
 90
        1
176
     1
 40
50.0
176
     1
 90
        0
176
     1
290
     0
176
     1
290
     1
176
     1
290
     1
176
     1
290
     0
176
     1
290
     0
176
     1
290
     0
176
     1
290
     0
176
     1
290
     0
176
     1
290
     0
176
     1
 90
       50
176
     1
 40
0.0
176
     1
 40
1.0
176
     1
 90
        0
176
     1
 62
    18
420
        0
176
     1
 90
       50
176
     1
 90
        3
176
     1
 62
     5
420
      255
176
     1
290
     0
176
     1
 90
       50
176
     1
 90
       50
176
     1
 90
       50
176
     1
290
     0
176
     1
 90
       50
176
     1
 62
   256
176
     0
 40
1.0
176
     0
 90
        2
176
     1
  1
strokes_ogs.tif
176
     1
290
     0
176
     1
 40
1.0
176
     1
 40
1.0
176
     1
  0
VISUALSTYLE
  5
202267A
102
{ACAD_REACTORS
330
202266A
102
}
330
202266A
100
AcDbVisualStyle
  2
ColorChange
 70
    16
177
     3
291
     1
 70
    58
 90
        2
176
     1
 90
        2
176
     1
 90
        3
176
     1
 90
        0
176
     1
 40
0.6
176
     1
 40
30.0
176
     1
 62
     8
420
  8421504
176
     1
 90
        1
176
     1
 90
        4
176
     1
 62
     7
176
     1
 62
   257
176
     1
 90
        1
176
     1
 90
        1
176
     1
 40
1.0
176
     1
 90
        8
176
     1
 62
     8
420
  8421504
176
     1
 40
1.0
176
     1
 90
        1
176
     1
 90
        6
176
     1
 90
        2
176
     1
 62
     7
176
     1
 90
        5
176
     1
 90
        0
176
     1
 90
        0
176
     1
290
     0
176
     1
 90
        1
176
     1
 40
0.0
176
     1
 90
        0
176
     1
290
     0
176
     1
290
     1
176
     1
290
     1
176
     1
290
     0
176
     1
290
     0
176
     1
290
     0
176
     1
290
     0
176
     1
290
     0
176
     1
290
     0
176
     1
 90
       50
176
     1
 40
0.0
176
     1
 40
1.0
176
     1
 90
        0
176
     1
 62
    18
420
        0
176
     1
 90
       50
176
     1
 90
        3
176
     1
 62
     5
420
      255
176
     1
290
     0
176
     1
 90
       50
176
     1
 90
       50
176
     1
 90
       50
176
     1
290
     0
176
     1
 90
       50
176
     1
 62
   256
176
     0
 40
1.0
176
     0
 90
        2
176
     1
  1
strokes_ogs.tif
176
     1
290
     0
176
     1
 40
1.0
176
     1
 40
1.0
176
     1
  0
VISUALSTYLE
  5
2022673
102
{ACAD_REACTORS
330
202266A
102
}
330
202266A
100
AcDbVisualStyle
  2
Conceptual
 70
     9
177
     3
291
     0
 70
    58
 90
        3
176
     1
 90
        2
176
     1
 90
        0
176
     1
 90
        0
176
     1
 40
0.6
176
     1
 40
30.0
176
     1
 62
     7
420
 16777215
176
     1
 90
        2
176
     1
 90
        2
176
     1
 62
     7
176
     1
 62
   257
176
     1
 90
        1
176
     1
 90
        1
176
     1
 40
179.0
176
     1
 90
        8
176
     1
 62
     7
176
     1
 40
1.0
176
     1
 90
        1
176
     1
 90
        6
176
     1
 90
        2
176
     1
 62
     7
176
     1
 90
        3
176
     1
 90
        0
176
     1
 90
        0
176
     1
290
     0
176
     1
 90
        1
176
     1
 40
0.0
176
     1
 90
        0
176
     1
290
     0
176
     1
290
     1
176
     1
290
     1
176
     1
290
     0
176
     1
290
     0
176
     1
290
     0
176
     1
290
     0
176
     1
290
     0
176
     1
290
     0
176
     1
 90
       50
176
     1
 40
0.0
176
     1
 40
1.0
176
     1
 90
        0
176
     1
 62
    18
420
        0
176
     1
 90
       50
176
     1
 90
        3
176
     1
 62
     5
420
      255
176
     1
290
     0
176
     1
 90
       50
176
     1
 90
       50
176
     1
 90
       50
176
     1
290
     0
176
     1
 90
       50
176
     1
 62
   256
176
     0
 40
1.0
176
     0
 90
        2
176
     1
  1
strokes_ogs.tif
176
     1
290
     0
176
     1
 40
1.0
176
     1
 40
1.0
176
     1
  0
VISUALSTYLE
  5
2022675
102
{ACAD_REACTORS
330
202266A
102
}
330
202266A
100
AcDbVisualStyle
  2
Dim
 70
    11
177
     3
291
     1
 70
    58
 90
        2
176
     1
 90
        2
176
     1
 90
        0
176
     1
 90
        0
176
     1
 40
0.6
176
     1
 40
30.0
176
     1
 62
     7
420
 16777215
176
     1
 90
        1
176
     1
 90
        4
176
     1
 62
     7
176
     1
 62
   257
176
     1
 90
        1
176
     1
 90
        1
176
     1
 40
1.0
176
     1
 90
        8
176
     1
 62
     7
176
     1
 40
1.0
176
     1
 90
        1
176
     1
 90
        6
176
     1
 90
        2
176
     1
 62
     7
176
     1
 90
        5
176
     1
 90
        0
176
     1
 90
        0
176
     1
290
     0
176
     1
 90
        1
176
     1
 40
-50.0
176
     1
 90
        0
176
     1
290
     0
176
     1
290
     1
176
     1
290
     1
176
     1
290
     0
176
     1
290
     0
176
     1
290
     0
176
     1
290
     0
176
     1
290
     0
176
     1
290
     0
176
     1
 90
       50
176
     1
 40
0.0
176
     1
 40
1.0
176
     1
 90
        0
176
     1
 62
    18
420
        0
176
     1
 90
       50
176
     1
 90
        3
176
     1
 62
     5
420
      255
176
     1
290
     0
176
     1
 90
       50
176
     1
 90
       50
176
     1
 90
       50
176
     1
290
     0
176
     1
 90
       50
176
     1
 62
   256
176
     0
 40
1.0
176
     0
 90
        2
176
     1
  1
strokes_ogs.tif
176
     1
290
     0
176
     1
 40
1.0
176
     1
 40
1.0
176
     1
  0
VISUALSTYLE
  5
2022682
102
{ACAD_REACTORS
330
202266A
102
}
330
202266A
100
AcDbVisualStyle
  2
EdgeColorOff
 70
    22
177
     3
291
     1
 70
    58
 90
        2
176
     0
 90
        2
176
     0
 90
        0
176
     0
 90
        0
176
     0
 40
0.6
176
     0
 40
30.0
176
     0
 62
     7
420
 16777215
176
     0
 90
        1
176
     0
 90
        4
176
     0
 62
     7
176
     0
 62
   257
176
     0
 90
        1
176
     0
 90
        1
176
     0
 40
1.0
176
     0
 90
        8
176
     2
 62
     7
176
     0
 40
1.0
176
     0
 90
        1
176
     0
 90
        6
176
     0
 90
        2
176
     0
 62
     7
176
     0
 90
        5
176
     0
 90
        0
176
     0
 90
        0
176
     0
290
     0
176
     0
 90
        1
176
     0
 40
0.0
176
     0
 90
        0
176
     0
290
     0
176
     0
290
     1
176
     0
290
     1
176
     0
290
     0
176
     0
290
     0
176
     0
290
     0
176
     0
290
     0
176
     0
290
     0
176
     0
290
     0
176
     0
 90
       50
176
     0
 40
0.0
176
     0
 40
1.0
176
     0
 90
        0
176
     0
 62
    18
420
        0
176
     0
 90
       50
176
     0
 90
        3
176
     0
 62
     5
420
      255
176
     0
290
     0
176
     0
 90
       50
176
     0
 90
       50
176
     0
 90
       50
176
     0
290
     0
176
     0
 90
       50
176
     0
 62
   256
176
     0
 40
1.0
176
     0
 90
        2
176
     0
  1
strokes_ogs.tif
176
     0
290
     0
176
     0
 40
1.0
176
     0
 40
1.0
176
     0
  0
VISUALSTYLE
  5
2022679
102
{ACAD_REACTORS
330
202266A
102
}
330
202266A
100
AcDbVisualStyle
  2
Facepattern
 70
    15
177
     3
291
     1
 70
    58
 90
        2
176
     1
 90
        2
176
     1
 90
        0
176
     1
 90
        0
176
     1
 40
0.6
176
     1
 40
30.0
176
     1
 62
     7
420
 16777215
176
     1
 90
        1
176
     1
 90
        4
176
     1
 62
     7
176
     1
 62
   257
176
     1
 90
        1
176
     1
 90
        1
176
     1
 40
1.0
176
     1
 90
        8
176
     1
 62
     7
176
     1
 40
1.0
176
     1
 90
        1
176
     1
 90
        6
176
     1
 90
        2
176
     1
 62
     7
176
     1
 90
        5
176
     1
 90
        0
176
     1
 90
        0
176
     1
290
     0
176
     1
 90
        1
176
     1
 40
0.0
176
     1
 90
        0
176
     1
290
     0
176
     1
290
     1
176
     1
290
     1
176
     1
290
     0
176
     1
290
     0
176
     1
290
     0
176
     1
290
     0
176
     1
290
     0
176
     1
290
     0
176
     1
 90
       50
176
     1
 40
0.0
176
     1
 40
1.0
176
     1
 90
        0
176
     1
 62
    18
420
        0
176
     1
 90
       50
176
     1
 90
        3
176
     1
 62
     5
420
      255
176
     1
290
     0
176
     1
 90
       50
176
     1
 90
       50
176
     1
 90
       50
176
     1
290
     0
176
     1
 90
       50
176
     1
 62
   256
176
     0
 40
1.0
176
     0
 90
        2
176
     1
  1
strokes_ogs.tif
176
     1
290
     0
176
     1
 40
1.0
176
     1
 40
1.0
176
     1
  0
VISUALSTYLE
  5
202266B
102
{ACAD_REACTORS
330
202266A
102
}
330
202266A
100
AcDbVisualStyle
  2
Flat
 70
     0
177
     3
291
     1
 70
    58
 90
        2
176
     1
 90
        1
176
     1
 90
        1
176
     1
 90
        2
176
     1
 40
0.6
176
     1
 40
30.0
176
     1
 62
     7
420
 16777215
176
     1
 90
        0
176
     1
 90
        0
176
     1
 62
     7
176
     1
 62
   257
176
     1
 90
        1
176
     1
 90
        1
176
     1
 40
1.0
176
     1
 90
        8
176
     1
 62
     7
176
     1
 40
1.0
176
     1
 90
        1
176
     1
 90
        6
176
     1
 90
        2
176
     1
 62
     7
176
     1
 90
        5
176
     1
 90
        0
176
     1
 90
        0
176
     1
290
     0
176
     1
 90
       13
176
     1
 40
0.0
176
     1
 90
        0
176
     1
290
     0
176
     1
290
     1
176
     1
290
     1
176
     1
290
     0
176
     1
290
     0
176
     1
290
     0
176
     1
290
     0
176
     1
290
     0
176
     1
290
     0
176
     1
 90
       50
176
     1
 40
0.0
176
     1
 40
1.0
176
     1
 90
        0
176
     1
 62
    18
420
        0
176
     1
 90
       50
176
     1
 90
        3
176
     1
 62
     5
420
      255
176
     1
290
     0
176
     1
 90
       50
176
     1
 90
       50
176
     1
 90
       50
176
     1
290
     0
176
     1
 90
       50
176
     1
 62
   256
176
     0
 40
1.0
176
     0
 90
        2
176
     1
  1
strokes_ogs.tif
176
     1
290
     0
176
     1
 40
1.0
176
     1
 40
1.0
176
     1
  0
VISUALSTYLE
  5
202266C
102
{ACAD_REACTORS
330
202266A
102
}
330
202266A
100
AcDbVisualStyle
  2
FlatWithEdges
 70
     1
177
     3
291
     1
 70
    58
 90
        2
176
     1
 90
        1
176
     1
 90
        1
176
     1
 90
        2
176
     1
 40
0.6
176
     1
 40
30.0
176
     1
 62
     7
420
 16777215
176
     1
 90
        1
176
     1
 90
        0
176
     1
 62
     7
176
     1
 62
   257
176
     1
 90
        1
176
     1
 90
        1
176
     1
 40
1.0
176
     1
 90
        0
176
     1
 62
   257
176
     1
 40
1.0
176
     1
 90
        1
176
     1
 90
        6
176
     1
 90
        2
176
     1
 62
     7
176
     1
 90
        5
176
     1
 90
        0
176
     1
 90
        0
176
     1
290
     0
176
     1
 90
       13
176
     1
 40
0.0
176
     1
 90
        0
176
     1
290
     0
176
     1
290
     1
176
     1
290
     1
176
     1
290
     0
176
     1
290
     0
176
     1
290
     0
176
     1
290
     0
176
     1
290
     0
176
     1
290
     0
176
     1
 90
       50
176
     1
 40
0.0
176
     1
 40
1.0
176
     1
 90
        0
176
     1
 62
    18
420
        0
176
     1
 90
       50
176
     1
 90
        3
176
     1
 62
     5
420
      255
176
     1
290
     0
176
     1
 90
       50
176
     1
 90
       50
176
     1
 90
       50
176
     1
290
     0
176
     1
 90
       50
176
     1
 62
   256
176
     0
 40
1.0
176
     0
 90
        2
176
     1
  1
strokes_ogs.tif
176
     1
290
     0
176
     1
 40
1.0
176
     1
 40
1.0
176
     1
  0
VISUALSTYLE
  5
202266D
102
{ACAD_REACTORS
330
202266A
102
}
330
202266A
100
AcDbVisualStyle
  2
Gouraud
 70
     2
177
     3
291
     1
 70
    58
 90
        2
176
     1
 90
        2
176
     1
 90
        1
176
     1
 90
        2
176
     1
 40
0.6
176
     1
 40
30.0
176
     1
 62
     7
420
 16777215
176
     1
 90
        0
176
     1
 90
        0
176
     1
 62
     7
176
     1
 62
   257
176
     1
 90
        1
176
     1
 90
        1
176
     1
 40
1.0
176
     1
 90
        0
176
     1
 62
     7
176
     1
 40
1.0
176
     1
 90
        1
176
     1
 90
        6
176
     1
 90
        2
176
     1
 62
     7
176
     1
 90
        5
176
     1
 90
        0
176
     1
 90
        0
176
     1
290
     0
176
     1
 90
       13
176
     1
 40
0.0
176
     1
 90
        0
176
     1
290
     0
176
     1
290
     1
176
     1
290
     1
176
     1
290
     0
176
     1
290
     0
176
     1
290
     0
176
     1
290
     0
176
     1
290
     0
176
     1
290
     0
176
     1
 90
       50
176
     1
 40
0.0
176
     1
 40
1.0
176
     1
 90
        0
176
     1
 62
    18
420
        0
176
     1
 90
       50
176
     1
 90
        3
176
     1
 62
     5
420
      255
176
     1
290
     0
176
     1
 90
       50
176
     1
 90
       50
176
     1
 90
       50
176
     1
290
     0
176
     1
 90
       50
176
     1
 62
   256
176
     0
 40
1.0
176
     0
 90
        2
176
     1
  1
strokes_ogs.tif
176
     1
290
     0
176
     1
 40
1.0
176
     1
 40
1.0
176
     1
  0
VISUALSTYLE
  5
202266E
102
{ACAD_REACTORS
330
202266A
102
}
330
202266A
100
AcDbVisualStyle
  2
GouraudWithEdges
 70
     3
177
     3
291
     1
 70
    58
 90
        2
176
     1
 90
        2
176
     1
 90
        1
176
     1
 90
        2
176
     1
 40
0.6
176
     1
 40
30.0
176
     1
 62
     7
420
 16777215
176
     1
 90
        1
176
     1
 90
        0
176
     1
 62
     7
176
     1
 62
   257
176
     1
 90
        1
176
     1
 90
        1
176
     1
 40
1.0
176
     1
 90
        0
176
     1
 62
   257
176
     1
 40
1.0
176
     1
 90
        1
176
     1
 90
        6
176
     1
 90
        2
176
     1
 62
     7
176
     1
 90
        5
176
     1
 90
        0
176
     1
 90
        0
176
     1
290
     0
176
     1
 90
       13
176
     1
 40
0.0
176
     1
 90
        0
176
     1
290
     0
176
     1
290
     1
176
     1
290
     1
176
     1
290
     0
176
     1
290
     0
176
     1
290
     0
176
     1
290
     0
176
     1
290
     0
176
     1
290
     0
176
     1
 90
       50
176
     1
 40
0.0
176
     1
 40
1.0
176
     1
 90
        0
176
     1
 62
    18
420
        0
176
     1
 90
       50
176
     1
 90
        3
176
     1
 62
     5
420
      255
176
     1
290
     0
176
     1
 90
       50
176
     1
 90
       50
176
     1
 90
       50
176
     1
290
     0
176
     1
 90
       50
176
     1
 62
   256
176
     0
 40
1.0
176
     0
 90
        2
176
     1
  1
strokes_ogs.tif
176
     1
290
     0
176
     1
 40
1.0
176
     1
 40
1.0
176
     1
  0
VISUALSTYLE
  5
2022672
102
{ACAD_REACTORS
330
202266A
102
}
330
202266A
100
AcDbVisualStyle
  2
Hidden
 70
     6
177
     3
291
     0
 70
    58
 90
        1
176
     1
 90
        2
176
     1
 90
        2
176
     1
 90
        0
176
     1
 40
0.6
176
     1
 40
30.0
176
     1
 62
     7
420
 16777215
176
     1
 90
        2
176
     1
 90
        2
176
     1
 62
     7
176
     1
 62
   257
176
     1
 90
        2
176
     1
 90
        1
176
     1
 40
40.0
176
     1
 90
        0
176
     1
 62
   257
176
     1
 40
1.0
176
     1
 90
        1
176
     1
 90
        6
176
     1
 90
        2
176
     1
 62
     7
176
     1
 90
        3
176
     1
 90
        0
176
     1
 90
        0
176
     1
290
     0
176
     1
 90
        1
176
     1
 40
0.0
176
     1
 90
        0
176
     1
290
     0
176
     1
290
     1
176
     1
290
     1
176
     1
290
     0
176
     1
290
     0
176
     1
290
     0
176
     1
290
     0
176
     1
290
     0
176
     1
290
     0
176
     1
 90
       50
176
     1
 40
0.0
176
     1
 40
1.0
176
     1
 90
        0
176
     1
 62
    18
420
        0
176
     1
 90
       50
176
     1
 90
        3
176
     1
 62
     5
420
      255
176
     1
290
     0
176
     1
 90
       50
176
     1
 90
       50
176
     1
 90
       50
176
     1
290
     0
176
     1
 90
       50
176
     1
 62
   256
176
     0
 40
1.0
176
     0
 90
        2
176
     1
  1
strokes_ogs.tif
176
     1
290
     0
176
     1
 40
1.0
176
     1
 40
1.0
176
     1
  0
VISUALSTYLE
  5
2022680
102
{ACAD_REACTORS
330
202266A
102
}
330
202266A
100
AcDbVisualStyle
  2
JitterOff
 70
    20
177
     3
291
     1
 70
    58
 90
        2
176
     0
 90
        2
176
     0
 90
        0
176
     0
 90
        0
176
     0
 40
0.6
176
     0
 40
30.0
176
     0
 62
     7
420
 16777215
176
     0
 90
        1
176
     0
 90
        4
176
     0
 62
     7
176
     0
 62
   257
176
     0
 90
        1
176
     0
 90
        1
176
     0
 40
1.0
176
     0
 90
       10
176
     2
 62
     7
176
     0
 40
1.0
176
     0
 90
        1
176
     0
 90
        6
176
     0
 90
        2
176
     0
 62
     7
176
     0
 90
        5
176
     0
 90
        0
176
     0
 90
        0
176
     0
290
     0
176
     0
 90
        1
176
     0
 40
0.0
176
     0
 90
        0
176
     0
290
     0
176
     0
290
     1
176
     0
290
     1
176
     0
290
     0
176
     0
290
     0
176
     0
290
     0
176
     0
290
     0
176
     0
290
     0
176
     0
290
     0
176
     0
 90
       50
176
     0
 40
0.0
176
     0
 40
1.0
176
     0
 90
        0
176
     0
 62
    18
420
        0
176
     0
 90
       50
176
     0
 90
        3
176
     0
 62
     5
420
      255
176
     0
290
     0
176
     0
 90
       50
176
     0
 90
       50
176
     0
 90
       50
176
     0
290
     0
176
     0
 90
       50
176
     0
 62
   256
176
     0
 40
1.0
176
     0
 90
        2
176
     0
  1
strokes_ogs.tif
176
     0
290
     0
176
     0
 40
1.0
176
     0
 40
1.0
176
     0
  0
VISUALSTYLE
  5
2022678
102
{ACAD_REACTORS
330
202266A
102
}
330
202266A
100
AcDbVisualStyle
  2
Linepattern
 70
    14
177
     3
291
     1
 70
    58
 90
        2
176
     1
 90
        2
176
     1
 90
        0
176
     1
 90
        0
176
     1
 40
0.6
176
     1
 40
30.0
176
     1
 62
     7
420
 16777215
176
     1
 90
        1
176
     1
 90
        4
176
     1
 62
     7
176
     1
 62
   257
176
     1
 90
        7
176
     1
 90
        7
176
     1
 40
1.0
176
     1
 90
        8
176
     1
 62
     7
176
     1
 40
1.0
176
     1
 90
        1
176
     1
 90
        6
176
     1
 90
        2
176
     1
 62
     7
176
     1
 90
        5
176
     1
 90
        0
176
     1
 90
        0
176
     1
290
     0
176
     1
 90
        1
176
     1
 40
0.0
176
     1
 90
        0
176
     1
290
     0
176
     1
290
     1
176
     1
290
     1
176
     1
290
     0
176
     1
290
     0
176
     1
290
     0
176
     1
290
     0
176
     1
290
     0
176
     1
290
     0
176
     1
 90
       50
176
     1
 40
0.0
176
     1
 40
1.0
176
     1
 90
        0
176
     1
 62
    18
420
        0
176
     1
 90
       50
176
     1
 90
        3
176
     1
 62
     5
420
      255
176
     1
290
     0
176
     1
 90
       50
176
     1
 90
       50
176
     1
 90
       50
176
     1
290
     0
176
     1
 90
       50
176
     1
 62
   256
176
     0
 40
1.0
176
     0
 90
        2
176
     1
  1
strokes_ogs.tif
176
     1
290
     0
176
     1
 40
1.0
176
     1
 40
1.0
176
     1
  0
VISUALSTYLE
  5
2022681
102
{ACAD_REACTORS
330
202266A
102
}
330
202266A
100
AcDbVisualStyle
  2
OverhangOff
 70
    21
177
     3
291
     1
 70
    58
 90
        2
176
     0
 90
        2
176
     0
 90
        0
176
     0
 90
        0
176
     0
 40
0.6
176
     0
 40
30.0
176
     0
 62
     7
420
 16777215
176
     0
 90
        1
176
     0
 90
        4
176
     0
 62
     7
176
     0
 62
   257
176
     0
 90
        1
176
     0
 90
        1
176
     0
 40
1.0
176
     0
 90
        9
176
     2
 62
     7
176
     0
 40
1.0
176
     0
 90
        1
176
     0
 90
        6
176
     0
 90
        2
176
     0
 62
     7
176
     0
 90
        5
176
     0
 90
        0
176
     0
 90
        0
176
     0
290
     0
176
     0
 90
        1
176
     0
 40
0.0
176
     0
 90
        0
176
     0
290
     0
176
     0
290
     1
176
     0
290
     1
176
     0
290
     0
176
     0
290
     0
176
     0
290
     0
176
     0
290
     0
176
     0
290
     0
176
     0
290
     0
176
     0
 90
       50
176
     0
 40
0.0
176
     0
 40
1.0
176
     0
 90
        0
176
     0
 62
    18
420
        0
176
     0
 90
       50
176
     0
 90
        3
176
     0
 62
     5
420
      255
176
     0
290
     0
176
     0
 90
       50
176
     0
 90
       50
176
     0
 90
       50
176
     0
290
     0
176
     0
 90
       50
176
     0
 62
   256
176
     0
 40
1.0
176
     0
 90
        2
176
     0
  1
strokes_ogs.tif
176
     0
290
     0
176
     0
 40
1.0
176
     0
 40
1.0
176
     0
  0
VISUALSTYLE
  5
2022674
102
{ACAD_REACTORS
330
202266A
102
}
330
202266A
100
AcDbVisualStyle
  2
Realistic
 70
     8
177
     3
291
     0
 70
    58
 90
        2
176
     1
 90
        3
176
     1
 90
        0
176
     1
 90
        2
176
     1
 40
0.6
176
     1
 40
30.0
176
     1
 62
     7
420
 16777215
176
     1
 90
        0
176
     1
 90
        0
176
     1
 62
     7
176
     1
 62
   257
176
     1
 90
        1
176
     1
 90
        1
176
     1
 40
1.0
176
     1
 90
        8
176
     1
 62
   257
176
     1
 40
1.0
176
     1
 90
        1
176
     1
 90
        6
176
     1
 90
        2
176
     1
 62
     7
176
     1
 90
        3
176
     1
 90
        0
176
     1
 90
        0
176
     1
290
     0
176
     1
 90
       13
176
     1
 40
0.0
176
     1
 90
        0
176
     1
290
     0
176
     1
290
     1
176
     1
290
     1
176
     1
290
     0
176
     1
290
     0
176
     1
290
     0
176
     1
290
     0
176
     1
290
     0
176
     1
290
     0
176
     1
 90
       50
176
     1
 40
0.0
176
     1
 40
1.0
176
     1
 90
        0
176
     1
 62
    18
420
        0
176
     1
 90
       50
176
     1
 90
        3
176
     1
 62
     5
420
      255
176
     1
290
     0
176
     1
 90
       50
176
     1
 90
       50
176
     1
 90
       50
176
     1
290
     0
176
     1
 90
       50
176
     1
 62
   256
176
     0
 40
1.0
176
     0
 90
        2
176
     1
  1
strokes_ogs.tif
176
     1
290
     0
176
     1
 40
1.0
176
     1
 40
1.0
176
     1
  0
VISUALSTYLE
  5
202267F
102
{ACAD_REACTORS
330
202266A
102
}
330
202266A
100
AcDbVisualStyle
  2
Shaded
 70
    27
177
     3
291
     0
 70
    58
 90
        2
176
     1
 90
        2
176
     1
 90
        1
176
     1
 90
        2
176
     1
 40
0.6
176
     1
 40
30.0
176
     1
 62
     7
420
 16777215
176
     1
 90
        0
176
     1
 90
        4
176
     1
 62
     7
176
     1
 62
   257
176
     1
 90
        1
176
     1
 90
        1
176
     1
 40
1.0
176
     1
 90
        8
176
     1
 62
   257
176
     1
 40
1.0
176
     1
 90
        1
176
     1
 90
        6
176
     1
 90
        2
176
     1
 62
     8
420
  7895160
176
     1
 90
        3
176
     1
 90
        0
176
     1
 90
        0
176
     1
290
     0
176
     1
 90
        5
176
     1
 40
0.0
176
     1
 90
        0
176
     1
290
     0
176
     1
290
     1
176
     1
290
     1
176
     1
290
     0
176
     1
290
     0
176
     1
290
     0
176
     1
290
     0
176
     1
290
     0
176
     1
290
     0
176
     1
 90
       50
176
     1
 40
0.0
176
     1
 40
1.0
176
     1
 90
        0
176
     1
 62
    18
420
        0
176
     1
 90
       50
176
     1
 90
        3
176
     1
 62
     5
420
      255
176
     1
290
     0
176
     1
 90
       50
176
     1
 90
       50
176
     1
 90
       50
176
     1
290
     0
176
     1
 90
       50
176
     1
 62
   256
176
     0
 40
1.0
176
     0
 90
        2
176
     1
  1
strokes_ogs.tif
176
     1
290
     0
176
     1
 40
1.0
176
     1
 40
1.0
176
     1
  0
VISUALSTYLE
  5
202267E
102
{ACAD_REACTORS
330
202266A
102
}
330
202266A
100
AcDbVisualStyle
  2
Shaded with edges
 70
    26
177
     3
291
     0
 70
    58
 90
        2
176
     1
 90
        2
176
     1
 90
        1
176
     1
 90
        2
176
     1
 40
0.6
176
     1
 40
30.0
176
     1
 62
     7
420
 16777215
176
     1
 90
        1
176
     1
 90
        2
176
     1
 62
     7
176
     1
 62
   257
176
     1
 90
        2
176
     1
 90
        1
176
     1
 40
1.0
176
     1
 90
        8
176
     1
 62
   257
176
     1
 40
1.0
176
     1
 90
        1
176
     1
 90
        6
176
     1
 90
        2
176
     1
 62
     7
176
     1
 90
        3
176
     1
 90
        0
176
     1
 90
        0
176
     1
290
     0
176
     1
 90
        5
176
     1
 40
0.0
176
     1
 90
        0
176
     1
290
     0
176
     1
290
     1
176
     1
290
     1
176
     1
290
     0
176
     1
290
     0
176
     1
290
     0
176
     1
290
     0
176
     1
290
     0
176
     1
290
     0
176
     1
 90
       50
176
     1
 40
0.0
176
     1
 40
1.0
176
     1
 90
        0
176
     1
 62
    18
420
        0
176
     1
 90
       50
176
     1
 90
        3
176
     1
 62
     5
420
      255
176
     1
290
     0
176
     1
 90
       50
176
     1
 90
       50
176
     1
 90
       50
176
     1
290
     0
176
     1
 90
       50
176
     1
 62
   256
176
     0
 40
1.0
176
     0
 90
        2
176
     1
  1
strokes_ogs.tif
176
     1
290
     0
176
     1
 40
1.0
176
     1
 40
1.0
176
     1
  0
VISUALSTYLE
  5
202267B
102
{ACAD_REACTORS
330
202266A
102
}
330
202266A
100
AcDbVisualStyle
  2
Shades of Gray
 70
    23
177
     3
291
     0
 70
    58
 90
        2
176
     1
 90
        2
176
     1
 90
        3
176
     1
 90
        0
176
     1
 40
0.6
176
     1
 40
30.0
176
     1
 62
     7
420
 16777215
176
     1
 90
        2
176
     1
 90
        2
176
     1
 62
     7
176
     1
 62
     7
176
     1
 90
        1
176
     1
 90
        1
176
     1
 40
40.0
176
     1
 90
        8
176
     1
 62
     7
176
     1
 40
1.0
176
     1
 90
        1
176
     1
 90
        6
176
     1
 90
        2
176
     1
 62
     7
176
     1
 90
        3
176
     1
 90
        0
176
     1
 90
        0
176
     1
290
     0
176
     1
 90
        1
176
     1
 40
0.0
176
     1
 90
        0
176
     1
290
     0
176
     1
290
     1
176
     1
290
     1
176
     1
290
     0
176
     1
290
     0
176
     1
290
     0
176
     1
290
     0
176
     1
290
     0
176
     1
290
     0
176
     1
 90
       50
176
     1
 40
0.0
176
     1
 40
1.0
176
     1
 90
        0
176
     1
 62
    18
420
        0
176
     1
 90
       50
176
     1
 90
        3
176
     1
 62
     5
420
      255
176
     1
290
     0
176
     1
 90
       50
176
     1
 90
       50
176
     1
 90
       50
176
     1
290
     0
176
     1
 90
       50
176
     1
 62
   256
176
     0
 40
1.0
176
     0
 90
        2
176
     1
  1
strokes_ogs.tif
176
     1
290
     0
176
     1
 40
1.0
176
     1
 40
1.0
176
     1
  0
VISUALSTYLE
  5
202267C
102
{ACAD_REACTORS
330
202266A
102
}
330
202266A
100
AcDbVisualStyle
  2
Sketchy
 70
    24
177
     3
291
     0
 70
    58
 90
        1
176
     1
 90
        2
176
     1
 90
        2
176
     1
 90
        0
176
     1
 40
0.6
176
     1
 40
30.0
176
     1
 62
     7
420
 16777215
176
     1
 90
        2
176
     1
 90
        2
176
     1
 62
     7
176
     1
 62
     7
176
     1
 90
        1
176
     1
 90
        1
176
     1
 40
40.0
176
     1
 90
       11
176
     1
 62
     7
176
     1
 40
1.0
176
     1
 90
        1
176
     1
 90
        6
176
     1
 90
        2
176
     1
 62
     7
176
     1
 90
        6
176
     1
 90
        0
176
     1
 90
        0
176
     1
290
     0
176
     1
 90
        1
176
     1
 40
0.0
176
     1
 90
        0
176
     1
290
     0
176
     1
290
     1
176
     1
290
     1
176
     1
290
     0
176
     1
290
     0
176
     1
290
     0
176
     1
290
     0
176
     1
290
     0
176
     1
290
     0
176
     1
 90
       50
176
     1
 40
0.0
176
     1
 40
1.0
176
     1
 90
        0
176
     1
 62
    18
420
        0
176
     1
 90
       50
176
     1
 90
        3
176
     1
 62
     5
420
      255
176
     1
290
     0
176
     1
 90
       50
176
     1
 90
       50
176
     1
 90
       50
176
     1
290
     0
176
     1
 90
       50
176
     1
 62
   256
176
     0
 40
1.0
176
     0
 90
        2
176
     1
  1
strokes_ogs.tif
176
     1
290
     0
176
     1
 40
1.0
176
     1
 40
1.0
176
     1
  0
VISUALSTYLE
  5
2022677
102
{ACAD_REACTORS
330
202266A
102
}
330
202266A
100
AcDbVisualStyle
  2
Thicken
 70
    13
177
     3
291
     1
 70
    58
 90
        2
176
     1
 90
        2
176
     1
 90
        0
176
     1
 90
        0
176
     1
 40
0.6
176
     1
 40
30.0
176
     1
 62
     7
420
 16777215
176
     1
 90
        1
176
     1
 90
        4
176
     1
 62
     7
176
     1
 62
   257
176
     1
 90
        1
176
     1
 90
        1
176
     1
 40
1.0
176
     1
 90
       12
176
     1
 62
     7
176
     1
 40
1.0
176
     1
 90
        1
176
     1
 90
        6
176
     1
 90
        2
176
     1
 62
     7
176
     1
 90
        5
176
     1
 90
        0
176
     1
 90
        0
176
     1
290
     0
176
     1
 90
        1
176
     1
 40
0.0
176
     1
 90
        0
176
     1
290
     0
176
     1
290
     1
176
     1
290
     1
176
     1
290
     0
176
     1
290
     0
176
     1
290
     0
176
     1
290
     0
176
     1
290
     0
176
     1
290
     0
176
     1
 90
       50
176
     1
 40
0.0
176
     1
 40
1.0
176
     1
 90
        0
176
     1
 62
    18
420
        0
176
     1
 90
       50
176
     1
 90
        3
176
     1
 62
     5
420
      255
176
     1
290
     0
176
     1
 90
       50
176
     1
 90
       50
176
     1
 90
       50
176
     1
290
     0
176
     1
 90
       50
176
     1
 62
   256
176
     0
 40
1.0
176
     0
 90
        2
176
     1
  1
strokes_ogs.tif
176
     1
290
     0
176
     1
 40
1.0
176
     1
 40
1.0
176
     1
  0
VISUALSTYLE
  5
2022671
102
{ACAD_REACTORS
330
202266A
102
}
330
202266A
100
AcDbVisualStyle
  2
Wireframe
 70
     5
177
     3
291
     0
 70
    58
 90
        0
176
     1
 90
        2
176
     1
 90
        0
176
     1
 90
        0
176
     1
 40
0.6
176
     1
 40
30.0
176
     1
 62
     7
420
 16777215
176
     1
 90
        1
176
     1
 90
        4
176
     1
 62
     7
176
     1
 62
   257
176
     1
 90
        1
176
     1
 90
        1
176
     1
 40
1.0
176
     1
 90
        0
176
     1
 62
   257
176
     1
 40
1.0
176
     1
 90
        1
176
     1
 90
        6
176
     1
 90
        2
176
     1
 62
     7
176
     1
 90
        3
176
     1
 90
        0
176
     1
 90
        0
176
     1
290
     0
176
     1
 90
        1
176
     1
 40
0.0
176
     1
 90
        0
176
     1
290
     0
176
     1
290
     1
176
     1
290
     1
176
     1
290
     0
176
     1
290
     0
176
     1
290
     0
176
     1
290
     0
176
     1
290
     0
176
     1
290
     0
176
     1
 90
       50
176
     1
 40
0.0
176
     1
 40
1.0
176
     1
 90
        0
176
     1
 62
    18
420
        0
176
     1
 90
       50
176
     1
 90
        3
176
     1
 62
     5
420
      255
176
     1
290
     0
176
     1
 90
       50
176
     1
 90
       50
176
     1
 90
       50
176
     1
290
     0
176
     1
 90
       50
176
     1
 62
   256
176
     0
 40
1.0
176
     0
 90
        2
176
     1
  1
strokes_ogs.tif
176
     1
290
     0
176
     1
 40
1.0
176
     1
 40
1.0
176
     1
  0
VISUALSTYLE
  5
202267D
102
{ACAD_REACTORS
330
202266A
102
}
330
202266A
100
AcDbVisualStyle
  2
X-Ray
 70
    25
177
     3
291
     0
 70
    58
 90
        2
176
     1
 90
        2
176
     1
 90
        1
176
     1
 90
        1
176
     1
 40
0.5
176
     1
 40
30.0
176
     1
 62
     7
420
 16777215
176
     1
 90
        1
176
     1
 90
        0
176
     1
 62
     7
176
     1
 62
   257
176
     1
 90
        1
176
     1
 90
        1
176
     1
 40
1.0
176
     1
 90
        8
176
     1
 62
     7
176
     1
 40
1.0
176
     1
 90
        1
176
     1
 90
        6
176
     1
 90
        2
176
     1
 62
     7
176
     1
 90
        3
176
     1
 90
        0
176
     1
 90
        0
176
     1
290
     0
176
     1
 90
       13
176
     1
 40
0.0
176
     1
 90
        0
176
     1
290
     0
176
     1
290
     1
176
     1
290
     1
176
     1
290
     0
176
     1
290
     0
176
     1
290
     0
176
     1
290
     0
176
     1
290
     0
176
     1
290
     0
176
     1
 90
       50
176
     1
 40
0.0
176
     1
 40
1.0
176
     1
 90
        0
176
     1
 62
    18
420
        0
176
     1
 90
       50
176
     1
 90
        3
176
     1
 62
     5
420
      255
176
     1
290
     0
176
     1
 90
       50
176
     1
 90
       50
176
     1
 90
       50
176
     1
290
     0
176
     1
 90
       50
176
     1
 62
   256
176
     0
 40
1.0
176
     0
 90
        2
176
     1
  1
strokes_ogs.tif
176
     1
290
     0
176
     1
 40
1.0
176
     1
 40
1.0
176
     1
  0
DICTIONARYVAR
  5
20226BD
102
{ACAD_REACTORS
330
59
102
}
330
59
100
DictionaryVariables
280
     0
  1
1:1
  0
DICTIONARYVAR
  5
20226B9
102
{ACAD_REACTORS
330
59
102
}
330
59
100
DictionaryVariables
280
     0
  1
STANDARD
  0
DICTIONARYVAR
  5
266
102
{ACAD_REACTORS
330
59
102
}
330
59
100
DictionaryVariables
280
     0
  1
STANDARD
  0
DICTIONARYVAR
  5
20226BA
102
{ACAD_REACTORS
330
59
102
}
330
59
100
DictionaryVariables
280
     0
  1
Metric50
  0
DICTIONARYVAR
  5
20226BB
102
{ACAD_REACTORS
330
59
102
}
330
59
100
DictionaryVariables
280
     0
  1
Metric50
  0
DICTIONARYVAR
  5
19F0C
102
{ACAD_REACTORS
330
59
102
}
330
59
100
DictionaryVariables
280
     0
  1
1
  0
DICTIONARYVAR
  5
19F0D
102
{ACAD_REACTORS
330
59
102
}
330
59
100
DictionaryVariables
280
     0
  1
0
  0
DICTIONARYVAR
  5
19F10
102
{ACAD_REACTORS
330
59
102
}
330
59
100
DictionaryVariables
280
     0
  1
0
  0
DICTIONARYVAR
  5
19F0E
102
{ACAD_REACTORS
330
59
102
}
330
59
100
DictionaryVariables
280
     0
  1
0
  0
DICTIONARYVAR
  5
20226BF
102
{ACAD_REACTORS
330
59
102
}
330
59
100
DictionaryVariables
280
     0
  1
1
  0
DICTIONARYVAR
  5
20226C0
102
{ACAD_REACTORS
330
59
102
}
330
59
100
DictionaryVariables
280
     0
  1
15
  0
DICTIONARYVAR
  5
20226BE
102
{ACAD_REACTORS
330
59
102
}
330
59
100
DictionaryVariables
280
     0
  1
0
  0
DICTIONARYVAR
  5
20226BC
102
{ACAD_REACTORS
330
59
102
}
330
59
100
DictionaryVariables
280
     0
  1
0
  0
DICTIONARYVAR
  5
20F06
102
{ACAD_REACTORS
330
59
102
}
330
59
100
DictionaryVariables
280
     0
  1

  0
DICTIONARY
  5
20226C5
330
202269B
100
AcDbDictionary
280
     1
281
     1
  3
ACAD_XREC_ROUNDTRIP
360
20226C6
  0
DICTIONARY
  5
202265B
330
202265A
100
AcDbDictionary
280
     1
281
     1
  3
BUMPTILE
360
202265D
  3
DIFFUSETILE
360
202265C
  3
OPACITYTILE
360
2022660
  3
REFLECTIONTILE
360
202265F
  3
REFRACTIONTILE
360
2022661
  3
SPECULARTILE
360
202265E
  0
DICTIONARY
  5
2022653
330
2022652
100
AcDbDictionary
280
     1
281
     1
  3
BUMPTILE
360
2022655
  3
DIFFUSETILE
360
2022654
  3
OPACITYTILE
360
2022658
  3
REFLECTIONTILE
360
2022657
  3
REFRACTIONTILE
360
2022659
  3
SPECULARTILE
360
2022656
  0
DICTIONARY
  5
2022663
330
2022662
100
AcDbDictionary
280
     1
281
     1
  3
BUMPTILE
360
2022665
  3
DIFFUSETILE
360
2022664
  3
OPACITYTILE
360
2022668
  3
REFLECTIONTILE
360
2022667
  3
REFRACTIONTILE
360
2022669
  3
SPECULARTILE
360
2022666
  0
DICTIONARY
  5
20226C3
330
2022699
100
AcDbDictionary
280
     1
281
     1
  3
ACAD_XREC_ROUNDTRIP
360
20226C4
  0
DICTIONARY
  5
20226C1
330
1D6
100
AcDbDictionary
280
     1
281
     1
  3
ACAD_ROUNDTRIP_2008_TABLESTYLE_CELLSTYLEMAP
360
20226C2
  0
XRECORD
  5
20226C6
102
{ACAD_REACTORS
330
20226C5
102
}
330
20226C5
100
AcDbXrecord
280
     1
102
DISPLAYNAME
  1
Metric50
102
FLAGS
 90
        0
  0
XRECORD
  5
202265D
102
{ACAD_REACTORS
330
202265B
102
}
330
202265B
100
AcDbXrecord
280
     1
270
     1
271
     1
  0
XRECORD
  5
202265C
102
{ACAD_REACTORS
330
202265B
102
}
330
202265B
100
AcDbXrecord
280
     1
270
     1
271
     1
  0
XRECORD
  5
2022660
102
{ACAD_REACTORS
330
202265B
102
}
330
202265B
100
AcDbXrecord
280
     1
270
     1
271
     1
  0
XRECORD
  5
202265F
102
{ACAD_REACTORS
330
202265B
102
}
330
202265B
100
AcDbXrecord
280
     1
270
     1
271
     1
  0
XRECORD
  5
2022661
102
{ACAD_REACTORS
330
202265B
102
}
330
202265B
100
AcDbXrecord
280
     1
270
     1
271
     1
  0
XRECORD
  5
202265E
102
{ACAD_REACTORS
330
202265B
102
}
330
202265B
100
AcDbXrecord
280
     1
270
     1
271
     1
  0
XRECORD
  5
2022655
102
{ACAD_REACTORS
330
2022653
102
}
330
2022653
100
AcDbXrecord
280
     1
270
     1
271
     1
  0
XRECORD
  5
2022654
102
{ACAD_REACTORS
330
2022653
102
}
330
2022653
100
AcDbXrecord
280
     1
270
     1
271
     1
  0
XRECORD
  5
2022658
102
{ACAD_REACTORS
330
2022653
102
}
330
2022653
100
AcDbXrecord
280
     1
270
     1
271
     1
  0
XRECORD
  5
2022657
102
{ACAD_REACTORS
330
2022653
102
}
330
2022653
100
AcDbXrecord
280
     1
270
     1
271
     1
  0
XRECORD
  5
2022659
102
{ACAD_REACTORS
330
2022653
102
}
330
2022653
100
AcDbXrecord
280
     1
270
     1
271
     1
  0
XRECORD
  5
2022656
102
{ACAD_REACTORS
330
2022653
102
}
330
2022653
100
AcDbXrecord
280
     1
270
     1
271
     1
  0
XRECORD
  5
2022665
102
{ACAD_REACTORS
330
2022663
102
}
330
2022663
100
AcDbXrecord
280
     1
270
     1
271
     1
  0
XRECORD
  5
2022664
102
{ACAD_REACTORS
330
2022663
102
}
330
2022663
100
AcDbXrecord
280
     1
270
     1
271
     1
  0
XRECORD
  5
2022668
102
{ACAD_REACTORS
330
2022663
102
}
330
2022663
100
AcDbXrecord
280
     1
270
     1
271
     1
  0
XRECORD
  5
2022667
102
{ACAD_REACTORS
330
2022663
102
}
330
2022663
100
AcDbXrecord
280
     1
270
     1
271
     1
  0
XRECORD
  5
2022669
102
{ACAD_REACTORS
330
2022663
102
}
330
2022663
100
AcDbXrecord
280
     1
270
     1
271
     1
  0
XRECORD
  5
2022666
102
{ACAD_REACTORS
330
2022663
102
}
330
2022663
100
AcDbXrecord
280
     1
270
     1
271
     1
  0
XRECORD
  5
20226C4
102
{ACAD_REACTORS
330
20226C3
102
}
330
20226C3
100
AcDbXrecord
280
     1
102
DISPLAYNAME
  1
Metric50
102
FLAGS
 90
        0
  0
CELLSTYLEMAP
  5
20226C2
102
{ACAD_REACTORS
330
20226C1
102
}
330
20226C1
100
AcDbCellStyleMap
 90
        3
300
CELLSTYLE
  1
TABLEFORMAT_BEGIN
 90
        5
170
     1
 91
        0
 92
    32768
 62
   257
 93
        1
300
CONTENTFORMAT
  1
CONTENTFORMAT_BEGIN
 90
        0
 91
        0
 92
      512
 93
        0
300

 40
0.0
140
1.0
 94
        5
 62
     0
340
11
144
6.0
309
CONTENTFORMAT_END
171
     1
301
MARGIN
  1
CELLMARGIN_BEGIN
 40
1.5
 40
1.5
 40
1.5
 40
1.5
 40
0.18
 40
0.18
309
CELLMARGIN_END
 94
        6
 95
        1
302
GRIDFORMAT
  1
GRIDFORMAT_BEGIN
 90
        0
 91
        1
 62
     0
 92
       -2
340
0
 93
        0
 40
0.045
309
GRIDFORMAT_END
 95
        2
302
GRIDFORMAT
  1
GRIDFORMAT_BEGIN
 90
        0
 91
        1
 62
     0
 92
       -2
340
0
 93
        0
 40
0.045
309
GRIDFORMAT_END
 95
        4
302
GRIDFORMAT
  1
GRIDFORMAT_BEGIN
 90
        0
 91
        1
 62
     0
 92
       -2
340
0
 93
        0
 40
0.045
309
GRIDFORMAT_END
 95
        8
302
GRIDFORMAT
  1
GRIDFORMAT_BEGIN
 90
        0
 91
        1
 62
     0
 92
       -2
340
0
 93
        0
 40
0.045
309
GRIDFORMAT_END
 95
       16
302
GRIDFORMAT
  1
GRIDFORMAT_BEGIN
 90
        0
 91
        1
 62
     0
 92
       -2
340
0
 93
        0
 40
0.045
309
GRIDFORMAT_END
 95
       32
302
GRIDFORMAT
  1
GRIDFORMAT_BEGIN
 90
        0
 91
        1
 62
     0
 92
       -2
340
0
 93
        0
 40
0.045
309
GRIDFORMAT_END
309
TABLEFORMAT_END
  1
CELLSTYLE_BEGIN
 90
        1
 91
        1
300
_TITLE
309
CELLSTYLE_END
300
CELLSTYLE
  1
TABLEFORMAT_BEGIN
 90
        5
170
     1
 91
        0
 92
        0
 62
   257
 93
        1
300
CONTENTFORMAT
  1
CONTENTFORMAT_BEGIN
 90
        0
 91
        0
 92
      512
 93
        0
300

 40
0.0
140
1.0
 94
        5
 62
     0
340
11
144
4.5
309
CONTENTFORMAT_END
171
     1
301
MARGIN
  1
CELLMARGIN_BEGIN
 40
1.5
 40
1.5
 40
1.5
 40
1.5
 40
0.18
 40
0.18
309
CELLMARGIN_END
 94
        6
 95
        1
302
GRIDFORMAT
  1
GRIDFORMAT_BEGIN
 90
        0
 91
        1
 62
     0
 92
       -2
340
0
 93
        0
 40
0.045
309
GRIDFORMAT_END
 95
        2
302
GRIDFORMAT
  1
GRIDFORMAT_BEGIN
 90
        0
 91
        1
 62
     0
 92
       -2
340
0
 93
        0
 40
0.045
309
GRIDFORMAT_END
 95
        4
302
GRIDFORMAT
  1
GRIDFORMAT_BEGIN
 90
        0
 91
        1
 62
     0
 92
       -2
340
0
 93
        0
 40
0.045
309
GRIDFORMAT_END
 95
        8
302
GRIDFORMAT
  1
GRIDFORMAT_BEGIN
 90
        0
 91
        1
 62
     0
 92
       -2
340
0
 93
        0
 40
0.045
309
GRIDFORMAT_END
 95
       16
302
GRIDFORMAT
  1
GRIDFORMAT_BEGIN
 90
        0
 91
        1
 62
     0
 92
       -2
340
0
 93
        0
 40
0.045
309
GRIDFORMAT_END
 95
       32
302
GRIDFORMAT
  1
GRIDFORMAT_BEGIN
 90
        0
 91
        1
 62
     0
 92
       -2
340
0
 93
        0
 40
0.045
309
GRIDFORMAT_END
309
TABLEFORMAT_END
  1
CELLSTYLE_BEGIN
 90
        2
 91
        1
300
_HEADER
309
CELLSTYLE_END
300
CELLSTYLE
  1
TABLEFORMAT_BEGIN
 90
        5
170
     1
 91
        0
 92
        0
 62
   257
 93
        1
300
CONTENTFORMAT
  1
CONTENTFORMAT_BEGIN
 90
        0
 91
        0
 92
      512
 93
        0
300

 40
0.0
140
1.0
 94
        2
 62
     0
340
11
144
4.5
309
CONTENTFORMAT_END
171
     1
301
MARGIN
  1
CELLMARGIN_BEGIN
 40
1.5
 40
1.5
 40
1.5
 40
1.5
 40
0.18
 40
0.18
309
CELLMARGIN_END
 94
        6
 95
        1
302
GRIDFORMAT
  1
GRIDFORMAT_BEGIN
 90
        0
 91
        1
 62
     0
 92
       -2
340
0
 93
        0
 40
0.045
309
GRIDFORMAT_END
 95
        2
302
GRIDFORMAT
  1
GRIDFORMAT_BEGIN
 90
        0
 91
        1
 62
     0
 92
       -2
340
0
 93
        0
 40
0.045
309
GRIDFORMAT_END
 95
        4
302
GRIDFORMAT
  1
GRIDFORMAT_BEGIN
 90
        0
 91
        1
 62
     0
 92
       -2
340
0
 93
        0
 40
0.045
309
GRIDFORMAT_END
 95
        8
302
GRIDFORMAT
  1
GRIDFORMAT_BEGIN
 90
        0
 91
        1
 62
     0
 92
       -2
340
0
 93
        0
 40
0.045
309
GRIDFORMAT_END
 95
       16
302
GRIDFORMAT
  1
GRIDFORMAT_BEGIN
 90
        0
 91
        1
 62
     0
 92
       -2
340
0
 93
        0
 40
0.045
309
GRIDFORMAT_END
 95
       32
302
GRIDFORMAT
  1
GRIDFORMAT_BEGIN
 90
        0
 91
        1
 62
     0
 92
       -2
340
0
 93
        0
 40
0.045
309
GRIDFORMAT_END
309
TABLEFORMAT_END
  1
CELLSTYLE_BEGIN
 90
        3
 91
        2
300
_DATA
309
CELLSTYLE_END
  0
ENDSEC
  0
EOF
