  0
SECTION
  2
HEADER
  9
$ACADVER
  1
AC1032
  9
$ACADMAINTVER
 90
      174
  9
$DWGCODEPAGE
  3
ANSI_1252
  9
$LASTSAVEDBY
  1
pengb
  9
$REQUIREDVERSIONS
160
                 0
  9
$INSBASE
 10
0.0
 20
0.0
 30
0.0
  9
$EXTMIN
 10
-480.1485892251666
 20
-1252.0594296238
 30
0.0
  9
$EXTMAX
 10
541.1628889189137
 20
404.8196688526001
 30
0.0
  9
$LIMMIN
 10
0.0
 20
0.0
  9
$LIMMAX
 10
420.0
 20
297.0
  9
$ORTHOMODE
 70
     0
  9
$REGENMODE
 70
     1
  9
$FILLMODE
 70
     1
  9
$QTEXTMODE
 70
     0
  9
$MIRRTEXT
 70
     1
  9
$LTSCALE
 40
1.0
  9
$ATTMODE
 70
     1
  9
$TEXTSIZE
 40
3.5
  9
$TRACEWID
 40
1.0
  9
$TEXTSTYLE
  7
Standard
  9
$CLAYER
  8
0
  9
$CELTYPE
  6
ByLayer
  9
$CECOLOR
 62
   256
  9
$CELTSCALE
 40
1.0
  9
$DISPSILH
 70
     0
  9
$DIMSCALE
 40
1.0
  9
$DIMASZ
 40
3.302
  9
$DIMEXO
 40
1.0
  9
$DIMDLI
 40
3.75
  9
$DIMRND
 40
0.0
  9
$DIMDLE
 40
0.0
  9
$DIMEXE
 40
1.0
  9
$DIMTP
 40
0.0
  9
$DIMTM
 40
0.0
  9
$DIMTXT
 40
3.5
  9
$DIMCEN
 40
2.5
  9
$DIMTSZ
 40
0.0
  9
$DIMTOL
 70
     0
  9
$DIMLIM
 70
     0
  9
$DIMTIH
 70
     1
  9
$DIMTOH
 70
     1
  9
$DIMSE1
 70
     0
  9
$DIMSE2
 70
     0
  9
$DIMTAD
 70
     1
  9
$DIMZIN
 70
     1
  9
$DIMBLK
  1

  9
$DIMASO
 70
     1
  9
$DIMSHO
 70
     1
  9
$DIMPOST
  1

  9
$DIMAPOST
  1

  9
$DIMALT
 70
     0
  9
$DIMALTD
 70
     3
  9
$DIMALTF
 40
0.0393700787
  9
$DIMLFAC
 40
10.0
  9
$DIMTOFL
 70
     1
  9
$DIMTVP
 40
0.0
  9
$DIMTIX
 70
     0
  9
$DIMSOXD
 70
     0
  9
$DIMSAH
 70
     0
  9
$DIMBLK1
  1

  9
$DIMBLK2
  1

  9
$DIMSTYLE
  2
ISO-25
  9
$DIMCLRD
 70
     0
  9
$DIMCLRE
 70
     0
  9
$DIMCLRT
 70
     0
  9
$DIMTFAC
 40
1.0
  9
$DIMGAP
 40
1.524
  9
$DIMJUST
 70
     0
  9
$DIMSD1
 70
     0
  9
$DIMSD2
 70
     0
  9
$DIMTOLJ
 70
     0
  9
$DIMTZIN
 70
     1
  9
$DIMALTZ
 70
     0
  9
$DIMALTTZ
 70
     0
  9
$DIMUPT
 70
     0
  9
$DIMDEC
 70
     2
  9
$DIMTDEC
 70
     2
  9
$DIMALTU
 70
     2
  9
$DIMALTTD
 70
     3
  9
$DIMTXSTY
  7
Standard
  9
$DIMAUNIT
 70
     0
  9
$DIMADEC
 70
     2
  9
$DIMALTRND
 40
0.0
  9
$DIMAZIN
 70
     0
  9
$DIMDSEP
 70
    44
  9
$DIMATFIT
 70
     3
  9
$DIMFRAC
 70
     0
  9
$DIMLDRBLK
  1

  9
$DIMLUNIT
 70
     2
  9
$DIMLWD
 70
    -2
  9
$DIMLWE
 70
    -2
  9
$DIMTMOVE
 70
     0
  9
$DIMFXL
 40
1.0
  9
$DIMFXLON
 70
     0
  9
$DIMJOGANG
 40
0.7853981633974483
  9
$DIMTFILL
 70
     0
  9
$DIMTFILLCLR
 70
     0
  9
$DIMARCSYM
 70
     0
  9
$DIMLTYPE
  6

  9
$DIMLTEX1
  6

  9
$DIMLTEX2
  6

  9
$DIMTXTDIRECTION
 70
     0
  9
$LUNITS
 70
     2
  9
$LUPREC
 70
     2
  9
$SKETCHINC
 40
1.0
  9
$FILLETRAD
 40
10.0
  9
$AUNITS
 70
     0
  9
$AUPREC
 70
     2
  9
$MENU
  1
.
  9
$ELEVATION
 40
0.0
  9
$PELEVATION
 40
0.0
  9
$THICKNESS
 40
0.0
  9
$LIMCHECK
 70
     0
  9
$CHAMFERA
 40
0.0
  9
$CHAMFERB
 40
0.0
  9
$CHAMFERC
 40
0.0
  9
$CHAMFERD
 40
0.0
  9
$SKPOLY
 70
     0
  9
$TDCREATE
 40
2459997.615868056
  9
$TDUCREATE
 40
2459997.157537002
  9
$TDUPDATE
 40
2460007.647986111
  9
$TDUUPDATE
 40
2460007.189652778
  9
$TDINDWG
 40
0.0012268634
  9
$TDUSRTIMER
 40
0.0012268634
  9
$USRTIMER
 70
     1
  9
$ANGBASE
 50
0.0
  9
$ANGDIR
 70
     0
  9
$PDMODE
 70
     0
  9
$PDSIZE
 40
-1.0
  9
$PLINEWID
 40
0.0
  9
$SPLFRAME
 70
     0
  9
$SPLINETYPE
 70
     6
  9
$SPLINESEGS
 70
     8
  9
$HANDSEED
  5
2FC
  9
$SURFTAB1
 70
     6
  9
$SURFTAB2
 70
     6
  9
$SURFTYPE
 70
     6
  9
$SURFU
 70
     6
  9
$SURFV
 70
     6
  9
$UCSBASE
  2

  9
$UCSNAME
  2

  9
$UCSORG
 10
0.0
 20
0.0
 30
0.0
  9
$UCSXDIR
 10
1.0
 20
0.0
 30
0.0
  9
$UCSYDIR
 10
0.0
 20
1.0
 30
0.0
  9
$UCSORTHOREF
  2

  9
$UCSORTHOVIEW
 70
     0
  9
$UCSORGTOP
 10
0.0
 20
0.0
 30
0.0
  9
$UCSORGBOTTOM
 10
0.0
 20
0.0
 30
0.0
  9
$UCSORGLEFT
 10
0.0
 20
0.0
 30
0.0
  9
$UCSORGRIGHT
 10
0.0
 20
0.0
 30
0.0
  9
$UCSORGFRONT
 10
0.0
 20
0.0
 30
0.0
  9
$UCSORGBACK
 10
0.0
 20
0.0
 30
0.0
  9
$PUCSBASE
  2

  9
$PUCSNAME
  2

  9
$PUCSORG
 10
0.0
 20
0.0
 30
0.0
  9
$PUCSXDIR
 10
1.0
 20
0.0
 30
0.0
  9
$PUCSYDIR
 10
0.0
 20
1.0
 30
0.0
  9
$PUCSORTHOREF
  2

  9
$PUCSORTHOVIEW
 70
     0
  9
$PUCSORGTOP
 10
0.0
 20
0.0
 30
0.0
  9
$PUCSORGBOTTOM
 10
0.0
 20
0.0
 30
0.0
  9
$PUCSORGLEFT
 10
0.0
 20
0.0
 30
0.0
  9
$PUCSORGRIGHT
 10
0.0
 20
0.0
 30
0.0
  9
$PUCSORGFRONT
 10
0.0
 20
0.0
 30
0.0
  9
$PUCSORGBACK
 10
0.0
 20
0.0
 30
0.0
  9
$USERI1
 70
     0
  9
$USERI2
 70
     0
  9
$USERI3
 70
     0
  9
$USERI4
 70
     0
  9
$USERI5
 70
     0
  9
$USERR1
 40
0.0
  9
$USERR2
 40
0.0
  9
$USERR3
 40
0.0
  9
$USERR4
 40
0.0
  9
$USERR5
 40
0.0
  9
$WORLDVIEW
 70
     1
  9
$SHADEDGE
 70
     3
  9
$SHADEDIF
 70
    70
  9
$TILEMODE
 70
     1
  9
$MAXACTVP
 70
    64
  9
$PINSBASE
 10
0.0
 20
0.0
 30
0.0
  9
$PLIMCHECK
 70
     0
  9
$PEXTMIN
 10
1.000000000000000E+20
 20
1.000000000000000E+20
 30
1.000000000000000E+20
  9
$PEXTMAX
 10
-1.000000000000000E+20
 20
-1.000000000000000E+20
 30
-1.000000000000000E+20
  9
$PLIMMIN
 10
0.0
 20
0.0
  9
$PLIMMAX
 10
420.0
 20
297.0
  9
$UNITMODE
 70
     0
  9
$VISRETAIN
 70
     1
  9
$PLINEGEN
 70
     0
  9
$PSLTSCALE
 70
     1
  9
$TREEDEPTH
 70
  3020
  9
$CMLSTYLE
  2
Standard
  9
$CMLJUST
 70
     0
  9
$CMLSCALE
 40
20.0
  9
$PROXYGRAPHICS
 70
     1
  9
$MEASUREMENT
 70
     1
  9
$CELWEIGHT
370
    -1
  9
$ENDCAPS
280
     0
  9
$JOINSTYLE
280
     0
  9
$LWDISPLAY
290
     1
  9
$INSUNITS
 70
     4
  9
$HYPERLINKBASE
  1

  9
$STYLESHEET
  1

  9
$XEDIT
290
     1
  9
$CEPSNTYPE
380
     0
  9
$PSTYLEMODE
290
     1
  9
$FINGERPRINTGUID
  2
{42F7C0B9-202F-4D42-8783-046B5087D2B2}
  9
$VERSIONGUID
  2
{C7270052-2C80-354A-B9AA-599D5BC1D1A9}
  9
$EXTNAMES
290
     1
  9
$PSVPSCALE
 40
0.0
  9
$OLESTARTUP
290
     0
  9
$SORTENTS
280
   127
  9
$INDEXCTL
280
     0
  9
$HIDETEXT
280
     0
  9
$XCLIPFRAME
280
     2
  9
$HALOGAP
280
     0
  9
$OBSCOLOR
 70
   257
  9
$OBSLTYPE
280
     0
  9
$INTERSECTIONDISPLAY
280
     0
  9
$INTERSECTIONCOLOR
 70
   257
  9
$DIMASSOC
280
     1
  9
$PROJECTNAME
  1

  9
$CAMERADISPLAY
290
     0
  9
$LENSLENGTH
 40
50.0
  9
$CAMERAHEIGHT
 40
0.0
  9
$STEPSPERSEC
 40
2.0
  9
$STEPSIZE
 40
6.0
  9
$3DDWFPREC
 40
2.0
  9
$PSOLWIDTH
 40
0.25
  9
$PSOLHEIGHT
 40
4.0
  9
$LOFTANG1
 40
1.570796326794896
  9
$LOFTANG2
 40
1.570796326794896
  9
$LOFTMAG1
 40
0.0
  9
$LOFTMAG2
 40
0.0
  9
$LOFTPARAM
 70
     7
  9
$LOFTNORMALS
280
     1
  9
$LATITUDE
 40
37.795
  9
$LONGITUDE
 40
-122.394
  9
$NORTHDIRECTION
 40
0.0
  9
$TIMEZONE
 70
 -8000
  9
$LIGHTGLYPHDISPLAY
280
     1
  9
$TILEMODELIGHTSYNCH
280
     1
  9
$CMATERIAL
347
151
  9
$SOLIDHIST
280
     0
  9
$SHOWHIST
280
     1
  9
$DWFFRAME
280
     2
  9
$DGNFRAME
280
     0
  9
$REALWORLDSCALE
290
     1
  9
$INTERFERECOLOR
 62
     1
  9
$INTERFEREOBJVS
345
173
  9
$INTERFEREVPVS
346
170
  9
$CSHADOW
280
     0
  9
$SHADOWPLANELOCATION
 40
0.0
  0
ENDSEC
  0
SECTION
  2
CLASSES
  0
CLASS
  1
ACDBDICTIONARYWDFLT
  2
AcDbDictionaryWithDefault
  3
ObjectDBX Classes
 90
        0
 91
        1
280
     0
281
     0
  0
CLASS
  1
VISUALSTYLE
  2
AcDbVisualStyle
  3
ObjectDBX Classes
 90
     4095
 91
       24
280
     0
281
     0
  0
CLASS
  1
MATERIAL
  2
AcDbMaterial
  3
ObjectDBX Classes
 90
     1153
 91
        3
280
     0
281
     0
  0
CLASS
  1
SCALE
  2
AcDbScale
  3
ObjectDBX Classes
 90
     1153
 91
       33
280
     0
281
     0
  0
CLASS
  1
TABLESTYLE
  2
AcDbTableStyle
  3
ObjectDBX Classes
 90
     4095
 91
        1
280
     0
281
     0
  0
CLASS
  1
MLEADERSTYLE
  2
AcDbMLeaderStyle
  3
ACDB_MLEADERSTYLE_CLASS
 90
     4095
 91
        1
280
     0
281
     0
  0
CLASS
  1
SUN
  2
AcDbSun
  3
SCENEOE
 90
     1153
 91
        0
280
     0
281
     0
  0
CLASS
  1
ACDBSECTIONVIEWSTYLE
  2
AcDbSectionViewStyle
  3
ObjectDBX Classes
 90
     1025
 91
        1
280
     0
281
     0
  0
CLASS
  1
ACDBDETAILVIEWSTYLE
  2
AcDbDetailViewStyle
  3
ObjectDBX Classes
 90
     1025
 91
        1
280
     0
281
     0
  0
CLASS
  1
ACDB_ALDIMOBJECTCONTEXTDATA_CLASS
  2
AcDbAlignedDimensionObjectContextData
  3
ObjectDBX Classes
 90
     1153
 91
       13
280
     0
281
     0
  0
CLASS
  1
DICTIONARYVAR
  2
AcDbDictionaryVar
  3
ObjectDBX Classes
 90
        0
 91
       18
280
     0
281
     0
  0
CLASS
  1
CELLSTYLEMAP
  2
AcDbCellStyleMap
  3
ObjectDBX Classes
 90
     1152
 91
        1
280
     0
281
     0
  0
ENDSEC
  0
SECTION
  2
TABLES
  0
TABLE
  2
VPORT
  5
8
330
0
100
AcDbSymbolTable
 70
     1
  0
VPORT
  5
29
330
8
100
AcDbSymbolTableRecord
100
AcDbViewportTableRecord
  2
*Active
 70
     0
 10
0.0
 20
0.0
 11
1.0
 21
1.0
 12
300.1917184231333
 22
-67.37857011773917
 13
0.0
 23
0.0
 14
10.0
 24
10.0
 15
10.0
 25
10.0
 16
0.0
 26
0.0
 36
1.0
 17
0.0
 27
0.0
 37
0.0
 40
1053.494814367494
 41
1.907960199004975
 42
50.0
 43
0.0
 44
0.0
 50
0.0
 51
0.0
 71
     0
 72
  2000
 73
     1
 74
     3
 75
     0
 76
     0
 77
     0
 78
     0
281
     0
 65
     1
110
0.0
120
0.0
130
0.0
111
1.0
121
0.0
131
0.0
112
0.0
122
1.0
132
0.0
 79
     0
146
0.0
348
16F
 60
     3
 61
     5
292
     1
282
     1
141
0.0
142
0.0
 63
   250
421
  3355443
1001
ACAD_NAV_VCDISPLAY
1070
     3
  0
ENDTAB
  0
TABLE
  2
LTYPE
  5
5
330
0
100
AcDbSymbolTable
 70
     6
  0
LTYPE
  5
14
330
5
100
AcDbSymbolTableRecord
100
AcDbLinetypeTableRecord
  2
ByBlock
 70
     0
  3

 72
    65
 73
     0
 40
0.0
  0
LTYPE
  5
15
330
5
100
AcDbSymbolTableRecord
100
AcDbLinetypeTableRecord
  2
ByLayer
 70
     0
  3

 72
    65
 73
     0
 40
0.0
  0
LTYPE
  5
16
330
5
100
AcDbSymbolTableRecord
100
AcDbLinetypeTableRecord
  2
Continuous
 70
     0
  3
Solid line
 72
    65
 73
     0
 40
0.0
  0
LTYPE
  5
6E
330
5
100
AcDbSymbolTableRecord
100
AcDbLinetypeTableRecord
  2
HIDDEN
 70
     0
  3
Hidden __ __ __ __ __ __ __ __ __ __ __ __ __ __
 72
    65
 73
     2
 40
1.905
 49
1.27
 74
     0
 49
-0.635
 74
     0
  0
LTYPE
  5
6F
330
5
100
AcDbSymbolTableRecord
100
AcDbLinetypeTableRecord
  2
PHANTOM
 70
     0
  3
Phantom ______  __  __  ______  __  __  ______
 72
    65
 73
     6
 40
12.7
 49
6.349999999999999
 74
     0
 49
-1.27
 74
     0
 49
1.27
 74
     0
 49
-1.27
 74
     0
 49
1.27
 74
     0
 49
-1.27
 74
     0
  0
LTYPE
  5
70
330
5
100
AcDbSymbolTableRecord
100
AcDbLinetypeTableRecord
  2
CENTER
 70
     0
  3
Center ____ _ ____ _ ____ _ ____ _ ____ _ ____
 72
    65
 73
     4
 40
10.16
 49
6.349999999999999
 74
     0
 49
-1.27
 74
     0
 49
1.27
 74
     0
 49
-1.27
 74
     0
  0
LTYPE
  5
71
330
5
100
AcDbSymbolTableRecord
100
AcDbLinetypeTableRecord
  2
CENTERX2
 70
     0
  3
Center (2x) ________  __  ________  __  _____
 72
    65
 73
     4
 40
20.32
 49
12.7
 74
     0
 49
-2.54
 74
     0
 49
2.54
 74
     0
 49
-2.54
 74
     0
  0
LTYPE
  5
72
330
5
100
AcDbSymbolTableRecord
100
AcDbLinetypeTableRecord
  2
DOT2
 70
     0
  3
Dot (.5x) ........................................
 72
    65
 73
     2
 40
0.635
 49
0.0
 74
     0
 49
-0.635
 74
     0
  0
ENDTAB
  0
TABLE
  2
LAYER
  5
2
102
{ACAD_XDICTIONARY
360
1BD
102
}
330
0
100
AcDbSymbolTable
 70
     4
  0
LAYER
  5
10
102
{ACAD_XDICTIONARY
360
2DF
102
}
330
2
100
AcDbSymbolTableRecord
100
AcDbLayerTableRecord
  2
0
 70
     0
 62
     7
  6
Continuous
370
    -3
390
F
347
161
348
0
  0
LAYER
  5
73
102
{ACAD_XDICTIONARY
360
2E1
102
}
330
2
100
AcDbSymbolTableRecord
100
AcDbLayerTableRecord
  2
FORMAT
 70
     0
 62
     7
  6
Continuous
370
    -3
390
F
347
161
348
0
  0
LAYER
  5
18F
330
2
100
AcDbSymbolTableRecord
100
AcDbLayerTableRecord
  2
Defpoints
 70
     0
 62
     7
  6
Continuous
290
     0
370
    -3
390
F
347
161
348
0
  0
LAYER
  5
1B5
102
{ACAD_XDICTIONARY
360
2E3
102
}
330
2
100
AcDbSymbolTableRecord
100
AcDbLayerTableRecord
  2
DIMENSION
 70
     0
 62
   255
  6
Continuous
370
    -3
390
F
347
161
348
0
  0
ENDTAB
  0
TABLE
  2
STYLE
  5
3
330
0
100
AcDbSymbolTable
 70
     2
  0
STYLE
  5
11
330
3
100
AcDbSymbolTableRecord
100
AcDbTextStyleTableRecord
  2
Standard
 70
     0
 40
0.0
 41
1.0
 50
0.0
 71
     0
 42
3.5
  3
txt
  4

  0
STYLE
  5
9B
330
3
100
AcDbSymbolTableRecord
100
AcDbTextStyleTableRecord
  2
SLDTEXTSTYLE0
 70
     0
 40
0.0
 41
0.75
 50
0.0
 71
     0
 42
3.5
  3
TXT
  4

  0
ENDTAB
  0
TABLE
  2
VIEW
  5
6
330
0
100
AcDbSymbolTable
 70
     0
  0
ENDTAB
  0
TABLE
  2
UCS
  5
7
330
0
100
AcDbSymbolTable
 70
     0
  0
ENDTAB
  0
TABLE
  2
APPID
  5
9
330
0
100
AcDbSymbolTable
 70
     7
  0
APPID
  5
12
330
9
100
AcDbSymbolTableRecord
100
AcDbRegAppTableRecord
  2
ACAD
 70
     0
  0
APPID
  5
1B7
330
9
100
AcDbSymbolTableRecord
100
AcDbRegAppTableRecord
  2
ACAD_PSEXT
 70
     0
  0
APPID
  5
1B8
330
9
100
AcDbSymbolTableRecord
100
AcDbRegAppTableRecord
  2
AcadAnnotative
 70
     0
  0
APPID
  5
1B9
330
9
100
AcDbSymbolTableRecord
100
AcDbRegAppTableRecord
  2
ACAD_DSTYLE_DIMJAG
 70
     0
  0
APPID
  5
1BA
330
9
100
AcDbSymbolTableRecord
100
AcDbRegAppTableRecord
  2
ACAD_DSTYLE_DIMTALN
 70
     0
  0
APPID
  5
1BB
330
9
100
AcDbSymbolTableRecord
100
AcDbRegAppTableRecord
  2
ACAD_NAV_VCDISPLAY
 70
     0
  0
APPID
  5
1BC
330
9
100
AcDbSymbolTableRecord
100
AcDbRegAppTableRecord
  2
ACAD_DSTYLE_DIMBREAK
 70
     0
  0
ENDTAB
  0
TABLE
  2
DIMSTYLE
  5
A
330
0
100
AcDbSymbolTable
 70
     3
100
AcDbDimStyleTable
 71
     2
340
1B6
340
27
  0
DIMSTYLE
105
27
330
A
100
AcDbSymbolTableRecord
100
AcDbDimStyleTableRecord
  2
ISO-25
 70
     0
 41
2.5
 42
0.625
 43
3.75
 44
1.25
 73
     0
 74
     0
 77
     1
 78
     8
140
2.5
141
2.5
143
0.0393700787
147
0.625
171
     3
172
     1
271
     2
272
     2
274
     3
278
    44
283
     0
284
     8
340
11
  0
DIMSTYLE
105
9C
330
A
100
AcDbSymbolTableRecord
100
AcDbDimStyleTableRecord
  2
SLDDIMSTYLE0
 70
     0
 41
3.302
 44
0.0
 45
0.000000001
 73
     0
 74
     0
 77
     1
 78
     4
 79
     1
140
12.7
147
3.174999999999999
173
     1
271
     2
272
     2
276
     2
284
    12
340
9B
341
9D
343
9D
344
9D
  0
DIMSTYLE
105
1B6
102
{ACAD_REACTORS
330
1C0
330
18E
330
143
330
13B
330
19D
330
FC
330
F4
330
AF
330
A7
330
9A
330
10D
330
105
102
}
330
A
100
AcDbSymbolTableRecord
100
AcDbDimStyleTableRecord
  2
RG Dimension Lines
 70
     0
 40
12.0
 41
3.5
 42
1.0
 43
10.0
 44
5.0
 49
5.0
 77
     2
140
8.0
141
0.0
147
4.0
172
     1
176
   256
177
   256
178
     7
271
     0
272
     0
290
     1
340
11
341
9D
342
9D
371
     0
372
     0
1001
ACAD_DSTYLE_DIMBREAK
1070
   391
1040
0.125
1001
AcadAnnotative
1000
AnnotativeData
1002
{
1070
     1
1070
     1
1002
}
1001
ACAD_DSTYLE_DIMJAG
1070
   388
1040
1.5
1001
ACAD_DSTYLE_DIMTALN
1070
   392
1070
     0
  0
ENDTAB
  0
TABLE
  2
BLOCK_RECORD
  5
1
330
0
100
AcDbSymbolTable
 70
    27
  0
BLOCK_RECORD
  5
1F
330
1
100
AcDbSymbolTableRecord
100
AcDbBlockTableRecord
  2
*Model_Space
340
22
 70
     0
280
     1
281
     0
  0
BLOCK_RECORD
  5
1B
330
1
100
AcDbSymbolTableRecord
100
AcDbBlockTableRecord
  2
*Paper_Space
340
1E
 70
     0
280
     1
281
     0
  0
BLOCK_RECORD
  5
23
330
1
100
AcDbSymbolTableRecord
100
AcDbBlockTableRecord
  2
*Paper_Space0
340
26
 70
     0
280
     1
281
     0
  0
BLOCK_RECORD
  5
9D
330
1
100
AcDbSymbolTableRecord
100
AcDbBlockTableRecord
  2
_None
340
0
 70
     0
280
     1
281
     0
  0
BLOCK_RECORD
  5
A0
330
1
100
AcDbSymbolTableRecord
100
AcDbBlockTableRecord
  2
_D
340
0
 70
     0
280
     1
281
     0
  0
BLOCK_RECORD
  5
A8
330
1
100
AcDbSymbolTableRecord
100
AcDbBlockTableRecord
  2
_D_1
340
0
 70
     0
280
     1
281
     0
  0
BLOCK_RECORD
  5
B0
330
1
100
AcDbSymbolTableRecord
100
AcDbBlockTableRecord
  2
_D_2
340
0
 70
     0
280
     1
281
     0
  0
BLOCK_RECORD
  5
F5
330
1
100
AcDbSymbolTableRecord
100
AcDbBlockTableRecord
  2
_D_3
340
0
 70
     0
280
     1
281
     0
  0
BLOCK_RECORD
  5
FD
330
1
100
AcDbSymbolTableRecord
100
AcDbBlockTableRecord
  2
_D_4
340
0
 70
     0
280
     1
281
     0
  0
BLOCK_RECORD
  5
106
330
1
100
AcDbSymbolTableRecord
100
AcDbBlockTableRecord
  2
_D_5
340
0
 70
     0
280
     1
281
     0
  0
BLOCK_RECORD
  5
10E
330
1
100
AcDbSymbolTableRecord
100
AcDbBlockTableRecord
  2
_D_6
340
0
 70
     0
280
     1
281
     0
  0
BLOCK_RECORD
  5
13C
330
1
100
AcDbSymbolTableRecord
100
AcDbBlockTableRecord
  2
_D_7
340
0
 70
     0
280
     1
281
     0
  0
BLOCK_RECORD
  5
144
330
1
100
AcDbSymbolTableRecord
100
AcDbBlockTableRecord
  2
_D_8
340
0
 70
     0
280
     1
281
     0
  0
BLOCK_RECORD
  5
190
330
1
100
AcDbSymbolTableRecord
100
AcDbBlockTableRecord
  2
*D11
340
0
 70
     0
280
     1
281
     0
  0
BLOCK_RECORD
  5
19E
330
1
100
AcDbSymbolTableRecord
100
AcDbBlockTableRecord
  2
*D12
340
0
 70
     0
280
     1
281
     0
  0
BLOCK_RECORD
  5
1AB
330
1
100
AcDbSymbolTableRecord
100
AcDbBlockTableRecord
  2
*D13
340
0
 70
     0
280
     1
281
     0
  0
BLOCK_RECORD
  5
1CE
330
1
100
AcDbSymbolTableRecord
100
AcDbBlockTableRecord
  2
*D15
340
0
 70
     0
280
     1
281
     0
  0
BLOCK_RECORD
  5
1D8
330
1
100
AcDbSymbolTableRecord
100
AcDbBlockTableRecord
  2
*D16
340
0
 70
     0
280
     1
281
     0
  0
BLOCK_RECORD
  5
1E6
330
1
100
AcDbSymbolTableRecord
100
AcDbBlockTableRecord
  2
*D17
340
0
 70
     0
280
     1
281
     0
  0
BLOCK_RECORD
  5
1F5
330
1
100
AcDbSymbolTableRecord
100
AcDbBlockTableRecord
  2
*D18
340
0
 70
     0
280
     1
281
     0
  0
BLOCK_RECORD
  5
203
330
1
100
AcDbSymbolTableRecord
100
AcDbBlockTableRecord
  2
*D19
340
0
 70
     0
280
     1
281
     0
  0
BLOCK_RECORD
  5
211
330
1
100
AcDbSymbolTableRecord
100
AcDbBlockTableRecord
  2
*D20
340
0
 70
     0
280
     1
281
     0
  0
BLOCK_RECORD
  5
21F
330
1
100
AcDbSymbolTableRecord
100
AcDbBlockTableRecord
  2
*D21
340
0
 70
     0
280
     1
281
     0
  0
BLOCK_RECORD
  5
22D
330
1
100
AcDbSymbolTableRecord
100
AcDbBlockTableRecord
  2
*D22
340
0
 70
     0
280
     1
281
     0
  0
BLOCK_RECORD
  5
23B
330
1
100
AcDbSymbolTableRecord
100
AcDbBlockTableRecord
  2
*D23
340
0
 70
     0
280
     1
281
     0
  0
BLOCK_RECORD
  5
249
330
1
100
AcDbSymbolTableRecord
100
AcDbBlockTableRecord
  2
*D24
340
0
 70
     0
280
     1
281
     0
  0
BLOCK_RECORD
  5
273
330
1
100
AcDbSymbolTableRecord
100
AcDbBlockTableRecord
  2
*D25
340
0
 70
     0
280
     1
281
     0
  0
BLOCK_RECORD
  5
282
330
1
100
AcDbSymbolTableRecord
100
AcDbBlockTableRecord
  2
*D26
340
0
 70
     0
280
     1
281
     0
  0
ENDTAB
  0
ENDSEC
  0
SECTION
  2
BLOCKS
  0
BLOCK
  5
20
330
1F
100
AcDbEntity
  8
0
100
AcDbBlockBegin
  2
*Model_Space
 70
     0
 10
0.0
 20
0.0
 30
0.0
  3
*Model_Space
  1

  0
ENDBLK
  5
21
330
1F
100
AcDbEntity
  8
0
100
AcDbBlockEnd
  0
BLOCK
  5
1C
330
1B
100
AcDbEntity
 67
     1
  8
0
100
AcDbBlockBegin
  2
*Paper_Space
 70
     0
 10
0.0
 20
0.0
 30
0.0
  3
*Paper_Space
  1

  0
ENDBLK
  5
1D
330
1B
100
AcDbEntity
 67
     1
  8
0
100
AcDbBlockEnd
  0
BLOCK
  5
24
330
23
100
AcDbEntity
 67
     1
  8
0
100
AcDbBlockBegin
  2
*Paper_Space0
 70
     0
 10
0.0
 20
0.0
 30
0.0
  3
*Paper_Space0
  1

  0
ENDBLK
  5
25
330
23
100
AcDbEntity
 67
     1
  8
0
100
AcDbBlockEnd
  0
BLOCK
  5
9E
330
9D
100
AcDbEntity
  8
0
100
AcDbBlockBegin
  2
_None
 70
     0
 10
0.0
 20
0.0
 30
0.0
  3
_None
  1

  0
ENDBLK
  5
9F
330
9D
100
AcDbEntity
  8
0
100
AcDbBlockEnd
  0
BLOCK
  5
A1
330
A0
100
AcDbEntity
  8
0
100
AcDbBlockBegin
  2
_D
 70
     0
 10
0.0
 20
0.0
 30
0.0
  3
_D
  1

  0
LINE
  5
A3
330
A0
100
AcDbEntity
  8
0
  6
Continuous
 62
     7
440
 16777216
370
     0
100
AcDbLine
 10
-315.4819225585
 20
-1190.1762055306
 30
0.0
 11
-315.4819225585
 21
-1241.0594296238
 31
0.0
  0
LINE
  5
A4
330
A0
100
AcDbEntity
  8
0
  6
Continuous
 62
     7
440
 16777216
370
     0
100
AcDbLine
 10
-65.4819225585
 20
-150.3917998577
 30
0.0
 11
-65.4819225585
 21
-1241.0594296238
 31
0.0
  0
LINE
  5
A5
330
A0
100
AcDbEntity
  8
0
  6
Continuous
 62
     7
440
 16777216
370
     0
100
AcDbLine
 10
-315.4819225585
 20
-1240.0594296238
 30
0.0
 11
-65.4819225585
 21
-1240.0594296238
 31
0.0
  0
MTEXT
  5
A6
330
A0
100
AcDbEntity
  8
0
  6
Continuous
 62
     7
440
 16777216
370
    18
100
AcDbMText
 10
-215.8109649616
 20
-1223.6882711913
 30
0.0
 40
12.7
 41
0.0
 46
0.0
 71
     1
 72
     1
  1
250.00
  7
SLDTEXTSTYLE0
 73
     1
 44
1.0
  0
ENDBLK
  5
A2
330
A0
100
AcDbEntity
  8
0
100
AcDbBlockEnd
  0
BLOCK
  5
A9
330
A8
100
AcDbEntity
  8
0
100
AcDbBlockBegin
  2
_D_1
 70
     0
 10
0.0
 20
0.0
 30
0.0
  3
_D_1
  1

  0
LINE
  5
AB
330
A8
100
AcDbEntity
  8
0
  6
Continuous
 62
     7
440
 16777216
370
     0
100
AcDbLine
 10
-30.4575837098
 20
-124.0863307978
 30
0.0
 11
24.2180774415
 21
-124.0863307978
 31
0.0
  0
LINE
  5
AC
330
A8
100
AcDbEntity
  8
0
  6
Continuous
 62
     7
440
 16777216
370
     0
100
AcDbLine
 10
-241.9057854685
 20
-1176.0594296238
 30
0.0
 11
24.2180774415
 21
-1176.0594296238
 31
0.0
  0
LINE
  5
AD
330
A8
100
AcDbEntity
  8
0
  6
Continuous
 62
     7
440
 16777216
370
     0
100
AcDbLine
 10
23.2180774415
 20
-124.0863307978
 30
0.0
 11
23.2180774415
 21
-1176.0594296238
 31
0.0
  0
MTEXT
  5
AE
330
A8
100
AcDbEntity
  8
0
  6
Continuous
 62
     7
440
 16777216
370
    18
100
AcDbMText
 10
6.846919009099999
 20
-651.1844972865
 30
0.0
 40
12.7
 41
0.0
 46
0.0
 71
     1
 72
     1
  1
1050.00
  7
SLDTEXTSTYLE0
 11
-0.000000000000007
 21
1.0
 31
0.0
 73
     1
 44
1.0
  0
ENDBLK
  5
AA
330
A8
100
AcDbEntity
  8
0
100
AcDbBlockEnd
  0
BLOCK
  5
B1
330
B0
100
AcDbEntity
  8
0
100
AcDbBlockBegin
  2
_D_2
 70
     0
 10
0.0
 20
0.0
 30
0.0
  3
_D_2
  1

  0
LINE
  5
B3
330
B0
100
AcDbEntity
  8
0
  6
Continuous
 62
     7
440
 16777216
370
     0
100
AcDbLine
 10
-271.1222465088
 20
33.6136692022
 30
0.0
 11
-454.4819225584999
 21
33.6136692022
 31
0.0
  0
LINE
  5
B4
330
B0
100
AcDbEntity
  8
0
  6
Continuous
 62
     7
440
 16777216
370
     0
100
AcDbLine
 10
-395.2537335909
 20
-1176.0594296238
 30
0.0
 11
-454.4819225584999
 21
-1176.0594296238
 31
0.0
  0
LINE
  5
B5
330
B0
100
AcDbEntity
  8
0
  6
Continuous
 62
     7
440
 16777216
370
     0
100
AcDbLine
 10
-453.4819225585
 20
33.6136692022
 30
0.0
 11
-453.4819225585
 21
-1176.0594296238
 31
0.0
  0
MTEXT
  5
B6
330
B0
100
AcDbEntity
  8
0
  6
Continuous
 62
     7
440
 16777216
370
    18
100
AcDbMText
 10
-469.8530809909
 20
-651.2675159709999
 30
0.0
 40
12.7
 41
0.0
 46
0.0
 71
     1
 72
     1
  1
1210.00
  7
SLDTEXTSTYLE0
 11
-0.000000000000007
 21
1.0
 31
0.0
 73
     1
 44
1.0
  0
ENDBLK
  5
B2
330
B0
100
AcDbEntity
  8
0
100
AcDbBlockEnd
  0
BLOCK
  5
F6
330
F5
100
AcDbEntity
  8
0
100
AcDbBlockBegin
  2
_D_3
 70
     0
 10
0.0
 20
0.0
 30
0.0
  3
_D_3
  1

  0
LINE
  5
F8
330
F5
100
AcDbEntity
  8
0
  6
Continuous
 62
     7
440
 16777216
370
     0
100
AcDbLine
 10
161.0490418057
 20
-276.0594296238
 30
0.0
 11
95.8786552567
 21
-276.0594296238
 31
0.0
  0
LINE
  5
F9
330
F5
100
AcDbEntity
  8
0
  6
Continuous
 62
     7
440
 16777216
370
     0
100
AcDbLine
 10
161.4513686276
 20
-1176.0594296238
 30
0.0
 11
95.8786552567
 21
-1176.0594296238
 31
0.0
  0
LINE
  5
FA
330
F5
100
AcDbEntity
  8
0
  6
Continuous
 62
     7
440
 16777216
370
     0
100
AcDbLine
 10
96.8786552567
 20
-276.0594296238
 30
0.0
 11
96.8786552567
 21
-1176.0594296238
 31
0.0
  0
MTEXT
  5
FB
330
F5
100
AcDbEntity
  8
0
  6
Continuous
 62
     7
440
 16777216
370
    18
100
AcDbMText
 10
80.5074968243
 20
-644.2851492977999
 30
0.0
 40
12.7
 41
0.0
 46
0.0
 71
     1
 72
     1
  1
900.00
  7
SLDTEXTSTYLE0
 11
-0.000000000000007
 21
1.0
 31
0.0
 73
     1
 44
1.0
  0
ENDBLK
  5
F7
330
F5
100
AcDbEntity
  8
0
100
AcDbBlockEnd
  0
BLOCK
  5
FE
330
FD
100
AcDbEntity
  8
0
100
AcDbBlockBegin
  2
_D_4
 70
     0
 10
0.0
 20
0.0
 30
0.0
  3
_D_4
  1

  0
LINE
  5
100
330
FD
100
AcDbEntity
  8
0
  6
Continuous
 62
     7
440
 16777216
370
     0
100
AcDbLine
 10
289.8786552566999
 20
-1192.9643886235
 30
0.0
 11
289.8786552566999
 21
-1241.0594296238
 31
0.0
  0
LINE
  5
101
330
FD
100
AcDbEntity
  8
0
  6
Continuous
 62
     7
440
 16777216
370
     0
100
AcDbLine
 10
191.8786552567
 20
-1194.823177352
 30
0.0
 11
191.8786552567
 21
-1241.0594296238
 31
0.0
  0
LINE
  5
102
330
FD
100
AcDbEntity
  8
0
  6
Continuous
 62
     7
440
 16777216
370
     0
100
AcDbLine
 10
289.8786552566999
 20
-1240.0594296238
 30
0.0
 11
191.8786552567
 21
-1240.0594296238
 31
0.0
  0
MTEXT
  5
103
330
FD
100
AcDbEntity
  8
0
  6
Continuous
 62
     7
440
 16777216
370
    18
100
AcDbMText
 10
199.7010159527
 20
-1223.6882693287
 30
0.0
 40
12.7
 41
0.0
 46
0.0
 71
     1
 72
     1
  1
%%c
  7
SLDTEXTSTYLE0
 73
     1
 44
1.0
  0
MTEXT
  5
104
330
FD
100
AcDbEntity
  8
0
  6
Continuous
 62
     7
440
 16777216
370
    18
100
AcDbMText
 10
218.8709612225
 20
-1223.6882693287
 30
0.0
 40
12.7
 41
0.0
 46
0.0
 71
     1
 72
     1
  1
100.00
  7
SLDTEXTSTYLE0
 73
     1
 44
1.0
  0
ENDBLK
  5
FF
330
FD
100
AcDbEntity
  8
0
100
AcDbBlockEnd
  0
BLOCK
  5
107
330
106
100
AcDbEntity
  8
0
100
AcDbBlockBegin
  2
_D_5
 70
     0
 10
0.0
 20
0.0
 30
0.0
  3
_D_5
  1

  0
LINE
  5
109
330
106
100
AcDbEntity
  8
0
  6
Continuous
 62
     7
440
 16777216
370
     0
100
AcDbLine
 10
334.5357607412
 20
-298.5594293002
 30
0.0
 11
366.9786552567
 21
-298.5594293002
 31
0.0
  0
LINE
  5
10A
330
106
100
AcDbEntity
  8
0
  6
Continuous
 62
     7
440
 16777216
370
     0
100
AcDbLine
 10
324.284127006
 20
-214.5594293145
 30
0.0
 11
366.9786552567
 21
-214.5594293145
 31
0.0
  0
LINE
  5
10B
330
106
100
AcDbEntity
  8
0
  6
Continuous
 62
     7
440
 16777216
370
     0
100
AcDbLine
 10
365.9786552567
 20
-298.5594293002
 30
0.0
 11
365.9786552567
 21
-214.5594293145
 31
0.0
  0
MTEXT
  5
10C
330
106
100
AcDbEntity
  8
0
  6
Continuous
 62
     7
440
 16777216
370
    18
100
AcDbMText
 10
349.6074968243001
 20
-278.774990583
 30
0.0
 40
12.7
 41
0.0
 46
0.0
 71
     1
 72
     1
  1
85.00
  7
SLDTEXTSTYLE0
 11
0.0000000000000001
 21
1.0
 31
0.0
 73
     1
 44
1.0
  0
ENDBLK
  5
108
330
106
100
AcDbEntity
  8
0
100
AcDbBlockEnd
  0
BLOCK
  5
10F
330
10E
100
AcDbEntity
  8
0
100
AcDbBlockBegin
  2
_D_6
 70
     0
 10
0.0
 20
0.0
 30
0.0
  3
_D_6
  1

  0
LINE
  5
111
330
10E
100
AcDbEntity
  8
0
  6
Continuous
 62
     7
440
 16777216
370
     0
100
AcDbLine
 10
228.1786552567
 20
39.3560072875
 30
0.0
 11
228.1786552567
 21
74.6136692022
 31
0.0
  0
LINE
  5
112
330
10E
100
AcDbEntity
  8
0
  6
Continuous
 62
     7
440
 16777216
370
     0
100
AcDbLine
 10
253.5786552567
 20
38.8745063105
 30
0.0
 11
253.5786552567
 21
74.6136692022
 31
0.0
  0
LINE
  5
113
330
10E
100
AcDbEntity
  8
0
  6
Continuous
 62
     7
440
 16777216
370
     0
100
AcDbLine
 10
228.1786552567
 20
73.6136692022
 30
0.0
 11
253.5786552567
 21
73.6136692022
 31
0.0
  0
LINE
  5
114
330
10E
100
AcDbEntity
  8
0
  6
Continuous
 62
     7
440
 16777216
370
     0
100
AcDbLine
 10
253.5786552567
 20
73.6136692022
 30
0.0
 11
308.1639438456
 21
73.6136692022
 31
0.0
  0
MTEXT
  5
115
330
10E
100
AcDbEntity
  8
0
  6
Continuous
 62
     7
440
 16777216
370
    18
100
AcDbMText
 10
265.9482016748
 20
89.9848276346
 30
0.0
 40
12.7
 41
0.0
 46
0.0
 71
     1
 72
     1
  1
25.00
  7
SLDTEXTSTYLE0
 73
     1
 44
1.0
  0
ENDBLK
  5
110
330
10E
100
AcDbEntity
  8
0
100
AcDbBlockEnd
  0
BLOCK
  5
13D
330
13C
100
AcDbEntity
  8
0
100
AcDbBlockBegin
  2
_D_7
 70
     0
 10
0.0
 20
0.0
 30
0.0
  3
_D_7
  1

  0
LINE
  5
13F
330
13C
100
AcDbEntity
  8
0
  6
Continuous
 62
     7
440
 16777216
370
     0
100
AcDbLine
 10
-355.3065554805
 20
330.4485085575
 30
0.0
 11
-454.4819225584999
 21
330.4485085575
 31
0.0
  0
LINE
  5
140
330
13C
100
AcDbEntity
  8
0
  6
Continuous
 62
     7
440
 16777216
370
     0
100
AcDbLine
 10
-355.3065554805
 20
201.3485085575
 30
0.0
 11
-454.4819225584999
 21
201.3485085575
 31
0.0
  0
LINE
  5
141
330
13C
100
AcDbEntity
  8
0
  6
Continuous
 62
     7
440
 16777216
370
     0
100
AcDbLine
 10
-453.4819225585
 20
330.4485085575
 30
0.0
 11
-453.4819225585
 21
201.3485085575
 31
0.0
  0
MTEXT
  5
142
330
13C
100
AcDbEntity
  8
0
  6
Continuous
 62
     7
440
 16777216
370
    18
100
AcDbMText
 10
-469.8530809909
 20
233.3509264164
 30
0.0
 40
12.7
 41
0.0
 46
0.0
 71
     1
 72
     1
  1
130.00
  7
SLDTEXTSTYLE0
 11
-0.000000000000007
 21
1.0
 31
0.0
 73
     1
 44
1.0
  0
ENDBLK
  5
13E
330
13C
100
AcDbEntity
  8
0
100
AcDbBlockEnd
  0
BLOCK
  5
145
330
144
100
AcDbEntity
  8
0
100
AcDbBlockBegin
  2
_D_8
 70
     0
 10
0.0
 20
0.0
 30
0.0
  3
_D_8
  1

  0
LINE
  5
147
330
144
100
AcDbEntity
  8
0
  6
Continuous
 62
     7
440
 16777216
370
     0
100
AcDbLine
 10
-337.9669225585
 20
343.7362839581
 30
0.0
 11
-337.9669225585
 21
389.4485085574
 31
0.0
  0
LINE
  5
148
330
144
100
AcDbEntity
  8
0
  6
Continuous
 62
     7
440
 16777216
370
     0
100
AcDbLine
 10
-292.9669225585
 20
346.0181401313
 30
0.0
 11
-292.9669225585
 21
389.4485085574
 31
0.0
  0
LINE
  5
149
330
144
100
AcDbEntity
  8
0
  6
Continuous
 62
     7
440
 16777216
370
     0
100
AcDbLine
 10
-337.9669225585
 20
388.4485085574
 30
0.0
 11
-292.9669225585
 21
388.4485085574
 31
0.0
  0
LINE
  5
14A
330
144
100
AcDbEntity
  8
0
  6
Continuous
 62
     7
440
 16777216
370
     0
100
AcDbLine
 10
-292.9669225585
 20
388.4485085574
 30
0.0
 11
-230.7408304665
 21
388.4485085574
 31
0.0
  0
MTEXT
  5
14B
330
144
100
AcDbEntity
  8
0
  6
Continuous
 62
     7
440
 16777216
370
    18
100
AcDbMText
 10
-292.1265141819
 20
404.8196688526
 30
0.0
 40
12.7
 41
0.0
 46
0.0
 71
     1
 72
     1
  1
%%c
  7
SLDTEXTSTYLE0
 73
     1
 44
1.0
  0
MTEXT
  5
14C
330
144
100
AcDbEntity
  8
0
  6
Continuous
 62
     7
440
 16777216
370
    18
100
AcDbMText
 10
-272.9565689121
 20
404.8196688526
 30
0.0
 40
12.7
 41
0.0
 46
0.0
 71
     1
 72
     1
  1
45.00
  7
SLDTEXTSTYLE0
 73
     1
 44
1.0
  0
ENDBLK
  5
146
330
144
100
AcDbEntity
  8
0
100
AcDbBlockEnd
  0
BLOCK
  5
191
330
190
100
AcDbEntity
  8
0
100
AcDbBlockBegin
  2
*D11
 70
     1
 10
0.0
 20
0.0
 30
0.0
  3
*D11
  1

  0
LINE
  5
193
330
190
100
AcDbEntity
  8
0
 62
     0
440
 16777216
370
    -2
100
AcDbLine
 10
-316.4669225558501
 20
330.4485085575001
 30
0.0
 11
-400.3609409630646
 21
330.4485085575001
 31
0.0
  0
LINE
  5
194
330
190
100
AcDbEntity
  8
0
 62
     0
440
 16777216
370
    -2
100
AcDbLine
 10
-316.4819225585001
 20
251.3485085575001
 30
0.0
 11
-400.3609409630646
 21
251.3485085575001
 31
0.0
  0
LINE
  5
195
330
190
100
AcDbEntity
  8
0
 62
     0
440
 16777216
370
    -2
100
AcDbLine
 10
-399.3609409630646
 20
327.1465085575
 30
0.0
 11
-399.3609409630646
 21
294.4641752241667
 31
0.0
  0
LINE
  5
196
330
190
100
AcDbEntity
  8
0
 62
     0
440
 16777216
370
    -2
100
AcDbLine
 10
-399.3609409630646
 20
254.6505085575001
 30
0.0
 11
-399.3609409630646
 21
287.3328418908334
 31
0.0
  0
SOLID
  5
197
330
190
100
AcDbEntity
  8
0
 62
     0
440
 16777216
100
AcDbTrace
 10
-399.911274296398
 20
327.1465085575
 30
0.0
 11
-398.8106076297313
 21
327.1465085575
 31
0.0
 12
-399.3609409630646
 22
330.4485085575001
 32
0.0
 13
-399.3609409630646
 23
330.4485085575001
 33
0.0
  0
SOLID
  5
198
330
190
100
AcDbEntity
  8
0
 62
     0
440
 16777216
100
AcDbTrace
 10
-399.911274296398
 20
254.6505085575001
 30
0.0
 11
-398.8106076297313
 21
254.6505085575001
 31
0.0
 12
-399.3609409630646
 22
251.3485085575001
 32
0.0
 13
-399.3609409630646
 23
251.3485085575001
 33
0.0
  0
MTEXT
  5
199
330
190
100
AcDbEntity
  8
0
 62
     0
440
 16777216
100
AcDbMText
 10
-399.3609409630645
 20
290.8985085575001
 30
0.0
 40
3.5
 41
0.0
 46
0.0
 71
     5
 72
     1
  1
791,00
 73
     1
 44
1.0
  0
POINT
  5
19A
330
190
100
AcDbEntity
  8
Defpoints
 62
     0
440
 16777216
100
AcDbPoint
 10
-315.4669225558501
 20
330.4485085575001
 30
0.0
  0
POINT
  5
19B
330
190
100
AcDbEntity
  8
Defpoints
 62
     0
440
 16777216
100
AcDbPoint
 10
-315.4819225585001
 20
251.3485085575001
 30
0.0
  0
POINT
  5
19C
330
190
100
AcDbEntity
  8
Defpoints
 62
     0
440
 16777216
100
AcDbPoint
 10
-399.3609409630646
 20
251.3485085575001
 30
0.0
  0
ENDBLK
  5
192
330
190
100
AcDbEntity
  8
0
100
AcDbBlockEnd
  0
BLOCK
  5
19F
330
19E
100
AcDbEntity
  8
0
100
AcDbBlockBegin
  2
*D12
 70
     1
 10
0.0
 20
0.0
 30
0.0
  3
*D12
  1

  0
LINE
  5
1A1
330
19E
100
AcDbEntity
  8
0
 62
     0
440
 16777216
370
    -2
100
AcDbLine
 10
-264.4819225585001
 20
-1176.0594296238
 30
0.0
 11
-224.1120553986258
 21
-1176.0594296238
 31
0.0
  0
LINE
  5
1A2
330
19E
100
AcDbEntity
  8
0
 62
     0
440
 16777216
370
    -2
100
AcDbLine
 10
-264.4819225585001
 20
-1151.0594296238
 30
0.0
 11
-224.1120553986258
 21
-1151.0594296238
 31
0.0
  0
LINE
  5
1A3
330
19E
100
AcDbEntity
  8
0
 62
     0
440
 16777216
370
    -2
100
AcDbLine
 10
-225.1120553986258
 20
-1172.7574296238
 30
0.0
 11
-225.1120553986258
 21
-1167.125096290467
 31
0.0
  0
LINE
  5
1A4
330
19E
100
AcDbEntity
  8
0
 62
     0
440
 16777216
370
    -2
100
AcDbLine
 10
-225.1120553986258
 20
-1154.3614296238
 30
0.0
 11
-225.1120553986258
 21
-1159.993762957134
 31
0.0
  0
SOLID
  5
1A5
330
19E
100
AcDbEntity
  8
0
 62
     0
440
 16777216
100
AcDbTrace
 10
-225.6623887319591
 20
-1172.7574296238
 30
0.0
 11
-224.5617220652925
 21
-1172.7574296238
 31
0.0
 12
-225.1120553986258
 22
-1176.0594296238
 32
0.0
 13
-225.1120553986258
 23
-1176.0594296238
 33
0.0
  0
SOLID
  5
1A6
330
19E
100
AcDbEntity
  8
0
 62
     0
440
 16777216
100
AcDbTrace
 10
-225.6623887319591
 20
-1154.3614296238
 30
0.0
 11
-224.5617220652925
 21
-1154.3614296238
 31
0.0
 12
-225.1120553986258
 22
-1151.0594296238
 32
0.0
 13
-225.1120553986258
 23
-1151.0594296238
 33
0.0
  0
MTEXT
  5
1A7
330
19E
100
AcDbEntity
  8
0
 62
     0
440
 16777216
100
AcDbMText
 10
-225.1120553986261
 20
-1163.5594296238
 30
0.0
 40
3.5
 41
0.0
 46
0.0
 71
     5
 72
     1
  1
250,00
 73
     1
 44
1.0
  0
POINT
  5
1A8
330
19E
100
AcDbEntity
  8
Defpoints
 62
     0
440
 16777216
100
AcDbPoint
 10
-265.4819225585001
 20
-1176.0594296238
 30
0.0
  0
POINT
  5
1A9
330
19E
100
AcDbEntity
  8
Defpoints
 62
     0
440
 16777216
100
AcDbPoint
 10
-265.4819225585001
 20
-1151.0594296238
 30
0.0
  0
POINT
  5
1AA
330
19E
100
AcDbEntity
  8
Defpoints
 62
     0
440
 16777216
100
AcDbPoint
 10
-225.1120553986258
 20
-1151.0594296238
 30
0.0
  0
ENDBLK
  5
1A0
330
19E
100
AcDbEntity
  8
0
100
AcDbBlockEnd
  0
BLOCK
  5
1AC
330
1AB
100
AcDbEntity
  8
0
100
AcDbBlockBegin
  2
*D13
 70
     1
 10
0.0
 20
0.0
 30
0.0
  3
*D13
  1

  0
LINE
  5
1AD
330
1AB
100
AcDbEntity
  8
DIMENSION
440
 16777216
370
     0
100
AcDbLine
 10
1092.625159377854
 20
969.7937323929265
 30
0.0
 11
1092.569709633547
 21
979.7935786580374
 31
0.0
  0
LINE
  5
1AE
330
1AB
100
AcDbEntity
  8
DIMENSION
440
 16777216
370
     0
100
AcDbLine
 10
1454.657182624691
 20
971.8012215670347
 30
0.0
 11
1454.601732880384
 21
981.8010678321458
 31
0.0
  0
LINE
  5
1AF
330
1AB
100
AcDbEntity
  8
DIMENSION
440
 16777216
370
     0
100
AcDbLine
 10
1092.597434505701
 20
974.793655525482
 30
0.0
 11
1454.629457752537
 21
976.8011446995902
 31
0.0
  0
MTEXT
  5
1B0
330
1AB
100
AcDbEntity
  8
DIMENSION
 62
     7
440
 16777216
100
AcDbMText
 10
1273.568105608173
 20
983.9741418578535
 30
0.0
 40
8.0
 41
0.0
 46
0.0
 71
     5
 72
     1
  1
\A1;362
 73
     1
 44
1.0
  0
POINT
  5
1B1
330
1AB
100
AcDbEntity
  8
Defpoints
 62
     0
440
 16777216
100
AcDbPoint
 10
1092.771920384362
 20
943.3267482592359
 30
0.0
  0
POINT
  5
1B2
330
1AB
100
AcDbEntity
  8
Defpoints
 62
     0
440
 16777216
100
AcDbPoint
 10
1454.803943631198
 20
945.3342374333443
 30
0.0
  0
POINT
  5
1B3
330
1AB
100
AcDbEntity
  8
Defpoints
 62
     0
440
 16777216
100
AcDbPoint
 10
1454.629457752537
 20
976.8011446995902
 30
0.0
  0
ENDBLK
  5
1B4
330
1AB
100
AcDbEntity
  8
0
100
AcDbBlockEnd
  0
BLOCK
  5
1CF
330
1CE
100
AcDbEntity
  8
0
100
AcDbBlockBegin
  2
*D15
 70
     1
 10
0.0
 20
0.0
 30
0.0
  3
*D15
  1

  0
LINE
  5
1D1
330
1CE
100
AcDbEntity
  8
DIMENSION
440
 16777216
370
     0
100
AcDbLine
 10
178.9841046655695
 20
223.5835934969497
 30
0.0
 11
178.9286549212626
 21
233.5834397620608
 31
0.0
  0
LINE
  5
1D2
330
1CE
100
AcDbEntity
  8
DIMENSION
440
 16777216
370
     0
100
AcDbLine
 10
541.0161279124062
 20
225.591082671058
 30
0.0
 11
540.9606781680992
 21
235.5909289361691
 31
0.0
  0
LINE
  5
1D3
330
1CE
100
AcDbEntity
  8
DIMENSION
440
 16777216
370
     0
100
AcDbLine
 10
178.956379793416
 20
228.5835166295052
 30
0.0
 11
540.9884030402527
 21
230.5910058036135
 31
0.0
  0
MTEXT
  5
1D4
330
1CE
100
AcDbEntity
  8
DIMENSION
 62
     7
440
 16777216
100
AcDbMText
 10
359.927581351146
 20
237.6683402840092
 30
0.0
 40
8.0
 41
0.0
 46
0.0
 71
     5
 72
     1
  1
\A1;362
 73
     1
 44
1.0
  0
POINT
  5
1D5
330
1CE
100
AcDbEntity
  8
Defpoints
 62
     0
440
 16777216
100
AcDbPoint
 10
179.1308656720771
 20
197.1166093632591
 30
0.0
  0
POINT
  5
1D6
330
1CE
100
AcDbEntity
  8
Defpoints
 62
     0
440
 16777216
100
AcDbPoint
 10
541.1628889189137
 20
199.1240985373674
 30
0.0
  0
POINT
  5
1D7
330
1CE
100
AcDbEntity
  8
Defpoints
 62
     0
440
 16777216
100
AcDbPoint
 10
540.9884030402527
 20
230.5910058036135
 30
0.0
  0
ENDBLK
  5
1D0
330
1CE
100
AcDbEntity
  8
0
100
AcDbBlockEnd
  0
BLOCK
  5
1D9
330
1D8
100
AcDbEntity
  8
0
100
AcDbBlockBegin
  2
*D16
 70
     1
 10
0.0
 20
0.0
 30
0.0
  3
*D16
  1

  0
LINE
  5
1DB
330
1D8
100
AcDbEntity
  8
DIMENSION
440
 16777216
370
     0
100
AcDbLine
 10
-394.3609409630649
 20
330.4485085575001
 30
0.0
 11
-404.3609409630648
 21
330.4485085575001
 31
0.0
  0
LINE
  5
1DC
330
1D8
100
AcDbEntity
  8
DIMENSION
440
 16777216
370
     0
100
AcDbLine
 10
-394.3609409630649
 20
251.3485085575001
 30
0.0
 11
-404.3609409630648
 21
251.3485085575001
 31
0.0
  0
LINE
  5
1DD
330
1D8
100
AcDbEntity
  8
DIMENSION
440
 16777216
370
     0
100
AcDbLine
 10
-399.3609409630649
 20
330.4485085575001
 30
0.0
 11
-399.3609409630649
 21
251.3485085575001
 31
0.0
  0
MTEXT
  5
1DE
330
1D8
100
AcDbEntity
  8
DIMENSION
 62
     7
440
 16777216
100
AcDbMText
 10
-410.0276076297314
 20
290.8985085575001
 30
0.0
 40
8.0
 41
0.0
 46
0.0
 71
     5
 72
     1
  1
\A1;79
 73
     1
 44
1.0
  0
POINT
  5
1DF
330
1D8
100
AcDbEntity
  8
Defpoints
 62
     0
440
 16777216
100
AcDbPoint
 10
-315.4669225558501
 20
330.4485085575001
 30
0.0
  0
POINT
  5
1E0
330
1D8
100
AcDbEntity
  8
Defpoints
 62
     0
440
 16777216
100
AcDbPoint
 10
-315.4819225585001
 20
251.3485085575001
 30
0.0
  0
POINT
  5
1E1
330
1D8
100
AcDbEntity
  8
Defpoints
 62
     0
440
 16777216
100
AcDbPoint
 10
-399.3609409630649
 20
251.3485085575001
 30
0.0
  0
ENDBLK
  5
1DA
330
1D8
100
AcDbEntity
  8
0
100
AcDbBlockEnd
  0
BLOCK
  5
1E7
330
1E6
100
AcDbEntity
  8
0
100
AcDbBlockBegin
  2
*D17
 70
     1
 10
0.0
 20
0.0
 30
0.0
  3
*D17
  1

  0
LINE
  5
2D8
330
1E6
100
AcDbEntity
  8
DIMENSION
440
 16777216
370
     0
100
AcDbLine
 10
-337.9669225585
 20
383.4485085575
 30
0.0
 11
-337.9669225585
 21
393.4485085575
 31
0.0
  0
LINE
  5
2D9
330
1E6
100
AcDbEntity
  8
DIMENSION
440
 16777216
370
     0
100
AcDbLine
 10
-292.9669225585
 20
383.4485085575
 30
0.0
 11
-292.9669225585
 21
393.4485085575
 31
0.0
  0
LINE
  5
2DA
330
1E6
100
AcDbEntity
  8
DIMENSION
440
 16777216
370
     0
100
AcDbLine
 10
-337.9669225585
 20
388.4485085575
 30
0.0
 11
-292.9669225585
 21
388.4485085575
 31
0.0
  0
MTEXT
  5
2DB
330
1E6
100
AcDbEntity
  8
DIMENSION
 62
     7
440
 16777216
100
AcDbMText
 10
-315.4669225585
 20
400.4485085575
 30
0.0
 40
8.0
 41
0.0
 46
0.0
 71
     2
 72
     1
  1
\A1;%%c45
 73
     1
 44
1.0
  0
POINT
  5
2DC
330
1E6
100
AcDbEntity
  8
Defpoints
 62
     0
440
 16777216
100
AcDbPoint
 10
-337.9669225585
 20
330.3485085575
 30
0.0
  0
POINT
  5
2DD
330
1E6
100
AcDbEntity
  8
Defpoints
 62
     0
440
 16777216
100
AcDbPoint
 10
-292.9669225585
 20
330.3485085575
 30
0.0
  0
POINT
  5
2DE
330
1E6
100
AcDbEntity
  8
Defpoints
 62
     0
440
 16777216
100
AcDbPoint
 10
-292.9669225585
 20
388.4485085575
 30
0.0
  0
ENDBLK
  5
1E8
330
1E6
100
AcDbEntity
  8
0
100
AcDbBlockEnd
  0
BLOCK
  5
1F6
330
1F5
100
AcDbEntity
  8
0
100
AcDbBlockBegin
  2
*D18
 70
     1
 10
0.0
 20
0.0
 30
0.0
  3
*D18
  1

  0
LINE
  5
297
330
1F5
100
AcDbEntity
  8
DIMENSION
440
 16777216
370
     0
100
AcDbLine
 10
-448.4819225585002
 20
330.4485085575001
 30
0.0
 11
-458.4819225585001
 21
330.4485085575001
 31
0.0
  0
LINE
  5
298
330
1F5
100
AcDbEntity
  8
DIMENSION
440
 16777216
370
     0
100
AcDbLine
 10
-448.4819225585002
 20
201.3485085575001
 30
0.0
 11
-458.4819225585001
 21
201.3485085575001
 31
0.0
  0
LINE
  5
299
330
1F5
100
AcDbEntity
  8
DIMENSION
440
 16777216
370
     0
100
AcDbLine
 10
-453.4819225585001
 20
330.4485085575001
 30
0.0
 11
-453.4819225585001
 21
201.3485085575001
 31
0.0
  0
MTEXT
  5
29A
330
1F5
100
AcDbEntity
  8
DIMENSION
 62
     7
440
 16777216
100
AcDbMText
 10
-466.1485892251667
 20
263.1507410281
 30
0.0
 40
8.0
 41
0.0
 46
0.0
 71
     2
 72
     1
  1
\A1;130
 73
     1
 44
1.0
  0
POINT
  5
29B
330
1F5
100
AcDbEntity
  8
Defpoints
 62
     0
440
 16777216
100
AcDbPoint
 10
-337.8669225532001
 20
330.4485085575001
 30
0.0
  0
POINT
  5
29C
330
1F5
100
AcDbEntity
  8
Defpoints
 62
     0
440
 16777216
100
AcDbPoint
 10
-337.7069225585001
 20
201.3485085575001
 30
0.0
  0
POINT
  5
29D
330
1F5
100
AcDbEntity
  8
Defpoints
 62
     0
440
 16777216
100
AcDbPoint
 10
-453.4819225585001
 20
201.3485085575001
 30
0.0
  0
ENDBLK
  5
1F7
330
1F5
100
AcDbEntity
  8
0
100
AcDbBlockEnd
  0
BLOCK
  5
204
330
203
100
AcDbEntity
  8
0
100
AcDbBlockBegin
  2
*D19
 70
     1
 10
0.0
 20
0.0
 30
0.0
  3
*D19
  1

  0
LINE
  5
2C1
330
203
100
AcDbEntity
  8
DIMENSION
440
 16777216
370
     0
100
AcDbLine
 10
157.4568318740122
 20
-276.0594296238001
 30
0.0
 11
147.4568318740122
 21
-276.0594296238001
 31
0.0
  0
LINE
  5
2C2
330
203
100
AcDbEntity
  8
DIMENSION
440
 16777216
370
     0
100
AcDbLine
 10
157.4568318740124
 20
-1176.0594296238
 30
0.0
 11
147.4568318740124
 21
-1176.0594296238
 31
0.0
  0
LINE
  5
2C3
330
203
100
AcDbEntity
  8
DIMENSION
440
 16777216
370
     0
100
AcDbLine
 10
152.4568318740122
 20
-276.0594296238001
 30
0.0
 11
152.4568318740124
 21
-1176.0594296238
 31
0.0
  0
MTEXT
  5
2C4
330
203
100
AcDbEntity
  8
DIMENSION
 62
     7
440
 16777216
100
AcDbMText
 10
139.1234985406787
 20
-722.0594296238001
 30
0.0
 40
8.0
 41
0.0
 46
0.0
 71
     2
 72
     1
  1
\A1;900
 73
     1
 44
1.0
  0
POINT
  5
2C5
330
203
100
AcDbEntity
  8
Defpoints
 62
     0
440
 16777216
100
AcDbPoint
 10
190.8786552567
 20
-276.0594296238001
 30
0.0
  0
POINT
  5
2C6
330
203
100
AcDbEntity
  8
Defpoints
 62
     0
440
 16777216
100
AcDbPoint
 10
190.8786552567
 20
-1176.0594296238
 30
0.0
  0
POINT
  5
2C7
330
203
100
AcDbEntity
  8
Defpoints
 62
     0
440
 16777216
100
AcDbPoint
 10
152.4568318740124
 20
-1176.0594296238
 30
0.0
  0
ENDBLK
  5
205
330
203
100
AcDbEntity
  8
0
100
AcDbBlockEnd
  0
BLOCK
  5
212
330
211
100
AcDbEntity
  8
0
100
AcDbBlockBegin
  2
*D20
 70
     1
 10
0.0
 20
0.0
 30
0.0
  3
*D20
  1

  0
LINE
  5
25E
330
211
100
AcDbEntity
  8
DIMENSION
440
 16777216
370
     0
100
AcDbLine
 10
-448.4819225585
 20
33.61366920219997
 30
0.0
 11
-458.4819225585
 21
33.61366920219997
 31
0.0
  0
LINE
  5
25F
330
211
100
AcDbEntity
  8
DIMENSION
440
 16777216
370
     0
100
AcDbLine
 10
-448.4819225584997
 20
-1176.0594296238
 30
0.0
 11
-458.4819225584998
 21
-1176.0594296238
 31
0.0
  0
LINE
  5
260
330
211
100
AcDbEntity
  8
DIMENSION
440
 16777216
370
     0
100
AcDbLine
 10
-453.4819225585001
 20
33.61366920219997
 30
0.0
 11
-453.4819225584997
 21
-1176.0594296238
 31
0.0
  0
MTEXT
  5
261
330
211
100
AcDbEntity
  8
DIMENSION
 62
     7
440
 16777216
100
AcDbMText
 10
-468.8152558918333
 20
-616.7757578330999
 30
0.0
 40
8.0
 41
0.0
 46
0.0
 71
     2
 72
     1
  1
\A1;1210
 73
     1
 44
1.0
  0
POINT
  5
262
330
211
100
AcDbEntity
  8
Defpoints
 62
     0
440
 16777216
100
AcDbPoint
 10
-190.4819225585
 20
33.61366920220002
 30
0.0
  0
POINT
  5
263
330
211
100
AcDbEntity
  8
Defpoints
 62
     0
440
 16777216
100
AcDbPoint
 10
-364.4819225585001
 20
-1176.0594296238
 30
0.0
  0
POINT
  5
264
330
211
100
AcDbEntity
  8
Defpoints
 62
     0
440
 16777216
100
AcDbPoint
 10
-453.4819225584997
 20
-1176.0594296238
 30
0.0
  0
ENDBLK
  5
213
330
211
100
AcDbEntity
  8
0
100
AcDbBlockEnd
  0
BLOCK
  5
220
330
21F
100
AcDbEntity
  8
0
100
AcDbBlockBegin
  2
*D21
 70
     1
 10
0.0
 20
0.0
 30
0.0
  3
*D21
  1

  0
LINE
  5
2B3
330
21F
100
AcDbEntity
  8
DIMENSION
440
 16777216
370
     0
100
AcDbLine
 10
-42.31934145304325
 20
-124.0863307978
 30
0.0
 11
-32.31934145304326
 21
-124.0863307978
 31
0.0
  0
LINE
  5
2B4
330
21F
100
AcDbEntity
  8
DIMENSION
440
 16777216
370
     0
100
AcDbLine
 10
-42.319341453043
 20
-1176.0594296238
 30
0.0
 11
-32.319341453043
 21
-1176.0594296238
 31
0.0
  0
LINE
  5
2B5
330
21F
100
AcDbEntity
  8
DIMENSION
440
 16777216
370
     0
100
AcDbLine
 10
-37.31934145304326
 20
-124.0863307978
 30
0.0
 11
-37.31934145304303
 21
-1176.0594296238
 31
0.0
  0
MTEXT
  5
2B6
330
21F
100
AcDbEntity
  8
DIMENSION
 62
     7
440
 16777216
100
AcDbMText
 10
-21.31934145304332
 20
-646.0728802108
 30
0.0
 40
8.0
 41
0.0
 46
0.0
 71
     2
 72
     1
  1
\A1;1050
 73
     1
 44
1.0
  0
POINT
  5
2B7
330
21F
100
AcDbEntity
  8
Defpoints
 62
     0
440
 16777216
100
AcDbPoint
 10
-65.48192255850003
 20
-124.0863307978
 30
0.0
  0
POINT
  5
2B8
330
21F
100
AcDbEntity
  8
Defpoints
 62
     0
440
 16777216
100
AcDbPoint
 10
-315.4819225585001
 20
-1176.0594296238
 30
0.0
  0
POINT
  5
2B9
330
21F
100
AcDbEntity
  8
Defpoints
 62
     0
440
 16777216
100
AcDbPoint
 10
-37.31934145304303
 20
-1176.0594296238
 30
0.0
  0
ENDBLK
  5
221
330
21F
100
AcDbEntity
  8
0
100
AcDbBlockEnd
  0
BLOCK
  5
22E
330
22D
100
AcDbEntity
  8
0
100
AcDbBlockBegin
  2
*D22
 70
     1
 10
0.0
 20
0.0
 30
0.0
  3
*D22
  1

  0
LINE
  5
26C
330
22D
100
AcDbEntity
  8
DIMENSION
440
 16777216
370
     0
100
AcDbLine
 10
-315.4819225585
 20
-1235.0594296238
 30
0.0
 11
-315.4819225585
 21
-1245.0594296238
 31
0.0
  0
LINE
  5
26D
330
22D
100
AcDbEntity
  8
DIMENSION
440
 16777216
370
     0
100
AcDbLine
 10
-65.48192255850008
 20
-1235.0594296238
 30
0.0
 11
-65.48192255850008
 21
-1245.0594296238
 31
0.0
  0
LINE
  5
26E
330
22D
100
AcDbEntity
  8
DIMENSION
440
 16777216
370
     0
100
AcDbLine
 10
-315.4819225585
 20
-1240.0594296238
 30
0.0
 11
-65.48192255850008
 21
-1240.0594296238
 31
0.0
  0
MTEXT
  5
26F
330
22D
100
AcDbEntity
  8
DIMENSION
 62
     7
440
 16777216
100
AcDbMText
 10
-190.0111503499
 20
-1244.0594296238
 30
0.0
 40
8.0
 41
0.0
 46
0.0
 71
     2
 72
     1
  1
\A1;250
 73
     1
 44
1.0
  0
POINT
  5
270
330
22D
100
AcDbEntity
  8
Defpoints
 62
     0
440
 16777216
100
AcDbPoint
 10
-315.4819225585
 20
-1176.0594296238
 30
0.0
  0
POINT
  5
271
330
22D
100
AcDbEntity
  8
Defpoints
 62
     0
440
 16777216
100
AcDbPoint
 10
-65.4819225585
 20
-124.0863307978
 30
0.0
  0
POINT
  5
272
330
22D
100
AcDbEntity
  8
Defpoints
 62
     0
440
 16777216
100
AcDbPoint
 10
-65.48192255850008
 20
-1240.0594296238
 30
0.0
  0
ENDBLK
  5
22F
330
22D
100
AcDbEntity
  8
0
100
AcDbBlockEnd
  0
BLOCK
  5
23C
330
23B
100
AcDbEntity
  8
0
100
AcDbBlockBegin
  2
*D23
 70
     1
 10
0.0
 20
0.0
 30
0.0
  3
*D23
  1

  0
LINE
  5
23E
330
23B
100
AcDbEntity
  8
DIMENSION
440
 16777216
370
     0
100
AcDbLine
 10
-230.1120553986259
 20
-1176.0594296238
 30
0.0
 11
-220.1120553986259
 21
-1176.0594296238
 31
0.0
  0
LINE
  5
23F
330
23B
100
AcDbEntity
  8
DIMENSION
440
 16777216
370
     0
100
AcDbLine
 10
-230.1120553986259
 20
-1151.0594296238
 30
0.0
 11
-220.1120553986259
 21
-1151.0594296238
 31
0.0
  0
LINE
  5
240
330
23B
100
AcDbEntity
  8
DIMENSION
440
 16777216
370
     0
100
AcDbLine
 10
-225.1120553986259
 20
-1176.0594296238
 30
0.0
 11
-225.1120553986259
 21
-1151.0594296238
 31
0.0
  0
MTEXT
  5
241
330
23B
100
AcDbEntity
  8
DIMENSION
 62
     7
440
 16777216
100
AcDbMText
 10
-214.4453887319595
 20
-1163.5594296238
 30
0.0
 40
8.0
 41
0.0
 46
0.0
 71
     5
 72
     1
  1
\A1;25
 73
     1
 44
1.0
  0
POINT
  5
242
330
23B
100
AcDbEntity
  8
Defpoints
 62
     0
440
 16777216
100
AcDbPoint
 10
-265.4819225585001
 20
-1176.0594296238
 30
0.0
  0
POINT
  5
243
330
23B
100
AcDbEntity
  8
Defpoints
 62
     0
440
 16777216
100
AcDbPoint
 10
-265.4819225585001
 20
-1151.0594296238
 30
0.0
  0
POINT
  5
244
330
23B
100
AcDbEntity
  8
Defpoints
 62
     0
440
 16777216
100
AcDbPoint
 10
-225.1120553986259
 20
-1151.0594296238
 30
0.0
  0
ENDBLK
  5
23D
330
23B
100
AcDbEntity
  8
0
100
AcDbBlockEnd
  0
BLOCK
  5
24A
330
249
100
AcDbEntity
  8
0
100
AcDbBlockBegin
  2
*D24
 70
     1
 10
0.0
 20
0.0
 30
0.0
  3
*D24
  1

  0
LINE
  5
2A5
330
249
100
AcDbEntity
  8
DIMENSION
440
 16777216
370
     0
100
AcDbLine
 10
289.8786552566999
 20
-1235.0594296238
 30
0.0
 11
289.8786552566999
 21
-1245.0594296238
 31
0.0
  0
LINE
  5
2A6
330
249
100
AcDbEntity
  8
DIMENSION
440
 16777216
370
     0
100
AcDbLine
 10
191.8786552567
 20
-1235.0594296238
 30
0.0
 11
191.8786552567
 21
-1245.0594296238
 31
0.0
  0
LINE
  5
2A7
330
249
100
AcDbEntity
  8
DIMENSION
440
 16777216
370
     0
100
AcDbLine
 10
289.8786552566999
 20
-1240.0594296238
 30
0.0
 11
191.8786552567
 21
-1240.0594296238
 31
0.0
  0
MTEXT
  5
2A8
330
249
100
AcDbEntity
  8
DIMENSION
 62
     7
440
 16777216
100
AcDbMText
 10
235.0858013366
 20
-1244.0594296238
 30
0.0
 40
8.0
 41
0.0
 46
0.0
 71
     2
 72
     1
  1
\A1;%%c100
 73
     1
 44
1.0
  0
POINT
  5
2A9
330
249
100
AcDbEntity
  8
Defpoints
 62
     0
440
 16777216
100
AcDbPoint
 10
289.8786552566999
 20
-1176.0594296238
 30
0.0
  0
POINT
  5
2AA
330
249
100
AcDbEntity
  8
Defpoints
 62
     0
440
 16777216
100
AcDbPoint
 10
191.8786552567
 20
-1176.0594296238
 30
0.0
  0
POINT
  5
2AB
330
249
100
AcDbEntity
  8
Defpoints
 62
     0
440
 16777216
100
AcDbPoint
 10
191.8786552567
 20
-1240.0594296238
 30
0.0
  0
ENDBLK
  5
24B
330
249
100
AcDbEntity
  8
0
100
AcDbBlockEnd
  0
BLOCK
  5
274
330
273
100
AcDbEntity
  8
0
100
AcDbBlockBegin
  2
*D25
 70
     1
 10
0.0
 20
0.0
 30
0.0
  3
*D25
  1

  0
LINE
  5
2D0
330
273
100
AcDbEntity
  8
DIMENSION
440
 16777216
370
     0
100
AcDbLine
 10
228.1786552567
 20
68.6136692022
 30
0.0
 11
228.1786552567
 21
78.6136692022
 31
0.0
  0
LINE
  5
2D1
330
273
100
AcDbEntity
  8
DIMENSION
440
 16777216
370
     0
100
AcDbLine
 10
253.5786552567
 20
68.6136692022
 30
0.0
 11
253.5786552567
 21
78.6136692022
 31
0.0
  0
LINE
  5
2D2
330
273
100
AcDbEntity
  8
DIMENSION
440
 16777216
370
     0
100
AcDbLine
 10
228.1786552567
 20
73.6136692022
 30
0.0
 11
253.5786552567
 21
73.6136692022
 31
0.0
  0
LINE
  5
2D3
330
273
100
AcDbEntity
  8
DIMENSION
440
 16777216
370
     0
100
AcDbLine
 10
253.5786552567
 20
73.6136692022
 30
0.0
 11
286.4119885900333
 21
73.6136692022
 31
0.0
  0
MTEXT
  5
2D4
330
273
100
AcDbEntity
  8
DIMENSION
 62
     7
440
 16777216
100
AcDbMText
 10
271.7453219233667
 20
85.61366920220001
 30
0.0
 40
8.0
 41
0.0
 46
0.0
 71
     2
 72
     1
  1
\A1;%%C25
 73
     1
 44
1.0
  0
POINT
  5
2D5
330
273
100
AcDbEntity
  8
Defpoints
 62
     0
440
 16777216
100
AcDbPoint
 10
228.1786552567
 20
20.9136692022
 30
0.0
  0
POINT
  5
2D6
330
273
100
AcDbEntity
  8
Defpoints
 62
     0
440
 16777216
100
AcDbPoint
 10
253.5786552567
 20
20.9136692022
 30
0.0
  0
POINT
  5
2D7
330
273
100
AcDbEntity
  8
Defpoints
 62
     0
440
 16777216
100
AcDbPoint
 10
253.5786552567
 20
73.6136692022
 30
0.0
  0
ENDBLK
  5
275
330
273
100
AcDbEntity
  8
0
100
AcDbBlockEnd
  0
BLOCK
  5
283
330
282
100
AcDbEntity
  8
0
100
AcDbBlockBegin
  2
*D26
 70
     1
 10
0.0
 20
0.0
 30
0.0
  3
*D26
  1

  0
LINE
  5
290
330
282
100
AcDbEntity
  8
DIMENSION
440
 16777216
370
     0
100
AcDbLine
 10
360.9786552567001
 20
-298.5594293002001
 30
0.0
 11
370.9786552567001
 21
-298.5594293002001
 31
0.0
  0
LINE
  5
291
330
282
100
AcDbEntity
  8
DIMENSION
440
 16777216
370
     0
100
AcDbLine
 10
360.9786552567001
 20
-214.5594293145001
 30
0.0
 11
370.9786552567001
 21
-214.5594293145001
 31
0.0
  0
LINE
  5
292
330
282
100
AcDbEntity
  8
DIMENSION
440
 16777216
370
     0
100
AcDbLine
 10
365.9786552567001
 20
-298.5594293002001
 30
0.0
 11
365.9786552567001
 21
-214.5594293145001
 31
0.0
  0
MTEXT
  5
293
330
282
100
AcDbEntity
  8
DIMENSION
 62
     7
440
 16777216
100
AcDbMText
 10
376.6453219233667
 20
-253.6671194976
 30
0.0
 40
8.0
 41
0.0
 46
0.0
 71
     2
 72
     1
  1
\A1;85
 73
     1
 44
1.0
  0
POINT
  5
294
330
282
100
AcDbEntity
  8
Defpoints
 62
     0
440
 16777216
100
AcDbPoint
 10
319.8786552567001
 20
-298.5594293002001
 30
0.0
  0
POINT
  5
295
330
282
100
AcDbEntity
  8
Defpoints
 62
     0
440
 16777216
100
AcDbPoint
 10
313.5786552567001
 20
-214.5594293145001
 30
0.0
  0
POINT
  5
296
330
282
100
AcDbEntity
  8
Defpoints
 62
     0
440
 16777216
100
AcDbPoint
 10
365.9786552567001
 20
-214.5594293145001
 30
0.0
  0
ENDBLK
  5
284
330
282
100
AcDbEntity
  8
0
100
AcDbBlockEnd
  0
ENDSEC
  0
SECTION
  2
ENTITIES
  0
LINE
  5
74
330
1F
100
AcDbEntity
  8
0
  6
Continuous
 62
     7
370
    25
100
AcDbLine
 10
-302.7819225585
 20
-239.8863307978
 30
0.0
 11
-302.7819225585
 21
-104.0863307978
 31
0.0
  0
LINE
  5
75
330
1F
100
AcDbEntity
  8
0
  6
Continuous
 62
     7
370
    25
100
AcDbLine
 10
-328.1819225585
 20
-104.0863307978
 30
0.0
 11
-328.1819225585
 21
-239.8863307978
 31
0.0
  0
LINE
  5
76
330
1F
100
AcDbEntity
  8
0
  6
Continuous
 62
     7
370
    25
100
AcDbLine
 10
-52.78192255850001
 20
-124.0863307978
 30
0.0
 11
-52.78192255850001
 21
-104.0863307978
 31
0.0
  0
LINE
  5
77
330
1F
100
AcDbEntity
  8
0
  6
Continuous
 62
     7
370
    25
100
AcDbLine
 10
-78.1819225585
 20
-104.0863307978
 30
0.0
 11
-78.1819225585
 21
-124.0863307978
 31
0.0
  0
ARC
  5
78
330
1F
100
AcDbEntity
  8
0
  6
Continuous
 62
     7
370
    25
100
AcDbCircle
 10
-190.4819225585
 20
-104.0863307978
 30
0.0
 40
112.3
100
AcDbArc
 50
0.0
 51
180.0
  0
ARC
  5
79
330
1F
100
AcDbEntity
  8
0
  6
Continuous
 62
     7
370
    25
100
AcDbCircle
 10
-190.4819225585
 20
-104.0863307978
 30
0.0
 40
137.7
100
AcDbArc
 50
0.0
 51
180.0
  0
LINE
  5
7A
330
1F
100
AcDbEntity
  8
DIMENSION
100
AcDbLine
 10
-365.4819225585
 20
-1151.0594296238
 30
0.0
 11
-365.4819225585
 21
-1176.0594296238
 31
0.0
  0
LINE
  5
7B
330
1F
100
AcDbEntity
  8
DIMENSION
100
AcDbLine
 10
-265.4819225585
 20
-1176.0594296238
 30
0.0
 11
-265.4819225585
 21
-1151.0594296238
 31
0.0
  0
LINE
  5
7C
330
1F
100
AcDbEntity
  8
DIMENSION
100
AcDbLine
 10
-337.7319225585
 20
-354.5594296238
 30
0.0
 11
-337.7319225585
 21
-1151.0594296238
 31
0.0
  0
LINE
  5
7D
330
1F
100
AcDbEntity
  8
DIMENSION
100
AcDbLine
 10
-293.2319225585
 20
-1151.0594296238
 30
0.0
 11
-293.2319225585
 21
-354.5594296238
 31
0.0
  0
LINE
  5
7E
330
1F
100
AcDbEntity
  8
0
  6
Continuous
 62
     7
370
    25
100
AcDbLine
 10
-337.7069225585
 20
-290.8594296238
 30
0.0
 11
-337.7069225585
 21
-354.5594296238
 31
0.0
  0
LINE
  5
7F
330
1F
100
AcDbEntity
  8
0
  6
Continuous
 62
     7
370
    25
100
AcDbLine
 10
-293.2569225585
 20
-354.5594296238
 30
0.0
 11
-293.2569225585
 21
-290.8594296238
 31
0.0
  0
ARC
  5
80
330
1F
100
AcDbEntity
  8
0
  6
Continuous
 62
     7
370
    25
100
AcDbCircle
 10
-273.3819225585
 20
-300.2025755073
 30
0.0
 40
65.0
100
AcDbArc
 50
165.484264905
 51
171.7356369429
  0
ARC
  5
81
330
1F
100
AcDbEntity
  8
0
  6
Continuous
 62
     7
370
    25
100
AcDbCircle
 10
-357.5819225585
 20
-300.2025755073
 30
0.0
 40
65.00000000000001
100
AcDbArc
 50
8.2643630571
 51
14.5151645873
  0
LINE
  5
82
330
1F
100
AcDbEntity
  8
0
  6
Continuous
 62
     7
370
    25
100
AcDbLine
 10
-319.4677029106
 20
-239.8863307978
 30
0.0
 11
-319.4677007534
 21
-239.9863307978
 31
0.0
  0
LINE
  5
83
330
1F
100
AcDbEntity
  8
0
  6
Continuous
 62
     7
370
    25
100
AcDbLine
 10
-311.4677007515
 20
-239.9863307978
 30
0.0
 11
-311.4677029088
 21
-239.8863307978
 31
0.0
  0
LINE
  5
84
330
1F
100
AcDbEntity
  8
0
  6
Continuous
 62
     7
370
    25
100
AcDbLine
 10
-302.7819225585
 20
-257.4836322951
 30
0.0
 11
-302.7819225585
 21
-239.9863307978
 31
0.0
  0
LINE
  5
85
330
1F
100
AcDbEntity
  8
0
  6
Continuous
 62
     7
370
    25
100
AcDbLine
 10
-328.1819225585
 20
-239.9863307978
 30
0.0
 11
-328.1819225585
 21
-257.4676042687
 31
0.0
  0
LINE
  5
86
330
1F
100
AcDbEntity
  8
0
  6
Continuous
 62
     7
370
    25
100
AcDbLine
 10
-328.1819225585
 20
-239.8863307978
 30
0.0
 11
-302.7819225585
 21
-239.8863307978
 31
0.0
  0
LINE
  5
87
330
1F
100
AcDbEntity
  8
0
  6
Continuous
 62
     7
370
    25
100
AcDbLine
 10
-52.78192255850001
 20
-124.0863307978
 30
0.0
 11
-78.1819225585
 21
-124.0863307978
 31
0.0
  0
LINE
  5
88
330
1F
100
AcDbEntity
  8
DIMENSION
100
AcDbLine
 10
-365.4819225585
 20
-1151.0594296238
 30
0.0
 11
-265.4819225585
 21
-1151.0594296238
 31
0.0
  0
LINE
  5
89
330
1F
100
AcDbEntity
  8
DIMENSION
100
AcDbLine
 10
-265.4819225585
 20
-1176.0594296238
 30
0.0
 11
-365.4819225585
 21
-1176.0594296238
 31
0.0
  0
LINE
  5
8A
330
1F
100
AcDbEntity
  8
0
  6
Continuous
 62
     7
370
    25
100
AcDbLine
 10
-337.7319225585
 20
-354.5594296238
 30
0.0
 11
-293.2319225585
 21
-354.5594296238
 31
0.0
  0
LINE
  5
8B
330
1F
100
AcDbEntity
  8
0
  6
Continuous
 62
     7
370
    25
100
AcDbLine
 10
-337.7069225585
 20
-290.8594296238
 30
0.0
 11
-332.0958474409
 21
-290.8594296238
 31
0.0
  0
LINE
  5
8C
330
1F
100
AcDbEntity
  8
0
  6
Continuous
 62
     7
370
    25
100
AcDbLine
 10
-298.867997676
 20
-290.8594296238
 30
0.0
 11
-293.2569225585
 21
-290.8594296238
 31
0.0
  0
LINE
  5
8D
330
1F
100
AcDbEntity
  8
0
  6
Continuous
 62
     7
370
    25
100
AcDbLine
 10
-293.2770767354
 20
-275.1131490229
 30
0.0
 11
-292.9868304371
 21
-275.1131427616
 31
0.0
  0
ARC
  5
8E
330
1F
100
AcDbEntity
  8
0
  6
Continuous
 62
     7
370
    25
100
AcDbCircle
 10
-315.4669225585
 20
-276.0594293002
 30
0.0
 40
22.49999999999994
100
AcDbArc
 50
338.4014069034
 51
2.410409831099999
  0
ARC
  5
8F
330
1F
100
AcDbEntity
  8
0
  6
Continuous
 62
     7
370
    25
100
AcDbCircle
 10
-315.4669225585
 20
-276.0594293002
 30
0.0
 40
22.5000000000001
100
AcDbArc
 50
177.5920622177
 51
201.4715843897
  0
LINE
  5
90
330
1F
100
AcDbEntity
  8
0
  6
Continuous
 62
     7
370
    25
100
AcDbLine
 10
-337.9470554868
 20
-275.1141126748
 30
0.0
 11
-337.6868091885
 21
-275.1141070606
 31
0.0
  0
ARC
  5
91
330
1F
100
AcDbEntity
  8
0
  6
Continuous
 62
     7
370
    25
100
AcDbCircle
 10
-315.4669225585
 20
-276.0594293002
 30
0.0
 40
22.50000000000007
100
AcDbArc
 50
120.5245506849
 51
177.5920622177
  0
ARC
  5
92
330
1F
100
AcDbEntity
  8
0
  6
Continuous
 62
     7
370
    25
100
AcDbCircle
 10
-315.4669225585
 20
-276.0594293002
 30
0.0
 40
22.49999999999999
100
AcDbArc
 50
2.410409831099999
 51
55.6825390032
  0
CIRCLE
  5
93
330
1F
100
AcDbEntity
  8
0
  6
Continuous
 62
     7
370
    25
100
AcDbCircle
 10
-315.4819225585
 20
-276.0594296238
 30
0.0
 40
22.22500000000002
  0
LINE
  5
94
330
1F
100
AcDbEntity
  8
0
  6
Continuous
 62
     7
370
    25
100
AcDbLine
 10
-315.4819225585
 20
-239.9863307978
 30
0.0
 11
-328.1819225585
 21
-239.9863307978
 31
0.0
  0
LINE
  5
95
330
1F
100
AcDbEntity
  8
0
  6
Continuous
 62
     7
370
    25
100
AcDbLine
 10
-302.7819225585
 20
-239.9863307978
 30
0.0
 11
-315.4819225585
 21
-239.9863307978
 31
0.0
  0
SPLINE
  5
96
330
1F
100
AcDbEntity
  8
0
  6
Continuous
 62
     7
370
    25
100
AcDbSpline
210
0.0
220
0.0
230
1.0
 70
     8
 71
     3
 72
    15
 73
    11
 74
     0
 42
0.00000001
 43
0.0000000001
 40
0.0
 40
0.0
 40
0.0
 40
0.0
 40
0.0952827499993124
 40
0.1935674962220863
 40
0.3858622098142106
 40
0.5919660156359209
 40
0.7043607713695396
 40
0.8204145690674987
 40
0.9985807828796488
 40
1.0
 40
1.0
 40
1.0
 40
1.0
 10
-315.4819225584508
 20
-253.5594296237883
 30
0.0
 10
-314.8345224935194
 20
-253.5758260643041
 30
0.0
 10
-313.5193252555759
 20
-253.6091355346713
 30
0.0
 10
-310.9798921372584
 20
-253.9546587014881
 30
0.0
 10
-307.9941503650833
 20
-254.7474264413858
 30
0.0
 10
-305.5943725907743
 20
-255.8121329970161
 30
0.0
 10
-304.076868592928
 20
-256.6528320263388
 30
0.0
 10
-303.1335250333744
 20
-257.2411873107384
 30
0.0
 10
-302.6134101870927
 20
-257.5982647492886
 30
0.0
 10
-302.7846316115396
 20
-257.4845311026156
 30
0.0
 10
-302.7859847300844
 20
-257.4836322950806
 30
0.0
  0
SPLINE
  5
97
330
1F
100
AcDbEntity
  8
0
  6
Continuous
 62
     7
370
    25
100
AcDbSpline
210
0.0
220
0.0
230
1.0
 70
     8
 71
     3
 72
    14
 73
    10
 74
     0
 42
0.00000001
 43
0.0000000001
 40
0.0
 40
0.0
 40
0.0
 40
0.0
 40
0.1689042396918733
 40
0.3463945393988898
 40
0.5510905164651275
 40
0.6637416014320643
 40
0.7800738415027136
 40
0.8879099867745681
 40
1.0
 40
1.0
 40
1.0
 40
1.0
 10
-328.1538410894426
 20
-257.4676042687257
 30
0.0
 10
-328.0730042480258
 20
-257.4105100753821
 30
0.0
 10
-327.9072213138606
 20
-257.2934193685905
 30
0.0
 10
-326.360839733961
 20
-256.3189916380728
 30
0.0
 10
-324.2693749459437
 20
-255.2922853780431
 30
0.0
 10
-321.9554678611606
 20
-254.4778115689467
 30
0.0
 10
-319.9303025119007
 20
-253.9711486005543
 30
0.0
 10
-317.7390261547148
 20
-253.626279292419
 30
0.0
 10
-316.2439299349098
 20
-253.5819983444685
 30
0.0
 10
-315.4819225584508
 20
-253.5594296237883
 30
0.0
  0
POINT
  5
98
330
1F
100
AcDbEntity
  8
DIMENSION
100
AcDbPoint
 10
-315.4819225585
 20
-1176.0594296238
 30
0.0
  0
POINT
  5
99
330
1F
100
AcDbEntity
  8
0
  6
Continuous
 62
     7
370
     0
100
AcDbPoint
 10
-65.4819225585
 20
-124.0863307978
 30
0.0
  0
DIMENSION
  5
9A
102
{ACAD_XDICTIONARY
360
237
102
}
330
1F
100
AcDbEntity
  8
DIMENSION
100
AcDbDimension
280
     0
  2
*D22
 10
-65.48192255850008
 20
-1240.0594296238
 30
0.0
 11
-190.0111503499
 21
-1240.0594296238
 31
0.0
 70
   160
  1
<>
 71
     2
 42
250.0
 73
     0
 74
     0
 75
     0
  3
RG Dimension Lines
100
AcDbAlignedDimension
 13
-315.4819225585
 23
-1176.0594296238
 33
0.0
 14
-65.4819225585
 24
-124.0863307978
 34
0.0
100
AcDbRotatedDimension
1001
AcadAnnotative
1000
AnnotativeData
1002
{
1070
     1
1070
     1
1002
}
  0
DIMENSION
  5
A7
102
{ACAD_XDICTIONARY
360
229
102
}
330
1F
100
AcDbEntity
  8
DIMENSION
100
AcDbDimension
280
     0
  2
*D21
 10
-37.31934145304303
 20
-1176.0594296238
 30
0.0
 11
-21.31934145304332
 21
-650.0728802108
 31
0.0
 70
    32
  1
<>
 71
     2
 42
1051.973098826
 73
     0
 74
     0
 75
     0
  3
RG Dimension Lines
100
AcDbAlignedDimension
 13
-65.4819225585
 23
-124.0863307978
 33
0.0
 14
-315.4819225585
 24
-1176.0594296238
 34
0.0
 50
90.0
100
AcDbRotatedDimension
1001
AcadAnnotative
1000
AnnotativeData
1002
{
1070
     1
1070
     1
1002
}
1001
ACAD
1000
DSTYLE
1002
{
1070
    45
1040
5.0
1002
}
  0
DIMENSION
  5
AF
102
{ACAD_XDICTIONARY
360
21B
102
}
330
1F
100
AcDbEntity
  8
DIMENSION
100
AcDbDimension
280
     0
  2
*D20
 10
-453.4819225584997
 20
-1176.0594296238
 30
0.0
 11
-453.4819225585
 21
-620.7757578330999
 31
0.0
 70
   160
  1
<>
 71
     2
 42
1209.673098826
 73
     0
 74
     0
 75
     0
  3
RG Dimension Lines
100
AcDbAlignedDimension
 13
-190.4819225585
 23
33.6136692022
 33
0.0
 14
-364.4819225585
 24
-1176.0594296238
 34
0.0
 50
90.0
100
AcDbRotatedDimension
1001
AcadAnnotative
1000
AnnotativeData
1002
{
1070
     1
1070
     1
1002
}
  0
LINE
  5
B7
330
1F
100
AcDbEntity
  8
DIMENSION
100
AcDbLine
 10
253.5786552567
 20
-124.0863307978
 30
0.0
 11
253.5786552567
 21
-104.0863307978
 31
0.0
  0
LINE
  5
B8
330
1F
100
AcDbEntity
  8
DIMENSION
100
AcDbLine
 10
228.1786552567
 20
-104.0863307978
 30
0.0
 11
228.1786552567
 21
-124.0863307978
 31
0.0
  0
ARC
  5
B9
330
1F
100
AcDbEntity
  8
DIMENSION
100
AcDbCircle
 10
240.8786552567
 20
20.9136692022
 30
0.0
 40
12.70000000000002
100
AcDbArc
 50
0.0
 51
180.0
  0
LINE
  5
BA
330
1F
100
AcDbEntity
  8
DIMENSION
100
AcDbLine
 10
228.1786552567
 20
20.9136692022
 30
0.0
 11
228.1786552567
 21
-104.0863307978
 31
0.0
  0
LINE
  5
BB
330
1F
100
AcDbEntity
  8
DIMENSION
100
AcDbLine
 10
253.5786552567
 20
-104.0863307978
 30
0.0
 11
253.5786552567
 21
20.9136692022
 31
0.0
  0
LINE
  5
BC
330
1F
100
AcDbEntity
  8
DIMENSION
100
AcDbLine
 10
253.5786552567
 20
-239.8863307978
 30
0.0
 11
253.5786552567
 21
-124.0863307978
 31
0.0
  0
LINE
  5
BD
330
1F
100
AcDbEntity
  8
DIMENSION
100
AcDbLine
 10
228.1786552567
 20
-124.0863307978
 30
0.0
 11
228.1786552567
 21
-239.8863307978
 31
0.0
  0
LINE
  5
BE
330
1F
100
AcDbEntity
  8
DIMENSION
100
AcDbLine
 10
190.8786552567
 20
-1151.0594296238
 30
0.0
 11
190.8786552567
 21
-1176.0594296238
 31
0.0
  0
LINE
  5
BF
330
1F
100
AcDbEntity
  8
DIMENSION
100
AcDbLine
 10
290.8786552567
 20
-1176.0594296238
 30
0.0
 11
290.8786552567
 21
-1151.0594296238
 31
0.0
  0
LINE
  5
C0
330
1F
100
AcDbEntity
  8
DIMENSION
100
AcDbLine
 10
218.6286552567
 20
-354.5594296238
 30
0.0
 11
218.6286552567
 21
-1151.0594296238
 31
0.0
  0
LINE
  5
C1
330
1F
100
AcDbEntity
  8
DIMENSION
100
AcDbLine
 10
263.1286552567
 20
-1151.0594296238
 30
0.0
 11
263.1286552567
 21
-354.5594296238
 31
0.0
  0
LINE
  5
C2
330
1F
100
AcDbEntity
  8
0
  6
Continuous
 62
     7
370
    25
100
AcDbLine
 10
218.6536552567
 20
-298.2844102712
 30
0.0
 11
218.6536552567
 21
-354.5594296238
 31
0.0
  0
LINE
  5
C3
330
1F
100
AcDbEntity
  8
0
  6
Continuous
 62
     7
370
    25
100
AcDbLine
 10
263.1036552567
 20
-354.5594296238
 30
0.0
 11
263.1036552567
 21
-298.2844102712
 31
0.0
  0
ARC
  5
C4
330
1F
100
AcDbEntity
  8
0
  6
Continuous
 62
     7
370
    25
100
AcDbCircle
 10
319.8786552567
 20
-298.4594293002
 30
0.0
 40
0.1000000000000227
100
AcDbArc
 50
270.0
 51
0.0
  0
ARC
  5
C5
330
1F
100
AcDbEntity
  8
DIMENSION
100
AcDbCircle
 10
319.8786552567
 20
-253.6594293002
 30
0.0
 40
0.1000000000000227
100
AcDbArc
 50
0.0
 51
90.0
  0
LINE
  5
C6
330
1F
100
AcDbEntity
  8
DIMENSION
100
AcDbLine
 10
305.52911625
 20
-253.5594293002
 30
0.0
 11
292.9786552567
 21
-253.5594293002
 31
0.0
  0
LINE
  5
C7
330
1F
100
AcDbEntity
  8
DIMENSION
100
AcDbLine
 10
319.8786552567
 20
-253.5594293002
 30
0.0
 11
313.6687287063
 21
-253.5594293002
 31
0.0
  0
LINE
  5
C8
330
1F
100
AcDbEntity
  8
0
  6
Continuous
 62
     7
370
    25
100
AcDbLine
 10
301.9786552547
 20
-298.5594293002
 30
0.0
 11
319.8786552567
 21
-298.5594293002
 31
0.0
  0
LINE
  5
C9
330
1F
100
AcDbEntity
  8
DIMENSION
100
AcDbLine
 10
319.9786552567
 20
-266.0477225973
 30
0.0
 11
320.0161552567
 21
-266.0477225973
 31
0.0
  0
LINE
  5
CA
330
1F
100
AcDbEntity
  8
DIMENSION
100
AcDbLine
 10
320.0161552567
 20
-262.3866090292
 30
0.0
 11
319.9786552567
 21
-262.3866090292
 31
0.0
  0
LINE
  5
CB
330
1F
100
AcDbEntity
  8
DIMENSION
100
AcDbLine
 10
320.0161552567
 20
-267.0800091328
 30
0.0
 11
319.9786552567
 21
-267.0800091328
 31
0.0
  0
LINE
  5
CC
330
1F
100
AcDbEntity
  8
DIMENSION
100
AcDbLine
 10
319.9786552567
 20
-269.0677274724
 30
0.0
 11
320.0161552567
 21
-269.0677274724
 31
0.0
  0
LINE
  5
CD
330
1F
100
AcDbEntity
  8
DIMENSION
100
AcDbLine
 10
320.0161552567
 20
-271.0810241347
 30
0.0
 11
319.9786552567
 21
-271.0810241347
 31
0.0
  0
LINE
  5
CE
330
1F
100
AcDbEntity
  8
DIMENSION
100
AcDbLine
 10
319.9786552567
 20
-272.8935977517
 30
0.0
 11
320.0161552567
 21
-272.8935977517
 31
0.0
  0
LINE
  5
CF
330
1F
100
AcDbEntity
  8
DIMENSION
100
AcDbLine
 10
319.9786552567
 20
-266.9869485666
 30
0.0
 11
320.0161552567
 21
-266.9869485666
 31
0.0
  0
LINE
  5
D0
330
1F
100
AcDbEntity
  8
DIMENSION
100
AcDbLine
 10
320.0161552567
 20
-264.9618914199
 30
0.0
 11
319.9786552567
 21
-264.9618914199
 31
0.0
  0
LINE
  5
D1
330
1F
100
AcDbEntity
  8
DIMENSION
100
AcDbLine
 10
319.9786552567
 20
-264.4848763952
 30
0.0
 11
320.0161552567
 21
-264.4848763952
 31
0.0
  0
ARC
  5
D2
330
1F
100
AcDbEntity
  8
0
  6
Continuous
 62
     7
370
    25
100
AcDbCircle
 10
290.0295728381
 20
-276.5772917075
 30
0.0
 40
19.99999999999995
100
AcDbArc
 50
272.421703784
 51
300.4428609465
  0
LWPOLYLINE
  5
D3
330
1F
100
AcDbEntity
  8
DIMENSION
100
AcDbPolyline
 90
        3
 70
   128
 43
0.0
 10
292.9786552567
 20
-255.7601896081
 10
292.4272147735
 20
-255.6858048212
 10
290.8746552567
 20
-255.5594296238
  0
LINE
  5
D4
330
1F
100
AcDbEntity
  8
DIMENSION
100
AcDbLine
 10
305.5786552567
 20
-214.5594293145
 30
0.0
 11
305.5786552567
 21
-253.5769445253
 31
0.0
  0
LINE
  5
D5
330
1F
100
AcDbEntity
  8
DIMENSION
100
AcDbLine
 10
313.5786552567
 20
-253.5772235024
 30
0.0
 11
313.5786552567
 21
-214.5594293145
 31
0.0
  0
LINE
  5
D6
330
1F
100
AcDbEntity
  8
DIMENSION
100
AcDbLine
 10
228.6735429955
 20
-253.8344296238
 30
0.0
 11
190.8786552567
 21
-253.8344296238
 31
0.0
  0
LINE
  5
D7
330
1F
100
AcDbEntity
  8
DIMENSION
100
AcDbLine
 10
290.8786552567
 20
-253.8344296238
 30
0.0
 11
253.0829514505
 21
-253.8344296238
 31
0.0
  0
LINE
  5
D8
330
1F
100
AcDbEntity
  8
0
  6
Continuous
 62
     7
370
    25
100
AcDbLine
 10
263.0786268956
 20
-298.2844296238
 30
0.0
 11
290.8786552567
 21
-298.2844296238
 31
0.0
  0
LINE
  5
D9
330
1F
100
AcDbEntity
  8
0
  6
Continuous
 62
     7
370
    25
100
AcDbLine
 10
190.8786552567
 20
-298.2844296238
 30
0.0
 11
218.6786836179
 21
-298.2844296238
 31
0.0
  0
LINE
  5
DA
330
1F
100
AcDbEntity
  8
DIMENSION
100
AcDbLine
 10
253.5786552567
 20
-253.5628990918
 30
0.0
 11
253.5786552567
 21
-239.9863307978
 31
0.0
  0
LINE
  5
DB
330
1F
100
AcDbEntity
  8
DIMENSION
100
AcDbLine
 10
228.1786552567
 20
-239.9863307978
 30
0.0
 11
228.1786552567
 21
-253.5594296238
 31
0.0
  0
LINE
  5
DC
330
1F
100
AcDbEntity
  8
DIMENSION
100
AcDbLine
 10
253.5786552567
 20
-124.0863307978
 30
0.0
 11
228.1786552567
 21
-124.0863307978
 31
0.0
  0
LINE
  5
DD
330
1F
100
AcDbEntity
  8
DIMENSION
100
AcDbLine
 10
228.1786552567
 20
-239.8863307978
 30
0.0
 11
253.5786552567
 21
-239.8863307978
 31
0.0
  0
LINE
  5
DE
330
1F
100
AcDbEntity
  8
DIMENSION
100
AcDbLine
 10
240.8786552567
 20
-1151.0594296238
 30
0.0
 11
290.8786552567
 21
-1151.0594296238
 31
0.0
  0
LINE
  5
DF
330
1F
100
AcDbEntity
  8
DIMENSION
100
AcDbLine
 10
190.8786552567
 20
-1151.0594296238
 30
0.0
 11
240.8786552567
 21
-1151.0594296238
 31
0.0
  0
LINE
  5
E0
330
1F
100
AcDbEntity
  8
DIMENSION
100
AcDbLine
 10
240.8786552567
 20
-1176.0594296238
 30
0.0
 11
190.8786552567
 21
-1176.0594296238
 31
0.0
  0
LINE
  5
E1
330
1F
100
AcDbEntity
  8
DIMENSION
100
AcDbLine
 10
290.8786552567
 20
-1176.0594296238
 30
0.0
 11
240.8786552567
 21
-1176.0594296238
 31
0.0
  0
LINE
  5
E2
330
1F
100
AcDbEntity
  8
0
  6
Continuous
 62
     7
370
    25
100
AcDbLine
 10
218.6286552567
 20
-354.5594296238
 30
0.0
 11
263.1286552567
 21
-354.5594296238
 31
0.0
  0
SPLINE
  5
E3
330
1F
100
AcDbEntity
  8
0
  6
Continuous
 62
     7
370
    25
100
AcDbSpline
210
0.0
220
0.0
230
1.0
 70
     8
 71
     3
 72
    13
 73
     9
 74
     0
 42
0.00000001
 43
0.0000000001
 40
0.0
 40
0.0
 40
0.0
 40
0.0
 40
0.1970186804441937
 40
0.398686211321695
 40
0.5511469013623872
 40
0.7075467795130724
 40
0.8602515012741116
 40
1.0
 40
1.0
 40
1.0
 40
1.0
 10
226.1162663917744
 20
-290.8594296237883
 30
0.0
 10
225.327184944034
 20
-291.646694160412
 30
0.0
 10
223.7304028921261
 20
-293.2397995182735
 30
0.0
 10
221.8403828781125
 20
-295.1268308349326
 30
0.0
 10
220.3849808843769
 20
-296.5801799330181
 30
0.0
 10
219.3936400756157
 20
-297.5702937377332
 30
0.0
 10
218.7583539875467
 20
-298.2048471708516
 30
0.0
 10
218.7044575151988
 20
-298.2586841468179
 30
0.0
 10
218.6787031361405
 20
-298.2844100955857
 30
0.0
  0
SPLINE
  5
E4
330
1F
100
AcDbEntity
  8
0
  6
Continuous
 62
     7
370
    25
100
AcDbSpline
210
0.0
220
0.0
230
1.0
 70
     8
 71
     3
 72
    15
 73
    11
 74
     0
 42
0.00000001
 43
0.0000000001
 40
0.0
 40
0.0
 40
0.0
 40
0.0
 40
0.0189562694248954
 40
0.1504337266851615
 40
0.2857853533669516
 40
0.4174093893372898
 40
0.5518758223186229
 40
0.7475956378889905
 40
0.9488968083928531
 40
1.0
 40
1.0
 40
1.0
 40
1.0
 10
263.0786073773083
 20
-298.2844100955857
 30
0.0
 10
263.0868227925173
 20
-298.2926162082553
 30
0.0
 10
263.1520189288699
 20
-298.3577385212387
 30
0.0
 10
262.915869376839
 20
-298.1218542132303
 30
0.0
 10
262.4096833771231
 20
-297.6162543270526
 30
0.0
 10
261.5709382176483
 20
-296.7785437760299
 30
0.0
 10
260.3382175599223
 20
-295.5474879534351
 30
0.0
 10
258.5864211980462
 20
-293.7984298163593
 30
0.0
 10
256.8771604342201
 20
-292.0924895117871
 30
0.0
 10
255.8491756426032
 20
-291.067046518154
 30
0.0
 10
255.6410441216744
 20
-290.8594296237883
 30
0.0
  0
SPLINE
  5
E5
330
1F
100
AcDbEntity
  8
DIMENSION
100
AcDbSpline
210
0.0
220
0.0
230
1.0
 70
     8
 71
     3
 72
    36
 73
    32
 74
     0
 42
0.00000001
 43
0.0000000001
 40
0.0
 40
0.0
 40
0.0
 40
0.0
 40
0.1249999999999997
 40
0.1249999999999997
 40
0.2499999999999994
 40
0.2499999999999994
 40
0.3124999999999992
 40
0.3124999999999992
 40
0.3749999999999991
 40
0.3749999999999991
 40
0.4062499999999992
 40
0.4062499999999992
 40
0.4374999999999992
 40
0.4374999999999992
 40
0.4999999999999993
 40
0.4999999999999993
 40
0.5624999999999996
 40
0.5624999999999996
 40
0.5937499999999996
 40
0.5937499999999996
 40
0.6249999999999996
 40
0.6249999999999996
 40
0.6874999999999997
 40
0.6874999999999997
 40
0.7499999999999997
 40
0.7499999999999997
 40
0.8750000000000001
 40
0.8750000000000001
 40
0.9375
 40
0.9375
 40
1.0
 40
1.0
 40
1.0
 40
1.0
 10
255.6410441216744
 20
-290.8594296237883
 30
0.0
 10
254.660328490254
 20
-290.0563690118566
 30
0.0
 10
253.6304841670255
 20
-289.2557410818893
 30
0.0
 10
251.4538556940744
 20
-287.7101924234267
 30
0.0
 10
250.3078285804418
 20
-286.9640133218543
 30
0.0
 10
248.4636576740412
 20
-285.9502937577908
 30
0.0
 10
247.8237128181036
 20
-285.6287789576226
 30
0.0
 10
246.5167921636144
 20
-285.0519580097214
 30
0.0
 10
245.8489284130995
 20
-284.7957637566537
 30
0.0
 10
244.8206270714797
 20
-284.4746299232453
 30
0.0
 10
244.4734279557449
 20
-284.3781460521643
 30
0.0
 10
243.7691673751341
 20
-284.2091839624652
 30
0.0
 10
243.410327159226
 20
-284.1364632663886
 30
0.0
 10
242.3331745272564
 20
-283.9613274922159
 30
0.0
 10
241.6146837712468
 20
-283.9015617793164
 30
0.0
 10
240.1769070785015
 20
-283.899699893053
 30
0.0
 10
239.4576211232813
 20
-283.9576073848351
 30
0.0
 10
238.3781044994239
 20
-284.1305971786291
 30
0.0
 10
238.0198124764544
 20
-284.2024238130292
 30
0.0
 10
237.3163808158747
 20
-284.3695845609758
 30
0.0
 10
236.9696260393289
 20
-284.4651566375905
 30
0.0
 10
235.9427343745897
 20
-284.7835203069027
 30
0.0
 10
235.2759120736913
 20
-285.0378210933401
 30
0.0
 10
233.9712254372074
 20
-285.6107679948319
 30
0.0
 10
233.3306955498885
 20
-285.9311001910355
 30
0.0
 10
231.4795851976943
 20
-286.9452250338346
 30
0.0
 10
230.3278959237141
 20
-287.6936343877112
 30
0.0
 10
228.6858202504095
 20
-288.8584302179131
 30
0.0
 10
228.1530743241345
 20
-289.2542048023524
 30
0.0
 10
227.1137624045606
 20
-290.0536627003837
 30
0.0
 10
226.6067034278482
 20
-290.4578344480971
 30
0.0
 10
226.1162663917744
 20
-290.8594296237883
 30
0.0
  0
LINE
  5
E6
330
1F
100
AcDbEntity
  8
0
  6
Continuous
 62
     7
370
    25
100
AcDbLine
 10
226.1162663918
 20
-290.8594296238
 30
0.0
 11
255.6410441217
 21
-290.8594296238
 31
0.0
  0
LINE
  5
E7
330
1F
100
AcDbEntity
  8
DIMENSION
100
AcDbLine
 10
319.9786552567
 20
-253.6594293002
 30
0.0
 11
319.9786552567
 21
-298.4594293002
 31
0.0
  0
SPLINE
  5
E8
330
1F
100
AcDbEntity
  8
DIMENSION
100
AcDbSpline
210
0.0
220
0.0
230
1.0
 70
     8
 71
     3
 72
    18
 73
    14
 74
     0
 42
0.00000001
 43
0.0000000001
 40
0.0
 40
0.0
 40
0.0
 40
0.0
 40
0.0344380837665351
 40
0.1399667279452718
 40
0.2460752650722888
 40
0.3537168293982683
 40
0.4615056934882093
 40
0.5677563425771819
 40
0.6732004936165649
 40
0.7798069773319991
 40
0.8877421943942273
 40
0.9951179389180914
 40
1.0
 40
1.0
 40
1.0
 40
1.0
 10
305.5291162500214
 20
-253.5685378423107
 30
0.0
 10
305.514921119713
 20
-253.565975534963
 30
0.0
 10
305.45722784167
 20
-253.5555615474174
 30
0.0
 10
305.8217586222388
 20
-253.6219189986105
 30
0.0
 10
306.5869504483776
 20
-253.7412958931122
 30
0.0
 10
307.7236110233081
 20
-253.8704424620435
 30
0.0
 10
309.06544396764
 20
-253.944797651266
 30
0.0
 10
310.460255953255
 20
-253.9323182511636
 30
0.0
 10
311.7443564441394
 20
-253.8408938662017
 30
0.0
 10
312.8076383614031
 20
-253.7070980081409
 30
0.0
 10
313.4658562919763
 20
-253.5988167708136
 30
0.0
 10
313.74762487828
 20
-253.5471458740834
 30
0.0
 10
313.6720168774971
 20
-253.5606106956422
 30
0.0
 10
313.668728706344
 20
-253.5611962770274
 30
0.0
  0
ELLIPSE
  5
E9
330
1F
100
AcDbEntity
  8
DIMENSION
100
AcDbEllipse
 10
293.3417144684
 20
-276.0594293002
 30
0.0
 11
-8.63693929377524
 21
22.4999961105288
 31
0.0
210
0.0
220
0.0
230
1.0
 40
0.0000072175
 41
2.480692277468143
 42
4.754455805002351
  0
LINE
  5
EA
330
1F
100
AcDbEntity
  8
DIMENSION
100
AcDbLine
 10
292.9786552567
 20
-253.5594293002
 30
0.0
 11
292.9786552567
 21
-275.1131427616
 31
0.0
  0
SPLINE
  5
EB
330
1F
100
AcDbEntity
  8
DIMENSION
100
AcDbSpline
210
0.0
220
0.0
230
1.0
 70
     8
 71
     3
 72
    17
 73
    13
 74
     0
 42
0.00000001
 43
0.0000000001
 40
0.0
 40
0.0
 40
0.0
 40
0.0
 40
0.0384184774258765
 40
0.1417838460126022
 40
0.2451497522135105
 40
0.3485405347899582
 40
0.4519323337317033
 40
0.5554936999464039
 40
0.6590560607101401
 40
0.7628412754464897
 40
0.8666270803646746
 40
1.0
 40
1.0
 40
1.0
 40
1.0
 10
301.014662096833
 20
-296.0481413132437
 30
0.0
 10
301.0214524386607
 20
-296.065821202385
 30
0.0
 10
301.0465122756088
 20
-296.1310690426817
 30
0.0
 10
300.8627806472694
 20
-295.6523711930026
 30
0.0
 10
300.4767121682816
 20
-294.6465547294022
 30
0.0
 10
299.8726562016143
 20
-293.0728666146938
 30
0.0
 10
299.0932226897351
 20
-291.0423112030562
 30
0.0
 10
298.1485069288927
 20
-288.5811897408506
 30
0.0
 10
297.0716128501294
 20
-285.7757419068032
 30
0.0
 10
295.8882744849725
 20
-282.6930091857366
 30
0.0
 10
294.5155553298253
 20
-279.1169318545251
 30
0.0
 10
293.5318626633036
 20
-276.5543245080804
 30
0.0
 10
292.9786552567244
 20
-275.1131697526829
 30
0.0
  0
LWPOLYLINE
  5
EC
330
1F
100
AcDbEntity
  8
DIMENSION
100
AcDbPolyline
 90
       12
 70
   128
 43
0.0
 10
313.5786552567
 20
-214.5594293145
 10
313.4512875982
 20
-214.5594077125
 10
312.9840818242
 20
-214.5593840475
 10
312.2142889552
 20
-214.5593644046
 10
311.2103084658
 20
-214.5593505292
 10
310.0613484283
 20
-214.5593436543
 10
308.8694989843
 20
-214.5593443907
 10
307.7406611872
 20
-214.5593526729
 10
306.7751372291
 20
-214.559367765
 10
306.0587181508
 20
-214.5593883261
 10
305.6550609313
 20
-214.5594125292
 10
305.5786552567
 20
-214.5594293145
  0
LINE
  5
ED
330
1F
100
AcDbEntity
  8
DIMENSION
100
AcDbLine
 10
290.8786552567
 20
-276.0594296238
 30
0.0
 11
290.8786552567
 21
-253.8344296238
 31
0.0
  0
LINE
  5
EE
330
1F
100
AcDbEntity
  8
DIMENSION
100
AcDbLine
 10
290.8786552567
 20
-298.2844296238
 30
0.0
 11
290.8786552567
 21
-276.0594296238
 31
0.0
  0
LINE
  5
EF
330
1F
100
AcDbEntity
  8
0
  6
Continuous
 62
     7
370
    25
100
AcDbLine
 10
190.8786552567
 20
-276.0594296238
 30
0.0
 11
190.8786552567
 21
-253.8344296238
 31
0.0
  0
LINE
  5
F0
330
1F
100
AcDbEntity
  8
0
  6
Continuous
 62
     7
370
    25
100
AcDbLine
 10
190.8786552567
 20
-298.2844296238
 30
0.0
 11
190.8786552567
 21
-276.0594296238
 31
0.0
  0
LINE
  5
F1
330
1F
100
AcDbEntity
  8
DIMENSION
100
AcDbLine
 10
253.5786552567
 20
-239.9863307978
 30
0.0
 11
228.1786552567
 21
-239.9863307978
 31
0.0
  0
SPLINE
  5
F2
330
1F
100
AcDbEntity
  8
DIMENSION
100
AcDbSpline
210
0.0
220
0.0
230
1.0
 70
     8
 71
     3
 72
    21
 73
    17
 74
     0
 42
0.00000001
 43
0.0000000001
 40
0.0
 40
0.0
 40
0.0
 40
0.0
 40
0.0476389079897143
 40
0.0967787363650807
 40
0.1929211143693867
 40
0.295967680950864
 40
0.352162148752842
 40
0.410186042799035
 40
0.4992645367209047
 40
0.5884356673052355
 40
0.6775599685382101
 40
0.7806781906563844
 40
0.8370536834102097
 40
0.895299011347102
 40
0.9475813216494302
 40
1.0
 40
1.0
 40
1.0
 40
1.0
 10
228.1786552567244
 20
-253.5594296237883
 30
0.0
 10
228.2075580418244
 20
-253.575818237732
 30
0.0
 10
228.266274228602
 20
-253.6091118083692
 30
0.0
 10
228.8862762405066
 20
-253.9547964455076
 30
0.0
 10
230.3663171984582
 20
-254.7463018014377
 30
0.0
 10
232.7093603728635
 20
-255.815706258416
 30
0.0
 10
235.1221112091824
 20
-256.6459514515705
 30
0.0
 10
237.6309231741498
 20
-257.2744723215858
 30
0.0
 10
240.8506224558717
 20
-257.6116577783594
 30
0.0
 10
244.4955562681396
 20
-257.2411414300995
 30
0.0
 10
247.907719984981
 20
-256.2767601515799
 30
0.0
 10
250.3604379796654
 20
-255.2297706519552
 30
0.0
 10
251.9876418480839
 20
-254.4246166566076
 30
0.0
 10
252.9032855563069
 20
-253.9364057803431
 30
0.0
 10
253.4758568691046
 20
-253.6177467668717
 30
0.0
 10
253.5402441884705
 20
-253.5811975180364
 30
0.0
 10
253.572479778861
 20
-253.5628990917913
 30
0.0
  0
POINT
  5
F3
330
1F
100
AcDbEntity
  8
0
  6
Continuous
 62
     7
370
     0
100
AcDbPoint
 10
190.8786552567
 20
-276.0594296238
 30
0.0
  0
DIMENSION
  5
F4
102
{ACAD_XDICTIONARY
360
20D
102
}
330
1F
100
AcDbEntity
  8
DIMENSION
100
AcDbDimension
280
     0
  2
*D19
 10
152.4568318740124
 20
-1176.0594296238
 30
0.0
 11
152.4568318740121
 21
-726.0594296238001
 31
0.0
 70
   160
  1
<>
 71
     2
 42
900.0000000000001
 73
     0
 74
     0
 75
     0
  3
RG Dimension Lines
100
AcDbAlignedDimension
 13
190.8786552567
 23
-276.0594296238
 33
0.0
 14
190.8786552567
 24
-1176.0594296238
 34
0.0
 50
90.0
100
AcDbRotatedDimension
1001
AcadAnnotative
1000
AnnotativeData
1002
{
1070
     1
1070
     1
1002
}
  0
DIMENSION
  5
FC
102
{ACAD_XDICTIONARY
360
253
102
}
330
1F
100
AcDbEntity
  8
DIMENSION
100
AcDbDimension
280
     0
  2
*D24
 10
191.8786552567
 20
-1240.0594296238
 30
0.0
 11
235.0858013366
 21
-1240.0594296238
 31
0.0
 70
   160
  1
%%c<>
 71
     2
 42
98.0
 73
     0
 74
     0
 75
     0
  3
RG Dimension Lines
100
AcDbAlignedDimension
 13
289.8786552566999
 23
-1176.0594296238
 33
0.0
 14
191.8786552567
 24
-1176.0594296238
 34
0.0
100
AcDbRotatedDimension
1001
AcadAnnotative
1000
AnnotativeData
1002
{
1070
     1
1070
     1
1002
}
1001
ACAD
1000
DSTYLE
1002
{
1070
    45
1040
5.0
1002
}
  0
DIMENSION
  5
105
102
{ACAD_XDICTIONARY
360
28C
102
}
330
1F
100
AcDbEntity
  8
DIMENSION
100
AcDbDimension
280
     0
  2
*D26
 10
365.9786552567001
 20
-214.5594293145001
 30
0.0
 11
365.9786552567
 21
-257.6671194976
 31
0.0
 70
   160
  1
<>
 71
     2
 42
83.99999998570001
 73
     0
 74
     0
 75
     0
  3
RG Dimension Lines
100
AcDbAlignedDimension
 13
319.8786552567
 23
-298.5594293002
 33
0.0
 14
313.5786552567
 24
-214.5594293145
 34
0.0
 50
90.0
100
AcDbRotatedDimension
1001
AcadAnnotative
1000
AnnotativeData
1002
{
1070
     1
1070
     1
1002
}
1001
ACAD
1000
DSTYLE
1002
{
1070
    45
1040
5.0
1002
}
  0
DIMENSION
  5
10D
102
{ACAD_XDICTIONARY
360
27E
102
}
330
1F
100
AcDbEntity
  8
DIMENSION
100
AcDbDimension
280
     0
  2
*D25
 10
253.5786552567
 20
73.6136692022
 30
0.0
 11
271.7453219233667
 21
81.6136692022
 31
0.0
 70
    32
  1
<>
 71
     2
 42
25.40000000000001
 73
     0
 74
     0
 75
     0
  3
RG Dimension Lines
100
AcDbAlignedDimension
 13
228.1786552567
 23
20.9136692022
 33
0.0
 14
253.5786552567
 24
20.9136692022
 34
0.0
100
AcDbRotatedDimension
1001
AcadAnnotative
1000
AnnotativeData
1002
{
1070
     1
1070
     1
1002
}
1001
ACAD
1000
DSTYLE
1002
{
1070
     3
1000
%%C<>
1002
}
  0
LINE
  5
116
330
1F
100
AcDbEntity
  8
DIMENSION
100
AcDbLine
 10
-315.4819225585
 20
238.6485085575
 30
0.0
 11
-65.4819225585
 21
238.6485085575
 31
0.0
  0
LINE
  5
117
330
1F
100
AcDbEntity
  8
DIMENSION
100
AcDbLine
 10
-65.4819225585
 20
264.0485085575
 30
0.0
 11
-315.4819225585
 21
264.0485085575
 31
0.0
  0
ARC
  5
118
330
1F
100
AcDbEntity
  8
DIMENSION
100
AcDbCircle
 10
-293.0669225585
 20
330.3485085575
 30
0.0
 40
0.1000000000000227
100
AcDbArc
 50
0.0
 51
90.0
  0
ARC
  5
119
330
1F
100
AcDbEntity
  8
DIMENSION
100
AcDbCircle
 10
-337.8669225585
 20
330.3485085575
 30
0.0
 40
0.1000000000000227
100
AcDbArc
 50
90.0
 51
180.0
  0
LINE
  5
11A
330
1F
100
AcDbEntity
  8
DIMENSION
100
AcDbLine
 10
-337.9669225585
 20
330.3485085575
 30
0.0
 11
-337.9669225585
 21
303.8113814471
 31
0.0
  0
LINE
  5
11B
330
1F
100
AcDbEntity
  8
DIMENSION
100
AcDbLine
 10
-292.9669225585
 20
303.8117540913
 30
0.0
 11
-292.9669225585
 21
330.3485085575
 31
0.0
  0
LINE
  5
11C
330
1F
100
AcDbEntity
  8
DIMENSION
100
AcDbLine
 10
-303.7584014838
 20
330.4860085575
 30
0.0
 11
-303.7584014838
 21
330.4485085575
 31
0.0
  0
LINE
  5
11D
330
1F
100
AcDbEntity
  8
DIMENSION
100
AcDbLine
 10
-300.0446357522
 20
330.4485085575
 30
0.0
 11
-300.0446357522
 21
330.4860085575
 31
0.0
  0
LINE
  5
11E
330
1F
100
AcDbEntity
  8
DIMENSION
100
AcDbLine
 10
-329.1049154419
 20
330.4860085575
 30
0.0
 11
-329.1049154419
 21
330.4485085575
 31
0.0
  0
LINE
  5
11F
330
1F
100
AcDbEntity
  8
DIMENSION
100
AcDbLine
 10
-327.1171814452
 20
330.4485085575
 30
0.0
 11
-327.1171814452
 21
330.4860085575
 31
0.0
  0
LINE
  5
120
330
1F
100
AcDbEntity
  8
DIMENSION
100
AcDbLine
 10
-303.3358455909
 20
330.4485085575
 30
0.0
 11
-303.3358455909
 21
330.4860085575
 31
0.0
  0
LINE
  5
121
330
1F
100
AcDbEntity
  8
DIMENSION
100
AcDbLine
 10
-305.3609020731
 20
330.4860085575
 30
0.0
 11
-305.3609020731
 21
330.4485085575
 31
0.0
  0
LINE
  5
122
330
1F
100
AcDbEntity
  8
DIMENSION
100
AcDbLine
 10
-307.1740624665
 20
330.4485085575
 30
0.0
 11
-307.1740624665
 21
330.4860085575
 31
0.0
  0
LINE
  5
123
330
1F
100
AcDbEntity
  8
DIMENSION
100
AcDbLine
 10
-309.0188109378
 20
330.4860085575
 30
0.0
 11
-309.0188109378
 21
330.4485085575
 31
0.0
  0
LWPOLYLINE
  5
124
330
1F
100
AcDbEntity
  8
DIMENSION
100
AcDbPolyline
 90
        3
 70
   128
 43
0.0
 10
-294.9819225585
 20
301.3445085575
 10
-295.1082977558
 20
302.8970680742
 10
-295.1826825428
 20
303.4485085575
  0
LWPOLYLINE
  5
125
330
1F
100
AcDbEntity
  8
DIMENSION
100
AcDbPolyline
 90
        3
 70
   128
 43
0.0
 10
-335.7811625741
 20
303.4485085575
 10
-335.8555473611
 20
302.8970680742
 10
-335.9819225585
 20
301.3445085575
  0
LINE
  5
126
330
1F
100
AcDbEntity
  8
DIMENSION
100
AcDbLine
 10
-315.4682492786
 20
316.0485085575
 30
0.0
 11
-315.4673863708
 21
316.0485085575
 31
0.0
  0
LINE
  5
127
330
1F
100
AcDbEntity
  8
DIMENSION
100
AcDbLine
 10
-315.467386372
 20
324.0485085575
 30
0.0
 11
-315.4682492798
 21
324.0485085575
 31
0.0
  0
LINE
  5
128
330
1F
100
AcDbEntity
  8
DIMENSION
100
AcDbLine
 10
-337.7069225585
 20
301.3485085575
 30
0.0
 11
-337.7069225585
 21
201.3485085575
 31
0.0
  0
LINE
  5
129
330
1F
100
AcDbEntity
  8
DIMENSION
100
AcDbLine
 10
-293.2569225585
 20
201.3485085575
 30
0.0
 11
-293.2569225585
 21
238.6485085575
 31
0.0
  0
LINE
  5
12A
330
1F
100
AcDbEntity
  8
DIMENSION
100
AcDbLine
 10
-293.2569225585
 20
264.0485085575
 30
0.0
 11
-293.2569225585
 21
301.3485085575
 31
0.0
  0
ARC
  5
12B
330
1F
100
AcDbEntity
  8
0
  6
Continuous
 62
     7
370
    25
100
AcDbCircle
 10
-65.4819225585
 20
251.3485085575
 30
0.0
 40
12.70000000000005
100
AcDbArc
 50
270.0
 51
90.0
  0
ARC
  5
12C
330
1F
100
AcDbEntity
  8
DIMENSION
100
AcDbCircle
 10
-315.4819225585
 20
251.3485085575
 30
0.0
 40
12.70000000000005
100
AcDbArc
 50
90.0
 51
270.0
  0
LINE
  5
12D
330
1F
100
AcDbEntity
  8
DIMENSION
100
AcDbLine
 10
-337.7069225585
 20
252.4029633929
 30
0.0
 11
-337.7069225585
 21
250.294053722
 31
0.0
  0
ARC
  5
12E
330
1F
100
AcDbEntity
  8
DIMENSION
100
AcDbCircle
 10
-315.4819225585
 20
251.3485085575
 30
0.0
 40
50.00000000000003
100
AcDbArc
 50
14.7143385418
 51
63.60864665069999
  0
ARC
  5
12F
330
1F
100
AcDbEntity
  8
DIMENSION
100
AcDbCircle
 10
-315.4819225585
 20
251.3485085575
 30
0.0
 40
49.99999999999997
100
AcDbArc
 50
116.3913533493
 51
243.6086466507
  0
ARC
  5
130
330
1F
100
AcDbEntity
  8
DIMENSION
100
AcDbCircle
 10
-315.4819225585
 20
251.3485085575
 30
0.0
 40
50.00000000000002
100
AcDbArc
 50
296.3913533493
 51
345.2856614582
  0
LINE
  5
131
330
1F
100
AcDbEntity
  8
DIMENSION
100
AcDbLine
 10
-337.8669225532
 20
330.4485085575
 30
0.0
 11
-293.0669225585
 21
330.4485085575
 31
0.0
  0
SPLINE
  5
132
330
1F
100
AcDbEntity
  8
DIMENSION
100
AcDbSpline
210
0.0
220
0.0
230
1.0
 70
     9
 71
     3
 72
    70
 73
    66
 74
     0
 42
0.00000001
 43
0.0000000001
 40
0.0
 40
0.0
 40
0.0
 40
0.0
 40
0.03125
 40
0.03125
 40
0.0625
 40
0.0625
 40
0.09375
 40
0.09375
 40
0.125
 40
0.125
 40
0.15625
 40
0.15625
 40
0.1875
 40
0.1875
 40
0.21875
 40
0.21875
 40
0.25
 40
0.25
 40
0.28125
 40
0.28125
 40
0.3125
 40
0.3125
 40
0.34375
 40
0.34375
 40
0.375
 40
0.375
 40
0.40625
 40
0.40625
 40
0.4375
 40
0.4375
 40
0.46875
 40
0.46875
 40
0.5
 40
0.5
 40
0.53125
 40
0.53125
 40
0.5625
 40
0.5625
 40
0.59375
 40
0.59375
 40
0.625
 40
0.625
 40
0.65625
 40
0.65625
 40
0.6875
 40
0.6875
 40
0.71875
 40
0.71875
 40
0.75
 40
0.75
 40
0.78125
 40
0.78125
 40
0.8125
 40
0.8125
 40
0.84375
 40
0.84375
 40
0.875
 40
0.875
 40
0.90625
 40
0.90625
 40
0.9375
 40
0.9375
 40
0.96875
 40
0.96875
 40
1.0
 40
1.0
 40
1.0
 40
1.0
 10
-319.5673998165172
 20
320.0485085574558
 30
0.0
 10
-319.5673998165172
 20
319.7770342520398
 30
0.0
 10
-319.5407043431272
 20
319.5102123962499
 30
0.0
 10
-319.4362153195712
 20
318.9854566988921
 30
0.0
 10
-319.3571131195272
 20
318.7247629956397
 30
0.0
 10
-319.1511345860725
 20
318.2285428187666
 30
0.0
 10
-319.0251722059432
 20
317.9932819902889
 30
0.0
 10
-318.7276723508591
 20
317.5480428357277
 30
0.0
 10
-318.554897509817
 20
317.3376834847176
 30
0.0
 10
-318.1775151760518
 20
316.9603873857736
 30
0.0
 10
-317.971490129277
 20
316.7908730375374
 30
0.0
 10
-317.5235233140867
 20
316.4911200371093
 30
0.0
 10
-317.2857641946515
 20
316.3641045674613
 30
0.0
 10
-316.792672649305
 20
316.1594303648143
 30
0.0
 10
-316.5336916654532
 20
316.0803964242915
 30
0.0
 10
-316.0041990505781
 20
315.9748454438461
 30
0.0
 10
-315.7378046097799
 20
315.9486652617048
 30
0.0
 10
-315.2017845273602
 20
315.9483532424693
 30
0.0
 10
-314.92947798232
 20
315.9751047985248
 30
0.0
 10
-314.4032125868796
 20
316.0799476041373
 30
0.0
 10
-314.1473596381989
 20
316.1575133239418
 30
0.0
 10
-313.6502611146882
 20
316.3633555942782
 30
0.0
 10
-313.4110273437515
 20
316.4914772641557
 30
0.0
 10
-312.9674384446031
 20
316.7879362233017
 30
0.0
 10
-312.7597463719488
 20
316.9579841635482
 30
0.0
 10
-312.3781992827617
 20
317.3393442308572
 30
0.0
 10
-312.2089737492294
 20
317.5457442613498
 30
0.0
 10
-311.9120868652203
 20
317.9891580391725
 30
0.0
 10
-311.7834071235794
 20
318.2291135028451
 30
0.0
 10
-311.5776872701764
 20
318.7248235208605
 30
0.0
 10
-311.4998862091557
 20
318.9803662940818
 30
0.0
 10
-311.3944659189398
 20
319.5069323035132
 30
0.0
 10
-311.3675069613434
 20
319.7790167451641
 30
0.0
 10
-311.3672933275208
 20
320.3147303572566
 30
0.0
 10
-311.3931805966483
 20
320.5813517347237
 30
0.0
 10
-311.4985143055112
 20
321.1120538783127
 30
0.0
 10
-311.577028749174
 20
321.3700109625594
 30
0.0
 10
-311.7813986312693
 20
321.8636519942351
 30
0.0
 10
-311.9090818189548
 20
322.102908346228
 30
0.0
 10
-312.2076439688956
 20
322.5497426637804
 30
0.0
 10
-312.3768043032307
 20
322.7558349113361
 30
0.0
 10
-312.754395355869
 20
323.1341203831745
 30
0.0
 10
-312.9648640312937
 20
323.3071398944354
 30
0.0
 10
-313.4089500531076
 20
323.6043697282706
 30
0.0
 10
-313.6440598205533
 20
323.7306108971695
 30
0.0
 10
-314.1411673577935
 20
323.9374105071656
 30
0.0
 10
-314.4008821607428
 20
324.0163799705217
 30
0.0
 10
-314.925205046392
 20
324.1212835130621
 30
0.0
 10
-315.1934754875147
 20
324.1483022903618
 30
0.0
 10
-315.7351307323997
 20
324.1487124733311
 30
0.0
 10
-316.001774614471
 20
324.1223426535468
 30
0.0
 10
-316.5269939259852
 20
324.0182627774816
 30
0.0
 10
-316.7882776645522
 20
323.9391718924293
 30
0.0
 10
-317.2839611227189
 20
323.7338971444713
 30
0.0
 10
-317.5194044062937
 20
323.6081768553743
 30
0.0
 10
-317.9656557180118
 20
323.3105139619104
 30
0.0
 10
-318.1757190276489
 20
323.1381904825413
 30
0.0
 10
-318.5530957632413
 20
322.7613677192296
 30
0.0
 10
-318.7229913400211
 20
322.5553312352149
 30
0.0
 10
-319.02383179582
 20
322.1063769778123
 30
0.0
 10
-319.1501950567931
 20
321.870133604471
 30
0.0
 10
-319.3553408364418
 20
321.3771198611638
 30
0.0
 10
-319.4347920054726
 20
321.1174706644767
 30
0.0
 10
-319.5407002224845
 20
320.588046600904
 30
0.0
 10
-319.5673998165172
 20
320.3199828628717
 30
0.0
 10
-319.5673998165172
 20
320.0485085574558
 30
0.0
  0
ELLIPSE
  5
133
330
1F
100
AcDbEntity
  8
DIMENSION
100
AcDbEllipse
 10
-315.4669225585
 20
303.8115677692
 30
0.0
 11
22.49999999984362
 21
0.000218521600118
 31
0.0
210
0.0
220
0.0
230
0.9999999999999998
 40
0.3838640349
 41
6.241111991189302
 42
6.283181579064814
  0
ELLIPSE
  5
134
330
1F
100
AcDbEntity
  8
DIMENSION
100
AcDbEllipse
 10
-315.4669225585
 20
303.8115677692
 30
0.0
 11
22.49999999984362
 21
0.000218521600118
 31
0.0
210
0.0
220
0.0
230
0.9999999999999998
 40
0.3838640349
 41
3.141588925474984
 42
3.183615367959616
  0
LINE
  5
135
330
1F
100
AcDbEntity
  8
DIMENSION
100
AcDbLine
 10
-337.9470554868
 20
303.4485085575
 30
0.0
 11
-292.9868304371
 21
303.4485085575
 31
0.0
  0
ARC
  5
136
330
1F
100
AcDbEntity
  8
DIMENSION
100
AcDbCircle
 10
-315.4673863714
 20
320.0485085575
 30
0.0
 40
4.100000000000023
100
AcDbArc
 50
90.0000000095
 51
270.0000000095
  0
CIRCLE
  5
137
330
1F
100
AcDbEntity
  8
DIMENSION
100
AcDbCircle
 10
-315.4682492792
 20
320.0485085575
 30
0.0
 40
3.999999999999973
  0
ARC
  5
138
330
1F
100
AcDbEntity
  8
DIMENSION
100
AcDbCircle
 10
-315.4673863714
 20
320.0485085575
 30
0.0
 40
4.0
100
AcDbArc
 50
270.0000000086
 51
90.00000000860001
  0
LINE
  5
139
330
1F
100
AcDbEntity
  8
DIMENSION
100
AcDbLine
 10
-293.2569225585
 20
301.3485085575
 30
0.0
 11
-337.7069225585
 21
301.3485085575
 31
0.0
  0
LINE
  5
13A
330
1F
100
AcDbEntity
  8
0
  6
Continuous
 62
     7
370
    25
100
AcDbLine
 10
-293.2569225585
 20
201.3485085575
 30
0.0
 11
-337.7069225585
 21
201.3485085575
 31
0.0
  0
DIMENSION
  5
13B
102
{ACAD_XDICTIONARY
360
1FF
102
}
330
1F
100
AcDbEntity
  8
DIMENSION
100
AcDbDimension
280
     0
  2
*D18
 10
-453.4819225585001
 20
201.3485085575001
 30
0.0
 11
-453.4819225585
 21
259.1507410281
 31
0.0
 70
   160
  1
<>
 71
     2
 42
129.1
 73
     0
 74
     0
 75
     0
  3
RG Dimension Lines
100
AcDbAlignedDimension
 13
-337.8669225532
 23
330.4485085575
 33
0.0
 14
-337.7069225585
 24
201.3485085575
 34
0.0
 50
90.0
100
AcDbRotatedDimension
1001
AcadAnnotative
1000
AnnotativeData
1002
{
1070
     1
1070
     1
1002
}
1001
ACAD
1000
DSTYLE
1002
{
1070
    45
1040
5.0
1002
}
  0
DIMENSION
  5
143
102
{ACAD_XDICTIONARY
360
1F1
102
}
330
1F
100
AcDbEntity
  8
DIMENSION
100
AcDbDimension
280
     0
  2
*D17
 10
-292.9669225585
 20
388.4485085575
 30
0.0
 11
-315.4669225585
 21
396.4485085575
 31
0.0
 70
    32
  1
%%c<>
 71
     2
 42
45.0
 73
     0
 74
     0
 75
     0
  3
RG Dimension Lines
100
AcDbAlignedDimension
 13
-337.9669225585
 23
330.3485085575
 33
0.0
 14
-292.9669225585
 24
330.3485085575
 34
0.0
100
AcDbRotatedDimension
1001
AcadAnnotative
1000
AnnotativeData
1002
{
1070
     1
1070
     1
1002
}
  0
DIMENSION
  5
18E
102
{ACAD_XDICTIONARY
360
1E2
102
}
330
1F
100
AcDbEntity
  8
DIMENSION
100
AcDbDimension
280
     0
  2
*D16
 10
-399.3609409630649
 20
251.3485085575001
 30
0.0
 11
-410.0276076297314
 21
290.8985085575001
 31
0.0
 70
    32
 71
     5
 42
79.10000000000002
 73
     0
 74
     0
 75
     0
  3
RG Dimension Lines
100
AcDbAlignedDimension
 13
-315.46692255585
 23
330.4485085575
 33
0.0
 14
-315.4819225585
 24
251.3485085575
 34
0.0
 50
90.0
100
AcDbRotatedDimension
1001
AcadAnnotative
1000
AnnotativeData
1002
{
1070
     1
1070
     1
1002
}
  0
DIMENSION
  5
19D
102
{ACAD_XDICTIONARY
360
245
102
}
330
1F
100
AcDbEntity
  8
DIMENSION
100
AcDbDimension
280
     0
  2
*D23
 10
-225.1120553986259
 20
-1151.0594296238
 30
0.0
 11
-214.4453887319595
 21
-1163.5594296238
 31
0.0
 70
    32
 71
     5
 42
25.0
 73
     0
 74
     0
 75
     0
  3
RG Dimension Lines
100
AcDbAlignedDimension
 13
-265.4819225585
 23
-1176.0594296238
 33
0.0
 14
-265.4819225585
 24
-1151.0594296238
 34
0.0
 50
90.0
100
AcDbRotatedDimension
1001
AcadAnnotative
1000
AnnotativeData
1002
{
1070
     1
1070
     1
1002
}
  0
ENDSEC
  0
SECTION
  2
OBJECTS
  0
DICTIONARY
  5
C
330
0
100
AcDbDictionary
281
     1
  3
ACAD_CIP_PREVIOUS_PRODUCT_INFO
350
18D
  3
ACAD_COLOR
350
182
  3
ACAD_DETAILVIEWSTYLE
350
189
  3
ACAD_GROUP
350
D
  3
ACAD_LAYOUT
350
1A
  3
ACAD_MATERIAL
350
150
  3
ACAD_MLEADERSTYLE
350
185
  3
ACAD_MLINESTYLE
350
17
  3
ACAD_PLOTSETTINGS
350
19
  3
ACAD_PLOTSTYLENAME
350
E
  3
ACAD_SCALELIST
350
47
  3
ACAD_SECTIONVIEWSTYLE
350
187
  3
ACAD_TABLESTYLE
350
183
  3
ACAD_VISUALSTYLE
350
169
  3
ACDB_RECOMPOSE_DATA
350
2FB
  3
AcDbVariableDictionary
350
2EF
  0
DICTIONARY
  5
1BD
330
2
100
AcDbDictionary
280
     1
281
     1
  3
ACAD_LAYERSTATES
360
1BE
  0
DICTIONARY
  5
2DF
330
10
100
AcDbDictionary
280
     1
281
     1
  3
ADSK_XREC_LAYER_RECONCILED
360
2E0
  0
DICTIONARY
  5
2E1
330
73
100
AcDbDictionary
280
     1
281
     1
  3
ADSK_XREC_LAYER_RECONCILED
360
2E2
  0
DICTIONARY
  5
2E3
330
1B5
100
AcDbDictionary
280
     1
281
     1
  3
ADSK_XREC_LAYER_RECONCILED
360
2E4
  0
DICTIONARY
  5
237
330
9A
100
AcDbDictionary
280
     1
281
     1
  3
AcDbContextDataManager
360
238
  0
DICTIONARY
  5
229
330
A7
100
AcDbDictionary
280
     1
281
     1
  3
AcDbContextDataManager
360
22A
  0
DICTIONARY
  5
21B
330
AF
100
AcDbDictionary
280
     1
281
     1
  3
AcDbContextDataManager
360
21C
  0
DICTIONARY
  5
20D
330
F4
100
AcDbDictionary
280
     1
281
     1
  3
AcDbContextDataManager
360
20E
  0
DICTIONARY
  5
253
330
FC
100
AcDbDictionary
280
     1
281
     1
  3
AcDbContextDataManager
360
254
  0
DICTIONARY
  5
28C
330
105
100
AcDbDictionary
280
     1
281
     1
  3
AcDbContextDataManager
360
28D
  0
DICTIONARY
  5
27E
330
10D
100
AcDbDictionary
280
     1
281
     1
  3
AcDbContextDataManager
360
27F
  0
DICTIONARY
  5
1FF
330
13B
100
AcDbDictionary
280
     1
281
     1
  3
AcDbContextDataManager
360
200
  0
DICTIONARY
  5
1F1
330
143
100
AcDbDictionary
280
     1
281
     1
  3
AcDbContextDataManager
360
1F2
  0
DICTIONARY
  5
1E2
330
18E
100
AcDbDictionary
280
     1
281
     1
  3
AcDbContextDataManager
360
1E3
  0
DICTIONARY
  5
245
330
19D
100
AcDbDictionary
280
     1
281
     1
  3
AcDbContextDataManager
360
246
  0
XRECORD
  5
18D
102
{ACAD_REACTORS
330
C
102
}
330
C
100
AcDbXrecord
280
     1
300
ACD
300
2021
300

  0
DICTIONARY
  5
182
102
{ACAD_REACTORS
330
C
102
}
330
C
100
AcDbDictionary
281
     1
  0
DICTIONARY
  5
189
102
{ACAD_REACTORS
330
C
102
}
330
C
100
AcDbDictionary
281
     1
  3
Metric50
350
18A
  0
DICTIONARY
  5
D
102
{ACAD_REACTORS
330
C
102
}
330
C
100
AcDbDictionary
281
     1
  0
DICTIONARY
  5
1A
102
{ACAD_REACTORS
330
C
102
}
330
C
100
AcDbDictionary
281
     1
  3
Layout1
350
1E
  3
Layout2
350
26
  3
Model
350
22
  0
DICTIONARY
  5
150
102
{ACAD_REACTORS
330
C
102
}
330
C
100
AcDbDictionary
281
     1
  3
ByBlock
350
159
  3
ByLayer
350
151
  3
Global
350
161
  0
DICTIONARY
  5
185
102
{ACAD_REACTORS
330
C
102
}
330
C
100
AcDbDictionary
281
     1
  3
Standard
350
186
  0
DICTIONARY
  5
17
102
{ACAD_REACTORS
330
C
102
}
330
C
100
AcDbDictionary
281
     1
  3
Standard
350
18
  0
DICTIONARY
  5
19
102
{ACAD_REACTORS
330
C
102
}
330
C
100
AcDbDictionary
281
     1
  0
ACDBDICTIONARYWDFLT
  5
E
102
{ACAD_REACTORS
330
C
102
}
330
C
100
AcDbDictionary
281
     1
  3
Normal
350
F
100
AcDbDictionaryWithDefault
340
F
  0
DICTIONARY
  5
47
102
{ACAD_REACTORS
330
C
102
}
330
C
100
AcDbDictionary
281
     1
  3
A0
350
48
  3
A1
350
49
  3
A2
350
4A
  3
A3
350
4B
  3
A4
350
4C
  3
A5
350
4D
  3
A6
350
4E
  3
A7
350
4F
  3
A8
350
50
  3
A9
350
51
  3
B0
350
52
  3
B1
350
53
  3
B2
350
54
  3
B3
350
55
  3
B4
350
56
  3
B5
350
57
  3
B6
350
58
  3
B7
350
59
  3
B8
350
5A
  3
B9
350
5B
  3
C0
350
5C
  3
C1
350
5D
  3
C2
350
5E
  3
C3
350
5F
  3
C4
350
60
  3
C5
350
61
  3
C6
350
62
  3
C7
350
63
  3
C8
350
64
  3
C9
350
65
  3
D0
350
66
  3
D1
350
67
  3
D2
350
68
  0
DICTIONARY
  5
187
102
{ACAD_REACTORS
330
C
102
}
330
C
100
AcDbDictionary
281
     1
  3
Metric50
350
188
  0
DICTIONARY
  5
183
102
{ACAD_REACTORS
330
C
102
}
330
C
100
AcDbDictionary
281
     1
  3
Standard
350
184
  0
DICTIONARY
  5
169
102
{ACAD_REACTORS
330
C
102
}
330
C
100
AcDbDictionary
281
     1
  3
2dWireframe
350
16F
  3
Basic
350
16E
  3
Brighten
350
175
  3
ColorChange
350
179
  3
Conceptual
350
172
  3
Dim
350
174
  3
EdgeColorOff
350
181
  3
Facepattern
350
178
  3
Flat
350
16A
  3
FlatWithEdges
350
16B
  3
Gouraud
350
16C
  3
GouraudWithEdges
350
16D
  3
Hidden
350
171
  3
JitterOff
350
17F
  3
Linepattern
350
177
  3
OverhangOff
350
180
  3
Realistic
350
173
  3
Shaded
350
17E
  3
Shaded with edges
350
17D
  3
Shades of Gray
350
17A
  3
Sketchy
350
17B
  3
Thicken
350
176
  3
Wireframe
350
170
  3
X-Ray
350
17C
  0
XRECORD
  5
2FB
102
{ACAD_REACTORS
330
C
102
}
330
C
100
AcDbXrecord
280
     1
 90
        1
330
184
  0
DICTIONARY
  5
2EF
102
{ACAD_REACTORS
330
C
102
}
330
C
100
AcDbDictionary
281
     1
  3
CANNOSCALE
350
2F5
  3
CMLEADERSTYLE
350
2F1
  3
CTABLESTYLE
350
2F0
  3
CVIEWDETAILSTYLE
350
2F2
  3
CVIEWSECTIONSTYLE
350
2F3
  3
LAYEREVAL
350
2F7
  3
LAYERNOTIFY
350
2F8
  3
LIGHTINGUNITS
350
2F6
  3
MSLTSCALE
350
2F4
  0
DICTIONARY
  5
1BE
102
{ACAD_REACTORS
330
1BD
102
}
330
1BD
100
AcDbDictionary
281
     1
  0
XRECORD
  5
2E0
102
{ACAD_REACTORS
330
2DF
102
}
330
2DF
100
AcDbXrecord
280
     1
290
     1
  0
XRECORD
  5
2E2
102
{ACAD_REACTORS
330
2E1
102
}
330
2E1
100
AcDbXrecord
280
     1
290
     1
  0
XRECORD
  5
2E4
102
{ACAD_REACTORS
330
2E3
102
}
330
2E3
100
AcDbXrecord
280
     1
290
     1
  0
DICTIONARY
  5
238
102
{ACAD_REACTORS
330
237
102
}
330
237
100
AcDbDictionary
281
     1
  3
ACDB_ANNOTATIONSCALES
350
239
  0
DICTIONARY
  5
22A
102
{ACAD_REACTORS
330
229
102
}
330
229
100
AcDbDictionary
281
     1
  3
ACDB_ANNOTATIONSCALES
350
22B
  0
DICTIONARY
  5
21C
102
{ACAD_REACTORS
330
21B
102
}
330
21B
100
AcDbDictionary
281
     1
  3
ACDB_ANNOTATIONSCALES
350
21D
  0
DICTIONARY
  5
20E
102
{ACAD_REACTORS
330
20D
102
}
330
20D
100
AcDbDictionary
281
     1
  3
ACDB_ANNOTATIONSCALES
350
20F
  0
DICTIONARY
  5
254
102
{ACAD_REACTORS
330
253
102
}
330
253
100
AcDbDictionary
281
     1
  3
ACDB_ANNOTATIONSCALES
350
255
  0
DICTIONARY
  5
28D
102
{ACAD_REACTORS
330
28C
102
}
330
28C
100
AcDbDictionary
281
     1
  3
ACDB_ANNOTATIONSCALES
350
28E
  0
DICTIONARY
  5
27F
102
{ACAD_REACTORS
330
27E
102
}
330
27E
100
AcDbDictionary
281
     1
  3
ACDB_ANNOTATIONSCALES
350
280
  0
DICTIONARY
  5
200
102
{ACAD_REACTORS
330
1FF
102
}
330
1FF
100
AcDbDictionary
281
     1
  3
ACDB_ANNOTATIONSCALES
350
201
  0
DICTIONARY
  5
1F2
102
{ACAD_REACTORS
330
1F1
102
}
330
1F1
100
AcDbDictionary
281
     1
  3
ACDB_ANNOTATIONSCALES
350
1F3
  0
DICTIONARY
  5
1E3
102
{ACAD_REACTORS
330
1E2
102
}
330
1E2
100
AcDbDictionary
281
     1
  3
ACDB_ANNOTATIONSCALES
350
1E4
  0
DICTIONARY
  5
246
102
{ACAD_REACTORS
330
245
102
}
330
245
100
AcDbDictionary
281
     1
  3
ACDB_ANNOTATIONSCALES
350
247
  0
ACDBDETAILVIEWSTYLE
  5
18A
102
{ACAD_REACTORS
330
189
102
}
330
189
100
AcDbModelDocViewStyle
 70
     0
  3
Metric50
290
     0
300
Metric50
 90
        0
100
AcDbDetailViewStyle
 70
     0
 71
     0
 90
        3
 71
     1
340
11
 62
   256
 40
5.0
340
0
 62
   256
 40
5.0
300

 40
0.0
280
     1
 71
     2
340
16
 90
       25
 62
   256
 71
     3
340
11
 62
   256
 40
5.0
 90
        0
 40
15.0
 90
        1
300
%<\AcVar ViewDetailId>% (%<\AcVar ViewScale \f "%sn">%)
 71
     4
340
16
 90
       25
 62
   256
340
16
 90
       25
 62
   256
280
     0
  0
LAYOUT
  5
1E
102
{ACAD_REACTORS
330
1A
102
}
330
1A
100
AcDbPlotSettings
  1

  2
none_device
  4

  6

 40
0.0
 41
0.0
 42
0.0
 43
0.0
 44
0.0
 45
0.0
 46
0.0
 47
0.0
 48
0.0
 49
0.0
140
0.0
141
0.0
142
1.0
143
1.0
 70
   688
 72
     1
 73
     0
 74
     5
  7

 75
    16
147
1.0
 76
     0
 77
     2
 78
   300
148
0.0
149
0.0
100
AcDbLayout
  1
Layout1
 70
     1
 71
     1
 10
0.0
 20
0.0
 11
420.0
 21
297.0
 12
0.0
 22
0.0
 32
0.0
 14
1.000000000000000E+20
 24
1.000000000000000E+20
 34
1.000000000000000E+20
 15
-1.000000000000000E+20
 25
-1.000000000000000E+20
 35
-1.000000000000000E+20
146
0.0
 13
0.0
 23
0.0
 33
0.0
 16
1.0
 26
0.0
 36
0.0
 17
0.0
 27
1.0
 37
0.0
 76
     0
330
1B
  0
LAYOUT
  5
26
102
{ACAD_REACTORS
330
1A
102
}
330
1A
100
AcDbPlotSettings
  1

  2
none_device
  4

  6

 40
0.0
 41
0.0
 42
0.0
 43
0.0
 44
0.0
 45
0.0
 46
0.0
 47
0.0
 48
0.0
 49
0.0
140
0.0
141
0.0
142
1.0
143
1.0
 70
   688
 72
     1
 73
     0
 74
     5
  7

 75
    16
147
1.0
 76
     0
 77
     2
 78
   300
148
0.0
149
0.0
100
AcDbLayout
  1
Layout2
 70
     1
 71
     2
 10
0.0
 20
0.0
 11
0.0
 21
0.0
 12
0.0
 22
0.0
 32
0.0
 14
0.0
 24
0.0
 34
0.0
 15
0.0
 25
0.0
 35
0.0
146
0.0
 13
0.0
 23
0.0
 33
0.0
 16
1.0
 26
0.0
 36
0.0
 17
0.0
 27
1.0
 37
0.0
 76
     0
330
23
  0
LAYOUT
  5
22
102
{ACAD_REACTORS
330
1A
102
}
330
1A
100
AcDbPlotSettings
  1

  2
none_device
  4
Letter_(8.50_x_11.00_Inches)
  6

 40
6.349999999999999
 41
6.349999999999999
 42
6.350005079999999
 43
6.350005079999999
 44
215.9
 45
279.4
 46
0.0
 47
0.0
 48
0.0
 49
0.0
140
0.0
141
0.0
142
1.0
143
1.0
 70
  1712
 72
     1
 73
     0
 74
     0
  7

 75
     0
147
1.0
 76
     0
 77
     2
 78
   300
148
0.0
149
0.0
100
AcDbLayout
  1
Model
 70
     1
 71
     0
 10
0.0
 20
0.0
 11
420.0
 21
297.0
 12
0.0
 22
0.0
 32
0.0
 14
0.0
 24
0.0
 34
0.0
 15
420.0
 25
297.0
 35
0.0
146
0.0
 13
0.0
 23
0.0
 33
0.0
 16
1.0
 26
0.0
 36
0.0
 17
0.0
 27
1.0
 37
0.0
 76
     0
330
1F
331
29
  0
MATERIAL
  5
159
102
{ACAD_XDICTIONARY
360
15A
102
}
102
{ACAD_REACTORS
330
150
102
}
330
150
100
AcDbMaterial
  1
ByBlock
 72
     0
 43
0.0008202099737533
 43
0.0
 43
0.0
 43
0.0
 43
0.0
 43
0.0008202099737533
 43
0.0
 43
0.0
 43
0.0
 43
0.0
 43
1.0
 43
0.0
 43
0.0
 43
0.0
 43
0.0
 43
1.0
 77
     0
 47
0.0008202099737533
 47
0.0
 47
0.0
 47
0.0
 47
0.0
 47
0.0008202099737533
 47
0.0
 47
0.0
 47
0.0
 47
0.0
 47
1.0
 47
0.0
 47
0.0
 47
0.0
 47
0.0
 47
1.0
171
     0
 49
0.0008202099737533
 49
0.0
 49
0.0
 49
0.0
 49
0.0
 49
0.0008202099737533
 49
0.0
 49
0.0
 49
0.0
 49
0.0
 49
1.0
 49
0.0
 49
0.0
 49
0.0
 49
0.0
 49
1.0
175
     0
142
0.0008202099737533
142
0.0
142
0.0
142
0.0
142
0.0
142
0.0008202099737533
142
0.0
142
0.0
142
0.0
142
0.0
142
1.0
142
0.0
142
0.0
142
0.0
142
0.0
142
1.0
179
     0
144
0.0008202099737533
144
0.0
144
0.0
144
0.0
144
0.0
144
0.0008202099737533
144
0.0
144
0.0
144
0.0
144
0.0
144
1.0
144
0.0
144
0.0
144
0.0
144
0.0
144
1.0
147
0.0008202099737533
147
0.0
147
0.0
147
0.0
147
0.0
147
0.0008202099737533
147
0.0
147
0.0
147
0.0
147
0.0
147
1.0
147
0.0
147
0.0
147
0.0
147
0.0
147
1.0
  0
MATERIAL
  5
151
102
{ACAD_XDICTIONARY
360
152
102
}
102
{ACAD_REACTORS
330
150
102
}
330
150
100
AcDbMaterial
  1
ByLayer
 72
     0
 43
0.0008202099737533
 43
0.0
 43
0.0
 43
0.0
 43
0.0
 43
0.0008202099737533
 43
0.0
 43
0.0
 43
0.0
 43
0.0
 43
1.0
 43
0.0
 43
0.0
 43
0.0
 43
0.0
 43
1.0
 77
     0
 47
0.0008202099737533
 47
0.0
 47
0.0
 47
0.0
 47
0.0
 47
0.0008202099737533
 47
0.0
 47
0.0
 47
0.0
 47
0.0
 47
1.0
 47
0.0
 47
0.0
 47
0.0
 47
0.0
 47
1.0
171
     0
 49
0.0008202099737533
 49
0.0
 49
0.0
 49
0.0
 49
0.0
 49
0.0008202099737533
 49
0.0
 49
0.0
 49
0.0
 49
0.0
 49
1.0
 49
0.0
 49
0.0
 49
0.0
 49
0.0
 49
1.0
175
     0
142
0.0008202099737533
142
0.0
142
0.0
142
0.0
142
0.0
142
0.0008202099737533
142
0.0
142
0.0
142
0.0
142
0.0
142
1.0
142
0.0
142
0.0
142
0.0
142
0.0
142
1.0
179
     0
144
0.0008202099737533
144
0.0
144
0.0
144
0.0
144
0.0
144
0.0008202099737533
144
0.0
144
0.0
144
0.0
144
0.0
144
1.0
144
0.0
144
0.0
144
0.0
144
0.0
144
1.0
147
0.0008202099737533
147
0.0
147
0.0
147
0.0
147
0.0
147
0.0008202099737533
147
0.0
147
0.0
147
0.0
147
0.0
147
1.0
147
0.0
147
0.0
147
0.0
147
0.0
147
1.0
  0
MATERIAL
  5
161
102
{ACAD_XDICTIONARY
360
162
102
}
102
{ACAD_REACTORS
330
150
102
}
330
150
100
AcDbMaterial
  1
Global
 72
     0
 43
0.0008202099737533
 43
0.0
 43
0.0
 43
0.0
 43
0.0
 43
0.0008202099737533
 43
0.0
 43
0.0
 43
0.0
 43
0.0
 43
1.0
 43
0.0
 43
0.0
 43
0.0
 43
0.0
 43
1.0
 77
     0
 47
0.0008202099737533
 47
0.0
 47
0.0
 47
0.0
 47
0.0
 47
0.0008202099737533
 47
0.0
 47
0.0
 47
0.0
 47
0.0
 47
1.0
 47
0.0
 47
0.0
 47
0.0
 47
0.0
 47
1.0
171
     0
 49
0.0008202099737533
 49
0.0
 49
0.0
 49
0.0
 49
0.0
 49
0.0008202099737533
 49
0.0
 49
0.0
 49
0.0
 49
0.0
 49
1.0
 49
0.0
 49
0.0
 49
0.0
 49
0.0
 49
1.0
175
     0
142
0.0008202099737533
142
0.0
142
0.0
142
0.0
142
0.0
142
0.0008202099737533
142
0.0
142
0.0
142
0.0
142
0.0
142
1.0
142
0.0
142
0.0
142
0.0
142
0.0
142
1.0
179
     0
144
0.0008202099737533
144
0.0
144
0.0
144
0.0
144
0.0
144
0.0008202099737533
144
0.0
144
0.0
144
0.0
144
0.0
144
1.0
144
0.0
144
0.0
144
0.0
144
0.0
144
1.0
147
0.0008202099737533
147
0.0
147
0.0
147
0.0
147
0.0
147
0.0008202099737533
147
0.0
147
0.0
147
0.0
147
0.0
147
1.0
147
0.0
147
0.0
147
0.0
147
0.0
147
1.0
  0
MLEADERSTYLE
  5
186
102
{ACAD_REACTORS
330
185
102
}
330
185
100
AcDbMLeaderStyle
179
     2
170
     2
171
     1
172
     0
 90
        2
 40
0.0
 41
0.0
173
     1
 91
-1056964608
340
14
 92
       -2
290
     1
 42
2.0
291
     1
 43
0.36
  3
Standard
 44
4.0
300

342
11
174
     1
178
     6
175
     1
176
     0
 93
-1056964608
 45
4.0
292
     0
297
     0
 46
4.0
 94
-1056964608
 47
1.0
 49
1.0
140
1.0
293
     1
141
0.0
294
     1
177
     0
142
1.0
295
     0
296
     0
143
0.125
271
     0
272
     9
273
     9
298
     0
  0
MLINESTYLE
  5
18
102
{ACAD_REACTORS
330
17
102
}
330
17
100
AcDbMlineStyle
  2
STANDARD
 70
     0
  3

 62
   256
 51
90.0
 52
90.0
 71
     2
 49
0.5
 62
   256
  6
BYLAYER
 49
-0.5
 62
   256
  6
BYLAYER
  0
ACDBPLACEHOLDER
  5
F
102
{ACAD_REACTORS
330
E
102
}
330
E
  0
SCALE
  5
48
102
{ACAD_REACTORS
330
47
102
}
330
47
100
AcDbScale
 70
     0
300
1:1
140
1.0
141
1.0
290
     1
  0
SCALE
  5
49
102
{ACAD_REACTORS
330
47
102
}
330
47
100
AcDbScale
 70
     0
300
1:2
140
1.0
141
2.0
290
     0
  0
SCALE
  5
4A
102
{ACAD_REACTORS
330
47
102
}
330
47
100
AcDbScale
 70
     0
300
1:4
140
1.0
141
4.0
290
     0
  0
SCALE
  5
4B
102
{ACAD_REACTORS
330
47
102
}
330
47
100
AcDbScale
 70
     0
300
1:5
140
1.0
141
5.0
290
     0
  0
SCALE
  5
4C
102
{ACAD_REACTORS
330
47
102
}
330
47
100
AcDbScale
 70
     0
300
1:8
140
1.0
141
8.0
290
     0
  0
SCALE
  5
4D
102
{ACAD_REACTORS
330
47
102
}
330
47
100
AcDbScale
 70
     0
300
1:10
140
1.0
141
10.0
290
     0
  0
SCALE
  5
4E
102
{ACAD_REACTORS
330
47
102
}
330
47
100
AcDbScale
 70
     0
300
1:16
140
1.0
141
16.0
290
     0
  0
SCALE
  5
4F
102
{ACAD_REACTORS
330
47
102
}
330
47
100
AcDbScale
 70
     0
300
1:20
140
1.0
141
20.0
290
     0
  0
SCALE
  5
50
102
{ACAD_REACTORS
330
47
102
}
330
47
100
AcDbScale
 70
     0
300
1:30
140
1.0
141
30.0
290
     0
  0
SCALE
  5
51
102
{ACAD_REACTORS
330
47
102
}
330
47
100
AcDbScale
 70
     0
300
1:40
140
1.0
141
40.0
290
     0
  0
SCALE
  5
52
102
{ACAD_REACTORS
330
47
102
}
330
47
100
AcDbScale
 70
     0
300
1:50
140
1.0
141
50.0
290
     0
  0
SCALE
  5
53
102
{ACAD_REACTORS
330
47
102
}
330
47
100
AcDbScale
 70
     0
300
1:100
140
1.0
141
100.0
290
     0
  0
SCALE
  5
54
102
{ACAD_REACTORS
330
47
102
}
330
47
100
AcDbScale
 70
     0
300
2:1
140
2.0
141
1.0
290
     0
  0
SCALE
  5
55
102
{ACAD_REACTORS
330
47
102
}
330
47
100
AcDbScale
 70
     0
300
4:1
140
4.0
141
1.0
290
     0
  0
SCALE
  5
56
102
{ACAD_REACTORS
330
47
102
}
330
47
100
AcDbScale
 70
     0
300
8:1
140
8.0
141
1.0
290
     0
  0
SCALE
  5
57
102
{ACAD_REACTORS
330
47
102
}
330
47
100
AcDbScale
 70
     0
300
10:1
140
10.0
141
1.0
290
     0
  0
SCALE
  5
58
102
{ACAD_REACTORS
330
47
102
}
330
47
100
AcDbScale
 70
     0
300
100:1
140
100.0
141
1.0
290
     0
  0
SCALE
  5
59
102
{ACAD_REACTORS
330
47
102
}
330
47
100
AcDbScale
 70
     0
300
1/128" = 1'-0"
140
0.0078125
141
12.0
290
     0
  0
SCALE
  5
5A
102
{ACAD_REACTORS
330
47
102
}
330
47
100
AcDbScale
 70
     0
300
1/64" = 1'-0"
140
0.015625
141
12.0
290
     0
  0
SCALE
  5
5B
102
{ACAD_REACTORS
330
47
102
}
330
47
100
AcDbScale
 70
     0
300
1/32" = 1'-0"
140
0.03125
141
12.0
290
     0
  0
SCALE
  5
5C
102
{ACAD_REACTORS
330
47
102
}
330
47
100
AcDbScale
 70
     0
300
1/16" = 1'-0"
140
0.0625
141
12.0
290
     0
  0
SCALE
  5
5D
102
{ACAD_REACTORS
330
47
102
}
330
47
100
AcDbScale
 70
     0
300
3/32" = 1'-0"
140
0.09375
141
12.0
290
     0
  0
SCALE
  5
5E
102
{ACAD_REACTORS
330
47
102
}
330
47
100
AcDbScale
 70
     0
300
1/8" = 1'-0"
140
0.125
141
12.0
290
     0
  0
SCALE
  5
5F
102
{ACAD_REACTORS
330
47
102
}
330
47
100
AcDbScale
 70
     0
300
3/16" = 1'-0"
140
0.1875
141
12.0
290
     0
  0
SCALE
  5
60
102
{ACAD_REACTORS
330
47
102
}
330
47
100
AcDbScale
 70
     0
300
1/4" = 1'-0"
140
0.25
141
12.0
290
     0
  0
SCALE
  5
61
102
{ACAD_REACTORS
330
47
102
}
330
47
100
AcDbScale
 70
     0
300
3/8" = 1'-0"
140
0.375
141
12.0
290
     0
  0
SCALE
  5
62
102
{ACAD_REACTORS
330
47
102
}
330
47
100
AcDbScale
 70
     0
300
1/2" = 1'-0"
140
0.5
141
12.0
290
     0
  0
SCALE
  5
63
102
{ACAD_REACTORS
330
47
102
}
330
47
100
AcDbScale
 70
     0
300
3/4" = 1'-0"
140
0.75
141
12.0
290
     0
  0
SCALE
  5
64
102
{ACAD_REACTORS
330
47
102
}
330
47
100
AcDbScale
 70
     0
300
1" = 1'-0"
140
1.0
141
12.0
290
     0
  0
SCALE
  5
65
102
{ACAD_REACTORS
330
47
102
}
330
47
100
AcDbScale
 70
     0
300
1-1/2" = 1'-0"
140
1.5
141
12.0
290
     0
  0
SCALE
  5
66
102
{ACAD_REACTORS
330
47
102
}
330
47
100
AcDbScale
 70
     0
300
3" = 1'-0"
140
3.0
141
12.0
290
     0
  0
SCALE
  5
67
102
{ACAD_REACTORS
330
47
102
}
330
47
100
AcDbScale
 70
     0
300
6" = 1'-0"
140
6.0
141
12.0
290
     0
  0
SCALE
  5
68
102
{ACAD_REACTORS
330
47
102
}
330
47
100
AcDbScale
 70
     0
300
1'-0" = 1'-0"
140
12.0
141
12.0
290
     0
  0
ACDBSECTIONVIEWSTYLE
  5
188
102
{ACAD_REACTORS
330
187
102
}
330
187
100
AcDbModelDocViewStyle
 70
     0
  3
Metric50
290
     0
300
Metric50
 90
        0
100
AcDbSectionViewStyle
 70
     0
 71
     0
 90
      102
 71
     1
340
11
 62
   256
 40
5.0
340
0
340
0
 62
   256
 40
5.0
300
I, O, Q, S, X, Z
 40
10.0
 90
        0
 40
2.5
 90
        0
 71
     2
340
16
 90
       25
 62
   256
340
16
 90
       50
 62
   256
 40
5.0
 40
2.5
 40
5.0
 71
     3
340
11
 62
   256
 40
5.0
 90
        0
 40
15.0
 90
        1
300
%<\AcVar ViewSectionStartId>%-%<\AcVar ViewSectionEndId>% (%<\AcVar ViewScale \f "%sn">%)
 71
     4
 62
   256
 62
   257
300
ANSI31
 40
1.0
 90
        0
290
     0
290
     0
 90
        6
 40
0.0
 40
1.570796326794896
 40
0.2617993877991494
 40
1.308996938995747
 40
-0.2617993877991494
 40
1.832595714594046
  0
TABLESTYLE
  5
184
102
{ACAD_XDICTIONARY
360
2F9
102
}
102
{ACAD_REACTORS
330
183
102
}
330
183
100
AcDbTableStyle
280
     0
  3
Standard
 70
     0
 71
     0
 40
1.5
 41
1.5
280
     0
281
     0
  7
Standard
140
4.5
170
     2
 62
     0
 63
     7
283
     0
 90
      512
 91
        0
  1

274
    -2
284
     1
 64
     0
275
    -2
285
     1
 65
     0
276
    -2
286
     1
 66
     0
277
    -2
287
     1
 67
     0
278
    -2
288
     1
 68
     0
279
    -2
289
     1
 69
     0
  7
Standard
140
6.0
170
     5
 62
     0
 63
     7
283
     0
 90
      512
 91
        0
  1

274
    -2
284
     1
 64
     0
275
    -2
285
     1
 65
     0
276
    -2
286
     1
 66
     0
277
    -2
287
     1
 67
     0
278
    -2
288
     1
 68
     0
279
    -2
289
     1
 69
     0
  7
Standard
140
4.5
170
     5
 62
     0
 63
     7
283
     0
 90
      512
 91
        0
  1

274
    -2
284
     1
 64
     0
275
    -2
285
     1
 65
     0
276
    -2
286
     1
 66
     0
277
    -2
287
     1
 67
     0
278
    -2
288
     1
 68
     0
279
    -2
289
     1
 69
     0
  0
VISUALSTYLE
  5
16F
102
{ACAD_REACTORS
330
169
102
}
330
169
100
AcDbVisualStyle
  2
2dWireframe
 70
     4
177
     3
291
     0
 70
    58
 90
        0
176
     1
 90
        2
176
     1
 90
        0
176
     1
 90
        0
176
     1
 40
0.6
176
     1
 40
30.0
176
     1
 62
     7
420
 16777215
176
     1
 90
        1
176
     1
 90
        4
176
     1
 62
     7
176
     1
 62
   257
176
     1
 90
        1
176
     1
 90
        1
176
     1
 40
1.0
176
     1
 90
        0
176
     1
 62
   257
176
     1
 40
1.0
176
     1
 90
        1
176
     1
 90
        6
176
     1
 90
        2
176
     1
 62
     7
176
     1
 90
        5
176
     1
 90
        0
176
     1
 90
        0
176
     1
290
     0
176
     1
 90
        1
176
     1
 40
0.0
176
     1
 90
        0
176
     1
290
     1
176
     1
290
     1
176
     1
290
     0
176
     1
290
     0
176
     1
290
     0
176
     1
290
     0
176
     1
290
     0
176
     1
290
     0
176
     1
290
     0
176
     1
 90
       50
176
     1
 40
0.0
176
     1
 40
1.0
176
     1
 90
        0
176
     1
 62
    18
420
        0
176
     1
 90
       50
176
     1
 90
        3
176
     1
 62
     5
420
      255
176
     1
290
     0
176
     1
 90
       50
176
     1
 90
       50
176
     1
 90
       50
176
     1
290
     0
176
     1
 90
       50
176
     1
 62
   256
176
     0
 40
1.0
176
     0
 90
        2
176
     1
  1
strokes_ogs.tif
176
     1
290
     0
176
     1
 40
1.0
176
     1
 40
1.0
176
     1
  0
VISUALSTYLE
  5
16E
102
{ACAD_REACTORS
330
169
102
}
330
169
100
AcDbVisualStyle
  2
Basic
 70
     7
177
     3
291
     1
 70
    58
 90
        1
176
     1
 90
        0
176
     1
 90
        1
176
     1
 90
        0
176
     1
 40
0.6
176
     1
 40
30.0
176
     1
 62
     7
420
 16777215
176
     1
 90
        0
176
     1
 90
        4
176
     1
 62
     7
176
     1
 62
   257
176
     1
 90
        1
176
     1
 90
        1
176
     1
 40
1.0
176
     1
 90
        8
176
     1
 62
     7
176
     1
 40
1.0
176
     1
 90
        1
176
     1
 90
        6
176
     1
 90
        2
176
     1
 62
     7
176
     1
 90
        5
176
     1
 90
        0
176
     1
 90
        0
176
     1
290
     0
176
     1
 90
        1
176
     1
 40
0.0
176
     1
 90
        0
176
     1
290
     0
176
     1
290
     1
176
     1
290
     1
176
     1
290
     0
176
     1
290
     0
176
     1
290
     0
176
     1
290
     0
176
     1
290
     0
176
     1
290
     0
176
     1
 90
       50
176
     1
 40
0.0
176
     1
 40
1.0
176
     1
 90
        0
176
     1
 62
    18
420
        0
176
     1
 90
       50
176
     1
 90
        3
176
     1
 62
     5
420
      255
176
     1
290
     0
176
     1
 90
       50
176
     1
 90
       50
176
     1
 90
       50
176
     1
290
     0
176
     1
 90
       50
176
     1
 62
   256
176
     0
 40
1.0
176
     0
 90
        2
176
     1
  1
strokes_ogs.tif
176
     1
290
     0
176
     1
 40
1.0
176
     1
 40
1.0
176
     1
  0
VISUALSTYLE
  5
175
102
{ACAD_REACTORS
330
169
102
}
330
169
100
AcDbVisualStyle
  2
Brighten
 70
    12
177
     3
291
     1
 70
    58
 90
        2
176
     1
 90
        2
176
     1
 90
        0
176
     1
 90
        0
176
     1
 40
0.6
176
     1
 40
30.0
176
     1
 62
     7
420
 16777215
176
     1
 90
        1
176
     1
 90
        4
176
     1
 62
     7
176
     1
 62
   257
176
     1
 90
        1
176
     1
 90
        1
176
     1
 40
1.0
176
     1
 90
        8
176
     1
 62
     7
176
     1
 40
1.0
176
     1
 90
        1
176
     1
 90
        6
176
     1
 90
        2
176
     1
 62
     7
176
     1
 90
        5
176
     1
 90
        0
176
     1
 90
        0
176
     1
290
     0
176
     1
 90
        1
176
     1
 40
50.0
176
     1
 90
        0
176
     1
290
     0
176
     1
290
     1
176
     1
290
     1
176
     1
290
     0
176
     1
290
     0
176
     1
290
     0
176
     1
290
     0
176
     1
290
     0
176
     1
290
     0
176
     1
 90
       50
176
     1
 40
0.0
176
     1
 40
1.0
176
     1
 90
        0
176
     1
 62
    18
420
        0
176
     1
 90
       50
176
     1
 90
        3
176
     1
 62
     5
420
      255
176
     1
290
     0
176
     1
 90
       50
176
     1
 90
       50
176
     1
 90
       50
176
     1
290
     0
176
     1
 90
       50
176
     1
 62
   256
176
     0
 40
1.0
176
     0
 90
        2
176
     1
  1
strokes_ogs.tif
176
     1
290
     0
176
     1
 40
1.0
176
     1
 40
1.0
176
     1
  0
VISUALSTYLE
  5
179
102
{ACAD_REACTORS
330
169
102
}
330
169
100
AcDbVisualStyle
  2
ColorChange
 70
    16
177
     3
291
     1
 70
    58
 90
        2
176
     1
 90
        2
176
     1
 90
        3
176
     1
 90
        0
176
     1
 40
0.6
176
     1
 40
30.0
176
     1
 62
     8
420
  8421504
176
     1
 90
        1
176
     1
 90
        4
176
     1
 62
     7
176
     1
 62
   257
176
     1
 90
        1
176
     1
 90
        1
176
     1
 40
1.0
176
     1
 90
        8
176
     1
 62
     8
420
  8421504
176
     1
 40
1.0
176
     1
 90
        1
176
     1
 90
        6
176
     1
 90
        2
176
     1
 62
     7
176
     1
 90
        5
176
     1
 90
        0
176
     1
 90
        0
176
     1
290
     0
176
     1
 90
        1
176
     1
 40
0.0
176
     1
 90
        0
176
     1
290
     0
176
     1
290
     1
176
     1
290
     1
176
     1
290
     0
176
     1
290
     0
176
     1
290
     0
176
     1
290
     0
176
     1
290
     0
176
     1
290
     0
176
     1
 90
       50
176
     1
 40
0.0
176
     1
 40
1.0
176
     1
 90
        0
176
     1
 62
    18
420
        0
176
     1
 90
       50
176
     1
 90
        3
176
     1
 62
     5
420
      255
176
     1
290
     0
176
     1
 90
       50
176
     1
 90
       50
176
     1
 90
       50
176
     1
290
     0
176
     1
 90
       50
176
     1
 62
   256
176
     0
 40
1.0
176
     0
 90
        2
176
     1
  1
strokes_ogs.tif
176
     1
290
     0
176
     1
 40
1.0
176
     1
 40
1.0
176
     1
  0
VISUALSTYLE
  5
172
102
{ACAD_REACTORS
330
169
102
}
330
169
100
AcDbVisualStyle
  2
Conceptual
 70
     9
177
     3
291
     0
 70
    58
 90
        3
176
     1
 90
        2
176
     1
 90
        0
176
     1
 90
        0
176
     1
 40
0.6
176
     1
 40
30.0
176
     1
 62
     7
420
 16777215
176
     1
 90
        2
176
     1
 90
        2
176
     1
 62
     7
176
     1
 62
   257
176
     1
 90
        1
176
     1
 90
        1
176
     1
 40
179.0
176
     1
 90
        8
176
     1
 62
     7
176
     1
 40
1.0
176
     1
 90
        1
176
     1
 90
        6
176
     1
 90
        2
176
     1
 62
     7
176
     1
 90
        3
176
     1
 90
        0
176
     1
 90
        0
176
     1
290
     0
176
     1
 90
        1
176
     1
 40
0.0
176
     1
 90
        0
176
     1
290
     0
176
     1
290
     1
176
     1
290
     1
176
     1
290
     0
176
     1
290
     0
176
     1
290
     0
176
     1
290
     0
176
     1
290
     0
176
     1
290
     0
176
     1
 90
       50
176
     1
 40
0.0
176
     1
 40
1.0
176
     1
 90
        0
176
     1
 62
    18
420
        0
176
     1
 90
       50
176
     1
 90
        3
176
     1
 62
     5
420
      255
176
     1
290
     0
176
     1
 90
       50
176
     1
 90
       50
176
     1
 90
       50
176
     1
290
     0
176
     1
 90
       50
176
     1
 62
   256
176
     0
 40
1.0
176
     0
 90
        2
176
     1
  1
strokes_ogs.tif
176
     1
290
     0
176
     1
 40
1.0
176
     1
 40
1.0
176
     1
  0
VISUALSTYLE
  5
174
102
{ACAD_REACTORS
330
169
102
}
330
169
100
AcDbVisualStyle
  2
Dim
 70
    11
177
     3
291
     1
 70
    58
 90
        2
176
     1
 90
        2
176
     1
 90
        0
176
     1
 90
        0
176
     1
 40
0.6
176
     1
 40
30.0
176
     1
 62
     7
420
 16777215
176
     1
 90
        1
176
     1
 90
        4
176
     1
 62
     7
176
     1
 62
   257
176
     1
 90
        1
176
     1
 90
        1
176
     1
 40
1.0
176
     1
 90
        8
176
     1
 62
     7
176
     1
 40
1.0
176
     1
 90
        1
176
     1
 90
        6
176
     1
 90
        2
176
     1
 62
     7
176
     1
 90
        5
176
     1
 90
        0
176
     1
 90
        0
176
     1
290
     0
176
     1
 90
        1
176
     1
 40
-50.0
176
     1
 90
        0
176
     1
290
     0
176
     1
290
     1
176
     1
290
     1
176
     1
290
     0
176
     1
290
     0
176
     1
290
     0
176
     1
290
     0
176
     1
290
     0
176
     1
290
     0
176
     1
 90
       50
176
     1
 40
0.0
176
     1
 40
1.0
176
     1
 90
        0
176
     1
 62
    18
420
        0
176
     1
 90
       50
176
     1
 90
        3
176
     1
 62
     5
420
      255
176
     1
290
     0
176
     1
 90
       50
176
     1
 90
       50
176
     1
 90
       50
176
     1
290
     0
176
     1
 90
       50
176
     1
 62
   256
176
     0
 40
1.0
176
     0
 90
        2
176
     1
  1
strokes_ogs.tif
176
     1
290
     0
176
     1
 40
1.0
176
     1
 40
1.0
176
     1
  0
VISUALSTYLE
  5
181
102
{ACAD_REACTORS
330
169
102
}
330
169
100
AcDbVisualStyle
  2
EdgeColorOff
 70
    22
177
     3
291
     1
 70
    58
 90
        2
176
     0
 90
        2
176
     0
 90
        0
176
     0
 90
        0
176
     0
 40
0.6
176
     0
 40
30.0
176
     0
 62
     7
420
 16777215
176
     0
 90
        1
176
     0
 90
        4
176
     0
 62
     7
176
     0
 62
   257
176
     0
 90
        1
176
     0
 90
        1
176
     0
 40
1.0
176
     0
 90
        8
176
     2
 62
     7
176
     0
 40
1.0
176
     0
 90
        1
176
     0
 90
        6
176
     0
 90
        2
176
     0
 62
     7
176
     0
 90
        5
176
     0
 90
        0
176
     0
 90
        0
176
     0
290
     0
176
     0
 90
        1
176
     0
 40
0.0
176
     0
 90
        0
176
     0
290
     0
176
     1
290
     1
176
     1
290
     1
176
     1
290
     0
176
     1
290
     0
176
     1
290
     0
176
     1
290
     0
176
     1
290
     0
176
     1
290
     0
176
     1
 90
       50
176
     0
 40
0.0
176
     0
 40
1.0
176
     0
 90
        0
176
     0
 62
    18
420
        0
176
     0
 90
       50
176
     0
 90
        3
176
     0
 62
     5
420
      255
176
     0
290
     0
176
     1
 90
       50
176
     0
 90
       50
176
     0
 90
       50
176
     0
290
     0
176
     1
 90
       50
176
     0
 62
   256
176
     0
 40
1.0
176
     0
 90
        2
176
     0
  1
strokes_ogs.tif
176
     0
290
     0
176
     1
 40
1.0
176
     0
 40
1.0
176
     0
  0
VISUALSTYLE
  5
178
102
{ACAD_REACTORS
330
169
102
}
330
169
100
AcDbVisualStyle
  2
Facepattern
 70
    15
177
     3
291
     1
 70
    58
 90
        2
176
     1
 90
        2
176
     1
 90
        0
176
     1
 90
        0
176
     1
 40
0.6
176
     1
 40
30.0
176
     1
 62
     7
420
 16777215
176
     1
 90
        1
176
     1
 90
        4
176
     1
 62
     7
176
     1
 62
   257
176
     1
 90
        1
176
     1
 90
        1
176
     1
 40
1.0
176
     1
 90
        8
176
     1
 62
     7
176
     1
 40
1.0
176
     1
 90
        1
176
     1
 90
        6
176
     1
 90
        2
176
     1
 62
     7
176
     1
 90
        5
176
     1
 90
        0
176
     1
 90
        0
176
     1
290
     0
176
     1
 90
        1
176
     1
 40
0.0
176
     1
 90
        0
176
     1
290
     0
176
     1
290
     1
176
     1
290
     1
176
     1
290
     0
176
     1
290
     0
176
     1
290
     0
176
     1
290
     0
176
     1
290
     0
176
     1
290
     0
176
     1
 90
       50
176
     1
 40
0.0
176
     1
 40
1.0
176
     1
 90
        0
176
     1
 62
    18
420
        0
176
     1
 90
       50
176
     1
 90
        3
176
     1
 62
     5
420
      255
176
     1
290
     0
176
     1
 90
       50
176
     1
 90
       50
176
     1
 90
       50
176
     1
290
     0
176
     1
 90
       50
176
     1
 62
   256
176
     0
 40
1.0
176
     0
 90
        2
176
     1
  1
strokes_ogs.tif
176
     1
290
     0
176
     1
 40
1.0
176
     1
 40
1.0
176
     1
  0
VISUALSTYLE
  5
16A
102
{ACAD_REACTORS
330
169
102
}
330
169
100
AcDbVisualStyle
  2
Flat
 70
     0
177
     3
291
     1
 70
    58
 90
        2
176
     1
 90
        1
176
     1
 90
        1
176
     1
 90
        2
176
     1
 40
0.6
176
     1
 40
30.0
176
     1
 62
     7
420
 16777215
176
     1
 90
        0
176
     1
 90
        0
176
     1
 62
     7
176
     1
 62
   257
176
     1
 90
        1
176
     1
 90
        1
176
     1
 40
1.0
176
     1
 90
        8
176
     1
 62
     7
176
     1
 40
1.0
176
     1
 90
        1
176
     1
 90
        6
176
     1
 90
        2
176
     1
 62
     7
176
     1
 90
        5
176
     1
 90
        0
176
     1
 90
        0
176
     1
290
     0
176
     1
 90
       13
176
     1
 40
0.0
176
     1
 90
        0
176
     1
290
     0
176
     1
290
     1
176
     1
290
     1
176
     1
290
     0
176
     1
290
     0
176
     1
290
     0
176
     1
290
     0
176
     1
290
     0
176
     1
290
     0
176
     1
 90
       50
176
     1
 40
0.0
176
     1
 40
1.0
176
     1
 90
        0
176
     1
 62
    18
420
        0
176
     1
 90
       50
176
     1
 90
        3
176
     1
 62
     5
420
      255
176
     1
290
     0
176
     1
 90
       50
176
     1
 90
       50
176
     1
 90
       50
176
     1
290
     0
176
     1
 90
       50
176
     1
 62
   256
176
     0
 40
1.0
176
     0
 90
        2
176
     1
  1
strokes_ogs.tif
176
     1
290
     0
176
     1
 40
1.0
176
     1
 40
1.0
176
     1
  0
VISUALSTYLE
  5
16B
102
{ACAD_REACTORS
330
169
102
}
330
169
100
AcDbVisualStyle
  2
FlatWithEdges
 70
     1
177
     3
291
     1
 70
    58
 90
        2
176
     1
 90
        1
176
     1
 90
        1
176
     1
 90
        2
176
     1
 40
0.6
176
     1
 40
30.0
176
     1
 62
     7
420
 16777215
176
     1
 90
        1
176
     1
 90
        0
176
     1
 62
     7
176
     1
 62
   257
176
     1
 90
        1
176
     1
 90
        1
176
     1
 40
1.0
176
     1
 90
        0
176
     1
 62
   257
176
     1
 40
1.0
176
     1
 90
        1
176
     1
 90
        6
176
     1
 90
        2
176
     1
 62
     7
176
     1
 90
        5
176
     1
 90
        0
176
     1
 90
        0
176
     1
290
     0
176
     1
 90
       13
176
     1
 40
0.0
176
     1
 90
        0
176
     1
290
     0
176
     1
290
     1
176
     1
290
     1
176
     1
290
     0
176
     1
290
     0
176
     1
290
     0
176
     1
290
     0
176
     1
290
     0
176
     1
290
     0
176
     1
 90
       50
176
     1
 40
0.0
176
     1
 40
1.0
176
     1
 90
        0
176
     1
 62
    18
420
        0
176
     1
 90
       50
176
     1
 90
        3
176
     1
 62
     5
420
      255
176
     1
290
     0
176
     1
 90
       50
176
     1
 90
       50
176
     1
 90
       50
176
     1
290
     0
176
     1
 90
       50
176
     1
 62
   256
176
     0
 40
1.0
176
     0
 90
        2
176
     1
  1
strokes_ogs.tif
176
     1
290
     0
176
     1
 40
1.0
176
     1
 40
1.0
176
     1
  0
VISUALSTYLE
  5
16C
102
{ACAD_REACTORS
330
169
102
}
330
169
100
AcDbVisualStyle
  2
Gouraud
 70
     2
177
     3
291
     1
 70
    58
 90
        2
176
     1
 90
        2
176
     1
 90
        1
176
     1
 90
        2
176
     1
 40
0.6
176
     1
 40
30.0
176
     1
 62
     7
420
 16777215
176
     1
 90
        0
176
     1
 90
        0
176
     1
 62
     7
176
     1
 62
   257
176
     1
 90
        1
176
     1
 90
        1
176
     1
 40
1.0
176
     1
 90
        0
176
     1
 62
     7
176
     1
 40
1.0
176
     1
 90
        1
176
     1
 90
        6
176
     1
 90
        2
176
     1
 62
     7
176
     1
 90
        5
176
     1
 90
        0
176
     1
 90
        0
176
     1
290
     0
176
     1
 90
       13
176
     1
 40
0.0
176
     1
 90
        0
176
     1
290
     0
176
     1
290
     1
176
     1
290
     1
176
     1
290
     0
176
     1
290
     0
176
     1
290
     0
176
     1
290
     0
176
     1
290
     0
176
     1
290
     0
176
     1
 90
       50
176
     1
 40
0.0
176
     1
 40
1.0
176
     1
 90
        0
176
     1
 62
    18
420
        0
176
     1
 90
       50
176
     1
 90
        3
176
     1
 62
     5
420
      255
176
     1
290
     0
176
     1
 90
       50
176
     1
 90
       50
176
     1
 90
       50
176
     1
290
     0
176
     1
 90
       50
176
     1
 62
   256
176
     0
 40
1.0
176
     0
 90
        2
176
     1
  1
strokes_ogs.tif
176
     1
290
     0
176
     1
 40
1.0
176
     1
 40
1.0
176
     1
  0
VISUALSTYLE
  5
16D
102
{ACAD_REACTORS
330
169
102
}
330
169
100
AcDbVisualStyle
  2
GouraudWithEdges
 70
     3
177
     3
291
     1
 70
    58
 90
        2
176
     1
 90
        2
176
     1
 90
        1
176
     1
 90
        2
176
     1
 40
0.6
176
     1
 40
30.0
176
     1
 62
     7
420
 16777215
176
     1
 90
        1
176
     1
 90
        0
176
     1
 62
     7
176
     1
 62
   257
176
     1
 90
        1
176
     1
 90
        1
176
     1
 40
1.0
176
     1
 90
        0
176
     1
 62
   257
176
     1
 40
1.0
176
     1
 90
        1
176
     1
 90
        6
176
     1
 90
        2
176
     1
 62
     7
176
     1
 90
        5
176
     1
 90
        0
176
     1
 90
        0
176
     1
290
     0
176
     1
 90
       13
176
     1
 40
0.0
176
     1
 90
        0
176
     1
290
     0
176
     1
290
     1
176
     1
290
     1
176
     1
290
     0
176
     1
290
     0
176
     1
290
     0
176
     1
290
     0
176
     1
290
     0
176
     1
290
     0
176
     1
 90
       50
176
     1
 40
0.0
176
     1
 40
1.0
176
     1
 90
        0
176
     1
 62
    18
420
        0
176
     1
 90
       50
176
     1
 90
        3
176
     1
 62
     5
420
      255
176
     1
290
     0
176
     1
 90
       50
176
     1
 90
       50
176
     1
 90
       50
176
     1
290
     0
176
     1
 90
       50
176
     1
 62
   256
176
     0
 40
1.0
176
     0
 90
        2
176
     1
  1
strokes_ogs.tif
176
     1
290
     0
176
     1
 40
1.0
176
     1
 40
1.0
176
     1
  0
VISUALSTYLE
  5
171
102
{ACAD_REACTORS
330
169
102
}
330
169
100
AcDbVisualStyle
  2
Hidden
 70
     6
177
     3
291
     0
 70
    58
 90
        1
176
     1
 90
        2
176
     1
 90
        2
176
     1
 90
        0
176
     1
 40
0.6
176
     1
 40
30.0
176
     1
 62
     7
420
 16777215
176
     1
 90
        2
176
     1
 90
        2
176
     1
 62
     7
176
     1
 62
   257
176
     1
 90
        2
176
     1
 90
        1
176
     1
 40
40.0
176
     1
 90
        0
176
     1
 62
   257
176
     1
 40
1.0
176
     1
 90
        1
176
     1
 90
        6
176
     1
 90
        2
176
     1
 62
     7
176
     1
 90
        3
176
     1
 90
        0
176
     1
 90
        0
176
     1
290
     0
176
     1
 90
        1
176
     1
 40
0.0
176
     1
 90
        0
176
     1
290
     0
176
     1
290
     1
176
     1
290
     1
176
     1
290
     0
176
     1
290
     0
176
     1
290
     0
176
     1
290
     0
176
     1
290
     0
176
     1
290
     0
176
     1
 90
       50
176
     1
 40
0.0
176
     1
 40
1.0
176
     1
 90
        0
176
     1
 62
    18
420
        0
176
     1
 90
       50
176
     1
 90
        3
176
     1
 62
     5
420
      255
176
     1
290
     0
176
     1
 90
       50
176
     1
 90
       50
176
     1
 90
       50
176
     1
290
     0
176
     1
 90
       50
176
     1
 62
   256
176
     0
 40
1.0
176
     0
 90
        2
176
     1
  1
strokes_ogs.tif
176
     1
290
     0
176
     1
 40
1.0
176
     1
 40
1.0
176
     1
  0
VISUALSTYLE
  5
17F
102
{ACAD_REACTORS
330
169
102
}
330
169
100
AcDbVisualStyle
  2
JitterOff
 70
    20
177
     3
291
     1
 70
    58
 90
        2
176
     0
 90
        2
176
     0
 90
        0
176
     0
 90
        0
176
     0
 40
0.6
176
     0
 40
30.0
176
     0
 62
     7
420
 16777215
176
     0
 90
        1
176
     0
 90
        4
176
     0
 62
     7
176
     0
 62
   257
176
     0
 90
        1
176
     0
 90
        1
176
     0
 40
1.0
176
     0
 90
       10
176
     2
 62
     7
176
     0
 40
1.0
176
     0
 90
        1
176
     0
 90
        6
176
     0
 90
        2
176
     0
 62
     7
176
     0
 90
        5
176
     0
 90
        0
176
     0
 90
        0
176
     0
290
     0
176
     0
 90
        1
176
     0
 40
0.0
176
     0
 90
        0
176
     0
290
     0
176
     1
290
     1
176
     1
290
     1
176
     1
290
     0
176
     1
290
     0
176
     1
290
     0
176
     1
290
     0
176
     1
290
     0
176
     1
290
     0
176
     1
 90
       50
176
     0
 40
0.0
176
     0
 40
1.0
176
     0
 90
        0
176
     0
 62
    18
420
        0
176
     0
 90
       50
176
     0
 90
        3
176
     0
 62
     5
420
      255
176
     0
290
     0
176
     1
 90
       50
176
     0
 90
       50
176
     0
 90
       50
176
     0
290
     0
176
     1
 90
       50
176
     0
 62
   256
176
     0
 40
1.0
176
     0
 90
        2
176
     0
  1
strokes_ogs.tif
176
     0
290
     0
176
     1
 40
1.0
176
     0
 40
1.0
176
     0
  0
VISUALSTYLE
  5
177
102
{ACAD_REACTORS
330
169
102
}
330
169
100
AcDbVisualStyle
  2
Linepattern
 70
    14
177
     3
291
     1
 70
    58
 90
        2
176
     1
 90
        2
176
     1
 90
        0
176
     1
 90
        0
176
     1
 40
0.6
176
     1
 40
30.0
176
     1
 62
     7
420
 16777215
176
     1
 90
        1
176
     1
 90
        4
176
     1
 62
     7
176
     1
 62
   257
176
     1
 90
        7
176
     1
 90
        7
176
     1
 40
1.0
176
     1
 90
        8
176
     1
 62
     7
176
     1
 40
1.0
176
     1
 90
        1
176
     1
 90
        6
176
     1
 90
        2
176
     1
 62
     7
176
     1
 90
        5
176
     1
 90
        0
176
     1
 90
        0
176
     1
290
     0
176
     1
 90
        1
176
     1
 40
0.0
176
     1
 90
        0
176
     1
290
     0
176
     1
290
     1
176
     1
290
     1
176
     1
290
     0
176
     1
290
     0
176
     1
290
     0
176
     1
290
     0
176
     1
290
     0
176
     1
290
     0
176
     1
 90
       50
176
     1
 40
0.0
176
     1
 40
1.0
176
     1
 90
        0
176
     1
 62
    18
420
        0
176
     1
 90
       50
176
     1
 90
        3
176
     1
 62
     5
420
      255
176
     1
290
     0
176
     1
 90
       50
176
     1
 90
       50
176
     1
 90
       50
176
     1
290
     0
176
     1
 90
       50
176
     1
 62
   256
176
     0
 40
1.0
176
     0
 90
        2
176
     1
  1
strokes_ogs.tif
176
     1
290
     0
176
     1
 40
1.0
176
     1
 40
1.0
176
     1
  0
VISUALSTYLE
  5
180
102
{ACAD_REACTORS
330
169
102
}
330
169
100
AcDbVisualStyle
  2
OverhangOff
 70
    21
177
     3
291
     1
 70
    58
 90
        2
176
     0
 90
        2
176
     0
 90
        0
176
     0
 90
        0
176
     0
 40
0.6
176
     0
 40
30.0
176
     0
 62
     7
420
 16777215
176
     0
 90
        1
176
     0
 90
        4
176
     0
 62
     7
176
     0
 62
   257
176
     0
 90
        1
176
     0
 90
        1
176
     0
 40
1.0
176
     0
 90
        9
176
     2
 62
     7
176
     0
 40
1.0
176
     0
 90
        1
176
     0
 90
        6
176
     0
 90
        2
176
     0
 62
     7
176
     0
 90
        5
176
     0
 90
        0
176
     0
 90
        0
176
     0
290
     0
176
     0
 90
        1
176
     0
 40
0.0
176
     0
 90
        0
176
     0
290
     0
176
     1
290
     1
176
     1
290
     1
176
     1
290
     0
176
     1
290
     0
176
     1
290
     0
176
     1
290
     0
176
     1
290
     0
176
     1
290
     0
176
     1
 90
       50
176
     0
 40
0.0
176
     0
 40
1.0
176
     0
 90
        0
176
     0
 62
    18
420
        0
176
     0
 90
       50
176
     0
 90
        3
176
     0
 62
     5
420
      255
176
     0
290
     0
176
     1
 90
       50
176
     0
 90
       50
176
     0
 90
       50
176
     0
290
     0
176
     1
 90
       50
176
     0
 62
   256
176
     0
 40
1.0
176
     0
 90
        2
176
     0
  1
strokes_ogs.tif
176
     0
290
     0
176
     1
 40
1.0
176
     0
 40
1.0
176
     0
  0
VISUALSTYLE
  5
173
102
{ACAD_REACTORS
330
169
102
}
330
169
100
AcDbVisualStyle
  2
Realistic
 70
     8
177
     3
291
     0
 70
    58
 90
        2
176
     1
 90
        3
176
     1
 90
        0
176
     1
 90
        2
176
     1
 40
0.6
176
     1
 40
30.0
176
     1
 62
     7
420
 16777215
176
     1
 90
        0
176
     1
 90
        0
176
     1
 62
     7
176
     1
 62
   257
176
     1
 90
        1
176
     1
 90
        1
176
     1
 40
1.0
176
     1
 90
        8
176
     1
 62
   257
176
     1
 40
1.0
176
     1
 90
        1
176
     1
 90
        6
176
     1
 90
        2
176
     1
 62
     7
176
     1
 90
        3
176
     1
 90
        0
176
     1
 90
        0
176
     1
290
     0
176
     1
 90
       13
176
     1
 40
0.0
176
     1
 90
        0
176
     1
290
     0
176
     1
290
     1
176
     1
290
     1
176
     1
290
     0
176
     1
290
     0
176
     1
290
     0
176
     1
290
     0
176
     1
290
     0
176
     1
290
     0
176
     1
 90
       50
176
     1
 40
0.0
176
     1
 40
1.0
176
     1
 90
        0
176
     1
 62
    18
420
        0
176
     1
 90
       50
176
     1
 90
        3
176
     1
 62
     5
420
      255
176
     1
290
     0
176
     1
 90
       50
176
     1
 90
       50
176
     1
 90
       50
176
     1
290
     0
176
     1
 90
       50
176
     1
 62
   256
176
     0
 40
1.0
176
     0
 90
        2
176
     1
  1
strokes_ogs.tif
176
     1
290
     0
176
     1
 40
1.0
176
     1
 40
1.0
176
     1
  0
VISUALSTYLE
  5
17E
102
{ACAD_REACTORS
330
169
102
}
330
169
100
AcDbVisualStyle
  2
Shaded
 70
    27
177
     3
291
     0
 70
    58
 90
        2
176
     1
 90
        2
176
     1
 90
        1
176
     1
 90
        2
176
     1
 40
0.6
176
     1
 40
30.0
176
     1
 62
     7
420
 16777215
176
     1
 90
        0
176
     1
 90
        4
176
     1
 62
     7
176
     1
 62
   257
176
     1
 90
        1
176
     1
 90
        1
176
     1
 40
1.0
176
     1
 90
        8
176
     1
 62
   257
176
     1
 40
1.0
176
     1
 90
        1
176
     1
 90
        6
176
     1
 90
        2
176
     1
 62
     8
420
  7895160
176
     1
 90
        3
176
     1
 90
        0
176
     1
 90
        0
176
     1
290
     0
176
     1
 90
        5
176
     1
 40
0.0
176
     1
 90
        0
176
     1
290
     0
176
     1
290
     1
176
     1
290
     1
176
     1
290
     0
176
     1
290
     0
176
     1
290
     0
176
     1
290
     0
176
     1
290
     0
176
     1
290
     0
176
     1
 90
       50
176
     1
 40
0.0
176
     1
 40
1.0
176
     1
 90
        0
176
     1
 62
    18
420
        0
176
     1
 90
       50
176
     1
 90
        3
176
     1
 62
     5
420
      255
176
     1
290
     0
176
     1
 90
       50
176
     1
 90
       50
176
     1
 90
       50
176
     1
290
     0
176
     1
 90
       50
176
     1
 62
   256
176
     0
 40
1.0
176
     0
 90
        2
176
     1
  1
strokes_ogs.tif
176
     1
290
     0
176
     1
 40
1.0
176
     1
 40
1.0
176
     1
  0
VISUALSTYLE
  5
17D
102
{ACAD_REACTORS
330
169
102
}
330
169
100
AcDbVisualStyle
  2
Shaded with edges
 70
    26
177
     3
291
     0
 70
    58
 90
        2
176
     1
 90
        2
176
     1
 90
        1
176
     1
 90
        2
176
     1
 40
0.6
176
     1
 40
30.0
176
     1
 62
     7
420
 16777215
176
     1
 90
        1
176
     1
 90
        2
176
     1
 62
     7
176
     1
 62
   257
176
     1
 90
        2
176
     1
 90
        1
176
     1
 40
1.0
176
     1
 90
        8
176
     1
 62
   257
176
     1
 40
1.0
176
     1
 90
        1
176
     1
 90
        6
176
     1
 90
        2
176
     1
 62
     7
176
     1
 90
        3
176
     1
 90
        0
176
     1
 90
        0
176
     1
290
     0
176
     1
 90
        5
176
     1
 40
0.0
176
     1
 90
        0
176
     1
290
     0
176
     1
290
     1
176
     1
290
     1
176
     1
290
     0
176
     1
290
     0
176
     1
290
     0
176
     1
290
     0
176
     1
290
     0
176
     1
290
     0
176
     1
 90
       50
176
     1
 40
0.0
176
     1
 40
1.0
176
     1
 90
        0
176
     1
 62
    18
420
        0
176
     1
 90
       50
176
     1
 90
        3
176
     1
 62
     5
420
      255
176
     1
290
     0
176
     1
 90
       50
176
     1
 90
       50
176
     1
 90
       50
176
     1
290
     0
176
     1
 90
       50
176
     1
 62
   256
176
     0
 40
1.0
176
     0
 90
        2
176
     1
  1
strokes_ogs.tif
176
     1
290
     0
176
     1
 40
1.0
176
     1
 40
1.0
176
     1
  0
VISUALSTYLE
  5
17A
102
{ACAD_REACTORS
330
169
102
}
330
169
100
AcDbVisualStyle
  2
Shades of Gray
 70
    23
177
     3
291
     0
 70
    58
 90
        2
176
     1
 90
        2
176
     1
 90
        3
176
     1
 90
        0
176
     1
 40
0.6
176
     1
 40
30.0
176
     1
 62
     7
420
 16777215
176
     1
 90
        2
176
     1
 90
        2
176
     1
 62
     7
176
     1
 62
     7
176
     1
 90
        1
176
     1
 90
        1
176
     1
 40
40.0
176
     1
 90
        8
176
     1
 62
     7
176
     1
 40
1.0
176
     1
 90
        1
176
     1
 90
        6
176
     1
 90
        2
176
     1
 62
     7
176
     1
 90
        3
176
     1
 90
        0
176
     1
 90
        0
176
     1
290
     0
176
     1
 90
        1
176
     1
 40
0.0
176
     1
 90
        0
176
     1
290
     0
176
     1
290
     1
176
     1
290
     1
176
     1
290
     0
176
     1
290
     0
176
     1
290
     0
176
     1
290
     0
176
     1
290
     0
176
     1
290
     0
176
     1
 90
       50
176
     1
 40
0.0
176
     1
 40
1.0
176
     1
 90
        0
176
     1
 62
    18
420
        0
176
     1
 90
       50
176
     1
 90
        3
176
     1
 62
     5
420
      255
176
     1
290
     0
176
     1
 90
       50
176
     1
 90
       50
176
     1
 90
       50
176
     1
290
     0
176
     1
 90
       50
176
     1
 62
   256
176
     0
 40
1.0
176
     0
 90
        2
176
     1
  1
strokes_ogs.tif
176
     1
290
     0
176
     1
 40
1.0
176
     1
 40
1.0
176
     1
  0
VISUALSTYLE
  5
17B
102
{ACAD_REACTORS
330
169
102
}
330
169
100
AcDbVisualStyle
  2
Sketchy
 70
    24
177
     3
291
     0
 70
    58
 90
        1
176
     1
 90
        2
176
     1
 90
        2
176
     1
 90
        0
176
     1
 40
0.6
176
     1
 40
30.0
176
     1
 62
     7
420
 16777215
176
     1
 90
        2
176
     1
 90
        2
176
     1
 62
     7
176
     1
 62
     7
176
     1
 90
        1
176
     1
 90
        1
176
     1
 40
40.0
176
     1
 90
       11
176
     1
 62
     7
176
     1
 40
1.0
176
     1
 90
        1
176
     1
 90
        6
176
     1
 90
        2
176
     1
 62
     7
176
     1
 90
        6
176
     1
 90
        0
176
     1
 90
        0
176
     1
290
     0
176
     1
 90
        1
176
     1
 40
0.0
176
     1
 90
        0
176
     1
290
     0
176
     1
290
     1
176
     1
290
     1
176
     1
290
     0
176
     1
290
     0
176
     1
290
     0
176
     1
290
     0
176
     1
290
     0
176
     1
290
     0
176
     1
 90
       50
176
     1
 40
0.0
176
     1
 40
1.0
176
     1
 90
        0
176
     1
 62
    18
420
        0
176
     1
 90
       50
176
     1
 90
        3
176
     1
 62
     5
420
      255
176
     1
290
     0
176
     1
 90
       50
176
     1
 90
       50
176
     1
 90
       50
176
     1
290
     0
176
     1
 90
       50
176
     1
 62
   256
176
     0
 40
1.0
176
     0
 90
        2
176
     1
  1
strokes_ogs.tif
176
     1
290
     0
176
     1
 40
1.0
176
     1
 40
1.0
176
     1
  0
VISUALSTYLE
  5
176
102
{ACAD_REACTORS
330
169
102
}
330
169
100
AcDbVisualStyle
  2
Thicken
 70
    13
177
     3
291
     1
 70
    58
 90
        2
176
     1
 90
        2
176
     1
 90
        0
176
     1
 90
        0
176
     1
 40
0.6
176
     1
 40
30.0
176
     1
 62
     7
420
 16777215
176
     1
 90
        1
176
     1
 90
        4
176
     1
 62
     7
176
     1
 62
   257
176
     1
 90
        1
176
     1
 90
        1
176
     1
 40
1.0
176
     1
 90
       12
176
     1
 62
     7
176
     1
 40
1.0
176
     1
 90
        1
176
     1
 90
        6
176
     1
 90
        2
176
     1
 62
     7
176
     1
 90
        5
176
     1
 90
        0
176
     1
 90
        0
176
     1
290
     0
176
     1
 90
        1
176
     1
 40
0.0
176
     1
 90
        0
176
     1
290
     0
176
     1
290
     1
176
     1
290
     1
176
     1
290
     0
176
     1
290
     0
176
     1
290
     0
176
     1
290
     0
176
     1
290
     0
176
     1
290
     0
176
     1
 90
       50
176
     1
 40
0.0
176
     1
 40
1.0
176
     1
 90
        0
176
     1
 62
    18
420
        0
176
     1
 90
       50
176
     1
 90
        3
176
     1
 62
     5
420
      255
176
     1
290
     0
176
     1
 90
       50
176
     1
 90
       50
176
     1
 90
       50
176
     1
290
     0
176
     1
 90
       50
176
     1
 62
   256
176
     0
 40
1.0
176
     0
 90
        2
176
     1
  1
strokes_ogs.tif
176
     1
290
     0
176
     1
 40
1.0
176
     1
 40
1.0
176
     1
  0
VISUALSTYLE
  5
170
102
{ACAD_REACTORS
330
169
102
}
330
169
100
AcDbVisualStyle
  2
Wireframe
 70
     5
177
     3
291
     0
 70
    58
 90
        0
176
     1
 90
        2
176
     1
 90
        0
176
     1
 90
        0
176
     1
 40
0.6
176
     1
 40
30.0
176
     1
 62
     7
420
 16777215
176
     1
 90
        1
176
     1
 90
        4
176
     1
 62
     7
176
     1
 62
   257
176
     1
 90
        1
176
     1
 90
        1
176
     1
 40
1.0
176
     1
 90
        0
176
     1
 62
   257
176
     1
 40
1.0
176
     1
 90
        1
176
     1
 90
        6
176
     1
 90
        2
176
     1
 62
     7
176
     1
 90
        3
176
     1
 90
        0
176
     1
 90
        0
176
     1
290
     0
176
     1
 90
        1
176
     1
 40
0.0
176
     1
 90
        0
176
     1
290
     0
176
     1
290
     1
176
     1
290
     1
176
     1
290
     0
176
     1
290
     0
176
     1
290
     0
176
     1
290
     0
176
     1
290
     0
176
     1
290
     0
176
     1
 90
       50
176
     1
 40
0.0
176
     1
 40
1.0
176
     1
 90
        0
176
     1
 62
    18
420
        0
176
     1
 90
       50
176
     1
 90
        3
176
     1
 62
     5
420
      255
176
     1
290
     0
176
     1
 90
       50
176
     1
 90
       50
176
     1
 90
       50
176
     1
290
     0
176
     1
 90
       50
176
     1
 62
   256
176
     0
 40
1.0
176
     0
 90
        2
176
     1
  1
strokes_ogs.tif
176
     1
290
     0
176
     1
 40
1.0
176
     1
 40
1.0
176
     1
  0
VISUALSTYLE
  5
17C
102
{ACAD_REACTORS
330
169
102
}
330
169
100
AcDbVisualStyle
  2
X-Ray
 70
    25
177
     3
291
     0
 70
    58
 90
        2
176
     1
 90
        2
176
     1
 90
        1
176
     1
 90
        1
176
     1
 40
0.5
176
     1
 40
30.0
176
     1
 62
     7
420
 16777215
176
     1
 90
        1
176
     1
 90
        0
176
     1
 62
     7
176
     1
 62
   257
176
     1
 90
        1
176
     1
 90
        1
176
     1
 40
1.0
176
     1
 90
        8
176
     1
 62
     7
176
     1
 40
1.0
176
     1
 90
        1
176
     1
 90
        6
176
     1
 90
        2
176
     1
 62
     7
176
     1
 90
        3
176
     1
 90
        0
176
     1
 90
        0
176
     1
290
     0
176
     1
 90
       13
176
     1
 40
0.0
176
     1
 90
        0
176
     1
290
     0
176
     1
290
     1
176
     1
290
     1
176
     1
290
     0
176
     1
290
     0
176
     1
290
     0
176
     1
290
     0
176
     1
290
     0
176
     1
290
     0
176
     1
 90
       50
176
     1
 40
0.0
176
     1
 40
1.0
176
     1
 90
        0
176
     1
 62
    18
420
        0
176
     1
 90
       50
176
     1
 90
        3
176
     1
 62
     5
420
      255
176
     1
290
     0
176
     1
 90
       50
176
     1
 90
       50
176
     1
 90
       50
176
     1
290
     0
176
     1
 90
       50
176
     1
 62
   256
176
     0
 40
1.0
176
     0
 90
        2
176
     1
  1
strokes_ogs.tif
176
     1
290
     0
176
     1
 40
1.0
176
     1
 40
1.0
176
     1
  0
DICTIONARYVAR
  5
2F5
102
{ACAD_REACTORS
330
2EF
102
}
330
2EF
100
DictionaryVariables
280
     0
  1
1:1
  0
DICTIONARYVAR
  5
2F1
102
{ACAD_REACTORS
330
2EF
102
}
330
2EF
100
DictionaryVariables
280
     0
  1
STANDARD
  0
DICTIONARYVAR
  5
2F0
102
{ACAD_REACTORS
330
2EF
102
}
330
2EF
100
DictionaryVariables
280
     0
  1
STANDARD
  0
DICTIONARYVAR
  5
2F2
102
{ACAD_REACTORS
330
2EF
102
}
330
2EF
100
DictionaryVariables
280
     0
  1
Metric50
  0
DICTIONARYVAR
  5
2F3
102
{ACAD_REACTORS
330
2EF
102
}
330
2EF
100
DictionaryVariables
280
     0
  1
Metric50
  0
DICTIONARYVAR
  5
2F7
102
{ACAD_REACTORS
330
2EF
102
}
330
2EF
100
DictionaryVariables
280
     0
  1
1
  0
DICTIONARYVAR
  5
2F8
102
{ACAD_REACTORS
330
2EF
102
}
330
2EF
100
DictionaryVariables
280
     0
  1
15
  0
DICTIONARYVAR
  5
2F6
102
{ACAD_REACTORS
330
2EF
102
}
330
2EF
100
DictionaryVariables
280
     0
  1
0
  0
DICTIONARYVAR
  5
2F4
102
{ACAD_REACTORS
330
2EF
102
}
330
2EF
100
DictionaryVariables
280
     0
  1
0
  0
DICTIONARY
  5
239
102
{ACAD_REACTORS
330
238
102
}
330
238
100
AcDbDictionary
281
     1
  3
*A1
350
23A
  0
DICTIONARY
  5
22B
102
{ACAD_REACTORS
330
22A
102
}
330
22A
100
AcDbDictionary
281
     1
  3
*A1
350
22C
  0
DICTIONARY
  5
21D
102
{ACAD_REACTORS
330
21C
102
}
330
21C
100
AcDbDictionary
281
     1
  3
*A1
350
21E
  0
DICTIONARY
  5
20F
102
{ACAD_REACTORS
330
20E
102
}
330
20E
100
AcDbDictionary
281
     1
  3
*A1
350
210
  0
DICTIONARY
  5
255
102
{ACAD_REACTORS
330
254
102
}
330
254
100
AcDbDictionary
281
     1
  3
*A1
350
256
  0
DICTIONARY
  5
28E
102
{ACAD_REACTORS
330
28D
102
}
330
28D
100
AcDbDictionary
281
     1
  3
*A1
350
28F
  0
DICTIONARY
  5
280
102
{ACAD_REACTORS
330
27F
102
}
330
27F
100
AcDbDictionary
281
     1
  3
*A1
350
281
  0
DICTIONARY
  5
201
102
{ACAD_REACTORS
330
200
102
}
330
200
100
AcDbDictionary
281
     1
  3
*A1
350
202
  0
DICTIONARY
  5
1F3
102
{ACAD_REACTORS
330
1F2
102
}
330
1F2
100
AcDbDictionary
281
     1
  3
*A1
350
1F4
  0
DICTIONARY
  5
1E4
102
{ACAD_REACTORS
330
1E3
102
}
330
1E3
100
AcDbDictionary
281
     1
  3
*A1
350
1E5
  0
DICTIONARY
  5
247
102
{ACAD_REACTORS
330
246
102
}
330
246
100
AcDbDictionary
281
     1
  3
*A1
350
248
  0
DICTIONARY
  5
15A
330
159
100
AcDbDictionary
280
     1
281
     1
  3
BUMPTILE
360
15C
  3
DIFFUSETILE
360
15B
  3
OPACITYTILE
360
15F
  3
REFLECTIONTILE
360
15E
  3
REFRACTIONTILE
360
160
  3
SPECULARTILE
360
15D
  0
DICTIONARY
  5
152
330
151
100
AcDbDictionary
280
     1
281
     1
  3
BUMPTILE
360
154
  3
DIFFUSETILE
360
153
  3
OPACITYTILE
360
157
  3
REFLECTIONTILE
360
156
  3
REFRACTIONTILE
360
158
  3
SPECULARTILE
360
155
  0
DICTIONARY
  5
162
330
161
100
AcDbDictionary
280
     1
281
     1
  3
BUMPTILE
360
164
  3
DIFFUSETILE
360
163
  3
OPACITYTILE
360
167
  3
REFLECTIONTILE
360
166
  3
REFRACTIONTILE
360
168
  3
SPECULARTILE
360
165
  0
DICTIONARY
  5
2F9
330
184
100
AcDbDictionary
280
     1
281
     1
  3
ACAD_ROUNDTRIP_2008_TABLESTYLE_CELLSTYLEMAP
360
2FA
  0
ACDB_ALDIMOBJECTCONTEXTDATA_CLASS
  5
23A
102
{ACAD_REACTORS
330
239
102
}
330
239
100
AcDbObjectContextData
 70
     4
290
     1
100
AcDbAnnotScaleObjectContextData
340
48
100
AcDbDimensionObjectContextData
  2
*D22
293
     0
 10
-190.0111503499
 20
-1240.0594296238
294
     0
140
0.0
298
     0
291
     0
 70
     0
292
     0
 71
     0
280
     0
295
     0
296
     0
297
     0
100
AcDbAlignedDimensionObjectContextData
 11
-65.48192255850008
 21
-1240.0594296238
 31
0.0
  0
ACDB_ALDIMOBJECTCONTEXTDATA_CLASS
  5
22C
102
{ACAD_REACTORS
330
22B
102
}
330
22B
100
AcDbObjectContextData
 70
     4
290
     1
100
AcDbAnnotScaleObjectContextData
340
48
100
AcDbDimensionObjectContextData
  2
*D21
293
     0
 10
-21.31934145304332
 20
-650.0728802108
294
     1
140
0.0
298
     0
291
     0
 70
     0
292
     0
 71
     0
280
    16
295
     0
296
     0
297
     0
100
AcDbAlignedDimensionObjectContextData
 11
-37.31934145304303
 21
-1176.0594296238
 31
0.0
  0
ACDB_ALDIMOBJECTCONTEXTDATA_CLASS
  5
21E
102
{ACAD_REACTORS
330
21D
102
}
330
21D
100
AcDbObjectContextData
 70
     4
290
     1
100
AcDbAnnotScaleObjectContextData
340
48
100
AcDbDimensionObjectContextData
  2
*D20
293
     0
 10
-453.4819225585
 20
-620.7757578330999
294
     0
140
0.0
298
     0
291
     0
 70
     0
292
     0
 71
     0
280
     0
295
     0
296
     0
297
     0
100
AcDbAlignedDimensionObjectContextData
 11
-453.4819225584997
 21
-1176.0594296238
 31
0.0
  0
ACDB_ALDIMOBJECTCONTEXTDATA_CLASS
  5
210
102
{ACAD_REACTORS
330
20F
102
}
330
20F
100
AcDbObjectContextData
 70
     4
290
     1
100
AcDbAnnotScaleObjectContextData
340
48
100
AcDbDimensionObjectContextData
  2
*D19
293
     0
 10
152.4568318740121
 20
-726.0594296238001
294
     0
140
0.0
298
     0
291
     0
 70
     0
292
     0
 71
     0
280
    16
295
     0
296
     0
297
     0
100
AcDbAlignedDimensionObjectContextData
 11
152.4568318740124
 21
-1176.0594296238
 31
0.0
  0
ACDB_ALDIMOBJECTCONTEXTDATA_CLASS
  5
256
102
{ACAD_REACTORS
330
255
102
}
330
255
100
AcDbObjectContextData
 70
     4
290
     1
100
AcDbAnnotScaleObjectContextData
340
48
100
AcDbDimensionObjectContextData
  2
*D24
293
     0
 10
235.0858013366
 20
-1240.0594296238
294
     0
140
0.0
298
     0
291
     0
 70
     0
292
     0
 71
     0
280
     0
295
     0
296
     0
297
     0
100
AcDbAlignedDimensionObjectContextData
 11
191.8786552567
 21
-1240.0594296238
 31
0.0
  0
ACDB_ALDIMOBJECTCONTEXTDATA_CLASS
  5
28F
102
{ACAD_REACTORS
330
28E
102
}
330
28E
100
AcDbObjectContextData
 70
     4
290
     1
100
AcDbAnnotScaleObjectContextData
340
48
100
AcDbDimensionObjectContextData
  2
*D26
293
     0
 10
365.9786552567
 20
-257.6671194976
294
     0
140
0.0
298
     0
291
     0
 70
     0
292
     0
 71
     0
280
     0
295
     0
296
     0
297
     0
100
AcDbAlignedDimensionObjectContextData
 11
365.9786552567001
 21
-214.5594293145001
 31
0.0
  0
ACDB_ALDIMOBJECTCONTEXTDATA_CLASS
  5
281
102
{ACAD_REACTORS
330
280
102
}
330
280
100
AcDbObjectContextData
 70
     4
290
     1
100
AcDbAnnotScaleObjectContextData
340
48
100
AcDbDimensionObjectContextData
  2
*D25
293
     0
 10
271.7453219233667
 20
81.6136692022
294
     1
140
0.0
298
     0
291
     0
 70
     0
292
     0
 71
     0
280
    16
295
     0
296
     0
297
     0
100
AcDbAlignedDimensionObjectContextData
 11
253.5786552567
 21
73.6136692022
 31
0.0
  0
ACDB_ALDIMOBJECTCONTEXTDATA_CLASS
  5
202
102
{ACAD_REACTORS
330
201
102
}
330
201
100
AcDbObjectContextData
 70
     4
290
     1
100
AcDbAnnotScaleObjectContextData
340
48
100
AcDbDimensionObjectContextData
  2
*D18
293
     0
 10
-453.4819225585
 20
259.1507410281
294
     0
140
0.0
298
     0
291
     0
 70
     0
292
     0
 71
     0
280
     0
295
     0
296
     0
297
     0
100
AcDbAlignedDimensionObjectContextData
 11
-453.4819225585001
 21
201.3485085575001
 31
0.0
  0
ACDB_ALDIMOBJECTCONTEXTDATA_CLASS
  5
1F4
102
{ACAD_REACTORS
330
1F3
102
}
330
1F3
100
AcDbObjectContextData
 70
     4
290
     1
100
AcDbAnnotScaleObjectContextData
340
48
100
AcDbDimensionObjectContextData
  2
*D17
293
     0
 10
-315.4669225585
 20
396.4485085575
294
     1
140
0.0
298
     0
291
     0
 70
     0
292
     0
 71
     0
280
    16
295
     0
296
     0
297
     0
100
AcDbAlignedDimensionObjectContextData
 11
-292.9669225585
 21
388.4485085575
 31
0.0
  0
ACDB_ALDIMOBJECTCONTEXTDATA_CLASS
  5
1E5
102
{ACAD_REACTORS
330
1E4
102
}
330
1E4
100
AcDbObjectContextData
 70
     4
290
     1
100
AcDbAnnotScaleObjectContextData
340
48
100
AcDbDimensionObjectContextData
  2
*D16
293
     0
 10
-410.0276076297314
 20
290.8985085575001
294
     1
140
0.0
298
     0
291
     0
 70
     0
292
     0
 71
     0
280
     0
295
     0
296
     0
297
     0
100
AcDbAlignedDimensionObjectContextData
 11
-399.3609409630649
 21
251.3485085575001
 31
0.0
  0
ACDB_ALDIMOBJECTCONTEXTDATA_CLASS
  5
248
102
{ACAD_REACTORS
330
247
102
}
330
247
100
AcDbObjectContextData
 70
     4
290
     1
100
AcDbAnnotScaleObjectContextData
340
48
100
AcDbDimensionObjectContextData
  2
*D23
293
     0
 10
-214.4453887319595
 20
-1163.5594296238
294
     1
140
0.0
298
     0
291
     0
 70
     0
292
     0
 71
     0
280
     0
295
     0
296
     0
297
     0
100
AcDbAlignedDimensionObjectContextData
 11
-225.1120553986259
 21
-1151.0594296238
 31
0.0
  0
XRECORD
  5
15C
102
{ACAD_REACTORS
330
15A
102
}
330
15A
100
AcDbXrecord
280
     1
270
     1
271
     1
  0
XRECORD
  5
15B
102
{ACAD_REACTORS
330
15A
102
}
330
15A
100
AcDbXrecord
280
     1
270
     1
271
     1
  0
XRECORD
  5
15F
102
{ACAD_REACTORS
330
15A
102
}
330
15A
100
AcDbXrecord
280
     1
270
     1
271
     1
  0
XRECORD
  5
15E
102
{ACAD_REACTORS
330
15A
102
}
330
15A
100
AcDbXrecord
280
     1
270
     1
271
     1
  0
XRECORD
  5
160
102
{ACAD_REACTORS
330
15A
102
}
330
15A
100
AcDbXrecord
280
     1
270
     1
271
     1
  0
XRECORD
  5
15D
102
{ACAD_REACTORS
330
15A
102
}
330
15A
100
AcDbXrecord
280
     1
270
     1
271
     1
  0
XRECORD
  5
154
102
{ACAD_REACTORS
330
152
102
}
330
152
100
AcDbXrecord
280
     1
270
     1
271
     1
  0
XRECORD
  5
153
102
{ACAD_REACTORS
330
152
102
}
330
152
100
AcDbXrecord
280
     1
270
     1
271
     1
  0
XRECORD
  5
157
102
{ACAD_REACTORS
330
152
102
}
330
152
100
AcDbXrecord
280
     1
270
     1
271
     1
  0
XRECORD
  5
156
102
{ACAD_REACTORS
330
152
102
}
330
152
100
AcDbXrecord
280
     1
270
     1
271
     1
  0
XRECORD
  5
158
102
{ACAD_REACTORS
330
152
102
}
330
152
100
AcDbXrecord
280
     1
270
     1
271
     1
  0
XRECORD
  5
155
102
{ACAD_REACTORS
330
152
102
}
330
152
100
AcDbXrecord
280
     1
270
     1
271
     1
  0
XRECORD
  5
164
102
{ACAD_REACTORS
330
162
102
}
330
162
100
AcDbXrecord
280
     1
270
     1
271
     1
  0
XRECORD
  5
163
102
{ACAD_REACTORS
330
162
102
}
330
162
100
AcDbXrecord
280
     1
270
     1
271
     1
  0
XRECORD
  5
167
102
{ACAD_REACTORS
330
162
102
}
330
162
100
AcDbXrecord
280
     1
270
     1
271
     1
  0
XRECORD
  5
166
102
{ACAD_REACTORS
330
162
102
}
330
162
100
AcDbXrecord
280
     1
270
     1
271
     1
  0
XRECORD
  5
168
102
{ACAD_REACTORS
330
162
102
}
330
162
100
AcDbXrecord
280
     1
270
     1
271
     1
  0
XRECORD
  5
165
102
{ACAD_REACTORS
330
162
102
}
330
162
100
AcDbXrecord
280
     1
270
     1
271
     1
  0
CELLSTYLEMAP
  5
2FA
102
{ACAD_REACTORS
330
2F9
102
}
330
2F9
100
AcDbCellStyleMap
 90
        3
300
CELLSTYLE
  1
TABLEFORMAT_BEGIN
 90
        5
170
     1
 91
        0
 92
    32768
 62
   257
 93
        1
300
CONTENTFORMAT
  1
CONTENTFORMAT_BEGIN
 90
        0
 91
        0
 92
      512
 93
        0
300

 40
0.0
140
1.0
 94
        5
 62
     0
340
11
144
6.0
309
CONTENTFORMAT_END
171
     1
301
MARGIN
  1
CELLMARGIN_BEGIN
 40
1.5
 40
1.5
 40
1.5
 40
1.5
 40
4.5
 40
4.5
309
CELLMARGIN_END
 94
        6
 95
        1
302
GRIDFORMAT
  1
GRIDFORMAT_BEGIN
 90
        0
 91
        1
 62
     0
 92
       -2
340
0
 93
        0
 40
1.125
309
GRIDFORMAT_END
 95
        2
302
GRIDFORMAT
  1
GRIDFORMAT_BEGIN
 90
        0
 91
        1
 62
     0
 92
       -2
340
0
 93
        0
 40
1.125
309
GRIDFORMAT_END
 95
        4
302
GRIDFORMAT
  1
GRIDFORMAT_BEGIN
 90
        0
 91
        1
 62
     0
 92
       -2
340
0
 93
        0
 40
1.125
309
GRIDFORMAT_END
 95
        8
302
GRIDFORMAT
  1
GRIDFORMAT_BEGIN
 90
        0
 91
        1
 62
     0
 92
       -2
340
0
 93
        0
 40
1.125
309
GRIDFORMAT_END
 95
       16
302
GRIDFORMAT
  1
GRIDFORMAT_BEGIN
 90
        0
 91
        1
 62
     0
 92
       -2
340
0
 93
        0
 40
1.125
309
GRIDFORMAT_END
 95
       32
302
GRIDFORMAT
  1
GRIDFORMAT_BEGIN
 90
        0
 91
        1
 62
     0
 92
       -2
340
0
 93
        0
 40
1.125
309
GRIDFORMAT_END
309
TABLEFORMAT_END
  1
CELLSTYLE_BEGIN
 90
        1
 91
        1
300
_TITLE
309
CELLSTYLE_END
300
CELLSTYLE
  1
TABLEFORMAT_BEGIN
 90
        5
170
     1
 91
        0
 92
        0
 62
   257
 93
        1
300
CONTENTFORMAT
  1
CONTENTFORMAT_BEGIN
 90
        0
 91
        0
 92
      512
 93
        0
300

 40
0.0
140
1.0
 94
        5
 62
     0
340
11
144
4.5
309
CONTENTFORMAT_END
171
     1
301
MARGIN
  1
CELLMARGIN_BEGIN
 40
1.5
 40
1.5
 40
1.5
 40
1.5
 40
4.5
 40
4.5
309
CELLMARGIN_END
 94
        6
 95
        1
302
GRIDFORMAT
  1
GRIDFORMAT_BEGIN
 90
        0
 91
        1
 62
     0
 92
       -2
340
0
 93
        0
 40
1.125
309
GRIDFORMAT_END
 95
        2
302
GRIDFORMAT
  1
GRIDFORMAT_BEGIN
 90
        0
 91
        1
 62
     0
 92
       -2
340
0
 93
        0
 40
1.125
309
GRIDFORMAT_END
 95
        4
302
GRIDFORMAT
  1
GRIDFORMAT_BEGIN
 90
        0
 91
        1
 62
     0
 92
       -2
340
0
 93
        0
 40
1.125
309
GRIDFORMAT_END
 95
        8
302
GRIDFORMAT
  1
GRIDFORMAT_BEGIN
 90
        0
 91
        1
 62
     0
 92
       -2
340
0
 93
        0
 40
1.125
309
GRIDFORMAT_END
 95
       16
302
GRIDFORMAT
  1
GRIDFORMAT_BEGIN
 90
        0
 91
        1
 62
     0
 92
       -2
340
0
 93
        0
 40
1.125
309
GRIDFORMAT_END
 95
       32
302
GRIDFORMAT
  1
GRIDFORMAT_BEGIN
 90
        0
 91
        1
 62
     0
 92
       -2
340
0
 93
        0
 40
1.125
309
GRIDFORMAT_END
309
TABLEFORMAT_END
  1
CELLSTYLE_BEGIN
 90
        2
 91
        1
300
_HEADER
309
CELLSTYLE_END
300
CELLSTYLE
  1
TABLEFORMAT_BEGIN
 90
        5
170
     1
 91
        0
 92
        0
 62
   257
 93
        1
300
CONTENTFORMAT
  1
CONTENTFORMAT_BEGIN
 90
        0
 91
        0
 92
      512
 93
        0
300

 40
0.0
140
1.0
 94
        2
 62
     0
340
11
144
4.5
309
CONTENTFORMAT_END
171
     1
301
MARGIN
  1
CELLMARGIN_BEGIN
 40
1.5
 40
1.5
 40
1.5
 40
1.5
 40
4.5
 40
4.5
309
CELLMARGIN_END
 94
        6
 95
        1
302
GRIDFORMAT
  1
GRIDFORMAT_BEGIN
 90
        0
 91
        1
 62
     0
 92
       -2
340
0
 93
        0
 40
1.125
309
GRIDFORMAT_END
 95
        2
302
GRIDFORMAT
  1
GRIDFORMAT_BEGIN
 90
        0
 91
        1
 62
     0
 92
       -2
340
0
 93
        0
 40
1.125
309
GRIDFORMAT_END
 95
        4
302
GRIDFORMAT
  1
GRIDFORMAT_BEGIN
 90
        0
 91
        1
 62
     0
 92
       -2
340
0
 93
        0
 40
1.125
309
GRIDFORMAT_END
 95
        8
302
GRIDFORMAT
  1
GRIDFORMAT_BEGIN
 90
        0
 91
        1
 62
     0
 92
       -2
340
0
 93
        0
 40
1.125
309
GRIDFORMAT_END
 95
       16
302
GRIDFORMAT
  1
GRIDFORMAT_BEGIN
 90
        0
 91
        1
 62
     0
 92
       -2
340
0
 93
        0
 40
1.125
309
GRIDFORMAT_END
 95
       32
302
GRIDFORMAT
  1
GRIDFORMAT_BEGIN
 90
        0
 91
        1
 62
     0
 92
       -2
340
0
 93
        0
 40
1.125
309
GRIDFORMAT_END
309
TABLEFORMAT_END
  1
CELLSTYLE_BEGIN
 90
        3
 91
        2
300
_DATA
309
CELLSTYLE_END
  0
ENDSEC
  0
EOF
