  0
SECTION
  2
HEADER
  9
$ACADVER
  1
AC1027
  9
$ACADMAINTVER
 70
   125
  9
$DWGCODEPAGE
  3
ANSI_1252
  9
$LASTSAVEDBY
  1
fleminab
  9
$REQUIREDVERSIONS
160
                 0
  9
$INSBASE
 10
0.0
 20
0.0
 30
0.0
  9
$EXTMIN
 10
5070.188539361431
 20
459.7460023145454
 30
-0.0000000000000053
  9
$EXTMAX
 10
5919.565249565149
 20
943.6811871407977
 30
0.0000000000000099
  9
$LIMMIN
 10
0.0
 20
0.0
  9
$LIMMAX
 10
420.0
 20
297.0
  9
$ORTHOMODE
 70
     0
  9
$REGENMODE
 70
     1
  9
$FILLMODE
 70
     1
  9
$QTEXTMODE
 70
     0
  9
$MIRRTEXT
 70
     1
  9
$LTSCALE
 40
0.2
  9
$ATTMODE
 70
     1
  9
$TEXTSIZE
 40
2.5
  9
$TRACEWID
 40
1.0
  9
$TEXTSTYLE
  7
Standard
  9
$CLAYER
  8
图层7
  9
$CELTYPE
  6
ByLayer
  9
$CECOLOR
 62
   256
  9
$CELTSCALE
 40
1.0
  9
$DISPSILH
 70
     0
  9
$DIMSCALE
 40
4.0
  9
$DIMASZ
 40
2.5
  9
$DIMEXO
 40
0.625
  9
$DIMDLI
 40
3.75
  9
$DIMRND
 40
0.0
  9
$DIMDLE
 40
0.0
  9
$DIMEXE
 40
1.25
  9
$DIMTP
 40
0.0
  9
$DIMTM
 40
0.0
  9
$DIMTXT
 40
3.0
  9
$DIMCEN
 40
2.5
  9
$DIMTSZ
 40
0.0
  9
$DIMTOL
 70
     0
  9
$DIMLIM
 70
     0
  9
$DIMTIH
 70
     0
  9
$DIMTOH
 70
     0
  9
$DIMSE1
 70
     0
  9
$DIMSE2
 70
     0
  9
$DIMTAD
 70
     1
  9
$DIMZIN
 70
     8
  9
$DIMBLK
  1

  9
$DIMASO
 70
     1
  9
$DIMSHO
 70
     1
  9
$DIMPOST
  1

  9
$DIMAPOST
  1

  9
$DIMALT
 70
     0
  9
$DIMALTD
 70
     3
  9
$DIMALTF
 40
0.03937007874016
  9
$DIMLFAC
 40
1.0
  9
$DIMTOFL
 70
     1
  9
$DIMTVP
 40
0.0
  9
$DIMTIX
 70
     0
  9
$DIMSOXD
 70
     0
  9
$DIMSAH
 70
     0
  9
$DIMBLK1
  1

  9
$DIMBLK2
  1

  9
$DIMSTYLE
  2
ISO-25
  9
$DIMCLRD
 70
   256
  9
$DIMCLRE
 70
   256
  9
$DIMCLRT
 70
   256
  9
$DIMTFAC
 40
1.0
  9
$DIMGAP
 40
0.625
  9
$DIMJUST
 70
     0
  9
$DIMSD1
 70
     0
  9
$DIMSD2
 70
     0
  9
$DIMTOLJ
 70
     0
  9
$DIMTZIN
 70
     8
  9
$DIMALTZ
 70
     0
  9
$DIMALTTZ
 70
     0
  9
$DIMUPT
 70
     0
  9
$DIMDEC
 70
     1
  9
$DIMTDEC
 70
     1
  9
$DIMALTU
 70
     2
  9
$DIMALTTD
 70
     3
  9
$DIMTXSTY
  7
Standard
  9
$DIMAUNIT
 70
     0
  9
$DIMADEC
 70
     0
  9
$DIMALTRND
 40
0.0
  9
$DIMAZIN
 70
     0
  9
$DIMDSEP
 70
    46
  9
$DIMATFIT
 70
     3
  9
$DIMFRAC
 70
     0
  9
$DIMLDRBLK
  1

  9
$DIMLUNIT
 70
     2
  9
$DIMLWD
 70
    -1
  9
$DIMLWE
 70
    -1
  9
$DIMTMOVE
 70
     0
  9
$DIMFXL
 40
1.25
  9
$DIMFXLON
 70
     0
  9
$DIMJOGANG
 40
1.570796326794896
  9
$DIMTFILL
 70
     0
  9
$DIMTFILLCLR
 70
     0
  9
$DIMARCSYM
 70
     0
  9
$DIMLTYPE
  6

  9
$DIMLTEX1
  6

  9
$DIMLTEX2
  6

  9
$DIMTXTDIRECTION
 70
     0
  9
$LUNITS
 70
     2
  9
$LUPREC
 70
     4
  9
$SKETCHINC
 40
1.0
  9
$FILLETRAD
 40
0.0
  9
$AUNITS
 70
     0
  9
$AUPREC
 70
     0
  9
$MENU
  1
.
  9
$ELEVATION
 40
0.0
  9
$PELEVATION
 40
0.0
  9
$THICKNESS
 40
0.0
  9
$LIMCHECK
 70
     0
  9
$CHAMFERA
 40
0.5
  9
$CHAMFERB
 40
0.5
  9
$CHAMFERC
 40
20.0
  9
$CHAMFERD
 40
0.0
  9
$SKPOLY
 70
     0
  9
$TDCREATE
 40
2452341.882372685
  9
$TDUCREATE
 40
2452341.424046528
  9
$TDUPDATE
 40
2458225.665891204
  9
$TDUUPDATE
 40
2458225.249224537
  9
$TDINDWG
 40
1.3003483912
  9
$TDUSRTIMER
 40
1.3003483912
  9
$USRTIMER
 70
     1
  9
$ANGBASE
 50
0.0
  9
$ANGDIR
 70
     0
  9
$PDMODE
 70
     0
  9
$PDSIZE
 40
0.0
  9
$PLINEWID
 40
0.0
  9
$SPLFRAME
 70
     0
  9
$SPLINETYPE
 70
     6
  9
$SPLINESEGS
 70
     8
  9
$HANDSEED
  5
3A95
  9
$SURFTAB1
 70
     6
  9
$SURFTAB2
 70
     6
  9
$SURFTYPE
 70
     6
  9
$SURFU
 70
     6
  9
$SURFV
 70
     6
  9
$UCSBASE
  2

  9
$UCSNAME
  2

  9
$UCSORG
 10
0.0
 20
0.0
 30
0.0
  9
$UCSXDIR
 10
1.0
 20
0.0
 30
0.0
  9
$UCSYDIR
 10
0.0
 20
1.0
 30
0.0
  9
$UCSORTHOREF
  2

  9
$UCSORTHOVIEW
 70
     0
  9
$UCSORGTOP
 10
0.0
 20
0.0
 30
0.0
  9
$UCSORGBOTTOM
 10
0.0
 20
0.0
 30
0.0
  9
$UCSORGLEFT
 10
0.0
 20
0.0
 30
0.0
  9
$UCSORGRIGHT
 10
0.0
 20
0.0
 30
0.0
  9
$UCSORGFRONT
 10
0.0
 20
0.0
 30
0.0
  9
$UCSORGBACK
 10
0.0
 20
0.0
 30
0.0
  9
$PUCSBASE
  2

  9
$PUCSNAME
  2

  9
$PUCSORG
 10
0.0
 20
0.0
 30
0.0
  9
$PUCSXDIR
 10
1.0
 20
0.0
 30
0.0
  9
$PUCSYDIR
 10
0.0
 20
1.0
 30
0.0
  9
$PUCSORTHOREF
  2

  9
$PUCSORTHOVIEW
 70
     0
  9
$PUCSORGTOP
 10
0.0
 20
0.0
 30
0.0
  9
$PUCSORGBOTTOM
 10
0.0
 20
0.0
 30
0.0
  9
$PUCSORGLEFT
 10
0.0
 20
0.0
 30
0.0
  9
$PUCSORGRIGHT
 10
0.0
 20
0.0
 30
0.0
  9
$PUCSORGFRONT
 10
0.0
 20
0.0
 30
0.0
  9
$PUCSORGBACK
 10
0.0
 20
0.0
 30
0.0
  9
$USERI1
 70
     0
  9
$USERI2
 70
     0
  9
$USERI3
 70
     0
  9
$USERI4
 70
     0
  9
$USERI5
 70
     0
  9
$USERR1
 40
0.0
  9
$USERR2
 40
0.0
  9
$USERR3
 40
0.0
  9
$USERR4
 40
0.0
  9
$USERR5
 40
0.0
  9
$WORLDVIEW
 70
     1
  9
$SHADEDGE
 70
     3
  9
$SHADEDIF
 70
    70
  9
$TILEMODE
 70
     1
  9
$MAXACTVP
 70
    64
  9
$PINSBASE
 10
0.0
 20
0.0
 30
0.0
  9
$PLIMCHECK
 70
     0
  9
$PEXTMIN
 10
25.69999999999999
 20
19.5
 30
0.0
  9
$PEXTMAX
 10
231.3
 20
175.5
 30
0.0
  9
$PLIMMIN
 10
-20.0
 20
-7.5
  9
$PLIMMAX
 10
277.0
 20
202.5
  9
$UNITMODE
 70
     0
  9
$VISRETAIN
 70
     1
  9
$PLINEGEN
 70
     0
  9
$PSLTSCALE
 70
     1
  9
$TREEDEPTH
 70
  3020
  9
$CMLSTYLE
  2
Standard
  9
$CMLJUST
 70
     0
  9
$CMLSCALE
 40
20.0
  9
$PROXYGRAPHICS
 70
     1
  9
$MEASUREMENT
 70
     1
  9
$CELWEIGHT
370
    -1
  9
$ENDCAPS
280
     0
  9
$JOINSTYLE
280
     0
  9
$LWDISPLAY
290
     1
  9
$INSUNITS
 70
     4
  9
$HYPERLINKBASE
  1

  9
$STYLESHEET
  1

  9
$XEDIT
290
     1
  9
$CEPSNTYPE
380
     0
  9
$PSTYLEMODE
290
     1
  9
$FINGERPRINTGUID
  2
{76D08062-31F6-11D6-AFE6-00E04C3D640A}
  9
$VERSIONGUID
  2
{BDCB195F-048D-4142-A881-0EFA49F845FD}
  9
$EXTNAMES
290
     1
  9
$PSVPSCALE
 40
0.0
  9
$OLESTARTUP
290
     0
  9
$SORTENTS
280
    96
  9
$INDEXCTL
280
     0
  9
$HIDETEXT
280
     0
  9
$XCLIPFRAME
280
     0
  9
$HALOGAP
280
     0
  9
$OBSCOLOR
 70
   257
  9
$OBSLTYPE
280
     0
  9
$INTERSECTIONDISPLAY
280
     0
  9
$INTERSECTIONCOLOR
 70
   257
  9
$DIMASSOC
280
     1
  9
$PROJECTNAME
  1

  9
$CAMERADISPLAY
290
     0
  9
$LENSLENGTH
 40
50.0
  9
$CAMERAHEIGHT
 40
0.0
  9
$STEPSPERSEC
 40
2.0
  9
$STEPSIZE
 40
6.0
  9
$3DDWFPREC
 40
2.0
  9
$PSOLWIDTH
 40
0.25
  9
$PSOLHEIGHT
 40
4.0
  9
$LOFTANG1
 40
1.570796326794896
  9
$LOFTANG2
 40
1.570796326794896
  9
$LOFTMAG1
 40
0.0
  9
$LOFTMAG2
 40
0.0
  9
$LOFTPARAM
 70
     7
  9
$LOFTNORMALS
280
     1
  9
$LATITUDE
 40
37.795
  9
$LONGITUDE
 40
-122.394
  9
$NORTHDIRECTION
 40
0.0
  9
$TIMEZONE
 70
 -8000
  9
$LIGHTGLYPHDISPLAY
280
     1
  9
$TILEMODELIGHTSYNCH
280
     1
  9
$CMATERIAL
347
39CA
  9
$SOLIDHIST
280
     0
  9
$SHOWHIST
280
     1
  9
$DWFFRAME
280
     2
  9
$DGNFRAME
280
     0
  9
$REALWORLDSCALE
290
     1
  9
$INTERFERECOLOR
 62
     1
  9
$INTERFEREOBJVS
345
39EC
  9
$INTERFEREVPVS
346
39E9
  9
$CSHADOW
280
     0
  9
$SHADOWPLANELOCATION
 40
0.0
  0
ENDSEC
  0
SECTION
  2
CLASSES
  0
CLASS
  1
ACDBDICTIONARYWDFLT
  2
AcDbDictionaryWithDefault
  3
ObjectDBX Classes
 90
        0
 91
        1
280
     0
281
     0
  0
CLASS
  1
DICTIONARYVAR
  2
AcDbDictionaryVar
  3
ObjectDBX Classes
 90
        0
 91
       36
280
     0
281
     0
  0
CLASS
  1
TABLESTYLE
  2
AcDbTableStyle
  3
ObjectDBX Classes
 90
     4095
 91
        1
280
     0
281
     0
  0
CLASS
  1
SORTENTSTABLE
  2
AcDbSortentsTable
  3
ObjectDBX Classes
 90
        0
 91
        1
280
     0
281
     0
  0
CLASS
  1
MATERIAL
  2
AcDbMaterial
  3
ObjectDBX Classes
 90
     1153
 91
        3
280
     0
281
     0
  0
CLASS
  1
VISUALSTYLE
  2
AcDbVisualStyle
  3
ObjectDBX Classes
 90
     4095
 91
       24
280
     0
281
     0
  0
CLASS
  1
SCALE
  2
AcDbScale
  3
ObjectDBX Classes
 90
     1153
 91
       17
280
     0
281
     0
  0
CLASS
  1
MLEADERSTYLE
  2
AcDbMLeaderStyle
  3
ACDB_MLEADERSTYLE_CLASS
 90
     4095
 91
        1
280
     0
281
     0
  0
CLASS
  1
ACDBSECTIONVIEWSTYLE
  2
AcDbSectionViewStyle
  3
ObjectDBX Classes
 90
     1025
 91
        1
280
     0
281
     0
  0
CLASS
  1
ACDBDETAILVIEWSTYLE
  2
AcDbDetailViewStyle
  3
ObjectDBX Classes
 90
     1025
 91
        1
280
     0
281
     0
  0
CLASS
  1
CELLSTYLEMAP
  2
AcDbCellStyleMap
  3
ObjectDBX Classes
 90
     1152
 91
        2
280
     0
281
     0
  0
ENDSEC
  0
SECTION
  2
TABLES
  0
TABLE
  2
VPORT
  5
8
330
0
100
AcDbSymbolTable
 70
     1
1001
ACAD
1000
DbSaveVer
1071
        5
  0
VPORT
  5
39C8
330
8
100
AcDbSymbolTableRecord
100
AcDbViewportTableRecord
  2
*Active
 70
     0
 10
0.0
 20
0.0
 11
1.0
 21
1.0
 12
5494.87689446329
 22
701.7135947276715
 13
0.0
 23
0.0
 14
10.0
 24
10.0
 15
10.0
 25
10.0
 16
0.0
 26
0.0
 36
1.0
 17
0.0
 27
0.0
 37
0.0
 40
487.4001145505451
 41
2.292712066905615
 42
50.0
 43
0.0
 44
0.0
 50
0.0
 51
0.0
 71
     0
 72
 20000
 73
     1
 74
     3
 75
     0
 76
     0
 77
     0
 78
     0
281
     0
 65
     1
110
0.0
120
0.0
130
0.0
111
1.0
121
0.0
131
0.0
112
0.0
122
1.0
132
0.0
 79
     0
146
0.0
348
39E8
 60
     3
 61
     5
292
     1
282
     1
141
0.0
142
0.0
 63
   250
421
  3355443
1001
ACAD_NAV_VCDISPLAY
1070
     3
  0
ENDTAB
  0
TABLE
  2
LTYPE
  5
5
330
0
100
AcDbSymbolTable
 70
     6
  0
LTYPE
  5
14
330
5
100
AcDbSymbolTableRecord
100
AcDbLinetypeTableRecord
  2
ByBlock
 70
     0
  3

 72
    65
 73
     0
 40
0.0
  0
LTYPE
  5
15
330
5
100
AcDbSymbolTableRecord
100
AcDbLinetypeTableRecord
  2
ByLayer
 70
     0
  3

 72
    65
 73
     0
 40
0.0
  0
LTYPE
  5
16
330
5
100
AcDbSymbolTableRecord
100
AcDbLinetypeTableRecord
  2
Continuous
 70
     0
  3
Solid line
 72
    65
 73
     0
 40
0.0
  0
LTYPE
  5
2D
330
5
100
AcDbSymbolTableRecord
100
AcDbLinetypeTableRecord
  2
CENTER
 70
     0
  3
Center ____ _ ____ _ ____ _ ____ _ ____ _ ____
 72
    65
 73
     4
 40
50.8
 49
31.75
 74
     0
 49
-6.349999999999999
 74
     0
 49
6.349999999999999
 74
     0
 49
-6.349999999999999
 74
     0
  0
LTYPE
  5
2E
330
5
100
AcDbSymbolTableRecord
100
AcDbLinetypeTableRecord
  2
CENTER2
 70
     0
  3
Center (.5x) ___ _ ___ _ ___ _ ___ _ ___ _ ___
 72
    65
 73
     4
 40
28.575
 49
19.05
 74
     0
 49
-3.174999999999999
 74
     0
 49
3.174999999999999
 74
     0
 49
-3.174999999999999
 74
     0
  0
LTYPE
  5
2F
330
5
100
AcDbSymbolTableRecord
100
AcDbLinetypeTableRecord
  2
ACAD_ISO12W100
 70
     0
  3
ISO dash double-dot __ . . __ . . __ . . __ . .
 72
    65
 73
     6
 40
21.0
 49
12.0
 74
     0
 49
-3.0
 74
     0
 49
0.0
 74
     0
 49
-3.0
 74
     0
 49
0.0
 74
     0
 49
-3.0
 74
     0
  0
LTYPE
  5
D3
330
5
100
AcDbSymbolTableRecord
100
AcDbLinetypeTableRecord
  2
DASHED2
 70
     0
  3
Dashed (.5x) _ _ _ _ _ _ _ _ _ _ _ _ _ _ _ _ _
 72
    65
 73
     2
 40
9.524999999999998
 49
6.349999999999999
 74
     0
 49
-3.174999999999999
 74
     0
  0
ENDTAB
  0
TABLE
  2
LAYER
  5
2
102
{ACAD_XDICTIONARY
360
18F9
102
}
330
0
100
AcDbSymbolTable
 70
     9
  0
LAYER
  5
10
102
{ACAD_XDICTIONARY
360
3A47
102
}
330
2
100
AcDbSymbolTableRecord
100
AcDbLayerTableRecord
  2
0
 70
     0
 62
     7
  6
Continuous
370
    -3
390
F
347
39DA
348
0
  0
LAYER
  5
30
102
{ACAD_XDICTIONARY
360
3A49
102
}
330
2
100
AcDbSymbolTableRecord
100
AcDbLayerTableRecord
  2
图层1
 70
     0
 62
     1
  6
CENTER
370
     9
390
F
347
39DA
348
0
1001
AcadStringInfo
1000
MIFCodePage
1070
     5
  0
LAYER
  5
31
102
{ACAD_XDICTIONARY
360
3A4B
102
}
330
2
100
AcDbSymbolTableRecord
100
AcDbLayerTableRecord
  2
图层2
 70
     0
 62
     3
  6
DASHED2
370
    15
390
F
347
39DA
348
0
1001
AcadStringInfo
1000
MIFCodePage
1070
     5
  0
LAYER
  5
32
102
{ACAD_XDICTIONARY
360
3A4D
102
}
330
2
100
AcDbSymbolTableRecord
100
AcDbLayerTableRecord
  2
图层3
 70
     0
 62
     5
  6
Continuous
370
    15
390
F
347
39DA
348
0
1001
AcadStringInfo
1000
MIFCodePage
1070
     5
  0
LAYER
  5
33
102
{ACAD_XDICTIONARY
360
3A4F
102
}
330
2
100
AcDbSymbolTableRecord
100
AcDbLayerTableRecord
  2
图层4
 70
     0
 62
     2
  6
ACAD_ISO12W100
370
    20
390
F
347
39DA
348
0
1001
AcadStringInfo
1000
MIFCodePage
1070
     5
  0
LAYER
  5
34
102
{ACAD_XDICTIONARY
360
3A51
102
}
330
2
100
AcDbSymbolTableRecord
100
AcDbLayerTableRecord
  2
图层5
 70
     0
 62
     6
  6
Continuous
370
     9
390
F
347
39DA
348
0
1001
AcadStringInfo
1000
MIFCodePage
1070
     5
  0
LAYER
  5
35
102
{ACAD_XDICTIONARY
360
3A53
102
}
330
2
100
AcDbSymbolTableRecord
100
AcDbLayerTableRecord
  2
图层6
 70
     0
 62
    16
  6
Continuous
370
     9
390
F
347
39DA
348
0
1001
AcadStringInfo
1000
MIFCodePage
1070
     5
  0
LAYER
  5
36
102
{ACAD_XDICTIONARY
360
3A55
102
}
330
2
100
AcDbSymbolTableRecord
100
AcDbLayerTableRecord
  2
图层7
 70
     0
 62
     7
  6
Continuous
370
    15
390
F
347
39DA
348
0
1001
AcadStringInfo
1000
MIFCodePage
1070
     5
  0
LAYER
  5
1D4
330
2
100
AcDbSymbolTableRecord
100
AcDbLayerTableRecord
  2
Defpoints
 70
     0
 62
     7
  6
Continuous
290
     0
370
    -3
390
F
347
39DA
348
0
  0
ENDTAB
  0
TABLE
  2
STYLE
  5
3
330
0
100
AcDbSymbolTable
 70
     6
  0
STYLE
  5
11
330
3
100
AcDbSymbolTableRecord
100
AcDbTextStyleTableRecord
  2
Standard
 70
     0
 40
0.0
 41
1.0
 50
0.0
 71
     0
 42
2.5
  3
ARIAL.TTF
  4

1001
ACAD
1000
Arial
1071
       34
  0
STYLE
  5
2C
330
3
100
AcDbSymbolTableRecord
100
AcDbTextStyleTableRecord
  2

 70
     1
 40
0.0
 41
1.0
 50
0.0
 71
     0
 42
2.5
  3
ltypeshp.shx
  4

  0
STYLE
  5
65
330
3
100
AcDbSymbolTableRecord
100
AcDbTextStyleTableRecord
  2
样式 1
 70
     0
 40
2.5
 41
1.0
 50
0.0
 71
     0
 42
2.5
  3
SimSun.ttf
  4

1001
ACAD
1000
SimSun
1071
    34306
1001
AcadStringInfo
1000
MIFCodePage
1070
     5
  0
STYLE
  5
262
330
3
100
AcDbSymbolTableRecord
100
AcDbTextStyleTableRecord
  2
样式 2
 70
     0
 40
3.2
 41
1.0
 50
0.0
 71
     0
 42
3.2
  3
SimSun.ttf
  4

1001
ACAD
1000
SimSun
1071
    34306
1001
AcadStringInfo
1000
MIFCodePage
1070
     5
  0
STYLE
  5
38BD
330
3
100
AcDbSymbolTableRecord
100
AcDbTextStyleTableRecord
  2
GN3
 70
     0
 40
0.156
 41
1.0
 50
0.0
 71
     0
 42
0.2
  3
ARIAL.TTF
  4

1001
ACAD
1000
Arial
1071
       34
  0
STYLE
  5
38BE
330
3
100
AcDbSymbolTableRecord
100
AcDbTextStyleTableRecord
  2
GN4
 70
     0
 40
0.188
 41
1.0
 50
0.0
 71
     0
 42
0.2
  3
ROMAND
  4

  0
ENDTAB
  0
TABLE
  2
VIEW
  5
6
330
0
100
AcDbSymbolTable
 70
     0
  0
ENDTAB
  0
TABLE
  2
UCS
  5
7
330
0
100
AcDbSymbolTable
 70
     0
  0
ENDTAB
  0
TABLE
  2
APPID
  5
9
330
0
100
AcDbSymbolTable
 70
    15
  0
APPID
  5
12
330
9
100
AcDbSymbolTableRecord
100
AcDbRegAppTableRecord
  2
ACAD
 70
     0
  0
APPID
  5
31A
330
9
100
AcDbSymbolTableRecord
100
AcDbRegAppTableRecord
  2
ACAD_EXEMPT_FROM_CAD_STANDARDS
 70
     0
  0
APPID
  5
65A
330
9
100
AcDbSymbolTableRecord
100
AcDbRegAppTableRecord
  2
ACAD_DSTYLE_DIMTEXT_FILL
 70
     0
  0
APPID
  5
65B
330
9
100
AcDbSymbolTableRecord
100
AcDbRegAppTableRecord
  2
ACAD_DSTYLE_DIMEXT_LENGTH
 70
     0
  0
APPID
  5
65C
330
9
100
AcDbSymbolTableRecord
100
AcDbRegAppTableRecord
  2
ACAD_DSTYLE_DIMEXT_ENABLED
 70
     0
  0
APPID
  5
65D
330
9
100
AcDbSymbolTableRecord
100
AcDbRegAppTableRecord
  2
ACAD_DSTYLE_DIM_LINETYPE
 70
     0
  0
APPID
  5
65E
330
9
100
AcDbSymbolTableRecord
100
AcDbRegAppTableRecord
  2
ACAD_DSTYLE_DIM_EXT1_LINETYPE
 70
     0
  0
APPID
  5
65F
330
9
100
AcDbSymbolTableRecord
100
AcDbRegAppTableRecord
  2
ACAD_DSTYLE_DIM_EXT2_LINETYPE
 70
     0
  0
APPID
  5
71B
330
9
100
AcDbSymbolTableRecord
100
AcDbRegAppTableRecord
  2
ACAD_DSTYLE_DIMJOGGED_JOGANGLE_SYMBOL
 70
     0
  0
APPID
  5
C61
330
9
100
AcDbSymbolTableRecord
100
AcDbRegAppTableRecord
  2
ACAD_DSTYLE_DIMARC_LENGTH_SYMBOL
 70
     0
  0
APPID
  5
1A65
330
9
100
AcDbSymbolTableRecord
100
AcDbRegAppTableRecord
  2
ACAD_PSEXT
 70
     0
  0
APPID
  5
38BF
330
9
100
AcDbSymbolTableRecord
100
AcDbRegAppTableRecord
  2
PSP
 70
     0
  0
APPID
  5
3A10
330
9
100
AcDbSymbolTableRecord
100
AcDbRegAppTableRecord
  2
AcadStringInfo
 70
     0
  0
APPID
  5
3A21
330
9
100
AcDbSymbolTableRecord
100
AcDbRegAppTableRecord
  2
AcadAnnoMonitorAlertIconDisabled
 70
     0
  0
APPID
  5
3A57
330
9
100
AcDbSymbolTableRecord
100
AcDbRegAppTableRecord
  2
ACAD_NAV_VCDISPLAY
 70
     0
  0
ENDTAB
  0
TABLE
  2
DIMSTYLE
  5
A
330
0
100
AcDbSymbolTable
 70
     1
100
AcDbDimStyleTable
 71
     1
340
27
  0
DIMSTYLE
105
27
102
{ACAD_REACTORS
330
3834
330
3841
330
384E
330
385B
102
}
330
A
100
AcDbSymbolTableRecord
100
AcDbDimStyleTableRecord
  2
ISO-25
 70
     0
 40
4.0
 41
2.5
 42
0.625
 43
3.75
 44
1.25
 49
1.25
 50
90.0
 73
     0
 74
     0
 77
     1
 78
     8
140
3.0
141
2.5
143
0.03937007874016
147
0.625
171
     3
172
     1
176
   256
177
   256
178
   256
271
     1
272
     1
274
     3
283
     0
284
     8
340
11
371
    -1
372
    -1
1001
ACAD_DSTYLE_DIMJOGGED_JOGANGLE_SYMBOL
1070
   384
1040
1.570796326794896
  0
ENDTAB
  0
TABLE
  2
BLOCK_RECORD
  5
1
330
0
100
AcDbSymbolTable
 70
     5
  0
BLOCK_RECORD
  5
1F
102
{ACAD_XDICTIONARY
360
429
102
}
330
1
100
AcDbSymbolTableRecord
100
AcDbBlockTableRecord
  2
*Model_Space
340
22
 70
     0
280
     1
281
     0
  0
BLOCK_RECORD
  5
1B
330
1
100
AcDbSymbolTableRecord
100
AcDbBlockTableRecord
  2
*Paper_Space
340
1E
 70
     0
280
     1
281
     0
  0
BLOCK_RECORD
  5
23
330
1
100
AcDbSymbolTableRecord
100
AcDbBlockTableRecord
  2
*Paper_Space0
340
26
 70
     0
280
     1
281
     0
  0
BLOCK_RECORD
  5
3835
330
1
100
AcDbSymbolTableRecord
100
AcDbBlockTableRecord
  2
*D1
340
0
 70
     0
280
     1
281
     0
  0
BLOCK_RECORD
  5
3842
330
1
100
AcDbSymbolTableRecord
100
AcDbBlockTableRecord
  2
*D2
340
0
 70
     0
280
     1
281
     0
  0
BLOCK_RECORD
  5
384F
330
1
100
AcDbSymbolTableRecord
100
AcDbBlockTableRecord
  2
*D3
340
0
 70
     0
280
     1
281
     0
  0
BLOCK_RECORD
  5
385C
330
1
100
AcDbSymbolTableRecord
100
AcDbBlockTableRecord
  2
*D4
340
0
 70
     0
280
     1
281
     0
  0
ENDTAB
  0
ENDSEC
  0
SECTION
  2
BLOCKS
  0
BLOCK
  5
20
330
1F
100
AcDbEntity
  8
0
100
AcDbBlockBegin
  2
*Model_Space
 70
     0
 10
0.0
 20
0.0
 30
0.0
  3
*Model_Space
  1

  0
ENDBLK
  5
21
330
1F
100
AcDbEntity
  8
0
100
AcDbBlockEnd
  0
BLOCK
  5
1C
330
1B
100
AcDbEntity
 67
     1
  8
0
100
AcDbBlockBegin
  2
*Paper_Space
 70
     0
 10
0.0
 20
0.0
 30
0.0
  3
*Paper_Space
  1

  0
ENDBLK
  5
1D
330
1B
100
AcDbEntity
 67
     1
  8
0
100
AcDbBlockEnd
  0
BLOCK
  5
24
330
23
100
AcDbEntity
 67
     1
  8
0
100
AcDbBlockBegin
  2
*Paper_Space0
 70
     0
 10
0.0
 20
0.0
 30
0.0
  3
*Paper_Space0
  1

  0
ENDBLK
  5
25
330
23
100
AcDbEntity
 67
     1
  8
0
100
AcDbBlockEnd
  0
BLOCK
  5
383F
330
3835
100
AcDbEntity
  8
0
100
AcDbBlockBegin
  2
*D1
 70
     1
 10
0.0
 20
0.0
 30
0.0
  3
*D1
  1

  0
LINE
  5
3A2C
330
3835
100
AcDbEntity
  8
0
440
 16777216
100
AcDbLine
 10
5092.561415627128
 20
882.8445484649087
 30
0.0
 11
5092.561415627128
 21
930.7918821378375
 31
0.0
  0
LINE
  5
3A2D
330
3835
100
AcDbEntity
  8
0
440
 16777216
100
AcDbLine
 10
5578.461415627128
 20
882.8445484649087
 30
0.0
 11
5578.461415627128
 21
930.7918821378375
 31
0.0
  0
LINE
  5
3A2E
330
3835
100
AcDbEntity
  8
0
440
 16777216
100
AcDbLine
 10
5102.561415627127
 20
925.7918821378375
 30
0.0
 11
5568.461415627127
 21
925.7918821378375
 31
0.0
  0
SOLID
  5
3A2F
330
3835
100
AcDbEntity
  8
0
440
 16777216
100
AcDbTrace
 10
5102.561415627127
 20
927.4585488045042
 30
0.0
 11
5102.561415627127
 21
924.1252154711709
 31
0.0
 12
5092.561415627128
 22
925.7918821378375
 32
0.0
 13
5092.561415627128
 23
925.7918821378375
 33
0.0
  0
SOLID
  5
3A30
330
3835
100
AcDbEntity
  8
0
440
 16777216
100
AcDbTrace
 10
5568.461415627127
 20
927.4585488045042
 30
0.0
 11
5568.461415627127
 21
924.1252154711709
 31
0.0
 12
5578.461415627128
 22
925.7918821378375
 32
0.0
 13
5578.461415627128
 23
925.7918821378375
 33
0.0
  0
MTEXT
  5
3A31
330
3835
100
AcDbEntity
  8
0
440
 16777216
370
    -2
100
AcDbMText
 10
5335.511415627127
 20
934.4187579904978
 30
0.0
 40
12.0
 41
0.0
 46
0.0
 71
     5
 72
     1
  1
485
 73
     1
 44
1.0
  0
POINT
  5
3A32
330
3835
100
AcDbEntity
  8
Defpoints
 62
     0
440
 16777216
100
AcDbPoint
 10
5092.561415627128
 20
880.3445484649087
 30
0.0
  0
POINT
  5
3A33
330
3835
100
AcDbEntity
  8
Defpoints
 62
     0
440
 16777216
100
AcDbPoint
 10
5578.461415627128
 20
880.3445484649087
 30
0.0
  0
POINT
  5
3A34
330
3835
100
AcDbEntity
  8
Defpoints
 62
     0
440
 16777216
100
AcDbPoint
 10
5578.461415627128
 20
925.7918821378375
 30
0.0
  0
ENDBLK
  5
3840
330
3835
100
AcDbEntity
  8
0
100
AcDbBlockEnd
  0
BLOCK
  5
384C
330
3842
100
AcDbEntity
  8
0
100
AcDbBlockBegin
  2
*D2
 70
     1
 10
0.0
 20
0.0
 30
0.0
  3
*D2
  1

  0
LINE
  5
39AD
330
3842
100
AcDbEntity
  8
0
440
 16777216
100
AcDbLine
 10
5600.511415627128
 20
506.2805267977114
 30
0.0
 11
5600.511415627128
 21
459.7491553769365
 31
0.0
  0
LINE
  5
39AE
330
3842
100
AcDbEntity
  8
0
440
 16777216
100
AcDbLine
 10
5070.511415627128
 20
506.2805267977114
 30
0.0
 11
5070.511415627128
 21
459.7491553769365
 31
0.0
  0
LINE
  5
39AF
330
3842
100
AcDbEntity
  8
0
440
 16777216
100
AcDbLine
 10
5590.511415627127
 20
464.7491553769365
 30
0.0
 11
5080.511415627127
 21
464.7491553769365
 31
0.0
  0
SOLID
  5
39B0
330
3842
100
AcDbEntity
  8
0
440
 16777216
100
AcDbTrace
 10
5590.511415627127
 20
466.4158220436031
 30
0.0
 11
5590.511415627127
 21
463.0824887102697
 31
0.0
 12
5600.511415627128
 22
464.7491553769365
 32
0.0
 13
5600.511415627128
 23
464.7491553769365
 33
0.0
  0
SOLID
  5
39B1
330
3842
100
AcDbEntity
  8
0
440
 16777216
100
AcDbTrace
 10
5080.511415627127
 20
466.4158220436031
 30
0.0
 11
5080.511415627127
 21
463.0824887102697
 31
0.0
 12
5070.511415627128
 22
464.7491553769365
 32
0.0
 13
5070.511415627128
 23
464.7491553769365
 33
0.0
  0
MTEXT
  5
39B2
330
3842
100
AcDbEntity
  8
0
440
 16777216
370
    -2
100
AcDbMText
 10
5335.511415627127
 20
473.3801239990374
 30
0.0
 40
12.0
 41
0.0
 46
0.0
 71
     5
 72
     1
  1
530
 73
     1
 44
1.0
  0
POINT
  5
39B3
330
3842
100
AcDbEntity
  8
Defpoints
 62
     0
440
 16777216
100
AcDbPoint
 10
5600.511415627128
 20
508.7805267977114
 30
0.0
  0
POINT
  5
39B4
330
3842
100
AcDbEntity
  8
Defpoints
 62
     0
440
 16777216
100
AcDbPoint
 10
5070.511415627128
 20
508.7805267977114
 30
0.0
  0
POINT
  5
39B5
330
3842
100
AcDbEntity
  8
Defpoints
 62
     0
440
 16777216
100
AcDbPoint
 10
5070.511415627128
 20
464.7491553769365
 30
0.0
  0
ENDBLK
  5
384D
330
3842
100
AcDbEntity
  8
0
100
AcDbBlockEnd
  0
BLOCK
  5
3859
330
384F
100
AcDbEntity
  8
0
100
AcDbBlockBegin
  2
*D3
 70
     1
 10
0.0
 20
0.0
 30
0.0
  3
*D3
  1

  0
LINE
  5
3A3E
330
384F
100
AcDbEntity
  8
0
440
 16777216
100
AcDbLine
 10
5580.961415627129
 20
880.3445484649092
 30
0.0
 11
5661.614698571874
 21
880.3445484649092
 31
0.0
  0
LINE
  5
3A3F
330
384F
100
AcDbEntity
  8
0
440
 16777216
100
AcDbLine
 10
5602.461415627129
 20
763.5728320648215
 30
0.0
 11
5661.614698571874
 21
763.5728320648215
 31
0.0
  0
LINE
  5
3A40
330
384F
100
AcDbEntity
  8
0
440
 16777216
100
AcDbLine
 10
5656.614698571873
 20
870.3445484649092
 30
0.0
 11
5656.614698571873
 21
773.5728320648217
 31
0.0
  0
SOLID
  5
3A41
330
384F
100
AcDbEntity
  8
0
440
 16777216
100
AcDbTrace
 10
5654.948031905206
 20
870.3445484649092
 30
0.0
 11
5658.28136523854
 21
870.3445484649092
 31
0.0
 12
5656.614698571873
 22
880.3445484649092
 32
0.0
 13
5656.614698571873
 23
880.3445484649092
 33
0.0
  0
SOLID
  5
3A42
330
384F
100
AcDbEntity
  8
0
440
 16777216
100
AcDbTrace
 10
5654.948031905206
 20
773.5728320648217
 30
0.0
 11
5658.28136523854
 21
773.5728320648217
 31
0.0
 12
5656.614698571873
 22
763.5728320648215
 32
0.0
 13
5656.614698571873
 23
763.5728320648215
 33
0.0
  0
MTEXT
  5
3A43
330
384F
100
AcDbEntity
  8
0
440
 16777216
370
    -2
100
AcDbMText
 10
5647.987822719212
 20
821.9586902648636
 30
0.0
 40
12.0
 41
0.0
 46
0.0
 71
     5
 72
     1
  1
115
 11
0.0000000000000001
 21
1.0
 31
0.0
 73
     1
 44
1.0
  0
POINT
  5
3A44
330
384F
100
AcDbEntity
  8
Defpoints
 62
     0
440
 16777216
100
AcDbPoint
 10
5578.461415627129
 20
880.3445484649092
 30
0.0
  0
POINT
  5
3A45
330
384F
100
AcDbEntity
  8
Defpoints
 62
     0
440
 16777216
100
AcDbPoint
 10
5599.961415627129
 20
763.5728320648215
 30
0.0
  0
POINT
  5
3A46
330
384F
100
AcDbEntity
  8
Defpoints
 62
     0
440
 16777216
100
AcDbPoint
 10
5656.614698571873
 20
763.5728320648215
 30
0.0
  0
ENDBLK
  5
385A
330
384F
100
AcDbEntity
  8
0
100
AcDbBlockEnd
  0
BLOCK
  5
3866
330
385C
100
AcDbEntity
  8
0
100
AcDbBlockBegin
  2
*D4
 70
     1
 10
0.0
 20
0.0
 30
0.0
  3
*D4
  1

  0
LINE
  5
39BF
330
385C
100
AcDbEntity
  8
0
440
 16777216
100
AcDbLine
 10
5601.511415627126
 20
738.7805267977113
 30
0.0
 11
5661.61469857187
 21
738.7805267977113
 31
0.0
  0
LINE
  5
39C0
330
385C
100
AcDbEntity
  8
0
440
 16777216
100
AcDbLine
 10
5603.011415627127
 20
508.7805267977114
 30
0.0
 11
5661.61469857187
 21
508.7805267977114
 31
0.0
  0
LINE
  5
39C1
330
385C
100
AcDbEntity
  8
0
440
 16777216
100
AcDbLine
 10
5656.614698571869
 20
728.7805267977113
 30
0.0
 11
5656.614698571869
 21
518.7805267977114
 31
0.0
  0
SOLID
  5
39C2
330
385C
100
AcDbEntity
  8
0
440
 16777216
100
AcDbTrace
 10
5654.948031905203
 20
728.7805267977113
 30
0.0
 11
5658.281365238536
 21
728.7805267977113
 31
0.0
 12
5656.614698571869
 22
738.7805267977113
 32
0.0
 13
5656.614698571869
 23
738.7805267977113
 33
0.0
  0
SOLID
  5
39C3
330
385C
100
AcDbEntity
  8
0
440
 16777216
100
AcDbTrace
 10
5654.948031905203
 20
518.7805267977114
 30
0.0
 11
5658.281365238536
 21
518.7805267977114
 31
0.0
 12
5656.614698571869
 22
508.7805267977114
 32
0.0
 13
5656.614698571869
 23
508.7805267977114
 33
0.0
  0
MTEXT
  5
39C4
330
385C
100
AcDbEntity
  8
0
440
 16777216
370
    -2
100
AcDbMText
 10
5647.983729949769
 20
623.7805267977122
 30
0.0
 40
12.0
 41
0.0
 46
0.0
 71
     5
 72
     1
  1
230
 11
0.0000000000000001
 21
1.0
 31
0.0
 73
     1
 44
1.0
  0
POINT
  5
39C5
330
385C
100
AcDbEntity
  8
Defpoints
 62
     0
440
 16777216
100
AcDbPoint
 10
5599.011415627127
 20
738.7805267977113
 30
0.0
  0
POINT
  5
39C6
330
385C
100
AcDbEntity
  8
Defpoints
 62
     0
440
 16777216
100
AcDbPoint
 10
5600.511415627128
 20
508.7805267977114
 30
0.0
  0
POINT
  5
39C7
330
385C
100
AcDbEntity
  8
Defpoints
 62
     0
440
 16777216
100
AcDbPoint
 10
5656.614698571869
 20
508.7805267977114
 30
0.0
  0
ENDBLK
  5
3867
330
385C
100
AcDbEntity
  8
0
100
AcDbBlockEnd
  0
ENDSEC
  0
SECTION
  2
ENTITIES
  0
ARC
  5
3266
330
1F
100
AcDbEntity
  8
0
370
    -2
100
AcDbCircle
 10
5092.561415627128
 20
862.3445484649087
 30
0.0
 40
20.0
100
AcDbArc
 50
213.3670129692327
 51
249.5126848852828
  0
ARC
  5
3267
330
1F
100
AcDbEntity
  8
0
370
    -2
100
AcDbCircle
 10
5092.561415627128
 20
862.3445484649087
 30
0.0
 40
20.0
100
AcDbArc
 50
290.4873151147173
 51
326.6329870307672
  0
ARC
  5
3268
330
1F
100
AcDbEntity
  8
0
370
    -2
100
AcDbCircle
 10
5092.561415627128
 20
860.3445484649087
 30
0.0
 40
20.0
100
AcDbArc
 50
33.36701296923276
 51
146.6329870307672
  0
LINE
  5
32AB
330
1F
100
AcDbEntity
  8
0
370
    -2
100
AcDbLine
 10
5559.011415627127
 20
738.7805267977114
 30
0.0
 11
5597.911415627127
 21
738.7805267977114
 31
0.0
  0
LINE
  5
32AC
330
1F
100
AcDbEntity
  8
0
370
    -2
100
AcDbLine
 10
5599.011415627127
 20
733.7805267977114
 30
0.0
 11
5599.011415627127
 21
738.7805267977113
 31
0.0
  0
ARC
  5
32AD
330
1F
100
AcDbEntity
  8
0
370
    -2
100
AcDbCircle
 10
5597.011415627126
 20
733.7805267977114
 30
0.0
 40
2.0
100
AcDbArc
 50
270.0
 51
0.0
  0
LINE
  5
32AE
330
1F
100
AcDbEntity
  8
0
370
    -2
100
AcDbLine
 10
5599.011415627127
 20
738.7805267977114
 30
0.0
 11
5598.011415627127
 21
738.7805267977114
 31
0.0
  0
LINE
  5
32AF
330
1F
100
AcDbEntity
  8
0
370
    -2
100
AcDbLine
 10
5559.011415627127
 20
733.7805267977113
 30
0.0
 11
5559.011415627127
 21
738.7805267977113
 31
0.0
  0
ARC
  5
32B1
330
1F
100
AcDbEntity
  8
0
370
    -2
100
AcDbCircle
 10
5561.011415627127
 20
733.7805267977114
 30
0.0
 40
2.0
100
AcDbArc
 50
180.0
 51
270.0
  0
LINE
  5
32B2
330
1F
100
AcDbEntity
  8
0
370
    -2
100
AcDbLine
 10
5574.011415627127
 20
731.7805267977114
 30
0.0
 11
5561.011415627127
 21
731.7805267977113
 31
0.0
  0
LINE
  5
32B3
330
1F
100
AcDbEntity
  8
0
370
    -2
100
AcDbLine
 10
5597.011415627126
 20
731.7805267977114
 30
0.0
 11
5574.011415627127
 21
731.7805267977114
 31
0.0
  0
LINE
  5
32B6
330
1F
100
AcDbEntity
  8
0
370
    -2
100
AcDbLine
 10
5072.561415627127
 20
851.3445484649087
 30
0.0
 11
5072.561415627127
 21
871.3445484649087
 31
0.0
  0
LINE
  5
32B7
330
1F
100
AcDbEntity
  8
0
370
    -2
100
AcDbLine
 10
5071.061415627127
 20
851.3445484649087
 30
0.0
 11
5071.061415627127
 21
871.3445484649087
 31
0.0
  0
LINE
  5
32D0
330
1F
100
AcDbEntity
  8
0
370
    -2
100
AcDbLine
 10
5100.011415627129
 20
575.6805267977115
 30
0.0
 11
5571.011415627127
 21
575.6805267977115
 31
0.0
  0
LINE
  5
32D1
330
1F
100
AcDbEntity
  8
0
370
    -2
100
AcDbLine
 10
5587.011415627127
 20
575.6805267977115
 30
0.0
 11
5600.511415627128
 21
575.6805267977115
 31
0.0
  0
LINE
  5
32D4
330
1F
100
AcDbEntity
  8
0
370
    -2
100
AcDbLine
 10
5100.011415627129
 20
591.6805267977115
 30
0.0
 11
5571.011415627127
 21
591.6805267977115
 31
0.0
  0
LINE
  5
32D5
330
1F
100
AcDbEntity
  8
0
370
    -2
100
AcDbLine
 10
5587.011415627127
 20
591.6805267977115
 30
0.0
 11
5600.511415627128
 21
591.6805267977115
 31
0.0
  0
LINE
  5
32E2
330
1F
100
AcDbEntity
  8
0
370
    -2
100
AcDbLine
 10
5100.011415627129
 20
685.1805267977113
 30
0.0
 11
5571.011415627126
 21
685.1805267977115
 31
0.0
  0
LINE
  5
32E4
330
1F
100
AcDbEntity
  8
0
370
    -2
100
AcDbLine
 10
5100.011415627129
 20
695.1805267977113
 30
0.0
 11
5571.011415627126
 21
695.1805267977115
 31
0.0
  0
LINE
  5
32FA
330
1F
100
AcDbEntity
  8
0
370
    -2
100
AcDbLine
 10
5100.011415627129
 20
642.5805267977113
 30
0.0
 11
5571.011415627126
 21
642.5805267977116
 31
0.0
  0
LINE
  5
32FC
330
1F
100
AcDbEntity
  8
0
370
    -2
100
AcDbLine
 10
5100.011415627129
 20
652.5805267977114
 30
0.0
 11
5571.011415627126
 21
652.5805267977116
 31
0.0
  0
LINE
  5
32FE
330
1F
100
AcDbEntity
  8
0
370
    -2
100
AcDbLine
 10
5100.011415627129
 20
599.9805267977116
 30
0.0
 11
5571.011415627126
 21
599.9805267977115
 31
0.0
  0
LINE
  5
3300
330
1F
100
AcDbEntity
  8
0
370
    -2
100
AcDbLine
 10
5100.011415627129
 20
609.9805267977115
 30
0.0
 11
5571.011415627126
 21
609.9805267977117
 31
0.0
  0
LINE
  5
3302
330
1F
100
AcDbEntity
  8
0
370
    -2
100
AcDbLine
 10
5100.011415627129
 20
599.9805267977116
 30
0.0
 11
5571.011415627126
 21
599.9805267977115
 31
0.0
  0
LINE
  5
3304
330
1F
100
AcDbEntity
  8
0
370
    -2
100
AcDbLine
 10
5100.011415627129
 20
609.9805267977115
 30
0.0
 11
5571.011415627126
 21
609.9805267977117
 31
0.0
  0
LINE
  5
3306
330
1F
100
AcDbEntity
  8
0
370
    -2
100
AcDbLine
 10
5100.011415627129
 20
557.3805267977114
 30
0.0
 11
5571.011415627126
 21
557.3805267977116
 31
0.0
  0
LINE
  5
3308
330
1F
100
AcDbEntity
  8
0
370
    -2
100
AcDbLine
 10
5100.011415627129
 20
567.3805267977115
 30
0.0
 11
5571.011415627126
 21
567.3805267977115
 31
0.0
  0
LINE
  5
330A
330
1F
100
AcDbEntity
  8
0
370
    -2
100
AcDbLine
 10
5571.011415627126
 20
731.7805267977115
 30
0.0
 11
5571.011415627126
 21
695.1805267977114
 31
0.0
  0
LINE
  5
330B
330
1F
100
AcDbEntity
  8
0
370
    -2
100
AcDbLine
 10
5571.011415627126
 20
685.1805267977113
 30
0.0
 11
5571.011415627126
 21
652.5805267977115
 31
0.0
  0
LINE
  5
330C
330
1F
100
AcDbEntity
  8
0
370
    -2
100
AcDbLine
 10
5571.011415627126
 20
642.5805267977115
 30
0.0
 11
5571.011415627127
 21
609.9805267977115
 31
0.0
  0
LINE
  5
330D
330
1F
100
AcDbEntity
  8
0
370
    -2
100
AcDbLine
 10
5571.011415627126
 20
599.9805267977115
 30
0.0
 11
5571.011415627126
 21
567.3805267977115
 31
0.0
  0
LINE
  5
330E
330
1F
100
AcDbEntity
  8
0
370
    -2
100
AcDbLine
 10
5571.011415627126
 20
557.3805267977116
 30
0.0
 11
5571.011415627126
 21
528.7805267977114
 31
0.0
  0
LINE
  5
330F
330
1F
100
AcDbEntity
  8
0
370
    -2
100
AcDbLine
 10
5587.011415627127
 20
731.7805267977115
 30
0.0
 11
5587.011415627127
 21
528.7805267977114
 31
0.0
  0
ARC
  5
3310
330
1F
100
AcDbEntity
  8
0
370
    -2
100
AcDbCircle
 10
5564.766417628728
 20
690.1805267977114
 30
0.0
 40
7.999999999999992
100
AcDbArc
 50
321.3178125465018
 51
38.68218745349813
  0
ARC
  5
3311
330
1F
100
AcDbEntity
  8
0
370
    -2
100
AcDbCircle
 10
5564.766417628728
 20
647.5805267977115
 30
0.0
 40
7.999999999999992
100
AcDbArc
 50
321.3178125465018
 51
38.68218745349813
  0
ARC
  5
3312
330
1F
100
AcDbEntity
  8
0
370
    -2
100
AcDbCircle
 10
5564.766417628728
 20
604.9805267977116
 30
0.0
 40
7.999999999999992
100
AcDbArc
 50
321.3178125465018
 51
38.68218745349813
  0
ARC
  5
3313
330
1F
100
AcDbEntity
  8
0
370
    -2
100
AcDbCircle
 10
5564.766417628728
 20
562.3805267977115
 30
0.0
 40
7.999999999999992
100
AcDbArc
 50
321.3178125465018
 51
38.68218745349813
  0
LINE
  5
3316
330
1F
100
AcDbEntity
  8
0
370
    -2
100
AcDbLine
 10
5100.011415627129
 20
528.7805267977114
 30
0.0
 11
5571.011415627126
 21
528.7805267977114
 31
0.0
  0
LINE
  5
3317
330
1F
100
AcDbEntity
  8
0
370
    -2
100
AcDbLine
 10
5587.011415627126
 20
528.7805267977114
 30
0.0
 11
5600.511415627128
 21
528.7805267977114
 31
0.0
  0
LINE
  5
3319
330
1F
100
AcDbEntity
  8
0
370
    -2
100
AcDbLine
 10
5070.511415627128
 20
508.7805267977114
 30
0.0
 11
5600.511415627128
 21
508.7805267977114
 31
0.0
  0
LINE
  5
332B
330
1F
100
AcDbEntity
  8
0
370
    -2
100
AcDbLine
 10
5600.511415627128
 20
508.7805267977114
 30
0.0
 11
5600.511415627128
 21
528.7805267977114
 31
0.0
  0
LINE
  5
332C
330
1F
100
AcDbEntity
  8
0
370
    -2
100
AcDbLine
 10
5599.011415627128
 20
528.7805267977114
 30
0.0
 11
5599.011415627128
 21
508.7805267977114
 31
0.0
  0
ARC
  5
332D
330
1F
100
AcDbEntity
  8
0
370
    -2
100
AcDbCircle
 10
5579.011415627126
 20
534.7805267977109
 30
0.0
 40
9.999999999999625
100
AcDbArc
 50
216.8698976458466
 51
323.1301023541534
  0
LINE
  5
3330
330
1F
100
AcDbEntity
  8
0
370
    -2
100
AcDbLine
 10
5600.511415627128
 20
575.6805267977115
 30
0.0
 11
5600.511415627127
 21
591.6805267977115
 31
0.0
  0
LINE
  5
3331
330
1F
100
AcDbEntity
  8
0
370
    -2
100
AcDbLine
 10
5599.511415627127
 20
575.6805267977115
 30
0.0
 11
5599.511415627127
 21
591.6805267977115
 31
0.0
  0
LINE
  5
3354
330
1F
100
AcDbEntity
  8
0
370
    -2
100
AcDbLine
 10
5071.061415627127
 20
779.5715651187013
 30
0.0
 11
5085.561415627128
 21
779.5715651187013
 31
0.0
  0
LINE
  5
3398
330
1F
100
AcDbEntity
  8
0
370
    -2
100
AcDbLine
 10
5085.561415627128
 20
779.5715651187015
 30
0.0
 11
5085.561415627128
 21
851.3445484649089
 31
0.0
  0
LINE
  5
3399
330
1F
100
AcDbEntity
  8
0
370
    -2
100
AcDbLine
 10
5099.561415627128
 20
779.5715651187015
 30
0.0
 11
5099.561415627128
 21
851.3445484649089
 31
0.0
  0
LINE
  5
339A
330
1F
100
AcDbEntity
  8
0
370
    -2
100
AcDbLine
 10
5071.061415627127
 20
779.5715651187013
 30
0.0
 11
5071.061415627127
 21
763.5728320648213
 31
0.0
  0
LINE
  5
339B
330
1F
100
AcDbEntity
  8
0
370
    -2
100
AcDbLine
 10
5072.561415627127
 20
779.5715651187013
 30
0.0
 11
5072.561415627127
 21
763.5728320648211
 31
0.0
  0
ARC
  5
339C
330
1F
100
AcDbEntity
  8
0
370
    -2
100
AcDbCircle
 10
5092.561415627128
 20
783.4394766389792
 30
0.0
 40
7.997545844113508
100
AcDbArc
 50
208.9232308741141
 51
331.076769125886
  0
LINE
  5
3656
330
1F
100
AcDbEntity
  8
0
370
    -2
100
AcDbLine
 10
5599.961415627127
 20
851.3445484649089
 30
0.0
 11
5071.061415627127
 21
851.3445484649084
 31
0.0
  0
LINE
  5
3657
330
1F
100
AcDbEntity
  8
0
370
    -2
100
AcDbLine
 10
5599.961415627127
 20
871.3445484649087
 30
0.0
 11
5071.061415627127
 21
871.3445484649087
 31
0.0
  0
ARC
  5
3658
330
1F
100
AcDbEntity
  8
0
370
    -2
100
AcDbCircle
 10
5578.461415627128
 20
862.3445484649087
 30
0.0
 40
20.0
100
AcDbArc
 50
290.4873151147451
 51
326.6329870307907
  0
ARC
  5
3659
330
1F
100
AcDbEntity
  8
0
370
    -2
100
AcDbCircle
 10
5578.461415627128
 20
862.3445484649087
 30
0.0
 40
20.0
100
AcDbArc
 50
213.3670129692093
 51
249.5126848852549
  0
ARC
  5
365A
330
1F
100
AcDbEntity
  8
0
370
    -2
100
AcDbCircle
 10
5578.461415627128
 20
860.3445484649087
 30
0.0
 40
20.0
100
AcDbArc
 50
33.36701296920927
 51
146.6329870307907
  0
LINE
  5
365B
330
1F
100
AcDbEntity
  8
0
370
    -2
100
AcDbLine
 10
5112.011415627129
 20
738.7805267977114
 30
0.0
 11
5073.111415627128
 21
738.7805267977114
 31
0.0
  0
LINE
  5
365C
330
1F
100
AcDbEntity
  8
0
370
    -2
100
AcDbLine
 10
5072.011415627128
 20
733.7805267977114
 30
0.0
 11
5072.011415627128
 21
738.7805267977113
 31
0.0
  0
ARC
  5
365D
330
1F
100
AcDbEntity
  8
0
370
    -2
100
AcDbCircle
 10
5074.011415627128
 20
733.7805267977114
 30
0.0
 40
1.999999999999999
100
AcDbArc
 50
180.0
 51
270.0
  0
LINE
  5
365E
330
1F
100
AcDbEntity
  8
0
370
    -2
100
AcDbLine
 10
5072.011415627128
 20
738.7805267977114
 30
0.0
 11
5073.011415627128
 21
738.7805267977114
 31
0.0
  0
LINE
  5
365F
330
1F
100
AcDbEntity
  8
0
370
    -2
100
AcDbLine
 10
5112.011415627129
 20
733.7805267977113
 30
0.0
 11
5112.011415627129
 21
738.7805267977113
 31
0.0
  0
ARC
  5
3660
330
1F
100
AcDbEntity
  8
0
370
    -2
100
AcDbCircle
 10
5110.011415627128
 20
733.7805267977114
 30
0.0
 40
1.999999999999999
100
AcDbArc
 50
270.0
 51
0.0
  0
LINE
  5
3661
330
1F
100
AcDbEntity
  8
0
370
    -2
100
AcDbLine
 10
5097.011415627128
 20
731.7805267977114
 30
0.0
 11
5110.011415627128
 21
731.7805267977113
 31
0.0
  0
LINE
  5
3662
330
1F
100
AcDbEntity
  8
0
370
    -2
100
AcDbLine
 10
5074.011415627128
 20
731.7805267977114
 30
0.0
 11
5097.011415627128
 21
731.7805267977114
 31
0.0
  0
LINE
  5
3663
330
1F
100
AcDbEntity
  8
0
370
    -2
100
AcDbLine
 10
5598.461415627127
 20
851.3445484649087
 30
0.0
 11
5598.461415627127
 21
871.3445484649087
 31
0.0
  0
LINE
  5
3664
330
1F
100
AcDbEntity
  8
0
370
    -2
100
AcDbLine
 10
5599.961415627127
 20
851.3445484649087
 30
0.0
 11
5599.961415627127
 21
871.3445484649087
 31
0.0
  0
LINE
  5
3666
330
1F
100
AcDbEntity
  8
0
370
    -2
100
AcDbLine
 10
5084.011415627127
 20
575.6805267977115
 30
0.0
 11
5070.511415627128
 21
575.6805267977115
 31
0.0
  0
LINE
  5
3668
330
1F
100
AcDbEntity
  8
0
370
    -2
100
AcDbLine
 10
5084.011415627127
 20
591.6805267977115
 30
0.0
 11
5070.511415627128
 21
591.6805267977115
 31
0.0
  0
LINE
  5
3673
330
1F
100
AcDbEntity
  8
0
370
    -2
100
AcDbLine
 10
5100.011415627129
 20
731.7805267977115
 30
0.0
 11
5100.011415627129
 21
695.1805267977114
 31
0.0
  0
LINE
  5
3674
330
1F
100
AcDbEntity
  8
0
370
    -2
100
AcDbLine
 10
5100.011415627129
 20
685.1805267977113
 30
0.0
 11
5100.011415627129
 21
652.5805267977115
 31
0.0
  0
LINE
  5
3675
330
1F
100
AcDbEntity
  8
0
370
    -2
100
AcDbLine
 10
5100.011415627129
 20
642.5805267977115
 30
0.0
 11
5100.011415627127
 21
609.9805267977115
 31
0.0
  0
LINE
  5
3676
330
1F
100
AcDbEntity
  8
0
370
    -2
100
AcDbLine
 10
5100.011415627129
 20
599.9805267977115
 30
0.0
 11
5100.011415627129
 21
567.3805267977115
 31
0.0
  0
LINE
  5
3677
330
1F
100
AcDbEntity
  8
0
370
    -2
100
AcDbLine
 10
5100.011415627129
 20
557.3805267977116
 30
0.0
 11
5100.011415627129
 21
528.7805267977114
 31
0.0
  0
LINE
  5
3678
330
1F
100
AcDbEntity
  8
0
370
    -2
100
AcDbLine
 10
5084.011415627127
 20
731.7805267977115
 30
0.0
 11
5084.011415627127
 21
528.7805267977114
 31
0.0
  0
ARC
  5
3679
330
1F
100
AcDbEntity
  8
0
370
    -2
100
AcDbCircle
 10
5106.256413625526
 20
690.1805267977114
 30
0.0
 40
7.999999999999991
100
AcDbArc
 50
141.3178125464835
 51
218.6821874535164
  0
ARC
  5
367A
330
1F
100
AcDbEntity
  8
0
370
    -2
100
AcDbCircle
 10
5106.256413625526
 20
647.5805267977115
 30
0.0
 40
7.999999999999991
100
AcDbArc
 50
141.3178125464835
 51
218.6821874535164
  0
ARC
  5
367B
330
1F
100
AcDbEntity
  8
0
370
    -2
100
AcDbCircle
 10
5106.256413625526
 20
604.9805267977116
 30
0.0
 40
7.999999999999991
100
AcDbArc
 50
141.3178125464835
 51
218.6821874535164
  0
ARC
  5
367C
330
1F
100
AcDbEntity
  8
0
370
    -2
100
AcDbCircle
 10
5106.256413625526
 20
562.3805267977115
 30
0.0
 40
7.999999999999991
100
AcDbArc
 50
141.3178125464835
 51
218.6821874535164
  0
LINE
  5
367E
330
1F
100
AcDbEntity
  8
0
370
    -2
100
AcDbLine
 10
5084.011415627128
 20
528.7805267977114
 30
0.0
 11
5070.511415627128
 21
528.7805267977114
 31
0.0
  0
LINE
  5
3680
330
1F
100
AcDbEntity
  8
0
370
    -2
100
AcDbLine
 10
5070.511415627128
 20
508.7805267977114
 30
0.0
 11
5070.511415627128
 21
528.7805267977114
 31
0.0
  0
LINE
  5
3681
330
1F
100
AcDbEntity
  8
0
370
    -2
100
AcDbLine
 10
5072.011415627128
 20
528.7805267977114
 30
0.0
 11
5072.011415627128
 21
508.7805267977114
 31
0.0
  0
ARC
  5
3682
330
1F
100
AcDbEntity
  8
0
370
    -2
100
AcDbCircle
 10
5092.011415627128
 20
534.7805267977109
 30
0.0
 40
9.999999999999623
100
AcDbArc
 50
216.8698976458701
 51
323.1301023541299
  0
LINE
  5
3683
330
1F
100
AcDbEntity
  8
0
370
    -2
100
AcDbLine
 10
5070.511415627128
 20
575.6805267977115
 30
0.0
 11
5070.511415627128
 21
591.6805267977115
 31
0.0
  0
LINE
  5
3684
330
1F
100
AcDbEntity
  8
0
370
    -2
100
AcDbLine
 10
5071.511415627128
 20
575.6805267977115
 30
0.0
 11
5071.511415627128
 21
591.6805267977115
 31
0.0
  0
LINE
  5
3685
330
1F
100
AcDbEntity
  8
0
370
    -2
100
AcDbLine
 10
5599.961415627127
 20
779.5715651187013
 30
0.0
 11
5585.461415627127
 21
779.5715651187013
 31
0.0
  0
LINE
  5
3686
330
1F
100
AcDbEntity
  8
0
370
    -2
100
AcDbLine
 10
5571.461415627127
 20
779.5715651187013
 30
0.0
 11
5099.561415627128
 21
779.571565118701
 31
0.0
  0
LINE
  5
3687
330
1F
100
AcDbEntity
  8
0
370
    -2
100
AcDbLine
 10
5599.961415627127
 20
763.5728320648213
 30
0.0
 11
5071.061415627127
 21
763.5728320648213
 31
0.0
  0
LINE
  5
3688
330
1F
100
AcDbEntity
  8
0
370
    -2
100
AcDbLine
 10
5585.461415627127
 20
779.5715651187015
 30
0.0
 11
5585.461415627127
 21
851.3445484649089
 31
0.0
  0
LINE
  5
3689
330
1F
100
AcDbEntity
  8
0
370
    -2
100
AcDbLine
 10
5571.461415627127
 20
779.5715651187015
 30
0.0
 11
5571.461415627127
 21
851.3445484649089
 31
0.0
  0
LINE
  5
368A
330
1F
100
AcDbEntity
  8
0
370
    -2
100
AcDbLine
 10
5599.961415627127
 20
779.5715651187013
 30
0.0
 11
5599.961415627127
 21
763.5728320648213
 31
0.0
  0
LINE
  5
368B
330
1F
100
AcDbEntity
  8
0
370
    -2
100
AcDbLine
 10
5598.461415627127
 20
779.5715651187013
 30
0.0
 11
5598.461415627127
 21
763.5728320648211
 31
0.0
  0
ARC
  5
368C
330
1F
100
AcDbEntity
  8
0
370
    -2
100
AcDbCircle
 10
5578.461415627128
 20
783.4394766389792
 30
0.0
 40
7.997545844113506
100
AcDbArc
 50
208.9232308741083
 51
331.0767691258917
  0
DIMENSION
  5
3834
330
1F
100
AcDbEntity
  8
0
370
    -2
100
AcDbDimension
280
     0
  2
*D1
 10
5578.461415627128
 20
925.7918821378375
 30
0.0
 11
5335.511415627127
 21
934.4187579904978
 31
0.0
 70
    32
  1
485
 71
     5
 42
485.8999999999996
 73
     0
 74
     0
 75
     0
  3
ISO-25
100
AcDbAlignedDimension
 13
5092.561415627128
 23
880.3445484649087
 33
0.0
 14
5578.461415627128
 24
880.3445484649087
 34
0.0
100
AcDbRotatedDimension
  0
DIMENSION
  5
3841
330
1F
100
AcDbEntity
  8
0
370
    -2
100
AcDbDimension
280
     0
  2
*D2
 10
5070.511415627128
 20
464.7491553769365
 30
0.0
 11
5335.511415627127
 21
473.3801239990374
 31
0.0
 70
    32
 71
     5
 42
530.0
 73
     0
 74
     0
 75
     0
  3
ISO-25
100
AcDbAlignedDimension
 13
5600.511415627128
 23
508.7805267977114
 33
0.0
 14
5070.511415627128
 24
508.7805267977114
 34
0.0
100
AcDbRotatedDimension
  0
DIMENSION
  5
384E
330
1F
100
AcDbEntity
  8
0
370
    -2
100
AcDbDimension
280
     0
  2
*D3
 10
5656.614698571873
 20
763.5728320648215
 30
0.0
 11
5647.987822719212
 21
821.9586902648636
 31
0.0
 70
    32
  1
115
 71
     5
 42
116.7717164000874
 73
     0
 74
     0
 75
     0
  3
ISO-25
100
AcDbAlignedDimension
 13
5578.461415627128
 23
880.3445484649087
 33
0.0
 14
5599.961415627127
 24
763.5728320648213
 34
0.0
 50
90.0
100
AcDbRotatedDimension
  0
DIMENSION
  5
385B
330
1F
100
AcDbEntity
  8
0
370
    -2
100
AcDbDimension
280
     0
  2
*D4
 10
5656.614698571869
 20
508.7805267977114
 30
0.0
 11
5647.983729949769
 21
623.7805267977122
 31
0.0
 70
    32
 71
     5
 42
229.9999999999999
 73
     0
 74
     0
 75
     0
  3
ISO-25
100
AcDbAlignedDimension
 13
5599.011415627127
 23
738.7805267977113
 33
0.0
 14
5600.511415627128
 24
508.7805267977114
 34
0.0
 50
90.0
100
AcDbRotatedDimension
  0
LINE
  5
398E
330
1F
100
AcDbEntity
  8
0
370
    -2
100
AcDbLine
 10
5694.305660856029
 20
880.3445484649087
 30
0.0
 11
5689.305660856029
 21
880.3445484649087
 31
0.0
  0
ARC
  5
398F
330
1F
100
AcDbEntity
  8
0
370
    -2
100
AcDbCircle
 10
5694.305660856029
 20
878.3445484649087
 30
0.0
 40
2.0
100
AcDbArc
 50
0.0
 51
90.0
  0
LINE
  5
3990
330
1F
100
AcDbEntity
  8
0
370
    -2
100
AcDbLine
 10
5694.305660856029
 20
840.3445484649086
 30
0.0
 11
5689.305660856029
 21
840.3445484649086
 31
0.0
  0
ARC
  5
3991
330
1F
100
AcDbEntity
  8
0
370
    -2
100
AcDbCircle
 10
5694.305660856029
 20
842.3445484649088
 30
0.0
 40
2.0
100
AcDbArc
 50
270.0
 51
0.0
  0
LINE
  5
3992
330
1F
100
AcDbEntity
  8
0
370
    -2
100
AcDbLine
 10
5694.305660856029
 20
840.3445484649086
 30
0.0
 11
5689.305660856029
 21
840.3445484649086
 31
0.0
  0
ARC
  5
3993
330
1F
100
AcDbEntity
  8
0
370
    -2
100
AcDbCircle
 10
5694.305660856029
 20
842.3445484649088
 30
0.0
 40
2.0
100
AcDbArc
 50
270.0
 51
0.0
  0
LINE
  5
3994
330
1F
100
AcDbEntity
  8
0
370
    -2
100
AcDbLine
 10
5689.305660856029
 20
840.3445484649086
 30
0.0
 11
5689.305660856029
 21
841.3445484649086
 31
0.0
  0
LINE
  5
3995
330
1F
100
AcDbEntity
  8
0
370
    -2
100
AcDbLine
 10
5694.305660856029
 20
880.3445484649087
 30
0.0
 11
5689.305660856029
 21
880.3445484649087
 31
0.0
  0
ARC
  5
3996
330
1F
100
AcDbEntity
  8
0
370
    -2
100
AcDbCircle
 10
5694.305660856029
 20
878.3445484649087
 30
0.0
 40
2.0
100
AcDbArc
 50
0.0
 51
90.0
  0
LINE
  5
3997
330
1F
100
AcDbEntity
  8
0
370
    -2
100
AcDbLine
 10
5696.30566085603
 20
852.3445484649087
 30
0.0
 11
5837.405660856028
 21
852.3445484649087
 31
0.0
  0
LINE
  5
3998
330
1F
100
AcDbEntity
  8
0
370
    -2
100
AcDbLine
 10
5851.405660856028
 20
852.3445484649087
 30
0.0
 11
5903.305660856029
 21
852.3445484649087
 31
0.0
  0
LINE
  5
3999
330
1F
100
AcDbEntity
  8
0
370
    -2
100
AcDbLine
 10
5696.30566085603
 20
868.3445484649087
 30
0.0
 11
5903.305660856029
 21
868.3445484649087
 31
0.0
  0
ARC
  5
399A
330
1F
100
AcDbEntity
  8
0
370
    -2
100
AcDbCircle
 10
5909.305660856028
 20
860.3445484649087
 30
0.0
 40
10.0
100
AcDbArc
 50
126.8698976458558
 51
165.2264148490936
  0
ARC
  5
399B
330
1F
100
AcDbEntity
  8
0
370
    -2
100
AcDbCircle
 10
5909.305660856028
 20
860.3445484649087
 30
0.0
 40
10.0
100
AcDbArc
 50
194.1818337285609
 51
233.1301023541442
  0
LINE
  5
399C
330
1F
100
AcDbEntity
  8
0
370
    -2
100
AcDbLine
 10
5740.405660856029
 20
852.3445484649087
 30
0.0
 11
5740.405660856029
 21
852.3445484649087
 31
0.0
  0
LINE
  5
399D
330
1F
100
AcDbEntity
  8
0
370
    -2
100
AcDbLine
 10
5851.405660856028
 20
774.4445484649085
 30
0.0
 11
5851.405660856028
 21
852.3445484649087
 31
0.0
  0
LINE
  5
399E
330
1F
100
AcDbEntity
  8
0
370
    -2
100
AcDbLine
 10
5837.405660856028
 20
774.4445484649085
 30
0.0
 11
5837.405660856028
 21
852.3445484649087
 31
0.0
  0
CIRCLE
  5
399F
330
1F
100
AcDbEntity
  8
0
370
    -2
100
AcDbCircle
 10
5844.405660856028
 20
770.5715651187015
 30
0.0
 40
7.999999999999967
  0
LINE
  5
39A0
330
1F
100
AcDbEntity
  8
0
370
    -2
100
AcDbLine
 10
5689.305660856029
 20
880.3445484649087
 30
0.0
 11
5689.305660856029
 21
840.3445484649086
 31
0.0
  0
LINE
  5
39A1
330
1F
100
AcDbEntity
  8
0
370
    -2
100
AcDbLine
 10
5696.30566085603
 20
878.3445484649087
 30
0.0
 11
5696.30566085603
 21
842.3445484649088
 31
0.0
  0
CIRCLE
  5
39A2
330
1F
100
AcDbEntity
  8
0
370
    -2
100
AcDbCircle
 10
5909.305660856029
 20
860.3445484649087
 30
0.0
 40
10.00000000000027
  0
ARC
  5
39A3
330
1F
100
AcDbEntity
  8
0
370
    -2
100
AcDbCircle
 10
5844.405660856028
 20
843.5078842733894
 30
0.0
 40
11.27327077798085
100
AcDbArc
 50
51.61534972809395
 51
128.384650271906
  0
VIEWPORT
  5
1A64
330
1B
100
AcDbEntity
 67
     1
  8
0
100
AcDbViewport
 10
128.5
 20
97.5
 30
0.0
 40
407.3299999999999
 41
222.18
 68
     1
 69
     1
 12
128.5
 22
97.5
 13
0.0
 23
0.0
 14
10.0
 24
10.0
 15
10.0
 25
10.0
 16
0.0
 26
0.0
 36
1.0
 17
0.0
 27
0.0
 37
0.0
 42
50.0
 43
0.0
 44
0.0
 45
222.18
 50
0.0
 51
0.0
 72
 20000
 90
    32800
  1

281
     0
 71
     1
 74
     0
110
0.0
120
0.0
130
0.0
111
1.0
121
0.0
131
0.0
112
0.0
122
1.0
132
0.0
 79
     0
146
0.0
170
     0
 61
     5
348
39E8
292
     1
282
     1
141
0.0
142
0.0
 63
   250
421
  3355443
  0
VIEWPORT
  5
1A67
330
1B
100
AcDbEntity
 67
     1
  8
Defpoints
100
AcDbViewport
 10
128.5
 20
97.5
 30
0.0
 40
205.6
 41
156.0
 68
     2
 69
     2
 12
315.0000044007675
 22
217.5000030386252
 13
0.0
 23
0.0
 14
10.0
 24
10.0
 15
10.0
 25
10.0
 16
0.0
 26
0.0
 36
1.0
 17
0.0
 27
0.0
 37
0.0
 42
50.0
 43
0.0
 44
0.0
 45
484.1982794666402
 50
0.0
 51
0.0
 72
 20000
 90
    32864
  1

281
     0
 71
     1
 74
     0
110
0.0
120
0.0
130
0.0
111
1.0
121
0.0
131
0.0
112
0.0
122
1.0
132
0.0
 79
     0
146
0.0
170
     0
 61
     5
348
39E8
292
     1
282
     1
141
0.0
142
0.0
 63
   250
421
  3355443
  0
ENDSEC
  0
SECTION
  2
OBJECTS
  0
DICTIONARY
  5
C
330
0
100
AcDbDictionary
281
     1
  3
ACAD_CIP_PREVIOUS_PRODUCT_INFO
350
3A1F
  3
ACAD_COLOR
350
312
  3
ACAD_DETAILVIEWSTYLE
350
3A12
  3
ACAD_GROUP
350
D
  3
ACAD_LAYOUT
350
1A
  3
ACAD_MATERIAL
350
311
  3
ACAD_MLEADERSTYLE
350
3A0D
  3
ACAD_MLINESTYLE
350
17
  3
ACAD_PLOTSETTINGS
350
19
  3
ACAD_PLOTSTYLENAME
350
E
  3
ACAD_SCALELIST
350
39FB
  3
ACAD_SECTIONVIEWSTYLE
350
3A0F
  3
ACAD_TABLESTYLE
350
313
  3
ACAD_VISUALSTYLE
350
39E2
  3
AcadDim
350
2CB9
  3
ACDB_RECOMPOSE_DATA
350
3A94
  3
AcDbVariableDictionary
350
7B
  0
DICTIONARY
  5
18F9
330
2
100
AcDbDictionary
280
     1
281
     1
  3
ACAD_LAYERFILTERS
360
38B1
  3
ACAD_LAYERSTATES
360
1A6B
  3
ACLYDICTIONARY
360
38B0
  0
DICTIONARY
  5
3A47
330
10
100
AcDbDictionary
280
     1
281
     1
  3
ADSK_XREC_LAYER_RECONCILED
360
3A48
  0
DICTIONARY
  5
3A49
330
30
100
AcDbDictionary
280
     1
281
     1
  3
ADSK_XREC_LAYER_RECONCILED
360
3A4A
  0
DICTIONARY
  5
3A4B
330
31
100
AcDbDictionary
280
     1
281
     1
  3
ADSK_XREC_LAYER_RECONCILED
360
3A4C
  0
DICTIONARY
  5
3A4D
330
32
100
AcDbDictionary
280
     1
281
     1
  3
ADSK_XREC_LAYER_RECONCILED
360
3A4E
  0
DICTIONARY
  5
3A4F
330
33
100
AcDbDictionary
280
     1
281
     1
  3
ADSK_XREC_LAYER_RECONCILED
360
3A50
  0
DICTIONARY
  5
3A51
330
34
100
AcDbDictionary
280
     1
281
     1
  3
ADSK_XREC_LAYER_RECONCILED
360
3A52
  0
DICTIONARY
  5
3A53
330
35
100
AcDbDictionary
280
     1
281
     1
  3
ADSK_XREC_LAYER_RECONCILED
360
3A54
  0
DICTIONARY
  5
3A55
330
36
100
AcDbDictionary
280
     1
281
     1
  3
ADSK_XREC_LAYER_RECONCILED
360
3A56
  0
DICTIONARY
  5
429
330
1F
100
AcDbDictionary
280
     1
281
     1
  3
ACAD_SORTENTS
360
42A
  0
XRECORD
  5
3A1F
102
{ACAD_REACTORS
330
C
102
}
330
C
100
AcDbXrecord
280
     1
300
ACD
300
2017
300
ACD_F_S
  0
DICTIONARY
  5
312
102
{ACAD_REACTORS
330
C
102
}
330
C
100
AcDbDictionary
281
     1
  0
DICTIONARY
  5
3A12
102
{ACAD_REACTORS
330
C
102
}
330
C
100
AcDbDictionary
281
     1
  3
Metric50
350
3A13
  0
DICTIONARY
  5
D
102
{ACAD_REACTORS
330
C
102
}
330
C
100
AcDbDictionary
281
     1
  0
DICTIONARY
  5
1A
102
{ACAD_REACTORS
330
C
102
}
330
C
100
AcDbDictionary
281
     1
  3
Model
350
22
  3
布局1
350
1E
  3
布局2
350
26
1001
AcadStringInfo
1000
MIFCodePage
1070
     5
  0
DICTIONARY
  5
311
102
{ACAD_REACTORS
330
C
102
}
330
C
100
AcDbDictionary
281
     1
  3
ByBlock
350
39D2
  3
ByLayer
350
39CA
  3
Global
350
39DA
  0
DICTIONARY
  5
3A0D
102
{ACAD_REACTORS
330
C
102
}
330
C
100
AcDbDictionary
281
     1
  3
Standard
350
3A0E
  0
DICTIONARY
  5
17
102
{ACAD_REACTORS
330
C
102
}
330
C
100
AcDbDictionary
281
     1
  3
Standard
350
18
  0
DICTIONARY
  5
19
102
{ACAD_REACTORS
330
C
102
}
330
C
100
AcDbDictionary
281
     1
  0
ACDBDICTIONARYWDFLT
  5
E
102
{ACAD_REACTORS
330
C
102
}
330
C
100
AcDbDictionary
281
     1
  3
Normal
350
F
100
AcDbDictionaryWithDefault
340
F
  0
DICTIONARY
  5
39FB
102
{ACAD_REACTORS
330
C
102
}
330
C
100
AcDbDictionary
281
     1
  3
A0
350
39FC
  3
A1
350
39FD
  3
A2
350
39FE
  3
A3
350
39FF
  3
A4
350
3A00
  3
A5
350
3A01
  3
A6
350
3A02
  3
A7
350
3A03
  3
A8
350
3A04
  3
A9
350
3A05
  3
B0
350
3A06
  3
B1
350
3A07
  3
B2
350
3A08
  3
B3
350
3A09
  3
B4
350
3A0A
  3
B5
350
3A0B
  3
B6
350
3A0C
  0
DICTIONARY
  5
3A0F
102
{ACAD_REACTORS
330
C
102
}
330
C
100
AcDbDictionary
281
     1
  3
Metric50
350
3A11
  0
DICTIONARY
  5
313
102
{ACAD_REACTORS
330
C
102
}
330
C
100
AcDbDictionary
281
     1
  3
Standard
350
314
  0
DICTIONARY
  5
39E2
102
{ACAD_REACTORS
330
C
102
}
330
C
100
AcDbDictionary
281
     1
  3
2dWireframe
350
39E8
  3
Basic
350
39E7
  3
Brighten
350
39EE
  3
ColorChange
350
39F2
  3
Conceptual
350
39EB
  3
Dim
350
39ED
  3
EdgeColorOff
350
39FA
  3
Facepattern
350
39F1
  3
Flat
350
39E3
  3
FlatWithEdges
350
39E4
  3
Gouraud
350
39E5
  3
GouraudWithEdges
350
39E6
  3
Hidden
350
39EA
  3
JitterOff
350
39F8
  3
Linepattern
350
39F0
  3
OverhangOff
350
39F9
  3
Realistic
350
39EC
  3
Shaded
350
39F7
  3
Shaded with edges
350
39F6
  3
Shades of Gray
350
39F3
  3
Sketchy
350
39F4
  3
Thicken
350
39EF
  3
Wireframe
350
39E9
  3
X-Ray
350
39F5
  0
XRECORD
  5
2CB9
102
{ACAD_REACTORS
330
C
102
}
330
C
100
AcDbXrecord
280
     1
 90
   990106
  3

 60
     0
 61
     0
 62
     1
 63
     3
 64
     0
 65
     0
 66
     0
 67
     3
 68
     1
 69
     0
 70
     0
 71
     0
 72
     0
 40
0.0
170
     0
  0
XRECORD
  5
3A94
102
{ACAD_REACTORS
330
C
102
}
330
C
100
AcDbXrecord
280
     1
 90
        1
330
314
330
3A11
330
3A13
  0
DICTIONARY
  5
7B
102
{ACAD_REACTORS
330
C
102
}
330
C
100
AcDbDictionary
281
     1
  3
CANNOSCALE
350
3A83
  3
CMLEADERSTYLE
350
3A7F
  3
CTABLESTYLE
350
369
  3
CVIEWDETAILSTYLE
350
3A80
  3
CVIEWSECTIONSTYLE
350
3A81
  3
DIMASSOC
350
79F
  3
LAYEREVAL
350
3A85
  3
LAYERNOTIFY
350
3A86
  3
LIGHTINGUNITS
350
3A84
  3
MSLTSCALE
350
3A82
  3
PROJECTNAME
350
7A0
  3
SORTENTS
350
7C
  0
DICTIONARY
  5
38B1
102
{ACAD_REACTORS
330
18F9
102
}
330
18F9
100
AcDbDictionary
281
     1
  0
DICTIONARY
  5
1A6B
102
{ACAD_REACTORS
330
18F9
102
}
330
18F9
100
AcDbDictionary
281
     1
  0
DICTIONARY
  5
38B0
102
{ACAD_REACTORS
330
18F9
102
}
330
18F9
100
AcDbDictionary
281
     1
1001
ACAD
1000
<All
  0
XRECORD
  5
3A48
102
{ACAD_REACTORS
330
3A47
102
}
330
3A47
100
AcDbXrecord
280
     1
290
     1
  0
XRECORD
  5
3A4A
102
{ACAD_REACTORS
330
3A49
102
}
330
3A49
100
AcDbXrecord
280
     1
290
     1
  0
XRECORD
  5
3A4C
102
{ACAD_REACTORS
330
3A4B
102
}
330
3A4B
100
AcDbXrecord
280
     1
290
     1
  0
XRECORD
  5
3A4E
102
{ACAD_REACTORS
330
3A4D
102
}
330
3A4D
100
AcDbXrecord
280
     1
290
     1
  0
XRECORD
  5
3A50
102
{ACAD_REACTORS
330
3A4F
102
}
330
3A4F
100
AcDbXrecord
280
     1
290
     1
  0
XRECORD
  5
3A52
102
{ACAD_REACTORS
330
3A51
102
}
330
3A51
100
AcDbXrecord
280
     1
290
     1
  0
XRECORD
  5
3A54
102
{ACAD_REACTORS
330
3A53
102
}
330
3A53
100
AcDbXrecord
280
     1
290
     1
  0
XRECORD
  5
3A56
102
{ACAD_REACTORS
330
3A55
102
}
330
3A55
100
AcDbXrecord
280
     1
290
     1
  0
SORTENTSTABLE
  5
42A
102
{ACAD_REACTORS
330
429
102
}
330
429
100
AcDbSortentsTable
330
1F
331
32AC
  5
32AC
331
32AD
  5
32AD
331
3398
  5
3398
331
32AE
  5
32AE
331
3399
  5
3399
331
32FA
  5
32FA
331
32AF
  5
32AF
331
339A
  5
339A
331
339B
  5
339B
331
332B
  5
332B
331
32AB
  5
32AB
331
3316
  5
3316
331
3330
  5
3330
331
32B6
  5
32B6
331
3317
  5
3317
331
3310
  5
3310
331
3331
  5
3331
331
32B7
  5
32B7
331
3266
  5
3266
331
3311
  5
3311
331
3267
  5
3267
331
3312
  5
3312
331
32B1
  5
32B1
331
32B2
  5
32B2
331
3313
  5
3313
331
32B3
  5
32B3
331
3304
  5
3304
331
3306
  5
3306
331
3319
  5
3319
331
3300
  5
3300
331
3268
  5
3268
331
3302
  5
3302
331
330C
  5
330C
331
330D
  5
330D
331
32E4
  5
32E4
331
3354
  5
3354
331
330E
  5
330E
331
330F
  5
330F
331
32D4
  5
32D4
331
3308
  5
3308
331
32D5
  5
32D5
331
330A
  5
330A
331
330B
  5
330B
331
32E2
  5
32E2
331
32D0
  5
32D0
331
32D1
  5
32D1
331
32FC
  5
32FC
331
339C
  5
339C
331
332C
  5
332C
331
332D
  5
332D
331
32FE
  5
32FE
  0
ACDBDETAILVIEWSTYLE
  5
3A13
102
{ACAD_XDICTIONARY
360
3A92
102
}
102
{ACAD_REACTORS
330
3A12
102
}
330
3A12
100
AcDbModelDocViewStyle
 70
     0
  3
Metric50
290
     0
100
AcDbDetailViewStyle
 70
     0
 71
     0
 90
        3
 71
     1
340
11
 62
   256
 40
5.0
340
0
 62
   256
 40
5.0
300

 40
0.0
280
     1
 71
     2
340
16
 90
       25
 62
   256
 71
     3
340
11
 62
   256
 40
5.0
 90
        0
 40
15.0
 90
        1
300
%<\AcVar ViewDetailId>% (%<\AcVar ViewScale \f "%sn">%)
 71
     4
340
16
 90
       25
 62
   256
340
16
 90
       25
 62
   256
280
     0
  0
LAYOUT
  5
22
102
{ACAD_REACTORS
330
1A
102
}
330
1A
100
AcDbPlotSettings
  1

  2
EPSON Stylus Photo EX3
  4
A3
  6

 40
3.757083177566528
 41
14.76376056671142
 42
3.757080078125
 43
3.757080078125
 44
296.9683227539062
 45
420.0172119140624
 46
5.99
 47
0.0
 48
-1.905851810083277
 49
-1.258532069413263
140
421.4694477477794
141
291.3447751382891
142
1.0
143
1.054493464584678
 70
 11956
 72
     1
 73
     1
 74
     4
  7

 75
     0
147
0.9483226151561389
 76
     0
 77
     2
 78
   300
148
1.905851810083277
149
1.258532069413263
100
AcDbLayout
  1
Model
 70
     1
 71
     0
 10
0.0
 20
0.0
 11
12.0
 21
9.0
 12
0.0
 22
0.0
 32
0.0
 14
0.0
 24
0.0
 34
0.0
 15
0.0
 25
0.0
 35
0.0
146
0.0
 13
0.0
 23
0.0
 33
0.0
 16
1.0
 26
0.0
 36
0.0
 17
0.0
 27
1.0
 37
0.0
 76
     0
330
1F
331
39C8
  0
LAYOUT
  5
1E
102
{ACAD_XDICTIONARY
360
1A6D
102
}
102
{ACAD_REACTORS
330
1A
102
}
330
1A
100
AcDbPlotSettings
  1

  2
none_device
  4
ISO_A4_(210.00_x_297.00_MM)
  6

 40
7.5
 41
20.0
 42
7.5
 43
20.0
 44
210.0
 45
297.0
 46
0.0
 47
0.0
 48
0.0
 49
0.0
140
0.0
141
0.0
142
1.0
143
1.0
 70
   688
 72
     1
 73
     1
 74
     5
  7

 75
    16
147
1.0
 76
     0
 77
     2
 78
   300
148
0.0
149
0.0
100
AcDbLayout
  1
布局1
 70
     1
 71
     1
 10
-20.0
 20
-7.5
 11
277.0
 21
202.5
 12
0.0
 22
0.0
 32
0.0
 14
25.69999999999999
 24
19.5
 34
0.0
 15
231.3
 25
175.5
 35
0.0
146
0.0
 13
0.0
 23
0.0
 33
0.0
 16
1.0
 26
0.0
 36
0.0
 17
0.0
 27
1.0
 37
0.0
 76
     0
330
1B
331
1A64
1001
ACAD_PSEXT
1000
无
1000
无
1000
不可用
1000
在选择新的绘图仪配置名称之前，不能打印该布局。
1070
     0
1001
AcadStringInfo
1000
MIFCodePage
1070
     5
  0
LAYOUT
  5
26
102
{ACAD_REACTORS
330
1A
102
}
330
1A
100
AcDbPlotSettings
  1

  2
Star AR-3200+
  4

  6

 40
0.0
 41
0.0
 42
0.0
 43
0.0
 44
0.0
 45
0.0
 46
0.0
 47
0.0
 48
0.0
 49
0.0
140
0.0
141
0.0
142
1.0
143
1.0
 70
   688
 72
     0
 73
     0
 74
     5
  7

 75
    16
147
1.0
 76
     0
 77
     2
 78
   300
148
0.0
149
0.0
100
AcDbLayout
  1
布局2
 70
     1
 71
     2
 10
0.0
 20
0.0
 11
12.0
 21
9.0
 12
0.0
 22
0.0
 32
0.0
 14
0.0
 24
0.0
 34
0.0
 15
0.0
 25
0.0
 35
0.0
146
0.0
 13
0.0
 23
0.0
 33
0.0
 16
1.0
 26
0.0
 36
0.0
 17
0.0
 27
1.0
 37
0.0
 76
     0
330
23
1001
AcadStringInfo
1000
MIFCodePage
1070
     5
  0
MATERIAL
  5
39D2
102
{ACAD_XDICTIONARY
360
39D3
102
}
102
{ACAD_REACTORS
330
311
102
}
330
311
100
AcDbMaterial
  1
ByBlock
 72
     0
 43
0.0008202099737533
 43
0.0
 43
0.0
 43
0.0
 43
0.0
 43
0.0008202099737533
 43
0.0
 43
0.0
 43
0.0
 43
0.0
 43
1.0
 43
0.0
 43
0.0
 43
0.0
 43
0.0
 43
1.0
 77
     0
 47
0.0008202099737533
 47
0.0
 47
0.0
 47
0.0
 47
0.0
 47
0.0008202099737533
 47
0.0
 47
0.0
 47
0.0
 47
0.0
 47
1.0
 47
0.0
 47
0.0
 47
0.0
 47
0.0
 47
1.0
171
     0
 49
0.0008202099737533
 49
0.0
 49
0.0
 49
0.0
 49
0.0
 49
0.0008202099737533
 49
0.0
 49
0.0
 49
0.0
 49
0.0
 49
1.0
 49
0.0
 49
0.0
 49
0.0
 49
0.0
 49
1.0
175
     0
142
0.0008202099737533
142
0.0
142
0.0
142
0.0
142
0.0
142
0.0008202099737533
142
0.0
142
0.0
142
0.0
142
0.0
142
1.0
142
0.0
142
0.0
142
0.0
142
0.0
142
1.0
179
     0
144
0.0008202099737533
144
0.0
144
0.0
144
0.0
144
0.0
144
0.0008202099737533
144
0.0
144
0.0
144
0.0
144
0.0
144
1.0
144
0.0
144
0.0
144
0.0
144
0.0
144
1.0
147
0.0008202099737533
147
0.0
147
0.0
147
0.0
147
0.0
147
0.0008202099737533
147
0.0
147
0.0
147
0.0
147
0.0
147
1.0
147
0.0
147
0.0
147
0.0
147
0.0
147
1.0
  0
MATERIAL
  5
39CA
102
{ACAD_XDICTIONARY
360
39CB
102
}
102
{ACAD_REACTORS
330
311
102
}
330
311
100
AcDbMaterial
  1
ByLayer
 72
     0
 43
0.0008202099737533
 43
0.0
 43
0.0
 43
0.0
 43
0.0
 43
0.0008202099737533
 43
0.0
 43
0.0
 43
0.0
 43
0.0
 43
1.0
 43
0.0
 43
0.0
 43
0.0
 43
0.0
 43
1.0
 77
     0
 47
0.0008202099737533
 47
0.0
 47
0.0
 47
0.0
 47
0.0
 47
0.0008202099737533
 47
0.0
 47
0.0
 47
0.0
 47
0.0
 47
1.0
 47
0.0
 47
0.0
 47
0.0
 47
0.0
 47
1.0
171
     0
 49
0.0008202099737533
 49
0.0
 49
0.0
 49
0.0
 49
0.0
 49
0.0008202099737533
 49
0.0
 49
0.0
 49
0.0
 49
0.0
 49
1.0
 49
0.0
 49
0.0
 49
0.0
 49
0.0
 49
1.0
175
     0
142
0.0008202099737533
142
0.0
142
0.0
142
0.0
142
0.0
142
0.0008202099737533
142
0.0
142
0.0
142
0.0
142
0.0
142
1.0
142
0.0
142
0.0
142
0.0
142
0.0
142
1.0
179
     0
144
0.0008202099737533
144
0.0
144
0.0
144
0.0
144
0.0
144
0.0008202099737533
144
0.0
144
0.0
144
0.0
144
0.0
144
1.0
144
0.0
144
0.0
144
0.0
144
0.0
144
1.0
147
0.0008202099737533
147
0.0
147
0.0
147
0.0
147
0.0
147
0.0008202099737533
147
0.0
147
0.0
147
0.0
147
0.0
147
1.0
147
0.0
147
0.0
147
0.0
147
0.0
147
1.0
  0
MATERIAL
  5
39DA
102
{ACAD_XDICTIONARY
360
39DB
102
}
102
{ACAD_REACTORS
330
311
102
}
330
311
100
AcDbMaterial
  1
Global
 72
     0
 43
0.0008202099737533
 43
0.0
 43
0.0
 43
0.0
 43
0.0
 43
0.0008202099737533
 43
0.0
 43
0.0
 43
0.0
 43
0.0
 43
1.0
 43
0.0
 43
0.0
 43
0.0
 43
0.0
 43
1.0
 77
     0
 47
0.0008202099737533
 47
0.0
 47
0.0
 47
0.0
 47
0.0
 47
0.0008202099737533
 47
0.0
 47
0.0
 47
0.0
 47
0.0
 47
1.0
 47
0.0
 47
0.0
 47
0.0
 47
0.0
 47
1.0
171
     0
 49
0.0008202099737533
 49
0.0
 49
0.0
 49
0.0
 49
0.0
 49
0.0008202099737533
 49
0.0
 49
0.0
 49
0.0
 49
0.0
 49
1.0
 49
0.0
 49
0.0
 49
0.0
 49
0.0
 49
1.0
175
     0
142
0.0008202099737533
142
0.0
142
0.0
142
0.0
142
0.0
142
0.0008202099737533
142
0.0
142
0.0
142
0.0
142
0.0
142
1.0
142
0.0
142
0.0
142
0.0
142
0.0
142
1.0
179
     0
144
0.0008202099737533
144
0.0
144
0.0
144
0.0
144
0.0
144
0.0008202099737533
144
0.0
144
0.0
144
0.0
144
0.0
144
1.0
144
0.0
144
0.0
144
0.0
144
0.0
144
1.0
147
0.0008202099737533
147
0.0
147
0.0
147
0.0
147
0.0
147
0.0008202099737533
147
0.0
147
0.0
147
0.0
147
0.0
147
1.0
147
0.0
147
0.0
147
0.0
147
0.0
147
1.0
  0
MLEADERSTYLE
  5
3A0E
102
{ACAD_REACTORS
330
3A0D
102
}
330
3A0D
100
AcDbMLeaderStyle
179
     2
170
     2
171
     1
172
     0
 90
        2
 40
0.0
 41
0.0
173
     1
 91
-1056964608
340
14
 92
       -2
290
     1
 42
2.0
291
     1
 43
0.36
  3
Standard
 44
4.0
300

342
11
174
     1
178
     6
175
     1
176
     0
 93
-1056964608
 45
4.0
292
     0
297
     0
 46
4.0
 94
-1056964608
 47
1.0
 49
1.0
140
1.0
293
     1
141
0.0
294
     1
177
     0
142
1.0
295
     1
296
     0
143
0.125
271
     0
272
     9
273
     9
298
     1
  0
MLINESTYLE
  5
18
102
{ACAD_REACTORS
330
17
102
}
330
17
100
AcDbMlineStyle
  2
STANDARD
 70
     0
  3

 62
   256
 51
90.0
 52
90.0
 71
     2
 49
0.5
 62
   256
  6
BYLAYER
 49
-0.5
 62
   256
  6
BYLAYER
  0
ACDBPLACEHOLDER
  5
F
102
{ACAD_REACTORS
330
E
102
}
330
E
  0
SCALE
  5
39FC
102
{ACAD_REACTORS
330
39FB
102
}
330
39FB
100
AcDbScale
 70
     0
300
1:1
140
1.0
141
1.0
290
     1
  0
SCALE
  5
39FD
102
{ACAD_REACTORS
330
39FB
102
}
330
39FB
100
AcDbScale
 70
     0
300
1:2
140
1.0
141
2.0
290
     0
  0
SCALE
  5
39FE
102
{ACAD_REACTORS
330
39FB
102
}
330
39FB
100
AcDbScale
 70
     0
300
1:4
140
1.0
141
4.0
290
     0
  0
SCALE
  5
39FF
102
{ACAD_REACTORS
330
39FB
102
}
330
39FB
100
AcDbScale
 70
     0
300
1:5
140
1.0
141
5.0
290
     0
  0
SCALE
  5
3A00
102
{ACAD_REACTORS
330
39FB
102
}
330
39FB
100
AcDbScale
 70
     0
300
1:8
140
1.0
141
8.0
290
     0
  0
SCALE
  5
3A01
102
{ACAD_REACTORS
330
39FB
102
}
330
39FB
100
AcDbScale
 70
     0
300
1:10
140
1.0
141
10.0
290
     0
  0
SCALE
  5
3A02
102
{ACAD_REACTORS
330
39FB
102
}
330
39FB
100
AcDbScale
 70
     0
300
1:16
140
1.0
141
16.0
290
     0
  0
SCALE
  5
3A03
102
{ACAD_REACTORS
330
39FB
102
}
330
39FB
100
AcDbScale
 70
     0
300
1:20
140
1.0
141
20.0
290
     0
  0
SCALE
  5
3A04
102
{ACAD_REACTORS
330
39FB
102
}
330
39FB
100
AcDbScale
 70
     0
300
1:30
140
1.0
141
30.0
290
     0
  0
SCALE
  5
3A05
102
{ACAD_REACTORS
330
39FB
102
}
330
39FB
100
AcDbScale
 70
     0
300
1:40
140
1.0
141
40.0
290
     0
  0
SCALE
  5
3A06
102
{ACAD_REACTORS
330
39FB
102
}
330
39FB
100
AcDbScale
 70
     0
300
1:50
140
1.0
141
50.0
290
     0
  0
SCALE
  5
3A07
102
{ACAD_REACTORS
330
39FB
102
}
330
39FB
100
AcDbScale
 70
     0
300
1:100
140
1.0
141
100.0
290
     0
  0
SCALE
  5
3A08
102
{ACAD_REACTORS
330
39FB
102
}
330
39FB
100
AcDbScale
 70
     0
300
2:1
140
2.0
141
1.0
290
     0
  0
SCALE
  5
3A09
102
{ACAD_REACTORS
330
39FB
102
}
330
39FB
100
AcDbScale
 70
     0
300
4:1
140
4.0
141
1.0
290
     0
  0
SCALE
  5
3A0A
102
{ACAD_REACTORS
330
39FB
102
}
330
39FB
100
AcDbScale
 70
     0
300
8:1
140
8.0
141
1.0
290
     0
  0
SCALE
  5
3A0B
102
{ACAD_REACTORS
330
39FB
102
}
330
39FB
100
AcDbScale
 70
     0
300
10:1
140
10.0
141
1.0
290
     0
  0
SCALE
  5
3A0C
102
{ACAD_REACTORS
330
39FB
102
}
330
39FB
100
AcDbScale
 70
     0
300
100:1
140
100.0
141
1.0
290
     0
  0
ACDBSECTIONVIEWSTYLE
  5
3A11
102
{ACAD_XDICTIONARY
360
3A90
102
}
102
{ACAD_REACTORS
330
3A0F
102
}
330
3A0F
100
AcDbModelDocViewStyle
 70
     0
  3
Metric50
290
     0
100
AcDbSectionViewStyle
 70
     0
 71
     0
 90
      102
 71
     1
340
11
 62
   256
 40
5.0
340
0
340
0
 62
   256
 40
5.0
300
I, O, Q, S, X, Z
 40
10.0
 90
        0
 40
2.5
 90
        0
 71
     2
340
16
 90
       25
 62
   256
340
16
 90
       50
 62
   256
 40
5.0
 40
2.5
 40
5.0
 71
     3
340
11
 62
   256
 40
5.0
 90
        0
 40
15.0
 90
        1
300
%<\AcVar ViewSectionStartId>%-%<\AcVar ViewSectionEndId>% (%<\AcVar ViewScale \f "%sn">%)
 71
     4
 62
   256
 62
   257
300
ANSI31
 40
1.0
 90
        0
290
     0
290
     0
 90
        6
 40
0.0
 40
1.570796326794896
 40
0.2617993877991494
 40
1.308996938995747
 40
-0.2617993877991494
 40
1.832595714594046
  0
TABLESTYLE
  5
314
102
{ACAD_XDICTIONARY
360
3A8E
102
}
102
{ACAD_REACTORS
330
313
102
}
330
313
100
AcDbTableStyle
280
     0
  3
Standard
 70
     0
 71
     0
 40
1.5
 41
1.5
280
     0
281
     0
  7
Standard
140
4.5
170
     2
 62
     0
 63
     7
283
     0
 90
        4
 91
        0
  1

274
    -2
284
     1
 64
     0
275
    -2
285
     1
 65
     0
276
    -2
286
     1
 66
     0
277
    -2
287
     1
 67
     0
278
    -2
288
     1
 68
     0
279
    -2
289
     1
 69
     0
  7
Standard
140
6.0
170
     5
 62
     0
 63
     7
283
     0
 90
        4
 91
        0
  1

274
    -2
284
     1
 64
     0
275
    -2
285
     1
 65
     0
276
    -2
286
     1
 66
     0
277
    -2
287
     1
 67
     0
278
    -2
288
     1
 68
     0
279
    -2
289
     1
 69
     0
  7
Standard
140
4.5
170
     5
 62
     0
 63
     7
283
     0
 90
        4
 91
        0
  1

274
    -2
284
     1
 64
     0
275
    -2
285
     1
 65
     0
276
    -2
286
     1
 66
     0
277
    -2
287
     1
 67
     0
278
    -2
288
     1
 68
     0
279
    -2
289
     1
 69
     0
  0
VISUALSTYLE
  5
39E8
102
{ACAD_REACTORS
330
39E2
102
}
330
39E2
100
AcDbVisualStyle
  2
2dWireframe
 70
     4
177
     3
291
     0
 70
    58
 90
        0
176
     1
 90
        2
176
     1
 90
        0
176
     1
 90
        0
176
     1
 40
0.6
176
     1
 40
30.0
176
     1
 62
     7
420
 16777215
176
     1
 90
        1
176
     1
 90
        4
176
     1
 62
     7
176
     1
 62
   257
176
     1
 90
        1
176
     1
 90
        1
176
     1
 40
1.0
176
     1
 90
        0
176
     1
 62
   257
176
     1
 40
1.0
176
     1
 90
        1
176
     1
 90
        6
176
     1
 90
        2
176
     1
 62
     7
176
     1
 90
        5
176
     1
 90
        0
176
     1
 90
        0
176
     1
290
     0
176
     1
 90
        1
176
     1
 40
0.0
176
     1
 90
        0
176
     1
290
     1
176
     1
290
     1
176
     1
290
     0
176
     1
290
     0
176
     1
290
     0
176
     1
290
     0
176
     1
290
     0
176
     1
290
     0
176
     1
290
     0
176
     1
 90
       50
176
     1
 40
0.0
176
     1
 40
1.0
176
     1
 90
        0
176
     1
 62
    18
420
        0
176
     1
 90
       50
176
     1
 90
        3
176
     1
 62
     5
420
      255
176
     1
290
     0
176
     1
 90
       50
176
     1
 90
       50
176
     1
 90
       50
176
     1
290
     0
176
     1
 90
       50
176
     1
 62
   256
176
     0
 40
1.0
176
     0
 90
        2
176
     1
  1
strokes_ogs.tif
176
     1
290
     0
176
     1
 40
1.0
176
     1
 40
1.0
176
     1
  0
VISUALSTYLE
  5
39E7
102
{ACAD_REACTORS
330
39E2
102
}
330
39E2
100
AcDbVisualStyle
  2
Basic
 70
     7
177
     3
291
     1
 70
    58
 90
        1
176
     1
 90
        0
176
     1
 90
        1
176
     1
 90
        0
176
     1
 40
0.6
176
     1
 40
30.0
176
     1
 62
     7
420
 16777215
176
     1
 90
        0
176
     1
 90
        4
176
     1
 62
     7
176
     1
 62
   257
176
     1
 90
        1
176
     1
 90
        1
176
     1
 40
1.0
176
     1
 90
        8
176
     1
 62
     7
176
     1
 40
1.0
176
     1
 90
        1
176
     1
 90
        6
176
     1
 90
        2
176
     1
 62
     7
176
     1
 90
        5
176
     1
 90
        0
176
     1
 90
        0
176
     1
290
     0
176
     1
 90
        1
176
     1
 40
0.0
176
     1
 90
        0
176
     1
290
     0
176
     1
290
     1
176
     1
290
     1
176
     1
290
     0
176
     1
290
     0
176
     1
290
     0
176
     1
290
     0
176
     1
290
     0
176
     1
290
     0
176
     1
 90
       50
176
     1
 40
0.0
176
     1
 40
1.0
176
     1
 90
        0
176
     1
 62
    18
420
        0
176
     1
 90
       50
176
     1
 90
        3
176
     1
 62
     5
420
      255
176
     1
290
     0
176
     1
 90
       50
176
     1
 90
       50
176
     1
 90
       50
176
     1
290
     0
176
     1
 90
       50
176
     1
 62
   256
176
     0
 40
1.0
176
     0
 90
        2
176
     1
  1
strokes_ogs.tif
176
     1
290
     0
176
     1
 40
1.0
176
     1
 40
1.0
176
     1
  0
VISUALSTYLE
  5
39EE
102
{ACAD_REACTORS
330
39E2
102
}
330
39E2
100
AcDbVisualStyle
  2
Brighten
 70
    12
177
     3
291
     1
 70
    58
 90
        2
176
     1
 90
        2
176
     1
 90
        0
176
     1
 90
        0
176
     1
 40
0.6
176
     1
 40
30.0
176
     1
 62
     7
420
 16777215
176
     1
 90
        1
176
     1
 90
        4
176
     1
 62
     7
176
     1
 62
   257
176
     1
 90
        1
176
     1
 90
        1
176
     1
 40
1.0
176
     1
 90
        8
176
     1
 62
     7
176
     1
 40
1.0
176
     1
 90
        1
176
     1
 90
        6
176
     1
 90
        2
176
     1
 62
     7
176
     1
 90
        5
176
     1
 90
        0
176
     1
 90
        0
176
     1
290
     0
176
     1
 90
        1
176
     1
 40
50.0
176
     1
 90
        0
176
     1
290
     0
176
     1
290
     1
176
     1
290
     1
176
     1
290
     0
176
     1
290
     0
176
     1
290
     0
176
     1
290
     0
176
     1
290
     0
176
     1
290
     0
176
     1
 90
       50
176
     1
 40
0.0
176
     1
 40
1.0
176
     1
 90
        0
176
     1
 62
    18
420
        0
176
     1
 90
       50
176
     1
 90
        3
176
     1
 62
     5
420
      255
176
     1
290
     0
176
     1
 90
       50
176
     1
 90
       50
176
     1
 90
       50
176
     1
290
     0
176
     1
 90
       50
176
     1
 62
   256
176
     0
 40
1.0
176
     0
 90
        2
176
     1
  1
strokes_ogs.tif
176
     1
290
     0
176
     1
 40
1.0
176
     1
 40
1.0
176
     1
  0
VISUALSTYLE
  5
39F2
102
{ACAD_REACTORS
330
39E2
102
}
330
39E2
100
AcDbVisualStyle
  2
ColorChange
 70
    16
177
     3
291
     1
 70
    58
 90
        2
176
     1
 90
        2
176
     1
 90
        3
176
     1
 90
        0
176
     1
 40
0.6
176
     1
 40
30.0
176
     1
 62
     8
420
  8421504
176
     1
 90
        1
176
     1
 90
        4
176
     1
 62
     7
176
     1
 62
   257
176
     1
 90
        1
176
     1
 90
        1
176
     1
 40
1.0
176
     1
 90
        8
176
     1
 62
     8
420
  8421504
176
     1
 40
1.0
176
     1
 90
        1
176
     1
 90
        6
176
     1
 90
        2
176
     1
 62
     7
176
     1
 90
        5
176
     1
 90
        0
176
     1
 90
        0
176
     1
290
     0
176
     1
 90
        1
176
     1
 40
0.0
176
     1
 90
        0
176
     1
290
     0
176
     1
290
     1
176
     1
290
     1
176
     1
290
     0
176
     1
290
     0
176
     1
290
     0
176
     1
290
     0
176
     1
290
     0
176
     1
290
     0
176
     1
 90
       50
176
     1
 40
0.0
176
     1
 40
1.0
176
     1
 90
        0
176
     1
 62
    18
420
        0
176
     1
 90
       50
176
     1
 90
        3
176
     1
 62
     5
420
      255
176
     1
290
     0
176
     1
 90
       50
176
     1
 90
       50
176
     1
 90
       50
176
     1
290
     0
176
     1
 90
       50
176
     1
 62
   256
176
     0
 40
1.0
176
     0
 90
        2
176
     1
  1
strokes_ogs.tif
176
     1
290
     0
176
     1
 40
1.0
176
     1
 40
1.0
176
     1
  0
VISUALSTYLE
  5
39EB
102
{ACAD_REACTORS
330
39E2
102
}
330
39E2
100
AcDbVisualStyle
  2
Conceptual
 70
     9
177
     3
291
     0
 70
    58
 90
        3
176
     1
 90
        2
176
     1
 90
        0
176
     1
 90
        0
176
     1
 40
0.6
176
     1
 40
30.0
176
     1
 62
     7
420
 16777215
176
     1
 90
        2
176
     1
 90
        2
176
     1
 62
     7
176
     1
 62
   257
176
     1
 90
        1
176
     1
 90
        1
176
     1
 40
179.0
176
     1
 90
        8
176
     1
 62
     7
176
     1
 40
1.0
176
     1
 90
        1
176
     1
 90
        6
176
     1
 90
        2
176
     1
 62
     7
176
     1
 90
        3
176
     1
 90
        0
176
     1
 90
        0
176
     1
290
     0
176
     1
 90
        1
176
     1
 40
0.0
176
     1
 90
        0
176
     1
290
     0
176
     1
290
     1
176
     1
290
     1
176
     1
290
     0
176
     1
290
     0
176
     1
290
     0
176
     1
290
     0
176
     1
290
     0
176
     1
290
     0
176
     1
 90
       50
176
     1
 40
0.0
176
     1
 40
1.0
176
     1
 90
        0
176
     1
 62
    18
420
        0
176
     1
 90
       50
176
     1
 90
        3
176
     1
 62
     5
420
      255
176
     1
290
     0
176
     1
 90
       50
176
     1
 90
       50
176
     1
 90
       50
176
     1
290
     0
176
     1
 90
       50
176
     1
 62
   256
176
     0
 40
1.0
176
     0
 90
        2
176
     1
  1
strokes_ogs.tif
176
     1
290
     0
176
     1
 40
1.0
176
     1
 40
1.0
176
     1
  0
VISUALSTYLE
  5
39ED
102
{ACAD_REACTORS
330
39E2
102
}
330
39E2
100
AcDbVisualStyle
  2
Dim
 70
    11
177
     3
291
     1
 70
    58
 90
        2
176
     1
 90
        2
176
     1
 90
        0
176
     1
 90
        0
176
     1
 40
0.6
176
     1
 40
30.0
176
     1
 62
     7
420
 16777215
176
     1
 90
        1
176
     1
 90
        4
176
     1
 62
     7
176
     1
 62
   257
176
     1
 90
        1
176
     1
 90
        1
176
     1
 40
1.0
176
     1
 90
        8
176
     1
 62
     7
176
     1
 40
1.0
176
     1
 90
        1
176
     1
 90
        6
176
     1
 90
        2
176
     1
 62
     7
176
     1
 90
        5
176
     1
 90
        0
176
     1
 90
        0
176
     1
290
     0
176
     1
 90
        1
176
     1
 40
-50.0
176
     1
 90
        0
176
     1
290
     0
176
     1
290
     1
176
     1
290
     1
176
     1
290
     0
176
     1
290
     0
176
     1
290
     0
176
     1
290
     0
176
     1
290
     0
176
     1
290
     0
176
     1
 90
       50
176
     1
 40
0.0
176
     1
 40
1.0
176
     1
 90
        0
176
     1
 62
    18
420
        0
176
     1
 90
       50
176
     1
 90
        3
176
     1
 62
     5
420
      255
176
     1
290
     0
176
     1
 90
       50
176
     1
 90
       50
176
     1
 90
       50
176
     1
290
     0
176
     1
 90
       50
176
     1
 62
   256
176
     0
 40
1.0
176
     0
 90
        2
176
     1
  1
strokes_ogs.tif
176
     1
290
     0
176
     1
 40
1.0
176
     1
 40
1.0
176
     1
  0
VISUALSTYLE
  5
39FA
102
{ACAD_REACTORS
330
39E2
102
}
330
39E2
100
AcDbVisualStyle
  2
EdgeColorOff
 70
    22
177
     3
291
     1
 70
    58
 90
        2
176
     0
 90
        2
176
     0
 90
        0
176
     0
 90
        0
176
     0
 40
0.6
176
     0
 40
30.0
176
     0
 62
     7
420
 16777215
176
     0
 90
        1
176
     0
 90
        4
176
     0
 62
     7
176
     0
 62
   257
176
     0
 90
        1
176
     0
 90
        1
176
     0
 40
1.0
176
     0
 90
        8
176
     2
 62
     7
176
     0
 40
1.0
176
     0
 90
        1
176
     0
 90
        6
176
     0
 90
        2
176
     0
 62
     7
176
     0
 90
        5
176
     0
 90
        0
176
     0
 90
        0
176
     0
290
     0
176
     0
 90
        1
176
     0
 40
0.0
176
     0
 90
        0
176
     0
290
     0
176
     0
290
     1
176
     0
290
     1
176
     0
290
     0
176
     0
290
     0
176
     0
290
     0
176
     0
290
     0
176
     0
290
     0
176
     0
290
     0
176
     0
 90
       50
176
     0
 40
0.0
176
     0
 40
1.0
176
     0
 90
        0
176
     0
 62
    18
420
        0
176
     0
 90
       50
176
     0
 90
        3
176
     0
 62
     5
420
      255
176
     0
290
     0
176
     0
 90
       50
176
     0
 90
       50
176
     0
 90
       50
176
     0
290
     0
176
     0
 90
       50
176
     0
 62
   256
176
     0
 40
1.0
176
     0
 90
        2
176
     0
  1
strokes_ogs.tif
176
     0
290
     0
176
     0
 40
1.0
176
     0
 40
1.0
176
     0
  0
VISUALSTYLE
  5
39F1
102
{ACAD_REACTORS
330
39E2
102
}
330
39E2
100
AcDbVisualStyle
  2
Facepattern
 70
    15
177
     3
291
     1
 70
    58
 90
        2
176
     1
 90
        2
176
     1
 90
        0
176
     1
 90
        0
176
     1
 40
0.6
176
     1
 40
30.0
176
     1
 62
     7
420
 16777215
176
     1
 90
        1
176
     1
 90
        4
176
     1
 62
     7
176
     1
 62
   257
176
     1
 90
        1
176
     1
 90
        1
176
     1
 40
1.0
176
     1
 90
        8
176
     1
 62
     7
176
     1
 40
1.0
176
     1
 90
        1
176
     1
 90
        6
176
     1
 90
        2
176
     1
 62
     7
176
     1
 90
        5
176
     1
 90
        0
176
     1
 90
        0
176
     1
290
     0
176
     1
 90
        1
176
     1
 40
0.0
176
     1
 90
        0
176
     1
290
     0
176
     1
290
     1
176
     1
290
     1
176
     1
290
     0
176
     1
290
     0
176
     1
290
     0
176
     1
290
     0
176
     1
290
     0
176
     1
290
     0
176
     1
 90
       50
176
     1
 40
0.0
176
     1
 40
1.0
176
     1
 90
        0
176
     1
 62
    18
420
        0
176
     1
 90
       50
176
     1
 90
        3
176
     1
 62
     5
420
      255
176
     1
290
     0
176
     1
 90
       50
176
     1
 90
       50
176
     1
 90
       50
176
     1
290
     0
176
     1
 90
       50
176
     1
 62
   256
176
     0
 40
1.0
176
     0
 90
        2
176
     1
  1
strokes_ogs.tif
176
     1
290
     0
176
     1
 40
1.0
176
     1
 40
1.0
176
     1
  0
VISUALSTYLE
  5
39E3
102
{ACAD_REACTORS
330
39E2
102
}
330
39E2
100
AcDbVisualStyle
  2
Flat
 70
     0
177
     3
291
     1
 70
    58
 90
        2
176
     1
 90
        1
176
     1
 90
        1
176
     1
 90
        2
176
     1
 40
0.6
176
     1
 40
30.0
176
     1
 62
     7
420
 16777215
176
     1
 90
        0
176
     1
 90
        0
176
     1
 62
     7
176
     1
 62
   257
176
     1
 90
        1
176
     1
 90
        1
176
     1
 40
1.0
176
     1
 90
        8
176
     1
 62
     7
176
     1
 40
1.0
176
     1
 90
        1
176
     1
 90
        6
176
     1
 90
        2
176
     1
 62
     7
176
     1
 90
        5
176
     1
 90
        0
176
     1
 90
        0
176
     1
290
     0
176
     1
 90
       13
176
     1
 40
0.0
176
     1
 90
        0
176
     1
290
     0
176
     1
290
     1
176
     1
290
     1
176
     1
290
     0
176
     1
290
     0
176
     1
290
     0
176
     1
290
     0
176
     1
290
     0
176
     1
290
     0
176
     1
 90
       50
176
     1
 40
0.0
176
     1
 40
1.0
176
     1
 90
        0
176
     1
 62
    18
420
        0
176
     1
 90
       50
176
     1
 90
        3
176
     1
 62
     5
420
      255
176
     1
290
     0
176
     1
 90
       50
176
     1
 90
       50
176
     1
 90
       50
176
     1
290
     0
176
     1
 90
       50
176
     1
 62
   256
176
     0
 40
1.0
176
     0
 90
        2
176
     1
  1
strokes_ogs.tif
176
     1
290
     0
176
     1
 40
1.0
176
     1
 40
1.0
176
     1
  0
VISUALSTYLE
  5
39E4
102
{ACAD_REACTORS
330
39E2
102
}
330
39E2
100
AcDbVisualStyle
  2
FlatWithEdges
 70
     1
177
     3
291
     1
 70
    58
 90
        2
176
     1
 90
        1
176
     1
 90
        1
176
     1
 90
        2
176
     1
 40
0.6
176
     1
 40
30.0
176
     1
 62
     7
420
 16777215
176
     1
 90
        1
176
     1
 90
        0
176
     1
 62
     7
176
     1
 62
   257
176
     1
 90
        1
176
     1
 90
        1
176
     1
 40
1.0
176
     1
 90
        0
176
     1
 62
   257
176
     1
 40
1.0
176
     1
 90
        1
176
     1
 90
        6
176
     1
 90
        2
176
     1
 62
     7
176
     1
 90
        5
176
     1
 90
        0
176
     1
 90
        0
176
     1
290
     0
176
     1
 90
       13
176
     1
 40
0.0
176
     1
 90
        0
176
     1
290
     0
176
     1
290
     1
176
     1
290
     1
176
     1
290
     0
176
     1
290
     0
176
     1
290
     0
176
     1
290
     0
176
     1
290
     0
176
     1
290
     0
176
     1
 90
       50
176
     1
 40
0.0
176
     1
 40
1.0
176
     1
 90
        0
176
     1
 62
    18
420
        0
176
     1
 90
       50
176
     1
 90
        3
176
     1
 62
     5
420
      255
176
     1
290
     0
176
     1
 90
       50
176
     1
 90
       50
176
     1
 90
       50
176
     1
290
     0
176
     1
 90
       50
176
     1
 62
   256
176
     0
 40
1.0
176
     0
 90
        2
176
     1
  1
strokes_ogs.tif
176
     1
290
     0
176
     1
 40
1.0
176
     1
 40
1.0
176
     1
  0
VISUALSTYLE
  5
39E5
102
{ACAD_REACTORS
330
39E2
102
}
330
39E2
100
AcDbVisualStyle
  2
Gouraud
 70
     2
177
     3
291
     1
 70
    58
 90
        2
176
     1
 90
        2
176
     1
 90
        1
176
     1
 90
        2
176
     1
 40
0.6
176
     1
 40
30.0
176
     1
 62
     7
420
 16777215
176
     1
 90
        0
176
     1
 90
        0
176
     1
 62
     7
176
     1
 62
   257
176
     1
 90
        1
176
     1
 90
        1
176
     1
 40
1.0
176
     1
 90
        0
176
     1
 62
     7
176
     1
 40
1.0
176
     1
 90
        1
176
     1
 90
        6
176
     1
 90
        2
176
     1
 62
     7
176
     1
 90
        5
176
     1
 90
        0
176
     1
 90
        0
176
     1
290
     0
176
     1
 90
       13
176
     1
 40
0.0
176
     1
 90
        0
176
     1
290
     0
176
     1
290
     1
176
     1
290
     1
176
     1
290
     0
176
     1
290
     0
176
     1
290
     0
176
     1
290
     0
176
     1
290
     0
176
     1
290
     0
176
     1
 90
       50
176
     1
 40
0.0
176
     1
 40
1.0
176
     1
 90
        0
176
     1
 62
    18
420
        0
176
     1
 90
       50
176
     1
 90
        3
176
     1
 62
     5
420
      255
176
     1
290
     0
176
     1
 90
       50
176
     1
 90
       50
176
     1
 90
       50
176
     1
290
     0
176
     1
 90
       50
176
     1
 62
   256
176
     0
 40
1.0
176
     0
 90
        2
176
     1
  1
strokes_ogs.tif
176
     1
290
     0
176
     1
 40
1.0
176
     1
 40
1.0
176
     1
  0
VISUALSTYLE
  5
39E6
102
{ACAD_REACTORS
330
39E2
102
}
330
39E2
100
AcDbVisualStyle
  2
GouraudWithEdges
 70
     3
177
     3
291
     1
 70
    58
 90
        2
176
     1
 90
        2
176
     1
 90
        1
176
     1
 90
        2
176
     1
 40
0.6
176
     1
 40
30.0
176
     1
 62
     7
420
 16777215
176
     1
 90
        1
176
     1
 90
        0
176
     1
 62
     7
176
     1
 62
   257
176
     1
 90
        1
176
     1
 90
        1
176
     1
 40
1.0
176
     1
 90
        0
176
     1
 62
   257
176
     1
 40
1.0
176
     1
 90
        1
176
     1
 90
        6
176
     1
 90
        2
176
     1
 62
     7
176
     1
 90
        5
176
     1
 90
        0
176
     1
 90
        0
176
     1
290
     0
176
     1
 90
       13
176
     1
 40
0.0
176
     1
 90
        0
176
     1
290
     0
176
     1
290
     1
176
     1
290
     1
176
     1
290
     0
176
     1
290
     0
176
     1
290
     0
176
     1
290
     0
176
     1
290
     0
176
     1
290
     0
176
     1
 90
       50
176
     1
 40
0.0
176
     1
 40
1.0
176
     1
 90
        0
176
     1
 62
    18
420
        0
176
     1
 90
       50
176
     1
 90
        3
176
     1
 62
     5
420
      255
176
     1
290
     0
176
     1
 90
       50
176
     1
 90
       50
176
     1
 90
       50
176
     1
290
     0
176
     1
 90
       50
176
     1
 62
   256
176
     0
 40
1.0
176
     0
 90
        2
176
     1
  1
strokes_ogs.tif
176
     1
290
     0
176
     1
 40
1.0
176
     1
 40
1.0
176
     1
  0
VISUALSTYLE
  5
39EA
102
{ACAD_REACTORS
330
39E2
102
}
330
39E2
100
AcDbVisualStyle
  2
Hidden
 70
     6
177
     3
291
     0
 70
    58
 90
        1
176
     1
 90
        2
176
     1
 90
        2
176
     1
 90
        0
176
     1
 40
0.6
176
     1
 40
30.0
176
     1
 62
     7
420
 16777215
176
     1
 90
        2
176
     1
 90
        2
176
     1
 62
     7
176
     1
 62
   257
176
     1
 90
        2
176
     1
 90
        1
176
     1
 40
40.0
176
     1
 90
        0
176
     1
 62
   257
176
     1
 40
1.0
176
     1
 90
        1
176
     1
 90
        6
176
     1
 90
        2
176
     1
 62
     7
176
     1
 90
        3
176
     1
 90
        0
176
     1
 90
        0
176
     1
290
     0
176
     1
 90
        1
176
     1
 40
0.0
176
     1
 90
        0
176
     1
290
     0
176
     1
290
     1
176
     1
290
     1
176
     1
290
     0
176
     1
290
     0
176
     1
290
     0
176
     1
290
     0
176
     1
290
     0
176
     1
290
     0
176
     1
 90
       50
176
     1
 40
0.0
176
     1
 40
1.0
176
     1
 90
        0
176
     1
 62
    18
420
        0
176
     1
 90
       50
176
     1
 90
        3
176
     1
 62
     5
420
      255
176
     1
290
     0
176
     1
 90
       50
176
     1
 90
       50
176
     1
 90
       50
176
     1
290
     0
176
     1
 90
       50
176
     1
 62
   256
176
     0
 40
1.0
176
     0
 90
        2
176
     1
  1
strokes_ogs.tif
176
     1
290
     0
176
     1
 40
1.0
176
     1
 40
1.0
176
     1
  0
VISUALSTYLE
  5
39F8
102
{ACAD_REACTORS
330
39E2
102
}
330
39E2
100
AcDbVisualStyle
  2
JitterOff
 70
    20
177
     3
291
     1
 70
    58
 90
        2
176
     0
 90
        2
176
     0
 90
        0
176
     0
 90
        0
176
     0
 40
0.6
176
     0
 40
30.0
176
     0
 62
     7
420
 16777215
176
     0
 90
        1
176
     0
 90
        4
176
     0
 62
     7
176
     0
 62
   257
176
     0
 90
        1
176
     0
 90
        1
176
     0
 40
1.0
176
     0
 90
       10
176
     2
 62
     7
176
     0
 40
1.0
176
     0
 90
        1
176
     0
 90
        6
176
     0
 90
        2
176
     0
 62
     7
176
     0
 90
        5
176
     0
 90
        0
176
     0
 90
        0
176
     0
290
     0
176
     0
 90
        1
176
     0
 40
0.0
176
     0
 90
        0
176
     0
290
     0
176
     0
290
     1
176
     0
290
     1
176
     0
290
     0
176
     0
290
     0
176
     0
290
     0
176
     0
290
     0
176
     0
290
     0
176
     0
290
     0
176
     0
 90
       50
176
     0
 40
0.0
176
     0
 40
1.0
176
     0
 90
        0
176
     0
 62
    18
420
        0
176
     0
 90
       50
176
     0
 90
        3
176
     0
 62
     5
420
      255
176
     0
290
     0
176
     0
 90
       50
176
     0
 90
       50
176
     0
 90
       50
176
     0
290
     0
176
     0
 90
       50
176
     0
 62
   256
176
     0
 40
1.0
176
     0
 90
        2
176
     0
  1
strokes_ogs.tif
176
     0
290
     0
176
     0
 40
1.0
176
     0
 40
1.0
176
     0
  0
VISUALSTYLE
  5
39F0
102
{ACAD_REACTORS
330
39E2
102
}
330
39E2
100
AcDbVisualStyle
  2
Linepattern
 70
    14
177
     3
291
     1
 70
    58
 90
        2
176
     1
 90
        2
176
     1
 90
        0
176
     1
 90
        0
176
     1
 40
0.6
176
     1
 40
30.0
176
     1
 62
     7
420
 16777215
176
     1
 90
        1
176
     1
 90
        4
176
     1
 62
     7
176
     1
 62
   257
176
     1
 90
        7
176
     1
 90
        7
176
     1
 40
1.0
176
     1
 90
        8
176
     1
 62
     7
176
     1
 40
1.0
176
     1
 90
        1
176
     1
 90
        6
176
     1
 90
        2
176
     1
 62
     7
176
     1
 90
        5
176
     1
 90
        0
176
     1
 90
        0
176
     1
290
     0
176
     1
 90
        1
176
     1
 40
0.0
176
     1
 90
        0
176
     1
290
     0
176
     1
290
     1
176
     1
290
     1
176
     1
290
     0
176
     1
290
     0
176
     1
290
     0
176
     1
290
     0
176
     1
290
     0
176
     1
290
     0
176
     1
 90
       50
176
     1
 40
0.0
176
     1
 40
1.0
176
     1
 90
        0
176
     1
 62
    18
420
        0
176
     1
 90
       50
176
     1
 90
        3
176
     1
 62
     5
420
      255
176
     1
290
     0
176
     1
 90
       50
176
     1
 90
       50
176
     1
 90
       50
176
     1
290
     0
176
     1
 90
       50
176
     1
 62
   256
176
     0
 40
1.0
176
     0
 90
        2
176
     1
  1
strokes_ogs.tif
176
     1
290
     0
176
     1
 40
1.0
176
     1
 40
1.0
176
     1
  0
VISUALSTYLE
  5
39F9
102
{ACAD_REACTORS
330
39E2
102
}
330
39E2
100
AcDbVisualStyle
  2
OverhangOff
 70
    21
177
     3
291
     1
 70
    58
 90
        2
176
     0
 90
        2
176
     0
 90
        0
176
     0
 90
        0
176
     0
 40
0.6
176
     0
 40
30.0
176
     0
 62
     7
420
 16777215
176
     0
 90
        1
176
     0
 90
        4
176
     0
 62
     7
176
     0
 62
   257
176
     0
 90
        1
176
     0
 90
        1
176
     0
 40
1.0
176
     0
 90
        9
176
     2
 62
     7
176
     0
 40
1.0
176
     0
 90
        1
176
     0
 90
        6
176
     0
 90
        2
176
     0
 62
     7
176
     0
 90
        5
176
     0
 90
        0
176
     0
 90
        0
176
     0
290
     0
176
     0
 90
        1
176
     0
 40
0.0
176
     0
 90
        0
176
     0
290
     0
176
     0
290
     1
176
     0
290
     1
176
     0
290
     0
176
     0
290
     0
176
     0
290
     0
176
     0
290
     0
176
     0
290
     0
176
     0
290
     0
176
     0
 90
       50
176
     0
 40
0.0
176
     0
 40
1.0
176
     0
 90
        0
176
     0
 62
    18
420
        0
176
     0
 90
       50
176
     0
 90
        3
176
     0
 62
     5
420
      255
176
     0
290
     0
176
     0
 90
       50
176
     0
 90
       50
176
     0
 90
       50
176
     0
290
     0
176
     0
 90
       50
176
     0
 62
   256
176
     0
 40
1.0
176
     0
 90
        2
176
     0
  1
strokes_ogs.tif
176
     0
290
     0
176
     0
 40
1.0
176
     0
 40
1.0
176
     0
  0
VISUALSTYLE
  5
39EC
102
{ACAD_REACTORS
330
39E2
102
}
330
39E2
100
AcDbVisualStyle
  2
Realistic
 70
     8
177
     3
291
     0
 70
    58
 90
        2
176
     1
 90
        3
176
     1
 90
        0
176
     1
 90
        2
176
     1
 40
0.6
176
     1
 40
30.0
176
     1
 62
     7
420
 16777215
176
     1
 90
        0
176
     1
 90
        0
176
     1
 62
     7
176
     1
 62
   257
176
     1
 90
        1
176
     1
 90
        1
176
     1
 40
1.0
176
     1
 90
        8
176
     1
 62
   257
176
     1
 40
1.0
176
     1
 90
        1
176
     1
 90
        6
176
     1
 90
        2
176
     1
 62
     7
176
     1
 90
        3
176
     1
 90
        0
176
     1
 90
        0
176
     1
290
     0
176
     1
 90
       13
176
     1
 40
0.0
176
     1
 90
        0
176
     1
290
     0
176
     1
290
     1
176
     1
290
     1
176
     1
290
     0
176
     1
290
     0
176
     1
290
     0
176
     1
290
     0
176
     1
290
     0
176
     1
290
     0
176
     1
 90
       50
176
     1
 40
0.0
176
     1
 40
1.0
176
     1
 90
        0
176
     1
 62
    18
420
        0
176
     1
 90
       50
176
     1
 90
        3
176
     1
 62
     5
420
      255
176
     1
290
     0
176
     1
 90
       50
176
     1
 90
       50
176
     1
 90
       50
176
     1
290
     0
176
     1
 90
       50
176
     1
 62
   256
176
     0
 40
1.0
176
     0
 90
        2
176
     1
  1
strokes_ogs.tif
176
     1
290
     0
176
     1
 40
1.0
176
     1
 40
1.0
176
     1
  0
VISUALSTYLE
  5
39F7
102
{ACAD_REACTORS
330
39E2
102
}
330
39E2
100
AcDbVisualStyle
  2
Shaded
 70
    27
177
     3
291
     0
 70
    58
 90
        2
176
     1
 90
        2
176
     1
 90
        1
176
     1
 90
        2
176
     1
 40
0.6
176
     1
 40
30.0
176
     1
 62
     7
420
 16777215
176
     1
 90
        0
176
     1
 90
        4
176
     1
 62
     7
176
     1
 62
   257
176
     1
 90
        1
176
     1
 90
        1
176
     1
 40
1.0
176
     1
 90
        8
176
     1
 62
   257
176
     1
 40
1.0
176
     1
 90
        1
176
     1
 90
        6
176
     1
 90
        2
176
     1
 62
     8
420
  7895160
176
     1
 90
        3
176
     1
 90
        0
176
     1
 90
        0
176
     1
290
     0
176
     1
 90
        5
176
     1
 40
0.0
176
     1
 90
        0
176
     1
290
     0
176
     1
290
     1
176
     1
290
     1
176
     1
290
     0
176
     1
290
     0
176
     1
290
     0
176
     1
290
     0
176
     1
290
     0
176
     1
290
     0
176
     1
 90
       50
176
     1
 40
0.0
176
     1
 40
1.0
176
     1
 90
        0
176
     1
 62
    18
420
        0
176
     1
 90
       50
176
     1
 90
        3
176
     1
 62
     5
420
      255
176
     1
290
     0
176
     1
 90
       50
176
     1
 90
       50
176
     1
 90
       50
176
     1
290
     0
176
     1
 90
       50
176
     1
 62
   256
176
     0
 40
1.0
176
     0
 90
        2
176
     1
  1
strokes_ogs.tif
176
     1
290
     0
176
     1
 40
1.0
176
     1
 40
1.0
176
     1
  0
VISUALSTYLE
  5
39F6
102
{ACAD_REACTORS
330
39E2
102
}
330
39E2
100
AcDbVisualStyle
  2
Shaded with edges
 70
    26
177
     3
291
     0
 70
    58
 90
        2
176
     1
 90
        2
176
     1
 90
        1
176
     1
 90
        2
176
     1
 40
0.6
176
     1
 40
30.0
176
     1
 62
     7
420
 16777215
176
     1
 90
        1
176
     1
 90
        2
176
     1
 62
     7
176
     1
 62
   257
176
     1
 90
        2
176
     1
 90
        1
176
     1
 40
1.0
176
     1
 90
        8
176
     1
 62
   257
176
     1
 40
1.0
176
     1
 90
        1
176
     1
 90
        6
176
     1
 90
        2
176
     1
 62
     7
176
     1
 90
        3
176
     1
 90
        0
176
     1
 90
        0
176
     1
290
     0
176
     1
 90
        5
176
     1
 40
0.0
176
     1
 90
        0
176
     1
290
     0
176
     1
290
     1
176
     1
290
     1
176
     1
290
     0
176
     1
290
     0
176
     1
290
     0
176
     1
290
     0
176
     1
290
     0
176
     1
290
     0
176
     1
 90
       50
176
     1
 40
0.0
176
     1
 40
1.0
176
     1
 90
        0
176
     1
 62
    18
420
        0
176
     1
 90
       50
176
     1
 90
        3
176
     1
 62
     5
420
      255
176
     1
290
     0
176
     1
 90
       50
176
     1
 90
       50
176
     1
 90
       50
176
     1
290
     0
176
     1
 90
       50
176
     1
 62
   256
176
     0
 40
1.0
176
     0
 90
        2
176
     1
  1
strokes_ogs.tif
176
     1
290
     0
176
     1
 40
1.0
176
     1
 40
1.0
176
     1
  0
VISUALSTYLE
  5
39F3
102
{ACAD_REACTORS
330
39E2
102
}
330
39E2
100
AcDbVisualStyle
  2
Shades of Gray
 70
    23
177
     3
291
     0
 70
    58
 90
        2
176
     1
 90
        2
176
     1
 90
        3
176
     1
 90
        0
176
     1
 40
0.6
176
     1
 40
30.0
176
     1
 62
     7
420
 16777215
176
     1
 90
        2
176
     1
 90
        2
176
     1
 62
     7
176
     1
 62
     7
176
     1
 90
        1
176
     1
 90
        1
176
     1
 40
40.0
176
     1
 90
        8
176
     1
 62
     7
176
     1
 40
1.0
176
     1
 90
        1
176
     1
 90
        6
176
     1
 90
        2
176
     1
 62
     7
176
     1
 90
        3
176
     1
 90
        0
176
     1
 90
        0
176
     1
290
     0
176
     1
 90
        1
176
     1
 40
0.0
176
     1
 90
        0
176
     1
290
     0
176
     1
290
     1
176
     1
290
     1
176
     1
290
     0
176
     1
290
     0
176
     1
290
     0
176
     1
290
     0
176
     1
290
     0
176
     1
290
     0
176
     1
 90
       50
176
     1
 40
0.0
176
     1
 40
1.0
176
     1
 90
        0
176
     1
 62
    18
420
        0
176
     1
 90
       50
176
     1
 90
        3
176
     1
 62
     5
420
      255
176
     1
290
     0
176
     1
 90
       50
176
     1
 90
       50
176
     1
 90
       50
176
     1
290
     0
176
     1
 90
       50
176
     1
 62
   256
176
     0
 40
1.0
176
     0
 90
        2
176
     1
  1
strokes_ogs.tif
176
     1
290
     0
176
     1
 40
1.0
176
     1
 40
1.0
176
     1
  0
VISUALSTYLE
  5
39F4
102
{ACAD_REACTORS
330
39E2
102
}
330
39E2
100
AcDbVisualStyle
  2
Sketchy
 70
    24
177
     3
291
     0
 70
    58
 90
        1
176
     1
 90
        2
176
     1
 90
        2
176
     1
 90
        0
176
     1
 40
0.6
176
     1
 40
30.0
176
     1
 62
     7
420
 16777215
176
     1
 90
        2
176
     1
 90
        2
176
     1
 62
     7
176
     1
 62
     7
176
     1
 90
        1
176
     1
 90
        1
176
     1
 40
40.0
176
     1
 90
       11
176
     1
 62
     7
176
     1
 40
1.0
176
     1
 90
        1
176
     1
 90
        6
176
     1
 90
        2
176
     1
 62
     7
176
     1
 90
        6
176
     1
 90
        0
176
     1
 90
        0
176
     1
290
     0
176
     1
 90
        1
176
     1
 40
0.0
176
     1
 90
        0
176
     1
290
     0
176
     1
290
     1
176
     1
290
     1
176
     1
290
     0
176
     1
290
     0
176
     1
290
     0
176
     1
290
     0
176
     1
290
     0
176
     1
290
     0
176
     1
 90
       50
176
     1
 40
0.0
176
     1
 40
1.0
176
     1
 90
        0
176
     1
 62
    18
420
        0
176
     1
 90
       50
176
     1
 90
        3
176
     1
 62
     5
420
      255
176
     1
290
     0
176
     1
 90
       50
176
     1
 90
       50
176
     1
 90
       50
176
     1
290
     0
176
     1
 90
       50
176
     1
 62
   256
176
     0
 40
1.0
176
     0
 90
        2
176
     1
  1
strokes_ogs.tif
176
     1
290
     0
176
     1
 40
1.0
176
     1
 40
1.0
176
     1
  0
VISUALSTYLE
  5
39EF
102
{ACAD_REACTORS
330
39E2
102
}
330
39E2
100
AcDbVisualStyle
  2
Thicken
 70
    13
177
     3
291
     1
 70
    58
 90
        2
176
     1
 90
        2
176
     1
 90
        0
176
     1
 90
        0
176
     1
 40
0.6
176
     1
 40
30.0
176
     1
 62
     7
420
 16777215
176
     1
 90
        1
176
     1
 90
        4
176
     1
 62
     7
176
     1
 62
   257
176
     1
 90
        1
176
     1
 90
        1
176
     1
 40
1.0
176
     1
 90
       12
176
     1
 62
     7
176
     1
 40
1.0
176
     1
 90
        1
176
     1
 90
        6
176
     1
 90
        2
176
     1
 62
     7
176
     1
 90
        5
176
     1
 90
        0
176
     1
 90
        0
176
     1
290
     0
176
     1
 90
        1
176
     1
 40
0.0
176
     1
 90
        0
176
     1
290
     0
176
     1
290
     1
176
     1
290
     1
176
     1
290
     0
176
     1
290
     0
176
     1
290
     0
176
     1
290
     0
176
     1
290
     0
176
     1
290
     0
176
     1
 90
       50
176
     1
 40
0.0
176
     1
 40
1.0
176
     1
 90
        0
176
     1
 62
    18
420
        0
176
     1
 90
       50
176
     1
 90
        3
176
     1
 62
     5
420
      255
176
     1
290
     0
176
     1
 90
       50
176
     1
 90
       50
176
     1
 90
       50
176
     1
290
     0
176
     1
 90
       50
176
     1
 62
   256
176
     0
 40
1.0
176
     0
 90
        2
176
     1
  1
strokes_ogs.tif
176
     1
290
     0
176
     1
 40
1.0
176
     1
 40
1.0
176
     1
  0
VISUALSTYLE
  5
39E9
102
{ACAD_REACTORS
330
39E2
102
}
330
39E2
100
AcDbVisualStyle
  2
Wireframe
 70
     5
177
     3
291
     0
 70
    58
 90
        0
176
     1
 90
        2
176
     1
 90
        0
176
     1
 90
        0
176
     1
 40
0.6
176
     1
 40
30.0
176
     1
 62
     7
420
 16777215
176
     1
 90
        1
176
     1
 90
        4
176
     1
 62
     7
176
     1
 62
   257
176
     1
 90
        1
176
     1
 90
        1
176
     1
 40
1.0
176
     1
 90
        0
176
     1
 62
   257
176
     1
 40
1.0
176
     1
 90
        1
176
     1
 90
        6
176
     1
 90
        2
176
     1
 62
     7
176
     1
 90
        3
176
     1
 90
        0
176
     1
 90
        0
176
     1
290
     0
176
     1
 90
        1
176
     1
 40
0.0
176
     1
 90
        0
176
     1
290
     0
176
     1
290
     1
176
     1
290
     1
176
     1
290
     0
176
     1
290
     0
176
     1
290
     0
176
     1
290
     0
176
     1
290
     0
176
     1
290
     0
176
     1
 90
       50
176
     1
 40
0.0
176
     1
 40
1.0
176
     1
 90
        0
176
     1
 62
    18
420
        0
176
     1
 90
       50
176
     1
 90
        3
176
     1
 62
     5
420
      255
176
     1
290
     0
176
     1
 90
       50
176
     1
 90
       50
176
     1
 90
       50
176
     1
290
     0
176
     1
 90
       50
176
     1
 62
   256
176
     0
 40
1.0
176
     0
 90
        2
176
     1
  1
strokes_ogs.tif
176
     1
290
     0
176
     1
 40
1.0
176
     1
 40
1.0
176
     1
  0
VISUALSTYLE
  5
39F5
102
{ACAD_REACTORS
330
39E2
102
}
330
39E2
100
AcDbVisualStyle
  2
X-Ray
 70
    25
177
     3
291
     0
 70
    58
 90
        2
176
     1
 90
        2
176
     1
 90
        1
176
     1
 90
        1
176
     1
 40
0.5
176
     1
 40
30.0
176
     1
 62
     7
420
 16777215
176
     1
 90
        1
176
     1
 90
        0
176
     1
 62
     7
176
     1
 62
   257
176
     1
 90
        1
176
     1
 90
        1
176
     1
 40
1.0
176
     1
 90
        8
176
     1
 62
     7
176
     1
 40
1.0
176
     1
 90
        1
176
     1
 90
        6
176
     1
 90
        2
176
     1
 62
     7
176
     1
 90
        3
176
     1
 90
        0
176
     1
 90
        0
176
     1
290
     0
176
     1
 90
       13
176
     1
 40
0.0
176
     1
 90
        0
176
     1
290
     0
176
     1
290
     1
176
     1
290
     1
176
     1
290
     0
176
     1
290
     0
176
     1
290
     0
176
     1
290
     0
176
     1
290
     0
176
     1
290
     0
176
     1
 90
       50
176
     1
 40
0.0
176
     1
 40
1.0
176
     1
 90
        0
176
     1
 62
    18
420
        0
176
     1
 90
       50
176
     1
 90
        3
176
     1
 62
     5
420
      255
176
     1
290
     0
176
     1
 90
       50
176
     1
 90
       50
176
     1
 90
       50
176
     1
290
     0
176
     1
 90
       50
176
     1
 62
   256
176
     0
 40
1.0
176
     0
 90
        2
176
     1
  1
strokes_ogs.tif
176
     1
290
     0
176
     1
 40
1.0
176
     1
 40
1.0
176
     1
  0
DICTIONARYVAR
  5
3A83
102
{ACAD_REACTORS
330
7B
102
}
330
7B
100
DictionaryVariables
280
     0
  1
1:1
  0
DICTIONARYVAR
  5
3A7F
102
{ACAD_REACTORS
330
7B
102
}
330
7B
100
DictionaryVariables
280
     0
  1
STANDARD
  0
DICTIONARYVAR
  5
369
102
{ACAD_REACTORS
330
7B
102
}
330
7B
100
DictionaryVariables
280
     0
  1
STANDARD
  0
DICTIONARYVAR
  5
3A80
102
{ACAD_REACTORS
330
7B
102
}
330
7B
100
DictionaryVariables
280
     0
  1
Metric50
  0
DICTIONARYVAR
  5
3A81
102
{ACAD_REACTORS
330
7B
102
}
330
7B
100
DictionaryVariables
280
     0
  1
Metric50
  0
DICTIONARYVAR
  5
79F
102
{ACAD_REACTORS
330
7B
102
}
330
7B
100
DictionaryVariables
280
     0
  1
1
  0
DICTIONARYVAR
  5
3A85
102
{ACAD_REACTORS
330
7B
102
}
330
7B
100
DictionaryVariables
280
     0
  1
1
  0
DICTIONARYVAR
  5
3A86
102
{ACAD_REACTORS
330
7B
102
}
330
7B
100
DictionaryVariables
280
     0
  1
15
  0
DICTIONARYVAR
  5
3A84
102
{ACAD_REACTORS
330
7B
102
}
330
7B
100
DictionaryVariables
280
     0
  1
0
  0
DICTIONARYVAR
  5
3A82
102
{ACAD_REACTORS
330
7B
102
}
330
7B
100
DictionaryVariables
280
     0
  1
0
  0
DICTIONARYVAR
  5
7A0
102
{ACAD_REACTORS
330
7B
102
}
330
7B
100
DictionaryVariables
280
     0
  1

  0
DICTIONARYVAR
  5
7C
102
{ACAD_REACTORS
330
7B
102
}
330
7B
100
DictionaryVariables
280
     0
  1
96
  0
DICTIONARY
  5
3A92
330
3A13
100
AcDbDictionary
280
     1
281
     1
  3
ACAD_XREC_ROUNDTRIP
360
3A93
  0
DICTIONARY
  5
1A6D
330
1E
100
AcDbDictionary
280
     1
281
     1
  0
DICTIONARY
  5
39D3
330
39D2
100
AcDbDictionary
280
     1
281
     1
  3
BUMPTILE
360
39D5
  3
DIFFUSETILE
360
39D4
  3
OPACITYTILE
360
39D8
  3
REFLECTIONTILE
360
39D7
  3
REFRACTIONTILE
360
39D9
  3
SPECULARTILE
360
39D6
  0
DICTIONARY
  5
39CB
330
39CA
100
AcDbDictionary
280
     1
281
     1
  3
BUMPTILE
360
39CD
  3
DIFFUSETILE
360
39CC
  3
OPACITYTILE
360
39D0
  3
REFLECTIONTILE
360
39CF
  3
REFRACTIONTILE
360
39D1
  3
SPECULARTILE
360
39CE
  0
DICTIONARY
  5
39DB
330
39DA
100
AcDbDictionary
280
     1
281
     1
  3
BUMPTILE
360
39DD
  3
DIFFUSETILE
360
39DC
  3
OPACITYTILE
360
39E0
  3
REFLECTIONTILE
360
39DF
  3
REFRACTIONTILE
360
39E1
  3
SPECULARTILE
360
39DE
  0
DICTIONARY
  5
3A90
330
3A11
100
AcDbDictionary
280
     1
281
     1
  3
ACAD_XREC_ROUNDTRIP
360
3A91
  0
DICTIONARY
  5
3A8E
330
314
100
AcDbDictionary
280
     1
281
     1
  3
ACAD_ROUNDTRIP_2008_TABLESTYLE_CELLSTYLEMAP
360
3A8F
  0
XRECORD
  5
3A93
102
{ACAD_REACTORS
330
3A92
102
}
330
3A92
100
AcDbXrecord
280
     1
102
DISPLAYNAME
  1
Metric50
102
FLAGS
 90
        0
  0
XRECORD
  5
39D5
102
{ACAD_REACTORS
330
39D3
102
}
330
39D3
100
AcDbXrecord
280
     1
270
     1
271
     1
  0
XRECORD
  5
39D4
102
{ACAD_REACTORS
330
39D3
102
}
330
39D3
100
AcDbXrecord
280
     1
270
     1
271
     1
  0
XRECORD
  5
39D8
102
{ACAD_REACTORS
330
39D3
102
}
330
39D3
100
AcDbXrecord
280
     1
270
     1
271
     1
  0
XRECORD
  5
39D7
102
{ACAD_REACTORS
330
39D3
102
}
330
39D3
100
AcDbXrecord
280
     1
270
     1
271
     1
  0
XRECORD
  5
39D9
102
{ACAD_REACTORS
330
39D3
102
}
330
39D3
100
AcDbXrecord
280
     1
270
     1
271
     1
  0
XRECORD
  5
39D6
102
{ACAD_REACTORS
330
39D3
102
}
330
39D3
100
AcDbXrecord
280
     1
270
     1
271
     1
  0
XRECORD
  5
39CD
102
{ACAD_REACTORS
330
39CB
102
}
330
39CB
100
AcDbXrecord
280
     1
270
     1
271
     1
  0
XRECORD
  5
39CC
102
{ACAD_REACTORS
330
39CB
102
}
330
39CB
100
AcDbXrecord
280
     1
270
     1
271
     1
  0
XRECORD
  5
39D0
102
{ACAD_REACTORS
330
39CB
102
}
330
39CB
100
AcDbXrecord
280
     1
270
     1
271
     1
  0
XRECORD
  5
39CF
102
{ACAD_REACTORS
330
39CB
102
}
330
39CB
100
AcDbXrecord
280
     1
270
     1
271
     1
  0
XRECORD
  5
39D1
102
{ACAD_REACTORS
330
39CB
102
}
330
39CB
100
AcDbXrecord
280
     1
270
     1
271
     1
  0
XRECORD
  5
39CE
102
{ACAD_REACTORS
330
39CB
102
}
330
39CB
100
AcDbXrecord
280
     1
270
     1
271
     1
  0
XRECORD
  5
39DD
102
{ACAD_REACTORS
330
39DB
102
}
330
39DB
100
AcDbXrecord
280
     1
270
     1
271
     1
  0
XRECORD
  5
39DC
102
{ACAD_REACTORS
330
39DB
102
}
330
39DB
100
AcDbXrecord
280
     1
270
     1
271
     1
  0
XRECORD
  5
39E0
102
{ACAD_REACTORS
330
39DB
102
}
330
39DB
100
AcDbXrecord
280
     1
270
     1
271
     1
  0
XRECORD
  5
39DF
102
{ACAD_REACTORS
330
39DB
102
}
330
39DB
100
AcDbXrecord
280
     1
270
     1
271
     1
  0
XRECORD
  5
39E1
102
{ACAD_REACTORS
330
39DB
102
}
330
39DB
100
AcDbXrecord
280
     1
270
     1
271
     1
  0
XRECORD
  5
39DE
102
{ACAD_REACTORS
330
39DB
102
}
330
39DB
100
AcDbXrecord
280
     1
270
     1
271
     1
  0
XRECORD
  5
3A91
102
{ACAD_REACTORS
330
3A90
102
}
330
3A90
100
AcDbXrecord
280
     1
102
DISPLAYNAME
  1
Metric50
102
FLAGS
 90
        0
  0
CELLSTYLEMAP
  5
3A8F
102
{ACAD_REACTORS
330
3A8E
102
}
330
3A8E
100
AcDbCellStyleMap
 90
        3
300
CELLSTYLE
  1
TABLEFORMAT_BEGIN
 90
        5
170
     1
 91
        0
 92
    32768
 62
   257
 93
        1
300
CONTENTFORMAT
  1
CONTENTFORMAT_BEGIN
 90
        0
 91
        0
 92
        4
 93
        0
300

 40
0.0
140
1.0
 94
        5
 62
     0
340
11
144
6.0
309
CONTENTFORMAT_END
171
     1
301
MARGIN
  1
CELLMARGIN_BEGIN
 40
1.5
 40
1.5
 40
1.5
 40
1.5
 40
0.18
 40
0.18
309
CELLMARGIN_END
 94
        6
 95
        1
302
GRIDFORMAT
  1
GRIDFORMAT_BEGIN
 90
        0
 91
        1
 62
     0
 92
       -2
340
0
 93
        0
 40
0.045
309
GRIDFORMAT_END
 95
        2
302
GRIDFORMAT
  1
GRIDFORMAT_BEGIN
 90
        0
 91
        1
 62
     0
 92
       -2
340
0
 93
        0
 40
0.045
309
GRIDFORMAT_END
 95
        4
302
GRIDFORMAT
  1
GRIDFORMAT_BEGIN
 90
        0
 91
        1
 62
     0
 92
       -2
340
0
 93
        0
 40
0.045
309
GRIDFORMAT_END
 95
        8
302
GRIDFORMAT
  1
GRIDFORMAT_BEGIN
 90
        0
 91
        1
 62
     0
 92
       -2
340
0
 93
        0
 40
0.045
309
GRIDFORMAT_END
 95
       16
302
GRIDFORMAT
  1
GRIDFORMAT_BEGIN
 90
        0
 91
        1
 62
     0
 92
       -2
340
0
 93
        0
 40
0.045
309
GRIDFORMAT_END
 95
       32
302
GRIDFORMAT
  1
GRIDFORMAT_BEGIN
 90
        0
 91
        1
 62
     0
 92
       -2
340
0
 93
        0
 40
0.045
309
GRIDFORMAT_END
309
TABLEFORMAT_END
  1
CELLSTYLE_BEGIN
 90
        1
 91
        1
300
_TITLE
309
CELLSTYLE_END
300
CELLSTYLE
  1
TABLEFORMAT_BEGIN
 90
        5
170
     1
 91
        0
 92
        0
 62
   257
 93
        1
300
CONTENTFORMAT
  1
CONTENTFORMAT_BEGIN
 90
        0
 91
        0
 92
        4
 93
        0
300

 40
0.0
140
1.0
 94
        5
 62
     0
340
11
144
4.5
309
CONTENTFORMAT_END
171
     1
301
MARGIN
  1
CELLMARGIN_BEGIN
 40
1.5
 40
1.5
 40
1.5
 40
1.5
 40
0.18
 40
0.18
309
CELLMARGIN_END
 94
        6
 95
        1
302
GRIDFORMAT
  1
GRIDFORMAT_BEGIN
 90
        0
 91
        1
 62
     0
 92
       -2
340
0
 93
        0
 40
0.045
309
GRIDFORMAT_END
 95
        2
302
GRIDFORMAT
  1
GRIDFORMAT_BEGIN
 90
        0
 91
        1
 62
     0
 92
       -2
340
0
 93
        0
 40
0.045
309
GRIDFORMAT_END
 95
        4
302
GRIDFORMAT
  1
GRIDFORMAT_BEGIN
 90
        0
 91
        1
 62
     0
 92
       -2
340
0
 93
        0
 40
0.045
309
GRIDFORMAT_END
 95
        8
302
GRIDFORMAT
  1
GRIDFORMAT_BEGIN
 90
        0
 91
        1
 62
     0
 92
       -2
340
0
 93
        0
 40
0.045
309
GRIDFORMAT_END
 95
       16
302
GRIDFORMAT
  1
GRIDFORMAT_BEGIN
 90
        0
 91
        1
 62
     0
 92
       -2
340
0
 93
        0
 40
0.045
309
GRIDFORMAT_END
 95
       32
302
GRIDFORMAT
  1
GRIDFORMAT_BEGIN
 90
        0
 91
        1
 62
     0
 92
       -2
340
0
 93
        0
 40
0.045
309
GRIDFORMAT_END
309
TABLEFORMAT_END
  1
CELLSTYLE_BEGIN
 90
        2
 91
        1
300
_HEADER
309
CELLSTYLE_END
300
CELLSTYLE
  1
TABLEFORMAT_BEGIN
 90
        5
170
     1
 91
        0
 92
        0
 62
   257
 93
        1
300
CONTENTFORMAT
  1
CONTENTFORMAT_BEGIN
 90
        0
 91
        0
 92
        4
 93
        0
300

 40
0.0
140
1.0
 94
        2
 62
     0
340
11
144
4.5
309
CONTENTFORMAT_END
171
     1
301
MARGIN
  1
CELLMARGIN_BEGIN
 40
1.5
 40
1.5
 40
1.5
 40
1.5
 40
0.18
 40
0.18
309
CELLMARGIN_END
 94
        6
 95
        1
302
GRIDFORMAT
  1
GRIDFORMAT_BEGIN
 90
        0
 91
        1
 62
     0
 92
       -2
340
0
 93
        0
 40
0.045
309
GRIDFORMAT_END
 95
        2
302
GRIDFORMAT
  1
GRIDFORMAT_BEGIN
 90
        0
 91
        1
 62
     0
 92
       -2
340
0
 93
        0
 40
0.045
309
GRIDFORMAT_END
 95
        4
302
GRIDFORMAT
  1
GRIDFORMAT_BEGIN
 90
        0
 91
        1
 62
     0
 92
       -2
340
0
 93
        0
 40
0.045
309
GRIDFORMAT_END
 95
        8
302
GRIDFORMAT
  1
GRIDFORMAT_BEGIN
 90
        0
 91
        1
 62
     0
 92
       -2
340
0
 93
        0
 40
0.045
309
GRIDFORMAT_END
 95
       16
302
GRIDFORMAT
  1
GRIDFORMAT_BEGIN
 90
        0
 91
        1
 62
     0
 92
       -2
340
0
 93
        0
 40
0.045
309
GRIDFORMAT_END
 95
       32
302
GRIDFORMAT
  1
GRIDFORMAT_BEGIN
 90
        0
 91
        1
 62
     0
 92
       -2
340
0
 93
        0
 40
0.045
309
GRIDFORMAT_END
309
TABLEFORMAT_END
  1
CELLSTYLE_BEGIN
 90
        3
 91
        2
300
_DATA
309
CELLSTYLE_END
  0
ENDSEC
  0
SECTION
  2
ACDSDATA
 70
     2
 71
     8
  0
ACDSSCHEMA
 90
        0
  1
AcDb_Thumbnail_Schema
  2
AcDbDs::ID
280
    10
 91
        8
  2
Thumbnail_Data
280
    15
 91
        0
101
ACDSRECORD
 95
        0
 90
        1
  2
AcDbDs::TreatedAsObjectData
280
     1
291
     1
101
ACDSRECORD
 95
        0
 90
        2
  2
AcDbDs::Legacy
280
     1
291
     1
101
ACDSRECORD
  1
AcDbDs::ID
 90
        3
  2
AcDs:Indexable
280
     1
291
     1
101
ACDSRECORD
  1
AcDbDs::ID
 90
        4
  2
AcDbDs::HandleAttribute
280
     7
282
     1
  0
ACDSSCHEMA
 90
        1
  1
AcDbDs::TreatedAsObjectDataSchema
  2
AcDbDs::TreatedAsObjectData
280
     1
 91
        0
  0
ACDSSCHEMA
 90
        2
  1
AcDbDs::LegacySchema
  2
AcDbDs::Legacy
280
     1
 91
        0
  0
ACDSSCHEMA
 90
        3
  1
AcDbDs::IndexedPropertySchema
  2
AcDs:Indexable
280
     1
 91
        0
  0
ACDSSCHEMA
 90
        4
  1
AcDbDs::HandleAttributeSchema
  2
AcDbDs::HandleAttribute
280
     7
 91
        1
284
     1
  0
ACDSRECORD
 90
        0
  2
AcDbDs::ID
280
    10
320
1E
  2
Thumbnail_Data
280
    15
 94
     1638
310
89504E470D0A1A0A0000000D49484452000000B40000007F0803000000713C187700000300504C5445FFFFFF000000FFFFFF0000000000000000000000000000000000000000000000000000330000660000990000CC0000FF0033000033330033660033990033CC0033FF0066000066330066660066990066CC0066FF0099
310
000099330099660099990099CC0099FF00CC0000CC3300CC6600CC9900CCCC00CCFF00FF0000FF3300FF6600FF9900FFCC00FFFF3300003300333300663300993300CC3300FF3333003333333333663333993333CC3333FF3366003366333366663366993366CC3366FF3399003399333399663399993399CC3399FF33CC00
310
33CC3333CC6633CC9933CCCC33CCFF33FF0033FF3333FF6633FF9933FFCC33FFFF6600006600336600666600996600CC6600FF6633006633336633666633996633CC6633FF6666006666336666666666996666CC6666FF6699006699336699666699996699CC6699FF66CC0066CC3366CC6666CC9966CCCC66CCFF66FF0066
310
FF3366FF6666FF9966FFCC66FFFF9900009900339900669900999900CC9900FF9933009933339933669933999933CC9933FF9966009966339966669966999966CC9966FF9999009999339999669999999999CC9999FF99CC0099CC3399CC6699CC9999CCCC99CCFF99FF0099FF3399FF6699FF9999FFCC99FFFFCC0000CC00
310
33CC0066CC0099CC00CCCC00FFCC3300CC3333CC3366CC3399CC33CCCC33FFCC6600CC6633CC6666CC6699CC66CCCC66FFCC9900CC9933CC9966CC9999CC99CCCC99FFCCCC00CCCC33CCCC66CCCC99CCCCCCCCCCFFCCFF00CCFF33CCFF66CCFF99CCFFCCCCFFFFFF0000FF0033FF0066FF0099FF00CCFF00FFFF3300FF3333
310
FF3366FF3399FF33CCFF33FFFF6600FF6633FF6666FF6699FF66CCFF66FFFF9900FF9933FF9966FF9999FF99CCFF99FFFFCC00FFCC33FFCC66FFCC99FFCCCCFFCCFFFFFF00FFFF33FFFF66FFFF99FFFFCCFFFFFF0000000D0D0D1A1A1A2828283535354343435050505D5D5D6B6B6B787878868686939393A1A1A1AEAEAEBB
310
BBBBC9C9C9D6D6D6E4E4E4F1F1F1FFFFFF000000000000000000000000000000000000000000000000000000000000790CAC0F000003214944415478DAED9C5972C3201044739CDCFF007398BE40BEF88F5516B24080186058E451A52A89E4E5A9D5B300B27FB0DEF6F703B3DAB62634147A08F461F5EB1EFF40FC08B28F70
310
5E2C013DAFBA0AADD00AADD0ADA1B5222A743EF4D0A6B9187A92C85368852E8686FFC4716188D28A88615AD7432FA934BA9BFD6BA1EFCA159650FA52EC9781A69D381384D2FD4D1F68D096C6F3B523A490DD579282E6E6B0DFDFC0196EBBACCE10872602C5B717C565DF064DA12CB4EDF6DF6666A53FB9C90B68394F839B10
310
4C1CDA2B82F340077244AC724FA5341242BB73A50C68230BED4AED44EE1EBF87BD6B0601CDA04363D55D7CC71E7BFA9B021A410EE4DBA30974301727323785A5760311C2D0A6ACB347EC62E1FD23ED69D6D8F408437FA9E52C8211F734BDA29F35D3F956DA62BE9E4C0EF5FE97ACD2375357BBB69787E3803B2B6BBC51210B
310
9A515CE876C2CD4D30B0AE75DCE09C7D9F8A08C6648BF5EAFE4C447B9181651CE1875B8B44C60F9FEB2001FD4AD25BAFC9DAC84B25143F552968B0A119176AA22E0F63A1FDD450D0310D81A6CAF588A0A785A1AB175156F1B4425794F1627B507F4F17F97ABCD254188A9FA24403942E87BE5F92959B42A82AE3A0A4D40283
310
003480E67ABA1E1AE9484A769DC730B633F45DEF91863ECCDD1BBAA6907B23DC9ED0EFC91ACE7C0D9DA0C12E2E03276BCA8B4B23E8C87255FCBA337A95899416822E5AFC14D8E4576C155AA1D783964C1482D0C65BBF76D1607B20F053B22AFD087BF813C8705779F6951EB54731B4BBD8AE4A8B2BBD20F471644A7B9869ED
310
C11A0458865045ECA9B4F912A51783B6BF4607E2F395B6F5D057DABFC3E4614AB7B9BD9E3F8550076D5F07C6BF20D10BD3A422D6046286E1E18F8586F71EE1832E6363E858CACB0FC4B03D2ED0E7731CDF9AE6D8A3F1E75CA4ECE1AE0A1883E69EEE108868EEE9DA94779CD6E5EED27317D95A69D354E93E9FDD6AEE697C12
310
0AC48A8B09A5BC2B572CE5DDDA2370236D33A59D818CF7DFFB7D0E25730211B1870CAA888FFCE4E7394F24861FCF55FAAE65ECB918503E085068854E1C5DF05B2726DD147A10B47EA591422BB4427F13F48ADF01A91551A11F01BDE0F60F9CCECBC722BD2B3A0000000049454E44AE426082
  0
ENDSEC
  0
EOF
