  0
SECTION
  2
HEADER
  9
$ACADVER
  1
AC1018
  9
$ACADMAINTVER
 70
     0
  9
$DWGCODEPAGE
  3
ANSI_1252
  9
$INSBASE
 10
0.0
 20
0.0
 30
0.0
  9
$EXTMIN
 10
-883.1152951391955
 20
-188.0000000727106
 30
0.0
  9
$EXTMAX
 10
594.9999999384077
 20
740.1152949814032
 30
0.0
  9
$LIMMIN
 10
0.0
 20
0.0
  9
$LIMMAX
 10
12.0
 20
9.0
  9
$ORTHOMODE
 70
     0
  9
$REGENMODE
 70
     1
  9
$FILLMODE
 70
     1
  9
$QTEXTMODE
 70
     0
  9
$MIRRTEXT
 70
     1
  9
$LTSCALE
 40
1.0
  9
$ATTMODE
 70
     1
  9
$TEXTSIZE
 40
0.2
  9
$TRACEWID
 40
0.05
  9
$TEXTSTYLE
  7
Standard
  9
$CLAYER
  8
Livello 01
  9
$CELTYPE
  6
ByLayer
  9
$CECOLOR
 62
   256
  9
$CELTSCALE
 40
1.0
  9
$DISPSILH
 70
     0
  9
$DIMSCALE
 40
1.0
  9
$DIMASZ
 40
0.18
  9
$DIMEXO
 40
0.0625
  9
$DIMDLI
 40
0.38
  9
$DIMRND
 40
0.0
  9
$DIMDLE
 40
0.0
  9
$DIMEXE
 40
0.18
  9
$DIMTP
 40
0.0
  9
$DIMTM
 40
0.0
  9
$DIMTXT
 40
0.18
  9
$DIMCEN
 40
0.09
  9
$DIMTSZ
 40
0.0
  9
$DIMTOL
 70
     0
  9
$DIMLIM
 70
     0
  9
$DIMTIH
 70
     1
  9
$DIMTOH
 70
     1
  9
$DIMSE1
 70
     0
  9
$DIMSE2
 70
     0
  9
$DIMTAD
 70
     0
  9
$DIMZIN
 70
     0
  9
$DIMBLK
  1

  9
$DIMASO
 70
     1
  9
$DIMSHO
 70
     1
  9
$DIMPOST
  1

  9
$DIMAPOST
  1

  9
$DIMALT
 70
     0
  9
$DIMALTD
 70
     2
  9
$DIMALTF
 40
25.4
  9
$DIMLFAC
 40
1.0
  9
$DIMTOFL
 70
     0
  9
$DIMTVP
 40
0.0
  9
$DIMTIX
 70
     0
  9
$DIMSOXD
 70
     0
  9
$DIMSAH
 70
     0
  9
$DIMBLK1
  1

  9
$DIMBLK2
  1

  9
$DIMSTYLE
  2
Standard
  9
$DIMCLRD
 70
     0
  9
$DIMCLRE
 70
     0
  9
$DIMCLRT
 70
     0
  9
$DIMTFAC
 40
1.0
  9
$DIMGAP
 40
0.09
  9
$DIMJUST
 70
     0
  9
$DIMSD1
 70
     0
  9
$DIMSD2
 70
     0
  9
$DIMTOLJ
 70
     1
  9
$DIMTZIN
 70
     0
  9
$DIMALTZ
 70
     0
  9
$DIMALTTZ
 70
     0
  9
$DIMUPT
 70
     0
  9
$DIMDEC
 70
     4
  9
$DIMTDEC
 70
     4
  9
$DIMALTU
 70
     2
  9
$DIMALTTD
 70
     2
  9
$DIMTXSTY
  7
Standard
  9
$DIMAUNIT
 70
     0
  9
$DIMADEC
 70
     0
  9
$DIMALTRND
 40
0.0
  9
$DIMAZIN
 70
     0
  9
$DIMDSEP
 70
    46
  9
$DIMATFIT
 70
     3
  9
$DIMFRAC
 70
     0
  9
$DIMLDRBLK
  1

  9
$DIMLUNIT
 70
     2
  9
$DIMLWD
 70
    -2
  9
$DIMLWE
 70
    -2
  9
$DIMTMOVE
 70
     2
  9
$LUNITS
 70
     2
  9
$LUPREC
 70
     2
  9
$SKETCHINC
 40
0.1
  9
$FILLETRAD
 40
0.5
  9
$AUNITS
 70
     0
  9
$AUPREC
 70
     0
  9
$MENU
  1
.
  9
$ELEVATION
 40
0.0
  9
$PELEVATION
 40
0.0
  9
$THICKNESS
 40
0.0
  9
$LIMCHECK
 70
     0
  9
$CHAMFERA
 40
0.5
  9
$CHAMFERB
 40
0.5
  9
$CHAMFERC
 40
1.0
  9
$CHAMFERD
 40
0.0
  9
$SKPOLY
 70
     0
  9
$TDCREATE
 40
2457128.673984989
  9
$TDUCREATE
 40
2457128.590651655
  9
$TDUPDATE
 40
2457128.673985
  9
$TDUUPDATE
 40
2457128.590651667
  9
$TDINDWG
 40
0.0000000116
  9
$TDUSRTIMER
 40
0.0000000116
  9
$USRTIMER
 70
     1
  9
$ANGBASE
 50
0.0
  9
$ANGDIR
 70
     0
  9
$PDMODE
 70
     0
  9
$PDSIZE
 40
0.0
  9
$PLINEWID
 40
0.0
  9
$SPLFRAME
 70
     0
  9
$SPLINETYPE
 70
     6
  9
$SPLINESEGS
 70
     8
  9
$HANDSEED
  5
2EA
  9
$SURFTAB1
 70
     6
  9
$SURFTAB2
 70
     6
  9
$SURFTYPE
 70
     6
  9
$SURFU
 70
     6
  9
$SURFV
 70
     6
  9
$UCSBASE
  2

  9
$UCSNAME
  2

  9
$UCSORG
 10
0.0
 20
0.0
 30
0.0
  9
$UCSXDIR
 10
1.0
 20
0.0
 30
0.0
  9
$UCSYDIR
 10
0.0
 20
1.0
 30
0.0
  9
$UCSORTHOREF
  2

  9
$UCSORTHOVIEW
 70
     0
  9
$UCSORGTOP
 10
0.0
 20
0.0
 30
0.0
  9
$UCSORGBOTTOM
 10
0.0
 20
0.0
 30
0.0
  9
$UCSORGLEFT
 10
0.0
 20
0.0
 30
0.0
  9
$UCSORGRIGHT
 10
0.0
 20
0.0
 30
0.0
  9
$UCSORGFRONT
 10
0.0
 20
0.0
 30
0.0
  9
$UCSORGBACK
 10
0.0
 20
0.0
 30
0.0
  9
$PUCSBASE
  2

  9
$PUCSNAME
  2

  9
$PUCSORG
 10
0.0
 20
0.0
 30
0.0
  9
$PUCSXDIR
 10
1.0
 20
0.0
 30
0.0
  9
$PUCSYDIR
 10
0.0
 20
1.0
 30
0.0
  9
$PUCSORTHOREF
  2

  9
$PUCSORTHOVIEW
 70
     0
  9
$PUCSORGTOP
 10
0.0
 20
0.0
 30
0.0
  9
$PUCSORGBOTTOM
 10
0.0
 20
0.0
 30
0.0
  9
$PUCSORGLEFT
 10
0.0
 20
0.0
 30
0.0
  9
$PUCSORGRIGHT
 10
0.0
 20
0.0
 30
0.0
  9
$PUCSORGFRONT
 10
0.0
 20
0.0
 30
0.0
  9
$PUCSORGBACK
 10
0.0
 20
0.0
 30
0.0
  9
$USERI1
 70
     0
  9
$USERI2
 70
     0
  9
$USERI3
 70
     0
  9
$USERI4
 70
     0
  9
$USERI5
 70
     0
  9
$USERR1
 40
0.0
  9
$USERR2
 40
0.0
  9
$USERR3
 40
0.0
  9
$USERR4
 40
0.0
  9
$USERR5
 40
0.0
  9
$WORLDVIEW
 70
     1
  9
$SHADEDGE
 70
     3
  9
$SHADEDIF
 70
    70
  9
$TILEMODE
 70
     1
  9
$MAXACTVP
 70
    64
  9
$PINSBASE
 10
0.0
 20
0.0
 30
0.0
  9
$PLIMCHECK
 70
     0
  9
$PEXTMIN
 10
1.000000000000000E+20
 20
1.000000000000000E+20
 30
1.000000000000000E+20
  9
$PEXTMAX
 10
-1.000000000000000E+20
 20
-1.000000000000000E+20
 30
-1.000000000000000E+20
  9
$PLIMMIN
 10
0.0
 20
0.0
  9
$PLIMMAX
 10
12.0
 20
9.0
  9
$UNITMODE
 70
     0
  9
$VISRETAIN
 70
     1
  9
$PLINEGEN
 70
     0
  9
$PSLTSCALE
 70
     1
  9
$TREEDEPTH
 70
  3020
  9
$CMLSTYLE
  2
Standard
  9
$CMLJUST
 70
     0
  9
$CMLSCALE
 40
1.0
  9
$PROXYGRAPHICS
 70
     1
  9
$MEASUREMENT
 70
     0
  9
$CELWEIGHT
370
    -1
  9
$ENDCAPS
280
     0
  9
$JOINSTYLE
280
     0
  9
$LWDISPLAY
290
     0
  9
$INSUNITS
 70
     4
  9
$HYPERLINKBASE
  1

  9
$STYLESHEET
  1

  9
$XEDIT
290
     1
  9
$CEPSNTYPE
380
     0
  9
$PSTYLEMODE
290
     1
  9
$FINGERPRINTGUID
  2
{2FD7FE04-ECE0-420F-BB0B-11A658E82BE7}
  9
$VERSIONGUID
  2
{FAEB1C32-E019-11D5-929B-00C0DF256EC4}
  9
$EXTNAMES
290
     1
  9
$PSVPSCALE
 40
0.0
  9
$OLESTARTUP
290
     0
  9
$SORTENTS
280
   127
  9
$INDEXCTL
280
     0
  9
$HIDETEXT
280
     1
  9
$XCLIPFRAME
290
     0
  9
$HALOGAP
280
     0
  9
$OBSCOLOR
 70
   257
  9
$OBSLTYPE
280
     0
  9
$INTERSECTIONDISPLAY
280
     0
  9
$INTERSECTIONCOLOR
 70
   257
  9
$DIMASSOC
280
     2
  9
$PROJECTNAME
  1

  0
ENDSEC
  0
SECTION
  2
CLASSES
  0
CLASS
  1
ACDBDICTIONARYWDFLT
  2
AcDbDictionaryWithDefault
  3
ObjectDBX Classes
 90
        0
 91
        4
280
     0
281
     0
  0
CLASS
  1
VISUALSTYLE
  2
AcDbVisualStyle
  3
ObjectDBX Classes
 90
     4095
 91
        4
280
     0
281
     0
  0
CLASS
  1
SCALE
  2
AcDbScale
  3
ObjectDBX Classes
 90
     1153
 91
        4
280
     0
281
     0
  0
CLASS
  1
DICTIONARYVAR
  2
AcDbDictionaryVar
  3
ObjectDBX Classes
 90
        0
 91
        4
280
     0
281
     0
  0
ENDSEC
  0
SECTION
  2
TABLES
  0
TABLE
  2
VPORT
  5
8
330
0
100
AcDbSymbolTable
 70
     1
  0
VPORT
  5
29
330
8
100
AcDbSymbolTableRecord
100
AcDbViewportTableRecord
  2
*Active
 70
     0
 10
0.0
 20
0.0
 11
1.0
 21
1.0
 12
-144.0576476003939
 22
276.0576474543463
 13
0.0
 23
0.0
 14
0.5
 24
0.5
 15
0.5
 25
0.5
 16
0.0
 26
0.0
 36
1.0
 17
0.0
 27
0.0
 37
0.0
 40
946.677600955196
 41
1.592598789131497
 42
50.0
 43
0.0
 44
0.0
 50
0.0
 51
0.0
 71
     0
 72
   100
 73
     1
 74
     3
 75
     0
 76
     0
 77
     0
 78
     0
281
     0
 65
     1
110
0.0
120
0.0
130
0.0
111
1.0
121
0.0
131
0.0
112
0.0
122
1.0
132
0.0
 79
     0
146
0.0
  0
ENDTAB
  0
TABLE
  2
LTYPE
  5
5
330
0
100
AcDbSymbolTable
 70
     1
  0
LTYPE
  5
14
330
5
100
AcDbSymbolTableRecord
100
AcDbLinetypeTableRecord
  2
ByBlock
 70
     0
  3

 72
    65
 73
     0
 40
0.0
  0
LTYPE
  5
15
330
5
100
AcDbSymbolTableRecord
100
AcDbLinetypeTableRecord
  2
ByLayer
 70
     0
  3

 72
    65
 73
     0
 40
0.0
  0
LTYPE
  5
16
330
5
100
AcDbSymbolTableRecord
100
AcDbLinetypeTableRecord
  2
Continuous
 70
     0
  3
Solid line
 72
    65
 73
     0
 40
0.0
  0
ENDTAB
  0
TABLE
  2
LAYER
  5
2
330
0
100
AcDbSymbolTable
 70
     5
  0
LAYER
  5
10
330
2
100
AcDbSymbolTableRecord
100
AcDbLayerTableRecord
  2
0
 70
     0
 62
     7
  6
Continuous
370
    -3
390
F
  0
LAYER
  5
3C
330
2
100
AcDbSymbolTableRecord
100
AcDbLayerTableRecord
  2
Livello 01
 70
     0
 62
     1
  6
Continuous
370
    -3
390
F
  0
LAYER
  5
62
330
2
100
AcDbSymbolTableRecord
100
AcDbLayerTableRecord
  2
Defpoints
 70
     0
 62
     7
  6
Continuous
290
     0
370
    -3
390
F
  0
LAYER
  5
1C6
330
2
100
AcDbSymbolTableRecord
100
AcDbLayerTableRecord
  2
Linee visibili 2D - Tangent
 70
     0
 62
     7
  6
Continuous
370
    -3
390
F
  0
LAYER
  5
1C8
330
2
100
AcDbSymbolTableRecord
100
AcDbLayerTableRecord
  2
Linee visibili 2D
 70
     0
 62
     7
  6
Continuous
370
    -3
390
F
  0
ENDTAB
  0
TABLE
  2
STYLE
  5
3
330
0
100
AcDbSymbolTable
 70
     2
  0
STYLE
  5
11
330
3
100
AcDbSymbolTableRecord
100
AcDbTextStyleTableRecord
  2
Standard
 70
     0
 40
0.0
 41
1.0
 50
0.0
 71
     0
 42
0.2
  3
txt
  4

  0
STYLE
  5
60
330
3
100
AcDbSymbolTableRecord
100
AcDbTextStyleTableRecord
  2
Arial
 70
     0
 40
0.0
 41
1.0
 50
0.0
 71
     0
 42
0.0
  3

  4

1001
ACAD
1000
Arial
1071
      256
  0
ENDTAB
  0
TABLE
  2
VIEW
  5
6
330
0
100
AcDbSymbolTable
 70
     0
  0
ENDTAB
  0
TABLE
  2
UCS
  5
7
330
0
100
AcDbSymbolTable
 70
     0
  0
ENDTAB
  0
TABLE
  2
APPID
  5
9
330
0
100
AcDbSymbolTable
 70
     1
  0
APPID
  5
12
330
9
100
AcDbSymbolTableRecord
100
AcDbRegAppTableRecord
  2
ACAD
 70
     0
  0
ENDTAB
  0
TABLE
  2
DIMSTYLE
  5
A
330
0
100
AcDbSymbolTable
 70
     2
100
AcDbDimStyleTable
  0
DIMSTYLE
105
27
330
A
100
AcDbSymbolTableRecord
100
AcDbDimStyleTableRecord
  2
Standard
 70
     0
340
11
  0
DIMSTYLE
105
61
102
{ACAD_REACTORS
330
3D
330
9D
330
D8
330
141
330
17C
330
1B7
102
}
330
A
100
AcDbSymbolTableRecord
100
AcDbDimStyleTableRecord
  2
Default
 70
     0
 40
50.0
 41
1.0
 42
0.5
 44
0.5
 73
     0
 77
     1
 78
     1
140
1.0
141
0.5
172
     1
174
     1
179
     2
271
     2
284
     1
340
60
  0
ENDTAB
  0
TABLE
  2
BLOCK_RECORD
  5
1
330
0
100
AcDbSymbolTable
 70
     8
  0
BLOCK_RECORD
  5
1F
330
1
100
AcDbSymbolTableRecord
100
AcDbBlockTableRecord
  2
*Model_Space
340
22
  0
BLOCK_RECORD
  5
1B
330
1
100
AcDbSymbolTableRecord
100
AcDbBlockTableRecord
  2
*Paper_Space
340
1E
  0
BLOCK_RECORD
  5
23
330
1
100
AcDbSymbolTableRecord
100
AcDbBlockTableRecord
  2
*Paper_Space0
340
26
  0
BLOCK_RECORD
  5
3B
330
1
100
AcDbSymbolTableRecord
100
AcDbBlockTableRecord
  2
portasciugamani
340
0
  0
BLOCK_RECORD
  5
63
330
1
100
AcDbSymbolTableRecord
100
AcDbBlockTableRecord
  2
*D2
340
0
  0
BLOCK_RECORD
  5
9E
330
1
100
AcDbSymbolTableRecord
100
AcDbBlockTableRecord
  2
*D3
340
0
  0
BLOCK_RECORD
  5
D9
330
1
100
AcDbSymbolTableRecord
100
AcDbBlockTableRecord
  2
*D4
340
0
  0
BLOCK_RECORD
  5
142
330
1
100
AcDbSymbolTableRecord
100
AcDbBlockTableRecord
  2
*D5
340
0
  0
BLOCK_RECORD
  5
17D
330
1
100
AcDbSymbolTableRecord
100
AcDbBlockTableRecord
  2
*D6
340
0
  0
BLOCK_RECORD
  5
1B8
330
1
100
AcDbSymbolTableRecord
100
AcDbBlockTableRecord
  2
*D7
340
0
  0
ENDTAB
  0
ENDSEC
  0
SECTION
  2
BLOCKS
  0
BLOCK
  5
20
330
1F
100
AcDbEntity
  8
0
100
AcDbBlockBegin
  2
*Model_Space
 70
     0
 10
0.0
 20
0.0
 30
0.0
  3
*Model_Space
  1

  0
ENDBLK
  5
21
330
1F
100
AcDbEntity
  8
0
100
AcDbBlockEnd
  0
BLOCK
  5
1C
330
1B
100
AcDbEntity
 67
     1
  8
0
100
AcDbBlockBegin
  2
*Paper_Space
 70
     0
 10
0.0
 20
0.0
 30
0.0
  3
*Paper_Space
  1

  0
ENDBLK
  5
1D
330
1B
100
AcDbEntity
 67
     1
  8
0
100
AcDbBlockEnd
  0
BLOCK
  5
24
330
23
100
AcDbEntity
  8
0
100
AcDbBlockBegin
  2
*Paper_Space0
 70
     0
 10
0.0
 20
0.0
 30
0.0
  3
*Paper_Space0
  1

  0
ENDBLK
  5
25
330
23
100
AcDbEntity
  8
0
100
AcDbBlockEnd
  0
BLOCK
  5
1C4
330
3B
100
AcDbEntity
  8
0
100
AcDbBlockBegin
  2
portasciugamani
 70
     0
 10
0.0
 20
0.0
 30
0.0
  3
portasciugamani
  1

  0
DIMENSION
  5
3D
330
3B
100
AcDbEntity
  8
Livello 01
100
AcDbDimension
  2
*D2
 10
668.0
 20
0.0
 30
-291.3041817155435
 11
339.0
 21
-261.2791817155435
 31
0.0
 70
    32
  1
<>
 71
     5
 42
658.0
210
0.0
220
-1.0
230
0.0
  3
Default
100
AcDbAlignedDimension
 13
10.00000000000002
 23
0.0
 33
-438.6064765093768
 14
668.0
 24
0.0
 34
-438.6064765093768
100
AcDbRotatedDimension
1001
ACAD
1000
DSTYLE
1002
{
1070
   279
1070
     1
1002
}
  0
SPLINE
  5
6F
330
3B
100
AcDbEntity
  8
Livello 01
100
AcDbSpline
210
0.0
220
0.0
230
1.0
 70
    24
 71
     2
 72
     6
 73
     3
 74
     0
 42
0.0000000001
 43
0.0000000001
 40
0.0
 40
0.0
 40
0.0
 40
20.0
 40
20.0
 40
20.0
 10
0.0303030303030554
 20
0.0
 30
-438.6064765093768
 10
10.00000000000002
 20
0.0
 30
-438.6064765093768
 10
19.96969696969699
 20
0.0
 30
-438.6064765093768
  0
LINE
  5
70
330
3B
100
AcDbEntity
  8
Livello 01
100
AcDbLine
 10
0.0303030303030554
 20
0.0
 30
-438.6064765093768
 11
0.0303030303030554
 21
20.0
 31
-438.6064765093768
  0
SPLINE
  5
71
330
3B
100
AcDbEntity
  8
Livello 01
100
AcDbSpline
210
0.0
220
0.0
230
1.0
 70
    24
 71
     2
 72
     6
 73
     3
 74
     0
 42
0.0000000001
 43
0.0000000001
 40
0.0
 40
0.0
 40
0.0
 40
20.0
 40
20.0
 40
20.0
 10
0.0303030303030554
 20
20.0
 30
-438.6064765093768
 10
10.00000000000002
 20
20.0
 30
-438.6064765093768
 10
19.96969696969699
 20
20.0
 30
-438.6064765093768
  0
SPLINE
  5
72
330
3B
100
AcDbEntity
  8
Livello 01
100
AcDbSpline
210
0.0
220
0.0
230
1.0
 70
    24
 71
     2
 72
     6
 73
     3
 74
     0
 42
0.0000000001
 43
0.0000000001
 40
1010.0
 40
1010.0
 40
1010.0
 40
1110.0
 40
1110.0
 40
1110.0
 10
0.0303030303030306
 20
0.0
 30
-538.6064765093768
 10
0.030303030303043
 20
0.0
 30
-488.6064765093768
 10
0.0303030303030554
 20
0.0
 30
-438.6064765093768
  0
SPLINE
  5
73
330
3B
100
AcDbEntity
  8
Livello 01
100
AcDbSpline
210
0.0
220
0.0
230
1.0
 70
    24
 71
     2
 72
     6
 73
     3
 74
     0
 42
0.0000000001
 43
0.0000000001
 40
635.0
 40
635.0
 40
635.0
 40
1010.0
 40
1010.0
 40
1010.0
 10
677.969696969697
 20
0.0
 30
-538.6064765093768
 10
339.0
 20
0.0
 30
-538.6064765093768
 10
0.0303030303030306
 20
0.0
 30
-538.6064765093768
  0
SPLINE
  5
74
330
3B
100
AcDbEntity
  8
Livello 01
100
AcDbSpline
210
0.0
220
0.0
230
1.0
 70
    24
 71
     2
 72
     6
 73
     3
 74
     0
 42
0.0000000001
 43
0.0000000001
 40
535.0
 40
535.0
 40
535.0
 40
635.0
 40
635.0
 40
635.0
 10
677.969696969697
 20
0.0
 30
-438.6064765093768
 10
677.969696969697
 20
0.0
 30
-488.6064765093768
 10
677.969696969697
 20
0.0
 30
-538.6064765093768
  0
SPLINE
  5
75
330
3B
100
AcDbEntity
  8
Livello 01
100
AcDbSpline
210
0.0
220
0.0
230
1.0
 70
    24
 71
     2
 72
     6
 73
     3
 74
     0
 42
0.0000000001
 43
0.0000000001
 40
515.0
 40
515.0
 40
515.0
 40
535.0
 40
535.0
 40
535.0
 10
658.030303030303
 20
0.0
 30
-438.6064765093768
 10
668.0
 20
0.0
 30
-438.6064765093768
 10
677.969696969697
 20
0.0
 30
-438.6064765093768
  0
SPLINE
  5
76
330
3B
100
AcDbEntity
  8
Livello 01
100
AcDbSpline
210
0.0
220
0.0
230
1.0
 70
    24
 71
     2
 72
     6
 73
     3
 74
     0
 42
0.0000000001
 43
0.0000000001
 40
435.0
 40
435.0
 40
435.0
 40
515.0
 40
515.0
 40
515.0
 10
658.030303030303
 20
0.0
 30
-518.6064765093768
 10
658.030303030303
 20
0.0
 30
-478.6064765093768
 10
658.030303030303
 20
0.0
 30
-438.6064765093768
  0
SPLINE
  5
77
330
3B
100
AcDbEntity
  8
Livello 01
100
AcDbSpline
210
0.0
220
0.0
230
1.0
 70
    24
 71
     2
 72
     6
 73
     3
 74
     0
 42
0.0000000001
 43
0.0000000001
 40
100.0
 40
100.0
 40
100.0
 40
435.0
 40
435.0
 40
435.0
 10
19.969696969697
 20
0.0
 30
-518.6064765093768
 10
339.0
 20
0.0
 30
-518.6064765093768
 10
658.030303030303
 20
0.0
 30
-518.6064765093768
  0
SPLINE
  5
78
330
3B
100
AcDbEntity
  8
Livello 01
100
AcDbSpline
210
0.0
220
0.0
230
1.0
 70
    24
 71
     2
 72
     6
 73
     3
 74
     0
 42
0.0000000001
 43
0.0000000001
 40
20.0
 40
20.0
 40
20.0
 40
100.0
 40
100.0
 40
100.0
 10
19.96969696969699
 20
0.0
 30
-438.6064765093768
 10
19.969696969697
 20
0.0
 30
-478.6064765093768
 10
19.969696969697
 20
0.0
 30
-518.6064765093768
  0
SPLINE
  5
79
330
3B
100
AcDbEntity
  8
Livello 01
100
AcDbSpline
210
0.0
220
0.0
230
1.0
 70
    24
 71
     2
 72
     6
 73
     3
 74
     0
 42
0.0000000001
 43
0.0000000001
 40
1010.0
 40
1010.0
 40
1010.0
 40
1110.0
 40
1110.0
 40
1110.0
 10
0.0303030303030306
 20
20.0
 30
-538.6064765093768
 10
0.030303030303043
 20
20.0
 30
-488.6064765093768
 10
0.0303030303030554
 20
20.0
 30
-438.6064765093768
  0
SPLINE
  5
7A
330
3B
100
AcDbEntity
  8
Livello 01
100
AcDbSpline
210
0.0
220
0.0
230
1.0
 70
    24
 71
     2
 72
     6
 73
     3
 74
     0
 42
0.0000000001
 43
0.0000000001
 40
635.0
 40
635.0
 40
635.0
 40
1010.0
 40
1010.0
 40
1010.0
 10
677.969696969697
 20
20.0
 30
-538.6064765093768
 10
339.0
 20
20.0
 30
-538.6064765093768
 10
0.0303030303030306
 20
20.0
 30
-538.6064765093768
  0
SPLINE
  5
7B
330
3B
100
AcDbEntity
  8
Livello 01
100
AcDbSpline
210
0.0
220
0.0
230
1.0
 70
    24
 71
     2
 72
     6
 73
     3
 74
     0
 42
0.0000000001
 43
0.0000000001
 40
535.0
 40
535.0
 40
535.0
 40
635.0
 40
635.0
 40
635.0
 10
677.969696969697
 20
20.0
 30
-438.6064765093768
 10
677.969696969697
 20
20.0
 30
-488.6064765093768
 10
677.969696969697
 20
20.0
 30
-538.6064765093768
  0
SPLINE
  5
7C
330
3B
100
AcDbEntity
  8
Livello 01
100
AcDbSpline
210
0.0
220
0.0
230
1.0
 70
    24
 71
     2
 72
     6
 73
     3
 74
     0
 42
0.0000000001
 43
0.0000000001
 40
515.0
 40
515.0
 40
515.0
 40
535.0
 40
535.0
 40
535.0
 10
658.030303030303
 20
20.0
 30
-438.6064765093768
 10
668.0
 20
20.0
 30
-438.6064765093768
 10
677.969696969697
 20
20.0
 30
-438.6064765093768
  0
SPLINE
  5
7D
330
3B
100
AcDbEntity
  8
Livello 01
100
AcDbSpline
210
0.0
220
0.0
230
1.0
 70
    24
 71
     2
 72
     6
 73
     3
 74
     0
 42
0.0000000001
 43
0.0000000001
 40
435.0
 40
435.0
 40
435.0
 40
515.0
 40
515.0
 40
515.0
 10
658.030303030303
 20
20.0
 30
-518.6064765093768
 10
658.030303030303
 20
20.0
 30
-478.6064765093768
 10
658.030303030303
 20
20.0
 30
-438.6064765093768
  0
SPLINE
  5
7E
330
3B
100
AcDbEntity
  8
Livello 01
100
AcDbSpline
210
0.0
220
0.0
230
1.0
 70
    24
 71
     2
 72
     6
 73
     3
 74
     0
 42
0.0000000001
 43
0.0000000001
 40
100.0
 40
100.0
 40
100.0
 40
435.0
 40
435.0
 40
435.0
 10
19.969696969697
 20
20.0
 30
-518.6064765093768
 10
339.0
 20
20.0
 30
-518.6064765093768
 10
658.030303030303
 20
20.0
 30
-518.6064765093768
  0
SPLINE
  5
7F
330
3B
100
AcDbEntity
  8
Livello 01
100
AcDbSpline
210
0.0
220
0.0
230
1.0
 70
    24
 71
     2
 72
     6
 73
     3
 74
     0
 42
0.0000000001
 43
0.0000000001
 40
20.0
 40
20.0
 40
20.0
 40
100.0
 40
100.0
 40
100.0
 10
19.96969696969699
 20
20.0
 30
-438.6064765093768
 10
19.969696969697
 20
20.0
 30
-478.6064765093768
 10
19.969696969697
 20
20.0
 30
-518.6064765093768
  0
LINE
  5
80
330
3B
100
AcDbEntity
  8
Livello 01
100
AcDbLine
 10
0.0303030303030306
 20
0.0
 30
-538.6064765093768
 11
0.0303030303030306
 21
20.0
 31
-538.6064765093768
  0
LINE
  5
81
330
3B
100
AcDbEntity
  8
Livello 01
100
AcDbLine
 10
677.969696969697
 20
0.0
 30
-538.6064765093768
 11
677.969696969697
 21
20.0
 31
-538.6064765093768
  0
LINE
  5
82
330
3B
100
AcDbEntity
  8
Livello 01
100
AcDbLine
 10
677.969696969697
 20
0.0
 30
-438.6064765093768
 11
677.969696969697
 21
20.0
 31
-438.6064765093768
  0
LINE
  5
83
330
3B
100
AcDbEntity
  8
Livello 01
100
AcDbLine
 10
658.030303030303
 20
0.0
 30
-438.6064765093768
 11
658.030303030303
 21
20.0
 31
-438.6064765093768
  0
LINE
  5
84
330
3B
100
AcDbEntity
  8
Livello 01
100
AcDbLine
 10
658.030303030303
 20
0.0
 30
-518.6064765093768
 11
658.030303030303
 21
20.0
 31
-518.6064765093768
  0
LINE
  5
85
330
3B
100
AcDbEntity
  8
Livello 01
100
AcDbLine
 10
19.969696969697
 20
0.0
 30
-518.6064765093768
 11
19.969696969697
 21
20.0
 31
-518.6064765093768
  0
LINE
  5
86
330
3B
100
AcDbEntity
  8
Livello 01
100
AcDbLine
 10
19.96969696969699
 20
0.0
 30
-438.6064765093768
 11
19.96969696969699
 21
20.0
 31
-438.6064765093768
  0
SPLINE
  5
87
330
3B
100
AcDbEntity
  8
Livello 01
100
AcDbSpline
210
0.0
220
0.0
230
1.0
 70
    24
 71
     2
 72
     6
 73
     3
 74
     0
 42
0.0000000001
 43
0.0000000001
 40
-0.0000000000000124
 40
-0.0000000000000124
 40
-0.0000000000000124
 40
20.0
 40
20.0
 40
20.0
 10
0.030303030303043
 20
0.0
 30
-488.6064765093768
 10
10.00000000000002
 20
0.0
 30
-488.6064765093768
 10
19.969696969697
 20
0.0
 30
-488.6064765093768
  0
SPLINE
  5
88
330
3B
100
AcDbEntity
  8
Livello 01
100
AcDbSpline
210
0.0
220
0.0
230
1.0
 70
    24
 71
     2
 72
     6
 73
     3
 74
     0
 42
0.0000000001
 43
0.0000000001
 40
660.0
 40
660.0
 40
660.0
 40
680.0
 40
680.0
 40
680.0
 10
658.030303030303
 20
0.0
 30
-488.6064765093768
 10
668.0
 20
0.0
 30
-488.6064765093768
 10
677.969696969697
 20
0.0
 30
-488.6064765093768
  0
SPLINE
  5
89
330
3B
100
AcDbEntity
  8
Livello 01
100
AcDbSpline
210
0.0
220
0.0
230
1.0
 70
    24
 71
     2
 72
     6
 73
     3
 74
     0
 42
0.0000000001
 43
0.0000000001
 40
1071.450790531265
 40
1071.450790531265
 40
1071.450790531265
 40
1091.450790531265
 40
1091.450790531265
 40
1091.450790531265
 10
339.0
 20
0.0
 30
-518.6064765093768
 10
339.0
 20
0.0
 30
-528.6064765093768
 10
339.0
 20
0.0
 30
-538.6064765093768
  0
SPLINE
  5
8A
330
3B
100
AcDbEntity
  8
Livello 01
100
AcDbSpline
210
0.0
220
0.0
230
1.0
 70
    24
 71
     2
 72
     6
 73
     3
 74
     0
 42
0.0000000001
 43
0.0000000001
 40
-1110.0
 40
-1110.0
 40
-1110.0
 40
-1010.0
 40
-1010.0
 40
-1010.0
 10
0.0303030303030554
 20
10.0
 30
-438.6064765093768
 10
0.030303030303043
 20
10.0
 30
-488.6064765093768
 10
0.0303030303030306
 20
10.0
 30
-538.6064765093768
  0
LINE
  5
8B
330
3B
100
AcDbEntity
  8
Livello 01
100
AcDbLine
 10
0.0303030303030418
 20
0.0
 30
-488.6064765093768
 11
0.0303030303030418
 21
20.0
 31
-488.6064765093768
  0
SPLINE
  5
8C
330
3B
100
AcDbEntity
  8
Livello 01
100
AcDbSpline
210
0.0
220
0.0
230
1.0
 70
    24
 71
     2
 72
     6
 73
     3
 74
     0
 42
0.0000000001
 43
0.0000000001
 40
-0.0000000000000124
 40
-0.0000000000000124
 40
-0.0000000000000124
 40
20.0
 40
20.0
 40
20.0
 10
0.030303030303043
 20
20.0
 30
-488.6064765093768
 10
10.00000000000002
 20
20.0
 30
-488.6064765093768
 10
19.969696969697
 20
20.0
 30
-488.6064765093768
  0
SPLINE
  5
8D
330
3B
100
AcDbEntity
  8
Livello 01
100
AcDbSpline
210
0.0
220
0.0
230
1.0
 70
    24
 71
     2
 72
     6
 73
     3
 74
     0
 42
0.0000000001
 43
0.0000000001
 40
660.0
 40
660.0
 40
660.0
 40
680.0
 40
680.0
 40
680.0
 10
658.030303030303
 20
20.0
 30
-488.6064765093768
 10
668.0
 20
20.0
 30
-488.6064765093768
 10
677.969696969697
 20
20.0
 30
-488.6064765093768
  0
SPLINE
  5
8E
330
3B
100
AcDbEntity
  8
Livello 01
100
AcDbSpline
210
0.0
220
0.0
230
1.0
 70
    24
 71
     2
 72
     6
 73
     3
 74
     0
 42
0.0000000001
 43
0.0000000001
 40
1071.450790531265
 40
1071.450790531265
 40
1071.450790531265
 40
1091.450790531265
 40
1091.450790531265
 40
1091.450790531265
 10
339.0
 20
20.0
 30
-518.6064765093768
 10
339.0
 20
20.0
 30
-528.6064765093768
 10
339.0
 20
20.0
 30
-538.6064765093768
  0
SPLINE
  5
8F
330
3B
100
AcDbEntity
  8
Livello 01
100
AcDbSpline
210
0.0
220
0.0
230
1.0
 70
    24
 71
     2
 72
     6
 73
     3
 74
     0
 42
0.0000000001
 43
0.0000000001
 40
-1010.0
 40
-1010.0
 40
-1010.0
 40
-635.0
 40
-635.0
 40
-635.0
 10
0.0303030303030306
 20
10.0
 30
-538.6064765093765
 10
339.0
 20
10.0
 30
-538.6064765093765
 10
677.969696969697
 20
10.0
 30
-538.6064765093765
  0
LINE
  5
90
330
3B
100
AcDbEntity
  8
Livello 01
100
AcDbLine
 10
339.0
 20
0.0
 30
-538.6064765093765
 11
339.0
 21
20.0
 31
-538.6064765093765
  0
SPLINE
  5
91
330
3B
100
AcDbEntity
  8
Livello 01
100
AcDbSpline
210
0.0
220
0.0
230
1.0
 70
    24
 71
     2
 72
     6
 73
     3
 74
     0
 42
0.0000000001
 43
0.0000000001
 40
-635.0
 40
-635.0
 40
-635.0
 40
-535.0
 40
-535.0
 40
-535.0
 10
677.969696969697
 20
10.0
 30
-538.6064765093765
 10
677.969696969697
 20
10.0
 30
-488.6064765093765
 10
677.969696969697
 20
10.0
 30
-438.6064765093765
  0
LINE
  5
92
330
3B
100
AcDbEntity
  8
Livello 01
100
AcDbLine
 10
677.969696969697
 20
0.0
 30
-488.6064765093766
 11
677.969696969697
 21
20.0
 31
-488.6064765093766
  0
SPLINE
  5
93
330
3B
100
AcDbEntity
  8
Livello 01
100
AcDbSpline
210
0.0
220
0.0
230
1.0
 70
    24
 71
     2
 72
     6
 73
     3
 74
     0
 42
0.0000000001
 43
0.0000000001
 40
-535.0
 40
-535.0
 40
-535.0
 40
-515.0
 40
-515.0
 40
-515.0
 10
677.969696969697
 20
10.0
 30
-438.6064765093768
 10
668.0
 20
10.0
 30
-438.6064765093768
 10
658.030303030303
 20
10.0
 30
-438.6064765093768
  0
LINE
  5
94
330
3B
100
AcDbEntity
  8
Livello 01
100
AcDbLine
 10
668.0
 20
0.0
 30
-438.6064765093768
 11
668.0
 21
20.0
 31
-438.6064765093768
  0
SPLINE
  5
95
330
3B
100
AcDbEntity
  8
Livello 01
100
AcDbSpline
210
0.0
220
0.0
230
1.0
 70
    24
 71
     2
 72
     6
 73
     3
 74
     0
 42
0.0000000001
 43
0.0000000001
 40
-515.0
 40
-515.0
 40
-515.0
 40
-435.0
 40
-435.0
 40
-435.0
 10
658.030303030303
 20
10.0
 30
-438.6064765093768
 10
658.030303030303
 20
10.0
 30
-478.6064765093768
 10
658.030303030303
 20
10.0
 30
-518.6064765093768
  0
LINE
  5
96
330
3B
100
AcDbEntity
  8
Livello 01
100
AcDbLine
 10
658.030303030303
 20
0.0
 30
-478.6064765093768
 11
658.030303030303
 21
20.0
 31
-478.6064765093768
  0
SPLINE
  5
97
330
3B
100
AcDbEntity
  8
Livello 01
100
AcDbSpline
210
0.0
220
0.0
230
1.0
 70
    24
 71
     2
 72
     6
 73
     3
 74
     0
 42
0.0000000001
 43
0.0000000001
 40
-435.0
 40
-435.0
 40
-435.0
 40
-100.0
 40
-100.0
 40
-100.0
 10
658.030303030303
 20
10.0
 30
-518.6064765093768
 10
339.0
 20
10.0
 30
-518.6064765093768
 10
19.969696969697
 20
10.0
 30
-518.6064765093768
  0
LINE
  5
98
330
3B
100
AcDbEntity
  8
Livello 01
100
AcDbLine
 10
339.0
 20
0.0
 30
-518.6064765093768
 11
339.0
 21
20.0
 31
-518.6064765093768
  0
SPLINE
  5
99
330
3B
100
AcDbEntity
  8
Livello 01
100
AcDbSpline
210
0.0
220
0.0
230
1.0
 70
    24
 71
     2
 72
     6
 73
     3
 74
     0
 42
0.0000000001
 43
0.0000000001
 40
-100.0
 40
-100.0
 40
-100.0
 40
-20.0
 40
-20.0
 40
-20.0
 10
19.969696969697
 20
10.0
 30
-518.6064765093768
 10
19.969696969697
 20
10.0
 30
-478.6064765093768
 10
19.969696969697
 20
10.0
 30
-438.6064765093768
  0
LINE
  5
9A
330
3B
100
AcDbEntity
  8
Livello 01
100
AcDbLine
 10
19.969696969697
 20
0.0
 30
-478.6064765093768
 11
19.969696969697
 21
20.0
 31
-478.6064765093768
  0
SPLINE
  5
9B
330
3B
100
AcDbEntity
  8
Livello 01
100
AcDbSpline
210
0.0
220
0.0
230
1.0
 70
    24
 71
     2
 72
     6
 73
     3
 74
     0
 42
0.0000000001
 43
0.0000000001
 40
-20.0
 40
-20.0
 40
-20.0
 40
0.0
 40
0.0
 40
0.0
 10
19.96969696969701
 20
10.0
 30
-438.6064765093768
 10
10.00000000000004
 20
10.0
 30
-438.6064765093768
 10
0.0303030303030696
 20
10.0
 30
-438.6064765093768
  0
LINE
  5
9C
330
3B
100
AcDbEntity
  8
Livello 01
100
AcDbLine
 10
10.00000000000004
 20
0.0
 30
-438.6064765093768
 11
10.00000000000004
 21
20.0
 31
-438.6064765093768
  0
DIMENSION
  5
9D
330
3B
100
AcDbEntity
  8
Livello 01
100
AcDbDimension
  2
*D3
 10
628.0
 20
0.0
 30
60.60994249857426
 11
319.0
 21
90.63494249857426
 31
0.0
 70
    32
  1
<>
 71
     5
 42
618.0
210
0.0
220
-1.0
230
0.0
  3
Default
100
AcDbAlignedDimension
 13
10.00000000000002
 23
0.0
 33
-42.02352715315959
 14
628.0
 24
0.0
 34
-42.02352715315959
100
AcDbRotatedDimension
1001
ACAD
1000
DSTYLE
1002
{
1070
   279
1070
     1
1002
}
  0
SPLINE
  5
AA
330
3B
100
AcDbEntity
  8
Livello 01
100
AcDbSpline
210
0.0
220
0.0
230
1.0
 70
    24
 71
     2
 72
     6
 73
     3
 74
     0
 42
0.0000000001
 43
0.0000000001
 40
0.0
 40
0.0
 40
0.0
 40
20.0
 40
20.0
 40
20.0
 10
0.0322580645161534
 20
0.0
 30
-42.02352715315959
 10
10.00000000000002
 20
0.0
 30
-42.02352715315959
 10
19.9677419354839
 20
0.0
 30
-42.02352715315959
  0
LINE
  5
AB
330
3B
100
AcDbEntity
  8
Livello 01
100
AcDbLine
 10
0.0322580645161534
 20
0.0
 30
-42.02352715315959
 11
0.0322580645161534
 21
20.0
 31
-42.02352715315959
  0
SPLINE
  5
AC
330
3B
100
AcDbEntity
  8
Livello 01
100
AcDbSpline
210
0.0
220
0.0
230
1.0
 70
    24
 71
     2
 72
     6
 73
     3
 74
     0
 42
0.0000000001
 43
0.0000000001
 40
0.0
 40
0.0
 40
0.0
 40
20.0
 40
20.0
 40
20.0
 10
0.0322580645161534
 20
20.0
 30
-42.02352715315959
 10
10.00000000000002
 20
20.0
 30
-42.02352715315959
 10
19.9677419354839
 20
20.0
 30
-42.02352715315959
  0
SPLINE
  5
AD
330
3B
100
AcDbEntity
  8
Livello 01
100
AcDbSpline
210
0.0
220
0.0
230
1.0
 70
    24
 71
     2
 72
     6
 73
     3
 74
     0
 42
0.0000000001
 43
0.0000000001
 40
1010.0
 40
1010.0
 40
1010.0
 40
1110.0
 40
1110.0
 40
1110.0
 10
0.0322580645161286
 20
0.0
 30
-142.0235271531596
 10
0.032258064516141
 20
0.0
 30
-92.0235271531596
 10
0.0322580645161534
 20
0.0
 30
-42.02352715315959
  0
SPLINE
  5
AE
330
3B
100
AcDbEntity
  8
Livello 01
100
AcDbSpline
210
0.0
220
0.0
230
1.0
 70
    24
 71
     2
 72
     6
 73
     3
 74
     0
 42
0.0000000001
 43
0.0000000001
 40
635.0
 40
635.0
 40
635.0
 40
1010.0
 40
1010.0
 40
1010.0
 10
637.9677419354839
 20
0.0
 30
-142.0235271531596
 10
319.0
 20
0.0
 30
-142.0235271531596
 10
0.0322580645161286
 20
0.0
 30
-142.0235271531596
  0
SPLINE
  5
AF
330
3B
100
AcDbEntity
  8
Livello 01
100
AcDbSpline
210
0.0
220
0.0
230
1.0
 70
    24
 71
     2
 72
     6
 73
     3
 74
     0
 42
0.0000000001
 43
0.0000000001
 40
535.0
 40
535.0
 40
535.0
 40
635.0
 40
635.0
 40
635.0
 10
637.9677419354839
 20
0.0
 30
-42.02352715315959
 10
637.9677419354839
 20
0.0
 30
-92.0235271531596
 10
637.9677419354839
 20
0.0
 30
-142.0235271531596
  0
SPLINE
  5
B0
330
3B
100
AcDbEntity
  8
Livello 01
100
AcDbSpline
210
0.0
220
0.0
230
1.0
 70
    24
 71
     2
 72
     6
 73
     3
 74
     0
 42
0.0000000001
 43
0.0000000001
 40
515.0
 40
515.0
 40
515.0
 40
535.0
 40
535.0
 40
535.0
 10
618.0322580645162
 20
0.0
 30
-42.02352715315959
 10
628.0
 20
0.0
 30
-42.02352715315959
 10
637.9677419354839
 20
0.0
 30
-42.02352715315959
  0
SPLINE
  5
B1
330
3B
100
AcDbEntity
  8
Livello 01
100
AcDbSpline
210
0.0
220
0.0
230
1.0
 70
    24
 71
     2
 72
     6
 73
     3
 74
     0
 42
0.0000000001
 43
0.0000000001
 40
435.0
 40
435.0
 40
435.0
 40
515.0
 40
515.0
 40
515.0
 10
618.0322580645162
 20
0.0
 30
-122.0235271531596
 10
618.0322580645162
 20
0.0
 30
-82.0235271531596
 10
618.0322580645162
 20
0.0
 30
-42.02352715315959
  0
SPLINE
  5
B2
330
3B
100
AcDbEntity
  8
Livello 01
100
AcDbSpline
210
0.0
220
0.0
230
1.0
 70
    24
 71
     2
 72
     6
 73
     3
 74
     0
 42
0.0000000001
 43
0.0000000001
 40
100.0
 40
100.0
 40
100.0
 40
435.0
 40
435.0
 40
435.0
 10
19.9677419354839
 20
0.0
 30
-122.0235271531596
 10
319.0000000000001
 20
0.0
 30
-122.0235271531596
 10
618.0322580645162
 20
0.0
 30
-122.0235271531596
  0
SPLINE
  5
B3
330
3B
100
AcDbEntity
  8
Livello 01
100
AcDbSpline
210
0.0
220
0.0
230
1.0
 70
    24
 71
     2
 72
     6
 73
     3
 74
     0
 42
0.0000000001
 43
0.0000000001
 40
20.0
 40
20.0
 40
20.0
 40
100.0
 40
100.0
 40
100.0
 10
19.9677419354839
 20
0.0
 30
-42.02352715315959
 10
19.9677419354839
 20
0.0
 30
-82.0235271531596
 10
19.9677419354839
 20
0.0
 30
-122.0235271531596
  0
SPLINE
  5
B4
330
3B
100
AcDbEntity
  8
Livello 01
100
AcDbSpline
210
0.0
220
0.0
230
1.0
 70
    24
 71
     2
 72
     6
 73
     3
 74
     0
 42
0.0000000001
 43
0.0000000001
 40
1010.0
 40
1010.0
 40
1010.0
 40
1110.0
 40
1110.0
 40
1110.0
 10
0.0322580645161286
 20
20.0
 30
-142.0235271531596
 10
0.032258064516141
 20
20.0
 30
-92.0235271531596
 10
0.0322580645161534
 20
20.0
 30
-42.02352715315959
  0
SPLINE
  5
B5
330
3B
100
AcDbEntity
  8
Livello 01
100
AcDbSpline
210
0.0
220
0.0
230
1.0
 70
    24
 71
     2
 72
     6
 73
     3
 74
     0
 42
0.0000000001
 43
0.0000000001
 40
635.0
 40
635.0
 40
635.0
 40
1010.0
 40
1010.0
 40
1010.0
 10
637.9677419354839
 20
20.0
 30
-142.0235271531596
 10
319.0
 20
20.0
 30
-142.0235271531596
 10
0.0322580645161286
 20
20.0
 30
-142.0235271531596
  0
SPLINE
  5
B6
330
3B
100
AcDbEntity
  8
Livello 01
100
AcDbSpline
210
0.0
220
0.0
230
1.0
 70
    24
 71
     2
 72
     6
 73
     3
 74
     0
 42
0.0000000001
 43
0.0000000001
 40
535.0
 40
535.0
 40
535.0
 40
635.0
 40
635.0
 40
635.0
 10
637.9677419354839
 20
20.0
 30
-42.02352715315959
 10
637.9677419354839
 20
20.0
 30
-92.0235271531596
 10
637.9677419354839
 20
20.0
 30
-142.0235271531596
  0
SPLINE
  5
B7
330
3B
100
AcDbEntity
  8
Livello 01
100
AcDbSpline
210
0.0
220
0.0
230
1.0
 70
    24
 71
     2
 72
     6
 73
     3
 74
     0
 42
0.0000000001
 43
0.0000000001
 40
515.0
 40
515.0
 40
515.0
 40
535.0
 40
535.0
 40
535.0
 10
618.0322580645162
 20
20.0
 30
-42.02352715315959
 10
628.0
 20
20.0
 30
-42.02352715315959
 10
637.9677419354839
 20
20.0
 30
-42.02352715315959
  0
SPLINE
  5
B8
330
3B
100
AcDbEntity
  8
Livello 01
100
AcDbSpline
210
0.0
220
0.0
230
1.0
 70
    24
 71
     2
 72
     6
 73
     3
 74
     0
 42
0.0000000001
 43
0.0000000001
 40
435.0
 40
435.0
 40
435.0
 40
515.0
 40
515.0
 40
515.0
 10
618.0322580645162
 20
20.0
 30
-122.0235271531596
 10
618.0322580645162
 20
20.0
 30
-82.0235271531596
 10
618.0322580645162
 20
20.0
 30
-42.02352715315959
  0
SPLINE
  5
B9
330
3B
100
AcDbEntity
  8
Livello 01
100
AcDbSpline
210
0.0
220
0.0
230
1.0
 70
    24
 71
     2
 72
     6
 73
     3
 74
     0
 42
0.0000000001
 43
0.0000000001
 40
100.0
 40
100.0
 40
100.0
 40
435.0
 40
435.0
 40
435.0
 10
19.9677419354839
 20
20.0
 30
-122.0235271531596
 10
319.0000000000001
 20
20.0
 30
-122.0235271531596
 10
618.0322580645162
 20
20.0
 30
-122.0235271531596
  0
SPLINE
  5
BA
330
3B
100
AcDbEntity
  8
Livello 01
100
AcDbSpline
210
0.0
220
0.0
230
1.0
 70
    24
 71
     2
 72
     6
 73
     3
 74
     0
 42
0.0000000001
 43
0.0000000001
 40
20.0
 40
20.0
 40
20.0
 40
100.0
 40
100.0
 40
100.0
 10
19.9677419354839
 20
20.0
 30
-42.02352715315959
 10
19.9677419354839
 20
20.0
 30
-82.0235271531596
 10
19.9677419354839
 20
20.0
 30
-122.0235271531596
  0
LINE
  5
BB
330
3B
100
AcDbEntity
  8
Livello 01
100
AcDbLine
 10
0.0322580645161286
 20
0.0
 30
-142.0235271531596
 11
0.0322580645161286
 21
20.0
 31
-142.0235271531596
  0
LINE
  5
BC
330
3B
100
AcDbEntity
  8
Livello 01
100
AcDbLine
 10
637.9677419354839
 20
0.0
 30
-142.0235271531596
 11
637.9677419354839
 21
20.0
 31
-142.0235271531596
  0
LINE
  5
BD
330
3B
100
AcDbEntity
  8
Livello 01
100
AcDbLine
 10
637.9677419354839
 20
0.0
 30
-42.02352715315959
 11
637.9677419354839
 21
20.0
 31
-42.02352715315959
  0
LINE
  5
BE
330
3B
100
AcDbEntity
  8
Livello 01
100
AcDbLine
 10
618.0322580645162
 20
0.0
 30
-42.02352715315959
 11
618.0322580645162
 21
20.0
 31
-42.02352715315959
  0
LINE
  5
BF
330
3B
100
AcDbEntity
  8
Livello 01
100
AcDbLine
 10
618.0322580645162
 20
0.0
 30
-122.0235271531596
 11
618.0322580645162
 21
20.0
 31
-122.0235271531596
  0
LINE
  5
C0
330
3B
100
AcDbEntity
  8
Livello 01
100
AcDbLine
 10
19.9677419354839
 20
0.0
 30
-122.0235271531596
 11
19.9677419354839
 21
20.0
 31
-122.0235271531596
  0
LINE
  5
C1
330
3B
100
AcDbEntity
  8
Livello 01
100
AcDbLine
 10
19.9677419354839
 20
0.0
 30
-42.02352715315959
 11
19.9677419354839
 21
20.0
 31
-42.02352715315959
  0
SPLINE
  5
C2
330
3B
100
AcDbEntity
  8
Livello 01
100
AcDbSpline
210
0.0
220
0.0
230
1.0
 70
    24
 71
     2
 72
     6
 73
     3
 74
     0
 42
0.0000000001
 43
0.0000000001
 40
-0.0000000000000124
 40
-0.0000000000000124
 40
-0.0000000000000124
 40
20.0
 40
20.0
 40
20.0
 10
0.032258064516141
 20
0.0
 30
-92.0235271531595
 10
10.00000000000002
 20
0.0
 30
-92.0235271531595
 10
19.9677419354839
 20
0.0
 30
-92.0235271531595
  0
SPLINE
  5
C3
330
3B
100
AcDbEntity
  8
Livello 01
100
AcDbSpline
210
0.0
220
0.0
230
1.0
 70
    24
 71
     2
 72
     6
 73
     3
 74
     0
 42
0.0000000001
 43
0.0000000001
 40
620.0
 40
620.0
 40
620.0
 40
640.0
 40
640.0
 40
640.0
 10
618.0322580645162
 20
0.0
 30
-92.0235271531595
 10
628.0
 20
0.0
 30
-92.0235271531595
 10
637.9677419354839
 20
0.0
 30
-92.0235271531595
  0
SPLINE
  5
C4
330
3B
100
AcDbEntity
  8
Livello 01
100
AcDbSpline
210
0.0
220
0.0
230
1.0
 70
    24
 71
     2
 72
     6
 73
     3
 74
     0
 42
0.0000000001
 43
0.0000000001
 40
886.4507905312652
 40
886.4507905312652
 40
886.4507905312652
 40
906.4507905312652
 40
906.4507905312652
 40
906.4507905312652
 10
319.0
 20
0.0
 30
-122.0235271531595
 10
319.0
 20
0.0
 30
-132.0235271531595
 10
319.0
 20
0.0
 30
-142.0235271531595
  0
SPLINE
  5
C5
330
3B
100
AcDbEntity
  8
Livello 01
100
AcDbSpline
210
0.0
220
0.0
230
1.0
 70
    24
 71
     2
 72
     6
 73
     3
 74
     0
 42
0.0000000001
 43
0.0000000001
 40
-1110.0
 40
-1110.0
 40
-1110.0
 40
-1010.0
 40
-1010.0
 40
-1010.0
 10
0.0322580645161534
 20
10.0
 30
-42.02352715315959
 10
0.032258064516141
 20
10.0
 30
-92.0235271531596
 10
0.0322580645161286
 20
10.0
 30
-142.0235271531596
  0
LINE
  5
C6
330
3B
100
AcDbEntity
  8
Livello 01
100
AcDbLine
 10
0.0322580645161423
 20
0.0
 30
-92.02352715315959
 11
0.0322580645161423
 21
20.0
 31
-92.02352715315959
  0
SPLINE
  5
C7
330
3B
100
AcDbEntity
  8
Livello 01
100
AcDbSpline
210
0.0
220
0.0
230
1.0
 70
    24
 71
     2
 72
     6
 73
     3
 74
     0
 42
0.0000000001
 43
0.0000000001
 40
-0.0000000000000124
 40
-0.0000000000000124
 40
-0.0000000000000124
 40
20.0
 40
20.0
 40
20.0
 10
0.032258064516141
 20
20.0
 30
-92.0235271531595
 10
10.00000000000002
 20
20.0
 30
-92.0235271531595
 10
19.9677419354839
 20
20.0
 30
-92.0235271531595
  0
SPLINE
  5
C8
330
3B
100
AcDbEntity
  8
Livello 01
100
AcDbSpline
210
0.0
220
0.0
230
1.0
 70
    24
 71
     2
 72
     6
 73
     3
 74
     0
 42
0.0000000001
 43
0.0000000001
 40
620.0
 40
620.0
 40
620.0
 40
640.0
 40
640.0
 40
640.0
 10
618.0322580645162
 20
20.0
 30
-92.0235271531595
 10
628.0
 20
20.0
 30
-92.0235271531595
 10
637.9677419354839
 20
20.0
 30
-92.0235271531595
  0
SPLINE
  5
C9
330
3B
100
AcDbEntity
  8
Livello 01
100
AcDbSpline
210
0.0
220
0.0
230
1.0
 70
    24
 71
     2
 72
     6
 73
     3
 74
     0
 42
0.0000000001
 43
0.0000000001
 40
886.4507905312652
 40
886.4507905312652
 40
886.4507905312652
 40
906.4507905312652
 40
906.4507905312652
 40
906.4507905312652
 10
319.0
 20
20.0
 30
-122.0235271531595
 10
319.0
 20
20.0
 30
-132.0235271531595
 10
319.0
 20
20.0
 30
-142.0235271531595
  0
SPLINE
  5
CA
330
3B
100
AcDbEntity
  8
Livello 01
100
AcDbSpline
210
0.0
220
0.0
230
1.0
 70
    24
 71
     2
 72
     6
 73
     3
 74
     0
 42
0.0000000001
 43
0.0000000001
 40
-1010.0
 40
-1010.0
 40
-1010.0
 40
-635.0
 40
-635.0
 40
-635.0
 10
0.0322580645161286
 20
10.0
 30
-142.0235271531596
 10
319.0
 20
10.0
 30
-142.0235271531596
 10
637.9677419354839
 20
10.0
 30
-142.0235271531596
  0
LINE
  5
CB
330
3B
100
AcDbEntity
  8
Livello 01
100
AcDbLine
 10
319.0
 20
0.0
 30
-142.0235271531596
 11
319.0
 21
20.0
 31
-142.0235271531596
  0
SPLINE
  5
CC
330
3B
100
AcDbEntity
  8
Livello 01
100
AcDbSpline
210
0.0
220
0.0
230
1.0
 70
    24
 71
     2
 72
     6
 73
     3
 74
     0
 42
0.0000000001
 43
0.0000000001
 40
-635.0
 40
-635.0
 40
-635.0
 40
-535.0
 40
-535.0
 40
-535.0
 10
637.9677419354839
 20
10.0
 30
-142.0235271531596
 10
637.9677419354839
 20
10.0
 30
-92.0235271531596
 10
637.9677419354839
 20
10.0
 30
-42.02352715315959
  0
LINE
  5
CD
330
3B
100
AcDbEntity
  8
Livello 01
100
AcDbLine
 10
637.9677419354839
 20
0.0
 30
-92.02352715315959
 11
637.9677419354839
 21
20.0
 31
-92.02352715315959
  0
SPLINE
  5
CE
330
3B
100
AcDbEntity
  8
Livello 01
100
AcDbSpline
210
0.0
220
0.0
230
1.0
 70
    24
 71
     2
 72
     6
 73
     3
 74
     0
 42
0.0000000001
 43
0.0000000001
 40
-535.0
 40
-535.0
 40
-535.0
 40
-515.0
 40
-515.0
 40
-515.0
 10
637.9677419354839
 20
10.0
 30
-42.02352715315959
 10
628.0
 20
10.0
 30
-42.02352715315959
 10
618.0322580645162
 20
10.0
 30
-42.02352715315959
  0
LINE
  5
CF
330
3B
100
AcDbEntity
  8
Livello 01
100
AcDbLine
 10
628.0
 20
0.0
 30
-42.02352715315959
 11
628.0
 21
20.0
 31
-42.02352715315959
  0
SPLINE
  5
D0
330
3B
100
AcDbEntity
  8
Livello 01
100
AcDbSpline
210
0.0
220
0.0
230
1.0
 70
    24
 71
     2
 72
     6
 73
     3
 74
     0
 42
0.0000000001
 43
0.0000000001
 40
-515.0
 40
-515.0
 40
-515.0
 40
-435.0
 40
-435.0
 40
-435.0
 10
618.0322580645162
 20
10.0
 30
-42.02352715315959
 10
618.0322580645162
 20
10.0
 30
-82.0235271531596
 10
618.0322580645162
 20
10.0
 30
-122.0235271531596
  0
LINE
  5
D1
330
3B
100
AcDbEntity
  8
Livello 01
100
AcDbLine
 10
618.0322580645162
 20
0.0
 30
-82.02352715315959
 11
618.0322580645162
 21
20.0
 31
-82.02352715315959
  0
SPLINE
  5
D2
330
3B
100
AcDbEntity
  8
Livello 01
100
AcDbSpline
210
0.0
220
0.0
230
1.0
 70
    24
 71
     2
 72
     6
 73
     3
 74
     0
 42
0.0000000001
 43
0.0000000001
 40
-435.0
 40
-435.0
 40
-435.0
 40
-100.0
 40
-100.0
 40
-100.0
 10
618.0322580645162
 20
10.0
 30
-122.0235271531596
 10
319.0000000000001
 20
10.0
 30
-122.0235271531596
 10
19.9677419354839
 20
10.0
 30
-122.0235271531596
  0
LINE
  5
D3
330
3B
100
AcDbEntity
  8
Livello 01
100
AcDbLine
 10
319.0000000000001
 20
0.0
 30
-122.0235271531596
 11
319.0000000000001
 21
20.0
 31
-122.0235271531596
  0
SPLINE
  5
D4
330
3B
100
AcDbEntity
  8
Livello 01
100
AcDbSpline
210
0.0
220
0.0
230
1.0
 70
    24
 71
     2
 72
     6
 73
     3
 74
     0
 42
0.0000000001
 43
0.0000000001
 40
-100.0
 40
-100.0
 40
-100.0
 40
-20.0
 40
-20.0
 40
-20.0
 10
19.9677419354839
 20
10.0
 30
-122.0235271531596
 10
19.96774193548389
 20
10.0
 30
-82.0235271531596
 10
19.96774193548389
 20
10.0
 30
-42.02352715315959
  0
LINE
  5
D5
330
3B
100
AcDbEntity
  8
Livello 01
100
AcDbLine
 10
19.9677419354839
 20
0.0
 30
-82.02352715315959
 11
19.9677419354839
 21
20.0
 31
-82.02352715315959
  0
SPLINE
  5
D6
330
3B
100
AcDbEntity
  8
Livello 01
100
AcDbSpline
210
0.0
220
0.0
230
1.0
 70
    24
 71
     2
 72
     6
 73
     3
 74
     0
 42
0.0000000001
 43
0.0000000001
 40
-20.0
 40
-20.0
 40
-20.0
 40
0.0
 40
0.0
 40
0.0
 10
19.96774193548391
 20
10.0
 30
-42.02352715315959
 10
10.00000000000004
 20
10.0
 30
-42.02352715315959
 10
0.0322580645161641
 20
10.0
 30
-42.02352715315959
  0
LINE
  5
D7
330
3B
100
AcDbEntity
  8
Livello 01
100
AcDbLine
 10
10.00000000000004
 20
0.0
 30
-42.02352715315959
 11
10.00000000000004
 21
20.0
 31
-42.02352715315959
  0
DIMENSION
  5
D8
330
3B
100
AcDbEntity
  8
Livello 01
100
AcDbDimension
  2
*D4
 10
547.0
 20
0.0
 30
416.7269084190325
 11
278.5
 21
446.7519084190325
 31
0.0
 70
    32
  1
<>
 71
     5
 42
537.0
210
0.0
220
-1.0
230
0.0
  3
Default
100
AcDbAlignedDimension
 13
10.00000000000002
 23
0.0
 33
314.8208488552091
 14
547.0
 24
0.0
 34
314.8208488552091
100
AcDbRotatedDimension
1001
ACAD
1000
DSTYLE
1002
{
1070
   279
1070
     1
1002
}
  0
SPLINE
  5
E5
330
3B
100
AcDbEntity
  8
Livello 01
100
AcDbSpline
210
0.0
220
0.0
230
1.0
 70
    24
 71
     2
 72
     6
 73
     3
 74
     0
 42
0.0000000001
 43
0.0000000001
 40
0.0
 40
0.0
 40
0.0
 40
20.0
 40
20.0
 40
20.0
 10
0.0555555555555802
 20
0.0
 30
314.8208488552091
 10
10.00000000000002
 20
0.0
 30
314.8208488552091
 10
19.94444444444447
 20
0.0
 30
314.8208488552091
  0
LINE
  5
E6
330
3B
100
AcDbEntity
  8
Livello 01
100
AcDbLine
 10
0.0555555555555802
 20
0.0
 30
314.8208488552091
 11
0.0555555555555802
 21
20.0
 31
314.8208488552091
  0
SPLINE
  5
E7
330
3B
100
AcDbEntity
  8
Livello 01
100
AcDbSpline
210
0.0
220
0.0
230
1.0
 70
    24
 71
     2
 72
     6
 73
     3
 74
     0
 42
0.0000000001
 43
0.0000000001
 40
0.0
 40
0.0
 40
0.0
 40
20.0
 40
20.0
 40
20.0
 10
0.0555555555555802
 20
20.0
 30
314.8208488552091
 10
10.00000000000002
 20
20.0
 30
314.8208488552091
 10
19.94444444444447
 20
20.0
 30
314.8208488552091
  0
SPLINE
  5
E8
330
3B
100
AcDbEntity
  8
Livello 01
100
AcDbSpline
210
0.0
220
0.0
230
1.0
 70
    24
 71
     2
 72
     6
 73
     3
 74
     0
 42
0.0000000001
 43
0.0000000001
 40
1010.0
 40
1010.0
 40
1010.0
 40
1110.0
 40
1110.0
 40
1110.0
 10
0.0555555555555555
 20
0.0
 30
214.8208488552091
 10
0.0555555555555679
 20
0.0
 30
264.8208488552091
 10
0.0555555555555802
 20
0.0
 30
314.8208488552091
  0
SPLINE
  5
E9
330
3B
100
AcDbEntity
  8
Livello 01
100
AcDbSpline
210
0.0
220
0.0
230
1.0
 70
    24
 71
     2
 72
     6
 73
     3
 74
     0
 42
0.0000000001
 43
0.0000000001
 40
635.0
 40
635.0
 40
635.0
 40
1010.0
 40
1010.0
 40
1010.0
 10
556.9444444444445
 20
0.0
 30
214.8208488552091
 10
278.5
 20
0.0
 30
214.8208488552091
 10
0.0555555555555555
 20
0.0
 30
214.8208488552091
  0
SPLINE
  5
EA
330
3B
100
AcDbEntity
  8
Livello 01
100
AcDbSpline
210
0.0
220
0.0
230
1.0
 70
    24
 71
     2
 72
     6
 73
     3
 74
     0
 42
0.0000000001
 43
0.0000000001
 40
535.0
 40
535.0
 40
535.0
 40
635.0
 40
635.0
 40
635.0
 10
556.9444444444445
 20
0.0
 30
314.8208488552091
 10
556.9444444444445
 20
0.0
 30
264.8208488552091
 10
556.9444444444445
 20
0.0
 30
214.8208488552091
  0
SPLINE
  5
EB
330
3B
100
AcDbEntity
  8
Livello 01
100
AcDbSpline
210
0.0
220
0.0
230
1.0
 70
    24
 71
     2
 72
     6
 73
     3
 74
     0
 42
0.0000000001
 43
0.0000000001
 40
515.0
 40
515.0
 40
515.0
 40
535.0
 40
535.0
 40
535.0
 10
537.0555555555555
 20
0.0
 30
314.8208488552091
 10
547.0
 20
0.0
 30
314.8208488552091
 10
556.9444444444445
 20
0.0
 30
314.8208488552091
  0
SPLINE
  5
EC
330
3B
100
AcDbEntity
  8
Livello 01
100
AcDbSpline
210
0.0
220
0.0
230
1.0
 70
    24
 71
     2
 72
     6
 73
     3
 74
     0
 42
0.0000000001
 43
0.0000000001
 40
435.0
 40
435.0
 40
435.0
 40
515.0
 40
515.0
 40
515.0
 10
537.0555555555555
 20
0.0
 30
234.8208488552091
 10
537.0555555555555
 20
0.0
 30
274.8208488552091
 10
537.0555555555555
 20
0.0
 30
314.8208488552091
  0
SPLINE
  5
ED
330
3B
100
AcDbEntity
  8
Livello 01
100
AcDbSpline
210
0.0
220
0.0
230
1.0
 70
    24
 71
     2
 72
     6
 73
     3
 74
     0
 42
0.0000000001
 43
0.0000000001
 40
100.0
 40
100.0
 40
100.0
 40
435.0
 40
435.0
 40
435.0
 10
19.94444444444447
 20
0.0
 30
234.8208488552091
 10
278.5
 20
0.0
 30
234.8208488552091
 10
537.0555555555555
 20
0.0
 30
234.8208488552091
  0
SPLINE
  5
EE
330
3B
100
AcDbEntity
  8
Livello 01
100
AcDbSpline
210
0.0
220
0.0
230
1.0
 70
    24
 71
     2
 72
     6
 73
     3
 74
     0
 42
0.0000000001
 43
0.0000000001
 40
20.0
 40
20.0
 40
20.0
 40
100.0
 40
100.0
 40
100.0
 10
19.94444444444447
 20
0.0
 30
314.8208488552091
 10
19.94444444444447
 20
0.0
 30
274.8208488552091
 10
19.94444444444447
 20
0.0
 30
234.8208488552091
  0
SPLINE
  5
EF
330
3B
100
AcDbEntity
  8
Livello 01
100
AcDbSpline
210
0.0
220
0.0
230
1.0
 70
    24
 71
     2
 72
     6
 73
     3
 74
     0
 42
0.0000000001
 43
0.0000000001
 40
1010.0
 40
1010.0
 40
1010.0
 40
1110.0
 40
1110.0
 40
1110.0
 10
0.0555555555555555
 20
20.0
 30
214.8208488552091
 10
0.0555555555555679
 20
20.0
 30
264.8208488552091
 10
0.0555555555555802
 20
20.0
 30
314.8208488552091
  0
SPLINE
  5
F0
330
3B
100
AcDbEntity
  8
Livello 01
100
AcDbSpline
210
0.0
220
0.0
230
1.0
 70
    24
 71
     2
 72
     6
 73
     3
 74
     0
 42
0.0000000001
 43
0.0000000001
 40
635.0
 40
635.0
 40
635.0
 40
1010.0
 40
1010.0
 40
1010.0
 10
556.9444444444445
 20
20.0
 30
214.8208488552091
 10
278.5
 20
20.0
 30
214.8208488552091
 10
0.0555555555555555
 20
20.0
 30
214.8208488552091
  0
SPLINE
  5
F1
330
3B
100
AcDbEntity
  8
Livello 01
100
AcDbSpline
210
0.0
220
0.0
230
1.0
 70
    24
 71
     2
 72
     6
 73
     3
 74
     0
 42
0.0000000001
 43
0.0000000001
 40
535.0
 40
535.0
 40
535.0
 40
635.0
 40
635.0
 40
635.0
 10
556.9444444444445
 20
20.0
 30
314.8208488552091
 10
556.9444444444445
 20
20.0
 30
264.8208488552091
 10
556.9444444444445
 20
20.0
 30
214.8208488552091
  0
SPLINE
  5
F2
330
3B
100
AcDbEntity
  8
Livello 01
100
AcDbSpline
210
0.0
220
0.0
230
1.0
 70
    24
 71
     2
 72
     6
 73
     3
 74
     0
 42
0.0000000001
 43
0.0000000001
 40
515.0
 40
515.0
 40
515.0
 40
535.0
 40
535.0
 40
535.0
 10
537.0555555555555
 20
20.0
 30
314.8208488552091
 10
547.0
 20
20.0
 30
314.8208488552091
 10
556.9444444444445
 20
20.0
 30
314.8208488552091
  0
SPLINE
  5
F3
330
3B
100
AcDbEntity
  8
Livello 01
100
AcDbSpline
210
0.0
220
0.0
230
1.0
 70
    24
 71
     2
 72
     6
 73
     3
 74
     0
 42
0.0000000001
 43
0.0000000001
 40
435.0
 40
435.0
 40
435.0
 40
515.0
 40
515.0
 40
515.0
 10
537.0555555555555
 20
20.0
 30
234.8208488552091
 10
537.0555555555555
 20
20.0
 30
274.8208488552091
 10
537.0555555555555
 20
20.0
 30
314.8208488552091
  0
SPLINE
  5
F4
330
3B
100
AcDbEntity
  8
Livello 01
100
AcDbSpline
210
0.0
220
0.0
230
1.0
 70
    24
 71
     2
 72
     6
 73
     3
 74
     0
 42
0.0000000001
 43
0.0000000001
 40
100.0
 40
100.0
 40
100.0
 40
435.0
 40
435.0
 40
435.0
 10
19.94444444444447
 20
20.0
 30
234.8208488552091
 10
278.5
 20
20.0
 30
234.8208488552091
 10
537.0555555555555
 20
20.0
 30
234.8208488552091
  0
SPLINE
  5
F5
330
3B
100
AcDbEntity
  8
Livello 01
100
AcDbSpline
210
0.0
220
0.0
230
1.0
 70
    24
 71
     2
 72
     6
 73
     3
 74
     0
 42
0.0000000001
 43
0.0000000001
 40
20.0
 40
20.0
 40
20.0
 40
100.0
 40
100.0
 40
100.0
 10
19.94444444444447
 20
20.0
 30
314.8208488552091
 10
19.94444444444447
 20
20.0
 30
274.8208488552091
 10
19.94444444444447
 20
20.0
 30
234.8208488552091
  0
LINE
  5
F6
330
3B
100
AcDbEntity
  8
Livello 01
100
AcDbLine
 10
0.0555555555555555
 20
0.0
 30
214.8208488552091
 11
0.0555555555555555
 21
20.0
 31
214.8208488552091
  0
LINE
  5
F7
330
3B
100
AcDbEntity
  8
Livello 01
100
AcDbLine
 10
556.9444444444445
 20
0.0
 30
214.8208488552091
 11
556.9444444444445
 21
20.0
 31
214.8208488552091
  0
LINE
  5
F8
330
3B
100
AcDbEntity
  8
Livello 01
100
AcDbLine
 10
556.9444444444445
 20
0.0
 30
314.8208488552091
 11
556.9444444444445
 21
20.0
 31
314.8208488552091
  0
LINE
  5
F9
330
3B
100
AcDbEntity
  8
Livello 01
100
AcDbLine
 10
537.0555555555555
 20
0.0
 30
314.8208488552091
 11
537.0555555555555
 21
20.0
 31
314.8208488552091
  0
LINE
  5
FA
330
3B
100
AcDbEntity
  8
Livello 01
100
AcDbLine
 10
537.0555555555555
 20
0.0
 30
234.8208488552091
 11
537.0555555555555
 21
20.0
 31
234.8208488552091
  0
LINE
  5
FB
330
3B
100
AcDbEntity
  8
Livello 01
100
AcDbLine
 10
19.94444444444447
 20
0.0
 30
234.8208488552091
 11
19.94444444444447
 21
20.0
 31
234.8208488552091
  0
LINE
  5
FC
330
3B
100
AcDbEntity
  8
Livello 01
100
AcDbLine
 10
19.94444444444447
 20
0.0
 30
314.8208488552091
 11
19.94444444444447
 21
20.0
 31
314.8208488552091
  0
SPLINE
  5
FD
330
3B
100
AcDbEntity
  8
Livello 01
100
AcDbSpline
210
0.0
220
0.0
230
1.0
 70
    24
 71
     2
 72
     6
 73
     3
 74
     0
 42
0.0000000001
 43
0.0000000001
 40
-0.0000000000000124
 40
-0.0000000000000124
 40
-0.0000000000000124
 40
20.0
 40
20.0
 40
20.0
 10
0.0555555555555679
 20
0.0
 30
264.8208488552092
 10
10.00000000000002
 20
0.0
 30
264.8208488552092
 10
19.94444444444447
 20
0.0
 30
264.8208488552092
  0
SPLINE
  5
FE
330
3B
100
AcDbEntity
  8
Livello 01
100
AcDbSpline
210
0.0
220
0.0
230
1.0
 70
    24
 71
     2
 72
     6
 73
     3
 74
     0
 42
0.0000000001
 43
0.0000000001
 40
540.0
 40
540.0
 40
540.0
 40
560.0
 40
560.0
 40
560.0
 10
537.0555555555555
 20
0.0
 30
264.8208488552092
 10
547.0
 20
0.0
 30
264.8208488552092
 10
556.9444444444445
 20
0.0
 30
264.8208488552092
  0
SPLINE
  5
FF
330
3B
100
AcDbEntity
  8
Livello 01
100
AcDbSpline
210
0.0
220
0.0
230
1.0
 70
    24
 71
     2
 72
     6
 73
     3
 74
     0
 42
0.0000000001
 43
0.0000000001
 40
722.4507905312652
 40
722.4507905312652
 40
722.4507905312652
 40
742.4507905312652
 40
742.4507905312652
 40
742.4507905312652
 10
278.5
 20
0.0
 30
234.8208488552092
 10
278.5
 20
0.0
 30
224.8208488552092
 10
278.5
 20
0.0
 30
214.8208488552092
  0
SPLINE
  5
100
330
3B
100
AcDbEntity
  8
Livello 01
100
AcDbSpline
210
0.0
220
0.0
230
1.0
 70
    24
 71
     2
 72
     6
 73
     3
 74
     0
 42
0.0000000001
 43
0.0000000001
 40
-1110.0
 40
-1110.0
 40
-1110.0
 40
-1010.0
 40
-1010.0
 40
-1010.0
 10
0.0555555555555802
 20
10.0
 30
314.8208488552092
 10
0.0555555555555679
 20
10.0
 30
264.8208488552092
 10
0.0555555555555555
 20
10.0
 30
214.8208488552092
  0
LINE
  5
101
330
3B
100
AcDbEntity
  8
Livello 01
100
AcDbLine
 10
0.0555555555555678
 20
0.0
 30
264.8208488552092
 11
0.0555555555555678
 21
20.0
 31
264.8208488552092
  0
SPLINE
  5
102
330
3B
100
AcDbEntity
  8
Livello 01
100
AcDbSpline
210
0.0
220
0.0
230
1.0
 70
    24
 71
     2
 72
     6
 73
     3
 74
     0
 42
0.0000000001
 43
0.0000000001
 40
-0.0000000000000124
 40
-0.0000000000000124
 40
-0.0000000000000124
 40
20.0
 40
20.0
 40
20.0
 10
0.0555555555555679
 20
20.0
 30
264.8208488552092
 10
10.00000000000002
 20
20.0
 30
264.8208488552092
 10
19.94444444444447
 20
20.0
 30
264.8208488552092
  0
SPLINE
  5
103
330
3B
100
AcDbEntity
  8
Livello 01
100
AcDbSpline
210
0.0
220
0.0
230
1.0
 70
    24
 71
     2
 72
     6
 73
     3
 74
     0
 42
0.0000000001
 43
0.0000000001
 40
540.0
 40
540.0
 40
540.0
 40
560.0
 40
560.0
 40
560.0
 10
537.0555555555555
 20
20.0
 30
264.8208488552092
 10
547.0
 20
20.0
 30
264.8208488552092
 10
556.9444444444445
 20
20.0
 30
264.8208488552092
  0
SPLINE
  5
104
330
3B
100
AcDbEntity
  8
Livello 01
100
AcDbSpline
210
0.0
220
0.0
230
1.0
 70
    24
 71
     2
 72
     6
 73
     3
 74
     0
 42
0.0000000001
 43
0.0000000001
 40
722.4507905312652
 40
722.4507905312652
 40
722.4507905312652
 40
742.4507905312652
 40
742.4507905312652
 40
742.4507905312652
 10
278.5
 20
20.0
 30
234.8208488552092
 10
278.5
 20
20.0
 30
224.8208488552092
 10
278.5
 20
20.0
 30
214.8208488552092
  0
SPLINE
  5
105
330
3B
100
AcDbEntity
  8
Livello 01
100
AcDbSpline
210
0.0
220
0.0
230
1.0
 70
    24
 71
     2
 72
     6
 73
     3
 74
     0
 42
0.0000000001
 43
0.0000000001
 40
-1010.0
 40
-1010.0
 40
-1010.0
 40
-635.0
 40
-635.0
 40
-635.0
 10
0.0555555555555555
 20
10.0
 30
214.8208488552091
 10
278.5
 20
10.0
 30
214.8208488552091
 10
556.9444444444445
 20
10.0
 30
214.8208488552091
  0
LINE
  5
106
330
3B
100
AcDbEntity
  8
Livello 01
100
AcDbLine
 10
278.5
 20
0.0
 30
214.8208488552091
 11
278.5
 21
20.0
 31
214.8208488552091
  0
SPLINE
  5
107
330
3B
100
AcDbEntity
  8
Livello 01
100
AcDbSpline
210
0.0
220
0.0
230
1.0
 70
    24
 71
     2
 72
     6
 73
     3
 74
     0
 42
0.0000000001
 43
0.0000000001
 40
-635.0
 40
-635.0
 40
-635.0
 40
-535.0
 40
-535.0
 40
-535.0
 10
556.9444444444445
 20
10.0
 30
214.8208488552091
 10
556.9444444444445
 20
10.0
 30
264.8208488552091
 10
556.9444444444445
 20
10.0
 30
314.8208488552091
  0
LINE
  5
108
330
3B
100
AcDbEntity
  8
Livello 01
100
AcDbLine
 10
556.9444444444445
 20
0.0
 30
264.8208488552091
 11
556.9444444444445
 21
20.0
 31
264.8208488552091
  0
SPLINE
  5
109
330
3B
100
AcDbEntity
  8
Livello 01
100
AcDbSpline
210
0.0
220
0.0
230
1.0
 70
    24
 71
     2
 72
     6
 73
     3
 74
     0
 42
0.0000000001
 43
0.0000000001
 40
-535.0
 40
-535.0
 40
-535.0
 40
-515.0
 40
-515.0
 40
-515.0
 10
556.9444444444445
 20
10.0
 30
314.8208488552092
 10
547.0
 20
10.0
 30
314.8208488552092
 10
537.0555555555555
 20
10.0
 30
314.8208488552092
  0
LINE
  5
10A
330
3B
100
AcDbEntity
  8
Livello 01
100
AcDbLine
 10
547.0
 20
0.0
 30
314.8208488552092
 11
547.0
 21
20.0
 31
314.8208488552092
  0
SPLINE
  5
10B
330
3B
100
AcDbEntity
  8
Livello 01
100
AcDbSpline
210
0.0
220
0.0
230
1.0
 70
    24
 71
     2
 72
     6
 73
     3
 74
     0
 42
0.0000000001
 43
0.0000000001
 40
-515.0
 40
-515.0
 40
-515.0
 40
-435.0
 40
-435.0
 40
-435.0
 10
537.0555555555555
 20
10.0
 30
314.8208488552092
 10
537.0555555555555
 20
10.0
 30
274.8208488552092
 10
537.0555555555555
 20
10.0
 30
234.8208488552092
  0
LINE
  5
10C
330
3B
100
AcDbEntity
  8
Livello 01
100
AcDbLine
 10
537.0555555555555
 20
0.0
 30
274.8208488552092
 11
537.0555555555555
 21
20.0
 31
274.8208488552092
  0
SPLINE
  5
10D
330
3B
100
AcDbEntity
  8
Livello 01
100
AcDbSpline
210
0.0
220
0.0
230
1.0
 70
    24
 71
     2
 72
     6
 73
     3
 74
     0
 42
0.0000000001
 43
0.0000000001
 40
-435.0
 40
-435.0
 40
-435.0
 40
-100.0
 40
-100.0
 40
-100.0
 10
537.0555555555555
 20
10.0
 30
234.8208488552092
 10
278.5
 20
10.0
 30
234.8208488552092
 10
19.94444444444447
 20
10.0
 30
234.8208488552092
  0
LINE
  5
10E
330
3B
100
AcDbEntity
  8
Livello 01
100
AcDbLine
 10
278.5
 20
0.0
 30
234.8208488552092
 11
278.5
 21
20.0
 31
234.8208488552092
  0
SPLINE
  5
10F
330
3B
100
AcDbEntity
  8
Livello 01
100
AcDbSpline
210
0.0
220
0.0
230
1.0
 70
    24
 71
     2
 72
     6
 73
     3
 74
     0
 42
0.0000000001
 43
0.0000000001
 40
-100.0
 40
-100.0
 40
-100.0
 40
-20.0
 40
-20.0
 40
-20.0
 10
19.94444444444447
 20
10.0
 30
234.8208488552092
 10
19.94444444444447
 20
10.0
 30
274.8208488552092
 10
19.94444444444447
 20
10.0
 30
314.8208488552092
  0
LINE
  5
110
330
3B
100
AcDbEntity
  8
Livello 01
100
AcDbLine
 10
19.94444444444447
 20
0.0
 30
274.8208488552092
 11
19.94444444444447
 21
20.0
 31
274.8208488552092
  0
SPLINE
  5
111
330
3B
100
AcDbEntity
  8
Livello 01
100
AcDbSpline
210
0.0
220
0.0
230
1.0
 70
    24
 71
     2
 72
     6
 73
     3
 74
     0
 42
0.0000000001
 43
0.0000000001
 40
-20.0
 40
-20.0
 40
-20.0
 40
0.0
 40
0.0
 40
0.0
 10
19.94444444444447
 20
10.0
 30
314.8208488552092
 10
10.00000000000003
 20
10.0
 30
314.8208488552092
 10
0.0555555555555838
 20
10.0
 30
314.8208488552092
  0
LINE
  5
112
330
3B
100
AcDbEntity
  8
Livello 01
100
AcDbLine
 10
10.00000000000003
 20
0.0
 30
314.8208488552092
 11
10.00000000000003
 21
20.0
 31
314.8208488552092
  0
SPLINE
  5
113
330
3B
100
AcDbEntity
  8
Livello 01
100
AcDbSpline
210
0.0
220
0.0
230
1.0
 70
    24
 71
     2
 72
     6
 73
     3
 74
     0
 42
0.0000000001
 43
0.0000000001
 40
0.0
 40
0.0
 40
0.0
 40
20.0
 40
20.0
 40
20.0
 10
0.0416666666666914
 20
0.0
 30
658.0
 10
10.00000000000002
 20
0.0
 30
658.0
 10
19.95833333333336
 20
0.0
 30
658.0
  0
LINE
  5
114
330
3B
100
AcDbEntity
  8
Livello 01
100
AcDbLine
 10
0.0416666666666914
 20
0.0
 30
658.0
 11
0.0416666666666914
 21
20.0
 31
658.0
  0
SPLINE
  5
115
330
3B
100
AcDbEntity
  8
Livello 01
100
AcDbSpline
210
0.0
220
0.0
230
1.0
 70
    24
 71
     2
 72
     6
 73
     3
 74
     0
 42
0.0000000001
 43
0.0000000001
 40
0.0
 40
0.0
 40
0.0
 40
20.0
 40
20.0
 40
20.0
 10
0.0416666666666914
 20
20.0
 30
658.0
 10
10.00000000000002
 20
20.0
 30
658.0
 10
19.95833333333336
 20
20.0
 30
658.0
  0
SPLINE
  5
116
330
3B
100
AcDbEntity
  8
Livello 01
100
AcDbSpline
210
0.0
220
0.0
230
1.0
 70
    24
 71
     2
 72
     6
 73
     3
 74
     0
 42
0.0000000001
 43
0.0000000001
 40
1010.0
 40
1010.0
 40
1010.0
 40
1110.0
 40
1110.0
 40
1110.0
 10
0.0416666666666666
 20
0.0
 30
558.0
 10
0.041666666666679
 20
0.0
 30
608.0
 10
0.0416666666666914
 20
0.0
 30
658.0
  0
SPLINE
  5
117
330
3B
100
AcDbEntity
  8
Livello 01
100
AcDbSpline
210
0.0
220
0.0
230
1.0
 70
    24
 71
     2
 72
     6
 73
     3
 74
     0
 42
0.0000000001
 43
0.0000000001
 40
635.0
 40
635.0
 40
635.0
 40
1010.0
 40
1010.0
 40
1010.0
 10
497.9583333333333
 20
0.0
 30
558.0
 10
249.0
 20
0.0
 30
558.0
 10
0.0416666666666666
 20
0.0
 30
558.0
  0
SPLINE
  5
118
330
3B
100
AcDbEntity
  8
Livello 01
100
AcDbSpline
210
0.0
220
0.0
230
1.0
 70
    24
 71
     2
 72
     6
 73
     3
 74
     0
 42
0.0000000001
 43
0.0000000001
 40
535.0
 40
535.0
 40
535.0
 40
635.0
 40
635.0
 40
635.0
 10
497.9583333333333
 20
0.0
 30
658.0
 10
497.9583333333333
 20
0.0
 30
608.0
 10
497.9583333333333
 20
0.0
 30
558.0
  0
SPLINE
  5
119
330
3B
100
AcDbEntity
  8
Livello 01
100
AcDbSpline
210
0.0
220
0.0
230
1.0
 70
    24
 71
     2
 72
     6
 73
     3
 74
     0
 42
0.0000000001
 43
0.0000000001
 40
515.0
 40
515.0
 40
515.0
 40
535.0
 40
535.0
 40
535.0
 10
478.0416666666667
 20
0.0
 30
658.0
 10
488.0
 20
0.0
 30
658.0
 10
497.9583333333333
 20
0.0
 30
658.0
  0
SPLINE
  5
11A
330
3B
100
AcDbEntity
  8
Livello 01
100
AcDbSpline
210
0.0
220
0.0
230
1.0
 70
    24
 71
     2
 72
     6
 73
     3
 74
     0
 42
0.0000000001
 43
0.0000000001
 40
435.0
 40
435.0
 40
435.0
 40
515.0
 40
515.0
 40
515.0
 10
478.0416666666667
 20
0.0
 30
578.0
 10
478.0416666666667
 20
0.0
 30
618.0
 10
478.0416666666667
 20
0.0
 30
658.0
  0
SPLINE
  5
11B
330
3B
100
AcDbEntity
  8
Livello 01
100
AcDbSpline
210
0.0
220
0.0
230
1.0
 70
    24
 71
     2
 72
     6
 73
     3
 74
     0
 42
0.0000000001
 43
0.0000000001
 40
100.0
 40
100.0
 40
100.0
 40
435.0
 40
435.0
 40
435.0
 10
19.95833333333336
 20
0.0
 30
578.0
 10
249.0
 20
0.0
 30
578.0
 10
478.0416666666667
 20
0.0
 30
578.0
  0
SPLINE
  5
11C
330
3B
100
AcDbEntity
  8
Livello 01
100
AcDbSpline
210
0.0
220
0.0
230
1.0
 70
    24
 71
     2
 72
     6
 73
     3
 74
     0
 42
0.0000000001
 43
0.0000000001
 40
20.0
 40
20.0
 40
20.0
 40
100.0
 40
100.0
 40
100.0
 10
19.95833333333336
 20
0.0
 30
658.0
 10
19.95833333333336
 20
0.0
 30
618.0
 10
19.95833333333336
 20
0.0
 30
578.0
  0
SPLINE
  5
11D
330
3B
100
AcDbEntity
  8
Livello 01
100
AcDbSpline
210
0.0
220
0.0
230
1.0
 70
    24
 71
     2
 72
     6
 73
     3
 74
     0
 42
0.0000000001
 43
0.0000000001
 40
1010.0
 40
1010.0
 40
1010.0
 40
1110.0
 40
1110.0
 40
1110.0
 10
0.0416666666666666
 20
20.0
 30
558.0
 10
0.041666666666679
 20
20.0
 30
608.0
 10
0.0416666666666914
 20
20.0
 30
658.0
  0
SPLINE
  5
11E
330
3B
100
AcDbEntity
  8
Livello 01
100
AcDbSpline
210
0.0
220
0.0
230
1.0
 70
    24
 71
     2
 72
     6
 73
     3
 74
     0
 42
0.0000000001
 43
0.0000000001
 40
635.0
 40
635.0
 40
635.0
 40
1010.0
 40
1010.0
 40
1010.0
 10
497.9583333333333
 20
20.0
 30
558.0
 10
249.0
 20
20.0
 30
558.0
 10
0.0416666666666666
 20
20.0
 30
558.0
  0
SPLINE
  5
11F
330
3B
100
AcDbEntity
  8
Livello 01
100
AcDbSpline
210
0.0
220
0.0
230
1.0
 70
    24
 71
     2
 72
     6
 73
     3
 74
     0
 42
0.0000000001
 43
0.0000000001
 40
535.0
 40
535.0
 40
535.0
 40
635.0
 40
635.0
 40
635.0
 10
497.9583333333333
 20
20.0
 30
658.0
 10
497.9583333333333
 20
20.0
 30
608.0
 10
497.9583333333333
 20
20.0
 30
558.0
  0
SPLINE
  5
120
330
3B
100
AcDbEntity
  8
Livello 01
100
AcDbSpline
210
0.0
220
0.0
230
1.0
 70
    24
 71
     2
 72
     6
 73
     3
 74
     0
 42
0.0000000001
 43
0.0000000001
 40
515.0
 40
515.0
 40
515.0
 40
535.0
 40
535.0
 40
535.0
 10
478.0416666666667
 20
20.0
 30
658.0
 10
488.0
 20
20.0
 30
658.0
 10
497.9583333333333
 20
20.0
 30
658.0
  0
SPLINE
  5
121
330
3B
100
AcDbEntity
  8
Livello 01
100
AcDbSpline
210
0.0
220
0.0
230
1.0
 70
    24
 71
     2
 72
     6
 73
     3
 74
     0
 42
0.0000000001
 43
0.0000000001
 40
435.0
 40
435.0
 40
435.0
 40
515.0
 40
515.0
 40
515.0
 10
478.0416666666667
 20
20.0
 30
578.0
 10
478.0416666666667
 20
20.0
 30
618.0
 10
478.0416666666667
 20
20.0
 30
658.0
  0
SPLINE
  5
122
330
3B
100
AcDbEntity
  8
Livello 01
100
AcDbSpline
210
0.0
220
0.0
230
1.0
 70
    24
 71
     2
 72
     6
 73
     3
 74
     0
 42
0.0000000001
 43
0.0000000001
 40
100.0
 40
100.0
 40
100.0
 40
435.0
 40
435.0
 40
435.0
 10
19.95833333333336
 20
20.0
 30
578.0
 10
249.0
 20
20.0
 30
578.0
 10
478.0416666666667
 20
20.0
 30
578.0
  0
SPLINE
  5
123
330
3B
100
AcDbEntity
  8
Livello 01
100
AcDbSpline
210
0.0
220
0.0
230
1.0
 70
    24
 71
     2
 72
     6
 73
     3
 74
     0
 42
0.0000000001
 43
0.0000000001
 40
20.0
 40
20.0
 40
20.0
 40
100.0
 40
100.0
 40
100.0
 10
19.95833333333336
 20
20.0
 30
658.0
 10
19.95833333333336
 20
20.0
 30
618.0
 10
19.95833333333336
 20
20.0
 30
578.0
  0
LINE
  5
124
330
3B
100
AcDbEntity
  8
Livello 01
100
AcDbLine
 10
0.0416666666666666
 20
0.0
 30
558.0
 11
0.0416666666666666
 21
20.0
 31
558.0
  0
LINE
  5
125
330
3B
100
AcDbEntity
  8
Livello 01
100
AcDbLine
 10
497.9583333333333
 20
0.0
 30
558.0
 11
497.9583333333333
 21
20.0
 31
558.0
  0
LINE
  5
126
330
3B
100
AcDbEntity
  8
Livello 01
100
AcDbLine
 10
497.9583333333333
 20
0.0
 30
658.0
 11
497.9583333333333
 21
20.0
 31
658.0
  0
LINE
  5
127
330
3B
100
AcDbEntity
  8
Livello 01
100
AcDbLine
 10
478.0416666666667
 20
0.0
 30
658.0
 11
478.0416666666667
 21
20.0
 31
658.0
  0
LINE
  5
128
330
3B
100
AcDbEntity
  8
Livello 01
100
AcDbLine
 10
478.0416666666667
 20
0.0
 30
578.0
 11
478.0416666666667
 21
20.0
 31
578.0
  0
LINE
  5
129
330
3B
100
AcDbEntity
  8
Livello 01
100
AcDbLine
 10
19.95833333333336
 20
0.0
 30
578.0
 11
19.95833333333336
 21
20.0
 31
578.0
  0
LINE
  5
12A
330
3B
100
AcDbEntity
  8
Livello 01
100
AcDbLine
 10
19.95833333333336
 20
0.0
 30
658.0
 11
19.95833333333336
 21
20.0
 31
658.0
  0
SPLINE
  5
12B
330
3B
100
AcDbEntity
  8
Livello 01
100
AcDbSpline
210
0.0
220
0.0
230
1.0
 70
    24
 71
     2
 72
     6
 73
     3
 74
     0
 42
0.0000000001
 43
0.0000000001
 40
-0.0000000000000124
 40
-0.0000000000000124
 40
-0.0000000000000124
 40
20.0
 40
20.0
 40
20.0
 10
0.041666666666679
 20
0.0
 30
608.0000000000001
 10
10.00000000000002
 20
0.0
 30
608.0000000000001
 10
19.95833333333336
 20
0.0
 30
608.0000000000001
  0
SPLINE
  5
12C
330
3B
100
AcDbEntity
  8
Livello 01
100
AcDbSpline
210
0.0
220
0.0
230
1.0
 70
    24
 71
     2
 72
     6
 73
     3
 74
     0
 42
0.0000000001
 43
0.0000000001
 40
480.0
 40
480.0
 40
480.0
 40
500.0
 40
500.0
 40
500.0
 10
478.0416666666666
 20
0.0
 30
608.0000000000001
 10
488.0
 20
0.0
 30
608.0000000000001
 10
497.9583333333333
 20
0.0
 30
608.0000000000001
  0
SPLINE
  5
12D
330
3B
100
AcDbEntity
  8
Livello 01
100
AcDbSpline
210
0.0
220
0.0
230
1.0
 70
    24
 71
     2
 72
     6
 73
     3
 74
     0
 42
0.0000000001
 43
0.0000000001
 40
513.4507905312652
 40
513.4507905312652
 40
513.4507905312652
 40
533.4507905312652
 40
533.4507905312652
 40
533.4507905312652
 10
249.0
 20
0.0
 30
578.0000000000001
 10
249.0
 20
0.0
 30
568.0000000000001
 10
249.0
 20
0.0
 30
558.0000000000001
  0
SPLINE
  5
12E
330
3B
100
AcDbEntity
  8
Livello 01
100
AcDbSpline
210
0.0
220
0.0
230
1.0
 70
    24
 71
     2
 72
     6
 73
     3
 74
     0
 42
0.0000000001
 43
0.0000000001
 40
-1110.0
 40
-1110.0
 40
-1110.0
 40
-1010.0
 40
-1010.0
 40
-1010.0
 10
0.0416666666666914
 20
10.0
 30
658.0000000000001
 10
0.041666666666679
 20
10.0
 30
608.0000000000001
 10
0.0416666666666666
 20
10.0
 30
558.0000000000001
  0
LINE
  5
12F
330
3B
100
AcDbEntity
  8
Livello 01
100
AcDbLine
 10
0.0416666666666785
 20
0.0
 30
608.0000000000001
 11
0.0416666666666785
 21
20.0
 31
608.0000000000001
  0
SPLINE
  5
130
330
3B
100
AcDbEntity
  8
Livello 01
100
AcDbSpline
210
0.0
220
0.0
230
1.0
 70
    24
 71
     2
 72
     6
 73
     3
 74
     0
 42
0.0000000001
 43
0.0000000001
 40
-0.0000000000000124
 40
-0.0000000000000124
 40
-0.0000000000000124
 40
20.0
 40
20.0
 40
20.0
 10
0.041666666666679
 20
20.0
 30
608.0000000000001
 10
10.00000000000002
 20
20.0
 30
608.0000000000001
 10
19.95833333333336
 20
20.0
 30
608.0000000000001
  0
SPLINE
  5
131
330
3B
100
AcDbEntity
  8
Livello 01
100
AcDbSpline
210
0.0
220
0.0
230
1.0
 70
    24
 71
     2
 72
     6
 73
     3
 74
     0
 42
0.0000000001
 43
0.0000000001
 40
480.0
 40
480.0
 40
480.0
 40
500.0
 40
500.0
 40
500.0
 10
478.0416666666666
 20
20.0
 30
608.0000000000001
 10
488.0
 20
20.0
 30
608.0000000000001
 10
497.9583333333333
 20
20.0
 30
608.0000000000001
  0
SPLINE
  5
132
330
3B
100
AcDbEntity
  8
Livello 01
100
AcDbSpline
210
0.0
220
0.0
230
1.0
 70
    24
 71
     2
 72
     6
 73
     3
 74
     0
 42
0.0000000001
 43
0.0000000001
 40
513.4507905312652
 40
513.4507905312652
 40
513.4507905312652
 40
533.4507905312652
 40
533.4507905312652
 40
533.4507905312652
 10
249.0
 20
20.0
 30
578.0000000000001
 10
249.0
 20
20.0
 30
568.0000000000001
 10
249.0
 20
20.0
 30
558.0000000000001
  0
SPLINE
  5
133
330
3B
100
AcDbEntity
  8
Livello 01
100
AcDbSpline
210
0.0
220
0.0
230
1.0
 70
    24
 71
     2
 72
     6
 73
     3
 74
     0
 42
0.0000000001
 43
0.0000000001
 40
-1010.0
 40
-1010.0
 40
-1010.0
 40
-635.0
 40
-635.0
 40
-635.0
 10
0.0416666666666666
 20
10.0
 30
558.0000000000001
 10
249.0
 20
10.0
 30
558.0000000000001
 10
497.9583333333333
 20
10.0
 30
558.0000000000001
  0
LINE
  5
134
330
3B
100
AcDbEntity
  8
Livello 01
100
AcDbLine
 10
249.0
 20
0.0
 30
558.0000000000001
 11
249.0
 21
20.0
 31
558.0000000000001
  0
SPLINE
  5
135
330
3B
100
AcDbEntity
  8
Livello 01
100
AcDbSpline
210
0.0
220
0.0
230
1.0
 70
    24
 71
     2
 72
     6
 73
     3
 74
     0
 42
0.0000000001
 43
0.0000000001
 40
-635.0
 40
-635.0
 40
-635.0
 40
-535.0
 40
-535.0
 40
-535.0
 10
497.9583333333333
 20
10.0
 30
558.0000000000001
 10
497.9583333333333
 20
10.0
 30
608.0000000000001
 10
497.9583333333333
 20
10.0
 30
658.0000000000001
  0
LINE
  5
136
330
3B
100
AcDbEntity
  8
Livello 01
100
AcDbLine
 10
497.9583333333333
 20
0.0
 30
608.0000000000001
 11
497.9583333333333
 21
20.0
 31
608.0000000000001
  0
SPLINE
  5
137
330
3B
100
AcDbEntity
  8
Livello 01
100
AcDbSpline
210
0.0
220
0.0
230
1.0
 70
    24
 71
     2
 72
     6
 73
     3
 74
     0
 42
0.0000000001
 43
0.0000000001
 40
-535.0
 40
-535.0
 40
-535.0
 40
-515.0
 40
-515.0
 40
-515.0
 10
497.9583333333333
 20
10.0
 30
658.0000000000001
 10
488.0
 20
10.0
 30
658.0000000000001
 10
478.0416666666667
 20
10.0
 30
658.0000000000001
  0
LINE
  5
138
330
3B
100
AcDbEntity
  8
Livello 01
100
AcDbLine
 10
488.0
 20
0.0
 30
658.0000000000001
 11
488.0
 21
20.0
 31
658.0000000000001
  0
SPLINE
  5
139
330
3B
100
AcDbEntity
  8
Livello 01
100
AcDbSpline
210
0.0
220
0.0
230
1.0
 70
    24
 71
     2
 72
     6
 73
     3
 74
     0
 42
0.0000000001
 43
0.0000000001
 40
-515.0
 40
-515.0
 40
-515.0
 40
-435.0
 40
-435.0
 40
-435.0
 10
478.0416666666667
 20
10.0
 30
658.0000000000001
 10
478.0416666666667
 20
10.0
 30
618.0000000000001
 10
478.0416666666667
 20
10.0
 30
578.0000000000001
  0
LINE
  5
13A
330
3B
100
AcDbEntity
  8
Livello 01
100
AcDbLine
 10
478.0416666666667
 20
0.0
 30
618.0000000000001
 11
478.0416666666667
 21
20.0
 31
618.0000000000001
  0
SPLINE
  5
13B
330
3B
100
AcDbEntity
  8
Livello 01
100
AcDbSpline
210
0.0
220
0.0
230
1.0
 70
    24
 71
     2
 72
     6
 73
     3
 74
     0
 42
0.0000000001
 43
0.0000000001
 40
-435.0
 40
-435.0
 40
-435.0
 40
-100.0
 40
-100.0
 40
-100.0
 10
478.0416666666667
 20
10.0
 30
578.0000000000001
 10
249.0
 20
10.0
 30
578.0000000000001
 10
19.95833333333336
 20
10.0
 30
578.0000000000001
  0
LINE
  5
13C
330
3B
100
AcDbEntity
  8
Livello 01
100
AcDbLine
 10
249.0000000000001
 20
0.0
 30
578.0000000000001
 11
249.0000000000001
 21
20.0
 31
578.0000000000001
  0
SPLINE
  5
13D
330
3B
100
AcDbEntity
  8
Livello 01
100
AcDbSpline
210
0.0
220
0.0
230
1.0
 70
    24
 71
     2
 72
     6
 73
     3
 74
     0
 42
0.0000000001
 43
0.0000000001
 40
-100.0
 40
-100.0
 40
-100.0
 40
-20.0
 40
-20.0
 40
-20.0
 10
19.95833333333336
 20
10.0
 30
578.0000000000001
 10
19.95833333333336
 20
10.0
 30
618.0000000000001
 10
19.95833333333336
 20
10.0
 30
658.0000000000001
  0
LINE
  5
13E
330
3B
100
AcDbEntity
  8
Livello 01
100
AcDbLine
 10
19.95833333333336
 20
0.0
 30
618.0000000000001
 11
19.95833333333336
 21
20.0
 31
618.0000000000001
  0
SPLINE
  5
13F
330
3B
100
AcDbEntity
  8
Livello 01
100
AcDbSpline
210
0.0
220
0.0
230
1.0
 70
    24
 71
     2
 72
     6
 73
     3
 74
     0
 42
0.0000000001
 43
0.0000000001
 40
-20.0
 40
-20.0
 40
-20.0
 40
0.0
 40
0.0
 40
0.0
 10
19.95833333333336
 20
10.0
 30
658.0000000000001
 10
10.00000000000003
 20
10.0
 30
658.0000000000001
 10
0.0416666666666949
 20
10.0
 30
658.0000000000001
  0
LINE
  5
140
330
3B
100
AcDbEntity
  8
Livello 01
100
AcDbLine
 10
10.00000000000003
 20
0.0
 30
658.0000000000001
 11
10.00000000000003
 21
20.0
 31
658.0000000000001
  0
DIMENSION
  5
141
330
3B
100
AcDbEntity
  8
Livello 01
100
AcDbDimension
  2
*D5
 10
488.0
 20
0.0
 30
752.4217808602292
 11
249.0
 21
782.4467808602292
 31
0.0
 70
    32
  1
<>
 71
     5
 42
478.0
210
0.0
220
-1.0
230
0.0
  3
Default
100
AcDbAlignedDimension
 13
10.00000000000002
 23
0.0
 33
658.0
 14
488.0
 24
0.0
 34
658.0
100
AcDbRotatedDimension
1001
ACAD
1000
DSTYLE
1002
{
1070
   279
1070
     1
1002
}
  0
SPLINE
  5
14E
330
3B
100
AcDbEntity
  8
Livello 01
100
AcDbSpline
210
0.0
220
0.0
230
1.0
 70
    24
 71
     2
 72
     6
 73
     3
 74
     0
 42
0.0000000001
 43
0.0000000001
 40
0.0
 40
0.0
 40
0.0
 40
20.0
 40
20.0
 40
20.0
 10
0.051282051282076
 20
0.0
 30
1049.921438990979
 10
10.00000000000002
 20
0.0
 30
1049.921438990979
 10
19.94871794871797
 20
0.0
 30
1049.921438990979
  0
LINE
  5
14F
330
3B
100
AcDbEntity
  8
Livello 01
100
AcDbLine
 10
0.051282051282076
 20
0.0
 30
1049.921438990979
 11
0.051282051282076
 21
20.0
 31
1049.921438990979
  0
SPLINE
  5
150
330
3B
100
AcDbEntity
  8
Livello 01
100
AcDbSpline
210
0.0
220
0.0
230
1.0
 70
    24
 71
     2
 72
     6
 73
     3
 74
     0
 42
0.0000000001
 43
0.0000000001
 40
0.0
 40
0.0
 40
0.0
 40
20.0
 40
20.0
 40
20.0
 10
0.051282051282076
 20
20.0
 30
1049.921438990979
 10
10.00000000000002
 20
20.0
 30
1049.921438990979
 10
19.94871794871797
 20
20.0
 30
1049.921438990979
  0
SPLINE
  5
151
330
3B
100
AcDbEntity
  8
Livello 01
100
AcDbSpline
210
0.0
220
0.0
230
1.0
 70
    24
 71
     2
 72
     6
 73
     3
 74
     0
 42
0.0000000001
 43
0.0000000001
 40
1010.0
 40
1010.0
 40
1010.0
 40
1110.0
 40
1110.0
 40
1110.0
 10
0.0512820512820512
 20
0.0
 30
949.9214389909787
 10
0.0512820512820636
 20
0.0
 30
999.9214389909787
 10
0.051282051282076
 20
0.0
 30
1049.921438990979
  0
SPLINE
  5
152
330
3B
100
AcDbEntity
  8
Livello 01
100
AcDbSpline
210
0.0
220
0.0
230
1.0
 70
    24
 71
     2
 72
     6
 73
     3
 74
     0
 42
0.0000000001
 43
0.0000000001
 40
635.0
 40
635.0
 40
635.0
 40
1010.0
 40
1010.0
 40
1010.0
 10
407.948717948718
 20
0.0
 30
949.9214389909787
 10
204.0
 20
0.0
 30
949.9214389909787
 10
0.0512820512820512
 20
0.0
 30
949.9214389909787
  0
SPLINE
  5
153
330
3B
100
AcDbEntity
  8
Livello 01
100
AcDbSpline
210
0.0
220
0.0
230
1.0
 70
    24
 71
     2
 72
     6
 73
     3
 74
     0
 42
0.0000000001
 43
0.0000000001
 40
535.0
 40
535.0
 40
535.0
 40
635.0
 40
635.0
 40
635.0
 10
407.948717948718
 20
0.0
 30
1049.921438990979
 10
407.948717948718
 20
0.0
 30
999.9214389909787
 10
407.948717948718
 20
0.0
 30
949.9214389909787
  0
SPLINE
  5
154
330
3B
100
AcDbEntity
  8
Livello 01
100
AcDbSpline
210
0.0
220
0.0
230
1.0
 70
    24
 71
     2
 72
     6
 73
     3
 74
     0
 42
0.0000000001
 43
0.0000000001
 40
515.0
 40
515.0
 40
515.0
 40
535.0
 40
535.0
 40
535.0
 10
388.051282051282
 20
0.0
 30
1049.921438990979
 10
398.0
 20
0.0
 30
1049.921438990979
 10
407.948717948718
 20
0.0
 30
1049.921438990979
  0
SPLINE
  5
155
330
3B
100
AcDbEntity
  8
Livello 01
100
AcDbSpline
210
0.0
220
0.0
230
1.0
 70
    24
 71
     2
 72
     6
 73
     3
 74
     0
 42
0.0000000001
 43
0.0000000001
 40
435.0
 40
435.0
 40
435.0
 40
515.0
 40
515.0
 40
515.0
 10
388.051282051282
 20
0.0
 30
969.9214389909787
 10
388.051282051282
 20
0.0
 30
1009.921438990979
 10
388.051282051282
 20
0.0
 30
1049.921438990979
  0
SPLINE
  5
156
330
3B
100
AcDbEntity
  8
Livello 01
100
AcDbSpline
210
0.0
220
0.0
230
1.0
 70
    24
 71
     2
 72
     6
 73
     3
 74
     0
 42
0.0000000001
 43
0.0000000001
 40
100.0
 40
100.0
 40
100.0
 40
435.0
 40
435.0
 40
435.0
 10
19.94871794871798
 20
0.0
 30
969.9214389909787
 10
204.0
 20
0.0
 30
969.9214389909787
 10
388.051282051282
 20
0.0
 30
969.9214389909787
  0
SPLINE
  5
157
330
3B
100
AcDbEntity
  8
Livello 01
100
AcDbSpline
210
0.0
220
0.0
230
1.0
 70
    24
 71
     2
 72
     6
 73
     3
 74
     0
 42
0.0000000001
 43
0.0000000001
 40
20.0
 40
20.0
 40
20.0
 40
100.0
 40
100.0
 40
100.0
 10
19.94871794871797
 20
0.0
 30
1049.921438990979
 10
19.94871794871798
 20
0.0
 30
1009.921438990979
 10
19.94871794871798
 20
0.0
 30
969.9214389909787
  0
SPLINE
  5
158
330
3B
100
AcDbEntity
  8
Livello 01
100
AcDbSpline
210
0.0
220
0.0
230
1.0
 70
    24
 71
     2
 72
     6
 73
     3
 74
     0
 42
0.0000000001
 43
0.0000000001
 40
1010.0
 40
1010.0
 40
1010.0
 40
1110.0
 40
1110.0
 40
1110.0
 10
0.0512820512820512
 20
20.0
 30
949.9214389909787
 10
0.0512820512820636
 20
20.0
 30
999.9214389909787
 10
0.051282051282076
 20
20.0
 30
1049.921438990979
  0
SPLINE
  5
159
330
3B
100
AcDbEntity
  8
Livello 01
100
AcDbSpline
210
0.0
220
0.0
230
1.0
 70
    24
 71
     2
 72
     6
 73
     3
 74
     0
 42
0.0000000001
 43
0.0000000001
 40
635.0
 40
635.0
 40
635.0
 40
1010.0
 40
1010.0
 40
1010.0
 10
407.948717948718
 20
20.0
 30
949.9214389909787
 10
204.0
 20
20.0
 30
949.9214389909787
 10
0.0512820512820512
 20
20.0
 30
949.9214389909787
  0
SPLINE
  5
15A
330
3B
100
AcDbEntity
  8
Livello 01
100
AcDbSpline
210
0.0
220
0.0
230
1.0
 70
    24
 71
     2
 72
     6
 73
     3
 74
     0
 42
0.0000000001
 43
0.0000000001
 40
535.0
 40
535.0
 40
535.0
 40
635.0
 40
635.0
 40
635.0
 10
407.948717948718
 20
20.0
 30
1049.921438990979
 10
407.948717948718
 20
20.0
 30
999.9214389909787
 10
407.948717948718
 20
20.0
 30
949.9214389909787
  0
SPLINE
  5
15B
330
3B
100
AcDbEntity
  8
Livello 01
100
AcDbSpline
210
0.0
220
0.0
230
1.0
 70
    24
 71
     2
 72
     6
 73
     3
 74
     0
 42
0.0000000001
 43
0.0000000001
 40
515.0
 40
515.0
 40
515.0
 40
535.0
 40
535.0
 40
535.0
 10
388.051282051282
 20
20.0
 30
1049.921438990979
 10
398.0
 20
20.0
 30
1049.921438990979
 10
407.948717948718
 20
20.0
 30
1049.921438990979
  0
SPLINE
  5
15C
330
3B
100
AcDbEntity
  8
Livello 01
100
AcDbSpline
210
0.0
220
0.0
230
1.0
 70
    24
 71
     2
 72
     6
 73
     3
 74
     0
 42
0.0000000001
 43
0.0000000001
 40
435.0
 40
435.0
 40
435.0
 40
515.0
 40
515.0
 40
515.0
 10
388.051282051282
 20
20.0
 30
969.9214389909787
 10
388.051282051282
 20
20.0
 30
1009.921438990979
 10
388.051282051282
 20
20.0
 30
1049.921438990979
  0
SPLINE
  5
15D
330
3B
100
AcDbEntity
  8
Livello 01
100
AcDbSpline
210
0.0
220
0.0
230
1.0
 70
    24
 71
     2
 72
     6
 73
     3
 74
     0
 42
0.0000000001
 43
0.0000000001
 40
100.0
 40
100.0
 40
100.0
 40
435.0
 40
435.0
 40
435.0
 10
19.94871794871798
 20
20.0
 30
969.9214389909787
 10
204.0
 20
20.0
 30
969.9214389909787
 10
388.051282051282
 20
20.0
 30
969.9214389909787
  0
SPLINE
  5
15E
330
3B
100
AcDbEntity
  8
Livello 01
100
AcDbSpline
210
0.0
220
0.0
230
1.0
 70
    24
 71
     2
 72
     6
 73
     3
 74
     0
 42
0.0000000001
 43
0.0000000001
 40
20.0
 40
20.0
 40
20.0
 40
100.0
 40
100.0
 40
100.0
 10
19.94871794871797
 20
20.0
 30
1049.921438990979
 10
19.94871794871798
 20
20.0
 30
1009.921438990979
 10
19.94871794871798
 20
20.0
 30
969.9214389909787
  0
LINE
  5
15F
330
3B
100
AcDbEntity
  8
Livello 01
100
AcDbLine
 10
0.0512820512820512
 20
0.0
 30
949.9214389909787
 11
0.0512820512820512
 21
20.0
 31
949.9214389909787
  0
LINE
  5
160
330
3B
100
AcDbEntity
  8
Livello 01
100
AcDbLine
 10
407.948717948718
 20
0.0
 30
949.9214389909787
 11
407.948717948718
 21
20.0
 31
949.9214389909787
  0
LINE
  5
161
330
3B
100
AcDbEntity
  8
Livello 01
100
AcDbLine
 10
407.948717948718
 20
0.0
 30
1049.921438990979
 11
407.948717948718
 21
20.0
 31
1049.921438990979
  0
LINE
  5
162
330
3B
100
AcDbEntity
  8
Livello 01
100
AcDbLine
 10
388.051282051282
 20
0.0
 30
1049.921438990979
 11
388.051282051282
 21
20.0
 31
1049.921438990979
  0
LINE
  5
163
330
3B
100
AcDbEntity
  8
Livello 01
100
AcDbLine
 10
388.051282051282
 20
0.0
 30
969.9214389909787
 11
388.051282051282
 21
20.0
 31
969.9214389909787
  0
LINE
  5
164
330
3B
100
AcDbEntity
  8
Livello 01
100
AcDbLine
 10
19.94871794871798
 20
0.0
 30
969.9214389909787
 11
19.94871794871798
 21
20.0
 31
969.9214389909787
  0
LINE
  5
165
330
3B
100
AcDbEntity
  8
Livello 01
100
AcDbLine
 10
19.94871794871797
 20
0.0
 30
1049.921438990979
 11
19.94871794871797
 21
20.0
 31
1049.921438990979
  0
SPLINE
  5
166
330
3B
100
AcDbEntity
  8
Livello 01
100
AcDbSpline
210
0.0
220
0.0
230
1.0
 70
    24
 71
     2
 72
     6
 73
     3
 74
     0
 42
0.0000000001
 43
0.0000000001
 40
-0.0000000000000124
 40
-0.0000000000000124
 40
-0.0000000000000124
 40
20.0
 40
20.0
 40
20.0
 10
0.0512820512820636
 20
0.0
 30
999.9214389909789
 10
10.00000000000002
 20
0.0
 30
999.9214389909789
 10
19.94871794871798
 20
0.0
 30
999.9214389909789
  0
SPLINE
  5
167
330
3B
100
AcDbEntity
  8
Livello 01
100
AcDbSpline
210
0.0
220
0.0
230
1.0
 70
    24
 71
     2
 72
     6
 73
     3
 74
     0
 42
0.0000000001
 43
0.0000000001
 40
390.0
 40
390.0
 40
390.0
 40
410.0
 40
410.0
 40
410.0
 10
388.051282051282
 20
0.0
 30
999.9214389909789
 10
398.0
 20
0.0
 30
999.9214389909789
 10
407.948717948718
 20
0.0
 30
999.9214389909789
  0
SPLINE
  5
168
330
3B
100
AcDbEntity
  8
Livello 01
100
AcDbSpline
210
0.0
220
0.0
230
1.0
 70
    24
 71
     2
 72
     6
 73
     3
 74
     0
 42
0.0000000001
 43
0.0000000001
 40
306.4507905312652
 40
306.4507905312652
 40
306.4507905312652
 40
326.4507905312652
 40
326.4507905312652
 40
326.4507905312652
 10
204.0
 20
0.0
 30
969.9214389909788
 10
204.0
 20
0.0
 30
959.9214389909788
 10
204.0
 20
0.0
 30
949.9214389909788
  0
SPLINE
  5
169
330
3B
100
AcDbEntity
  8
Livello 01
100
AcDbSpline
210
0.0
220
0.0
230
1.0
 70
    24
 71
     2
 72
     6
 73
     3
 74
     0
 42
0.0000000001
 43
0.0000000001
 40
-1110.0
 40
-1110.0
 40
-1110.0
 40
-1010.0
 40
-1010.0
 40
-1010.0
 10
0.051282051282076
 20
10.0
 30
1049.921438990979
 10
0.0512820512820636
 20
10.0
 30
999.9214389909789
 10
0.0512820512820512
 20
10.0
 30
949.9214389909789
  0
LINE
  5
16A
330
3B
100
AcDbEntity
  8
Livello 01
100
AcDbLine
 10
0.0512820512820653
 20
0.0
 30
999.9214389909789
 11
0.0512820512820653
 21
20.0
 31
999.9214389909789
  0
SPLINE
  5
16B
330
3B
100
AcDbEntity
  8
Livello 01
100
AcDbSpline
210
0.0
220
0.0
230
1.0
 70
    24
 71
     2
 72
     6
 73
     3
 74
     0
 42
0.0000000001
 43
0.0000000001
 40
-0.0000000000000124
 40
-0.0000000000000124
 40
-0.0000000000000124
 40
20.0
 40
20.0
 40
20.0
 10
0.0512820512820636
 20
20.0
 30
999.9214389909789
 10
10.00000000000002
 20
20.0
 30
999.9214389909789
 10
19.94871794871798
 20
20.0
 30
999.9214389909789
  0
SPLINE
  5
16C
330
3B
100
AcDbEntity
  8
Livello 01
100
AcDbSpline
210
0.0
220
0.0
230
1.0
 70
    24
 71
     2
 72
     6
 73
     3
 74
     0
 42
0.0000000001
 43
0.0000000001
 40
390.0
 40
390.0
 40
390.0
 40
410.0
 40
410.0
 40
410.0
 10
388.051282051282
 20
20.0
 30
999.9214389909789
 10
398.0
 20
20.0
 30
999.9214389909789
 10
407.948717948718
 20
20.0
 30
999.9214389909789
  0
SPLINE
  5
16D
330
3B
100
AcDbEntity
  8
Livello 01
100
AcDbSpline
210
0.0
220
0.0
230
1.0
 70
    24
 71
     2
 72
     6
 73
     3
 74
     0
 42
0.0000000001
 43
0.0000000001
 40
306.4507905312652
 40
306.4507905312652
 40
306.4507905312652
 40
326.4507905312652
 40
326.4507905312652
 40
326.4507905312652
 10
204.0
 20
20.0
 30
969.9214389909788
 10
204.0
 20
20.0
 30
959.9214389909788
 10
204.0
 20
20.0
 30
949.9214389909788
  0
SPLINE
  5
16E
330
3B
100
AcDbEntity
  8
Livello 01
100
AcDbSpline
210
0.0
220
0.0
230
1.0
 70
    24
 71
     2
 72
     6
 73
     3
 74
     0
 42
0.0000000001
 43
0.0000000001
 40
-1010.0
 40
-1010.0
 40
-1010.0
 40
-635.0
 40
-635.0
 40
-635.0
 10
0.0512820512820512
 20
10.0
 30
949.9214389909789
 10
204.0
 20
10.0
 30
949.9214389909789
 10
407.948717948718
 20
10.0
 30
949.9214389909789
  0
LINE
  5
16F
330
3B
100
AcDbEntity
  8
Livello 01
100
AcDbLine
 10
204.0
 20
0.0
 30
949.9214389909789
 11
204.0
 21
20.0
 31
949.9214389909789
  0
SPLINE
  5
170
330
3B
100
AcDbEntity
  8
Livello 01
100
AcDbSpline
210
0.0
220
0.0
230
1.0
 70
    24
 71
     2
 72
     6
 73
     3
 74
     0
 42
0.0000000001
 43
0.0000000001
 40
-635.0
 40
-635.0
 40
-635.0
 40
-535.0
 40
-535.0
 40
-535.0
 10
407.948717948718
 20
10.0
 30
949.9214389909789
 10
407.948717948718
 20
10.0
 30
999.9214389909789
 10
407.948717948718
 20
10.0
 30
1049.921438990979
  0
LINE
  5
171
330
3B
100
AcDbEntity
  8
Livello 01
100
AcDbLine
 10
407.948717948718
 20
0.0
 30
999.9214389909789
 11
407.948717948718
 21
20.0
 31
999.9214389909789
  0
SPLINE
  5
172
330
3B
100
AcDbEntity
  8
Livello 01
100
AcDbSpline
210
0.0
220
0.0
230
1.0
 70
    24
 71
     2
 72
     6
 73
     3
 74
     0
 42
0.0000000001
 43
0.0000000001
 40
-535.0
 40
-535.0
 40
-535.0
 40
-515.0
 40
-515.0
 40
-515.0
 10
407.948717948718
 20
10.0
 30
1049.921438990979
 10
398.0
 20
10.0
 30
1049.921438990979
 10
388.051282051282
 20
10.0
 30
1049.921438990979
  0
LINE
  5
173
330
3B
100
AcDbEntity
  8
Livello 01
100
AcDbLine
 10
398.0
 20
0.0
 30
1049.921438990979
 11
398.0
 21
20.0
 31
1049.921438990979
  0
SPLINE
  5
174
330
3B
100
AcDbEntity
  8
Livello 01
100
AcDbSpline
210
0.0
220
0.0
230
1.0
 70
    24
 71
     2
 72
     6
 73
     3
 74
     0
 42
0.0000000001
 43
0.0000000001
 40
-515.0
 40
-515.0
 40
-515.0
 40
-435.0
 40
-435.0
 40
-435.0
 10
388.051282051282
 20
10.0
 30
1049.921438990979
 10
388.051282051282
 20
10.0
 30
1009.921438990979
 10
388.051282051282
 20
10.0
 30
969.9214389909789
  0
LINE
  5
175
330
3B
100
AcDbEntity
  8
Livello 01
100
AcDbLine
 10
388.051282051282
 20
0.0
 30
1009.921438990979
 11
388.051282051282
 21
20.0
 31
1009.921438990979
  0
SPLINE
  5
176
330
3B
100
AcDbEntity
  8
Livello 01
100
AcDbSpline
210
0.0
220
0.0
230
1.0
 70
    24
 71
     2
 72
     6
 73
     3
 74
     0
 42
0.0000000001
 43
0.0000000001
 40
-435.0
 40
-435.0
 40
-435.0
 40
-100.0
 40
-100.0
 40
-100.0
 10
388.051282051282
 20
10.0
 30
969.9214389909789
 10
204.0
 20
10.0
 30
969.9214389909789
 10
19.94871794871798
 20
10.0
 30
969.9214389909789
  0
LINE
  5
177
330
3B
100
AcDbEntity
  8
Livello 01
100
AcDbLine
 10
204.0
 20
0.0
 30
969.9214389909789
 11
204.0
 21
20.0
 31
969.9214389909789
  0
SPLINE
  5
178
330
3B
100
AcDbEntity
  8
Livello 01
100
AcDbSpline
210
0.0
220
0.0
230
1.0
 70
    24
 71
     2
 72
     6
 73
     3
 74
     0
 42
0.0000000001
 43
0.0000000001
 40
-100.0
 40
-100.0
 40
-100.0
 40
-20.0
 40
-20.0
 40
-20.0
 10
19.94871794871797
 20
10.0
 30
969.9214389909789
 10
19.94871794871797
 20
10.0
 30
1009.921438990979
 10
19.94871794871797
 20
10.0
 30
1049.921438990979
  0
LINE
  5
179
330
3B
100
AcDbEntity
  8
Livello 01
100
AcDbLine
 10
19.94871794871797
 20
0.0
 30
1009.921438990979
 11
19.94871794871797
 21
20.0
 31
1009.921438990979
  0
SPLINE
  5
17A
330
3B
100
AcDbEntity
  8
Livello 01
100
AcDbSpline
210
0.0
220
0.0
230
1.0
 70
    24
 71
     2
 72
     6
 73
     3
 74
     0
 42
0.0000000001
 43
0.0000000001
 40
-20.0
 40
-20.0
 40
-20.0
 40
0.0
 40
0.0
 40
0.0
 10
19.94871794871798
 20
10.0
 30
1049.921438990979
 10
10.00000000000003
 20
10.0
 30
1049.921438990979
 10
0.0512820512820795
 20
10.0
 30
1049.921438990979
  0
LINE
  5
17B
330
3B
100
AcDbEntity
  8
Livello 01
100
AcDbLine
 10
10.00000000000003
 20
0.0
 30
1049.921438990979
 11
10.00000000000003
 21
20.0
 31
1049.921438990979
  0
DIMENSION
  5
17C
330
3B
100
AcDbEntity
  8
Livello 01
100
AcDbDimension
  2
*D6
 10
398.0
 20
0.0
 30
1121.268433986306
 11
204.0
 21
1151.293433986306
 31
0.0
 70
    32
  1
<>
 71
     5
 42
388.0
210
0.0
220
-1.0
230
0.0
  3
Default
100
AcDbAlignedDimension
 13
10.00000000000002
 23
0.0
 33
1049.921438990979
 14
398.0
 24
0.0
 34
1049.921438990979
100
AcDbRotatedDimension
1001
ACAD
1000
DSTYLE
1002
{
1070
   279
1070
     1
1002
}
  0
SPLINE
  5
189
330
3B
100
AcDbEntity
  8
Livello 01
100
AcDbSpline
210
0.0
220
0.0
230
1.0
 70
    24
 71
     2
 72
     6
 73
     3
 74
     0
 42
0.0000000001
 43
0.0000000001
 40
0.0
 40
0.0
 40
0.0
 40
20.0
 40
20.0
 40
20.0
 10
0.2253521126760809
 20
65.50054054054054
 30
1401.934882094434
 10
10.00000000000002
 20
65.50054054054054
 30
1401.934882094434
 10
19.77464788732397
 20
65.50054054054054
 30
1401.934882094434
  0
LINE
  5
18A
330
3B
100
AcDbEntity
  8
Livello 01
100
AcDbLine
 10
0.2253521126760809
 20
65.50054054054054
 30
1401.934882094434
 11
0.2253521126760809
 21
85.50054054054054
 31
1401.934882094434
  0
SPLINE
  5
18B
330
3B
100
AcDbEntity
  8
Livello 01
100
AcDbSpline
210
0.0
220
0.0
230
1.0
 70
    24
 71
     2
 72
     6
 73
     3
 74
     0
 42
0.0000000001
 43
0.0000000001
 40
0.0
 40
0.0
 40
0.0
 40
20.0
 40
20.0
 40
20.0
 10
0.2253521126760809
 20
85.50054054054054
 30
1401.934882094434
 10
10.00000000000002
 20
85.50054054054054
 30
1401.934882094434
 10
19.77464788732397
 20
85.50054054054054
 30
1401.934882094434
  0
SPLINE
  5
18C
330
3B
100
AcDbEntity
  8
Livello 01
100
AcDbSpline
210
0.0
220
0.0
230
1.0
 70
    24
 71
     2
 72
     6
 73
     3
 74
     0
 42
0.0000000001
 43
0.0000000001
 40
1010.0
 40
1010.0
 40
1010.0
 40
1110.0
 40
1110.0
 40
1110.0
 10
0.2253521126760566
 20
65.50054054054054
 30
1301.934882094434
 10
0.2253521126760687
 20
65.50054054054054
 30
1351.934882094434
 10
0.2253521126760809
 20
65.50054054054054
 30
1401.934882094434
  0
SPLINE
  5
18D
330
3B
100
AcDbEntity
  8
Livello 01
100
AcDbSpline
210
0.0
220
0.0
230
1.0
 70
    24
 71
     2
 72
     6
 73
     3
 74
     0
 42
0.0000000001
 43
0.0000000001
 40
635.0
 40
635.0
 40
635.0
 40
1010.0
 40
1010.0
 40
1010.0
 10
366.774647887324
 20
65.50054054054054
 30
1301.934882094434
 10
183.5
 20
65.50054054054054
 30
1301.934882094434
 10
0.2253521126760566
 20
65.50054054054054
 30
1301.934882094434
  0
SPLINE
  5
18E
330
3B
100
AcDbEntity
  8
Livello 01
100
AcDbSpline
210
0.0
220
0.0
230
1.0
 70
    24
 71
     2
 72
     6
 73
     3
 74
     0
 42
0.0000000001
 43
0.0000000001
 40
535.0
 40
535.0
 40
535.0
 40
635.0
 40
635.0
 40
635.0
 10
366.774647887324
 20
65.50054054054054
 30
1401.934882094434
 10
366.774647887324
 20
65.50054054054054
 30
1351.934882094434
 10
366.774647887324
 20
65.50054054054054
 30
1301.934882094434
  0
SPLINE
  5
18F
330
3B
100
AcDbEntity
  8
Livello 01
100
AcDbSpline
210
0.0
220
0.0
230
1.0
 70
    24
 71
     2
 72
     6
 73
     3
 74
     0
 42
0.0000000001
 43
0.0000000001
 40
515.0
 40
515.0
 40
515.0
 40
535.0
 40
535.0
 40
535.0
 10
347.2253521126761
 20
65.50054054054054
 30
1401.934882094434
 10
357.0
 20
65.50054054054054
 30
1401.934882094434
 10
366.774647887324
 20
65.50054054054054
 30
1401.934882094434
  0
SPLINE
  5
190
330
3B
100
AcDbEntity
  8
Livello 01
100
AcDbSpline
210
0.0
220
0.0
230
1.0
 70
    24
 71
     2
 72
     6
 73
     3
 74
     0
 42
0.0000000001
 43
0.0000000001
 40
435.0
 40
435.0
 40
435.0
 40
515.0
 40
515.0
 40
515.0
 10
347.2253521126761
 20
65.50054054054054
 30
1321.934882094434
 10
347.2253521126761
 20
65.50054054054054
 30
1361.934882094434
 10
347.2253521126761
 20
65.50054054054054
 30
1401.934882094434
  0
SPLINE
  5
191
330
3B
100
AcDbEntity
  8
Livello 01
100
AcDbSpline
210
0.0
220
0.0
230
1.0
 70
    24
 71
     2
 72
     6
 73
     3
 74
     0
 42
0.0000000001
 43
0.0000000001
 40
100.0
 40
100.0
 40
100.0
 40
435.0
 40
435.0
 40
435.0
 10
19.77464788732397
 20
65.50054054054054
 30
1321.934882094434
 10
183.5
 20
65.50054054054054
 30
1321.934882094434
 10
347.2253521126761
 20
65.50054054054054
 30
1321.934882094434
  0
SPLINE
  5
192
330
3B
100
AcDbEntity
  8
Livello 01
100
AcDbSpline
210
0.0
220
0.0
230
1.0
 70
    24
 71
     2
 72
     6
 73
     3
 74
     0
 42
0.0000000001
 43
0.0000000001
 40
20.0
 40
20.0
 40
20.0
 40
100.0
 40
100.0
 40
100.0
 10
19.77464788732397
 20
65.50054054054054
 30
1401.934882094434
 10
19.77464788732397
 20
65.50054054054054
 30
1361.934882094434
 10
19.77464788732397
 20
65.50054054054054
 30
1321.934882094434
  0
SPLINE
  5
193
330
3B
100
AcDbEntity
  8
Livello 01
100
AcDbSpline
210
0.0
220
0.0
230
1.0
 70
    24
 71
     2
 72
     6
 73
     3
 74
     0
 42
0.0000000001
 43
0.0000000001
 40
1010.0
 40
1010.0
 40
1010.0
 40
1110.0
 40
1110.0
 40
1110.0
 10
0.2253521126760566
 20
85.50054054054054
 30
1301.934882094434
 10
0.2253521126760687
 20
85.50054054054054
 30
1351.934882094434
 10
0.2253521126760809
 20
85.50054054054054
 30
1401.934882094434
  0
SPLINE
  5
194
330
3B
100
AcDbEntity
  8
Livello 01
100
AcDbSpline
210
0.0
220
0.0
230
1.0
 70
    24
 71
     2
 72
     6
 73
     3
 74
     0
 42
0.0000000001
 43
0.0000000001
 40
635.0
 40
635.0
 40
635.0
 40
1010.0
 40
1010.0
 40
1010.0
 10
366.774647887324
 20
85.50054054054054
 30
1301.934882094434
 10
183.5
 20
85.50054054054054
 30
1301.934882094434
 10
0.2253521126760566
 20
85.50054054054054
 30
1301.934882094434
  0
SPLINE
  5
195
330
3B
100
AcDbEntity
  8
Livello 01
100
AcDbSpline
210
0.0
220
0.0
230
1.0
 70
    24
 71
     2
 72
     6
 73
     3
 74
     0
 42
0.0000000001
 43
0.0000000001
 40
535.0
 40
535.0
 40
535.0
 40
635.0
 40
635.0
 40
635.0
 10
366.774647887324
 20
85.50054054054054
 30
1401.934882094434
 10
366.774647887324
 20
85.50054054054054
 30
1351.934882094434
 10
366.774647887324
 20
85.50054054054054
 30
1301.934882094434
  0
SPLINE
  5
196
330
3B
100
AcDbEntity
  8
Livello 01
100
AcDbSpline
210
0.0
220
0.0
230
1.0
 70
    24
 71
     2
 72
     6
 73
     3
 74
     0
 42
0.0000000001
 43
0.0000000001
 40
515.0
 40
515.0
 40
515.0
 40
535.0
 40
535.0
 40
535.0
 10
347.2253521126761
 20
85.50054054054054
 30
1401.934882094434
 10
357.0
 20
85.50054054054054
 30
1401.934882094434
 10
366.774647887324
 20
85.50054054054054
 30
1401.934882094434
  0
SPLINE
  5
197
330
3B
100
AcDbEntity
  8
Livello 01
100
AcDbSpline
210
0.0
220
0.0
230
1.0
 70
    24
 71
     2
 72
     6
 73
     3
 74
     0
 42
0.0000000001
 43
0.0000000001
 40
435.0
 40
435.0
 40
435.0
 40
515.0
 40
515.0
 40
515.0
 10
347.2253521126761
 20
85.50054054054054
 30
1321.934882094434
 10
347.2253521126761
 20
85.50054054054054
 30
1361.934882094434
 10
347.2253521126761
 20
85.50054054054054
 30
1401.934882094434
  0
SPLINE
  5
198
330
3B
100
AcDbEntity
  8
Livello 01
100
AcDbSpline
210
0.0
220
0.0
230
1.0
 70
    24
 71
     2
 72
     6
 73
     3
 74
     0
 42
0.0000000001
 43
0.0000000001
 40
100.0
 40
100.0
 40
100.0
 40
435.0
 40
435.0
 40
435.0
 10
19.77464788732397
 20
85.50054054054054
 30
1321.934882094434
 10
183.5
 20
85.50054054054054
 30
1321.934882094434
 10
347.2253521126761
 20
85.50054054054054
 30
1321.934882094434
  0
SPLINE
  5
199
330
3B
100
AcDbEntity
  8
Livello 01
100
AcDbSpline
210
0.0
220
0.0
230
1.0
 70
    24
 71
     2
 72
     6
 73
     3
 74
     0
 42
0.0000000001
 43
0.0000000001
 40
20.0
 40
20.0
 40
20.0
 40
100.0
 40
100.0
 40
100.0
 10
19.77464788732397
 20
85.50054054054054
 30
1401.934882094434
 10
19.77464788732397
 20
85.50054054054054
 30
1361.934882094434
 10
19.77464788732397
 20
85.50054054054054
 30
1321.934882094434
  0
LINE
  5
19A
330
3B
100
AcDbEntity
  8
Livello 01
100
AcDbLine
 10
0.2253521126760566
 20
65.50054054054054
 30
1301.934882094434
 11
0.2253521126760566
 21
85.50054054054054
 31
1301.934882094434
  0
LINE
  5
19B
330
3B
100
AcDbEntity
  8
Livello 01
100
AcDbLine
 10
366.774647887324
 20
65.50054054054054
 30
1301.934882094434
 11
366.774647887324
 21
85.50054054054054
 31
1301.934882094434
  0
LINE
  5
19C
330
3B
100
AcDbEntity
  8
Livello 01
100
AcDbLine
 10
366.774647887324
 20
65.50054054054054
 30
1401.934882094434
 11
366.774647887324
 21
85.50054054054054
 31
1401.934882094434
  0
LINE
  5
19D
330
3B
100
AcDbEntity
  8
Livello 01
100
AcDbLine
 10
347.2253521126761
 20
65.50054054054054
 30
1401.934882094434
 11
347.2253521126761
 21
85.50054054054054
 31
1401.934882094434
  0
LINE
  5
19E
330
3B
100
AcDbEntity
  8
Livello 01
100
AcDbLine
 10
347.2253521126761
 20
65.50054054054054
 30
1321.934882094434
 11
347.2253521126761
 21
85.50054054054054
 31
1321.934882094434
  0
LINE
  5
19F
330
3B
100
AcDbEntity
  8
Livello 01
100
AcDbLine
 10
19.77464788732397
 20
65.50054054054054
 30
1321.934882094434
 11
19.77464788732397
 21
85.50054054054054
 31
1321.934882094434
  0
LINE
  5
1A0
330
3B
100
AcDbEntity
  8
Livello 01
100
AcDbLine
 10
19.77464788732397
 20
65.50054054054054
 30
1401.934882094434
 11
19.77464788732397
 21
85.50054054054054
 31
1401.934882094434
  0
SPLINE
  5
1A1
330
3B
100
AcDbEntity
  8
Livello 01
100
AcDbSpline
210
0.0
220
0.0
230
1.0
 70
    24
 71
     2
 72
     6
 73
     3
 74
     0
 42
0.0000000001
 43
0.0000000001
 40
-0.0000000000000124
 40
-0.0000000000000124
 40
-0.0000000000000124
 40
20.0
 40
20.0
 40
20.0
 10
0.2253521126760687
 20
65.50054054054054
 30
1351.934882094434
 10
10.00000000000002
 20
65.50054054054054
 30
1351.934882094434
 10
19.77464788732397
 20
65.50054054054054
 30
1351.934882094434
  0
SPLINE
  5
1A2
330
3B
100
AcDbEntity
  8
Livello 01
100
AcDbSpline
210
0.0
220
0.0
230
1.0
 70
    24
 71
     2
 72
     6
 73
     3
 74
     0
 42
0.0000000001
 43
0.0000000001
 40
355.0
 40
355.0
 40
355.0
 40
375.0
 40
375.0
 40
375.0
 10
347.2253521126761
 20
65.50054054054054
 30
1351.934882094434
 10
357.0
 20
65.50054054054054
 30
1351.934882094434
 10
366.774647887324
 20
65.50054054054054
 30
1351.934882094434
  0
SPLINE
  5
1A3
330
3B
100
AcDbEntity
  8
Livello 01
100
AcDbSpline
210
0.0
220
0.0
230
1.0
 70
    24
 71
     2
 72
     6
 73
     3
 74
     0
 42
0.0000000001
 43
0.0000000001
 40
80.0
 40
80.0
 40
80.0
 40
100.0
 40
100.0
 40
100.0
 10
183.5
 20
65.50054054054054
 30
1321.934882094434
 10
183.5
 20
65.50054054054054
 30
1311.934882094434
 10
183.5
 20
65.50054054054054
 30
1301.934882094434
  0
SPLINE
  5
1A4
330
3B
100
AcDbEntity
  8
Livello 01
100
AcDbSpline
210
0.0
220
0.0
230
1.0
 70
    24
 71
     2
 72
     6
 73
     3
 74
     0
 42
0.0000000001
 43
0.0000000001
 40
-1110.0
 40
-1110.0
 40
-1110.0
 40
-1010.0
 40
-1010.0
 40
-1010.0
 10
0.2253521126760809
 20
75.50054054054054
 30
1401.934882094434
 10
0.2253521126760687
 20
75.50054054054054
 30
1351.934882094434
 10
0.2253521126760566
 20
75.50054054054054
 30
1301.934882094434
  0
LINE
  5
1A5
330
3B
100
AcDbEntity
  8
Livello 01
100
AcDbLine
 10
0.2253521126760702
 20
65.50054054054054
 30
1351.934882094434
 11
0.2253521126760702
 21
85.50054054054054
 31
1351.934882094434
  0
SPLINE
  5
1A6
330
3B
100
AcDbEntity
  8
Livello 01
100
AcDbSpline
210
0.0
220
0.0
230
1.0
 70
    24
 71
     2
 72
     6
 73
     3
 74
     0
 42
0.0000000001
 43
0.0000000001
 40
-0.0000000000000124
 40
-0.0000000000000124
 40
-0.0000000000000124
 40
20.0
 40
20.0
 40
20.0
 10
0.2253521126760687
 20
85.50054054054054
 30
1351.934882094434
 10
10.00000000000002
 20
85.50054054054054
 30
1351.934882094434
 10
19.77464788732397
 20
85.50054054054054
 30
1351.934882094434
  0
SPLINE
  5
1A7
330
3B
100
AcDbEntity
  8
Livello 01
100
AcDbSpline
210
0.0
220
0.0
230
1.0
 70
    24
 71
     2
 72
     6
 73
     3
 74
     0
 42
0.0000000001
 43
0.0000000001
 40
355.0
 40
355.0
 40
355.0
 40
375.0
 40
375.0
 40
375.0
 10
347.2253521126761
 20
85.50054054054054
 30
1351.934882094434
 10
357.0
 20
85.50054054054054
 30
1351.934882094434
 10
366.774647887324
 20
85.50054054054054
 30
1351.934882094434
  0
SPLINE
  5
1A8
330
3B
100
AcDbEntity
  8
Livello 01
100
AcDbSpline
210
0.0
220
0.0
230
1.0
 70
    24
 71
     2
 72
     6
 73
     3
 74
     0
 42
0.0000000001
 43
0.0000000001
 40
80.0
 40
80.0
 40
80.0
 40
100.0
 40
100.0
 40
100.0
 10
183.5
 20
85.50054054054054
 30
1321.934882094434
 10
183.5
 20
85.50054054054054
 30
1311.934882094434
 10
183.5
 20
85.50054054054054
 30
1301.934882094434
  0
SPLINE
  5
1A9
330
3B
100
AcDbEntity
  8
Livello 01
100
AcDbSpline
210
0.0
220
0.0
230
1.0
 70
    24
 71
     2
 72
     6
 73
     3
 74
     0
 42
0.0000000001
 43
0.0000000001
 40
-1010.0
 40
-1010.0
 40
-1010.0
 40
-635.0
 40
-635.0
 40
-635.0
 10
0.2253521126760566
 20
75.50054054054054
 30
1301.934882094434
 10
183.5
 20
75.50054054054054
 30
1301.934882094434
 10
366.774647887324
 20
75.50054054054054
 30
1301.934882094434
  0
LINE
  5
1AA
330
3B
100
AcDbEntity
  8
Livello 01
100
AcDbLine
 10
183.5
 20
65.50054054054054
 30
1301.934882094434
 11
183.5
 21
85.50054054054054
 31
1301.934882094434
  0
SPLINE
  5
1AB
330
3B
100
AcDbEntity
  8
Livello 01
100
AcDbSpline
210
0.0
220
0.0
230
1.0
 70
    24
 71
     2
 72
     6
 73
     3
 74
     0
 42
0.0000000001
 43
0.0000000001
 40
-635.0
 40
-635.0
 40
-635.0
 40
-535.0
 40
-535.0
 40
-535.0
 10
366.774647887324
 20
75.50054054054054
 30
1301.934882094434
 10
366.774647887324
 20
75.50054054054054
 30
1351.934882094434
 10
366.774647887324
 20
75.50054054054054
 30
1401.934882094434
  0
LINE
  5
1AC
330
3B
100
AcDbEntity
  8
Livello 01
100
AcDbLine
 10
366.774647887324
 20
65.50054054054054
 30
1351.934882094434
 11
366.774647887324
 21
85.50054054054054
 31
1351.934882094434
  0
SPLINE
  5
1AD
330
3B
100
AcDbEntity
  8
Livello 01
100
AcDbSpline
210
0.0
220
0.0
230
1.0
 70
    24
 71
     2
 72
     6
 73
     3
 74
     0
 42
0.0000000001
 43
0.0000000001
 40
-535.0
 40
-535.0
 40
-535.0
 40
-515.0
 40
-515.0
 40
-515.0
 10
366.774647887324
 20
75.50054054054054
 30
1401.934882094434
 10
357.0
 20
75.50054054054054
 30
1401.934882094434
 10
347.2253521126761
 20
75.50054054054054
 30
1401.934882094434
  0
LINE
  5
1AE
330
3B
100
AcDbEntity
  8
Livello 01
100
AcDbLine
 10
357.0
 20
65.50054054054054
 30
1401.934882094434
 11
357.0
 21
85.50054054054054
 31
1401.934882094434
  0
SPLINE
  5
1AF
330
3B
100
AcDbEntity
  8
Livello 01
100
AcDbSpline
210
0.0
220
0.0
230
1.0
 70
    24
 71
     2
 72
     6
 73
     3
 74
     0
 42
0.0000000001
 43
0.0000000001
 40
-515.0
 40
-515.0
 40
-515.0
 40
-435.0
 40
-435.0
 40
-435.0
 10
347.2253521126761
 20
75.50054054054054
 30
1401.934882094434
 10
347.2253521126761
 20
75.50054054054054
 30
1361.934882094434
 10
347.2253521126761
 20
75.50054054054054
 30
1321.934882094434
  0
LINE
  5
1B0
330
3B
100
AcDbEntity
  8
Livello 01
100
AcDbLine
 10
347.2253521126761
 20
65.50054054054054
 30
1361.934882094434
 11
347.2253521126761
 21
85.50054054054054
 31
1361.934882094434
  0
SPLINE
  5
1B1
330
3B
100
AcDbEntity
  8
Livello 01
100
AcDbSpline
210
0.0
220
0.0
230
1.0
 70
    24
 71
     2
 72
     6
 73
     3
 74
     0
 42
0.0000000001
 43
0.0000000001
 40
-435.0
 40
-435.0
 40
-435.0
 40
-100.0
 40
-100.0
 40
-100.0
 10
347.2253521126761
 20
75.50054054054054
 30
1321.934882094434
 10
183.5
 20
75.50054054054054
 30
1321.934882094434
 10
19.77464788732397
 20
75.50054054054054
 30
1321.934882094434
  0
LINE
  5
1B2
330
3B
100
AcDbEntity
  8
Livello 01
100
AcDbLine
 10
183.5
 20
65.50054054054054
 30
1321.934882094434
 11
183.5
 21
85.50054054054054
 31
1321.934882094434
  0
SPLINE
  5
1B3
330
3B
100
AcDbEntity
  8
Livello 01
100
AcDbSpline
210
0.0
220
0.0
230
1.0
 70
    24
 71
     2
 72
     6
 73
     3
 74
     0
 42
0.0000000001
 43
0.0000000001
 40
-100.0
 40
-100.0
 40
-100.0
 40
-20.0
 40
-20.0
 40
-20.0
 10
19.77464788732398
 20
75.50054054054054
 30
1321.934882094434
 10
19.77464788732398
 20
75.50054054054054
 30
1361.934882094434
 10
19.77464788732398
 20
75.50054054054054
 30
1401.934882094434
  0
LINE
  5
1B4
330
3B
100
AcDbEntity
  8
Livello 01
100
AcDbLine
 10
19.77464788732398
 20
65.50054054054054
 30
1361.934882094434
 11
19.77464788732398
 21
85.50054054054054
 31
1361.934882094434
  0
SPLINE
  5
1B5
330
3B
100
AcDbEntity
  8
Livello 01
100
AcDbSpline
210
0.0
220
0.0
230
1.0
 70
    24
 71
     2
 72
     6
 73
     3
 74
     0
 42
0.0000000001
 43
0.0000000001
 40
-20.0
 40
-20.0
 40
-20.0
 40
0.0
 40
0.0
 40
0.0
 10
19.77464788732398
 20
75.50054054054054
 30
1401.934882094434
 10
10.00000000000003
 20
75.50054054054054
 30
1401.934882094434
 10
0.225352112676088
 20
75.50054054054054
 30
1401.934882094434
  0
LINE
  5
1B6
330
3B
100
AcDbEntity
  8
Livello 01
100
AcDbLine
 10
10.00000000000003
 20
65.50054054054054
 30
1401.934882094434
 11
10.00000000000003
 21
85.50054054054054
 31
1401.934882094434
  0
DIMENSION
  5
1B7
330
3B
100
AcDbEntity
  8
Livello 01
100
AcDbDimension
  2
*D7
 10
357.0
 20
0.0
 30
1471.218277852922
 11
183.5
 21
1501.243277852922
 31
0.0
 70
    32
  1
<>
 71
     5
 42
347.0
210
0.0
220
-1.0
230
0.0
  3
Default
100
AcDbAlignedDimension
 13
10.0
 23
65.50054054054054
 33
1409.671827555675
 14
357.0
 24
65.50054054054054
 34
1409.671827555675
100
AcDbRotatedDimension
1001
ACAD
1000
DSTYLE
1002
{
1070
   279
1070
     1
1002
}
  0
ENDBLK
  5
1C5
330
3B
100
AcDbEntity
  8
0
100
AcDbBlockEnd
  0
BLOCK
  5
6D
330
63
100
AcDbEntity
  8
0
100
AcDbBlockBegin
  2
*D2
 70
     1
 10
0.0
 20
0.0
 30
0.0
  3
*D2
  1

  0
LINE
  5
64
330
63
100
AcDbEntity
  8
Livello 01
 62
     0
370
    -2
100
AcDbLine
 10
10.00000000000002
 20
-413.6064765093768
 30
0.0
 11
9.999999999999996
 21
-266.3041817155435
 31
0.0
  0
LINE
  5
65
330
63
100
AcDbEntity
  8
Livello 01
 62
     0
370
    -2
100
AcDbLine
 10
668.0
 20
-413.6064765093768
 30
0.0
 11
668.0
 21
-266.3041817155435
 31
0.0
  0
LINE
  5
66
330
63
100
AcDbEntity
  8
Livello 01
 62
     0
370
    -2
100
AcDbLine
 10
60.0
 20
-291.3041817155435
 30
0.0
 11
618.0
 21
-291.3041817155435
 31
0.0
  0
SOLID
  5
67
330
63
100
AcDbEntity
  8
Livello 01
 62
     0
100
AcDbTrace
 10
60.0
 20
-282.9708483822101
 30
0.0
 11
60.0
 21
-299.6375150488768
 31
0.0
 12
10.0
 22
-291.3041817155435
 32
0.0
 13
10.0
 23
-291.3041817155435
 33
0.0
  0
SOLID
  5
68
330
63
100
AcDbEntity
  8
Livello 01
 62
     0
100
AcDbTrace
 10
618.0
 20
-299.6375150488768
 30
0.0
 11
618.0
 21
-282.9708483822101
 31
0.0
 12
668.0
 22
-291.3041817155435
 32
0.0
 13
668.0
 23
-291.3041817155435
 33
0.0
  0
MTEXT
  5
69
330
63
100
AcDbEntity
  8
Livello 01
 62
     0
100
AcDbMText
 10
339.0
 20
-261.2791817155435
 30
0.0
 40
50.0
 41
0.0
 71
     5
 72
     1
  1
\A1;658.00
  7
Arial
 73
     1
 44
1.0
  0
POINT
  5
6A
330
63
100
AcDbEntity
  8
Defpoints
 62
     0
100
AcDbPoint
 10
10.00000000000002
 20
-438.6064765093768
 30
0.0
  0
POINT
  5
6B
330
63
100
AcDbEntity
  8
Defpoints
 62
     0
100
AcDbPoint
 10
668.0
 20
-438.6064765093768
 30
0.0
  0
POINT
  5
6C
330
63
100
AcDbEntity
  8
Defpoints
 62
     0
100
AcDbPoint
 10
668.0
 20
-291.3041817155435
 30
0.0
  0
ENDBLK
  5
6E
330
63
100
AcDbEntity
  8
0
100
AcDbBlockEnd
  0
BLOCK
  5
A8
330
9E
100
AcDbEntity
  8
0
100
AcDbBlockBegin
  2
*D3
 70
     1
 10
0.0
 20
0.0
 30
0.0
  3
*D3
  1

  0
LINE
  5
9F
330
9E
100
AcDbEntity
  8
Livello 01
 62
     0
370
    -2
100
AcDbLine
 10
10.00000000000002
 20
-17.02352715315959
 30
0.0
 11
9.999999999999995
 21
85.60994249857426
 31
0.0
  0
LINE
  5
A0
330
9E
100
AcDbEntity
  8
Livello 01
 62
     0
370
    -2
100
AcDbLine
 10
628.0
 20
-17.02352715315959
 30
0.0
 11
628.0
 21
85.60994249857426
 31
0.0
  0
LINE
  5
A1
330
9E
100
AcDbEntity
  8
Livello 01
 62
     0
370
    -2
100
AcDbLine
 10
60.0
 20
60.60994249857426
 30
0.0
 11
578.0
 21
60.60994249857426
 31
0.0
  0
SOLID
  5
A2
330
9E
100
AcDbEntity
  8
Livello 01
 62
     0
100
AcDbTrace
 10
60.0
 20
68.94327583190758
 30
0.0
 11
60.0
 21
52.27660916524092
 31
0.0
 12
10.0
 22
60.60994249857426
 32
0.0
 13
10.0
 23
60.60994249857426
 33
0.0
  0
SOLID
  5
A3
330
9E
100
AcDbEntity
  8
Livello 01
 62
     0
100
AcDbTrace
 10
578.0
 20
52.27660916524092
 30
0.0
 11
578.0
 21
68.94327583190758
 31
0.0
 12
628.0
 22
60.60994249857426
 32
0.0
 13
628.0
 23
60.60994249857426
 33
0.0
  0
MTEXT
  5
A4
330
9E
100
AcDbEntity
  8
Livello 01
 62
     0
100
AcDbMText
 10
319.0
 20
90.63494249857426
 30
0.0
 40
50.0
 41
0.0
 71
     5
 72
     1
  1
\A1;618.00
  7
Arial
 73
     1
 44
1.0
  0
POINT
  5
A5
330
9E
100
AcDbEntity
  8
Defpoints
 62
     0
100
AcDbPoint
 10
10.00000000000002
 20
-42.02352715315959
 30
0.0
  0
POINT
  5
A6
330
9E
100
AcDbEntity
  8
Defpoints
 62
     0
100
AcDbPoint
 10
628.0
 20
-42.02352715315959
 30
0.0
  0
POINT
  5
A7
330
9E
100
AcDbEntity
  8
Defpoints
 62
     0
100
AcDbPoint
 10
628.0
 20
60.60994249857426
 30
0.0
  0
ENDBLK
  5
A9
330
9E
100
AcDbEntity
  8
0
100
AcDbBlockEnd
  0
BLOCK
  5
E3
330
D9
100
AcDbEntity
  8
0
100
AcDbBlockBegin
  2
*D4
 70
     1
 10
0.0
 20
0.0
 30
0.0
  3
*D4
  1

  0
LINE
  5
DA
330
D9
100
AcDbEntity
  8
Livello 01
 62
     0
370
    -2
100
AcDbLine
 10
10.00000000000002
 20
339.8208488552091
 30
0.0
 11
9.999999999999995
 21
441.7269084190325
 31
0.0
  0
LINE
  5
DB
330
D9
100
AcDbEntity
  8
Livello 01
 62
     0
370
    -2
100
AcDbLine
 10
547.0
 20
339.8208488552091
 30
0.0
 11
547.0
 21
441.7269084190325
 31
0.0
  0
LINE
  5
DC
330
D9
100
AcDbEntity
  8
Livello 01
 62
     0
370
    -2
100
AcDbLine
 10
60.0
 20
416.7269084190325
 30
0.0
 11
497.0
 21
416.7269084190325
 31
0.0
  0
SOLID
  5
DD
330
D9
100
AcDbEntity
  8
Livello 01
 62
     0
100
AcDbTrace
 10
60.0
 20
425.0602417523658
 30
0.0
 11
60.0
 21
408.3935750856992
 31
0.0
 12
10.0
 22
416.7269084190325
 32
0.0
 13
10.0
 23
416.7269084190325
 33
0.0
  0
SOLID
  5
DE
330
D9
100
AcDbEntity
  8
Livello 01
 62
     0
100
AcDbTrace
 10
497.0
 20
408.3935750856992
 30
0.0
 11
497.0
 21
425.0602417523658
 31
0.0
 12
547.0
 22
416.7269084190325
 32
0.0
 13
547.0
 23
416.7269084190325
 33
0.0
  0
MTEXT
  5
DF
330
D9
100
AcDbEntity
  8
Livello 01
 62
     0
100
AcDbMText
 10
278.5
 20
446.7519084190325
 30
0.0
 40
50.0
 41
0.0
 71
     5
 72
     1
  1
\A1;537.00
  7
Arial
 73
     1
 44
1.0
  0
POINT
  5
E0
330
D9
100
AcDbEntity
  8
Defpoints
 62
     0
100
AcDbPoint
 10
10.00000000000002
 20
314.8208488552091
 30
0.0
  0
POINT
  5
E1
330
D9
100
AcDbEntity
  8
Defpoints
 62
     0
100
AcDbPoint
 10
547.0
 20
314.8208488552091
 30
0.0
  0
POINT
  5
E2
330
D9
100
AcDbEntity
  8
Defpoints
 62
     0
100
AcDbPoint
 10
547.0
 20
416.7269084190325
 30
0.0
  0
ENDBLK
  5
E4
330
D9
100
AcDbEntity
  8
0
100
AcDbBlockEnd
  0
BLOCK
  5
14C
330
142
100
AcDbEntity
  8
0
100
AcDbBlockBegin
  2
*D5
 70
     1
 10
0.0
 20
0.0
 30
0.0
  3
*D5
  1

  0
LINE
  5
143
330
142
100
AcDbEntity
  8
Livello 01
 62
     0
370
    -2
100
AcDbLine
 10
10.00000000000002
 20
683.0
 30
0.0
 11
9.999999999999993
 21
777.4217808602292
 31
0.0
  0
LINE
  5
144
330
142
100
AcDbEntity
  8
Livello 01
 62
     0
370
    -2
100
AcDbLine
 10
488.0
 20
683.0
 30
0.0
 11
488.0
 21
777.4217808602292
 31
0.0
  0
LINE
  5
145
330
142
100
AcDbEntity
  8
Livello 01
 62
     0
370
    -2
100
AcDbLine
 10
60.0
 20
752.4217808602292
 30
0.0
 11
438.0
 21
752.4217808602292
 31
0.0
  0
SOLID
  5
146
330
142
100
AcDbEntity
  8
Livello 01
 62
     0
100
AcDbTrace
 10
60.0
 20
760.7551141935626
 30
0.0
 11
60.0
 21
744.0884475268958
 31
0.0
 12
10.0
 22
752.4217808602292
 32
0.0
 13
10.0
 23
752.4217808602292
 33
0.0
  0
SOLID
  5
147
330
142
100
AcDbEntity
  8
Livello 01
 62
     0
100
AcDbTrace
 10
438.0
 20
744.0884475268958
 30
0.0
 11
438.0
 21
760.7551141935626
 31
0.0
 12
488.0
 22
752.4217808602292
 32
0.0
 13
488.0
 23
752.4217808602292
 33
0.0
  0
MTEXT
  5
148
330
142
100
AcDbEntity
  8
Livello 01
 62
     0
100
AcDbMText
 10
249.0
 20
782.4467808602292
 30
0.0
 40
50.0
 41
0.0
 71
     5
 72
     1
  1
\A1;478.00
  7
Arial
 73
     1
 44
1.0
  0
POINT
  5
149
330
142
100
AcDbEntity
  8
Defpoints
 62
     0
100
AcDbPoint
 10
10.00000000000002
 20
658.0
 30
0.0
  0
POINT
  5
14A
330
142
100
AcDbEntity
  8
Defpoints
 62
     0
100
AcDbPoint
 10
488.0
 20
658.0
 30
0.0
  0
POINT
  5
14B
330
142
100
AcDbEntity
  8
Defpoints
 62
     0
100
AcDbPoint
 10
488.0
 20
752.4217808602292
 30
0.0
  0
ENDBLK
  5
14D
330
142
100
AcDbEntity
  8
0
100
AcDbBlockEnd
  0
BLOCK
  5
187
330
17D
100
AcDbEntity
  8
0
100
AcDbBlockBegin
  2
*D6
 70
     1
 10
0.0
 20
0.0
 30
0.0
  3
*D6
  1

  0
LINE
  5
17E
330
17D
100
AcDbEntity
  8
Livello 01
 62
     0
370
    -2
100
AcDbLine
 10
10.00000000000002
 20
1074.921438990979
 30
0.0
 11
9.999999999999991
 21
1146.268433986306
 31
0.0
  0
LINE
  5
17F
330
17D
100
AcDbEntity
  8
Livello 01
 62
     0
370
    -2
100
AcDbLine
 10
398.0
 20
1074.921438990979
 30
0.0
 11
398.0
 21
1146.268433986306
 31
0.0
  0
LINE
  5
180
330
17D
100
AcDbEntity
  8
Livello 01
 62
     0
370
    -2
100
AcDbLine
 10
60.0
 20
1121.268433986306
 30
0.0
 11
348.0
 21
1121.268433986306
 31
0.0
  0
SOLID
  5
181
330
17D
100
AcDbEntity
  8
Livello 01
 62
     0
100
AcDbTrace
 10
60.0
 20
1129.60176731964
 30
0.0
 11
60.0
 21
1112.935100652973
 31
0.0
 12
10.0
 22
1121.268433986306
 32
0.0
 13
10.0
 23
1121.268433986306
 33
0.0
  0
SOLID
  5
182
330
17D
100
AcDbEntity
  8
Livello 01
 62
     0
100
AcDbTrace
 10
348.0
 20
1112.935100652973
 30
0.0
 11
348.0
 21
1129.60176731964
 31
0.0
 12
398.0
 22
1121.268433986306
 32
0.0
 13
398.0
 23
1121.268433986306
 33
0.0
  0
MTEXT
  5
183
330
17D
100
AcDbEntity
  8
Livello 01
 62
     0
100
AcDbMText
 10
204.0
 20
1151.293433986306
 30
0.0
 40
50.0
 41
0.0
 71
     5
 72
     1
  1
\A1;388.00
  7
Arial
 73
     1
 44
1.0
  0
POINT
  5
184
330
17D
100
AcDbEntity
  8
Defpoints
 62
     0
100
AcDbPoint
 10
10.00000000000002
 20
1049.921438990979
 30
0.0
  0
POINT
  5
185
330
17D
100
AcDbEntity
  8
Defpoints
 62
     0
100
AcDbPoint
 10
398.0
 20
1049.921438990979
 30
0.0
  0
POINT
  5
186
330
17D
100
AcDbEntity
  8
Defpoints
 62
     0
100
AcDbPoint
 10
398.0
 20
1121.268433986306
 30
0.0
  0
ENDBLK
  5
188
330
17D
100
AcDbEntity
  8
0
100
AcDbBlockEnd
  0
BLOCK
  5
1C2
330
1B8
100
AcDbEntity
  8
0
100
AcDbBlockBegin
  2
*D7
 70
     1
 10
0.0
 20
0.0
 30
0.0
  3
*D7
  1

  0
LINE
  5
1B9
330
1B8
100
AcDbEntity
  8
Livello 01
 62
     0
370
    -2
100
AcDbLine
 10
10.0
 20
1434.671827555675
 30
0.0
 11
10.0
 21
1496.218277852922
 31
0.0
  0
LINE
  5
1BA
330
1B8
100
AcDbEntity
  8
Livello 01
 62
     0
370
    -2
100
AcDbLine
 10
357.0
 20
1434.671827555675
 30
0.0
 11
357.0
 21
1496.218277852922
 31
0.0
  0
LINE
  5
1BB
330
1B8
100
AcDbEntity
  8
Livello 01
 62
     0
370
    -2
100
AcDbLine
 10
60.0
 20
1471.218277852922
 30
0.0
 11
307.0
 21
1471.218277852922
 31
0.0
  0
SOLID
  5
1BC
330
1B8
100
AcDbEntity
  8
Livello 01
 62
     0
100
AcDbTrace
 10
60.0
 20
1479.551611186255
 30
0.0
 11
60.0
 21
1462.884944519589
 31
0.0
 12
10.0
 22
1471.218277852922
 32
0.0
 13
10.0
 23
1471.218277852922
 33
0.0
  0
SOLID
  5
1BD
330
1B8
100
AcDbEntity
  8
Livello 01
 62
     0
100
AcDbTrace
 10
307.0
 20
1462.884944519589
 30
0.0
 11
307.0
 21
1479.551611186255
 31
0.0
 12
357.0
 22
1471.218277852922
 32
0.0
 13
357.0
 23
1471.218277852922
 33
0.0
  0
MTEXT
  5
1BE
330
1B8
100
AcDbEntity
  8
Livello 01
 62
     0
100
AcDbMText
 10
183.5
 20
1501.243277852922
 30
0.0
 40
50.0
 41
0.0
 71
     5
 72
     1
  1
\A1;347.00
  7
Arial
 73
     1
 44
1.0
  0
POINT
  5
1BF
330
1B8
100
AcDbEntity
  8
Defpoints
 62
     0
100
AcDbPoint
 10
10.0
 20
1409.671827555675
 30
0.0
  0
POINT
  5
1C0
330
1B8
100
AcDbEntity
  8
Defpoints
 62
     0
100
AcDbPoint
 10
357.0
 20
1409.671827555675
 30
0.0
  0
POINT
  5
1C1
330
1B8
100
AcDbEntity
  8
Defpoints
 62
     0
100
AcDbPoint
 10
357.0
 20
1471.218277852922
 30
0.0
  0
ENDBLK
  5
1C3
330
1B8
100
AcDbEntity
  8
0
100
AcDbBlockEnd
  0
ENDSEC
  0
SECTION
  2
ENTITIES
  0
SPLINE
  5
1C7
330
1F
100
AcDbEntity
  8
Linee visibili 2D - Tangent
100
AcDbSpline
210
0.0
220
0.0
230
1.0
 70
     8
 71
     3
 72
    14
 73
    10
 74
     0
 42
0.0000000001
 43
0.0000000001
 40
0.0
 40
0.0
 40
0.0
 40
0.0
 40
7.02257018548481
 40
13.94640225107732
 40
28.16867957751865
 40
35.07604624325211
 40
42.13399501330046
 40
58.67457777272112
 40
154.4127978184109
 40
154.4127978184109
 40
154.4127978184109
 40
154.4127978184109
 10
-740.9574122554612
 20
169.642754709975
 30
0.0
 10
-738.6863556625262
 20
169.0756834185398
 30
0.0
 10
-734.2265719384765
 20
167.747216668305
 30
0.0
 10
-725.4739948718368
 20
164.3290750617323
 30
0.0
 10
-717.2039913552252
 20
159.8967444518656
 30
0.0
 10
-709.5336173608379
 20
154.4560491647155
 30
0.0
 10
-701.7331343873705
 20
147.9202864042508
 30
0.0
 10
-674.0069547768992
 20
119.2939679212456
 30
0.0
 10
-654.3134189066168
 20
87.13292932941027
 30
0.0
 10
-620.3639490018517
 20
79.22220088753045
 30
0.0
  0
SPLINE
  5
1C9
330
1F
100
AcDbEntity
  8
Linee visibili 2D
100
AcDbSpline
210
0.0
220
0.0
230
1.0
 70
    24
 71
     2
 72
     6
 73
     3
 74
     0
 42
0.0000000001
 43
0.0000000001
 40
0.0
 40
0.0
 40
0.0
 40
25.33671459915558
 40
25.33671459915558
 40
25.33671459915558
 10
-687.6152951031468
 20
614.7785803822475
 30
0.0
 10
-687.6152951031468
 20
627.4469376818253
 30
0.0
 10
-687.6152951031468
 20
640.115294981403
 30
0.0
  0
SPLINE
  5
1CA
330
1F
100
AcDbEntity
  8
Linee visibili 2D
100
AcDbSpline
210
0.0
220
0.0
230
1.0
 70
    24
 71
     2
 72
     6
 73
     3
 74
     0
 42
0.0000000001
 43
0.0000000001
 40
0.0
 40
0.0
 40
0.0
 40
25.33671459915558
 40
25.33671459915558
 40
25.33671459915558
 10
-618.6152951031468
 20
640.115294981403
 30
0.0
 10
-618.6152951031468
 20
627.4469376818253
 30
0.0
 10
-618.6152951031468
 20
614.7785803822475
 30
0.0
  0
SPLINE
  5
1CB
330
1F
100
AcDbEntity
  8
Linee visibili 2D
100
AcDbSpline
210
0.0
220
0.0
230
1.0
 70
    24
 71
     2
 72
     6
 73
     3
 74
     0
 42
0.0000000001
 43
0.0000000001
 40
0.0
 40
0.0
 40
0.0
 40
100.0
 40
100.0
 40
100.0
 10
-853.7321719683687
 20
640.1152949814028
 30
0.0
 10
-853.7321719683687
 20
590.1152949814028
 30
0.0
 10
-853.7321719683687
 20
540.1152949814028
 30
0.0
  0
SPLINE
  5
1CC
330
1F
100
AcDbEntity
  8
Linee visibili 2D
100
AcDbSpline
210
0.0
220
0.0
230
1.0
 70
    24
 71
     2
 72
     6
 73
     3
 74
     0
 42
0.0000000001
 43
0.0000000001
 40
0.0
 40
0.0
 40
0.0
 40
20.0
 40
20.0
 40
20.0
 10
-873.7321719683687
 20
540.1152949814028
 30
0.0
 10
-863.7321719683687
 20
540.1152949814028
 30
0.0
 10
-853.7321719683687
 20
540.1152949814028
 30
0.0
  0
SPLINE
  5
1CD
330
1F
100
AcDbEntity
  8
Linee visibili 2D
100
AcDbSpline
210
0.0
220
0.0
230
1.0
 70
    24
 71
     2
 72
     6
 73
     3
 74
     0
 42
0.0000000001
 43
0.0000000001
 40
0.0
 40
0.0
 40
0.0
 40
100.0
 40
100.0
 40
100.0
 10
-873.7321719683687
 20
640.1152949814028
 30
0.0
 10
-873.7321719683687
 20
590.1152949814028
 30
0.0
 10
-873.7321719683687
 20
540.1152949814028
 30
0.0
  0
SPLINE
  5
1CE
330
1F
100
AcDbEntity
  8
Linee visibili 2D
100
AcDbSpline
210
0.0
220
0.0
230
1.0
 70
    28
 71
     3
 72
    11
 73
     7
 74
     0
 42
0.0000000001
 43
0.0000000001
 40
105.4584324156103
 40
105.4584324156103
 40
105.4584324156103
 40
105.4584324156103
 40
106.0105708052209
 40
106.0105708052209
 40
106.0105708052209
 40
140.5106892690114
 40
140.5106892690114
 40
140.5106892690114
 40
140.5106892690114
 10
-687.6068031071686
 20
614.7785803822471
 30
0.0
 41
1.0
 10
-687.6125310536993
 20
614.7785803822471
 30
0.0
 41
1.0
 10
-687.6153783518785
 20
614.7785803822471
 30
0.0
 41
1.0
 10
-687.6154135669375
 20
614.7785803822471
 30
0.0
 41
1.0
 10
-676.1153740790073
 20
614.7785803822486
 30
0.0
 41
1.0
 10
-664.6153345910773
 20
614.7785803822477
 30
0.0
 41
1.0
 10
-653.115295103147
 20
614.7785803822475
 30
0.0
 41
1.0
  0
SPLINE
  5
1CF
330
1F
100
AcDbEntity
  8
Linee visibili 2D
100
AcDbSpline
210
0.0
220
0.0
230
1.0
 70
    24
 71
     2
 72
     6
 73
     3
 74
     0
 42
0.0000000001
 43
0.0000000001
 40
0.0
 40
0.0
 40
0.0
 40
34.49090886516103
 40
34.49090886516103
 40
34.49090886516103
 10
-653.1152951031468
 20
614.7785803822475
 30
0.0
 10
-635.8698406705662
 20
614.7785803822475
 30
0.0
 10
-618.6243862379857
 20
614.7785803822475
 30
0.0
  0
SPLINE
  5
1D0
330
1F
100
AcDbEntity
  8
Linee visibili 2D - Tangent
100
AcDbSpline
210
0.0
220
0.0
230
1.0
 70
    24
 71
     2
 72
     6
 73
     3
 74
     0
 42
0.0000000001
 43
0.0000000001
 40
0.0
 40
0.0
 40
0.0
 40
4.999999999456122
 40
4.999999999456122
 40
4.999999999456122
 10
-438.1152951386516
 20
645.1152949814028
 30
0.0
 10
-435.6152951389236
 20
645.1152949814028
 30
0.0
 10
-433.1152951391955
 20
645.1152949814028
 30
0.0
  0
SPLINE
  5
1D1
330
1F
100
AcDbEntity
  8
Linee visibili 2D - Tangent
100
AcDbSpline
210
0.0
220
0.0
230
1.0
 70
    24
 71
     2
 72
     6
 73
     3
 74
     0
 42
0.0000000001
 43
0.0000000001
 40
0.0
 40
0.0
 40
0.0
 40
4.999999999456975
 40
4.999999999456975
 40
4.999999999456975
 10
-433.1152951391955
 20
735.1152949814028
 30
0.0
 10
-435.615295138924
 20
735.1152949814028
 30
0.0
 10
-438.1152951386525
 20
735.1152949814028
 30
0.0
  0
SPLINE
  5
1D2
330
1F
100
AcDbEntity
  8
Linee visibili 2D
100
AcDbSpline
210
0.0
220
0.0
230
1.0
 70
    12
 71
     2
 72
     6
 73
     3
 74
     0
 42
0.0000000001
 43
0.0000000001
 40
0.0
 40
0.0
 40
0.0
 40
7.853981633975033
 40
7.853981633975033
 40
7.853981633975033
 10
-438.1152951391973
 20
740.1152949814028
 30
0.0
 41
1.0
 10
-433.1152951391984
 20
740.1152949814017
 30
0.0
 41
0.7071067811868369
 10
-433.1152951391954
 20
735.1152949814028
 30
0.0
 41
1.0
  0
SPLINE
  5
1D3
330
1F
100
AcDbEntity
  8
Linee visibili 2D - Tangent
100
AcDbSpline
210
0.0
220
0.0
230
1.0
 70
    24
 71
     2
 72
     6
 73
     3
 74
     0
 42
0.0000000001
 43
0.0000000001
 40
0.0
 40
0.0
 40
0.0
 40
5.0
 40
5.0
 40
5.0
 10
-438.1152951391964
 20
640.1152949814028
 30
0.0
 10
-438.115295138924
 20
642.6152949814028
 30
0.0
 10
-438.1152951386516
 20
645.1152949814028
 30
0.0
  0
SPLINE
  5
1D4
330
1F
100
AcDbEntity
  8
Linee visibili 2D
100
AcDbSpline
210
0.0
220
0.0
230
1.0
 70
    12
 71
     2
 72
     6
 73
     3
 74
     0
 42
0.0000000001
 43
0.0000000001
 40
0.0
 40
0.0
 40
0.0
 40
7.853981633974873
 40
7.853981633974873
 40
7.853981633974873
 10
-433.1152951391955
 20
645.1152949814028
 30
0.0
 41
1.0
 10
-433.1152951391966
 20
640.1152949814032
 30
0.0
 41
0.7071067811866399
 10
-438.1152951391964
 20
640.1152949814029
 30
0.0
 41
1.0
  0
SPLINE
  5
1D5
330
1F
100
AcDbEntity
  8
Linee visibili 2D
100
AcDbSpline
210
0.0
220
0.0
230
1.0
 70
    24
 71
     2
 72
     6
 73
     3
 74
     0
 42
0.0000000001
 43
0.0000000001
 40
0.0
 40
0.0
 40
0.0
 40
439.9999999999973
 40
439.9999999999973
 40
439.9999999999973
 10
-438.1152951391964
 20
640.1152949814028
 30
0.0
 10
-658.115295139195
 20
640.1152949814028
 30
0.0
 10
-878.1152951391937
 20
640.1152949814028
 30
0.0
  0
SPLINE
  5
1D6
330
1F
100
AcDbEntity
  8
Linee visibili 2D - Tangent
100
AcDbSpline
210
0.0
220
0.0
230
1.0
 70
    24
 71
     2
 72
     6
 73
     3
 74
     0
 42
0.0000000001
 43
0.0000000001
 40
0.0
 40
0.0
 40
0.0
 40
90.0
 40
90.0
 40
90.0
 10
-438.1152951386516
 20
645.1152949814028
 30
0.0
 10
-438.1152951386521
 20
690.1152949814028
 30
0.0
 10
-438.1152951386525
 20
735.1152949814028
 30
0.0
  0
SPLINE
  5
1D7
330
1F
100
AcDbEntity
  8
Linee visibili 2D - Tangent
100
AcDbSpline
210
0.0
220
0.0
230
1.0
 70
    24
 71
     2
 72
     6
 73
     3
 74
     0
 42
0.0000000001
 43
0.0000000001
 40
0.0
 40
0.0
 40
0.0
 40
440.0000000000027
 40
440.0000000000027
 40
440.0000000000027
 10
-438.1152951386516
 20
645.1152949814028
 30
0.0
 10
-658.115295138653
 20
645.1152949814028
 30
0.0
 10
-878.1152951386543
 20
645.1152949814028
 30
0.0
  0
SPLINE
  5
1D8
330
1F
100
AcDbEntity
  8
Linee visibili 2D
100
AcDbSpline
210
0.0
220
0.0
230
1.0
 70
    24
 71
     2
 72
     6
 73
     3
 74
     0
 42
0.0000000001
 43
0.0000000001
 40
0.0
 40
0.0
 40
0.0
 40
90.0
 40
90.0
 40
90.0
 10
-433.1152951391955
 20
645.1152949814028
 30
0.0
 10
-433.1152951391955
 20
690.1152949814028
 30
0.0
 10
-433.1152951391955
 20
735.1152949814028
 30
0.0
  0
SPLINE
  5
1D9
330
1F
100
AcDbEntity
  8
Linee visibili 2D
100
AcDbSpline
210
0.0
220
0.0
230
1.0
 70
    12
 71
     2
 72
     6
 73
     3
 74
     0
 42
0.0000000001
 43
0.0000000001
 40
0.0
 40
0.0
 40
0.0
 40
7.853981633974715
 40
7.853981633974715
 40
7.853981633974715
 10
-883.1152951391955
 20
735.1152949814028
 30
0.0
 41
1.0
 10
-883.1152951391956
 20
740.1152949814028
 30
0.0
 41
0.7071067811865542
 10
-878.1152951391955
 20
740.1152949814032
 30
0.0
 41
1.0
  0
SPLINE
  5
1DA
330
1F
100
AcDbEntity
  8
Linee visibili 2D
100
AcDbSpline
210
0.0
220
0.0
230
1.0
 70
    12
 71
     2
 72
     6
 73
     3
 74
     0
 42
0.0000000001
 43
0.0000000001
 40
0.0
 40
0.0
 40
0.0
 40
7.85398163397515
 40
7.85398163397515
 40
7.85398163397515
 10
-878.1152951391937
 20
640.1152949814028
 30
0.0
 41
1.0
 10
-883.1152951391929
 20
640.1152949814035
 30
0.0
 41
0.7071067811867908
 10
-883.1152951391955
 20
645.1152949814028
 30
0.0
 41
1.0
  0
SPLINE
  5
1DB
330
1F
100
AcDbEntity
  8
Linee visibili 2D - Tangent
100
AcDbSpline
210
0.0
220
0.0
230
1.0
 70
    24
 71
     2
 72
     6
 73
     3
 74
     0
 42
0.0000000001
 43
0.0000000001
 40
0.0
 40
0.0
 40
0.0
 40
4.99502903352834
 40
4.99502903352834
 40
4.99502903352834
 10
-878.1152951386543
 20
645.1152949814028
 30
0.0
 10
-878.115295138912
 20
642.6177804646386
 30
0.0
 10
-878.1152951391696
 20
640.1202659478745
 30
0.0
  0
SPLINE
  5
1DC
330
1F
100
AcDbEntity
  8
Linee visibili 2D - Tangent
100
AcDbSpline
210
0.0
220
0.0
230
1.0
 70
    24
 71
     2
 72
     6
 73
     3
 74
     0
 42
0.0000000001
 43
0.0000000001
 40
0.0
 40
0.0
 40
0.0
 40
5.000000000542968
 40
5.000000000542968
 40
5.000000000542968
 10
-878.1152951386525
 20
735.1152949814028
 30
0.0
 10
-880.615295138924
 20
735.1152949814028
 30
0.0
 10
-883.1152951391955
 20
735.1152949814028
 30
0.0
  0
SPLINE
  5
1DD
330
1F
100
AcDbEntity
  8
Linee visibili 2D - Tangent
100
AcDbSpline
210
0.0
220
0.0
230
1.0
 70
    24
 71
     2
 72
     6
 73
     3
 74
     0
 42
0.0000000001
 43
0.0000000001
 40
0.0
 40
0.0
 40
0.0
 40
90.0
 40
90.0
 40
90.0
 10
-878.1152951386525
 20
735.1152949814028
 30
0.0
 10
-878.1152951386534
 20
690.1152949814028
 30
0.0
 10
-878.1152951386543
 20
645.1152949814028
 30
0.0
  0
SPLINE
  5
1DE
330
1F
100
AcDbEntity
  8
Linee visibili 2D - Tangent
100
AcDbSpline
210
0.0
220
0.0
230
1.0
 70
    24
 71
     2
 72
     6
 73
     3
 74
     0
 42
0.0000000001
 43
0.0000000001
 40
0.0
 40
0.0
 40
0.0
 40
5.000000000541149
 40
5.000000000541149
 40
5.000000000541149
 10
-883.1152951391955
 20
645.1152949814028
 30
0.0
 10
-880.6152951389249
 20
645.1152949814028
 30
0.0
 10
-878.1152951386543
 20
645.1152949814028
 30
0.0
  0
SPLINE
  5
1DF
330
1F
100
AcDbEntity
  8
Linee visibili 2D
100
AcDbSpline
210
0.0
220
0.0
230
1.0
 70
    24
 71
     2
 72
     6
 73
     3
 74
     0
 42
0.0000000001
 43
0.0000000001
 40
0.0
 40
0.0
 40
0.0
 40
90.0
 40
90.0
 40
90.0
 10
-883.1152951391955
 20
735.1152949814028
 30
0.0
 10
-883.1152951391955
 20
690.1152949814028
 30
0.0
 10
-883.1152951391955
 20
645.1152949814028
 30
0.0
  0
SPLINE
  5
1E0
330
1F
100
AcDbEntity
  8
Linee visibili 2D - Tangent
100
AcDbSpline
210
0.0
220
0.0
230
1.0
 70
    24
 71
     2
 72
     6
 73
     3
 74
     0
 42
0.0000000001
 43
0.0000000001
 40
0.0
 40
0.0
 40
0.0
 40
5.000000000000341
 40
5.000000000000341
 40
5.000000000000341
 10
-878.1152951391955
 20
740.1152949814032
 30
0.0
 10
-878.115295138924
 20
737.6152949814029
 30
0.0
 10
-878.1152951386525
 20
735.1152949814028
 30
0.0
  0
SPLINE
  5
1E1
330
1F
100
AcDbEntity
  8
Linee visibili 2D
100
AcDbSpline
210
0.0
220
0.0
230
1.0
 70
    24
 71
     2
 72
     6
 73
     3
 74
     0
 42
0.0000000001
 43
0.0000000001
 40
0.0
 40
0.0
 40
0.0
 40
59.44457422909818
 40
59.44457422909818
 40
59.44457422909818
 10
-878.1152951391955
 20
740.1152949814032
 30
0.0
 10
-848.3930080246464
 20
740.1152949814029
 30
0.0
 10
-818.6707209100973
 20
740.1152949814028
 30
0.0
  0
SPLINE
  5
1E2
330
1F
100
AcDbEntity
  8
Linee visibili 2D
100
AcDbSpline
210
0.0
220
0.0
230
1.0
 70
    24
 71
     2
 72
     6
 73
     3
 74
     0
 42
0.0000000001
 43
0.0000000001
 40
0.0
 40
0.0
 40
0.0
 40
25.55542584361228
 40
25.55542584361228
 40
25.55542584361228
 10
-793.115295066485
 20
740.1152949814028
 30
0.0
 10
-805.8930079882912
 20
740.1152949814028
 30
0.0
 10
-818.6707209100973
 20
740.1152949814028
 30
0.0
  0
SPLINE
  5
1E3
330
1F
100
AcDbEntity
  8
Linee visibili 2D
100
AcDbSpline
210
0.0
220
0.0
230
1.0
 70
    24
 71
     2
 72
     6
 73
     3
 74
     0
 42
0.0000000001
 43
0.0000000001
 40
0.0
 40
0.0
 40
0.0
 40
185.0
 40
185.0
 40
185.0
 10
-608.115295066485
 20
740.1152949814028
 30
0.0
 10
-700.615295066485
 20
740.1152949814028
 30
0.0
 10
-793.115295066485
 20
740.1152949814028
 30
0.0
  0
SPLINE
  5
1E4
330
1F
100
AcDbEntity
  8
Linee visibili 2D
100
AcDbSpline
210
0.0
220
0.0
230
1.0
 70
    24
 71
     2
 72
     6
 73
     3
 74
     0
 42
0.0000000001
 43
0.0000000001
 40
0.0
 40
0.0
 40
0.0
 40
13.81875000000036
 40
13.81875000000036
 40
13.81875000000036
 10
-608.115295066485
 20
740.1152949814028
 30
0.0
 10
-601.2059200664849
 20
740.1152949814028
 30
0.0
 10
-594.2965450664847
 20
740.1152949814028
 30
0.0
  0
SPLINE
  5
1E5
330
1F
100
AcDbEntity
  8
Linee visibili 2D
100
AcDbSpline
210
0.0
220
0.0
230
1.0
 70
    24
 71
     2
 72
     6
 73
     3
 74
     0
 42
0.0000000001
 43
0.0000000001
 40
0.0
 40
0.0
 40
0.0
 40
1.181249999999636
 40
1.181249999999636
 40
1.181249999999636
 10
-594.2965450664847
 20
740.1152949814028
 30
0.0
 10
-593.7059200664849
 20
740.1152949814028
 30
0.0
 10
-593.115295066485
 20
740.1152949814028
 30
0.0
  0
SPLINE
  5
1E6
330
1F
100
AcDbEntity
  8
Linee visibili 2D
100
AcDbSpline
210
0.0
220
0.0
230
1.0
 70
    24
 71
     2
 72
     6
 73
     3
 74
     0
 42
0.0000000001
 43
0.0000000001
 40
0.0
 40
0.0
 40
0.0
 40
154.9999999272878
 40
154.9999999272878
 40
154.9999999272878
 10
-593.115295066485
 20
740.1152949814028
 30
0.0
 10
-515.6152951028412
 20
740.1152949814028
 30
0.0
 10
-438.1152951391973
 20
740.1152949814028
 30
0.0
  0
SPLINE
  5
1E7
330
1F
100
AcDbEntity
  8
Linee visibili 2D - Tangent
100
AcDbSpline
210
0.0
220
0.0
230
1.0
 70
    24
 71
     2
 72
     6
 73
     3
 74
     0
 42
0.0000000001
 43
0.0000000001
 40
0.0
 40
0.0
 40
0.0
 40
4.99502903352834
 40
4.99502903352834
 40
4.99502903352834
 10
-438.1152951386525
 20
735.1152949814028
 30
0.0
 10
-438.1152951389128
 20
737.612809498167
 30
0.0
 10
-438.115295139173
 20
740.1103240149312
 30
0.0
  0
SPLINE
  5
1E8
330
1F
100
AcDbEntity
  8
Linee visibili 2D - Tangent
100
AcDbSpline
210
0.0
220
0.0
230
1.0
 70
    24
 71
     2
 72
     6
 73
     3
 74
     0
 42
0.0000000001
 43
0.0000000001
 40
0.0
 40
0.0
 40
0.0
 40
440.0000000000001
 40
440.0000000000001
 40
440.0000000000001
 10
-878.1152951386525
 20
735.1152949814028
 30
0.0
 10
-658.1152951386525
 20
735.1152949814028
 30
0.0
 10
-438.1152951386525
 20
735.1152949814028
 30
0.0
  0
SPLINE
  5
1E9
330
1F
100
AcDbEntity
  8
Linee visibili 2D
100
AcDbSpline
210
0.0
220
0.0
230
1.0
 70
    24
 71
     2
 72
     6
 73
     3
 74
     0
 42
0.0000000001
 43
0.0000000001
 40
0.0
 40
0.0
 40
0.0
 40
80.0
 40
80.0
 40
80.0
 10
-458.0127310366323
 20
640.1152949814028
 30
0.0
 10
-458.0127310366323
 20
600.1152949814028
 30
0.0
 10
-458.0127310366323
 20
560.1152949814028
 30
0.0
  0
SPLINE
  5
1EA
330
1F
100
AcDbEntity
  8
Linee visibili 2D
100
AcDbSpline
210
0.0
220
0.0
230
1.0
 70
    24
 71
     2
 72
     6
 73
     3
 74
     0
 42
0.0000000001
 43
0.0000000001
 40
0.0
 40
0.0
 40
0.0
 40
368.102564102564
 40
368.102564102564
 40
368.102564102564
 10
-458.0127310366323
 20
560.1152949814028
 30
0.0
 10
-642.0640130879143
 20
560.1152949814028
 30
0.0
 10
-826.1152951391963
 20
560.1152949814028
 30
0.0
  0
SPLINE
  5
1EB
330
1F
100
AcDbEntity
  8
Linee visibili 2D
100
AcDbSpline
210
0.0
220
0.0
230
1.0
 70
    24
 71
     2
 72
     6
 73
     3
 74
     0
 42
0.0000000001
 43
0.0000000001
 40
0.0
 40
0.0
 40
0.0
 40
80.0
 40
80.0
 40
80.0
 10
-826.1152951391963
 20
560.1152949814028
 30
0.0
 10
-826.1152951391963
 20
600.1152949814028
 30
0.0
 10
-826.1152951391963
 20
640.1152949814028
 30
0.0
  0
SPLINE
  5
1EC
330
1F
100
AcDbEntity
  8
Linee visibili 2D
100
AcDbSpline
210
0.0
220
0.0
230
1.0
 70
    24
 71
     2
 72
     6
 73
     3
 74
     0
 42
0.0000000001
 43
0.0000000001
 40
0.0
 40
0.0
 40
0.0
 40
100.0
 40
100.0
 40
100.0
 10
-846.0127310366323
 20
640.1152949814028
 30
0.0
 10
-846.0127310366323
 20
590.1152949814028
 30
0.0
 10
-846.0127310366323
 20
540.1152949814028
 30
0.0
  0
SPLINE
  5
1ED
330
1F
100
AcDbEntity
  8
Linee visibili 2D
100
AcDbSpline
210
0.0
220
0.0
230
1.0
 70
    24
 71
     2
 72
     6
 73
     3
 74
     0
 42
0.0000000001
 43
0.0000000001
 40
0.0
 40
0.0
 40
0.0
 40
407.8974358974359
 40
407.8974358974359
 40
407.8974358974359
 10
-846.0127310366323
 20
540.1152949814028
 30
0.0
 10
-642.0640130879144
 20
540.1152949814028
 30
0.0
 10
-438.1152951391964
 20
540.1152949814028
 30
0.0
  0
SPLINE
  5
1EE
330
1F
100
AcDbEntity
  8
Linee visibili 2D
100
AcDbSpline
210
0.0
220
0.0
230
1.0
 70
    24
 71
     2
 72
     6
 73
     3
 74
     0
 42
0.0000000001
 43
0.0000000001
 40
0.0
 40
0.0
 40
0.0
 40
100.0
 40
100.0
 40
100.0
 10
-438.1152951391964
 20
540.1152949814028
 30
0.0
 10
-438.1152951391964
 20
590.1152949814028
 30
0.0
 10
-438.1152951391964
 20
640.1152949814028
 30
0.0
  0
SPLINE
  5
1EF
330
1F
100
AcDbEntity
  8
Linee visibili 2D
100
AcDbSpline
210
0.0
220
0.0
230
1.0
 70
    24
 71
     2
 72
     6
 73
     3
 74
     0
 42
0.0000000001
 43
0.0000000001
 40
0.0
 40
0.0
 40
0.0
 40
25.33671459915558
 40
25.33671459915558
 40
25.33671459915558
 10
260.4999974479281
 20
614.7785803822475
 30
0.0
 10
260.4999974479281
 20
627.4469376818253
 30
0.0
 10
260.4999974479281
 20
640.115294981403
 30
0.0
  0
SPLINE
  5
1F0
330
1F
100
AcDbEntity
  8
Linee visibili 2D
100
AcDbSpline
210
0.0
220
0.0
230
1.0
 70
    24
 71
     2
 72
     6
 73
     3
 74
     0
 42
0.0000000001
 43
0.0000000001
 40
0.0
 40
0.0
 40
0.0
 40
100.0
 40
100.0
 40
100.0
 10
46.72605410084725
 20
540.1152949814028
 30
0.0
 10
46.72605410084725
 20
590.1152949814028
 30
0.0
 10
46.72605410084725
 20
640.1152949814028
 30
0.0
  0
SPLINE
  5
1F1
330
1F
100
AcDbEntity
  8
Linee visibili 2D
100
AcDbSpline
210
0.0
220
0.0
230
1.0
 70
    24
 71
     2
 72
     6
 73
     3
 74
     0
 42
0.0000000001
 43
0.0000000001
 40
0.0
 40
0.0
 40
0.0
 40
497.9166666666665
 40
497.9166666666665
 40
497.9166666666665
 10
544.6427207675138
 20
540.1152949814028
 30
0.0
 10
295.6843874341805
 20
540.1152949814028
 30
0.0
 10
46.72605410084725
 20
540.1152949814028
 30
0.0
  0
SPLINE
  5
1F2
330
1F
100
AcDbEntity
  8
Linee visibili 2D
100
AcDbSpline
210
0.0
220
0.0
230
1.0
 70
    24
 71
     2
 72
     6
 73
     3
 74
     0
 42
0.0000000001
 43
0.0000000001
 40
0.0
 40
0.0
 40
0.0
 40
100.0
 40
100.0
 40
100.0
 10
544.6427207675138
 20
640.1152949814028
 30
0.0
 10
544.6427207675138
 20
590.1152949814028
 30
0.0
 10
544.6427207675138
 20
540.1152949814028
 30
0.0
  0
SPLINE
  5
1F3
330
1F
100
AcDbEntity
  8
Linee visibili 2D
100
AcDbSpline
210
0.0
220
0.0
230
1.0
 70
    24
 71
     2
 72
     6
 73
     3
 74
     0
 42
0.0000000001
 43
0.0000000001
 40
0.0
 40
0.0
 40
0.0
 40
80.0
 40
80.0
 40
80.0
 10
524.7260541008473
 20
560.1152949814028
 30
0.0
 10
524.7260541008473
 20
600.1152949814028
 30
0.0
 10
524.7260541008473
 20
640.1152949814028
 30
0.0
  0
SPLINE
  5
1F4
330
1F
100
AcDbEntity
  8
Linee visibili 2D
100
AcDbSpline
210
0.0
220
0.0
230
1.0
 70
    24
 71
     2
 72
     6
 73
     3
 74
     0
 42
0.0000000001
 43
0.0000000001
 40
0.0
 40
0.0
 40
0.0
 40
458.0833333333335
 40
458.0833333333335
 40
458.0833333333335
 10
66.64272076751377
 20
560.1152949814028
 30
0.0
 10
295.6843874341805
 20
560.1152949814028
 30
0.0
 10
524.7260541008473
 20
560.1152949814028
 30
0.0
  0
SPLINE
  5
1F5
330
1F
100
AcDbEntity
  8
Linee visibili 2D
100
AcDbSpline
210
0.0
220
0.0
230
1.0
 70
    24
 71
     2
 72
     6
 73
     3
 74
     0
 42
0.0000000001
 43
0.0000000001
 40
0.0
 40
0.0
 40
0.0
 40
80.0
 40
80.0
 40
80.0
 10
66.64272076751377
 20
640.1152949814028
 30
0.0
 10
66.64272076751377
 20
600.1152949814028
 30
0.0
 10
66.64272076751377
 20
560.1152949814028
 30
0.0
  0
SPLINE
  5
1F6
330
1F
100
AcDbEntity
  8
Linee visibili 2D
100
AcDbSpline
210
0.0
220
0.0
230
1.0
 70
    12
 71
     3
 72
    14
 73
    10
 74
     0
 42
0.0000000001
 43
0.0000000001
 40
0.0
 40
0.0
 40
0.0
 40
0.0
 40
0.008311059417565
 40
0.008311059417565
 40
0.008311059417565
 40
34.5075793964761
 40
34.5075793964761
 40
34.5075793964761
 40
69.00752187002331
 40
69.00752187002331
 40
69.00752187002331
 40
69.00752187002331
 10
260.5090976967399
 20
614.7785803805364
 30
0.0
 41
1.0
 10
260.5063273436008
 20
614.7785803805361
 30
0.0
 41
0.9999999999999998
 10
260.503556990461
 20
614.7785803805358
 30
0.0
 41
1.0
 10
260.5007866373223
 20
614.7785803805357
 30
0.0
 41
1.0
 10
272.0005427496756
 20
614.7785803822475
 30
0.0
 41
1.0
 10
283.5002988620281
 20
614.7785803822463
 30
0.0
 41
1.0
 10
295.0000549743809
 20
614.7785803822471
 30
0.0
 41
1.0
 10
306.500035798897
 20
614.7785803822478
 30
0.0
 41
1.0
 10
318.0000166234113
 20
614.7785803822482
 30
0.0
 41
1.0
 10
329.4999974479281
 20
614.7785803822475
 30
0.0
 41
1.0
  0
SPLINE
  5
1F7
330
1F
100
AcDbEntity
  8
Linee visibili 2D
100
AcDbSpline
210
0.0
220
0.0
230
1.0
 70
    24
 71
     2
 72
     6
 73
     3
 74
     0
 42
0.0000000001
 43
0.0000000001
 40
0.0
 40
0.0
 40
0.0
 40
25.33671459915536
 40
25.33671459915536
 40
25.33671459915536
 10
329.4999974479281
 20
640.1152949814028
 30
0.0
 10
329.4999974479281
 20
627.4469376818251
 30
0.0
 10
329.4999974479281
 20
614.7785803822475
 30
0.0
  0
SPLINE
  5
1F8
330
1F
100
AcDbEntity
  8
Linee visibili 2D - Tangent
100
AcDbSpline
210
0.0
220
0.0
230
1.0
 70
    24
 71
     2
 72
     6
 73
     3
 74
     0
 42
0.0000000001
 43
0.0000000001
 40
0.0
 40
0.0
 40
0.0
 40
4.995029080176096
 40
4.995029080176096
 40
4.995029080176096
 10
-4.995029190174364
 20
645.1152949814027
 30
0.0
 10
-2.497514650086316
 20
645.1152949814027
 30
0.0
 10
-0.0000001099982683
 20
645.1152949814028
 30
0.0
  0
SPLINE
  5
1F9
330
1F
100
AcDbEntity
  8
Linee visibili 2D - Tangent
100
AcDbSpline
210
0.0
220
0.0
230
1.0
 70
    24
 71
     2
 72
     6
 73
     3
 74
     0
 42
0.0000000001
 43
0.0000000001
 40
0.0
 40
0.0
 40
0.0
 40
4.99999999938882
 40
4.99999999938882
 40
4.99999999938882
 10
-0.0000001099982683
 20
735.1152949814028
 30
0.0
 10
-2.500000109692678
 20
735.1152949814028
 30
0.0
 10
-5.000000109387088
 20
735.1152949814028
 30
0.0
  0
SPLINE
  5
1FA
330
1F
100
AcDbEntity
  8
Linee visibili 2D
100
AcDbSpline
210
0.0
220
0.0
230
1.0
 70
    12
 71
     2
 72
     6
 73
     3
 74
     0
 42
0.0000000001
 43
0.0000000001
 40
0.0
 40
0.0
 40
0.0
 40
7.85398163397484
 40
7.85398163397484
 40
7.85398163397484
 10
-0.0000001093870878
 20
640.1152949814028
 30
0.0
 41
1.0
 10
-5.000000109387277
 20
640.1152949814027
 30
0.0
 41
0.7071067811865476
 10
-5.000000109387543
 20
645.1152949814028
 30
0.0
 41
1.0
  0
SPLINE
  5
1FB
330
1F
100
AcDbEntity
  8
Linee visibili 2D - Tangent
100
AcDbSpline
210
0.0
220
0.0
230
1.0
 70
    24
 71
     2
 72
     6
 73
     3
 74
     0
 42
0.0000000001
 43
0.0000000001
 40
0.0
 40
0.0
 40
0.0
 40
4.999999999995453
 40
4.999999999995453
 40
4.999999999995453
 10
-0.0000001099982683
 20
645.1152949814028
 30
0.0
 10
-0.0000001096926212
 20
642.6152949814051
 30
0.0
 10
-0.0000001093869741
 20
640.1152949814074
 30
0.0
  0
SPLINE
  5
1FC
330
1F
100
AcDbEntity
  8
Linee visibili 2D
100
AcDbSpline
210
0.0
220
0.0
230
1.0
 70
    24
 71
     2
 72
     6
 73
     3
 74
     0
 42
0.0000000001
 43
0.0000000001
 40
0.0
 40
0.0
 40
0.0
 40
589.9999999522046
 40
589.9999999522046
 40
589.9999999522046
 10
589.9999998428175
 20
640.1152949814028
 30
0.0
 10
294.9999998667152
 20
640.1152949814028
 30
0.0
 10
-0.0000001093870878
 20
640.1152949814028
 30
0.0
  0
SPLINE
  5
1FD
330
1F
100
AcDbEntity
  8
Linee visibili 2D
100
AcDbSpline
210
0.0
220
0.0
230
1.0
 70
    24
 71
     2
 72
     6
 73
     3
 74
     0
 42
0.0000000001
 43
0.0000000001
 40
0.0
 40
0.0
 40
0.0
 40
90.0
 40
90.0
 40
90.0
 10
-5.000000109387543
 20
645.1152949814028
 30
0.0
 10
-5.000000109387315
 20
690.1152949814028
 30
0.0
 10
-5.000000109387088
 20
735.1152949814028
 30
0.0
  0
SPLINE
  5
1FE
330
1F
100
AcDbEntity
  8
Linee visibili 2D - Tangent
100
AcDbSpline
210
0.0
220
0.0
230
1.0
 70
    24
 71
     2
 72
     6
 73
     3
 74
     0
 42
0.0000000001
 43
0.0000000001
 40
0.0
 40
0.0
 40
0.0
 40
589.9999999999999
 40
589.9999999999999
 40
589.9999999999999
 10
589.9999998900016
 20
645.1152949814028
 30
0.0
 10
294.9999998900017
 20
645.1152949814028
 30
0.0
 10
-0.0000001099982683
 20
645.1152949814028
 30
0.0
  0
SPLINE
  5
1FF
330
1F
100
AcDbEntity
  8
Linee visibili 2D - Tangent
100
AcDbSpline
210
0.0
220
0.0
230
1.0
 70
    24
 71
     2
 72
     6
 73
     3
 74
     0
 42
0.0000000001
 43
0.0000000001
 40
0.0
 40
0.0
 40
0.0
 40
90.0
 40
90.0
 40
90.0
 10
-0.0000001099982683
 20
645.1152949814028
 30
0.0
 10
-0.0000001099982683
 20
690.1152949814028
 30
0.0
 10
-0.0000001099982683
 20
735.1152949814028
 30
0.0
  0
SPLINE
  5
200
330
1F
100
AcDbEntity
  8
Linee visibili 2D - Tangent
100
AcDbSpline
210
0.0
220
0.0
230
1.0
 70
    24
 71
     2
 72
     6
 73
     3
 74
     0
 42
0.0000000001
 43
0.0000000001
 40
0.0
 40
0.0
 40
0.0
 40
5.0
 40
5.0
 40
5.0
 10
-0.0000001093875426
 20
740.1152949814028
 30
0.0
 10
-0.0000001096929054
 20
737.6152949814028
 30
0.0
 10
-0.0000001099982683
 20
735.1152949814028
 30
0.0
  0
SPLINE
  5
201
330
1F
100
AcDbEntity
  8
Linee visibili 2D
100
AcDbSpline
210
0.0
220
0.0
230
1.0
 70
    24
 71
     2
 72
     6
 73
     3
 74
     0
 42
0.0000000001
 43
0.0000000001
 40
0.0
 40
0.0
 40
0.0
 40
59.55360974264386
 40
59.55360974264386
 40
59.55360974264386
 10
-0.0000001093875426
 20
740.1152949814028
 30
0.0
 10
29.77680476193439
 20
740.1152949814028
 30
0.0
 10
59.55360963325631
 20
740.1152949814028
 30
0.0
  0
SPLINE
  5
202
330
1F
100
AcDbEntity
  8
Linee visibili 2D
100
AcDbSpline
210
0.0
220
0.0
230
1.0
 70
    24
 71
     2
 72
     6
 73
     3
 74
     0
 42
0.0000000001
 43
0.0000000001
 40
0.0
 40
0.0
 40
0.0
 40
160.4463904346538
 40
160.4463904346538
 40
160.4463904346538
 10
220.0000000679102
 20
740.1152949814028
 30
0.0
 10
139.7768048505832
 20
740.1152949814028
 30
0.0
 10
59.55360963325631
 20
740.1152949814028
 30
0.0
  0
SPLINE
  5
203
330
1F
100
AcDbEntity
  8
Linee visibili 2D
100
AcDbSpline
210
0.0
220
0.0
230
1.0
 70
    24
 71
     2
 72
     6
 73
     3
 74
     0
 42
0.0000000001
 43
0.0000000001
 40
0.0
 40
0.0
 40
0.0
 40
149.999999895037
 40
149.999999895037
 40
149.999999895037
 10
220.0000000679102
 20
740.1152949814028
 30
0.0
 10
295.0000000154287
 20
740.1152949814029
 30
0.0
 10
369.9999999629472
 20
740.1152949814029
 30
0.0
  0
SPLINE
  5
204
330
1F
100
AcDbEntity
  8
Linee visibili 2D
100
AcDbSpline
210
0.0
220
0.0
230
1.0
 70
    24
 71
     2
 72
     6
 73
     3
 74
     0
 42
0.0000000001
 43
0.0000000001
 40
0.0
 40
0.0
 40
0.0
 40
160.4463877301096
 40
160.4463877301096
 40
160.4463877301096
 10
369.9999999629472
 20
740.1152949814029
 30
0.0
 10
450.223193828002
 20
740.1152949814029
 30
0.0
 10
530.4463876930567
 20
740.1152949814028
 30
0.0
  0
SPLINE
  5
205
330
1F
100
AcDbEntity
  8
Linee visibili 2D - Tangent
100
AcDbSpline
210
0.0
220
0.0
230
1.0
 70
    24
 71
     2
 72
     6
 73
     3
 74
     0
 42
0.0000000001
 43
0.0000000001
 40
0.0
 40
0.0
 40
0.0
 40
589.9999999999999
 40
589.9999999999999
 40
589.9999999999999
 10
-0.0000001099982683
 20
735.1152949814028
 30
0.0
 10
294.9999998900017
 20
735.1152949814028
 30
0.0
 10
589.9999998900016
 20
735.1152949814028
 30
0.0
  0
SPLINE
  5
206
330
1F
100
AcDbEntity
  8
Linee visibili 2D
100
AcDbSpline
210
0.0
220
0.0
230
1.0
 70
    12
 71
     2
 72
     6
 73
     3
 74
     0
 42
0.0000000001
 43
0.0000000001
 40
0.0
 40
0.0
 40
0.0
 40
7.853981633974402
 40
7.853981633974402
 40
7.853981633974402
 10
-5.000000109387088
 20
735.1152949814028
 30
0.0
 41
1.0
 10
-5.000000109387649
 20
740.1152949814028
 30
0.0
 41
0.7071067811865154
 10
-0.0000001093875426
 20
740.115294981403
 30
0.0
 41
1.0
  0
SPLINE
  5
207
330
1F
100
AcDbEntity
  8
Linee visibili 2D - Tangent
100
AcDbSpline
210
0.0
220
0.0
230
1.0
 70
    24
 71
     2
 72
     6
 73
     3
 74
     0
 42
0.0000000001
 43
0.0000000001
 40
0.0
 40
0.0
 40
0.0
 40
4.99999999999568
 40
4.99999999999568
 40
4.99999999999568
 10
589.9999998900016
 20
735.1152949814028
 30
0.0
 10
589.9999998903073
 20
737.6152949814007
 30
0.0
 10
589.999999890613
 20
740.1152949813985
 30
0.0
  0
SPLINE
  5
208
330
1F
100
AcDbEntity
  8
Linee visibili 2D - Tangent
100
AcDbSpline
210
0.0
220
0.0
230
1.0
 70
    24
 71
     2
 72
     6
 73
     3
 74
     0
 42
0.0000000001
 43
0.0000000001
 40
0.0
 40
0.0
 40
0.0
 40
4.999999999995566
 40
4.999999999995566
 40
4.999999999995566
 10
589.9999998906126
 20
640.1152949814073
 30
0.0
 10
589.9999998903071
 20
642.615294981405
 30
0.0
 10
589.9999998900016
 20
645.1152949814028
 30
0.0
  0
SPLINE
  5
209
330
1F
100
AcDbEntity
  8
Linee visibili 2D
100
AcDbSpline
210
0.0
220
0.0
230
1.0
 70
    12
 71
     2
 72
     6
 73
     3
 74
     0
 42
0.0000000001
 43
0.0000000001
 40
0.0
 40
0.0
 40
0.0
 40
7.853981633975149
 40
7.853981633975149
 40
7.853981633975149
 10
594.9999998906128
 20
645.1152949814028
 30
0.0
 41
1.0
 10
594.9999998906131
 20
640.1152949814019
 30
0.0
 41
0.7071067811864752
 10
589.9999998906123
 20
640.1152949814027
 30
0.0
 41
1.0
  0
SPLINE
  5
20A
330
1F
100
AcDbEntity
  8
Linee visibili 2D - Tangent
100
AcDbSpline
210
0.0
220
0.0
230
1.0
 70
    24
 71
     2
 72
     6
 73
     3
 74
     0
 42
0.0000000001
 43
0.0000000001
 40
0.0
 40
0.0
 40
0.0
 40
5.00000000061118
 40
5.00000000061118
 40
5.00000000061118
 10
594.9999998906128
 20
735.1152949814028
 30
0.0
 10
592.4999998903072
 20
735.1152949814028
 30
0.0
 10
589.9999998900016
 20
735.1152949814028
 30
0.0
  0
SPLINE
  5
20B
330
1F
100
AcDbEntity
  8
Linee visibili 2D
100
AcDbSpline
210
0.0
220
0.0
230
1.0
 70
    24
 71
     2
 72
     6
 73
     3
 74
     0
 42
0.0000000001
 43
0.0000000001
 40
0.0
 40
0.0
 40
0.0
 40
90.0
 40
90.0
 40
90.0
 10
594.9999998906128
 20
735.1152949814028
 30
0.0
 10
594.9999998906128
 20
690.1152949814028
 30
0.0
 10
594.9999998906128
 20
645.1152949814028
 30
0.0
  0
SPLINE
  5
20C
330
1F
100
AcDbEntity
  8
Linee visibili 2D - Tangent
100
AcDbSpline
210
0.0
220
0.0
230
1.0
 70
    24
 71
     2
 72
     6
 73
     3
 74
     0
 42
0.0000000001
 43
0.0000000001
 40
0.0
 40
0.0
 40
0.0
 40
4.995029034162371
 40
4.995029034162371
 40
4.995029034162371
 10
589.9999998900016
 20
645.1152949814028
 30
0.0
 10
592.4975144070828
 20
645.1152949814029
 30
0.0
 10
594.995028924164
 20
645.1152949814029
 30
0.0
  0
SPLINE
  5
20D
330
1F
100
AcDbEntity
  8
Linee visibili 2D - Tangent
100
AcDbSpline
210
0.0
220
0.0
230
1.0
 70
    24
 71
     2
 72
     6
 73
     3
 74
     0
 42
0.0000000001
 43
0.0000000001
 40
0.0
 40
0.0
 40
0.0
 40
90.0
 40
90.0
 40
90.0
 10
589.9999998900016
 20
735.1152949814028
 30
0.0
 10
589.9999998900016
 20
690.1152949814028
 30
0.0
 10
589.9999998900016
 20
645.1152949814028
 30
0.0
  0
SPLINE
  5
20E
330
1F
100
AcDbEntity
  8
Linee visibili 2D
100
AcDbSpline
210
0.0
220
0.0
230
1.0
 70
    24
 71
     2
 72
     6
 73
     3
 74
     0
 42
0.0000000001
 43
0.0000000001
 40
0.0
 40
0.0
 40
0.0
 40
59.55361214976051
 40
59.55361214976051
 40
59.55361214976051
 10
530.4463876930567
 20
740.1152949814028
 30
0.0
 10
560.223193767937
 20
740.1152949814029
 30
0.0
 10
589.9999998428173
 20
740.1152949814032
 30
0.0
  0
SPLINE
  5
20F
330
1F
100
AcDbEntity
  8
Linee visibili 2D
100
AcDbSpline
210
0.0
220
0.0
230
1.0
 70
    12
 71
     2
 72
     6
 73
     3
 74
     0
 42
0.0000000001
 43
0.0000000001
 40
0.0
 40
0.0
 40
0.0
 40
7.853981633974467
 40
7.853981633974467
 40
7.853981633974467
 10
589.9999998906128
 20
740.1152949814032
 30
0.0
 41
1.0
 10
594.9999998906125
 20
740.1152949814025
 30
0.0
 41
0.7071067811866119
 10
594.9999998906128
 20
735.1152949814028
 30
0.0
 41
1.0
  0
SPLINE
  5
210
330
1F
100
AcDbEntity
  8
Linee visibili 2D
100
AcDbSpline
210
0.0
220
0.0
230
1.0
 70
    24
 71
     2
 72
     6
 73
     3
 74
     0
 42
0.0000000001
 43
0.0000000001
 40
0.0
 40
0.0
 40
0.0
 40
100.0
 40
100.0
 40
100.0
 10
589.9999998428175
 20
640.1152949814028
 30
0.0
 10
589.9999998428175
 20
590.1152949814028
 30
0.0
 10
589.9999998428175
 20
540.1152949814028
 30
0.0
  0
SPLINE
  5
211
330
1F
100
AcDbEntity
  8
Linee visibili 2D
100
AcDbSpline
210
0.0
220
0.0
230
1.0
 70
    24
 71
     2
 72
     6
 73
     3
 74
     0
 42
0.0000000001
 43
0.0000000001
 40
0.0
 40
0.0
 40
0.0
 40
20.0
 40
20.0
 40
20.0
 10
569.9999998428175
 20
540.1152949814028
 30
0.0
 10
579.9999998428175
 20
540.1152949814028
 30
0.0
 10
589.9999998428175
 20
540.1152949814028
 30
0.0
  0
SPLINE
  5
212
330
1F
100
AcDbEntity
  8
Linee visibili 2D
100
AcDbSpline
210
0.0
220
0.0
230
1.0
 70
    24
 71
     2
 72
     6
 73
     3
 74
     0
 42
0.0000000001
 43
0.0000000001
 40
0.0
 40
0.0
 40
0.0
 40
100.0
 40
100.0
 40
100.0
 10
569.9999998428175
 20
640.1152949814028
 30
0.0
 10
569.9999998428175
 20
590.1152949814028
 30
0.0
 10
569.9999998428175
 20
540.1152949814028
 30
0.0
  0
SPLINE
  5
213
330
1F
100
AcDbEntity
  8
Linee visibili 2D
100
AcDbSpline
210
0.0
220
0.0
230
1.0
 70
    24
 71
     2
 72
     6
 73
     3
 74
     0
 42
0.0000000001
 43
0.0000000001
 40
0.0
 40
0.0
 40
0.0
 40
100.0
 40
100.0
 40
100.0
 10
1.3687750255433
 20
640.1152949814028
 30
0.0
 10
1.3687750255433
 20
590.1152949814028
 30
0.0
 10
1.3687750255433
 20
540.1152949814028
 30
0.0
  0
SPLINE
  5
214
330
1F
100
AcDbEntity
  8
Linee visibili 2D
100
AcDbSpline
210
0.0
220
0.0
230
1.0
 70
    24
 71
     2
 72
     6
 73
     3
 74
     0
 42
0.0000000001
 43
0.0000000001
 40
0.0
 40
0.0
 40
0.0
 40
20.0
 40
20.0
 40
20.0
 10
21.3687750255433
 20
540.1152949814028
 30
0.0
 10
11.3687750255433
 20
540.1152949814028
 30
0.0
 10
1.3687750255433
 20
540.1152949814028
 30
0.0
  0
SPLINE
  5
215
330
1F
100
AcDbEntity
  8
Linee visibili 2D
100
AcDbSpline
210
0.0
220
0.0
230
1.0
 70
    24
 71
     2
 72
     6
 73
     3
 74
     0
 42
0.0000000001
 43
0.0000000001
 40
0.0
 40
0.0
 40
0.0
 40
100.0
 40
100.0
 40
100.0
 10
21.3687750255433
 20
640.1152949814028
 30
0.0
 10
21.3687750255433
 20
590.1152949814028
 30
0.0
 10
21.3687750255433
 20
540.1152949814028
 30
0.0
  0
SPLINE
  5
216
330
1F
100
AcDbEntity
  8
Linee visibili 2D
100
AcDbSpline
210
0.0
220
0.0
230
1.0
 70
     8
 71
     3
 72
    23
 73
    19
 74
     0
 42
0.0000000001
 43
0.0000000001
 40
0.0
 40
0.0
 40
0.0
 40
0.0
 40
0.12639351395853
 40
0.2989514167328378
 40
0.7514847125042924
 40
1.941476990705168
 40
3.435681802457442
 40
5.168404791671123
 40
8.969405694531392
 40
13.05643047080948
 40
17.10807673921544
 40
20.93016971152479
 40
22.67370949974643
 40
24.18821309188221
 40
25.40892290906782
 40
25.86038649728105
 40
26.04121421897864
 40
26.17008848199254
 40
26.17008848199254
 40
26.17008848199254
 40
26.17008848199254
 10
307.5016362929225
 20
143.5319668325578
 30
0.0
 10
307.4865029096945
 20
143.5714241356251
 30
0.0
 10
307.4304955665104
 20
143.6547113989171
 30
0.0
 10
307.2606263472342
 20
143.8393707480437
 30
0.0
 10
306.7786717232486
 20
144.2092693600073
 30
0.0
 10
305.8429906719421
 20
144.6848001804167
 30
0.0
 10
304.4589697308027
 20
145.1898229608005
 30
0.0
 10
302.1927904021156
 20
145.7933232728785
 30
0.0
 10
299.0197709882366
 20
146.2944718398495
 30
0.0
 10
295.0403063074275
 20
146.4992569129154
 30
0.0
 10
291.0530518356727
 20
146.3018312386722
 30
0.0
 10
287.8803103405858
 20
145.8080444168868
 30
0.0
 10
285.595660690547
 20
145.2068747776672
 30
0.0
 10
284.1900091206555
 20
144.6999712525188
 30
0.0
 10
283.2384539425495
 20
144.2195204005133
 30
0.0
 10
282.7444833480367
 20
143.84436284444
 30
0.0
 10
282.5717824503433
 20
143.657875960756
 30
0.0
 10
282.5135140496063
 20
143.5717487734458
 30
0.0
 10
282.4982181611645
 20
143.531449826543
 30
0.0
  0
SPLINE
  5
217
330
1F
100
AcDbEntity
  8
Linee visibili 2D - Tangent
100
AcDbSpline
210
0.0
220
0.0
230
1.0
 70
    12
 71
     3
 72
    25
 73
    21
 74
     0
 42
0.0000000001
 43
0.0000000001
 40
43.57217860061713
 40
43.57217860061713
 40
43.57217860061713
 40
43.57217860061713
 40
48.81290965299085
 40
48.81290965299085
 40
48.81290965299085
 40
54.21392249823039
 40
54.21392249823039
 40
54.21392249823039
 40
59.43044817798833
 40
64.9876014375759
 40
64.9876014375759
 40
64.9876014375759
 40
70.22865555280481
 40
75.78600029162664
 40
75.78600029162664
 40
75.78600029162664
 40
81.18076906217362
 40
81.18076906217362
 40
81.18076906217362
 40
86.50094620379764
 40
86.50094620379764
 40
86.50094620379764
 40
86.50094620379764
 10
282.5001123404518
 20
143.5315828154129
 30
0.0
 41
1.0
 10
282.5076717424595
 20
143.0982481565111
 30
0.0
 41
1.0
 10
282.8132188640459
 20
142.6772057474331
 30
0.0
 41
1.0
 10
283.4018909947899
 20
142.2857891253369
 30
0.0
 41
1.0
 10
284.0070636439141
 20
141.8825024721743
 30
0.0
 41
1.0
 10
284.9128768153303
 20
141.5099709332296
 30
0.0
 41
1.0
 10
286.0604091217263
 20
141.1915128877516
 30
0.0
 41
1.0
 10
287.1668427859422
 20
140.8842595799425
 30
0.0
 41
1.0
 10
289.9207450979386
 20
140.3537998947821
 30
0.0
 41
1.0
 10
293.2385205496944
 20
140.1483842173127
 30
0.0
 41
1.0
 10
294.9545634398669
 20
140.1476434753123
 30
0.0
 41
1.0
 10
296.5726962153178
 20
140.145104373502
 30
0.0
 41
1.0
 10
299.9048215105258
 20
140.3320118975199
 30
0.0
 41
1.0
 10
302.7076210803207
 20
140.8526646347626
 30
0.0
 41
1.0
 10
303.8926882895657
 20
141.1785586878412
 30
0.0
 41
1.0
 10
305.0453037921866
 20
141.4951554702994
 30
0.0
 41
1.0
 10
305.9579152911044
 20
141.8660681011976
 30
0.0
 41
1.0
 10
306.5710997399024
 20
142.2679564069457
 30
0.0
 41
1.0
 10
307.1772856953412
 20
142.6643974640638
 30
0.0
 41
1.0
 10
307.4923045800388
 20
143.0916119694579
 30
0.0
 41
1.0
 10
307.4998620815918
 20
143.5315300223041
 30
0.0
 41
1.0
  0
SPLINE
  5
218
330
1F
100
AcDbEntity
  8
Linee visibili 2D
100
AcDbSpline
210
0.0
220
0.0
230
1.0
 70
    12
 71
     2
 72
     8
 73
     5
 74
     0
 42
0.0000000001
 43
0.0000000001
 40
0.0
 40
0.0
 40
0.0
 40
4.288276681666468
 40
4.288276681666468
 40
5.469416514018709
 40
5.469416514018709
 40
5.469416514018709
 10
589.8348638022981
 20
106.2849447099204
 30
0.0
 41
1.0
 10
589.9643467497933
 20
104.1442769583996
 30
0.0
 41
0.9996909721793245
 10
589.9872736754542
 20
101.9998193085094
 30
0.0
 41
1.0
 10
589.9955011747726
 20
101.4093047433165
 30
0.0
 41
0.9999950163633705
 10
589.9999999075776
 20
100.8187500000004
 30
0.0
 41
1.0
  0
SPLINE
  5
219
330
1F
100
AcDbEntity
  8
Linee visibili 2D
100
AcDbSpline
210
0.0
220
0.0
230
1.0
 70
    12
 71
     2
 72
     6
 73
     3
 74
     0
 42
0.0000000001
 43
0.0000000001
 40
0.0
 40
0.0
 40
0.0
 40
1.389347974954162
 40
1.389347974954162
 40
1.389347974954162
 10
589.3540594720116
 20
110.8040662288437
 30
0.0
 41
1.0
 10
589.4567473312318
 20
110.1169863703647
 30
0.0
 41
0.9999198449470116
 10
589.5420052765749
 20
109.4275267188152
 30
0.0
 41
1.0
  0
SPLINE
  5
21A
330
1F
100
AcDbEntity
  8
Linee visibili 2D
100
AcDbSpline
210
0.0
220
0.0
230
1.0
 70
    12
 71
     2
 72
     6
 73
     3
 74
     0
 42
0.0000000001
 43
0.0000000001
 40
0.0
 40
0.0
 40
0.0
 40
1.472791623563119
 40
1.472791623563119
 40
1.472791623563119
 10
564.5502118788258
 20
151.053555360265
 30
0.0
 41
1.0
 10
565.1523166469221
 20
150.6295238315845
 30
0.0
 41
0.9999251876396104
 10
565.7438686045859
 20
150.190890533187
 30
0.0
 41
1.0
  0
SPLINE
  5
21B
330
1F
100
AcDbEntity
  8
Linee visibili 2D
100
AcDbSpline
210
0.0
220
0.0
230
1.0
 70
    12
 71
     2
 72
     6
 73
     3
 74
     0
 42
0.0000000001
 43
0.0000000001
 40
0.0
 40
0.0
 40
0.0
 40
2.892014098407214
 40
2.892014098407214
 40
2.892014098407214
 10
562.1013672147517
 20
152.6900726242108
 30
0.0
 41
1.0
 10
563.3231337948828
 20
151.9161049837444
 30
0.0
 41
0.9997120436645294
 10
564.5063590559746
 20
151.0844094467063
 30
0.0
 41
1.0
  0
SPLINE
  5
21C
330
1F
100
AcDbEntity
  8
Linee visibili 2D
100
AcDbSpline
210
0.0
220
0.0
230
1.0
 70
    12
 71
     2
 72
     6
 73
     3
 74
     0
 42
0.0000000001
 43
0.0000000001
 40
0.0
 40
0.0
 40
0.0
 40
1.472771337216406
 40
1.472771337216406
 40
1.472771337216406
 10
559.5756397249188
 20
154.2051264873263
 30
0.0
 41
1.0
 10
560.2162010272898
 20
153.8418101940586
 30
0.0
 41
0.999925793125094
 10
560.8477208069005
 20
153.462995887294
 30
0.0
 41
1.0
  0
SPLINE
  5
21D
330
1F
100
AcDbEntity
  8
Linee visibili 2D
100
AcDbSpline
210
0.0
220
0.0
230
1.0
 70
    12
 71
     2
 72
     6
 73
     3
 74
     0
 42
0.0000000001
 43
0.0000000001
 40
0.0
 40
0.0
 40
0.0
 40
2.598912190988509
 40
2.598912190988509
 40
2.598912190988509
 10
557.0977486504646
 20
155.5351575701109
 30
0.0
 41
1.0
 10
558.2569093585882
 20
154.9474018702352
 30
0.0
 41
0.9997672576758748
 10
559.3896366593567
 20
154.3101898395206
 30
0.0
 41
1.0
  0
SPLINE
  5
21E
330
1F
100
AcDbEntity
  8
Linee visibili 2D
100
AcDbSpline
210
0.0
220
0.0
230
1.0
 70
    12
 71
     2
 72
     6
 73
     3
 74
     0
 42
0.0000000001
 43
0.0000000001
 40
0.0
 40
0.0
 40
0.0
 40
5.890366354755194
 40
5.890366354755194
 40
5.890366354755194
 10
551.5972182108962
 20
157.9831496581922
 30
0.0
 41
1.0
 10
554.3473312630782
 20
156.922412110258
 30
0.0
 41
0.9987757155639755
 10
556.9791685085536
 20
155.5951146082987
 30
0.0
 41
1.0
  0
SPLINE
  5
21F
330
1F
100
AcDbEntity
  8
Linee visibili 2D
100
AcDbSpline
210
0.0
220
0.0
230
1.0
 70
    12
 71
     3
 72
    11
 73
     7
 74
     0
 42
0.0000000001
 43
0.0000000001
 40
78.49707398265959
 40
78.49707398265959
 40
78.49707398265959
 40
78.49707398265959
 40
79.10162571960511
 40
82.39752679125532
 40
85.69342786290554
 40
86.9294193516712
 40
86.9294193516712
 40
86.9294193516712
 40
86.9294193516712
 10
534.413867128779
 20
161.8330047335733
 30
0.0
 41
1.0
 10
534.8336142799151
 20
161.8051820610522
 30
0.0
 41
1.0
 10
537.5403736949959
 20
161.5967569006655
 30
0.0
 41
1.0
 10
542.5214201241329
 20
160.808462091115
 30
0.0
 41
1.0
 10
547.7831287489926
 20
159.3777843339324
 30
0.0
 41
1.0
 10
550.76053469875
 20
158.3053241298418
 30
0.0
 41
1.0
 10
551.5665247145548
 20
157.9949779356807
 30
0.0
 41
1.0
  0
SPLINE
  5
220
330
1F
100
AcDbEntity
  8
Linee visibili 2D
100
AcDbSpline
210
0.0
220
0.0
230
1.0
 70
    12
 71
     2
 72
     6
 73
     3
 74
     0
 42
0.0000000001
 43
0.0000000001
 40
0.0
 40
0.0
 40
0.0
 40
2.841440958975493
 40
2.841440958975493
 40
2.841440958975493
 10
529.999910122257
 20
161.9936019015859
 30
0.0
 41
1.0
 10
531.420613827437
 20
161.9757910382449
 30
0.0
 41
0.9998998504010014
 10
532.8402443486377
 20
161.9177787288483
 30
0.0
 41
1.0
  0
SPLINE
  5
221
330
1F
100
AcDbEntity
  8
Linee visibili 2D
100
AcDbSpline
210
0.0
220
0.0
230
1.0
 70
    12
 71
     2
 72
     6
 73
     3
 74
     0
 42
0.0000000001
 43
0.0000000001
 40
0.0
 40
0.0
 40
0.0
 40
2.841442858029502
 40
2.841442858029502
 40
2.841442858029502
 10
57.15966804997083
 20
161.9240213194838
 30
0.0
 41
1.0
 10
58.57929631032952
 20
161.9821123957592
 30
0.0
 41
0.9998998401482876
 10
60.00000001074216
 20
162.0
 30
0.0
 41
1.0
  0
SPLINE
  5
222
330
1F
100
AcDbEntity
  8
Linee visibili 2D
100
AcDbSpline
210
0.0
220
0.0
230
1.0
 70
    12
 71
     3
 72
    11
 73
     7
 74
     0
 42
0.0000000001
 43
0.0000000001
 40
226.6107209570868
 40
226.6107209570868
 40
226.6107209570868
 40
226.6107209570868
 40
227.8467124456327
 40
231.142613517283
 40
234.4385145889331
 40
235.0430661623967
 40
235.0430661623967
 40
235.0430661623967
 40
235.0430661623967
 10
38.43340472947193
 20
158.0000127470155
 30
0.0
 41
1.0
 10
39.23939390878888
 20
158.3104184707451
 30
0.0
 41
1.0
 10
42.2167968242901
 20
159.3830946375215
 30
0.0
 41
1.0
 10
47.47850043514029
 20
160.8141292721984
 30
0.0
 41
1.0
 10
52.45954242879316
 20
161.6027317191815
 30
0.0
 41
1.0
 10
55.16629954610562
 20
161.811312334868
 30
0.0
 41
1.0
 10
55.58604624830525
 20
161.8391588693515
 30
0.0
 41
1.0
  0
SPLINE
  5
223
330
1F
100
AcDbEntity
  8
Linee visibili 2D
100
AcDbSpline
210
0.0
220
0.0
230
1.0
 70
    12
 71
     2
 72
     6
 73
     3
 74
     0
 42
0.0000000001
 43
0.0000000001
 40
0.0
 40
0.0
 40
0.0
 40
5.890529007270493
 40
5.890529007270493
 40
5.890529007270493
 10
33.02076618648005
 20
155.5997325071308
 30
0.0
 41
1.0
 10
35.65259034246467
 20
156.9272366733408
 30
0.0
 41
0.9987757222303139
 10
38.40271050471711
 20
157.9881819087337
 30
0.0
 41
1.0
  0
SPLINE
  5
224
330
1F
100
AcDbEntity
  8
Linee visibili 2D
100
AcDbSpline
210
0.0
220
0.0
230
1.0
 70
    12
 71
     2
 72
     6
 73
     3
 74
     0
 42
0.0000000001
 43
0.0000000001
 40
0.0
 40
0.0
 40
0.0
 40
1.339850943458717
 40
1.339850943458717
 40
1.339850943458717
 10
31.71405592747885
 20
154.9205156271396
 30
0.0
 41
1.0
 10
32.304671099473
 20
155.2367607987275
 30
0.0
 41
0.9999379190159589
 10
32.9021867779519
 20
155.5397662506824
 30
0.0
 41
1.0
  0
SPLINE
  5
225
330
1F
100
AcDbEntity
  8
Linee visibili 2D
100
AcDbSpline
210
0.0
220
0.0
230
1.0
 70
    12
 71
     2
 72
     6
 73
     3
 74
     0
 42
0.0000000001
 43
0.0000000001
 40
0.0
 40
0.0
 40
0.0
 40
1.472824128257991
 40
1.472824128257991
 40
1.472824128257991
 10
29.15221850773548
 20
153.4672938118365
 30
0.0
 41
1.0
 10
29.78373694729888
 20
153.8461616629291
 30
0.0
 41
0.9999257959720186
 10
30.42429804467281
 20
154.2095318166721
 30
0.0
 41
1.0
  0
SPLINE
  5
226
330
1F
100
AcDbEntity
  8
Linee visibili 2D
100
AcDbSpline
210
0.0
220
0.0
230
1.0
 70
    12
 71
     2
 72
     6
 73
     3
 74
     0
 42
0.0000000001
 43
0.0000000001
 40
0.0
 40
0.0
 40
0.0
 40
2.900782942024954
 40
2.900782942024954
 40
2.900782942024954
 10
26.66415014774964
 20
151.8908599966599
 30
0.0
 41
1.0
 10
27.87024685589052
 20
152.6969470945446
 30
0.0
 41
0.9997112301144419
 10
29.11368050559372
 20
153.4441541860192
 30
0.0
 41
1.0
  0
SPLINE
  5
227
330
1F
100
AcDbEntity
  8
Linee visibili 2D
100
AcDbSpline
210
0.0
220
0.0
230
1.0
 70
    12
 71
     2
 72
     6
 73
     3
 74
     0
 42
0.0000000001
 43
0.0000000001
 40
0.0
 40
0.0
 40
0.0
 40
1.472854558202649
 40
1.472854558202649
 40
1.472854558202649
 10
24.2560769832138
 20
150.1947529246084
 30
0.0
 41
1.0
 10
24.84762765117892
 20
150.6334407899047
 30
0.0
 41
0.9999251925752626
 10
25.44973212252546
 20
151.0575273866189
 30
0.0
 41
1.0
  0
SPLINE
  5
228
330
1F
100
AcDbEntity
  8
Linee visibili 2D
100
AcDbSpline
210
0.0
220
0.0
230
1.0
 70
    12
 71
     2
 72
     8
 73
     5
 74
     0
 42
0.0000000001
 43
0.0000000001
 40
0.0
 40
0.0
 40
0.0
 40
1.181139834037845
 40
1.181139834037845
 40
5.469652859384899
 40
5.469652859384899
 40
5.469652859384899
 10
-0.0000000924222832
 20
100.8187499999995
 30
0.0
 41
1.0
 10
0.0044988222680533
 20
101.4093047427728
 30
0.0
 41
0.999995016363428
 10
0.0127265034431048
 20
101.9998193062747
 30
0.0
 41
1.0
 10
0.0356518983430012
 20
104.1443951245007
 30
0.0
 41
0.9996910078160789
 10
0.1651330521043519
 20
106.285181345652
 30
0.0
 41
1.0
  0
SPLINE
  5
229
330
1F
100
AcDbEntity
  8
Linee visibili 2D - Tangent
100
AcDbSpline
210
0.0
220
0.0
230
1.0
 70
    24
 71
     2
 72
     6
 73
     3
 74
     0
 42
0.0000000001
 43
0.0000000001
 40
0.0
 40
0.0
 40
0.0
 40
159.999910239439
 40
159.999910239439
 40
159.999910239439
 10
370.000000010742
 20
162.0000000000001
 30
0.0
 10
449.9999550664995
 20
161.996800950793
 30
0.0
 10
529.999910122257
 20
161.9936019015859
 30
0.0
  0
SPLINE
  5
22A
330
1F
100
AcDbEntity
  8
Linee visibili 2D
100
AcDbSpline
210
0.0
220
0.0
230
1.0
 70
    12
 71
     2
 72
     8
 73
     5
 74
     0
 42
0.0000000001
 43
0.0000000001
 40
0.0
 40
0.0
 40
0.0
 40
47.12189125694858
 40
47.12189125694858
 40
94.24378251389716
 40
94.24378251389716
 40
94.24378251389716
 10
529.999910122257
 20
161.9936019015859
 30
0.0
 41
1.0
 10
554.8517999734553
 20
161.9958694075535
 30
0.0
 41
0.923872419914906
 10
572.4256900183107
 20
144.423879679324
 30
0.0
 41
1.0
 10
589.9995800631663
 20
126.8518899510945
 30
0.0
 41
0.923872419914906
 10
590.000000010742
 20
102.0
 30
0.0
 41
1.0
  0
SPLINE
  5
22B
330
1F
100
AcDbEntity
  8
Linee visibili 2D - Tangent
100
AcDbSpline
210
0.0
220
0.0
230
1.0
 70
    12
 71
     2
 72
     6
 73
     3
 74
     0
 42
0.0000000001
 43
0.0000000001
 40
0.0
 40
0.0
 40
0.0
 40
39.26744213957075
 40
39.26744213957075
 40
39.26744213957075
 10
395.0000018895416
 20
87.0
 30
0.0
 41
1.0
 10
394.9942475693305
 20
111.9942492882218
 30
0.0
 41
0.7072695113757861
 10
369.999998280372
 20
112.00000040752
 30
0.0
 41
1.0
  0
SPLINE
  5
22C
330
1F
100
AcDbEntity
  8
Linee visibili 2D - Tangent
100
AcDbSpline
210
0.0
220
0.0
230
1.0
 70
    24
 71
     2
 72
     6
 73
     3
 74
     0
 42
0.0000000001
 43
0.0000000001
 40
0.0
 40
0.0
 40
0.0
 40
185.0
 40
185.0
 40
185.0
 10
395.0000018895416
 20
-97.99999999999997
 30
0.0
 10
395.0000018895416
 20
-5.499999999999986
 30
0.0
 10
395.0000018895416
 20
87.0
 30
0.0
  0
SPLINE
  5
22D
330
1F
100
AcDbEntity
  8
Linee visibili 2D - Tangent
100
AcDbSpline
210
0.0
220
0.0
230
1.0
 70
    12
 71
     2
 72
    10
 73
     7
 74
     0
 42
0.0000000001
 43
0.0000000001
 40
0.0
 40
0.0
 40
0.0
 40
3.515684444121378
 40
3.515684444121378
 40
16.76951104791917
 40
16.76951104791917
 40
39.26990815869335
 40
39.26990815869335
 40
39.26990815869335
 10
395.0000018895416
 20
-97.99999999999997
 30
0.0
 41
1.0
 10
394.9999499706332
 20
-99.7607425034455
 30
0.0
 41
0.9975310414406228
 10
394.7532060721924
 20
-101.5041103977
 30
0.0
 41
1.0
 10
393.8019637078281
 20
-108.223732666215
 30
0.0
 41
0.9650724535945663
 10
389.583418202862
 20
-113.5399398940999
 30
0.0
 41
1.0
 10
382.0766195140328
 20
-123.0000012538919
 30
0.0
 41
0.9004436479465414
 10
369.9999979878921
 20
-123.0000004590001
 30
0.0
 41
1.0
  0
SPLINE
  5
22E
330
1F
100
AcDbEntity
  8
Linee visibili 2D - Tangent
100
AcDbSpline
210
0.0
220
0.0
230
1.0
 70
    24
 71
     2
 72
     6
 73
     3
 74
     0
 42
0.0000000001
 43
0.0000000001
 40
0.0
 40
0.0
 40
0.0
 40
149.999995369928
 40
149.999995369928
 40
149.999995369928
 10
369.9999979878921
 20
-123.0000004590001
 30
0.0
 10
295.0000003029281
 20
-123.0000004590019
 30
0.0
 10
220.0000026179641
 20
-123.0000004590038
 30
0.0
  0
SPLINE
  5
22F
330
1F
100
AcDbEntity
  8
Linee visibili 2D - Tangent
100
AcDbSpline
210
0.0
220
0.0
230
1.0
 70
    12
 71
     2
 72
    10
 73
     7
 74
     0
 42
0.0000000001
 43
0.0000000001
 40
0.0
 40
0.0
 40
0.0
 40
3.515345398512219
 40
3.515345398512219
 40
16.76917200230238
 40
16.76917200230238
 40
39.26956969744097
 40
39.26956969744097
 40
39.26956969744097
 10
195.0103508690472
 20
-98.00000185557289
 30
0.0
 41
1.0
 10
194.9974420750611
 20
-99.7609042715319
 30
0.0
 41
0.9972109176072536
 10
195.2467939492917
 20
-101.5041103977
 30
0.0
 41
1.0
 10
196.1980363136978
 20
-108.223732666197
 30
0.0
 41
0.9650724535962654
 10
200.416581818622
 20
-113.5399398940999
 30
0.0
 41
1.0
 10
207.9233807314706
 20
-123.00000153615
 30
0.0
 41
0.9004436428640278
 10
220.0000026179641
 20
-123.0000004590038
 30
0.0
 41
1.0
  0
SPLINE
  5
230
330
1F
100
AcDbEntity
  8
Linee visibili 2D - Tangent
100
AcDbSpline
210
0.0
220
0.0
230
1.0
 70
    12
 71
     3
 72
    16
 73
    12
 74
     0
 42
0.0000000001
 43
0.0000000001
 40
-184.9999985141801
 40
-184.9999985141801
 40
-184.9999985141801
 40
-184.9999985141801
 40
-123.3333323427867
 40
-98.00000278335914
 40
-98.00000278335914
 40
-98.00000278335914
 40
-88.00000278335912
 40
-88.00000278335912
 40
-88.00000278335912
 40
-61.66666561612855
 40
0.0000000000000142
 40
0.0000000000000142
 40
0.0000000000000142
 40
0.0000000000000142
 10
195.0238169399636
 20
86.99999573082096
 30
0.0
 41
1.0
 10
195.0457934344604
 20
66.44443623626833
 30
0.0
 41
1.0
 10
195.0431945008522
 20
37.4444378922399
 30
0.0
 41
1.0
 10
195.040595567245
 20
8.444439548212387
 30
0.0
 41
1.0
 10
194.9999982893869
 20
0.0000000000000284
 30
0.0
 41
1.0
 10
194.9999982893869
 20
-3.333333333333911
 30
0.0
 41
1.0
 10
194.9999982893869
 20
-6.666666666666941
 30
0.0
 41
1.0
 10
194.9999982893869
 20
-9.999999999999972
 30
0.0
 41
1.0
 10
195.0381559551333
 20
-18.77778229028442
 30
0.0
 41
1.0
 10
195.0355271485696
 20
-48.11111569729198
 30
0.0
 41
1.0
 10
195.032898342005
 20
-77.44444910429954
 30
0.0
 41
1.0
 10
195.0103508690472
 20
-98.00000185557289
 30
0.0
 41
1.0
  0
SPLINE
  5
231
330
1F
100
AcDbEntity
  8
Linee visibili 2D - Tangent
100
AcDbSpline
210
0.0
220
0.0
230
1.0
 70
     8
 71
     3
 72
    14
 73
    10
 74
     0
 42
0.0000000001
 43
0.0000000001
 40
0.0
 40
0.0
 40
0.0
 40
0.0
 40
0.9083075158159141
 40
2.317525119311573
 40
4.833915613782481
 40
9.766144830089505
 40
19.58424455965253
 40
29.40269310513168
 40
39.26847131780487
 40
39.26847131780487
 40
39.26847131780487
 40
39.26847131780487
 10
195.0238169399636
 20
86.99999573082096
 30
0.0
 10
195.0010358628708
 20
87.30263621817011
 30
0.0
 10
195.014433491662
 20
88.07451224773683
 30
0.0
 10
195.1168819905211
 20
89.68436427859933
 30
0.0
 10
195.5416105754416
 20
92.6084478160542
 30
0.0
 10
197.199199694755
 20
98.15157485886533
 30
0.0
 10
201.8271827991414
 20
105.0989871639503
 30
0.0
 10
210.1501219862237
 20
110.6891630483115
 30
0.0
 10
216.7123204997401
 20
111.9974391453973
 30
0.0
 10
220.0000018985568
 20
112.0000004075201
 30
0.0
  0
SPLINE
  5
232
330
1F
100
AcDbEntity
  8
Linee visibili 2D
100
AcDbSpline
210
0.0
220
0.0
230
1.0
 70
    12
 71
     2
 72
     6
 73
     3
 74
     0
 42
0.0000000001
 43
0.0000000001
 40
0.0
 40
0.0
 40
0.0
 40
94.2477796076733
 40
94.2477796076733
 40
94.2477796076733
 10
0.0000000107421556
 20
102.0
 30
0.0
 41
1.0
 10
0.0000000107899443
 20
161.9999999999523
 30
0.0
 41
0.7071067811871102
 10
60.00000001074216
 20
162.0
 30
0.0
 41
1.0
  0
SPLINE
  5
233
330
1F
100
AcDbEntity
  8
Linee visibili 2D - Tangent
100
AcDbSpline
210
0.0
220
0.0
230
1.0
 70
    24
 71
     2
 72
     6
 73
     3
 74
     0
 42
0.0000000001
 43
0.0000000001
 40
0.0
 40
0.0
 40
0.0
 40
160.0000001259554
 40
160.0000001259554
 40
160.0000001259554
 10
60.00000001074216
 20
162.0
 30
0.0
 10
140.0000000737198
 20
162.0000000000001
 30
0.0
 10
220.0000001366975
 20
162.0000000000001
 30
0.0
  0
SPLINE
  5
234
330
1F
100
AcDbEntity
  8
Linee visibili 2D - Tangent
100
AcDbSpline
210
0.0
220
0.0
230
1.0
 70
    15
 71
     3
 72
    49
 73
    45
 74
     0
 42
0.0000000001
 43
0.0000000001
 40
0.2555568742704282
 40
0.2555568742704282
 40
0.2555568742704282
 40
0.2555568742704282
 40
5.650922171177839
 40
5.650922171177839
 40
5.650922171177839
 40
11.04827476252627
 40
11.04827476252627
 40
11.04827476252627
 40
15.50961161266865
 40
15.50961161266865
 40
15.50961161266865
 40
20.75425784636444
 40
20.75425784636444
 40
20.75425784636444
 40
26.0130925430119
 40
26.0130925430119
 40
26.0130925430119
 40
30.49954542773632
 40
30.49954542773632
 40
30.49954542773632
 40
35.89469122951404
 40
35.89469122951404
 40
35.89469122951404
 40
41.28658104940806
 40
41.28658104940806
 40
41.28658104940806
 40
46.69042739308074
 40
46.69042739308074
 40
46.69042739308074
 40
52.09144023832059
 40
52.09144023832059
 40
52.09144023832059
 40
57.30796591807881
 40
62.8651191776667
 40
62.8651191776667
 40
62.8651191776667
 40
68.10617329289589
 40
73.66351803171801
 40
73.66351803171801
 40
73.66351803171801
 40
79.05828680226531
 40
79.05828680226531
 40
79.05828680226531
 40
84.45017274872025
 40
84.45017274872025
 40
84.45017274872025
 40
84.45017274872025
 10
308.5000000840851
 20
142.5806160714825
 30
0.0
 41
1.0
 10
308.500695655395
 20
143.0279466705555
 30
0.0
 41
1.0
 10
308.1601726602235
 20
143.4890137307484
 30
0.0
 41
1.0
 10
307.5020304872448
 20
143.9367713986676
 30
0.0
 41
1.0
 10
306.8449619339781
 20
144.3842470891481
 30
0.0
 41
1.0
 10
305.8701349236003
 20
144.8180712021208
 30
0.0
 41
1.0
 10
304.6377537386329
 20
145.19845921016
 30
0.0
 41
1.0
 10
303.2113961099681
 20
145.6247749273114
 30
0.0
 41
0.9978627266040383
 10
301.755501889005
 20
145.9356015556885
 30
0.0
 41
0.9978627266040384
 10
300.2794060077015
 20
146.1289461308402
 30
0.0
 41
1.0
 10
298.5456459846389
 20
146.3633319480879
 30
0.0
 41
0.9984963814572877
 10
296.8000631788511
 20
146.4808104441264
 30
0.0
 41
0.9984963814572878
 10
295.0505316623601
 20
146.4808516904206
 30
0.0
 41
1.0
 10
293.2962721145713
 20
146.4850522045812
 30
0.0
 41
0.9984963681939517
 10
291.5456872466086
 20
146.371488013954
 30
0.0
 41
0.998496368193952
 10
289.8066737637353
 20
146.1406713947277
 30
0.0
 41
1.0
 10
288.3218243852905
 20
145.9497467589896
 30
0.0
 41
0.9978783509484999
 10
286.8569204626126
 20
145.6410618216821
 30
0.0
 41
0.9978783509485003
 10
285.4212860317552
 20
145.2165813461198
 30
0.0
 41
1.0
 10
284.1813496621678
 20
144.8381016452901
 30
0.0
 41
1.0
 10
283.1975044694673
 20
144.4054943114563
 30
0.0
 41
1.0
 10
282.5304477047755
 20
143.9586965074084
 30
0.0
 41
1.0
 10
281.8624927014082
 20
143.5117205737851
 30
0.0
 41
1.0
 10
281.5110473627535
 20
143.0508886978299
 30
0.0
 41
1.0
 10
281.5002944817468
 20
142.6034300181105
 30
0.0
 41
1.0
 10
281.4880375669707
 20
142.1546529966646
 30
0.0
 41
1.0
 10
281.8184866137749
 20
141.7188676321502
 30
0.0
 41
1.0
 10
282.4740454440457
 20
141.3151465024898
 30
0.0
 41
1.0
 10
283.1276361103744
 20
140.9117212131532
 30
0.0
 41
1.0
 10
284.1058861481265
 20
140.5395259328346
 30
0.0
 41
1.0
 10
285.3452439034481
 20
140.2216470835453
 30
0.0
 41
1.0
 10
286.5404052066147
 20
139.9149479348832
 30
0.0
 41
1.0
 10
289.5139396836967
 20
139.3860770488056
 30
0.0
 41
1.0
 10
293.0978416923472
 20
139.1815461071299
 30
0.0
 41
1.0
 10
294.9509269740101
 20
139.1807980203297
 30
0.0
 41
1.0
 10
296.6982528891258
 20
139.1782773732215
 30
0.0
 41
1.0
 10
300.2976926484416
 20
139.3643830855733
 30
0.0
 41
1.0
 10
303.3240149580272
 20
139.8834203968695
 30
0.0
 41
1.0
 10
304.6040963453495
 20
140.2087165414825
 30
0.0
 41
1.0
 10
305.8489589615001
 20
140.5247283942155
 30
0.0
 41
1.0
 10
306.8345337190897
 20
140.8952951844057
 30
0.0
 41
1.0
 10
307.4967860790591
 20
141.2973079056644
 30
0.0
 41
1.0
 10
308.1602918554527
 20
141.6992004942223
 30
0.0
 41
1.0
 10
308.5008051243281
 20
142.133258364265
 30
0.0
 41
1.0
 10
308.5000000840851
 20
142.5806160714825
 30
0.0
 41
1.0
  0
SPLINE
  5
235
330
1F
100
AcDbEntity
  8
Linee visibili 2D - Tangent
100
AcDbSpline
210
0.0
220
0.0
230
1.0
 70
    24
 71
     2
 72
     6
 73
     3
 74
     0
 42
0.0000000001
 43
0.0000000001
 40
0.0
 40
0.0
 40
0.0
 40
149.9999998740445
 40
149.9999998740445
 40
149.9999998740445
 10
370.000000010742
 20
162.0000000000001
 30
0.0
 10
295.0000000737198
 20
162.0000000000001
 30
0.0
 10
220.0000001366975
 20
162.0000000000001
 30
0.0
  0
SPLINE
  5
236
330
1F
100
AcDbEntity
  8
Linee visibili 2D - Tangent
100
AcDbSpline
210
0.0
220
0.0
230
1.0
 70
    24
 71
     2
 72
     6
 73
     3
 74
     0
 42
0.0000000001
 43
0.0000000001
 40
0.0
 40
0.0
 40
0.0
 40
149.9999963818154
 40
149.9999963818154
 40
149.9999963818154
 10
220.0000018985565
 20
112.00000040752
 30
0.0
 10
295.0000000894643
 20
112.00000040752
 30
0.0
 10
369.999998280372
 20
112.00000040752
 30
0.0
  0
SPLINE
  5
237
330
1F
100
AcDbEntity
  8
Linee visibili 2D
100
AcDbSpline
210
0.0
220
0.0
230
1.0
 70
    12
 71
     2
 72
     6
 73
     3
 74
     0
 42
0.0000000001
 43
0.0000000001
 40
0.0
 40
0.0
 40
0.0
 40
7.853981632820577
 40
7.853981632820577
 40
7.853981632820577
 10
589.9999998912231
 20
261.9999999272895
 30
0.0
 41
1.0
 10
594.999999890069
 20
261.9999999266786
 30
0.0
 41
0.7071067812681662
 10
594.9999998906123
 20
256.9999999278326
 30
0.0
 41
1.0
  0
SPLINE
  5
238
330
1F
100
AcDbEntity
  8
Linee visibili 2D
100
AcDbSpline
210
0.0
220
0.0
230
1.0
 70
    12
 71
     2
 72
     6
 73
     3
 74
     0
 42
0.0000000001
 43
0.0000000001
 40
0.0
 40
0.0
 40
0.0
 40
7.8539816351292
 40
7.8539816351292
 40
7.8539816351292
 10
-5.000000109387543
 20
256.9999999988459
 30
0.0
 41
1.0
 10
-5.000000109930753
 20
262.0000000000001
 30
0.0
 41
0.707106781104985
 10
-0.0000001087763621
 20
261.9999999993897
 30
0.0
 41
1.0
  0
SPLINE
  5
239
330
1F
100
AcDbEntity
  8
Linee visibili 2D
100
AcDbSpline
210
0.0
220
0.0
230
1.0
 70
    12
 71
     2
 72
     6
 73
     3
 74
     0
 42
0.0000000001
 43
0.0000000001
 40
0.0
 40
0.0
 40
0.0
 40
7.853981632821054
 40
7.853981632821054
 40
7.853981632821054
 10
-0.0000000622034122
 20
-188.0000000006112
 30
0.0
 41
1.0
 10
-5.000000061049637
 20
-187.9999999999994
 30
0.0
 41
0.707106781268181
 10
-5.000000061592345
 20
-183.0000000011532
 30
0.0
 41
1.0
  0
SPLINE
  5
23A
330
1F
100
AcDbEntity
  8
Linee visibili 2D - Tangent
100
AcDbSpline
210
0.0
220
0.0
230
1.0
 70
    24
 71
     2
 72
     6
 73
     3
 74
     0
 42
0.0000000001
 43
0.0000000001
 40
0.0
 40
0.0
 40
0.0
 40
5.000000000001705
 40
5.000000000001705
 40
5.000000000001705
 10
589.9999998906123
 20
256.9999999272878
 30
0.0
 10
589.9999998909177
 20
259.4999999272887
 30
0.0
 10
589.9999998912231
 20
261.9999999272895
 30
0.0
  0
SPLINE
  5
23B
330
1F
100
AcDbEntity
  8
Linee visibili 2D - Tangent
100
AcDbSpline
210
0.0
220
0.0
230
1.0
 70
    24
 71
     2
 72
     6
 73
     3
 74
     0
 42
0.0000000001
 43
0.0000000001
 40
0.0
 40
0.0
 40
0.0
 40
589.9999999999999
 40
589.9999999999999
 40
589.9999999999999
 10
589.9999998906123
 20
256.9999999272878
 30
0.0
 10
294.9999998906124
 20
256.9999999633383
 30
0.0
 10
-0.0000001093875426
 20
256.9999999993888
 30
0.0
  0
SPLINE
  5
23C
330
1F
100
AcDbEntity
  8
Linee visibili 2D - Tangent
100
AcDbSpline
210
0.0
220
0.0
230
1.0
 70
    24
 71
     2
 72
     6
 73
     3
 74
     0
 42
0.0000000001
 43
0.0000000001
 40
0.0
 40
0.0
 40
0.0
 40
5.0
 40
5.0
 40
5.0
 10
-0.0000001087764758
 20
261.9999999993888
 30
0.0
 10
-0.0000001090820092
 20
259.4999999993888
 30
0.0
 10
-0.0000001093875426
 20
256.9999999993888
 30
0.0
  0
SPLINE
  5
23D
330
1F
100
AcDbEntity
  8
Linee visibili 2D
100
AcDbSpline
210
0.0
220
0.0
230
1.0
 70
    24
 71
     2
 72
     6
 73
     3
 74
     0
 42
0.0000000001
 43
0.0000000001
 40
0.0
 40
0.0
 40
0.0
 40
589.9999999999994
 40
589.9999999999994
 40
589.9999999999994
 10
589.9999998912231
 20
261.9999999272895
 30
0.0
 10
294.9999998912234
 20
261.9999999633396
 30
0.0
 10
-0.0000001087763621
 20
261.9999999993897
 30
0.0
  0
SPLINE
  5
23E
330
1F
100
AcDbEntity
  8
Linee visibili 2D - Tangent
100
AcDbSpline
210
0.0
220
0.0
230
1.0
 70
     8
 71
     3
 72
    14
 73
    10
 74
     0
 42
0.0000000001
 43
0.0000000001
 40
0.0
 40
0.0
 40
0.0
 40
0.0
 40
6.060841856717264
 40
11.62114869217377
 40
23.16459893802982
 40
46.53299657833847
 40
58.41345979978779
 40
69.95609279014748
 40
93.24196817166965
 40
93.24196817166965
 40
93.24196817166965
 40
93.24196817166965
 10
59.55360968105117
 20
-183.0000000078889
 30
0.0
 10
57.53522165793197
 20
-182.9531412534679
 30
0.0
 10
53.65929997525984
 20
-182.7627160860071
 30
0.0
 10
46.024184295488
 20
-181.5610972673836
 30
0.0
 10
33.06100803278753
 20
-177.6029600944927
 30
0.0
 10
19.83711095773037
 20
-168.7811955962937
 30
0.0
 10
9.886887293033396
 20
-156.671383310816
 30
0.0
 10
2.461804052656589
 20
-142.9026751352532
 30
0.0
 10
0.0769336721447189
 20
-131.3166417268575
 30
0.0
 10
-0.0000000680496441
 20
-123.5554047200266
 30
0.0
  0
SPLINE
  5
23F
330
1F
100
AcDbEntity
  8
Linee visibili 2D - Tangent
100
AcDbSpline
210
0.0
220
0.0
230
1.0
 70
    24
 71
     2
 72
     6
 73
     3
 74
     0
 42
0.0000000001
 43
0.0000000001
 40
0.0
 40
0.0
 40
0.0
 40
5.000000000000909
 40
5.000000000000909
 40
5.000000000000909
 10
-0.0000000615926865
 20
-183.0000000006102
 30
0.0
 10
-0.0000000618980494
 20
-185.5000000006107
 30
0.0
 10
-0.0000000622034122
 20
-188.0000000006112
 30
0.0
  0
SPLINE
  5
240
330
1F
100
AcDbEntity
  8
Linee visibili 2D - Tangent
100
AcDbSpline
210
0.0
220
0.0
230
1.0
 70
    24
 71
     2
 72
     6
 73
     3
 74
     0
 42
0.0000000001
 43
0.0000000001
 40
0.0
 40
0.0
 40
0.0
 40
59.55360974264386
 40
59.55360974264386
 40
59.55360974264386
 10
-0.0000000615926865
 20
-183.0000000006102
 30
0.0
 10
29.77680480972924
 20
-183.0000000042496
 30
0.0
 10
59.55360968105117
 20
-183.0000000078889
 30
0.0
  0
SPLINE
  5
241
330
1F
100
AcDbEntity
  8
Linee visibili 2D - Tangent
100
AcDbSpline
210
0.0
220
0.0
230
1.0
 70
    24
 71
     2
 72
     6
 73
     3
 74
     0
 42
0.0000000001
 43
0.0000000001
 40
0.0
 40
0.0
 40
0.0
 40
160.4463904346538
 40
160.4463904346538
 40
160.4463904346538
 10
220.000000115705
 20
-183.0
 30
0.0
 10
139.7768048983781
 20
-183.0000000039445
 30
0.0
 10
59.55360968105117
 20
-183.0000000078889
 30
0.0
  0
SPLINE
  5
242
330
1F
100
AcDbEntity
  8
Linee visibili 2D - Tangent
100
AcDbSpline
210
0.0
220
0.0
230
1.0
 70
    24
 71
     2
 72
     6
 73
     3
 74
     0
 42
0.0000000001
 43
0.0000000001
 40
0.0
 40
0.0
 40
0.0
 40
149.999999895037
 40
149.999999895037
 40
149.999999895037
 10
220.000000115705
 20
-183.0
 30
0.0
 10
295.0000000632235
 20
-183.0
 30
0.0
 10
370.000000010742
 20
-183.0
 30
0.0
  0
SPLINE
  5
243
330
1F
100
AcDbEntity
  8
Linee visibili 2D - Tangent
100
AcDbSpline
210
0.0
220
0.0
230
1.0
 70
    12
 71
     3
 72
    11
 73
     7
 74
     0
 42
0.0000000001
 43
0.0000000001
 40
0.0
 40
0.0
 40
0.0
 40
0.0
 40
160.0
 40
160.0
 40
160.0
 40
160.4463877301098
 40
160.4463877301098
 40
160.4463877301098
 40
160.4463877301098
 10
370.000000010742
 20
-183.0000000727105
 30
0.0
 41
1.0
 10
423.3333333440763
 20
-183.0000000726732
 30
0.0
 41
0.9999999999999998
 10
476.6666666774074
 20
-183.0000000726359
 30
0.0
 41
1.0
 10
530.000000010742
 20
-183.0000000725986
 30
0.0
 41
1.0
 10
530.1487959207789
 20
-183.0000000218115
 30
0.0
 41
1.0
 10
530.2975918308152
 20
-183.0000000436212
 30
0.0
 41
1.0
 10
530.4463877408516
 20
-183.0000000654327
 30
0.0
 41
1.0
  0
SPLINE
  5
244
330
1F
100
AcDbEntity
  8
Linee visibili 2D
100
AcDbSpline
210
0.0
220
0.0
230
1.0
 70
    24
 71
     2
 72
     6
 73
     3
 74
     0
 42
0.0000000001
 43
0.0000000001
 40
0.0
 40
0.0
 40
0.0
 40
589.9999999999999
 40
589.9999999999999
 40
589.9999999999999
 10
-0.0000000622034122
 20
-188.0000000006112
 30
0.0
 10
294.9999999377965
 20
-188.0000000366608
 30
0.0
 10
589.9999999377965
 20
-188.0000000727104
 30
0.0
  0
SPLINE
  5
245
330
1F
100
AcDbEntity
  8
Linee visibili 2D - Tangent
100
AcDbSpline
210
0.0
220
0.0
230
1.0
 70
    24
 71
     2
 72
     6
 73
     3
 74
     0
 42
0.0000000001
 43
0.0000000001
 40
0.0
 40
0.0
 40
0.0
 40
5.0
 40
5.0
 40
5.0
 10
-0.0000001093875426
 20
256.9999999993888
 30
0.0
 10
-2.500000109387543
 20
256.9999999991173
 30
0.0
 10
-5.000000109387543
 20
256.9999999988459
 30
0.0
  0
SPLINE
  5
246
330
1F
100
AcDbEntity
  8
Linee visibili 2D - Tangent
100
AcDbSpline
210
0.0
220
0.0
230
1.0
 70
    24
 71
     2
 72
     6
 73
     3
 74
     0
 42
0.0000000001
 43
0.0000000001
 40
0.0
 40
0.0
 40
0.0
 40
154.9999999993888
 40
154.9999999993888
 40
154.9999999993888
 10
-0.0000001093875426
 20
256.9999999993888
 30
0.0
 10
-0.0000000493226935
 20
179.4999999996944
 30
0.0
 10
0.0000000107421556
 20
102.0
 30
0.0
  0
SPLINE
  5
247
330
1F
100
AcDbEntity
  8
Linee visibili 2D - Tangent
100
AcDbSpline
210
0.0
220
0.0
230
1.0
 70
    24
 71
     2
 72
     6
 73
     3
 74
     0
 42
0.0000000001
 43
0.0000000001
 40
0.0
 40
0.0
 40
0.0
 40
1.18125000000055
 40
1.18125000000055
 40
1.18125000000055
 10
-0.0000000924222832
 20
100.8187499999995
 30
0.0
 10
-0.0000000408400638
 20
101.4093749999997
 30
0.0
 10
0.0000000107421556
 20
102.0
 30
0.0
  0
SPLINE
  5
248
330
1F
100
AcDbEntity
  8
Linee visibili 2D - Tangent
100
AcDbSpline
210
0.0
220
0.0
230
1.0
 70
    24
 71
     2
 72
     6
 73
     3
 74
     0
 42
0.0000000001
 43
0.0000000001
 40
0.0
 40
0.0
 40
0.0
 40
13.81874999999946
 40
13.81874999999946
 40
13.81874999999946
 10
0.0000001157051202
 20
87.0
 30
0.0
 10
0.0000000116414185
 20
93.90937499999973
 30
0.0
 10
-0.0000000924222832
 20
100.8187499999995
 30
0.0
  0
SPLINE
  5
249
330
1F
100
AcDbEntity
  8
Linee visibili 2D - Tangent
100
AcDbSpline
210
0.0
220
0.0
230
1.0
 70
    12
 71
     3
 72
    14
 73
    10
 74
     0
 42
0.0000000001
 43
0.0000000001
 40
-175.0
 40
-175.0
 40
-175.0
 40
-175.0
 40
-87.00000000000003
 40
-87.00000000000003
 40
-87.00000000000003
 40
-77.00000000000003
 40
-77.00000000000003
 40
-77.00000000000003
 40
10.0
 40
10.0
 40
10.0
 40
10.0
 10
0.000000089464379
 20
-97.99999999999997
 30
0.0
 41
1.0
 10
0.0000000632236379
 20
-68.66666666666664
 30
0.0
 41
1.0
 10
0.0000000369828967
 20
-39.33333333333331
 30
0.0
 41
1.0
 10
0.0000000107421556
 20
-9.999999999999972
 30
0.0
 41
1.0
 10
0.0000001239978928
 20
-6.666666666666686
 30
0.0
 41
1.0
 10
0.0000001230855602
 20
-3.333333333333257
 30
0.0
 41
0.9999999999999992
 10
0.0
 20
0.0
 30
0.0
 41
1.0
 10
0.0000000457298484
 20
29.00000000000003
 30
0.0
 41
1.0
 10
0.0000000807174274
 20
58.00000000000003
 30
0.0
 41
1.0
 10
0.0000001157051202
 20
87.0
 30
0.0
 41
1.0
  0
SPLINE
  5
24A
330
1F
100
AcDbEntity
  8
Linee visibili 2D - Tangent
100
AcDbSpline
210
0.0
220
0.0
230
1.0
 70
    12
 71
     3
 72
    11
 73
     7
 74
     0
 42
0.0000000001
 43
0.0000000001
 40
-385.5554047205688
 40
-385.5554047205688
 40
-385.5554047205688
 40
-385.5554047205688
 40
-385.0000000005398
 40
-385.0000000005398
 40
-385.0000000005398
 40
-360.0000000005398
 40
-360.0000000005398
 40
-360.0000000005398
 40
-360.0000000005398
 10
-0.0000000680496441
 20
-123.5554047200266
 30
0.0
 41
1.0
 10
-0.0000000417857109
 20
-123.3702698133511
 30
0.0
 41
1.0
 10
-0.0000000155217776
 20
-123.1851349066755
 30
0.0
 41
1.0
 10
0.0000000107421556
 20
-123.0
 30
0.0
 41
1.0
 10
-0.0000002190171401
 20
-114.6666666666666
 30
0.0
 41
0.9999999999999999
 10
-0.0000002321564807
 20
-106.3333333333333
 30
0.0
 41
1.0
 10
-0.0000002452966328
 20
-97.99999999999997
 30
0.0
 41
1.0
  0
SPLINE
  5
24B
330
1F
100
AcDbEntity
  8
Linee visibili 2D - Tangent
100
AcDbSpline
210
0.0
220
0.0
230
1.0
 70
    24
 71
     2
 72
     6
 73
     3
 74
     0
 42
0.0000000001
 43
0.0000000001
 40
0.0
 40
0.0
 40
0.0
 40
59.4445952805836
 40
59.4445952805836
 40
59.4445952805836
 10
-0.0000000680496441
 20
-123.5554047200266
 30
0.0
 10
-0.0000000648211653
 20
-153.2777023603184
 30
0.0
 10
-0.0000000615926865
 20
-183.0000000006102
 30
0.0
  0
SPLINE
  5
24C
330
1F
100
AcDbEntity
  8
Linee visibili 2D - Tangent
100
AcDbSpline
210
0.0
220
0.0
230
1.0
 70
    24
 71
     2
 72
     6
 73
     3
 74
     0
 42
0.0000000001
 43
0.0000000001
 40
0.0
 40
0.0
 40
0.0
 40
4.999999999999545
 40
4.999999999999545
 40
4.999999999999545
 10
-5.000000061592232
 20
-183.0000000011532
 30
0.0
 10
-2.500000061592459
 20
-183.0000000008817
 30
0.0
 10
-0.0000000615926865
 20
-183.0000000006102
 30
0.0
  0
SPLINE
  5
24D
330
1F
100
AcDbEntity
  8
Linee visibili 2D
100
AcDbSpline
210
0.0
220
0.0
230
1.0
 70
    24
 71
     2
 72
     6
 73
     3
 74
     0
 42
0.0000000001
 43
0.0000000001
 40
0.0
 40
0.0
 40
0.0
 40
439.9999999999991
 40
439.9999999999991
 40
439.9999999999991
 10
-5.000000109387543
 20
256.9999999988459
 30
0.0
 10
-5.000000085489887
 20
36.99999999884632
 30
0.0
 10
-5.000000061592232
 20
-183.0000000011532
 30
0.0
  0
SPLINE
  5
24E
330
1F
100
AcDbEntity
  8
Linee visibili 2D - Tangent
100
AcDbSpline
210
0.0
220
0.0
230
1.0
 70
    24
 71
     2
 72
     6
 73
     3
 74
     0
 42
0.0000000001
 43
0.0000000001
 40
0.0
 40
0.0
 40
0.0
 40
5.0
 40
5.0
 40
5.0
 10
589.9999999377965
 20
-188.0000000727104
 30
0.0
 10
589.9999999381021
 20
-185.5000000727104
 30
0.0
 10
589.9999999384077
 20
-183.0000000727104
 30
0.0
  0
SPLINE
  5
24F
330
1F
100
AcDbEntity
  8
Linee visibili 2D
100
AcDbSpline
210
0.0
220
0.0
230
1.0
 70
    12
 71
     2
 72
     6
 73
     3
 74
     0
 42
0.0000000001
 43
0.0000000001
 40
0.0
 40
0.0
 40
0.0
 40
7.8539816351285
 40
7.8539816351285
 40
7.8539816351285
 10
594.9999999384077
 20
-183.0000000721675
 30
0.0
 41
1.0
 10
594.9999999389502
 20
-188.0000000733211
 30
0.0
 41
0.707106781105022
 10
589.9999999377965
 20
-188.0000000727106
 30
0.0
 41
1.0
  0
SPLINE
  5
250
330
1F
100
AcDbEntity
  8
Linee visibili 2D - Tangent
100
AcDbSpline
210
0.0
220
0.0
230
1.0
 70
    24
 71
     2
 72
     6
 73
     3
 74
     0
 42
0.0000000001
 43
0.0000000001
 40
0.0
 40
0.0
 40
0.0
 40
59.55361219755605
 40
59.55361219755605
 40
59.55361219755605
 10
530.4463877408516
 20
-183.0000000654327
 30
0.0
 10
560.2231938396296
 20
-183.0000000690715
 30
0.0
 10
589.9999999384077
 20
-183.0000000727104
 30
0.0
  0
SPLINE
  5
251
330
1F
100
AcDbEntity
  8
Linee visibili 2D - Tangent
100
AcDbSpline
210
0.0
220
0.0
230
1.0
 70
    12
 71
     2
 72
     6
 73
     3
 74
     0
 42
0.0000000001
 43
0.0000000001
 40
0.0
 40
0.0
 40
0.0
 40
93.24867932631966
 40
93.24867932631966
 40
93.24867932631966
 10
589.9999999319502
 20
-123.5554258436123
 30
0.0
 41
1.0
 10
589.4519303774222
 20
-182.5600631704451
 30
0.0
 41
0.7130018421674138
 10
530.4463877408516
 20
-183.0000000654328
 30
0.0
 41
1.0
  0
SPLINE
  5
252
330
1F
100
AcDbEntity
  8
Linee visibili 2D - Tangent
100
AcDbSpline
210
0.0
220
0.0
230
1.0
 70
    24
 71
     2
 72
     6
 73
     3
 74
     0
 42
0.0000000001
 43
0.0000000001
 40
0.0
 40
0.0
 40
0.0
 40
5.0
 40
5.0
 40
5.0
 10
589.9999999384077
 20
-183.0000000727104
 30
0.0
 10
592.4999999384077
 20
-183.000000072439
 30
0.0
 10
594.9999999384077
 20
-183.0000000721675
 30
0.0
  0
SPLINE
  5
253
330
1F
100
AcDbEntity
  8
Linee visibili 2D - Tangent
100
AcDbSpline
210
0.0
220
0.0
230
1.0
 70
    24
 71
     2
 72
     6
 73
     3
 74
     0
 42
0.0000000001
 43
0.0000000001
 40
0.0
 40
0.0
 40
0.0
 40
59.44457422909818
 40
59.44457422909818
 40
59.44457422909818
 10
589.9999999384077
 20
-183.0000000727104
 30
0.0
 10
589.999999935179
 20
-153.2777129581613
 30
0.0
 10
589.9999999319502
 20
-123.5554258436123
 30
0.0
  0
SPLINE
  5
254
330
1F
100
AcDbEntity
  8
Linee visibili 2D - Tangent
100
AcDbSpline
210
0.0
220
0.0
230
1.0
 70
    12
 71
     3
 72
    11
 73
     7
 74
     0
 42
0.0000000001
 43
0.0000000001
 40
-25.0
 40
-25.0
 40
-25.0
 40
-25.0
 40
0.0
 40
0.0
 40
0.0
 40
0.5554278745805392
 40
0.5554278745805392
 40
0.5554278745805392
 40
0.5554278745805392
 10
590.000000010742
 20
-97.99999999999997
 30
0.0
 41
1.0
 10
590.000000010742
 20
-106.3333333333333
 30
0.0
 41
1.0
 10
590.000000010742
 20
-114.6666666666666
 30
0.0
 41
1.0
 10
590.000000010742
 20
-123.0
 30
0.0
 41
1.0
 10
590.0008671859605
 20
-123.1851412710023
 30
0.0
 41
0.9999926868388944
 10
590.0008671596955
 20
-123.3702845728559
 30
0.0
 41
0.9999926868388945
 10
589.9999999319502
 20
-123.5554258436123
 30
0.0
 41
1.0
  0
SPLINE
  5
255
330
1F
100
AcDbEntity
  8
Linee visibili 2D - Tangent
100
AcDbSpline
210
0.0
220
0.0
230
1.0
 70
    24
 71
     2
 72
     6
 73
     3
 74
     0
 42
0.0000000001
 43
0.0000000001
 40
0.0
 40
0.0
 40
0.0
 40
185.0
 40
185.0
 40
185.0
 10
590.000000010742
 20
87.0
 30
0.0
 10
590.000000010742
 20
-5.499999999999986
 30
0.0
 10
590.000000010742
 20
-97.99999999999997
 30
0.0
  0
SPLINE
  5
256
330
1F
100
AcDbEntity
  8
Linee visibili 2D - Tangent
100
AcDbSpline
210
0.0
220
0.0
230
1.0
 70
    24
 71
     2
 72
     6
 73
     3
 74
     0
 42
0.0000000001
 43
0.0000000001
 40
0.0
 40
0.0
 40
0.0
 40
13.81875000000036
 40
13.81875000000036
 40
13.81875000000036
 10
590.000000010742
 20
87.0
 30
0.0
 10
589.9999999591598
 20
93.90937500000018
 30
0.0
 10
589.9999999075776
 20
100.8187500000004
 30
0.0
  0
SPLINE
  5
257
330
1F
100
AcDbEntity
  8
Linee visibili 2D - Tangent
100
AcDbSpline
210
0.0
220
0.0
230
1.0
 70
    24
 71
     2
 72
     6
 73
     3
 74
     0
 42
0.0000000001
 43
0.0000000001
 40
0.0
 40
0.0
 40
0.0
 40
1.181249999999641
 40
1.181249999999641
 40
1.181249999999641
 10
589.9999999075776
 20
100.8187500000004
 30
0.0
 10
589.9999999591598
 20
101.4093750000002
 30
0.0
 10
590.000000010742
 20
102.0
 30
0.0
  0
SPLINE
  5
258
330
1F
100
AcDbEntity
  8
Linee visibili 2D - Tangent
100
AcDbSpline
210
0.0
220
0.0
230
1.0
 70
    24
 71
     2
 72
     6
 73
     3
 74
     0
 42
0.0000000001
 43
0.0000000001
 40
0.0
 40
0.0
 40
0.0
 40
154.9999999272878
 40
154.9999999272878
 40
154.9999999272878
 10
590.000000010742
 20
102.0
 30
0.0
 10
589.9999999506772
 20
179.4999999636439
 30
0.0
 10
589.9999998906123
 20
256.9999999272878
 30
0.0
  0
SPLINE
  5
259
330
1F
100
AcDbEntity
  8
Linee visibili 2D - Tangent
100
AcDbSpline
210
0.0
220
0.0
230
1.0
 70
    24
 71
     2
 72
     6
 73
     3
 74
     0
 42
0.0000000001
 43
0.0000000001
 40
0.0
 40
0.0
 40
0.0
 40
5.0
 40
5.0
 40
5.0
 10
594.9999998906123
 20
256.9999999278326
 30
0.0
 10
592.4999998906123
 20
256.9999999275602
 30
0.0
 10
589.9999998906123
 20
256.9999999272878
 30
0.0
  0
SPLINE
  5
25A
330
1F
100
AcDbEntity
  8
Linee visibili 2D
100
AcDbSpline
210
0.0
220
0.0
230
1.0
 70
    24
 71
     2
 72
     6
 73
     3
 74
     0
 42
0.0000000001
 43
0.0000000001
 40
0.0
 40
0.0
 40
0.0
 40
440.0000000000001
 40
440.0000000000001
 40
440.0000000000001
 10
594.9999999384077
 20
-183.0000000721675
 30
0.0
 10
594.99999991451
 20
36.99999992783258
 30
0.0
 10
594.9999998906123
 20
256.9999999278326
 30
0.0
  0
SPLINE
  5
25B
330
1F
100
AcDbEntity
  8
Linee visibili 2D
100
AcDbSpline
210
0.0
220
0.0
230
1.0
 70
    15
 71
     2
 72
    12
 73
     9
 74
     0
 42
0.0000000001
 43
0.0000000001
 40
0.0
 40
0.0
 40
0.0
 40
35.34367122406239
 40
35.34367122406239
 40
70.68734244812478
 40
70.68734244812478
 40
106.0310136721872
 40
106.0310136721872
 40
141.3746848962496
 40
141.3746848962496
 40
141.3746848962496
 10
317.4999974957229
 20
41.9999999633383
 30
0.0
 41
1.0
 10
317.5003678235331
 20
19.49952003708862
 30
0.0
 41
0.7071067811865476
 10
294.9998878972831
 20
19.49914970927873
 30
0.0
 41
1.0
 10
272.4994079710335
 20
19.49877938146885
 30
0.0
 41
0.7071067811865476
 10
272.4990376432236
 20
41.99925930771852
 30
0.0
 41
1.0
 10
272.4986673154135
 20
64.49973923396819
 30
0.0
 41
0.7071067811865476
 10
294.9991472416634
 20
64.50010956177809
 30
0.0
 41
1.0
 10
317.4996271679131
 20
64.500479889588
 30
0.0
 41
0.7071067811865476
 10
317.4999974957229
 20
41.9999999633383
 30
0.0
 41
1.0
  0
SPLINE
  5
25C
330
1F
100
AcDbEntity
  8
Linee visibili 2D - Tangent
100
AcDbSpline
210
0.0
220
0.0
230
1.0
 70
    15
 71
     2
 72
    12
 73
     9
 74
     0
 42
0.0000000001
 43
0.0000000001
 40
0.0
 40
0.0
 40
0.0
 40
43.19782038506451
 40
43.19782038506451
 40
86.39564077012902
 40
86.39564077012902
 40
129.5934611551935
 40
129.5934611551935
 40
172.791281540258
 40
172.791281540258
 40
172.791281540258
 10
322.4999974958491
 20
41.99999996341964
 30
0.0
 41
1.0
 10
322.5004501187461
 20
14.49941338682898
 30
0.0
 41
0.7071067811865476
 10
294.9998635421555
 20
14.4989607639319
 30
0.0
 41
1.0
 10
267.499276965565
 20
14.49850814103483
 30
0.0
 41
0.7071067811865476
 10
267.4988243426678
 20
41.99909471762547
 30
0.0
 41
1.0
 10
267.4983717197708
 20
69.49968129421615
 30
0.0
 41
0.7071067811865476
 10
294.9989582963615
 20
69.5001339171132
 30
0.0
 41
1.0
 10
322.4995448729519
 20
69.5005865400103
 30
0.0
 41
0.7071067811865476
 10
322.4999974958491
 20
41.99999996341964
 30
0.0
 41
1.0
  0
SPLINE
  5
25D
330
1F
100
AcDbEntity
  8
Linee visibili 2D
100
AcDbSpline
210
0.0
220
0.0
230
1.0
 70
     8
 71
     3
 72
    15
 73
    11
 74
     0
 42
0.0000000001
 43
0.0000000001
 40
0.0
 40
0.0
 40
0.0
 40
0.0
 40
2.944920843274376
 40
5.919789344410379
 40
8.817799013156186
 40
11.53528704661242
 40
14.10236491126876
 40
16.60241210285889
 40
19.0101554916069
 40
21.54273011504434
 40
21.54273011504434
 40
21.54273011504434
 40
21.54273011504434
 10
-526.2626298794207
 20
112.7598890060557
 30
0.0
 10
-526.124093645863
 20
113.7320212048672
 30
0.0
 10
-526.1106099363143
 20
115.7210610901687
 30
0.0
 10
-526.8196060634532
 20
118.5967066612778
 30
0.0
 10
-528.1837169523039
 20
121.141523334968
 30
0.0
 10
-530.0838800116771
 20
123.1362174533752
 30
0.0
 10
-532.378489318297
 20
124.4173586426874
 30
0.0
 10
-534.8707768989808
 20
124.8528742590702
 30
0.0
 10
-537.3487723292958
 20
124.414557433969
 30
0.0
 10
-538.8033852212029
 20
123.5940793848987
 30
0.0
 10
-539.464010432471
 20
123.0690633108066
 30
0.0
  0
SPLINE
  5
25E
330
1F
100
AcDbEntity
  8
Linee visibili 2D
100
AcDbSpline
210
0.0
220
0.0
230
1.0
 70
     8
 71
     3
 72
    11
 73
     7
 74
     0
 42
0.0000000001
 43
0.0000000001
 40
0.0
 40
0.0
 40
0.0
 40
0.0
 40
0.7966608079163879
 40
1.601634914527688
 40
3.269127287650152
 40
6.687488718121117
 40
6.687488718121117
 40
6.687488718121117
 40
6.687488718121117
 10
-529.3233565980549
 20
106.9827411236864
 30
0.0
 10
-529.1190029484978
 20
107.1522421645494
 30
0.0
 10
-528.7263059977961
 20
107.5152028174531
 30
0.0
 10
-528.0025561959002
 20
108.3313097960403
 30
0.0
 10
-526.928055802736
 20
109.9867343751333
 30
0.0
 10
-526.4226390543456
 20
111.6325070848921
 30
0.0
 10
-526.2626350644052
 20
112.7598525747735
 30
0.0
  0
SPLINE
  5
25F
330
1F
100
AcDbEntity
  8
Linee visibili 2D
100
AcDbSpline
210
0.0
220
0.0
230
1.0
 70
     8
 71
     3
 72
    12
 73
     8
 74
     0
 42
0.0000000001
 43
0.0000000001
 40
0.0
 40
0.0
 40
0.0
 40
0.0
 40
0.75202893412802
 40
1.482808545530264
 40
2.941275925908595
 40
4.401962568364755
 40
5.844646235757311
 40
5.844646235757311
 40
5.844646235757311
 40
5.844646235757311
 10
-286.2086030613398
 20
123.4544813687262
 30
0.0
 10
-285.9639089731647
 20
123.4002379553602
 30
0.0
 10
-285.4910942769876
 20
123.2487280106868
 30
0.0
 10
-284.6235515183371
 20
122.7840564501033
 30
0.0
 10
-283.7321199235034
 20
121.9244625463767
 30
0.0
 10
-283.1249398181127
 20
120.5735730022812
 30
0.0
 10
-283.0861076151259
 20
119.588799800679
 30
0.0
 10
-283.1575048077548
 20
119.1133488339062
 30
0.0
  0
SPLINE
  5
260
330
1F
100
AcDbEntity
  8
Linee visibili 2D
100
AcDbSpline
210
0.0
220
0.0
230
1.0
 70
    12
 71
     2
 72
     6
 73
     3
 74
     0
 42
0.0000000001
 43
0.0000000001
 40
0.0
 40
0.0
 40
0.0
 40
2.126391067701288
 40
2.126391067701288
 40
2.126391067701288
 10
-672.8213321875954
 20
208.577234252257
 30
0.0
 41
1.0
 10
-671.835361864761
 20
209.0688902823844
 30
0.0
 41
0.9483205838887971
 10
-670.7520488537393
 20
208.8681515227438
 30
0.0
 41
1.0
  0
SPLINE
  5
261
330
1F
100
AcDbEntity
  8
Linee visibili 2D
100
AcDbSpline
210
0.0
220
0.0
230
1.0
 70
    12
 71
     2
 72
     6
 73
     3
 74
     0
 42
0.0000000001
 43
0.0000000001
 40
0.0
 40
0.0
 40
0.0
 40
4.9811836193971
 40
4.9811836193971
 40
4.9811836193971
 10
-883.0643092627815
 20
87.58379453921009
 30
0.0
 41
1.0
 10
-883.5056476216214
 20
90.40649542405507
 30
0.0
 41
0.8182775749878958
 10
-880.9999309120543
 20
91.77901267483361
 30
0.0
 41
1.0
  0
SPLINE
  5
262
330
1F
100
AcDbEntity
  8
Linee visibili 2D
100
AcDbSpline
210
0.0
220
0.0
230
1.0
 70
    12
 71
     2
 72
     6
 73
     3
 74
     0
 42
0.0000000001
 43
0.0000000001
 40
0.0
 40
0.0
 40
0.0
 40
1.43357458920842
 40
1.43357458920842
 40
1.43357458920842
 10
-292.4118471487262
 20
57.18718840030695
 30
0.0
 41
1.0
 10
-292.5372696903365
 20
56.47246401992638
 30
0.0
 41
0.981788663419304
 10
-292.9202549630998
 20
55.85611668708495
 30
0.0
 41
1.0
  0
SPLINE
  5
263
330
1F
100
AcDbEntity
  8
Linee visibili 2D
100
AcDbSpline
210
0.0
220
0.0
230
1.0
 70
    12
 71
     2
 72
     6
 73
     3
 74
     0
 42
0.0000000001
 43
0.0000000001
 40
0.0
 40
0.0
 40
0.0
 40
4.041123217295854
 40
4.041123217295854
 40
4.041123217295854
 10
-870.2505298394233
 20
20.29246098409308
 30
0.0
 41
1.0
 10
-872.3073331916908
 20
21.09788959999414
 30
0.0
 41
0.8768884053035706
 10
-872.7346184336793
 20
23.26504963266146
 30
0.0
 41
1.0
  0
SPLINE
  5
264
330
1F
100
AcDbEntity
  8
Linee visibili 2D
100
AcDbSpline
210
0.0
220
0.0
230
1.0
 70
    24
 71
     2
 72
     6
 73
     3
 74
     0
 42
0.0000000001
 43
0.0000000001
 40
0.0
 40
0.0
 40
0.0
 40
62.43882059201164
 40
62.43882059201164
 40
62.43882059201164
 10
-283.1699497182702
 20
119.0300624599668
 30
0.0
 10
-287.7836325747261
 20
88.15344493585316
 30
0.0
 10
-292.3973154311821
 20
57.27682741173956
 30
0.0
  0
SPLINE
  5
265
330
1F
100
AcDbEntity
  8
Linee visibili 2D
100
AcDbSpline
210
0.0
220
0.0
230
1.0
 70
    24
 71
     2
 72
     6
 73
     3
 74
     0
 42
0.0000000001
 43
0.0000000001
 40
0.0
 40
0.0
 40
0.0
 40
65.02842423039965
 40
65.02842423039965
 40
65.02842423039965
 10
-872.7534754612414
 20
23.37274483689322
 30
0.0
 10
-877.9084818517083
 20
55.47570262253117
 30
0.0
 10
-883.0634882421751
 20
87.57866040816913
 30
0.0
  0
SPLINE
  5
266
330
1F
100
AcDbEntity
  8
Linee visibili 2D
100
AcDbSpline
210
0.0
220
0.0
230
1.0
 70
    24
 71
     2
 72
     6
 73
     3
 74
     0
 42
0.0000000001
 43
0.0000000001
 40
0.0
 40
0.0
 40
0.0
 40
393.7779483448168
 40
393.7779483448168
 40
393.7779483448168
 10
-670.6325169381641
 20
208.8438855106972
 30
0.0
 10
-478.4280117280431
 20
166.1508377441596
 30
0.0
 10
-286.223506517922
 20
123.457789977622
 30
0.0
  0
SPLINE
  5
267
330
1F
100
AcDbEntity
  8
Linee visibili 2D
100
AcDbSpline
210
0.0
220
0.0
230
1.0
 70
    24
 71
     2
 72
     6
 73
     3
 74
     0
 42
0.0000000001
 43
0.0000000001
 40
0.0
 40
0.0
 40
0.0
 40
228.3188429238695
 40
228.3188429238695
 40
228.3188429238695
 10
-293.0636017350305
 20
55.64159320720577
 30
0.0
 10
-359.6576506605704
 20
-37.08168410882982
 30
0.0
 10
-426.2516995861104
 20
-129.8049614248654
 30
0.0
  0
SPLINE
  5
268
330
1F
100
AcDbEntity
  8
Linee visibili 2D
100
AcDbSpline
210
0.0
220
0.0
230
1.0
 70
    24
 71
     2
 72
     6
 73
     3
 74
     0
 42
0.0000000001
 43
0.0000000001
 40
0.0
 40
0.0
 40
0.0
 40
463.6597214375973
 40
463.6597214375973
 40
463.6597214375973
 10
-431.9731484225242
 20
-131.6316788174502
 30
0.0
 10
-651.0170414228161
 20
-55.70502170564089
 30
0.0
 10
-870.0609344231079
 20
20.22163540616839
 30
0.0
  0
SPLINE
  5
269
330
1F
100
AcDbEntity
  8
Linee visibili 2D
100
AcDbSpline
210
0.0
220
0.0
230
1.0
 70
    24
 71
     2
 72
     6
 73
     3
 74
     0
 42
0.0000000001
 43
0.0000000001
 40
0.0
 40
0.0
 40
0.0
 40
238.5207234263525
 40
238.5207234263525
 40
238.5207234263525
 10
-880.975384712553
 20
91.79278478009292
 30
0.0
 10
-776.9674235926367
 20
150.1484006164082
 30
0.0
 10
-672.9594624727204
 20
208.5040164527235
 30
0.0
  0
SPLINE
  5
26A
330
1F
100
AcDbEntity
  8
Linee visibili 2D
100
AcDbSpline
210
0.0
220
0.0
230
1.0
 70
    12
 71
     2
 72
     6
 73
     3
 74
     0
 42
0.0000000001
 43
0.0000000001
 40
0.0
 40
0.0
 40
0.0
 40
6.321243528171316
 40
6.321243528171316
 40
6.321243528171316
 10
-426.3127250684538
 20
-129.8899347711284
 30
0.0
 41
1.0
 10
-428.4711828833874
 20
-132.8725651288377
 30
0.0
 41
0.8006119259161967
 10
-431.9413938477202
 20
-131.6426627536055
 30
0.0
 41
1.0
  0
SPLINE
  5
26B
330
1F
100
AcDbEntity
  8
Linee visibili 2D
100
AcDbSpline
210
0.0
220
0.0
230
1.0
 70
     8
 71
     3
 72
    18
 73
    14
 74
     0
 42
0.0000000001
 43
0.0000000001
 40
0.0
 40
0.0
 40
0.0
 40
0.0
 40
1.121462270998711
 40
2.67259753108134
 40
4.561442736890264
 40
6.74166003722752
 40
11.70756785491352
 40
17.19063623966422
 40
22.66040659361577
 40
28.12076761428298
 40
32.96635376264365
 40
35.06749012655131
 40
36.90344077826474
 40
36.90344077826474
 40
36.90344077826474
 40
36.90344077826474
 10
-590.3662274710523
 20
42.9160394526256
 30
0.0
 10
-590.3632094091104
 20
42.53666665056099
 30
0.0
 10
-590.0118416936931
 20
41.69541615222346
 30
0.0
 10
-588.9799358754988
 20
40.56212919808203
 30
0.0
 10
-587.4623939087493
 20
39.45378259705794
 30
0.0
 10
-584.7791358125061
 20
38.06746790628245
 30
0.0
 10
-580.7409058691253
 20
36.81049297557294
 30
0.0
 10
-575.4738000871382
 20
36.07020210379682
 30
0.0
 10
-569.9880168163986
 20
36.07574644219773
 30
0.0
 10
-564.7700522212849
 20
36.82277610847075
 30
0.0
 10
-560.8055184958096
 20
38.06433614866239
 30
0.0
 10
-558.1950697168725
 20
39.40647988801632
 30
0.0
 10
-557.1258393298685
 20
40.17398387334737
 30
0.0
 10
-556.6676014445857
 20
40.58023712306891
 30
0.0
  0
SPLINE
  5
26C
330
1F
100
AcDbEntity
  8
Linee visibili 2D
100
AcDbSpline
210
0.0
220
0.0
230
1.0
 70
     8
 71
     3
 72
    12
 73
     8
 74
     0
 42
0.0000000001
 43
0.0000000001
 40
0.0
 40
0.0
 40
0.0
 40
0.0
 40
0.4447556550808354
 40
0.8580204066438111
 40
1.602489766153607
 40
2.2315195020692
 40
2.761896037976257
 40
2.761896037976257
 40
2.761896037976257
 40
2.761896037976257
 10
-556.6654575362186
 20
40.58214915735962
 30
0.0
 10
-556.5547279071942
 20
40.68076296330915
 30
0.0
 10
-556.3465472522412
 20
40.87697807950534
 30
0.0
 10
-555.9815380798318
 20
41.26749290511782
 30
0.0
 10
-555.6204047189995
 20
41.74290914463199
 30
0.0
 10
-555.3302608577826
 20
42.3116639318323
 30
0.0
 10
-555.2497592043985
 20
42.69408749800107
 30
0.0
 10
-555.2489222238429
 20
42.87134516359197
 30
0.0
  0
SPLINE
  5
26D
330
1F
100
AcDbEntity
  8
Linee visibili 2D
100
AcDbSpline
210
0.0
220
0.0
230
1.0
 70
    24
 71
     2
 72
     6
 73
     3
 74
     0
 42
0.0000000001
 43
0.0000000001
 40
0.0
 40
0.0
 40
0.0
 40
38.52273094718475
 40
38.52273094718475
 40
38.52273094718475
 10
-811.8617784326703
 20
0.0482021250920184
 30
0.0
 10
-809.3901257040297
 20
-19.0539216494075
 30
0.0
 10
-806.918472975389
 20
-38.15604542390702
 30
0.0
  0
SPLINE
  5
26E
330
1F
100
AcDbEntity
  8
Linee visibili 2D
100
AcDbSpline
210
0.0
220
0.0
230
1.0
 70
    24
 71
     2
 72
     6
 73
     3
 74
     0
 42
0.0000000001
 43
0.0000000001
 40
0.0
 40
0.0
 40
0.0
 40
338.0785705755807
 40
338.0785705755807
 40
338.0785705755807
 10
-806.918472975389
 20
-38.15604542390702
 30
0.0
 10
-648.1515249196585
 20
-96.18479843201455
 30
0.0
 10
-489.384576863928
 20
-154.2135514401221
 30
0.0
  0
SPLINE
  5
26F
330
1F
100
AcDbEntity
  8
Linee visibili 2D
100
AcDbSpline
210
0.0
220
0.0
230
1.0
 70
    24
 71
     2
 72
     6
 73
     3
 74
     0
 42
0.0000000001
 43
0.0000000001
 40
0.0
 40
0.0
 40
0.0
 40
13.06021976135334
 40
13.06021976135334
 40
13.06021976135334
 10
-817.4127535462064
 20
-45.93032452333529
 30
0.0
 10
-812.1656132607977
 20
-42.04318497362115
 30
0.0
 10
-806.918472975389
 20
-38.15604542390702
 30
0.0
  0
SPLINE
  5
270
330
1F
100
AcDbEntity
  8
Linee visibili 2D
100
AcDbSpline
210
0.0
220
0.0
230
1.0
 70
    24
 71
     2
 72
     6
 73
     3
 74
     0
 42
0.0000000001
 43
0.0000000001
 40
0.0
 40
0.0
 40
0.0
 40
56.22804937516876
 40
56.22804937516876
 40
56.22804937516876
 10
-462.5896448827768
 20
-121.0191563818614
 30
0.0
 10
-464.4283785318432
 20
-149.0729875409366
 30
0.0
 10
-466.2671121809096
 20
-177.1268187000117
 30
0.0
  0
SPLINE
  5
271
330
1F
100
AcDbEntity
  8
Linee visibili 2D
100
AcDbSpline
210
0.0
220
0.0
230
1.0
 70
    24
 71
     2
 72
     6
 73
     3
 74
     0
 42
0.0000000001
 43
0.0000000001
 40
0.0
 40
0.0
 40
0.0
 40
13.43224520367656
 40
13.43224520367656
 40
13.43224520367656
 10
-474.153755196039
 20
-188.0000000727105
 30
0.0
 10
-470.2104336884743
 20
-182.5634093863611
 30
0.0
 10
-466.2671121809096
 20
-177.1268187000117
 30
0.0
  0
SPLINE
  5
272
330
1F
100
AcDbEntity
  8
Linee visibili 2D
100
AcDbSpline
210
0.0
220
0.0
230
1.0
 70
    24
 71
     2
 72
     6
 73
     3
 74
     0
 42
0.0000000001
 43
0.0000000001
 40
0.0
 40
0.0
 40
0.0
 40
63.65978691823139
 40
63.65978691823139
 40
63.65978691823139
 10
-827.6562469486631
 20
-54.39507943499046
 30
0.0
 10
-832.1385151396456
 20
-22.88236153439099
 30
0.0
 10
-836.6207833306281
 20
8.630356366208474
 30
0.0
  0
SPLINE
  5
273
330
1F
100
AcDbEntity
  8
Linee visibili 2D
100
AcDbSpline
210
0.0
220
0.0
230
1.0
 70
    24
 71
     2
 72
     6
 73
     3
 74
     0
 42
0.0000000001
 43
0.0000000001
 40
0.0
 40
0.0
 40
0.0
 40
377.9077751170588
 40
377.9077751170588
 40
377.9077751170588
 10
-474.153755196039
 20
-188.0000000727105
 30
0.0
 10
-650.9050010723511
 20
-121.1975397538505
 30
0.0
 10
-827.6562469486631
 20
-54.39507943499046
 30
0.0
  0
SPLINE
  5
274
330
1F
100
AcDbEntity
  8
Linee visibili 2D
100
AcDbSpline
210
0.0
220
0.0
230
1.0
 70
    24
 71
     2
 72
     6
 73
     3
 74
     0
 42
0.0000000001
 43
0.0000000001
 40
0.0
 40
0.0
 40
0.0
 40
69.64506772220942
 40
69.64506772220942
 40
69.64506772220942
 10
-469.9007960889009
 20
-118.4849096472198
 30
0.0
 10
-472.0272756424699
 20
-153.2424548599651
 30
0.0
 10
-474.153755196039
 20
-188.0000000727105
 30
0.0
  0
SPLINE
  5
275
330
1F
100
AcDbEntity
  8
Linee visibili 2D
100
AcDbSpline
210
0.0
220
0.0
230
1.0
 70
    24
 71
     2
 72
     6
 73
     3
 74
     0
 42
0.0000000001
 43
0.0000000001
 40
0.0
 40
0.0
 40
0.0
 40
55.15514689887531
 40
55.15514689887531
 40
55.15514689887531
 10
-490.0631092949087
 20
-167.5513551318797
 30
0.0
 10
-488.6619707748605
 20
-140.0093986253647
 30
0.0
 10
-487.2608322548124
 20
-112.4674421188496
 30
0.0
  0
SPLINE
  5
276
330
1F
100
AcDbEntity
  8
Linee visibili 2D
100
AcDbSpline
210
0.0
220
0.0
230
1.0
 70
    24
 71
     2
 72
     6
 73
     3
 74
     0
 42
0.0000000001
 43
0.0000000001
 40
0.0
 40
0.0
 40
0.0
 40
349.2126353351718
 40
349.2126353351718
 40
349.2126353351718
 10
-817.4127535462064
 20
-45.93032452333529
 30
0.0
 10
-653.7379314205575
 20
-106.7408398276075
 30
0.0
 10
-490.0631092949087
 20
-167.5513551318797
 30
0.0
  0
SPLINE
  5
277
330
1F
100
AcDbEntity
  8
Linee visibili 2D
100
AcDbSpline
210
0.0
220
0.0
230
1.0
 70
    24
 71
     2
 72
     6
 73
     3
 74
     0
 42
0.0000000001
 43
0.0000000001
 40
0.0
 40
0.0
 40
0.0
 40
50.73103924474675
 40
50.73103924474675
 40
50.73103924474675
 10
-824.2407962875475
 20
4.339111271931557
 30
0.0
 10
-820.826774916877
 20
-20.79560662570186
 30
0.0
 10
-817.4127535462064
 20
-45.93032452333529
 30
0.0
  0
SPLINE
  5
278
330
1F
100
AcDbEntity
  8
Linee visibili 2D - Tangent
100
AcDbSpline
210
0.0
220
0.0
230
1.0
 70
    12
 71
     2
 72
     6
 73
     3
 74
     0
 42
0.0000000001
 43
0.0000000001
 40
0.0
 40
0.0
 40
0.0
 40
0.8289348096643623
 40
0.8289348096643623
 40
0.8289348096643623
 10
-527.9502439598434
 20
108.441879095679
 30
0.0
 41
1.0
 10
-527.7038285017608
 20
108.7755141192276
 30
0.0
 41
0.9989114596953396
 10
-527.4895773209448
 20
109.1306610443717
 30
0.0
 41
1.0
  0
SPLINE
  5
279
330
1F
100
AcDbEntity
  8
Linee visibili 2D - Tangent
100
AcDbSpline
210
0.0
220
0.0
230
1.0
 70
    12
 71
     3
 72
    27
 73
    23
 74
     0
 42
0.0000000001
 43
0.0000000001
 40
0.0
 40
0.0
 40
0.0
 40
0.0
 40
3.4076551138567
 40
3.4076551138567
 40
3.4076551138567
 40
7.04280378618598
 40
7.04280378618598
 40
7.04280378618598
 40
10.78991624286724
 40
10.78991624286724
 40
10.78991624286724
 40
14.55812538727966
 40
14.55812538727966
 40
14.55812538727966
 40
19.77465106703761
 40
25.33180432662518
 40
25.33180432662518
 40
25.33180432662518
 40
32.0678426982814
 40
32.0678426982814
 40
32.0678426982814
 40
32.39497994778657
 40
32.39497994778657
 40
32.39497994778657
 40
32.39497994778657
 10
-539.4640104475063
 20
123.0690633060043
 30
0.0
 41
1.0
 10
-540.3558061131204
 20
122.3542218640731
 30
0.0
 41
0.9877260575900828
 10
-541.0946447994938
 20
121.4822039790338
 30
0.0
 41
0.9877260575900829
 10
-541.6533211161668
 20
120.4851189427911
 30
0.0
 41
1.0
 10
-542.2491929631251
 20
119.4223437178533
 30
0.0
 41
0.9890395060125202
 10
-542.6433462599556
 20
118.269435388741
 30
0.0
 41
0.9890395060125206
 10
-542.8228206621377
 20
117.0643032898819
 30
0.0
 41
1.0
 10
-543.0089730199662
 20
115.8230516388135
 30
0.0
 41
0.9903250065578586
 10
-542.9817239151141
 20
114.5682146582104
 30
0.0
 41
0.9903250065578583
 10
-542.7418642523143
 20
113.3362139667468
 30
0.0
 41
1.0
 10
-542.5034744478328
 20
112.0968460771675
 30
0.0
 41
0.990501527413318
 10
-542.0600151235045
 20
110.9152343421768
 30
0.0
 41
0.9905015274133182
 10
-541.4241228380356
 20
109.8250492817938
 30
0.0
 41
1.0
 10
-540.8160517867374
 20
108.7858055626671
 30
0.0
 41
0.9999009458753039
 10
-539.2071031626979
 20
106.878090559646
 30
0.0
 41
0.9994612275172396
 10
-537.0913699241211
 20
105.7770685203675
 30
0.0
 41
0.9986045033473221
 10
-535.953126303555
 20
105.4834808638803
 30
0.0
 41
0.9980897690012746
 10
-533.7023477924637
 20
104.8902579198493
 30
0.0
 41
0.9294724624407557
 10
-531.4213055836099
 20
105.3536840830546
 30
0.0
 41
0.9294724624407549
 10
-529.5804552734248
 20
106.7781796087782
 30
0.0
 41
0.9980897690012746
 10
-529.4937108179033
 20
106.8442712768407
 30
0.0
 41
0.9979442811610232
 10
-529.4083673420638
 20
106.9121623681764
 30
0.0
 41
0.9979442811610225
 10
-529.3244621665118
 20
106.9818231940874
 30
0.0
 41
0.9980897690012746
  0
SPLINE
  5
27A
330
1F
100
AcDbEntity
  8
Linee visibili 2D
100
AcDbSpline
210
0.0
220
0.0
230
1.0
 70
     8
 71
     3
 72
    14
 73
    10
 74
     0
 42
0.0000000001
 43
0.0000000001
 40
0.0
 40
0.0
 40
0.0
 40
0.0
 40
2.966990790763318
 40
5.888990223899642
 40
12.04208662261532
 40
14.95527610344279
 40
17.75935295707328
 40
20.54119849508125
 40
23.0827278163881
 40
23.0827278163881
 40
23.0827278163881
 40
23.0827278163881
 10
-537.166333339105
 20
124.3457504481581
 30
0.0
 10
-537.7107422239837
 20
123.5198651170625
 30
0.0
 10
-538.515475401555
 20
121.7026831960626
 30
0.0
 10
-539.0071243186229
 20
117.6800032719821
 30
0.0
 10
-537.813394851451
 20
113.7022683883326
 30
0.0
 10
-535.2043420600171
 20
110.672402063555
 30
0.0
 10
-532.7664026902443
 20
109.1577951892719
 30
0.0
 10
-530.0728611374384
 20
108.5799162536581
 30
0.0
 10
-528.2904763193819
 20
108.8557569695491
 30
0.0
 10
-527.4895773209446
 20
109.1306610443717
 30
0.0
  0
SPLINE
  5
27B
330
1F
100
AcDbEntity
  8
Linee visibili 2D
100
AcDbSpline
210
0.0
220
0.0
230
1.0
 70
    12
 71
     2
 72
     8
 73
     5
 74
     0
 42
0.0000000001
 43
0.0000000001
 40
0.0
 40
0.0
 40
0.0
 40
2.197586167255897
 40
2.197586167255897
 40
2.729839938352657
 40
2.729839938352657
 40
2.729839938352657
 10
-325.542405358443
 20
74.55034450059247
 30
0.0
 41
1.0
 10
-326.1114366765161
 20
73.60899564676116
 30
0.0
 41
0.9983956542716712
 10
-326.7832514212232
 20
72.73801961129783
 30
0.0
 41
1.0
 10
-326.9438432015797
 20
72.52580456107121
 30
0.0
 41
0.9999848755647041
 10
-327.1067595444126
 20
72.31536879248932
 30
0.0
 41
1.0
  0
SPLINE
  5
27C
330
1F
100
AcDbEntity
  8
Linee visibili 2D
100
AcDbSpline
210
0.0
220
0.0
230
1.0
 70
    12
 71
     2
 72
     6
 73
     3
 74
     0
 42
0.0000000001
 43
0.0000000001
 40
0.0
 40
0.0
 40
0.0
 40
2.818850104057093
 40
2.818850104057093
 40
2.818850104057093
 10
-324.3519201863304
 20
77.42598947157438
 30
0.0
 41
1.0
 10
-324.7038758262286
 20
76.05324879185319
 30
0.0
 41
0.9918524634277981
 10
-325.3913103188531
 20
74.8140056500252
 30
0.0
 41
1.0
  0
SPLINE
  5
27D
330
1F
100
AcDbEntity
  8
Linee visibili 2D
100
AcDbSpline
210
0.0
220
0.0
230
1.0
 70
    12
 71
     2
 72
     6
 73
     3
 74
     0
 42
0.0000000001
 43
0.0000000001
 40
0.0
 40
0.0
 40
0.0
 40
0.1899986496263367
 40
0.1899986496263367
 40
0.1899986496263367
 10
-324.0045123159806
 20
79.9570042631558
 30
0.0
 41
1.0
 10
-324.0061271052596
 20
79.86201609340092
 30
0.0
 41
0.9999594290279038
 10
-324.0094528302178
 20
79.76707242857117
 30
0.0
 41
1.0
  0
SPLINE
  5
27E
330
1F
100
AcDbEntity
  8
Linee visibili 2D
100
AcDbSpline
210
0.0
220
0.0
230
1.0
 70
    12
 71
     2
 72
     6
 73
     3
 74
     0
 42
0.0000000001
 43
0.0000000001
 40
0.0
 40
0.0
 40
0.0
 40
0.1418361960747684
 40
0.1418361960747684
 40
0.1418361960747684
 10
-324.0035629849549
 20
80.24589626833108
 30
0.0
 41
1.0
 10
-324.002823946746
 20
80.17498095104563
 30
0.0
 41
0.9999773675536316
 10
-324.0030391734529
 20
80.10406210953909
 30
0.0
 41
1.0
  0
SPLINE
  5
27F
330
1F
100
AcDbEntity
  8
Linee visibili 2D
100
AcDbSpline
210
0.0
220
0.0
230
1.0
 70
    12
 71
     2
 72
     6
 73
     3
 74
     0
 42
0.0000000001
 43
0.0000000001
 40
0.0
 40
0.0
 40
0.0
 40
4.515365037600786
 40
4.515365037600786
 40
4.515365037600786
 10
-353.4300656309809
 20
103.3997412314042
 30
0.0
 41
1.0
 10
-351.2584866608256
 20
102.7801857112149
 30
0.0
 41
0.999636156980359
 10
-349.1234782035789
 20
102.0444254556266
 30
0.0
 41
1.0
  0
SPLINE
  5
280
330
1F
100
AcDbEntity
  8
Linee visibili 2D
100
AcDbSpline
210
0.0
220
0.0
230
1.0
 70
    12
 71
     2
 72
     6
 73
     3
 74
     0
 42
0.0000000001
 43
0.0000000001
 40
0.0
 40
0.0
 40
0.0
 40
3.372376262844546
 40
3.372376262844546
 40
3.372376262844546
 10
-357.9249348226542
 20
104.5709808200021
 30
0.0
 41
1.0
 10
-356.2859522046018
 20
104.1744547534898
 30
0.0
 41
0.9999297001766977
 10
-354.6568332183829
 20
103.7391752198077
 30
0.0
 41
1.0
  0
SPLINE
  5
281
330
1F
100
AcDbEntity
  8
Linee visibili 2D
100
AcDbSpline
210
0.0
220
0.0
230
1.0
 70
    12
 71
     2
 72
     6
 73
     3
 74
     0
 42
0.0000000001
 43
0.0000000001
 40
0.0
 40
0.0
 40
0.0
 40
2.603169876658659
 40
2.603169876658659
 40
2.603169876658659
 10
-676.9820639362717
 20
180.0539879506402
 30
0.0
 41
1.0
 10
-675.7065333787752
 20
179.7945001629638
 30
0.0
 41
0.9999164422396797
 10
-674.4381373863457
 20
179.5021241696784
 30
0.0
 41
1.0
  0
SPLINE
  5
282
330
1F
100
AcDbEntity
  8
Linee visibili 2D
100
AcDbSpline
210
0.0
220
0.0
230
1.0
 70
    12
 71
     2
 72
     6
 73
     3
 74
     0
 42
0.0000000001
 43
0.0000000001
 40
0.0
 40
0.0
 40
0.0
 40
0.6926590346075607
 40
0.6926590346075607
 40
0.6926590346075607
 10
-717.8451172284517
 20
179.28452702109
 30
0.0
 41
1.0
 10
-717.5071356261886
 20
179.3601162537605
 30
0.0
 41
0.999992740388524
 10
-717.16858779167
 20
179.4331276179897
 30
0.0
 41
1.0
  0
SPLINE
  5
283
330
1F
100
AcDbEntity
  8
Linee visibili 2D
100
AcDbSpline
210
0.0
220
0.0
230
1.0
 70
    12
 71
     2
 72
     6
 73
     3
 74
     0
 42
0.0000000001
 43
0.0000000001
 40
0.0
 40
0.0
 40
0.0
 40
0.8603556377875723
 40
0.8603556377875723
 40
0.8603556377875723
 10
-718.9593375662613
 20
179.0277908570262
 30
0.0
 41
1.0
 10
-718.5407755202039
 20
179.1270970345717
 30
0.0
 41
0.9999880545630304
 10
-718.1212627048868
 20
179.2223068086678
 30
0.0
 41
1.0
  0
SPLINE
  5
284
330
1F
100
AcDbEntity
  8
Linee visibili 2D
100
AcDbSpline
210
0.0
220
0.0
230
1.0
 70
    12
 71
     2
 72
     6
 73
     3
 74
     0
 42
0.0000000001
 43
0.0000000001
 40
0.0
 40
0.0
 40
0.0
 40
0.9592501126034529
 40
0.9592501126034529
 40
0.9592501126034529
 10
-719.9955641466049
 20
178.7750644707899
 30
0.0
 41
1.0
 10
-719.5303181107925
 20
178.8916460247508
 30
0.0
 41
0.9999839012025671
 10
-719.0637790253056
 20
179.0029402935888
 30
0.0
 41
1.0
  0
SPLINE
  5
285
330
1F
100
AcDbEntity
  8
Linee visibili 2D
100
AcDbSpline
210
0.0
220
0.0
230
1.0
 70
    12
 71
     2
 72
     6
 73
     3
 74
     0
 42
0.0000000001
 43
0.0000000001
 40
0.0
 40
0.0
 40
0.0
 40
0.6799221191422917
 40
0.6799221191422917
 40
0.6799221191422917
 10
-724.2536443821815
 20
177.5788924839968
 30
0.0
 41
1.0
 10
-723.9292380727173
 20
177.6805577491206
 30
0.0
 41
0.9999885936109204
 10
-723.6038754162316
 20
177.7791195141078
 30
0.0
 41
1.0
  0
SPLINE
  5
286
330
1F
100
AcDbEntity
  8
Linee visibili 2D
100
AcDbSpline
210
0.0
220
0.0
230
1.0
 70
    12
 71
     2
 72
     6
 73
     3
 74
     0
 42
0.0000000001
 43
0.0000000001
 40
0.0
 40
0.0
 40
0.0
 40
3.89388248722478
 40
3.89388248722478
 40
3.89388248722478
 10
-728.1493609963605
 20
176.2261495850864
 30
0.0
 41
1.0
 10
-726.3304279909486
 20
176.9220373982319
 30
0.0
 41
0.9995655652127985
 10
-724.4736526019846
 20
177.5095425314844
 30
0.0
 41
1.0
  0
SPLINE
  5
287
330
1F
100
AcDbEntity
  8
Linee visibili 2D
100
AcDbSpline
210
0.0
220
0.0
230
1.0
 70
    12
 71
     2
 72
     8
 73
     5
 74
     0
 42
0.0000000001
 43
0.0000000001
 40
0.0
 40
0.0
 40
0.0
 40
0.5978283834029776
 40
0.5978283834029776
 40
3.567240583514508
 40
3.567240583514508
 40
3.567240583514508
 10
-734.8702904897664
 20
173.0629127147487
 30
0.0
 41
1.0
 10
-734.6088027288384
 20
173.2077374985646
 30
0.0
 41
0.9999968680338681
 10
-734.3465933160624
 20
173.3512515779224
 30
0.0
 41
1.0
 10
-733.0466308876782
 20
174.0693260547589
 30
0.0
 41
0.9995983686362779
 10
-731.7080737201564
 20
174.7125973651483
 30
0.0
 41
1.0
  0
SPLINE
  5
288
330
1F
100
AcDbEntity
  8
Linee visibili 2D - Tangent
100
AcDbSpline
210
0.0
220
0.0
230
1.0
 70
    24
 71
     2
 72
     6
 73
     3
 74
     0
 42
0.0000000001
 43
0.0000000001
 40
0.0
 40
0.0
 40
0.0
 40
121.3588196403977
 40
121.3588196403977
 40
121.3588196403977
 10
-476.0191826005918
 20
132.530089287077
 30
0.0
 10
-416.972058711623
 20
118.5505350535396
 30
0.0
 10
-357.9249348226542
 20
104.5709808200021
 30
0.0
  0
SPLINE
  5
289
330
1F
100
AcDbEntity
  8
Linee visibili 2D
100
AcDbSpline
210
0.0
220
0.0
230
1.0
 70
    12
 71
     2
 72
     6
 73
     3
 74
     0
 42
0.0000000001
 43
0.0000000001
 40
0.0
 40
0.0
 40
0.0
 40
2.166372434077463
 40
2.166372434077463
 40
2.166372434077463
 10
-325.3913593140696
 20
74.8140369634861
 30
0.0
 41
1.0
 10
-325.9092731134222
 20
73.86021018849152
 30
0.0
 41
0.9969896626982654
 10
-326.5684237960041
 20
72.99792218677283
 30
0.0
 41
1.0
  0
SPLINE
  5
28A
330
1F
100
AcDbEntity
  8
Linee visibili 2D
100
AcDbSpline
210
0.0
220
0.0
230
1.0
 70
    12
 71
     2
 72
     6
 73
     3
 74
     0
 42
0.0000000001
 43
0.0000000001
 40
0.0
 40
0.0
 40
0.0
 40
0.6012237369561919
 40
0.6012237369561919
 40
0.6012237369561919
 10
-324.7269659724872
 20
76.25870194180362
 30
0.0
 41
1.0
 10
-324.8342266504041
 20
75.97780744113835
 30
0.0
 41
0.9996758104878084
 10
-324.9556474581474
 20
75.70273733920396
 30
0.0
 41
1.0
  0
SPLINE
  5
28B
330
1F
100
AcDbEntity
  8
Linee visibili 2D
100
AcDbSpline
210
0.0
220
0.0
230
1.0
 70
    12
 71
     2
 72
     6
 73
     3
 74
     0
 42
0.0000000001
 43
0.0000000001
 40
0.0
 40
0.0
 40
0.0
 40
2.370832325934258
 40
2.370832325934258
 40
2.370832325934258
 10
-324.0096906284354
 20
79.76708120404953
 30
0.0
 41
1.0
 10
-324.0501651733844
 20
78.57743711005415
 30
0.0
 41
0.9938162723622933
 10
-324.3521970441333
 20
77.42606053906667
 30
0.0
 41
1.0
  0
SPLINE
  5
28C
330
1F
100
AcDbEntity
  8
Linee visibili 2D
100
AcDbSpline
210
0.0
220
0.0
230
1.0
 70
    12
 71
     2
 72
     6
 73
     3
 74
     0
 42
0.0000000001
 43
0.0000000001
 40
0.0
 40
0.0
 40
0.0
 40
0.1470584058135591
 40
0.1470584058135591
 40
0.1470584058135591
 10
-324.0037256598346
 20
80.10406434629931
 30
0.0
 41
1.0
 10
-324.0038590395929
 20
80.0305340883307
 30
0.0
 41
0.999976009406215
 10
-324.0050110414663
 20
79.95701273416216
 30
0.0
 41
1.0
  0
SPLINE
  5
28D
330
1F
100
AcDbEntity
  8
Linee visibili 2D
100
AcDbSpline
210
0.0
220
0.0
230
1.0
 70
    12
 71
     3
 72
    11
 73
     7
 74
     0
 42
0.0000000001
 43
0.0000000001
 40
0.0452155509181365
 40
0.0452155509181365
 40
0.0452155509181365
 40
0.0452155509181365
 40
0.25
 40
0.5
 40
0.75
 40
0.7890625
 40
0.7890625
 40
0.7890625
 40
0.7890625
 10
-354.6570221508383
 20
103.738473617278
 30
0.0
 41
1326.677716782686
 10
-349.7782691687908
 20
102.4054355449526
 30
0.0
 41
1323.554671928056
 10
-339.6262740906139
 20
98.70769739194319
 30
0.0
 41
1314.968064775174
 10
-328.1143344825357
 20
91.00621366070118
 30
0.0
 41
1297.437161663524
 10
-324.2912883863364
 20
84.28639486458218
 30
0.0
 41
1282.518295672676
 10
-324.0099583345466
 20
80.72730101045833
 30
0.0
 41
1274.754787580389
 10
-324.0044138824165
 20
80.24588740254168
 30
0.0
 41
1273.711883028749
  0
SPLINE
  5
28E
330
1F
100
AcDbEntity
  8
Linee visibili 2D - Tangent
100
AcDbSpline
210
0.0
220
0.0
230
1.0
 70
     8
 71
     3
 72
    16
 73
    12
 74
     0
 42
0.0000000001
 43
0.0000000001
 40
0.0
 40
0.0
 40
0.0
 40
0.0
 40
13.8760806094371
 40
26.86442076511759
 40
38.84346463323185
 40
50.32488595039693
 40
60.46990407585709
 40
71.46375616219655
 40
82.11006053543461
 40
100.519415589576
 40
107.4263024687941
 40
107.4263024687941
 40
107.4263024687941
 40
107.4263024687941
 10
-390.9619924298264
 20
-7.968687311258265
 30
0.0
 10
-395.4066176857718
 20
-6.688743093457845
 30
0.0
 10
-404.1224041627319
 20
-4.591510639887332
 30
0.0
 10
-416.9559644622041
 20
-2.763402750384358
 30
0.0
 10
-429.1170691648713
 20
-2.316670639551916
 30
0.0
 10
-440.2996976740122
 20
-3.355842608119787
 30
0.0
 10
-450.8994330127638
 20
-5.879581738692167
 30
0.0
 10
-460.8767769709725
 20
-9.480322593420738
 30
0.0
 10
-473.0297701632549
 20
-15.02148000079313
 30
0.0
 10
-483.631643208778
 20
-20.62307710709351
 30
0.0
 10
-491.2295521895769
 20
-24.29650815950629
 30
0.0
 10
-493.3224722331775
 20
-25.2560902036787
 30
0.0
  0
SPLINE
  5
28F
330
1F
100
AcDbEntity
  8
Linee visibili 2D - Tangent
100
AcDbSpline
210
0.0
220
0.0
230
1.0
 70
     8
 71
     3
 72
    22
 73
    18
 74
     0
 42
0.0000000001
 43
0.0000000001
 40
0.0
 40
0.0
 40
0.0
 40
0.0
 40
11.94561547876697
 40
22.60274068969736
 40
32.29792030474083
 40
37.06491469768982
 40
41.80326755543958
 40
49.74520069615484
 40
58.73313932145572
 40
67.36373252909384
 40
88.66297901429483
 40
99.65025240386908
 40
110.1527988198017
 40
120.1736063272401
 40
130.1427784776643
 40
140.4059990081706
 40
163.0851613288105
 40
163.0851613288105
 40
163.0851613288105
 40
163.0851613288105
 10
-486.9100686874173
 20
42.12388760004032
 30
0.0
 10
-483.0740660901568
 20
41.05647777999008
 30
0.0
 10
-475.7235058246594
 20
39.3594524724956
 30
0.0
 10
-465.0128304619786
 20
38.09698762266382
 30
0.0
 10
-456.6205628906336
 20
38.18958519527609
 30
0.0
 10
-450.2635291232565
 20
38.98134016370477
 30
0.0
 10
-444.5627305219604
 20
40.15240987615746
 30
0.0
 10
-437.6507017852429
 20
42.28661736647007
 30
0.0
 10
-429.7938394381119
 20
45.60249075285796
 30
0.0
 10
-418.1917945075548
 20
51.41181462680782
 30
0.0
 10
-406.3331936349745
 20
58.1645834034864
 30
0.0
 10
-393.4298908075305
 20
64.26638039684008
 30
0.0
 10
-383.5608790501109
 20
67.90199649274703
 30
0.0
 10
-373.6454806564573
 20
70.23982381383848
 30
0.0
 10
-363.5879944008321
 20
71.215097621822
 30
0.0
 10
-349.2665414726326
 20
70.97688421579181
 30
0.0
 10
-338.3845728157225
 20
69.18160600522452
 30
0.0
 10
-331.0509070638175
 20
67.3564616809941
 30
0.0
  0
SPLINE
  5
290
330
1F
100
AcDbEntity
  8
Linee visibili 2D - Tangent
100
AcDbSpline
210
0.0
220
0.0
230
1.0
 70
     8
 71
     3
 72
    15
 73
    11
 74
     0
 42
0.0000000001
 43
0.0000000001
 40
0.0
 40
0.0
 40
0.0
 40
0.0
 40
2.18591466498866
 40
4.15112044679446
 40
6.062886188458031
 40
8.124071708068321
 40
10.50639027135884
 40
13.25185511000798
 40
16.38885492712133
 40
19.79550874809632
 40
19.79550874809632
 40
19.79550874809632
 40
19.79550874809632
 10
-486.9100686874173
 20
42.12388760004032
 30
0.0
 10
-486.3928268748268
 20
42.6363844679752
 30
0.0
 10
-485.5165326429736
 20
43.72654040127625
 30
0.0
 10
-484.8373037115526
 20
45.66980044972999
 30
0.0
 10
-484.9898536848441
 20
47.6867713582472
 30
0.0
 10
-485.9415600546368
 20
49.6122274054938
 30
0.0
 10
-487.5800870659641
 20
51.38487592272162
 30
0.0
 10
-489.8445002328611
 20
52.97410727931603
 30
0.0
 10
-492.642069463164
 20
54.31992179100266
 30
0.0
 10
-494.7148473966389
 20
55.00995337968686
 30
0.0
 10
-495.8104552052985
 20
55.30898123563526
 30
0.0
  0
SPLINE
  5
291
330
1F
100
AcDbEntity
  8
Linee visibili 2D - Tangent
100
AcDbSpline
210
0.0
220
0.0
230
1.0
 70
    24
 71
     2
 72
     6
 73
     3
 74
     0
 42
0.0000000001
 43
0.0000000001
 40
0.0
 40
0.0
 40
0.0
 40
75.68598696370108
 40
75.68598696370108
 40
75.68598696370108
 10
-540.7487316846539
 20
-11.07166662528491
 30
0.0
 10
-513.8294001860356
 20
15.52611048737771
 30
0.0
 10
-486.9100686874173
 20
42.12388760004032
 30
0.0
  0
SPLINE
  5
292
330
1F
100
AcDbEntity
  8
Linee visibili 2D - Tangent
100
AcDbSpline
210
0.0
220
0.0
230
1.0
 70
    12
 71
     3
 72
    15
 73
    11
 74
     0
 42
0.0000000001
 43
0.0000000001
 40
-184.9999985141801
 40
-184.9999985141801
 40
-184.9999985141801
 40
-184.9999985141801
 40
-123.3333323427867
 40
-98.00000278335914
 40
-98.00000278335914
 40
-98.00000278335914
 40
-88.00000278335912
 40
-88.00000278335912
 40
-88.00000278335912
 40
-61.52385869065867
 40
-61.52385869065867
 40
-61.52385869065867
 40
-61.52385869065867
 10
-620.3639490018517
 20
79.22220088753046
 30
0.0
 41
1462.43578361417
 10
-628.5280575263876
 20
72.93807504917775
 30
0.0
 41
1447.009513326418
 10
-640.36805751139
 20
63.84720100402129
 30
0.0
 41
1425.260520286859
 10
-652.5750057861105
 20
54.4745802792073
 30
0.0
 41
1403.511527247299
 10
-656.2266988506246
 20
51.69815313457268
 30
0.0
 41
1397.195741470535
 10
-657.6668973955451
 20
50.59219725564245
 30
0.0
 41
1394.695727720421
 10
-659.1122683686364
 20
49.48226937065539
 30
0.0
 41
1392.195713970308
 10
-660.5628396849482
 20
48.36834804311304
 30
0.0
 41
1389.695700220195
 10
-667.5496531359157
 20
42.97651479327215
 30
0.0
 41
1389.694419699737
 10
-674.545421517969
 20
37.59630543513509
 30
0.0
 41
1389.694419699737
 10
-681.5501254925764
 20
32.22773484131405
 30
0.0
 41
1389.695700220195
  0
SPLINE
  5
293
330
1F
100
AcDbEntity
  8
Linee visibili 2D - Tangent
100
AcDbSpline
210
0.0
220
0.0
230
1.0
 70
     8
 71
     3
 72
    14
 73
    10
 74
     0
 42
0.0000000001
 43
0.0000000001
 40
0.0
 40
0.0
 40
0.0
 40
0.0
 40
29.27130446424511
 40
39.86032376952544
 40
51.21190767438321
 40
61.11425116814967
 40
81.36616651175588
 40
91.529547166441
 40
101.4526306358782
 40
101.4526306358782
 40
101.4526306358782
 40
101.4526306358782
 10
-754.812768777138
 20
54.8999341214857
 30
0.0
 10
-761.283885145111
 20
62.20394167799628
 30
0.0
 10
-769.6760065763118
 20
72.50897804603198
 30
0.0
 10
-780.9642892231406
 20
85.31822242449363
 30
0.0
 10
-788.3233199783539
 20
92.97076892170458
 30
0.0
 10
-798.5338461133068
 20
102.3248041760318
 30
0.0
 10
-809.6920126336261
 20
109.934211932092
 30
0.0
 10
-821.8674402517236
 20
115.6921623322758
 30
0.0
 10
-828.182362548195
 20
117.9347844094929
 30
0.0
 10
-831.3639414890145
 20
118.8462341672687
 30
0.0
  0
SPLINE
  5
294
330
1F
100
AcDbEntity
  8
Linee visibili 2D - Tangent
100
AcDbSpline
210
0.0
220
0.0
230
1.0
 70
     8
 71
     3
 72
    14
 73
    10
 74
     0
 42
0.0000000001
 43
0.0000000001
 40
0.0
 40
0.0
 40
0.0
 40
0.0
 40
0.4477892109142523
 40
1.181702794847973
 40
2.566375713336587
 40
5.539158981703578
 40
12.25313604951762
 40
19.43593096331935
 40
26.322965438269
 40
26.322965438269
 40
26.322965438269
 40
26.322965438269
 10
-620.3639490018517
 20
79.22220088753045
 30
0.0
 10
-620.2525622020801
 20
79.32193094961474
 30
0.0
 10
-619.9367393170032
 20
79.55726315189258
 30
0.0
 10
-619.2237076821343
 20
80.03124661062583
 30
0.0
 10
-617.7489937094821
 20
80.87281082832857
 30
0.0
 10
-614.3320414875599
 20
82.2986663841852
 30
0.0
 10
-608.8059187515091
 20
83.48600407885311
 30
0.0
 10
-601.8564652777427
 20
83.70289957632463
 30
0.0
 10
-597.1961600747078
 20
83.00381546210002
 30
0.0
 10
-594.979390707145
 20
82.40342990440354
 30
0.0
  0
SPLINE
  5
295
330
1F
100
AcDbEntity
  8
Linee visibili 2D
100
AcDbSpline
210
0.0
220
0.0
230
1.0
 70
    12
 71
     3
 72
    10
 73
     6
 74
     0
 42
0.0000000001
 43
0.0000000001
 40
-0.671875
 40
-0.671875
 40
-0.671875
 40
-0.671875
 40
-0.5
 40
-0.25
 40
-0.0451993818197474
 40
-0.0451993818197474
 40
-0.0451993818197474
 40
-0.0451993818197474
 10
-717.1685150884479
 20
179.4327905413855
 30
0.0
 41
1531.934355830673
 10
-713.662762817058
 20
180.188370207678
 30
0.0
 41
1534.303874572588
 10
-704.5789782905334
 20
181.6126619485271
 30
0.0
 41
1538.790483104169
 10
-690.397811155024
 20
181.9721943506469
 30
0.0
 41
1539.927183632879
 10
-680.9000598950607
 20
180.8275967929714
 30
0.0
 41
1536.314238183736
 10
-676.9821811380712
 20
180.0534065478023
 30
0.0
 41
1533.880087225005
  0
SPLINE
  5
296
330
1F
100
AcDbEntity
  8
Linee visibili 2D
100
AcDbSpline
210
0.0
220
0.0
230
1.0
 70
    12
 71
     2
 72
     6
 73
     3
 74
     0
 42
0.0000000001
 43
0.0000000001
 40
0.0
 40
0.0
 40
0.0
 40
0.2830675973808414
 40
0.2830675973808414
 40
0.2830675973808414
 10
-718.1212028900992
 20
179.2220432981467
 30
0.0
 41
1.0
 10
-717.9831793307732
 20
179.2533697618586
 30
0.0
 41
0.9999987238078824
 10
-717.8450563807212
 20
179.2842550484311
 30
0.0
 41
1.0
  0
SPLINE
  5
297
330
1F
100
AcDbEntity
  8
Linee visibili 2D
100
AcDbSpline
210
0.0
220
0.0
230
1.0
 70
    12
 71
     2
 72
     6
 73
     3
 74
     0
 42
0.0000000001
 43
0.0000000001
 40
0.0
 40
0.0
 40
0.0
 40
0.1073567808459295
 40
0.1073567808459295
 40
0.1073567808459295
 10
-719.0637053420651
 20
179.0026314733325
 30
0.0
 41
1.0
 10
-719.0114937859333
 20
179.0150943685229
 30
0.0
 41
0.9999998043051926
 10
-718.9592666768172
 20
179.0274919256849
 30
0.0
 41
1.0
  0
SPLINE
  5
298
330
1F
100
AcDbEntity
  8
Linee visibili 2D
100
AcDbSpline
210
0.0
220
0.0
230
1.0
 70
    12
 71
     2
 72
     6
 73
     3
 74
     0
 42
0.0000000001
 43
0.0000000001
 40
0.0
 40
0.0
 40
0.0
 40
3.743579417179451
 40
3.743579417179451
 40
3.743579417179451
 10
-723.6037548880986
 20
177.7787216358668
 30
0.0
 41
1.0
 10
-721.8116361988332
 20
178.3202660713091
 30
0.0
 41
0.9997083264555564
 10
-719.9954582062117
 20
178.774641765081
 30
0.0
 41
1.0
  0
SPLINE
  5
299
330
1F
100
AcDbEntity
  8
Linee visibili 2D
100
AcDbSpline
210
0.0
220
0.0
230
1.0
 70
    12
 71
     2
 72
     6
 73
     3
 74
     0
 42
0.0000000001
 43
0.0000000001
 40
0.0
 40
0.0
 40
0.0
 40
0.2306789652049178
 40
0.2306789652049178
 40
0.2306789652049178
 10
-724.4735967809672
 20
177.5093664742416
 30
0.0
 41
1.0
 10
-724.3636391391309
 20
177.5441879742227
 30
0.0
 41
0.9999986688103066
 10
-724.253568447896
 20
177.5786504580308
 30
0.0
 41
1.0
  0
SPLINE
  5
29A
330
1F
100
AcDbEntity
  8
Linee visibili 2D
100
AcDbSpline
210
0.0
220
0.0
230
1.0
 70
    12
 71
     2
 72
     6
 73
     3
 74
     0
 42
0.0000000001
 43
0.0000000001
 40
0.0
 40
0.0
 40
0.0
 40
3.868062394863339
 40
3.868062394863339
 40
3.868062394863339
 10
-731.7080612587396
 20
174.7125744538503
 30
0.0
 41
1.0
 10
-729.9564133810691
 20
175.5344944797736
 30
0.0
 41
0.999329652045596
 10
-728.1493211634458
 20
176.2260438513779
 30
0.0
 41
1.0
  0
SPLINE
  5
29B
330
1F
100
AcDbEntity
  8
Linee visibili 2D
100
AcDbSpline
210
0.0
220
0.0
230
1.0
 70
    12
 71
     2
 72
     6
 73
     3
 74
     0
 42
0.0000000001
 43
0.0000000001
 40
0.0
 40
0.0
 40
0.0
 40
2.215779970026702
 40
2.215779970026702
 40
2.215779970026702
 10
-734.3538216948549
 20
173.3530998687487
 30
0.0
 41
1.0
 10
-733.3872396914517
 20
173.8950923741105
 30
0.0
 41
0.9996235246579303
 10
-732.3923824967774
 20
174.3832478896746
 30
0.0
 41
1.0
  0
SPLINE
  5
29C
330
1F
100
AcDbEntity
  8
Linee visibili 2D - Tangent
100
AcDbSpline
210
0.0
220
0.0
230
1.0
 70
    24
 71
     2
 72
     6
 73
     3
 74
     0
 42
0.0000000001
 43
0.0000000001
 40
0.0
 40
0.0
 40
0.0
 40
100.5676957569735
 40
100.5676957569735
 40
100.5676957569735
 10
-674.4381373863457
 20
179.5021241696784
 30
0.0
 10
-625.506703780738
 20
167.9185080345161
 30
0.0
 10
-576.5752701751302
 20
156.3348918993538
 30
0.0
  0
SPLINE
  5
29D
330
1F
100
AcDbEntity
  8
Linee visibili 2D - Tangent
100
AcDbSpline
210
0.0
220
0.0
230
1.0
 70
    15
 71
     3
 72
    48
 73
    44
 74
     0
 42
0.0000000001
 43
0.0000000001
 40
0.0
 40
0.0
 40
0.0
 40
0.0
 40
4.068959911879072
 40
4.068959911879072
 40
4.068959911879072
 40
8.17488355688373
 40
8.17488355688373
 40
8.17488355688373
 40
12.16112046087016
 40
12.16112046087016
 40
12.16112046087016
 40
15.95753293746849
 40
15.95753293746849
 40
15.95753293746849
 40
19.62704917905317
 40
19.62704917905317
 40
19.62704917905317
 40
23.29717952074309
 40
23.29717952074309
 40
23.29717952074309
 40
27.06178834496622
 40
27.06178834496622
 40
27.06178834496622
 40
30.96089226287049
 40
30.96089226287049
 40
30.96089226287049
 40
34.98590706849605
 40
34.98590706849605
 40
34.98590706849605
 40
39.04149171237493
 40
39.04149171237493
 40
39.04149171237493
 40
44.25801739213315
 40
49.81517065172104
 40
49.81517065172104
 40
49.81517065172104
 40
57.05339323642929
 40
57.05339323642929
 40
57.05339323642929
 40
60.75984896406045
 40
60.75984896406045
 40
60.75984896406045
 40
64.66005267350477
 40
64.66005267350477
 40
64.66005267350477
 40
64.66005267350477
 10
-525.8494497204427
 20
112.5409329768358
 30
0.0
 41
1.0
 10
-525.661326439416
 20
113.8903220923398
 30
0.0
 41
0.9910490281464368
 10
-525.6961080097398
 20
115.2523175388341
 30
0.0
 41
0.9910490281464368
 10
-525.9528604448433
 20
116.5903457675998
 30
0.0
 41
1.0
 10
-526.2073889805788
 20
117.9414238387274
 30
0.0
 41
0.9910088648173078
 10
-526.6796307595833
 20
119.2326188015229
 30
0.0
 41
0.9910088648173081
 10
-527.356847812835
 20
120.429102730613
 30
0.0
 41
1.0
 10
-528.0113778597299
 20
121.5943113957024
 30
0.0
 41
0.9885111622088629
 10
-528.8700170621419
 20
122.6184498314461
 30
0.0
 41
0.988511162208863
 10
-529.9031711205186
 20
123.4662195567532
 30
0.0
 41
1.0
 10
-530.8894058998716
 20
124.2751633862297
 30
0.0
 41
0.9842829749602595
 10
-532.0270077724063
 20
124.8521479084294
 30
0.0
 41
0.9842829749602592
 10
-533.2623375867756
 20
125.1699676828038
 30
0.0
 41
1.0
 10
-534.4592049423704
 20
125.4720493457728
 30
0.0
 41
0.9819391157407166
 10
-535.6934857659721
 20
125.4892437192343
 30
0.0
 41
0.9819391157407162
 10
-536.898303448286
 20
125.2206191664204
 30
0.0
 41
1.0
 10
-538.1011887195807
 20
124.9475310022753
 30
0.0
 41
0.9837012887794871
 10
-539.2146494509673
 20
124.4167623888907
 30
0.0
 41
0.9837012887794867
 10
-540.1842417176965
 20
123.6542658593298
 30
0.0
 41
1.0
 10
-541.1769702772166
 20
122.8729322826343
 30
0.0
 41
0.9866841971346767
 10
-541.9944881669213
 20
121.9097829427236
 30
0.0
 41
0.9866841971346763
 10
-542.6041376656376
 20
120.8032931598186
 30
0.0
 41
1.0
 10
-543.2354211780676
 20
119.6588874280405
 30
0.0
 41
0.9889190040784914
 10
-543.6484250643709
 20
118.4188829353511
 30
0.0
 41
0.9889190040784906
 10
-543.8294198414085
 20
117.1245011359282
 30
0.0
 41
1.0
 10
-544.0175517260856
 20
115.7894342690002
 30
0.0
 41
0.9902692026451196
 10
-543.9756648930058
 20
114.4418280066163
 30
0.0
 41
0.9902692026451199
 10
-543.7049821190237
 20
113.1210221991373
 30
0.0
 41
1.0
 10
-543.4351478992514
 20
111.7897686998716
 30
0.0
 41
0.9905195641536533
 10
-542.9454405685105
 20
110.5227907538578
 30
0.0
 41
0.9905195641536534
 10
-542.2497880435988
 20
109.3561228705033
 30
0.0
 41
1.0
 10
-541.5838895733868
 20
108.2422489809552
 30
0.0
 41
0.9999052962179172
 10
-539.8309238121884
 20
106.1986965040813
 30
0.0
 41
0.9994512118802455
 10
-537.5393385782701
 20
105.0157915018165
 30
0.0
 41
0.9985335436696718
 10
-536.3101260301919
 20
104.6982765389527
 30
0.0
 41
0.9979776540740852
 10
-533.8940118812615
 20
104.0527441055632
 30
0.0
 41
0.9295923593762799
 10
-531.4411756834573
 20
104.5405086901341
 30
0.0
 41
0.92959235937628
 10
-529.4558509500674
 20
106.0612997363372
 30
0.0
 41
0.9979776540740852
 10
-528.4691594780226
 20
106.8196368536026
 30
0.0
 41
0.9836947603446395
 10
-527.6599386223321
 20
107.7650451522462
 30
0.0
 41
0.9836947603446395
 10
-527.0629326944697
 20
108.8569330432525
 30
0.0
 41
0.9979776540740852
 10
-526.4359671430361
 20
110.0040760370686
 30
0.0
 41
0.9869905898562477
 10
-526.0269700346794
 20
111.2457459675669
 30
0.0
 41
0.9869905898562469
 10
-525.8494497204427
 20
112.5409329768358
 30
0.0
 41
0.9979776540740852
  0
SPLINE
  5
29E
330
1F
100
AcDbEntity
  8
Linee visibili 2D - Tangent
100
AcDbSpline
210
0.0
220
0.0
230
1.0
 70
     8
 71
     3
 72
    25
 73
    21
 74
     0
 42
0.0000000001
 43
0.0000000001
 40
0.0
 40
0.0
 40
0.0
 40
0.0
 40
0.7827635997657256
 40
1.903376421246808
 40
4.524465315080048
 40
7.569323561273884
 40
11.84212668385668
 40
17.25569419677013
 40
23.79437353059874
 40
29.34626221592951
 40
41.48940356641168
 40
47.46286732273744
 40
53.95949891262642
 40
60.25490343840502
 40
66.32576623815358
 40
68.88035517088112
 40
70.94917362028195
 40
74.41489176761061
 40
75.94438900785359
 40
77.10151221711406
 40
77.10151221711406
 40
77.10151221711406
 40
77.10151221711406
 10
-576.5752701751302
 20
156.3348918993538
 30
0.0
 10
-576.7882252672371
 20
156.1834677827313
 30
0.0
 10
-577.2477689336745
 20
155.7411028619132
 30
0.0
 10
-578.128281403119
 20
154.510773010498
 30
0.0
 10
-579.0964515334135
 20
152.4544371827999
 30
0.0
 10
-580.0506179365469
 20
149.2783964006977
 30
0.0
 10
-580.9661145621686
 20
145.1327182344718
 30
0.0
 10
-581.9301279319342
 20
139.8108684773212
 30
0.0
 10
-582.830548753953
 20
134.0453760884176
 30
0.0
 10
-583.9030551059311
 20
126.0388225469071
 30
0.0
 10
-584.7936060823228
 20
118.199118985575
 30
0.0
 10
-585.9405552698922
 20
110.0745719553976
 30
0.0
 10
-587.0380871214965
 20
103.9148525014112
 30
0.0
 10
-588.425196006167
 20
97.78061242843398
 30
0.0
 10
-589.7285660000363
 20
92.97922597769883
 30
0.0
 10
-590.8375480093714
 20
89.590045686309
 30
0.0
 10
-591.8060701551815
 20
87.07394458626453
 30
0.0
 10
-592.8386823817018
 20
84.94841347519196
 30
0.0
 10
-594.045006321976
 20
83.28219920612042
 30
0.0
 10
-594.6766024583499
 20
82.64318030004006
 30
0.0
 10
-594.979390707145
 20
82.40342990440354
 30
0.0
  0
SPLINE
  5
29F
330
1F
100
AcDbEntity
  8
Linee visibili 2D - Tangent
100
AcDbSpline
210
0.0
220
0.0
230
1.0
 70
    24
 71
     2
 72
     6
 73
     3
 74
     0
 42
0.0000000001
 43
0.0000000001
 40
0.0
 40
0.0
 40
0.0
 40
103.3353539487222
 40
103.3353539487222
 40
103.3353539487222
 10
-476.0191826005918
 20
132.530089287077
 30
0.0
 10
-526.297226387861
 20
144.4324905932154
 30
0.0
 10
-576.5752701751302
 20
156.3348918993538
 30
0.0
  0
SPLINE
  5
2A0
330
1F
100
AcDbEntity
  8
Linee visibili 2D - Tangent
100
AcDbSpline
210
0.0
220
0.0
230
1.0
 70
     8
 71
     3
 72
    24
 73
    20
 74
     0
 42
0.0000000001
 43
0.0000000001
 40
0.0
 40
0.0
 40
0.0
 40
0.0
 40
1.157545099267925
 40
2.722362906928722
 40
6.321388951198238
 40
11.15289637158007
 40
17.50309945591473
 40
24.08606835076886
 40
30.87317984715107
 40
37.10694567077434
 40
49.77135664991442
 40
55.56561194712949
 40
62.39624113700974
 40
68.056740800579
 40
72.52808628418651
 40
75.71306002964843
 40
78.4359674384511
 40
79.58017234336108
 40
80.35707593293309
 40
80.35707593293309
 40
80.35707593293309
 40
80.35707593293309
 10
-495.8104552052985
 20
55.30898123563523
 30
0.0
 10
-495.5313889686274
 20
55.57604686713191
 30
0.0
 10
-494.9478182727042
 20
56.27403085083884
 30
0.0
 10
-493.8172124962513
 20
58.05731558032096
 30
0.0
 10
-492.4558923619303
 20
61.10709563473577
 30
0.0
 10
-490.9048503045516
 20
65.78573116732153
 30
0.0
 10
-489.3394915017377
 20
71.49824834046404
 30
0.0
 10
-487.8157914501825
 20
77.89331820154831
 30
0.0
 10
-486.5472137639065
 20
84.30505655503259
 30
0.0
 10
-485.1257688216951
 20
92.74823000743606
 30
0.0
 10
-483.94674607587
 20
100.8948392844251
 30
0.0
 10
-482.5963558587592
 20
109.2158010684257
 30
0.0
 10
-481.5156532608287
 20
115.2146995861109
 30
0.0
 10
-480.4036544676402
 20
120.7587670372912
 30
0.0
 10
-479.3919208141161
 20
125.0818893021562
 30
0.0
 10
-478.4062532262262
 20
128.4007268397973
 30
0.0
 10
-477.4627430677698
 20
130.5622001317057
 30
0.0
 10
-476.6389161888395
 20
131.8766042643844
 30
0.0
 10
-476.2152002519072
 20
132.3603048232805
 30
0.0
 10
-476.0191826005917
 20
132.5300892870771
 30
0.0
  0
SPLINE
  5
2A1
330
1F
100
AcDbEntity
  8
Linee visibili 2D - Tangent
100
AcDbSpline
210
0.0
220
0.0
230
1.0
 70
    24
 71
     2
 72
     6
 73
     3
 74
     0
 42
0.0000000001
 43
0.0000000001
 40
0.0
 40
0.0
 40
0.0
 40
102.8036328017347
 40
102.8036328017347
 40
102.8036328017347
 10
-594.979390707145
 20
82.40342990440354
 30
0.0
 10
-545.3949229562218
 20
68.85620557001938
 30
0.0
 10
-495.8104552052985
 20
55.30898123563523
 30
0.0
  0
SPLINE
  5
2A2
330
1F
100
AcDbEntity
  8
Linee visibili 2D - Tangent
100
AcDbSpline
210
0.0
220
0.0
230
1.0
 70
    12
 71
     2
 72
     6
 73
     3
 74
     0
 42
0.0000000001
 43
0.0000000001
 40
0.0
 40
0.0
 40
0.0
 40
0.4316314735627459
 40
0.4316314735627459
 40
0.4316314735627459
 10
-292.5646486101913
 20
56.87827168906404
 30
0.0
 41
1.0
 10
-292.4339045211402
 20
57.05511710840163
 30
0.0
 41
0.9721873056094716
 10
-292.3980357043263
 20
57.27210039610571
 30
0.0
 41
1.0
  0
SPLINE
  5
2A3
330
1F
100
AcDbEntity
  8
Linee visibili 2D - Tangent
100
AcDbSpline
210
0.0
220
0.0
230
1.0
 70
    12
 71
     2
 72
     6
 73
     3
 74
     0
 42
0.0000000001
 43
0.0000000001
 40
0.0
 40
0.0
 40
0.0
 40
0.4059309861512112
 40
0.4059309861512112
 40
0.4059309861512112
 10
-283.1581646804869
 20
119.1090290589332
 30
0.0
 41
1.0
 10
-283.193098517057
 20
118.9044372510255
 30
0.0
 41
0.9671742656048848
 10
-283.324086823289
 20
118.7434395975303
 30
0.0
 41
1.0
  0
SPLINE
  5
2A4
330
1F
100
AcDbEntity
  8
Linee visibili 2D - Tangent
100
AcDbSpline
210
0.0
220
0.0
230
1.0
 70
    12
 71
     2
 72
     6
 73
     3
 74
     0
 42
0.0000000001
 43
0.0000000001
 40
0.53125
 40
0.53125
 40
0.53125
 40
1.0
 40
1.0
 40
1.0
 10
-872.7525607988928
 20
23.36715407412097
 30
0.0
 41
1149.264038325484
 10
-872.6259440725289
 20
22.60728783905948
 30
0.0
 41
1159.444707079909
 10
-871.4689506903571
 20
22.20716883158793
 30
0.0
 41
1343.130443396359
  0
SPLINE
  5
2A5
330
1F
100
AcDbEntity
  8
Linee visibili 2D - Tangent
100
AcDbSpline
210
0.0
220
0.0
230
1.0
 70
    12
 71
     2
 72
     6
 73
     3
 74
     0
 42
0.0000000001
 43
0.0000000001
 40
0.0
 40
0.0
 40
0.0
 40
0.46875
 40
0.46875
 40
0.46875
 10
-881.7545409991682
 20
86.49789078115387
 30
0.0
 41
1298.130195894317
 10
-882.945029850863
 20
86.87070171888173
 30
0.0
 41
1120.62270989099
 10
-883.063471184082
 20
87.57866314731659
 30
0.0
 41
1110.828181781136
  0
SPLINE
  5
2A6
330
1F
100
AcDbEntity
  8
Linee visibili 2D - Tangent
100
AcDbSpline
210
0.0
220
0.0
230
1.0
 70
    12
 71
     2
 72
     6
 73
     3
 74
     0
 42
0.0000000001
 43
0.0000000001
 40
0.0
 40
0.0
 40
0.0
 40
0.2922639169081205
 40
0.2922639169081205
 40
0.2922639169081205
 10
-286.6663347023801
 20
123.1604003660334
 30
0.0
 41
1373.91061265411
 10
-286.3988415265788
 20
123.4967148090779
 30
0.0
 41
1257.075938394373
 10
-286.2086034682179
 20
123.4544796659404
 30
0.0
 41
1209.068249862599
  0
SPLINE
  5
2A7
330
1F
100
AcDbEntity
  8
Linee visibili 2D - Tangent
100
AcDbSpline
210
0.0
220
0.0
230
1.0
 70
    24
 71
     2
 72
     6
 73
     3
 74
     0
 42
0.0000000001
 43
0.0000000001
 40
0.0
 40
0.0
 40
0.0
 40
394.1816856224116
 40
394.1816856224116
 40
394.1816856224116
 10
-286.6663347023801
 20
123.1604003660334
 30
0.0
 10
-479.0613359790007
 20
165.9267867436618
 30
0.0
 10
-671.4563372556213
 20
208.6931731212903
 30
0.0
  0
SPLINE
  5
2A8
330
1F
100
AcDbEntity
  8
Linee visibili 2D - Tangent
100
AcDbSpline
210
0.0
220
0.0
230
1.0
 70
    12
 71
     2
 72
     6
 73
     3
 74
     0
 42
0.0000000001
 43
0.0000000001
 40
0.0
 40
0.0
 40
0.0
 40
0.8568636998190478
 40
0.8568636998190478
 40
0.8568636998190478
 10
-670.6325234751308
 20
208.8438869626847
 30
0.0
 41
1.0
 10
-671.0736250230655
 20
208.9281103505955
 30
0.0
 41
0.9324670979614846
 10
-671.4563372556213
 20
208.6931731212903
 30
0.0
 41
1.0
  0
SPLINE
  5
2A9
330
1F
100
AcDbEntity
  8
Linee visibili 2D - Tangent
100
AcDbSpline
210
0.0
220
0.0
230
1.0
 70
    12
 71
     2
 72
     6
 73
     3
 74
     0
 42
0.0000000001
 43
0.0000000001
 40
0.0
 40
0.0
 40
0.0
 40
1.34622554614868
 40
1.34622554614868
 40
1.34622554614868
 10
-293.0636017337728
 20
55.64159320895911
 30
0.0
 41
1.0
 10
-292.6640395457392
 20
56.19937855952185
 30
0.0
 41
0.9717834216443784
 10
-292.5646486101912
 20
56.87827168906404
 30
0.0
 41
1.0
  0
SPLINE
  5
2AA
330
1F
100
AcDbEntity
  8
Linee visibili 2D - Tangent
100
AcDbSpline
210
0.0
220
0.0
230
1.0
 70
    12
 71
     2
 72
     6
 73
     3
 74
     0
 42
0.0000000001
 43
0.0000000001
 40
0.0
 40
0.0
 40
0.0
 40
0.5460801430440627
 40
0.5460801430440627
 40
0.5460801430440627
 10
-871.4689506903571
 20
22.20716883158793
 30
0.0
 41
1343.130443396359
 10
-871.2153104918898
 20
20.62177499561862
 30
0.0
 41
1129.27124918627
 10
-870.0609356859112
 20
20.22163584389136
 30
0.0
 41
1150.844355974418
  0
SPLINE
  5
2AB
330
1F
100
AcDbEntity
  8
Linee visibili 2D
100
AcDbSpline
210
0.0
220
0.0
230
1.0
 70
    12
 71
     2
 72
    10
 73
     7
 74
     0
 42
0.0000000001
 43
0.0000000001
 40
-77.85707546264648
 40
-77.85707546264648
 40
-77.85707546264648
 40
-70.69258046085343
 40
-70.69258046085343
 40
-35.34629023042672
 40
-35.34629023042672
 40
-16.71821371116302
 40
-16.71821371116302
 40
-16.71821371116302
 10
-589.863766541924
 20
41.61426822904386
 30
0.0
 41
1262.638762220025
 10
-589.2496562638239
 20
42.91399689078112
 30
0.0
 41
1314.596460183561
 10
-587.8971490082816
 20
44.06319943362661
 30
0.0
 41
1400.138257970581
 10
-579.1426484865123
 20
51.50175048001346
 30
0.0
 41
1001.97974937113
 10
-564.1772250847166
 20
47.22899315202955
 30
0.0
 41
1407.270797199654
 10
-557.516282568454
 20
45.3272366708714
 30
0.0
 41
1186.414486774998
 10
-555.7543664491892
 20
41.57912132728837
 30
0.0
 41
1190.955041302491
  0
SPLINE
  5
2AC
330
1F
100
AcDbEntity
  8
Linee visibili 2D - Tangent
100
AcDbSpline
210
0.0
220
0.0
230
1.0
 70
    24
 71
     2
 72
     6
 73
     3
 74
     0
 42
0.0000000001
 43
0.0000000001
 40
0.0
 40
0.0
 40
0.0
 40
12.07687107373389
 40
12.07687107373389
 40
12.07687107373389
 10
-538.0730811018907
 20
115.1278922969037
 30
0.0
 10
-532.2167348812186
 20
113.6561882925205
 30
0.0
 10
-526.3603886605465
 20
112.1844842881373
 30
0.0
  0
SPLINE
  5
2AD
330
1F
100
AcDbEntity
  8
Linee visibili 2D - Tangent
100
AcDbSpline
210
0.0
220
0.0
230
1.0
 70
    24
 71
     2
 72
     6
 73
     3
 74
     0
 42
0.0000000001
 43
0.0000000001
 40
0.0
 40
0.0
 40
0.0
 40
62.551474662715
 40
62.551474662715
 40
62.551474662715
 10
-292.5646486101913
 20
56.87827168906404
 30
0.0
 10
-287.9443677167401
 20
87.81085564329715
 30
0.0
 10
-283.324086823289
 20
118.7434395975303
 30
0.0
  0
SPLINE
  5
2AE
330
1F
100
AcDbEntity
  8
Linee visibili 2D - Tangent
100
AcDbSpline
210
0.0
220
0.0
230
1.0
 70
    24
 71
     2
 72
     6
 73
     3
 74
     0
 42
0.0000000001
 43
0.0000000001
 40
0.0
 40
0.0
 40
0.0
 40
228.2749514836563
 40
228.2749514836563
 40
228.2749514836563
 10
-292.5646486101913
 20
56.87827168906404
 30
0.0
 10
-359.1847874738836
 20
-35.79923618905468
 30
0.0
 10
-425.8049263375759
 20
-128.4767440671734
 30
0.0
  0
SPLINE
  5
2AF
330
1F
100
AcDbEntity
  8
Linee visibili 2D - Tangent
100
AcDbSpline
210
0.0
220
0.0
230
1.0
 70
    24
 71
     2
 72
     6
 73
     3
 74
     0
 42
0.0000000001
 43
0.0000000001
 40
0.0
 40
0.0
 40
0.0
 40
12.58034004078198
 40
12.58034004078198
 40
12.58034004078198
 10
-538.6778130188932
 20
120.0901036897388
 30
0.0
 10
-532.5741848587434
 20
118.5695899055024
 30
0.0
 10
-526.4705566985937
 20
117.049076121266
 30
0.0
  0
SPLINE
  5
2B0
330
1F
100
AcDbEntity
  8
Linee visibili 2D - Tangent
100
AcDbSpline
210
0.0
220
0.0
230
1.0
 70
    24
 71
     2
 72
     6
 73
     3
 74
     0
 42
0.0000000001
 43
0.0000000001
 40
0.0
 40
0.0
 40
0.0
 40
464.5950042710689
 40
464.5950042710689
 40
464.5950042710689
 10
-432.3887353322855
 20
-129.638418772214
 30
0.0
 10
-651.9288430113214
 20
-53.71562497031303
 30
0.0
 10
-871.4689506903572
 20
22.20716883158792
 30
0.0
  0
SPLINE
  5
2B1
330
1F
100
AcDbEntity
  8
Linee visibili 2D - Tangent
100
AcDbSpline
210
0.0
220
0.0
230
1.0
 70
    24
 71
     2
 72
     6
 73
     3
 74
     0
 42
0.0000000001
 43
0.0000000001
 40
0.0
 40
0.0
 40
0.0
 40
65.10829668173713
 40
65.10829668173713
 40
65.10829668173713
 10
-871.4689506903572
 20
22.20716883158792
 30
0.0
 10
-876.6117458447627
 20
54.35252980637088
 30
0.0
 10
-881.7545409991682
 20
86.49789078115384
 30
0.0
  0
SPLINE
  5
2B2
330
1F
100
AcDbEntity
  8
Linee visibili 2D - Tangent
100
AcDbSpline
210
0.0
220
0.0
230
1.0
 70
     8
 71
     3
 72
    17
 73
    13
 74
     0
 42
0.0000000001
 43
0.0000000001
 40
0.0
 40
0.0
 40
0.0
 40
0.0
 40
3.921497496446771
 40
7.052347413505468
 40
10.32718879918486
 40
13.15167712522963
 40
18.21786113877544
 40
22.61062726522736
 40
26.95650346124648
 40
31.98727829216634
 40
37.91854663113154
 40
45.07311451720738
 40
45.07311451720738
 40
45.07311451720738
 40
45.07311451720738
 10
-841.6859934458527
 20
80.19112068875086
 30
0.0
 10
-842.9266691878844
 20
80.59986593782577
 30
0.0
 10
-845.149566381205
 20
81.37610657740254
 30
0.0
 10
-848.2877595504169
 20
82.79319000481661
 30
0.0
 10
-850.9685809588128
 20
84.31728323963534
 30
0.0
 10
-853.9749815435117
 20
86.51467317465062
 30
0.0
 10
-856.7960493174799
 20
89.5507011497283
 30
0.0
 10
-858.4720104473053
 20
93.96351164631693
 30
0.0
 10
-857.9259781033029
 20
98.6446225685844
 30
0.0
 10
-855.3666770020614
 20
103.1393843087174
 30
0.0
 10
-851.0388249000328
 20
107.4027951366453
 30
0.0
 10
-847.3885297086533
 20
109.8194960557938
 30
0.0
 10
-845.3198735826242
 20
111.0048449443659
 30
0.0
  0
SPLINE
  5
2B3
330
1F
100
AcDbEntity
  8
Linee visibili 2D - Tangent
100
AcDbSpline
210
0.0
220
0.0
230
1.0
 70
    12
 71
     2
 72
     6
 73
     3
 74
     0
 42
0.0000000001
 43
0.0000000001
 40
0.0
 40
0.0
 40
0.0
 40
1.0
 40
1.0
 40
1.0
 10
-879.3755619055534
 20
91.8700491875131
 30
0.0
 41
1299.380202769109
 10
-882.3469120863346
 20
90.20054310468706
 30
0.0
 41
916.1488877043508
 10
-881.7545409991682
 20
86.49789078115387
 30
0.0
 41
1298.130195894317
  0
SPLINE
  5
2B4
330
1F
100
AcDbEntity
  8
Linee visibili 2D - Tangent
100
AcDbSpline
210
0.0
220
0.0
230
1.0
 70
    24
 71
     2
 72
     6
 73
     3
 74
     0
 42
0.0000000001
 43
0.0000000001
 40
0.0
 40
0.0
 40
0.0
 40
39.45758408161436
 40
39.45758408161436
 40
39.45758408161436
 10
-879.3755619055534
 20
91.87004918751308
 30
0.0
 10
-860.530777675703
 20
86.03058493813197
 30
0.0
 10
-841.6859934458527
 20
80.19112068875086
 30
0.0
  0
SPLINE
  5
2B5
330
1F
100
AcDbEntity
  8
Linee visibili 2D - Tangent
100
AcDbSpline
210
0.0
220
0.0
230
1.0
 70
    24
 71
     2
 72
     6
 73
     3
 74
     0
 42
0.0000000001
 43
0.0000000001
 40
0.0
 40
0.0
 40
0.0
 40
114.714665424201
 40
114.714665424201
 40
114.714665424201
 10
-732.1114633107784
 20
46.23708103123633
 30
0.0
 10
-786.8987283783156
 20
63.21410085999359
 30
0.0
 10
-841.6859934458527
 20
80.19112068875086
 30
0.0
  0
SPLINE
  5
2B6
330
1F
100
AcDbEntity
  8
Linee visibili 2D - Tangent
100
AcDbSpline
210
0.0
220
0.0
230
1.0
 70
    24
 71
     2
 72
     6
 73
     3
 74
     0
 42
0.0000000001
 43
0.0000000001
 40
0.0
 40
0.0
 40
0.0
 40
119.9009852227443
 40
119.9009852227443
 40
119.9009852227443
 10
-732.1114633107784
 20
46.23708103123633
 30
0.0
 10
-674.8472326660275
 20
28.49251980783737
 30
0.0
 10
-617.5830020212766
 20
10.74795858443841
 30
0.0
  0
SPLINE
  5
2B7
330
1F
100
AcDbEntity
  8
Linee visibili 2D - Tangent
100
AcDbSpline
210
0.0
220
0.0
230
1.0
 70
    12
 71
     3
 72
    12
 73
     8
 74
     0
 42
0.0000000001
 43
0.0000000001
 40
0.0
 40
0.0
 40
0.0
 40
0.0
 40
79.99999820196912
 40
160.0
 40
160.0
 40
160.0
 40
160.4463877301098
 40
160.4463877301098
 40
160.4463877301098
 40
160.4463877301098
 10
-617.5830020212765
 20
10.7479585844384
 30
0.0
 41
1139.169321575976
 10
-595.8411355193749
 20
4.010770694022403
 30
0.0
 41
1127.62259036404
 10
-550.9936727504844
 20
-9.88618626943578
 30
0.0
 41
1104.52913053539
 10
-504.2308245215055
 20
-24.37666687201649
 30
0.0
 41
1081.435670706736
 10
-480.0923708466061
 20
-31.85648916686235
 30
0.0
 41
1069.888940532833
 10
-479.9562201640594
 20
-31.8986784162153
 30
0.0
 41
1069.824511533068
 10
-479.8200530814759
 20
-31.94087274747524
 30
0.0
 41
1069.760082533304
 10
-479.683869595893
 20
-31.98307216156227
 30
0.0
 41
1069.69565353354
  0
SPLINE
  5
2B8
330
1F
100
AcDbEntity
  8
Linee visibili 2D - Tangent
100
AcDbSpline
210
0.0
220
0.0
230
1.0
 70
    24
 71
     2
 72
     6
 73
     3
 74
     0
 42
0.0000000001
 43
0.0000000001
 40
0.0
 40
0.0
 40
0.0
 40
477.3235415834172
 40
477.3235415834172
 40
477.3235415834172
 10
-881.7545409991682
 20
86.49789078115384
 30
0.0
 10
-653.9993564860564
 20
15.17456524993329
 30
0.0
 10
-426.2441719729446
 20
-56.14876028128725
 30
0.0
  0
SPLINE
  5
2B9
330
1F
100
AcDbEntity
  8
Linee visibili 2D - Tangent
100
AcDbSpline
210
0.0
220
0.0
230
1.0
 70
    12
 71
     2
 72
     6
 73
     3
 74
     0
 42
0.0000000001
 43
0.0000000001
 40
0.0
 40
0.0
 40
0.0
 40
1.549653729180912
 40
1.549653729180912
 40
1.549653729180912
 10
-671.4563372556213
 20
208.6931731212903
 30
0.0
 41
1.0
 10
-672.2443269003529
 20
208.8880921773157
 30
0.0
 41
0.9331648207045659
 10
-672.9594560627795
 20
208.5040200491246
 30
0.0
 41
1.0
  0
SPLINE
  5
2BA
330
1F
100
AcDbEntity
  8
Linee visibili 2D - Tangent
100
AcDbSpline
210
0.0
220
0.0
230
1.0
 70
    24
 71
     2
 72
     6
 73
     3
 74
     0
 42
0.0000000001
 43
0.0000000001
 40
0.0
 40
0.0
 40
0.0
 40
72.14578522878962
 40
72.14578522878962
 40
72.14578522878962
 10
-671.4563372556213
 20
208.6931731212903
 30
0.0
 10
-702.9050794752382
 20
191.0231364950195
 30
0.0
 10
-734.3538216948549
 20
173.3530998687487
 30
0.0
  0
SPLINE
  5
2BB
330
1F
100
AcDbEntity
  8
Linee visibili 2D - Tangent
100
AcDbSpline
210
0.0
220
0.0
230
1.0
 70
    24
 71
     2
 72
     6
 73
     3
 74
     0
 42
0.0000000001
 43
0.0000000001
 40
0.0
 40
0.0
 40
0.0
 40
0.5924091495443685
 40
0.5924091495443685
 40
0.5924091495443685
 10
-734.8702904897664
 20
173.0629127147487
 30
0.0
 10
-734.6120560923107
 20
173.2080062917487
 30
0.0
 10
-734.3538216948549
 20
173.3530998687487
 30
0.0
  0
SPLINE
  5
2BC
330
1F
100
AcDbEntity
  8
Linee visibili 2D - Tangent
100
AcDbSpline
210
0.0
220
0.0
230
1.0
 70
    24
 71
     2
 72
     6
 73
     3
 74
     0
 42
0.0000000001
 43
0.0000000001
 40
0.0
 40
0.0
 40
0.0
 40
6.982158131123493
 40
6.982158131123493
 40
6.982158131123493
 10
-740.9574122554612
 20
169.642754709975
 30
0.0
 10
-737.9138513726139
 20
171.3528337123619
 30
0.0
 10
-734.8702904897664
 20
173.0629127147487
 30
0.0
  0
SPLINE
  5
2BD
330
1F
100
AcDbEntity
  8
Linee visibili 2D - Tangent
100
AcDbSpline
210
0.0
220
0.0
230
1.0
 70
    12
 71
     3
 72
    14
 73
    10
 74
     0
 42
0.0000000001
 43
0.0000000001
 40
-175.0
 40
-175.0
 40
-175.0
 40
-175.0
 40
-87.00000000000003
 40
-87.00000000000003
 40
-87.00000000000003
 40
-81.41064636369995
 40
-81.41064636369995
 40
-81.41064636369995
 40
5.589353636300075
 40
5.589353636300075
 40
5.589353636300075
 40
5.589353636300075
 10
-831.3639414890143
 20
118.8462341672687
 30
0.0
 41
1363.130553332052
 10
-815.8209591737815
 20
127.5793359527076
 30
0.0
 41
1385.130674344412
 10
-800.7639977642901
 20
136.0393582252443
 30
0.0
 41
1407.130795356773
 10
-786.1706117617725
 20
144.2389123886227
 30
0.0
 41
1429.130916369134
 10
-784.5463251932256
 20
145.1515466874241
 30
0.0
 41
1429.130916369133
 10
-782.9220386537796
 20
146.0641810440376
 30
0.0
 41
1429.130916369133
 10
-781.2977521404329
 20
146.9768154454168
 30
0.0
 41
1429.130916369134
 10
-767.4498848693559
 20
154.7574865985016
 30
0.0
 41
1450.76748782523
 10
-754.0089987741435
 20
162.3094881084731
 30
0.0
 41
1472.404059281326
 10
-740.9574122554612
 20
169.642754709975
 30
0.0
 41
1494.040630737423
  0
SPLINE
  5
2BE
330
1F
100
AcDbEntity
  8
Linee visibili 2D - Tangent
100
AcDbSpline
210
0.0
220
0.0
230
1.0
 70
    12
 71
     3
 72
    11
 73
     7
 74
     0
 42
0.0000000001
 43
0.0000000001
 40
-385.5554047205688
 40
-385.5554047205688
 40
-385.5554047205688
 40
-385.5554047205688
 40
-385.0000000005398
 40
-385.0000000005398
 40
-385.0000000005398
 40
-369.3447792246166
 40
-369.3447792246166
 40
-369.3447792246166
 40
-369.3447792246166
 10
-845.3198735826242
 20
111.0048449443658
 30
0.0
 41
1343.963894443322
 10
-845.2173392179986
 20
111.062455691758
 30
0.0
 41
1344.102746375644
 10
-845.114826035718
 20
111.1200545374748
 30
0.0
 41
1344.241598307966
 10
-845.0123340292191
 20
111.1776414852039
 30
0.0
 41
1344.380450240288
 10
-840.462869859105
 20
113.7338391591769
 30
0.0
 41
1344.380450240288
 10
-835.9134056423989
 20
116.290036760891
 30
0.0
 41
1344.380450240288
 10
-831.3639414256928
 20
118.8462343626058
 30
0.0
 41
1344.380450240288
  0
SPLINE
  5
2BF
330
1F
100
AcDbEntity
  8
Linee visibili 2D - Tangent
100
AcDbSpline
210
0.0
220
0.0
230
1.0
 70
    24
 71
     2
 72
     6
 73
     3
 74
     0
 42
0.0000000001
 43
0.0000000001
 40
0.0
 40
0.0
 40
0.0
 40
39.06315803676101
 40
39.06315803676101
 40
39.06315803676101
 10
-845.3198735826242
 20
111.0048449443658
 30
0.0
 10
-862.3477177440888
 20
101.4374470659394
 30
0.0
 10
-879.3755619055534
 20
91.87004918751308
 30
0.0
  0
SPLINE
  5
2C0
330
1F
100
AcDbEntity
  8
Linee visibili 2D - Tangent
100
AcDbSpline
210
0.0
220
0.0
230
1.0
 70
    12
 71
     2
 72
     6
 73
     3
 74
     0
 42
0.0000000001
 43
0.0000000001
 40
0.6183371634715848
 40
0.6183371634715848
 40
0.6183371634715848
 40
1.0
 40
1.0
 40
1.0
 10
-880.999921043183
 20
91.77901821190191
 30
0.0
 41
1121.151521280496
 10
-880.3174629766214
 20
92.1619176196724
 30
0.0
 41
1154.71137958126
 10
-879.3755619055534
 20
91.8700491875131
 30
0.0
 41
1299.380202769109
  0
SPLINE
  5
2C1
330
1F
100
AcDbEntity
  8
Linee visibili 2D - Tangent
100
AcDbSpline
210
0.0
220
0.0
230
1.0
 70
    12
 71
     2
 72
     6
 73
     3
 74
     0
 42
0.0000000001
 43
0.0000000001
 40
0.0
 40
0.0
 40
0.0
 40
1.0
 40
1.0
 40
1.0
 10
-426.2441719729446
 20
-56.14876028128725
 30
0.0
 41
1042.65879074365
 10
-425.8872184630219
 20
-51.87955675821774
 30
0.0
 41
735.5033247228075
 10
-423.8284367574011
 20
-49.29108690006024
 30
0.0
 41
1043.908797618442
  0
SPLINE
  5
2C2
330
1F
100
AcDbEntity
  8
Linee visibili 2D - Tangent
100
AcDbSpline
210
0.0
220
0.0
230
1.0
 70
    12
 71
     2
 72
     6
 73
     3
 74
     0
 42
0.0000000001
 43
0.0000000001
 40
0.4539864505629317
 40
0.4539864505629317
 40
0.4539864505629317
 40
1.0
 40
1.0
 40
1.0
 10
-431.9414049637063
 20
-131.6426819437613
 30
0.0
 41
932.4637642578186
 10
-432.5389730898232
 20
-131.4352789961864
 30
0.0
 41
914.6818474975626
 10
-432.3887353322855
 20
-129.638418772214
 30
0.0
 41
1087.659038245692
  0
SPLINE
  5
2C3
330
1F
100
AcDbEntity
  8
Linee visibili 2D - Tangent
100
AcDbSpline
210
0.0
220
0.0
230
1.0
 70
    12
 71
     2
 72
     6
 73
     3
 74
     0
 42
0.0000000001
 43
0.0000000001
 40
0.0
 40
0.0
 40
0.0
 40
1.519956655073657
 40
1.519956655073657
 40
1.519956655073657
 10
-425.8049263375759
 20
-128.4767440671734
 30
0.0
 41
1.0
 10
-425.8638199175505
 20
-129.2534103892969
 30
0.0
 41
0.9639632584882809
 10
-426.3127267321036
 20
-129.8899335244074
 30
0.0
 41
1.0
  0
SPLINE
  5
2C4
330
1F
100
AcDbEntity
  8
Linee visibili 2D - Tangent
100
AcDbSpline
210
0.0
220
0.0
230
1.0
 70
    12
 71
     2
 72
     6
 73
     3
 74
     0
 42
0.0000000001
 43
0.0000000001
 40
0.0
 40
0.0
 40
0.0
 40
1.0
 40
1.0
 40
1.0
 10
-419.38596934724
 20
-55.0485713137328
 30
0.0
 41
1044.243799461364
 10
-421.428077199446
 20
-57.6569582002643
 30
0.0
 41
735.7402067117589
 10
-426.2441719729446
 20
-56.14876028128725
 30
0.0
 41
1042.65879074365
  0
SPLINE
  5
2C5
330
1F
100
AcDbEntity
  8
Linee visibili 2D - Tangent
100
AcDbSpline
210
0.0
220
0.0
230
1.0
 70
    24
 71
     2
 72
     6
 73
     3
 74
     0
 42
0.0000000001
 43
0.0000000001
 40
0.0
 40
0.0
 40
0.0
 40
73.70820553203626
 40
73.70820553203626
 40
73.70820553203626
 10
-419.38596934724
 20
-55.04857131373279
 30
0.0
 10
-422.595447842408
 20
-91.7626576904531
 30
0.0
 10
-425.8049263375759
 20
-128.4767440671734
 30
0.0
  0
SPLINE
  5
2C6
330
1F
100
AcDbEntity
  8
Linee visibili 2D - Tangent
100
AcDbSpline
210
0.0
220
0.0
230
1.0
 70
    12
 71
     2
 72
     6
 73
     3
 74
     0
 42
0.0000000001
 43
0.0000000001
 40
0.0
 40
0.0
 40
0.0
 40
1.0
 40
1.0
 40
1.0
 10
-432.3887353322855
 20
-129.638418772214
 30
0.0
 41
1087.659038245692
 10
-427.7845519134932
 20
-131.2306675509271
 30
0.0
 41
767.5601868718204
 10
-425.8049263375759
 20
-128.4767440671734
 30
0.0
 41
1089.244046963405
  0
SPLINE
  5
2C7
330
1F
100
AcDbEntity
  8
Linee visibili 2D - Tangent
100
AcDbSpline
210
0.0
220
0.0
230
1.0
 70
    24
 71
     2
 72
     6
 73
     3
 74
     0
 42
0.0000000001
 43
0.0000000001
 40
0.0
 40
0.0
 40
0.0
 40
73.7460884656942
 40
73.7460884656942
 40
73.7460884656942
 10
-426.2441719729446
 20
-56.14876028128725
 30
0.0
 10
-429.3164536526151
 20
-92.89358952675062
 30
0.0
 10
-432.3887353322855
 20
-129.638418772214
 30
0.0
  0
SPLINE
  5
2C8
330
1F
100
AcDbEntity
  8
Linee visibili 2D - Tangent
100
AcDbSpline
210
0.0
220
0.0
230
1.0
 70
    24
 71
     2
 72
     6
 73
     3
 74
     0
 42
0.0000000001
 43
0.0000000001
 40
0.0
 40
0.0
 40
0.0
 40
58.47560817779797
 40
58.47560817779797
 40
58.47560817779797
 10
-479.683869595893
 20
-31.98307216156226
 30
0.0
 10
-451.756153176647
 20
-40.63707953081125
 30
0.0
 10
-423.8284367574011
 20
-49.29108690006024
 30
0.0
  0
SPLINE
  5
2C9
330
1F
100
AcDbEntity
  8
Linee visibili 2D - Tangent
100
AcDbSpline
210
0.0
220
0.0
230
1.0
 70
    12
 71
     3
 72
    11
 73
     7
 74
     0
 42
0.0000000001
 43
0.0000000001
 40
-0.9941068923102317
 40
-0.9941068923102317
 40
-0.9941068923102317
 40
-0.9941068923102317
 40
-0.75
 40
-0.5
 40
-0.25
 40
-0.0047361464317915
 40
-0.0047361464317915
 40
-0.0047361464317915
 40
-0.0047361464317915
 10
-400.4386251240571
 20
-19.88349003029265
 30
0.0
 41
1088.492473503953
 10
-403.4150826209863
 20
-23.52117310287047
 30
0.0
 41
1082.772213880453
 10
-412.3574911829298
 20
-30.13827008062281
 30
0.0
 41
1072.519516143452
 10
-432.7323214249878
 20
-36.13756974718001
 30
0.0
 41
1063.39043937746
 10
-456.8405621257993
 20
-37.03471562041121
 30
0.0
 41
1062.038601951004
 10
-472.5840639512147
 20
-34.14651308431843
 30
0.0
 41
1066.402932403308
 10
-479.683869595893
 20
-31.98307216156227
 30
0.0
 41
1069.69565353354
  0
SPLINE
  5
2CA
330
1F
100
AcDbEntity
  8
Linee visibili 2D - Tangent
100
AcDbSpline
210
0.0
220
0.0
230
1.0
 70
    12
 71
     2
 72
     6
 73
     3
 74
     0
 42
0.0000000001
 43
0.0000000001
 40
0.0
 40
0.0
 40
0.0
 40
1.0
 40
1.0
 40
1.0
 10
-423.8284367574011
 20
-49.29108690006024
 30
0.0
 41
1043.908797618442
 10
-419.013100382223
 20
-50.78322309300435
 30
0.0
 41
736.6240951353751
 10
-419.38596934724
 20
-55.0485713137328
 30
0.0
 41
1044.243799461364
  0
SPLINE
  5
2CB
330
1F
100
AcDbEntity
  8
Linee visibili 2D - Tangent
100
AcDbSpline
210
0.0
220
0.0
230
1.0
 70
    24
 71
     2
 72
     6
 73
     3
 74
     0
 42
0.0000000001
 43
0.0000000001
 40
0.0
 40
0.0
 40
0.0
 40
37.57512530781604
 40
37.57512530781604
 40
37.57512530781604
 10
-423.8284367574011
 20
-49.29108690006024
 30
0.0
 10
-412.1335309407291
 20
-34.58728846517644
 30
0.0
 10
-400.4386251240571
 20
-19.88349003029265
 30
0.0
  0
SPLINE
  5
2CC
330
1F
100
AcDbEntity
  8
Linee visibili 2D - Tangent
100
AcDbSpline
210
0.0
220
0.0
230
1.0
 70
    12
 71
     3
 72
    11
 73
     7
 74
     0
 42
0.0000000001
 43
0.0000000001
 40
-25.0
 40
-25.0
 40
-25.0
 40
-25.0
 40
0.0
 40
0.0
 40
0.0
 40
0.3365803707694255
 40
0.3365803707694255
 40
0.3365803707694255
 40
0.3365803707694255
 10
-390.9619924298264
 20
-7.968687311258265
 30
0.0
 41
1107.659148269547
 10
-394.0159742046832
 20
-11.80840463244098
 30
0.0
 41
1101.409113894263
 10
-397.1048139128421
 20
-15.69194821721879
 30
0.0
 41
1095.15907951898
 10
-400.229111778763
 20
-19.62007271719977
 30
0.0
 41
1088.909045143696
 10
-400.2983388604245
 20
-19.70836306510621
 30
0.0
 41
1088.891519589273
 10
-400.3681777662185
 20
-19.79617024935847
 30
0.0
 41
1088.891519589273
 10
-400.4386251240571
 20
-19.88349003029265
 30
0.0
 41
1088.909045143696
  0
SPLINE
  5
2CD
330
1F
100
AcDbEntity
  8
Linee visibili 2D - Tangent
100
AcDbSpline
210
0.0
220
0.0
230
1.0
 70
    24
 71
     2
 72
     6
 73
     3
 74
     0
 42
0.0000000001
 43
0.0000000001
 40
0.0
 40
0.0
 40
0.0
 40
96.24560364213121
 40
96.24560364213121
 40
96.24560364213121
 10
-331.0509070638175
 20
67.3564616809941
 30
0.0
 10
-361.0064497468219
 20
29.69388718486792
 30
0.0
 10
-390.9619924298264
 20
-7.968687311258265
 30
0.0
  0
SPLINE
  5
2CE
330
1F
100
AcDbEntity
  8
Linee visibili 2D - Tangent
100
AcDbSpline
210
0.0
220
0.0
230
1.0
 70
    24
 71
     2
 72
     6
 73
     3
 74
     0
 42
0.0000000001
 43
0.0000000001
 40
0.0
 40
0.0
 40
0.0
 40
6.336170720179876
 40
6.336170720179876
 40
6.336170720179876
 10
-331.0509070638175
 20
67.3564616809941
 30
0.0
 10
-329.0788333041151
 20
69.83591523674168
 30
0.0
 10
-327.1067595444126
 20
72.31536879248927
 30
0.0
  0
SPLINE
  5
2CF
330
1F
100
AcDbEntity
  8
Linee visibili 2D - Tangent
100
AcDbSpline
210
0.0
220
0.0
230
1.0
 70
    24
 71
     2
 72
     6
 73
     3
 74
     0
 42
0.0000000001
 43
0.0000000001
 40
0.0
 40
0.0
 40
0.0
 40
0.5367815979732591
 40
0.5367815979732591
 40
0.5367815979732591
 10
-327.1067595444126
 20
72.31536879248927
 30
0.0
 10
-326.9396912681814
 20
72.52542071954022
 30
0.0
 10
-326.7726229919502
 20
72.73547264659118
 30
0.0
  0
SPLINE
  5
2D0
330
1F
100
AcDbEntity
  8
Linee visibili 2D - Tangent
100
AcDbSpline
210
0.0
220
0.0
230
1.0
 70
    24
 71
     2
 72
     6
 73
     3
 74
     0
 42
0.0000000001
 43
0.0000000001
 40
0.0
 40
0.0
 40
0.0
 40
64.42971128196277
 40
64.42971128196277
 40
64.42971128196277
 10
-326.7726229919502
 20
72.73547264659118
 30
0.0
 10
-306.7194788471652
 20
97.94793650631229
 30
0.0
 10
-286.6663347023801
 20
123.1604003660334
 30
0.0
  0
SPLINE
  5
2D1
330
1F
100
AcDbEntity
  8
Linee visibili 2D - Tangent
100
AcDbSpline
210
0.0
220
0.0
230
1.0
 70
    12
 71
     2
 72
     6
 73
     3
 74
     0
 42
0.0000000001
 43
0.0000000001
 40
0.0
 40
0.0
 40
0.0
 40
1.0
 40
1.0
 40
1.0
 10
-283.324086823289
 20
118.7434395975303
 30
0.0
 41
1374.245614497034
 10
-282.792945696268
 20
122.2994068389193
 30
0.0
 41
969.9706163509769
 10
-286.6663347023801
 20
123.1604003660334
 30
0.0
 41
1373.91061265411
  0
SPLINE
  5
2D2
330
1F
100
AcDbEntity
  8
Linee visibili 2D - Tangent
100
AcDbSpline
210
0.0
220
0.0
230
1.0
 70
    24
 71
     2
 72
     6
 73
     3
 74
     0
 42
0.0000000001
 43
0.0000000001
 40
0.0
 40
0.0
 40
0.0
 40
220.7181436414823
 40
220.7181436414823
 40
220.7181436414823
 10
-419.38596934724
 20
-55.04857131373279
 30
0.0
 10
-351.3550280852645
 20
31.84743414189873
 30
0.0
 10
-283.324086823289
 20
118.7434395975303
 30
0.0
  0
SPLINE
  5
2D3
330
1F
100
AcDbEntity
  8
Linee visibili 2D - Tangent
100
AcDbSpline
210
0.0
220
0.0
230
1.0
 70
     8
 71
     3
 72
    21
 73
    17
 74
     0
 42
0.0000000001
 43
0.0000000001
 40
0.0
 40
0.0
 40
0.0
 40
0.0
 40
1.672736754706967
 40
3.696524210068315
 40
5.943192012281642
 40
8.53600876111933
 40
11.56361568765646
 40
14.69833495066083
 40
21.44271079234275
 40
28.05474827315316
 40
31.17626426115011
 40
34.08696361231372
 40
36.78728836332836
 40
38.99574556813071
 40
40.82527249503609
 40
42.61969794910552
 40
42.61969794910552
 40
42.61969794910552
 40
42.61969794910552
 10
-590.3662274977837
 20
42.91604266466854
 30
0.0
 10
-590.3729597334693
 20
43.47378284513974
 30
0.0
 10
-590.13525431299
 20
44.70526830260783
 30
0.0
 10
-589.0738621379076
 20
46.41152351481537
 30
0.0
 10
-587.3694950944905
 20
47.95818945268388
 30
0.0
 10
-585.1028943781231
 20
49.29890694705099
 30
0.0
 10
-582.3831368771225
 20
50.37510893569282
 30
0.0
 10
-578.2066588892951
 20
51.44022970935913
 30
0.0
 10
-572.7035727428658
 20
51.92552751717429
 30
0.0
 10
-567.2137707502543
 20
51.39500057716737
 30
0.0
 10
-563.1267281230505
 20
50.32551573110675
 30
0.0
 10
-560.4218763410736
 20
49.23441644760891
 30
0.0
 10
-558.1768507675567
 20
47.88853860053331
 30
0.0
 10
-556.5201780137044
 20
46.34903133290027
 30
0.0
 10
-555.4860931146496
 20
44.6763818481927
 30
0.0
 10
-555.241143052018
 20
43.46977888724058
 30
0.0
 10
-555.2489222084398
 20
42.87134664414768
 30
0.0
  0
SPLINE
  5
2D4
330
1F
100
AcDbEntity
  8
Linee visibili 2D - Tangent
100
AcDbSpline
210
0.0
220
0.0
230
1.0
 70
    12
 71
     2
 72
     6
 73
     3
 74
     0
 42
0.0000000001
 43
0.0000000001
 40
0.0
 40
0.0
 40
0.0
 40
0.0813573104293145
 40
0.0813573104293145
 40
0.0813573104293145
 10
-590.3597400637025
 20
42.71066769677969
 30
0.0
 41
1.0
 10
-590.3619681665701
 20
42.75128643174283
 30
0.0
 41
0.9999578136951759
 10
-590.3634497295733
 20
42.79193924275839
 30
0.0
 41
1.0
  0
SPLINE
  5
2D5
330
1F
100
AcDbEntity
  8
Linee visibili 2D - Tangent
100
AcDbSpline
210
0.0
220
0.0
230
1.0
 70
    11
 71
     3
 72
    34
 73
    30
 74
     0
 42
0.0000000001
 43
0.0000000001
 40
0.0
 40
0.0
 40
0.0
 40
0.0
 40
2.468162044146434
 40
5.234488774997177
 40
11.64682738539274
 40
18.84883471111941
 40
25.88751461937707
 40
32.73520279799487
 40
35.68856438231841
 40
38.4246868946155
 40
40.7005090097554
 40
42.95388563876475
 40
44.75573679174202
 40
46.6774313491208
 40
49.20422418684775
 40
52.14192206997686
 40
55.49041833902547
 40
59.36294846443673
 40
63.92273548827314
 40
68.39302958884521
 40
78.1305472693357
 40
82.66307886774597
 40
86.66324373394778
 40
90.3102138024707
 40
93.59632383556765
 40
96.39413397521395
 40
98.74813595866736
 40
101.3190228895407
 40
104.0253538505005
 40
104.0253538505005
 40
104.0253538505005
 40
104.0253538505005
 10
-554.0084919268605
 20
41.04843503011662
 30
0.0
 10
-554.6221169098037
 20
40.49973845521143
 30
0.0
 10
-556.0378474443507
 20
39.47029420731585
 30
0.0
 10
-559.4952508135862
 20
37.68126655042977
 30
0.0
 10
-564.7612684631423
 20
36.12110327239967
 30
0.0
 10
-571.6268582301166
 20
35.38083708691482
 30
0.0
 10
-578.6703559302055
 20
35.7707198890233
 30
0.0
 10
-584.1649278248896
 20
37.03207583501026
 30
0.0
 10
-588.0323755870382
 20
38.64504723659067
 30
0.0
 10
-590.3279634102275
 20
39.99078507936053
 30
0.0
 10
-592.1997239121029
 20
41.54310233556654
 30
0.0
 10
-593.5177260967323
 20
43.21278037511485
 30
0.0
 10
-594.2772228085671
 20
45.0789175373242
 30
0.0
 10
-594.3870437615813
 20
47.1967497750974
 30
0.0
 10
-593.4762525714283
 20
49.54530045695867
 30
0.0
 10
-591.480383482353
 20
51.74602276178013
 30
0.0
 10
-588.6471235852418
 20
53.63008648837487
 30
0.0
 10
-585.0244919780926
 20
55.18119907450517
 30
0.0
 10
-580.8566831718102
 20
56.28010485002449
 30
0.0
 10
-574.6492622420849
 20
57.12662337682883
 30
0.0
 10
-568.3640964565221
 20
56.9401632766955
 30
0.0
 10
-562.3881095866715
 20
55.71183170520425
 30
0.0
 10
-558.5464302440398
 20
54.36560277843157
 30
0.0
 10
-555.3254179699494
 20
52.63200160798033
 30
0.0
 10
-552.85080190003
 20
50.49046184748818
 30
0.0
 10
-551.3941228963043
 20
48.02189169036109
 30
0.0
 10
-551.1733662114963
 20
45.38231089228947
 30
0.0
 10
-552.1487852043697
 20
42.97065671821838
 30
0.0
 10
-553.337760904495
 20
41.65114784637109
 30
0.0
 10
-554.0084919268604
 20
41.04843503011668
 30
0.0
  0
SPLINE
  5
2D6
330
1F
100
AcDbEntity
  8
Linee visibili 2D
100
AcDbSpline
210
0.0
220
0.0
230
1.0
 70
    24
 71
     2
 72
     6
 73
     3
 74
     0
 42
0.0000000001
 43
0.0000000001
 40
0.0
 40
0.0
 40
0.0
 40
47.29748488229336
 40
47.29748488229336
 40
47.29748488229336
 10
-302.2269551205358
 20
42.88285318738912
 30
0.0
 10
-305.6280610252742
 20
19.47995811706832
 30
0.0
 10
-309.0291669300127
 20
-3.922936953252474
 30
0.0
  0
SPLINE
  5
2D7
330
1F
100
AcDbEntity
  8
Linee visibili 2D
100
AcDbSpline
210
0.0
220
0.0
230
1.0
 70
    24
 71
     2
 72
     6
 73
     3
 74
     0
 42
0.0000000001
 43
0.0000000001
 40
0.0
 40
0.0
 40
0.0
 40
191.3050125982174
 40
191.3050125982174
 40
191.3050125982174
 10
-309.0291669300127
 20
-3.922936953252474
 30
0.0
 10
-362.7254533183607
 20
-83.08170645734182
 30
0.0
 10
-416.4217397067088
 20
-162.2404759614312
 30
0.0
  0
SPLINE
  5
2D8
330
1F
100
AcDbEntity
  8
Linee visibili 2D
100
AcDbSpline
210
0.0
220
0.0
230
1.0
 70
    24
 71
     2
 72
     6
 73
     3
 74
     0
 42
0.0000000001
 43
0.0000000001
 40
0.0
 40
0.0
 40
0.0
 40
14.99006896610065
 40
14.99006896610065
 40
14.99006896610065
 10
-323.4767936390288
 20
0.0730923366026275
 30
0.0
 10
-316.2529802845207
 20
-1.924922308324923
 30
0.0
 10
-309.0291669300127
 20
-3.922936953252474
 30
0.0
  0
SPLINE
  5
2D9
330
1F
100
AcDbEntity
  8
Linee visibili 2D
100
AcDbSpline
210
0.0
220
0.0
230
1.0
 70
    24
 71
     2
 72
     6
 73
     3
 74
     0
 42
0.0000000001
 43
0.0000000001
 40
0.0
 40
0.0
 40
0.0
 40
53.37475132903705
 40
53.37475132903705
 40
53.37475132903705
 10
-416.4217397067088
 20
-162.2404759614312
 30
0.0
 10
-413.9029752725347
 20
-135.6722271372374
 30
0.0
 10
-411.3842108383607
 20
-109.1039783130436
 30
0.0
  0
SPLINE
  5
2DA
330
1F
100
AcDbEntity
  8
Linee visibili 2D
100
AcDbSpline
210
0.0
220
0.0
230
1.0
 70
    24
 71
     2
 72
     6
 73
     3
 74
     0
 42
0.0000000001
 43
0.0000000001
 40
0.0
 40
0.0
 40
0.0
 40
67.98599124238949
 40
67.98599124238949
 40
67.98599124238949
 10
-418.815171852507
 20
-119.4505944138458
 30
0.0
 10
-421.8970838883716
 20
-153.3035938305261
 30
0.0
 10
-424.9789959242362
 20
-187.1565932472064
 30
0.0
  0
SPLINE
  5
2DB
330
1F
100
AcDbEntity
  8
Linee visibili 2D
100
AcDbSpline
210
0.0
220
0.0
230
1.0
 70
    24
 71
     2
 72
     6
 73
     3
 74
     0
 42
0.0000000001
 43
0.0000000001
 40
0.0
 40
0.0
 40
0.0
 40
213.6837369862005
 40
213.6837369862005
 40
213.6837369862005
 10
-424.9789959242362
 20
-187.1565932472064
 30
0.0
 10
-365.5957758909353
 20
-98.33757477946216
 30
0.0
 10
-306.2125558576344
 20
-9.51855631171793
 30
0.0
  0
SPLINE
  5
2DC
330
1F
100
AcDbEntity
  8
Linee visibili 2D
100
AcDbSpline
210
0.0
220
0.0
230
1.0
 70
    24
 71
     2
 72
     6
 73
     3
 74
     0
 42
0.0000000001
 43
0.0000000001
 40
0.0
 40
0.0
 40
0.0
 40
18.17123090444097
 40
18.17123090444097
 40
18.17123090444097
 10
-442.0235576687389
 20
-180.8576609948046
 30
0.0
 10
-433.5012767964876
 20
-184.0071271210055
 30
0.0
 10
-424.9789959242362
 20
-187.1565932472064
 30
0.0
  0
SPLINE
  5
2DD
330
1F
100
AcDbEntity
  8
Linee visibili 2D
100
AcDbSpline
210
0.0
220
0.0
230
1.0
 70
    24
 71
     2
 72
     6
 73
     3
 74
     0
 42
0.0000000001
 43
0.0000000001
 40
0.0
 40
0.0
 40
0.0
 40
59.57862134061673
 40
59.57862134061673
 40
59.57862134061673
 10
-306.2125558576344
 20
-9.51855631171793
 30
0.0
 10
-301.8708653575384
 20
19.95266276407743
 30
0.0
 10
-297.5291748574424
 20
49.42388183987279
 30
0.0
  0
SPLINE
  5
2DE
330
1F
100
AcDbEntity
  8
Linee visibili 2D
100
AcDbSpline
210
0.0
220
0.0
230
1.0
 70
    24
 71
     2
 72
     6
 73
     3
 74
     0
 42
0.0000000001
 43
0.0000000001
 40
0.0
 40
0.0
 40
0.0
 40
51.44646664111002
 40
51.44646664111002
 40
51.44646664111002
 10
-437.9020710181071
 20
-129.5765506553871
 30
0.0
 10
-439.962814343423
 20
-155.2171058250958
 30
0.0
 10
-442.0235576687389
 20
-180.8576609948046
 30
0.0
  0
SPLINE
  5
2DF
330
1F
100
AcDbEntity
  8
Linee visibili 2D
100
AcDbSpline
210
0.0
220
0.0
230
1.0
 70
    24
 71
     2
 72
     6
 73
     3
 74
     0
 42
0.0000000001
 43
0.0000000001
 40
0.0
 40
0.0
 40
0.0
 40
155.6948932357315
 40
155.6948932357315
 40
155.6948932357315
 10
-323.4767936390288
 20
0.0730923366026275
 30
0.0
 10
-368.2900627478624
 20
-63.5821969699484
 30
0.0
 10
-413.1033318566961
 20
-127.2374862764994
 30
0.0
  0
SPLINE
  5
2E0
330
1F
100
AcDbEntity
  8
Linee visibili 2D
100
AcDbSpline
210
0.0
220
0.0
230
1.0
 70
    24
 71
     2
 72
     6
 73
     3
 74
     0
 42
0.0000000001
 43
0.0000000001
 40
0.0
 40
0.0
 40
0.0
 40
16.49544511743782
 40
16.49544511743782
 40
16.49544511743782
 10
-321.2357897315528
 20
16.41560166378616
 30
0.0
 10
-322.3562916852908
 20
8.244347000194395
 30
0.0
 10
-323.4767936390288
 20
0.0730923366026275
 30
0.0
  0
SPLINE
  5
2E1
330
1F
100
AcDbEntity
  8
Linee visibili 2D
100
AcDbSpline
210
0.0
220
0.0
230
1.0
 70
    24
 71
     2
 72
     6
 73
     3
 74
     0
 42
0.0000000001
 43
0.0000000001
 40
0.0
 40
0.0
 40
0.0
 40
0.3657916686405432
 40
0.3657916686405432
 40
0.3657916686405432
 10
-811.519325665407
 20
-0.0705014529670223
 30
0.0
 10
-811.6693335215223
 20
-0.1751366732103889
 30
0.0
 10
-811.8193413776377
 20
-0.2797718934537556
 30
0.0
  0
SPLINE
  5
2E2
330
1F
100
AcDbEntity
  8
Linee visibili 2D
100
AcDbSpline
210
0.0
220
0.0
230
1.0
 70
    24
 71
     2
 72
     6
 73
     3
 74
     0
 42
0.0000000001
 43
0.0000000001
 40
0.0
 40
0.0
 40
0.0
 40
46.43133758689582
 40
46.43133758689582
 40
46.43133758689582
 10
-846.5894218533521
 20
12.08576153040434
 30
0.0
 10
-843.2045757715158
 20
-10.88182638233366
 30
0.0
 10
-839.8197296896795
 20
-33.84941429507165
 30
0.0
  0
SPLINE
  5
2E3
330
1F
100
AcDbEntity
  8
Linee visibili 2D
100
AcDbSpline
210
0.0
220
0.0
230
1.0
 70
    24
 71
     2
 72
     6
 73
     3
 74
     0
 42
0.0000000001
 43
0.0000000001
 40
0.0
 40
0.0
 40
0.0
 40
10.39858168196153
 40
10.39858168196153
 40
10.39858168196153
 10
-830.0658903121758
 20
-37.45401113720047
 30
0.0
 10
-834.9428100009277
 20
-35.65171271613606
 30
0.0
 10
-839.8197296896795
 20
-33.84941429507165
 30
0.0
  0
SPLINE
  5
2E4
330
1F
100
AcDbEntity
  8
Linee visibili 2D
100
AcDbSpline
210
0.0
220
0.0
230
1.0
 70
    24
 71
     2
 72
     6
 73
     3
 74
     0
 42
0.0000000001
 43
0.0000000001
 40
0.0
 40
0.0
 40
0.0
 40
26.55190051708971
 40
26.55190051708971
 40
26.55190051708971
 10
-808.7415789619463
 20
-24.06620351136905
 30
0.0
 10
-797.9914913546941
 20
-16.27605128540083
 30
0.0
 10
-787.2414037474417
 20
-8.485899059432597
 30
0.0
  0
SPLINE
  5
2E5
330
1F
100
AcDbEntity
  8
Linee visibili 2D
100
AcDbSpline
210
0.0
220
0.0
230
1.0
 70
    24
 71
     2
 72
     6
 73
     3
 74
     0
 42
0.0000000001
 43
0.0000000001
 40
0.0
 40
0.0
 40
0.0
 40
12.74199333279778
 40
12.74199333279778
 40
12.74199333279778
 10
-799.9860515915285
 20
-4.068252469849853
 30
0.0
 10
-805.1802522814639
 20
-7.757409245583261
 30
0.0
 10
-810.3744529713995
 20
-11.44656602131667
 30
0.0
  0
ENDSEC
  0
SECTION
  2
OBJECTS
  0
DICTIONARY
  5
C
330
0
100
AcDbDictionary
281
     1
  3
ACAD_GROUP
350
D
  3
ACAD_LAYOUT
350
1A
  3
ACAD_MLEADERSTYLE
350
2E9
  3
ACAD_MLINESTYLE
350
17
  3
ACAD_PLOTSETTINGS
350
19
  3
ACAD_PLOTSTYLENAME
350
E
  3
ACAD_SCALELIST
350
3E
  3
ACAD_TABLESTYLE
350
2E8
  3
ACAD_VISUALSTYLE
350
2A
  3
AcDbVariableDictionary
350
2E6
  0
DICTIONARY
  5
D
102
{ACAD_REACTORS
330
C
102
}
330
C
100
AcDbDictionary
281
     1
  0
DICTIONARY
  5
1A
102
{ACAD_REACTORS
330
C
102
}
330
C
100
AcDbDictionary
281
     1
  3
Layout1
350
1E
  3
Layout2
350
26
  3
Model
350
22
  0
DICTIONARY
  5
2E9
102
{ACAD_REACTORS
330
C
102
}
330
C
100
AcDbDictionary
281
     1
  0
DICTIONARY
  5
17
102
{ACAD_REACTORS
330
C
102
}
330
C
100
AcDbDictionary
281
     1
  3
Standard
350
18
  0
DICTIONARY
  5
19
102
{ACAD_REACTORS
330
C
102
}
330
C
100
AcDbDictionary
281
     1
  0
ACDBDICTIONARYWDFLT
  5
E
102
{ACAD_REACTORS
330
C
102
}
330
C
100
AcDbDictionary
281
     1
  3
Normal
350
F
100
AcDbDictionaryWithDefault
340
F
  0
DICTIONARY
  5
3E
102
{ACAD_REACTORS
330
C
102
}
330
C
100
AcDbDictionary
281
     1
  3
A0
350
3F
  3
A1
350
40
  3
A2
350
41
  3
A3
350
42
  3
A4
350
43
  3
A5
350
44
  3
A6
350
45
  3
A7
350
46
  3
A8
350
47
  3
A9
350
48
  3
B0
350
49
  3
B1
350
4A
  3
B2
350
4B
  3
B3
350
4C
  3
B4
350
4D
  3
B5
350
4E
  3
B6
350
4F
  3
B7
350
50
  3
B8
350
51
  3
B9
350
52
  3
C0
350
53
  3
C1
350
54
  3
C2
350
55
  3
C3
350
56
  3
C4
350
57
  3
C5
350
58
  3
C6
350
59
  3
C7
350
5A
  3
C8
350
5B
  3
C9
350
5C
  3
D0
350
5D
  3
D1
350
5E
  3
D2
350
5F
  0
DICTIONARY
  5
2E8
102
{ACAD_REACTORS
330
C
102
}
330
C
100
AcDbDictionary
281
     1
  0
DICTIONARY
  5
2A
102
{ACAD_REACTORS
330
C
102
}
330
C
100
AcDbDictionary
281
     1
  3
2dWireframe
350
2F
  3
3D Hidden
350
31
  3
3dWireframe
350
30
  3
Basic
350
32
  3
Brighten
350
36
  3
ColorChange
350
3A
  3
Conceptual
350
34
  3
Dim
350
35
  3
Facepattern
350
39
  3
Flat
350
2B
  3
FlatWithEdges
350
2C
  3
Gouraud
350
2D
  3
GouraudWithEdges
350
2E
  3
Linepattern
350
38
  3
Realistic
350
33
  3
Thicken
350
37
  0
DICTIONARY
  5
2E6
102
{ACAD_REACTORS
330
C
102
}
330
C
100
AcDbDictionary
281
     1
  3
CANNOSCALE
350
2E7
  0
LAYOUT
  5
1E
102
{ACAD_REACTORS
330
1A
102
}
330
1A
100
AcDbPlotSettings
  1

  2
none_device
  4

  6

 40
0.0
 41
0.0
 42
0.0
 43
0.0
 44
0.0
 45
0.0
 46
0.0
 47
0.0
 48
0.0
 49
0.0
140
0.0
141
0.0
142
1.0
143
1.0
 70
   688
 72
     0
 73
     0
 74
     5
  7

 75
    16
 76
     0
 77
     2
 78
   300
147
1.0
148
0.0
149
0.0
100
AcDbLayout
  1
Layout1
 70
     1
 71
     1
 10
0.0
 20
0.0
 11
12.0
 21
9.0
 12
0.0
 22
0.0
 32
0.0
 14
1.000000000000000E+20
 24
1.000000000000000E+20
 34
1.000000000000000E+20
 15
-1.000000000000000E+20
 25
-1.000000000000000E+20
 35
-1.000000000000000E+20
146
0.0
 13
0.0
 23
0.0
 33
0.0
 16
1.0
 26
0.0
 36
0.0
 17
0.0
 27
1.0
 37
0.0
 76
     0
330
1B
  0
LAYOUT
  5
26
102
{ACAD_REACTORS
330
1A
102
}
330
1A
100
AcDbPlotSettings
  1

  2
none_device
  4

  6

 40
0.0
 41
0.0
 42
0.0
 43
0.0
 44
0.0
 45
0.0
 46
0.0
 47
0.0
 48
0.0
 49
0.0
140
0.0
141
0.0
142
1.0
143
1.0
 70
   688
 72
     0
 73
     0
 74
     5
  7

 75
    16
 76
     0
 77
     2
 78
   300
147
1.0
148
0.0
149
0.0
100
AcDbLayout
  1
Layout2
 70
     1
 71
     2
 10
0.0
 20
0.0
 11
0.0
 21
0.0
 12
0.0
 22
0.0
 32
0.0
 14
0.0
 24
0.0
 34
0.0
 15
0.0
 25
0.0
 35
0.0
146
0.0
 13
0.0
 23
0.0
 33
0.0
 16
1.0
 26
0.0
 36
0.0
 17
0.0
 27
1.0
 37
0.0
 76
     0
330
23
  0
LAYOUT
  5
22
102
{ACAD_REACTORS
330
1A
102
}
330
1A
100
AcDbPlotSettings
  1

  2
none_device
  4

  6

 40
0.0
 41
0.0
 42
0.0
 43
0.0
 44
0.0
 45
0.0
 46
0.0
 47
0.0
 48
0.0
 49
0.0
140
0.0
141
0.0
142
1.0
143
1.0
 70
  1712
 72
     0
 73
     0
 74
     0
  7

 75
     0
 76
     0
 77
     2
 78
   300
147
1.0
148
0.0
149
0.0
100
AcDbLayout
  1
Model
 70
     1
 71
     0
 10
0.0
 20
0.0
 11
12.0
 21
9.0
 12
0.0
 22
0.0
 32
0.0
 14
-883.1152951391955
 24
-188.0000000727106
 34
0.0
 15
594.9999999384077
 25
740.1152949814032
 35
0.0
146
0.0
 13
0.0
 23
0.0
 33
0.0
 16
1.0
 26
0.0
 36
0.0
 17
0.0
 27
1.0
 37
0.0
 76
     0
330
1F
331
29
  0
MLINESTYLE
  5
18
102
{ACAD_REACTORS
330
17
102
}
330
17
100
AcDbMlineStyle
  2
Standard
 70
     0
  3

 62
   256
 51
90.0
 52
90.0
 71
     2
 49
0.5
 62
   256
  6
BYLAYER
 49
-0.5
 62
   256
  6
BYLAYER
  0
ACDBPLACEHOLDER
  5
F
102
{ACAD_REACTORS
330
E
102
}
330
E
  0
SCALE
  5
3F
102
{ACAD_REACTORS
330
3E
102
}
330
3E
100
AcDbScale
 70
     0
300
1:1
140
1.0
141
1.0
290
     1
  0
SCALE
  5
40
102
{ACAD_REACTORS
330
3E
102
}
330
3E
100
AcDbScale
 70
     0
300
1:2
140
1.0
141
2.0
290
     0
  0
SCALE
  5
41
102
{ACAD_REACTORS
330
3E
102
}
330
3E
100
AcDbScale
 70
     0
300
1:4
140
1.0
141
4.0
290
     0
  0
SCALE
  5
42
102
{ACAD_REACTORS
330
3E
102
}
330
3E
100
AcDbScale
 70
     0
300
1:5
140
1.0
141
5.0
290
     0
  0
SCALE
  5
43
102
{ACAD_REACTORS
330
3E
102
}
330
3E
100
AcDbScale
 70
     0
300
1:8
140
1.0
141
8.0
290
     0
  0
SCALE
  5
44
102
{ACAD_REACTORS
330
3E
102
}
330
3E
100
AcDbScale
 70
     0
300
1:10
140
1.0
141
10.0
290
     0
  0
SCALE
  5
45
102
{ACAD_REACTORS
330
3E
102
}
330
3E
100
AcDbScale
 70
     0
300
1:16
140
1.0
141
16.0
290
     0
  0
SCALE
  5
46
102
{ACAD_REACTORS
330
3E
102
}
330
3E
100
AcDbScale
 70
     0
300
1:20
140
1.0
141
20.0
290
     0
  0
SCALE
  5
47
102
{ACAD_REACTORS
330
3E
102
}
330
3E
100
AcDbScale
 70
     0
300
1:30
140
1.0
141
30.0
290
     0
  0
SCALE
  5
48
102
{ACAD_REACTORS
330
3E
102
}
330
3E
100
AcDbScale
 70
     0
300
1:40
140
1.0
141
40.0
290
     0
  0
SCALE
  5
49
102
{ACAD_REACTORS
330
3E
102
}
330
3E
100
AcDbScale
 70
     0
300
1:50
140
1.0
141
50.0
290
     0
  0
SCALE
  5
4A
102
{ACAD_REACTORS
330
3E
102
}
330
3E
100
AcDbScale
 70
     0
300
1:100
140
1.0
141
100.0
290
     0
  0
SCALE
  5
4B
102
{ACAD_REACTORS
330
3E
102
}
330
3E
100
AcDbScale
 70
     0
300
2:1
140
2.0
141
1.0
290
     0
  0
SCALE
  5
4C
102
{ACAD_REACTORS
330
3E
102
}
330
3E
100
AcDbScale
 70
     0
300
4:1
140
4.0
141
1.0
290
     0
  0
SCALE
  5
4D
102
{ACAD_REACTORS
330
3E
102
}
330
3E
100
AcDbScale
 70
     0
300
8:1
140
8.0
141
1.0
290
     0
  0
SCALE
  5
4E
102
{ACAD_REACTORS
330
3E
102
}
330
3E
100
AcDbScale
 70
     0
300
10:1
140
10.0
141
1.0
290
     0
  0
SCALE
  5
4F
102
{ACAD_REACTORS
330
3E
102
}
330
3E
100
AcDbScale
 70
     0
300
100:1
140
100.0
141
1.0
290
     0
  0
SCALE
  5
50
102
{ACAD_REACTORS
330
3E
102
}
330
3E
100
AcDbScale
 70
     0
300
1/128" = 1'-0"
140
0.0078125
141
12.0
290
     0
  0
SCALE
  5
51
102
{ACAD_REACTORS
330
3E
102
}
330
3E
100
AcDbScale
 70
     0
300
1/64" = 1'-0"
140
0.015625
141
12.0
290
     0
  0
SCALE
  5
52
102
{ACAD_REACTORS
330
3E
102
}
330
3E
100
AcDbScale
 70
     0
300
1/32" = 1'-0"
140
0.03125
141
12.0
290
     0
  0
SCALE
  5
53
102
{ACAD_REACTORS
330
3E
102
}
330
3E
100
AcDbScale
 70
     0
300
1/16" = 1'-0"
140
0.0625
141
12.0
290
     0
  0
SCALE
  5
54
102
{ACAD_REACTORS
330
3E
102
}
330
3E
100
AcDbScale
 70
     0
300
3/32" = 1'-0"
140
0.09375
141
12.0
290
     0
  0
SCALE
  5
55
102
{ACAD_REACTORS
330
3E
102
}
330
3E
100
AcDbScale
 70
     0
300
1/8" = 1'-0"
140
0.125
141
12.0
290
     0
  0
SCALE
  5
56
102
{ACAD_REACTORS
330
3E
102
}
330
3E
100
AcDbScale
 70
     0
300
3/16" = 1'-0"
140
0.1875
141
12.0
290
     0
  0
SCALE
  5
57
102
{ACAD_REACTORS
330
3E
102
}
330
3E
100
AcDbScale
 70
     0
300
1/4" = 1'-0"
140
0.25
141
12.0
290
     0
  0
SCALE
  5
58
102
{ACAD_REACTORS
330
3E
102
}
330
3E
100
AcDbScale
 70
     0
300
3/8" = 1'-0"
140
0.375
141
12.0
290
     0
  0
SCALE
  5
59
102
{ACAD_REACTORS
330
3E
102
}
330
3E
100
AcDbScale
 70
     0
300
1/2" = 1'-0"
140
0.5
141
12.0
290
     0
  0
SCALE
  5
5A
102
{ACAD_REACTORS
330
3E
102
}
330
3E
100
AcDbScale
 70
     0
300
3/4" = 1'-0"
140
0.75
141
12.0
290
     0
  0
SCALE
  5
5B
102
{ACAD_REACTORS
330
3E
102
}
330
3E
100
AcDbScale
 70
     0
300
1" = 1'-0"
140
1.0
141
12.0
290
     0
  0
SCALE
  5
5C
102
{ACAD_REACTORS
330
3E
102
}
330
3E
100
AcDbScale
 70
     0
300
1-1/2" = 1'-0"
140
1.5
141
12.0
290
     0
  0
SCALE
  5
5D
102
{ACAD_REACTORS
330
3E
102
}
330
3E
100
AcDbScale
 70
     0
300
3" = 1'-0"
140
3.0
141
12.0
290
     0
  0
SCALE
  5
5E
102
{ACAD_REACTORS
330
3E
102
}
330
3E
100
AcDbScale
 70
     0
300
6" = 1'-0"
140
6.0
141
12.0
290
     0
  0
SCALE
  5
5F
102
{ACAD_REACTORS
330
3E
102
}
330
3E
100
AcDbScale
 70
     0
300
1'-0" = 1'-0"
140
12.0
141
12.0
290
     0
  0
VISUALSTYLE
  5
2F
102
{ACAD_REACTORS
330
2A
102
}
330
2A
100
AcDbVisualStyle
  2
2dWireframe
 70
     4
 71
     0
 72
     2
 73
     0
 90
        0
 40
-0.6
 41
-30.0
 62
     5
 63
     7
421
 16777215
 74
     1
 91
        4
 64
     7
 65
   257
 75
     1
175
     1
 42
1.0
 92
        0
 66
   257
 43
1.0
 76
     1
 77
     6
 78
     2
 67
     7
 79
     5
170
     0
171
     0
290
     0
174
     0
 93
        1
 44
0.0
173
     0
291
     0
 45
0.0
1001
ACAD
1000
AcDbSavedByObjectVersion
1070
     0
  0
VISUALSTYLE
  5
31
102
{ACAD_REACTORS
330
2A
102
}
330
2A
100
AcDbVisualStyle
  2
3D Hidden
 70
     6
 71
     1
 72
     2
 73
     2
 90
        0
 40
-0.6
 41
-30.0
 62
     5
 63
     7
421
 16777215
 74
     2
 91
        2
 64
     7
 65
   257
 75
     2
175
     1
 42
40.0
 92
        0
 66
   257
 43
1.0
 76
     1
 77
     6
 78
     2
 67
     7
 79
     3
170
     0
171
     0
290
     0
174
     0
 93
        1
 44
0.0
173
     0
291
     0
 45
0.0
1001
ACAD
1000
AcDbSavedByObjectVersion
1070
     0
  0
VISUALSTYLE
  5
30
102
{ACAD_REACTORS
330
2A
102
}
330
2A
100
AcDbVisualStyle
  2
3dWireframe
 70
     5
 71
     0
 72
     2
 73
     0
 90
        0
 40
-0.6
 41
-30.0
 62
     5
 63
     7
421
 16777215
 74
     1
 91
        4
 64
     7
 65
   257
 75
     1
175
     1
 42
1.0
 92
        0
 66
   257
 43
1.0
 76
     1
 77
     6
 78
     2
 67
     7
 79
     5
170
     0
171
     0
290
     0
174
     0
 93
        1
 44
0.0
173
     0
291
     0
 45
0.0
1001
ACAD
1000
AcDbSavedByObjectVersion
1070
     0
  0
VISUALSTYLE
  5
32
102
{ACAD_REACTORS
330
2A
102
}
330
2A
100
AcDbVisualStyle
  2
Basic
 70
     7
 71
     1
 72
     0
 73
     1
 90
        0
 40
-0.6
 41
-30.0
 62
     5
 63
     7
421
 16777215
 74
     0
 91
        4
 64
     7
 65
   257
 75
     1
175
     1
 42
1.0
 92
        8
 66
     7
 43
1.0
 76
     1
 77
     6
 78
     2
 67
     7
 79
     5
170
     0
171
     0
290
     0
174
     0
 93
        1
 44
0.0
173
     0
291
     1
 45
0.0
1001
ACAD
1000
AcDbSavedByObjectVersion
1070
     0
  0
VISUALSTYLE
  5
36
102
{ACAD_REACTORS
330
2A
102
}
330
2A
100
AcDbVisualStyle
  2
Brighten
 70
    12
 71
     2
 72
     2
 73
     0
 90
        0
 40
-0.6
 41
-30.0
 62
     5
 63
     7
421
 16777215
 74
     1
 91
        4
 64
     7
 65
   257
 75
     1
175
     1
 42
1.0
 92
        8
 66
     7
 43
1.0
 76
     1
 77
     6
 78
     2
 67
     7
 79
     5
170
     0
171
     0
290
     0
174
     0
 93
        1
 44
50.0
173
     0
291
     1
 45
0.0
1001
ACAD
1000
AcDbSavedByObjectVersion
1070
     0
  0
VISUALSTYLE
  5
3A
102
{ACAD_REACTORS
330
2A
102
}
330
2A
100
AcDbVisualStyle
  2
ColorChange
 70
    16
 71
     2
 72
     2
 73
     3
 90
        0
 40
-0.6
 41
-30.0
 62
     5
 63
     8
421
  8421504
 74
     1
 91
        4
 64
     7
 65
   257
 75
     1
175
     1
 42
1.0
 92
        8
 66
     8
424
  8421504
 43
1.0
 76
     1
 77
     6
 78
     2
 67
     7
 79
     5
170
     0
171
     0
290
     0
174
     0
 93
        1
 44
0.0
173
     0
291
     1
 45
0.0
1001
ACAD
1000
AcDbSavedByObjectVersion
1070
     0
  0
VISUALSTYLE
  5
34
102
{ACAD_REACTORS
330
2A
102
}
330
2A
100
AcDbVisualStyle
  2
Conceptual
 70
     9
 71
     3
 72
     2
 73
     0
 90
        0
 40
-0.6
 41
-30.0
 62
     5
 63
     7
421
 16777215
 74
     2
 91
        2
 64
     7
 65
   257
 75
     1
175
     1
 42
40.0
 92
        8
 66
     7
 43
1.0
 76
     1
 77
     6
 78
     2
 67
     7
 79
     3
170
     0
171
     0
290
     0
174
     0
 93
        1
 44
0.0
173
     0
291
     0
 45
0.0
1001
ACAD
1000
AcDbSavedByObjectVersion
1070
     0
  0
VISUALSTYLE
  5
35
102
{ACAD_REACTORS
330
2A
102
}
330
2A
100
AcDbVisualStyle
  2
Dim
 70
    11
 71
     2
 72
     2
 73
     0
 90
        0
 40
-0.6
 41
-30.0
 62
     5
 63
     7
421
 16777215
 74
     1
 91
        4
 64
     7
 65
   257
 75
     1
175
     1
 42
1.0
 92
        8
 66
     7
 43
1.0
 76
     1
 77
     6
 78
     2
 67
     7
 79
     5
170
     0
171
     0
290
     0
174
     0
 93
        1
 44
-50.0
173
     0
291
     1
 45
0.0
1001
ACAD
1000
AcDbSavedByObjectVersion
1070
     0
  0
VISUALSTYLE
  5
39
102
{ACAD_REACTORS
330
2A
102
}
330
2A
100
AcDbVisualStyle
  2
Facepattern
 70
    15
 71
     2
 72
     2
 73
     0
 90
        0
 40
-0.6
 41
-30.0
 62
     5
 63
     7
421
 16777215
 74
     1
 91
        4
 64
     7
 65
   257
 75
     1
175
     1
 42
1.0
 92
        8
 66
     7
 43
1.0
 76
     1
 77
     6
 78
     2
 67
     7
 79
     5
170
     0
171
     0
290
     0
174
     0
 93
        1
 44
0.0
173
     0
291
     1
 45
0.0
1001
ACAD
1000
AcDbSavedByObjectVersion
1070
     0
  0
VISUALSTYLE
  5
2B
102
{ACAD_REACTORS
330
2A
102
}
330
2A
100
AcDbVisualStyle
  2
Flat
 70
     0
 71
     2
 72
     1
 73
     1
 90
        2
 40
-0.6
 41
30.0
 62
     5
 63
     7
421
 16777215
 74
     0
 91
        4
 64
     7
 65
   257
 75
     1
175
     1
 42
1.0
 92
        8
 66
     7
 43
1.0
 76
     1
 77
     6
 78
     2
 67
     7
 79
     5
170
     0
171
     0
290
     0
174
     0
 93
       13
 44
0.0
173
     0
291
     1
 45
0.0
1001
ACAD
1000
AcDbSavedByObjectVersion
1070
     0
  0
VISUALSTYLE
  5
2C
102
{ACAD_REACTORS
330
2A
102
}
330
2A
100
AcDbVisualStyle
  2
FlatWithEdges
 70
     1
 71
     2
 72
     1
 73
     1
 90
        2
 40
-0.6
 41
30.0
 62
     5
 63
     7
421
 16777215
 74
     1
 91
        4
 64
     7
 65
   257
 75
     1
175
     1
 42
1.0
 92
        0
 66
   257
 43
1.0
 76
     1
 77
     6
 78
     2
 67
     7
 79
     5
170
     0
171
     0
290
     0
174
     0
 93
       13
 44
0.0
173
     0
291
     1
 45
0.0
1001
ACAD
1000
AcDbSavedByObjectVersion
1070
     0
  0
VISUALSTYLE
  5
2D
102
{ACAD_REACTORS
330
2A
102
}
330
2A
100
AcDbVisualStyle
  2
Gouraud
 70
     2
 71
     2
 72
     2
 73
     1
 90
        2
 40
-0.6
 41
30.0
 62
     5
 63
     7
421
 16777215
 74
     0
 91
        4
 64
     7
 65
   257
 75
     1
175
     1
 42
1.0
 92
        0
 66
     7
 43
1.0
 76
     1
 77
     6
 78
     2
 67
     7
 79
     5
170
     0
171
     0
290
     0
174
     0
 93
       13
 44
0.0
173
     0
291
     1
 45
0.0
1001
ACAD
1000
AcDbSavedByObjectVersion
1070
     0
  0
VISUALSTYLE
  5
2E
102
{ACAD_REACTORS
330
2A
102
}
330
2A
100
AcDbVisualStyle
  2
GouraudWithEdges
 70
     3
 71
     2
 72
     2
 73
     1
 90
        2
 40
-0.6
 41
30.0
 62
     5
 63
     7
421
 16777215
 74
     1
 91
        4
 64
     7
 65
   257
 75
     1
175
     1
 42
1.0
 92
        0
 66
   257
 43
1.0
 76
     1
 77
     6
 78
     2
 67
     7
 79
     5
170
     0
171
     0
290
     0
174
     0
 93
       13
 44
0.0
173
     0
291
     1
 45
0.0
1001
ACAD
1000
AcDbSavedByObjectVersion
1070
     0
  0
VISUALSTYLE
  5
38
102
{ACAD_REACTORS
330
2A
102
}
330
2A
100
AcDbVisualStyle
  2
Linepattern
 70
    14
 71
     2
 72
     2
 73
     0
 90
        0
 40
-0.6
 41
-30.0
 62
     5
 63
     7
421
 16777215
 74
     1
 91
        4
 64
     7
 65
   257
 75
     7
175
     7
 42
1.0
 92
        8
 66
     7
 43
1.0
 76
     1
 77
     6
 78
     2
 67
     7
 79
     5
170
     0
171
     0
290
     0
174
     0
 93
        1
 44
0.0
173
     0
291
     1
 45
0.0
1001
ACAD
1000
AcDbSavedByObjectVersion
1070
     0
  0
VISUALSTYLE
  5
33
102
{ACAD_REACTORS
330
2A
102
}
330
2A
100
AcDbVisualStyle
  2
Realistic
 70
     8
 71
     2
 72
     2
 73
     0
 90
        0
 40
-0.6
 41
-30.0
 62
     5
 63
     7
421
 16777215
 74
     1
 91
        0
 64
     7
 65
   257
 75
     1
175
     1
 42
1.0
 92
        8
 66
     8
424
  7895160
 43
1.0
 76
     1
 77
     6
 78
     2
 67
     7
 79
     5
170
     0
171
     0
290
     0
174
     0
 93
       13
 44
0.0
173
     0
291
     0
 45
0.0
1001
ACAD
1000
AcDbSavedByObjectVersion
1070
     0
  0
VISUALSTYLE
  5
37
102
{ACAD_REACTORS
330
2A
102
}
330
2A
100
AcDbVisualStyle
  2
Thicken
 70
    13
 71
     2
 72
     2
 73
     0
 90
        0
 40
-0.6
 41
-30.0
 62
     5
 63
     7
421
 16777215
 74
     1
 91
        4
 64
     7
 65
   257
 75
     1
175
     1
 42
1.0
 92
       12
 66
     7
 43
1.0
 76
     1
 77
     6
 78
     2
 67
     7
 79
     5
170
     0
171
     0
290
     0
174
     0
 93
        1
 44
0.0
173
     0
291
     1
 45
0.0
1001
ACAD
1000
AcDbSavedByObjectVersion
1070
     0
  0
DICTIONARYVAR
  5
2E7
102
{ACAD_REACTORS
330
2E6
102
}
330
2E6
100
DictionaryVariables
280
     0
  1
1:1
  0
ENDSEC
  0
EOF
