  0
SECTION
  2
HEADER
  9
$ACADVER
  1
AC1027
  9
$ACADMAINTVER
 70
   125
  9
$DWGCODEPAGE
  3
ANSI_1252
  9
$AUTHOR
  1
muni
  9
$LASTSAVEDBY
  1
fleminab
  9
$CUSTOMPROPERTYTAG
  1
Manager
  9
$CUSTOMPROPERTY
  1

  9
$CUSTOMPROPERTYTAG
  1
Company
  9
$CUSTOMPROPERTY
  1

  9
$CUSTOMPROPERTYTAG
  1
Category
  9
$CUSTOMPROPERTY
  1

  9
$CUSTOMPROPERTYTAG
  1
Part Number
  9
$CUSTOMPROPERTY
  1
YFMBHMCPDXF
  9
$CUSTOMPROPERTYTAG
  1
Description
  9
$CUSTOMPROPERTY
  1

  9
$CUSTOMPROPERTYTAG
  1
Project
  9
$CUSTOMPROPERTY
  1

  9
$CUSTOMPROPERTYTAG
  1
Designer
  9
$CUSTOMPROPERTY
  1
muni
  9
$CUSTOMPROPERTYTAG
  1
Engineer
  9
$CUSTOMPROPERTY
  1

  9
$CUSTOMPROPERTYTAG
  1
Authority
  9
$CUSTOMPROPERTY
  1

  9
$CUSTOMPROPERTYTAG
  1
Cost Center
  9
$CUSTOMPROPERTY
  1

  9
$CUSTOMPROPERTYTAG
  1
Vendor
  9
$CUSTOMPROPERTY
  1

  9
$CUSTOMPROPERTYTAG
  1
User Status
  9
$CUSTOMPROPERTY
  1

  9
$CUSTOMPROPERTYTAG
  1
Design Status
  9
$CUSTOMPROPERTY
  1
WorkInProgress
  9
$CUSTOMPROPERTYTAG
  1
Checked by
  9
$CUSTOMPROPERTY
  1

  9
$CUSTOMPROPERTYTAG
  1
Engr Approved by
  9
$CUSTOMPROPERTY
  1

  9
$CUSTOMPROPERTYTAG
  1
Mfg Approved by
  9
$CUSTOMPROPERTY
  1

  9
$CUSTOMPROPERTYTAG
  1
Client
  9
$CUSTOMPROPERTY
  1

  9
$REQUIREDVERSIONS
160
                 0
  9
$INSBASE
 10
0.0
 20
0.0
 30
0.0
  9
$EXTMIN
 10
268.6950719318061
 20
387.4136403149623
 30
-0.0015258207003583
  9
$EXTMAX
 10
1019.259646371076
 20
1695.308536993466
 30
0.0000000349246037
  9
$LIMMIN
 10
0.0
 20
0.0
  9
$LIMMAX
 10
1400.0
 20
1980.0
  9
$ORTHOMODE
 70
     0
  9
$REGENMODE
 70
     1
  9
$FILLMODE
 70
     1
  9
$QTEXTMODE
 70
     0
  9
$MIRRTEXT
 70
     0
  9
$LTSCALE
 40
6.666666666666666
  9
$ATTMODE
 70
     1
  9
$TEXTSIZE
 40
0.2
  9
$TRACEWID
 40
0.05
  9
$TEXTSTYLE
  7
Standard
  9
$CLAYER
  8
0
  9
$CELTYPE
  6
ByLayer
  9
$CECOLOR
 62
   256
  9
$CELTSCALE
 40
1.0
  9
$DISPSILH
 70
     0
  9
$DIMSCALE
 40
1.0
  9
$DIMASZ
 40
1.799999999999999
  9
$DIMEXO
 40
0.0625
  9
$DIMDLI
 40
0.38
  9
$DIMRND
 40
0.0
  9
$DIMDLE
 40
0.0
  9
$DIMEXE
 40
0.18
  9
$DIMTP
 40
0.0
  9
$DIMTM
 40
0.0
  9
$DIMTXT
 40
0.25
  9
$DIMCEN
 40
0.09
  9
$DIMTSZ
 40
0.0
  9
$DIMTOL
 70
     0
  9
$DIMLIM
 70
     0
  9
$DIMTIH
 70
     1
  9
$DIMTOH
 70
     1
  9
$DIMSE1
 70
     0
  9
$DIMSE2
 70
     0
  9
$DIMTAD
 70
     0
  9
$DIMZIN
 70
     0
  9
$DIMBLK
  1

  9
$DIMASO
 70
     1
  9
$DIMSHO
 70
     1
  9
$DIMPOST
  1

  9
$DIMAPOST
  1

  9
$DIMALT
 70
     0
  9
$DIMALTD
 70
     2
  9
$DIMALTF
 40
25.4
  9
$DIMLFAC
 40
1.0
  9
$DIMTOFL
 70
     0
  9
$DIMTVP
 40
0.0
  9
$DIMTIX
 70
     0
  9
$DIMSOXD
 70
     0
  9
$DIMSAH
 70
     0
  9
$DIMBLK1
  1

  9
$DIMBLK2
  1

  9
$DIMSTYLE
  2
Standard
  9
$DIMCLRD
 70
     0
  9
$DIMCLRE
 70
     0
  9
$DIMCLRT
 70
     0
  9
$DIMTFAC
 40
1.0
  9
$DIMGAP
 40
0.09
  9
$DIMJUST
 70
     0
  9
$DIMSD1
 70
     0
  9
$DIMSD2
 70
     0
  9
$DIMTOLJ
 70
     1
  9
$DIMTZIN
 70
     0
  9
$DIMALTZ
 70
     0
  9
$DIMALTTZ
 70
     0
  9
$DIMUPT
 70
     0
  9
$DIMDEC
 70
     4
  9
$DIMTDEC
 70
     4
  9
$DIMALTU
 70
     2
  9
$DIMALTTD
 70
     2
  9
$DIMTXSTY
  7
Standard
  9
$DIMAUNIT
 70
     0
  9
$DIMADEC
 70
     0
  9
$DIMALTRND
 40
0.0
  9
$DIMAZIN
 70
     0
  9
$DIMDSEP
 70
    46
  9
$DIMATFIT
 70
     3
  9
$DIMFRAC
 70
     0
  9
$DIMLDRBLK
  1

  9
$DIMLUNIT
 70
     2
  9
$DIMLWD
 70
    -2
  9
$DIMLWE
 70
    -2
  9
$DIMTMOVE
 70
     0
  9
$DIMFXL
 40
1.0
  9
$DIMFXLON
 70
     0
  9
$DIMJOGANG
 40
0.7853981633974483
  9
$DIMTFILL
 70
     0
  9
$DIMTFILLCLR
 70
     0
  9
$DIMARCSYM
 70
     0
  9
$DIMLTYPE
  6

  9
$DIMLTEX1
  6

  9
$DIMLTEX2
  6

  9
$DIMTXTDIRECTION
 70
     0
  9
$LUNITS
 70
     2
  9
$LUPREC
 70
     4
  9
$SKETCHINC
 40
0.1
  9
$FILLETRAD
 40
0.0
  9
$AUNITS
 70
     0
  9
$AUPREC
 70
     0
  9
$MENU
  1
.
  9
$ELEVATION
 40
0.0
  9
$PELEVATION
 40
0.0
  9
$THICKNESS
 40
0.0
  9
$LIMCHECK
 70
     0
  9
$CHAMFERA
 40
0.0
  9
$CHAMFERB
 40
0.0
  9
$CHAMFERC
 40
0.0
  9
$CHAMFERD
 40
0.0
  9
$SKPOLY
 70
     0
  9
$TDCREATE
 40
2455649.498298611
  9
$TDUCREATE
 40
2455649.039968333
  9
$TDUPDATE
 40
2458068.696875000
  9
$TDUUPDATE
 40
2458068.238541667
  9
$TDINDWG
 40
0.0001383218
  9
$TDUSRTIMER
 40
0.0001383218
  9
$USRTIMER
 70
     1
  9
$ANGBASE
 50
0.0
  9
$ANGDIR
 70
     0
  9
$PDMODE
 70
     0
  9
$PDSIZE
 40
0.0
  9
$PLINEWID
 40
0.0
  9
$SPLFRAME
 70
     0
  9
$SPLINETYPE
 70
     6
  9
$SPLINESEGS
 70
     8
  9
$HANDSEED
  5
B75
  9
$SURFTAB1
 70
     6
  9
$SURFTAB2
 70
     6
  9
$SURFTYPE
 70
     6
  9
$SURFU
 70
     6
  9
$SURFV
 70
     6
  9
$UCSBASE
  2

  9
$UCSNAME
  2

  9
$UCSORG
 10
0.0
 20
0.0
 30
0.0
  9
$UCSXDIR
 10
1.0
 20
0.0
 30
0.0
  9
$UCSYDIR
 10
0.0
 20
1.0
 30
0.0
  9
$UCSORTHOREF
  2

  9
$UCSORTHOVIEW
 70
     0
  9
$UCSORGTOP
 10
0.0
 20
0.0
 30
0.0
  9
$UCSORGBOTTOM
 10
0.0
 20
0.0
 30
0.0
  9
$UCSORGLEFT
 10
0.0
 20
0.0
 30
0.0
  9
$UCSORGRIGHT
 10
0.0
 20
0.0
 30
0.0
  9
$UCSORGFRONT
 10
0.0
 20
0.0
 30
0.0
  9
$UCSORGBACK
 10
0.0
 20
0.0
 30
0.0
  9
$PUCSBASE
  2

  9
$PUCSNAME
  2

  9
$PUCSORG
 10
0.0
 20
0.0
 30
0.0
  9
$PUCSXDIR
 10
1.0
 20
0.0
 30
0.0
  9
$PUCSYDIR
 10
0.0
 20
1.0
 30
0.0
  9
$PUCSORTHOREF
  2

  9
$PUCSORTHOVIEW
 70
     0
  9
$PUCSORGTOP
 10
0.0
 20
0.0
 30
0.0
  9
$PUCSORGBOTTOM
 10
0.0
 20
0.0
 30
0.0
  9
$PUCSORGLEFT
 10
0.0
 20
0.0
 30
0.0
  9
$PUCSORGRIGHT
 10
0.0
 20
0.0
 30
0.0
  9
$PUCSORGFRONT
 10
0.0
 20
0.0
 30
0.0
  9
$PUCSORGBACK
 10
0.0
 20
0.0
 30
0.0
  9
$USERI1
 70
     0
  9
$USERI2
 70
     0
  9
$USERI3
 70
     0
  9
$USERI4
 70
     0
  9
$USERI5
 70
     0
  9
$USERR1
 40
0.0
  9
$USERR2
 40
0.0
  9
$USERR3
 40
0.0
  9
$USERR4
 40
0.0
  9
$USERR5
 40
0.0
  9
$WORLDVIEW
 70
     1
  9
$SHADEDGE
 70
     3
  9
$SHADEDIF
 70
    70
  9
$TILEMODE
 70
     1
  9
$MAXACTVP
 70
    64
  9
$PINSBASE
 10
0.0
 20
0.0
 30
0.0
  9
$PLIMCHECK
 70
     0
  9
$PEXTMIN
 10
0.0
 20
0.0
 30
0.0
  9
$PEXTMAX
 10
1400.0
 20
1980.0
 30
0.0
  9
$PLIMMIN
 10
0.0
 20
0.0
  9
$PLIMMAX
 10
1400.0
 20
1980.0
  9
$UNITMODE
 70
     0
  9
$VISRETAIN
 70
     1
  9
$PLINEGEN
 70
     0
  9
$PSLTSCALE
 70
     1
  9
$TREEDEPTH
 70
  3020
  9
$CMLSTYLE
  2
Standard
  9
$CMLJUST
 70
     0
  9
$CMLSCALE
 40
1.0
  9
$PROXYGRAPHICS
 70
     1
  9
$MEASUREMENT
 70
     1
  9
$CELWEIGHT
370
    -1
  9
$ENDCAPS
280
     0
  9
$JOINSTYLE
280
     0
  9
$LWDISPLAY
290
     0
  9
$INSUNITS
 70
     4
  9
$HYPERLINKBASE
  1

  9
$STYLESHEET
  1

  9
$XEDIT
290
     1
  9
$CEPSNTYPE
380
     0
  9
$PSTYLEMODE
290
     1
  9
$FINGERPRINTGUID
  2
{28725DB6-9078-4AEF-9C0A-7D570499576E}
  9
$VERSIONGUID
  2
{BB563396-D534-DA43-BD0B-391B91918A4E}
  9
$EXTNAMES
290
     1
  9
$PSVPSCALE
 40
0.0
  9
$OLESTARTUP
290
     0
  9
$SORTENTS
280
   127
  9
$INDEXCTL
280
     0
  9
$HIDETEXT
280
     1
  9
$XCLIPFRAME
280
     2
  9
$HALOGAP
280
     0
  9
$OBSCOLOR
 70
   257
  9
$OBSLTYPE
280
     0
  9
$INTERSECTIONDISPLAY
280
     0
  9
$INTERSECTIONCOLOR
 70
   257
  9
$DIMASSOC
280
     1
  9
$PROJECTNAME
  1

  9
$CAMERADISPLAY
290
     0
  9
$LENSLENGTH
 40
50.0
  9
$CAMERAHEIGHT
 40
0.0
  9
$STEPSPERSEC
 40
2.0
  9
$STEPSIZE
 40
6.0
  9
$3DDWFPREC
 40
2.0
  9
$PSOLWIDTH
 40
0.25
  9
$PSOLHEIGHT
 40
4.0
  9
$LOFTANG1
 40
1.570796326794896
  9
$LOFTANG2
 40
1.570796326794896
  9
$LOFTMAG1
 40
0.0
  9
$LOFTMAG2
 40
0.0
  9
$LOFTPARAM
 70
     7
  9
$LOFTNORMALS
280
     1
  9
$LATITUDE
 40
37.795
  9
$LONGITUDE
 40
-122.394
  9
$NORTHDIRECTION
 40
0.0
  9
$TIMEZONE
 70
 -8000
  9
$LIGHTGLYPHDISPLAY
280
     1
  9
$TILEMODELIGHTSYNCH
280
     1
  9
$CMATERIAL
347
11
  9
$SOLIDHIST
280
     0
  9
$SHOWHIST
280
     1
  9
$DWFFRAME
280
     2
  9
$DGNFRAME
280
     0
  9
$REALWORLDSCALE
290
     1
  9
$INTERFERECOLOR
 62
     1
  9
$INTERFEREOBJVS
345
33
  9
$INTERFEREVPVS
346
30
  9
$CSHADOW
280
     0
  9
$SHADOWPLANELOCATION
 40
0.0
  0
ENDSEC
  0
SECTION
  2
CLASSES
  0
CLASS
  1
ACDBDICTIONARYWDFLT
  2
AcDbDictionaryWithDefault
  3
ObjectDBX Classes
 90
        0
 91
        1
280
     0
281
     0
  0
CLASS
  1
MATERIAL
  2
AcDbMaterial
  3
ObjectDBX Classes
 90
     1153
 91
        3
280
     0
281
     0
  0
CLASS
  1
VISUALSTYLE
  2
AcDbVisualStyle
  3
ObjectDBX Classes
 90
     4095
 91
       24
280
     0
281
     0
  0
CLASS
  1
SCALE
  2
AcDbScale
  3
ObjectDBX Classes
 90
     1153
 91
       17
280
     0
281
     0
  0
CLASS
  1
TABLESTYLE
  2
AcDbTableStyle
  3
ObjectDBX Classes
 90
     4095
 91
        1
280
     0
281
     0
  0
CLASS
  1
MLEADERSTYLE
  2
AcDbMLeaderStyle
  3
ACDB_MLEADERSTYLE_CLASS
 90
     4095
 91
        1
280
     0
281
     0
  0
CLASS
  1
DICTIONARYVAR
  2
AcDbDictionaryVar
  3
ObjectDBX Classes
 90
        0
 91
       16
280
     0
281
     0
  0
CLASS
  1
CELLSTYLEMAP
  2
AcDbCellStyleMap
  3
ObjectDBX Classes
 90
     1152
 91
        2
280
     0
281
     0
  0
CLASS
  1
ACDBSECTIONVIEWSTYLE
  2
AcDbSectionViewStyle
  3
ObjectDBX Classes
 90
     1025
 91
        1
280
     0
281
     0
  0
CLASS
  1
ACDBDETAILVIEWSTYLE
  2
AcDbDetailViewStyle
  3
ObjectDBX Classes
 90
     1025
 91
        1
280
     0
281
     0
  0
ENDSEC
  0
SECTION
  2
TABLES
  0
TABLE
  2
VPORT
  5
8
330
0
100
AcDbSymbolTable
 70
     1
1001
ACAD
1000
DbSaveVer
1071
        5
  0
VPORT
  5
57
330
8
100
AcDbSymbolTableRecord
100
AcDbViewportTableRecord
  2
*Active
 70
     0
 10
0.0
 20
0.0
 11
1.0
 21
1.0
 12
643.9773591514413
 22
1041.361088654214
 13
0.0
 23
0.0
 14
1.0
 24
1.0
 15
0.0
 25
0.0
 16
0.0
 26
0.0
 36
1.0
 17
0.0
 27
0.0
 37
0.0
 40
1317.25929928002
 41
2.292712066905615
 42
50.0
 43
0.0
 44
0.0
 50
0.0
 51
0.0
 71
     0
 72
   100
 73
     1
 74
     1
 75
     0
 76
     0
 77
     0
 78
     0
281
     0
 65
     1
110
0.0
120
0.0
130
0.0
111
1.0
121
0.0
131
0.0
112
0.0
122
1.0
132
0.0
 79
     0
146
0.0
348
2F
 60
     3
 61
     5
292
     1
282
     1
141
0.0
142
0.0
 63
   250
421
  3355443
1001
ACAD_NAV_VCDISPLAY
1070
     3
  0
ENDTAB
  0
TABLE
  2
LTYPE
  5
5
330
0
100
AcDbSymbolTable
 70
    59
  0
LTYPE
  5
5B
330
5
100
AcDbSymbolTableRecord
100
AcDbLinetypeTableRecord
  2
ByBlock
 70
     0
  3

 72
    65
 73
     0
 40
0.0
  0
LTYPE
  5
5C
330
5
100
AcDbSymbolTableRecord
100
AcDbLinetypeTableRecord
  2
ByLayer
 70
     0
  3

 72
    65
 73
     0
 40
0.0
  0
LTYPE
  5
5D
330
5
100
AcDbSymbolTableRecord
100
AcDbLinetypeTableRecord
  2
Continuous
 70
     0
  3
Solid line
 72
    65
 73
     0
 40
0.0
  0
LTYPE
  5
74
330
5
100
AcDbSymbolTableRecord
100
AcDbLinetypeTableRecord
  2
Section_View_Lines
 70
     0
  3
Section View Lines
 72
    65
 73
     4
 40
0.8406
 49
0.6614
 74
     0
 49
-0.0827
 74
     0
 49
0.0138
 74
     0
 49
-0.0827
 74
     0
  0
LTYPE
  5
75
330
5
100
AcDbSymbolTableRecord
100
AcDbLinetypeTableRecord
  2
CHAIN
 70
     0
  3
Chain ____ _ ____ _ ____ _ ____ _ ____ _ ____
 72
    65
 73
     4
 40
0.3543
 49
0.2362
 74
     0
 49
-0.0295
 74
     0
 49
0.0591
 74
     0
 49
-0.0295
 74
     0
  0
LTYPE
  5
76
330
5
100
AcDbSymbolTableRecord
100
AcDbLinetypeTableRecord
  2
DASH_DOT
 70
     0
  3
Dash dot _._._._._._._._._._._._._._._.
 72
    65
 73
     4
 40
0.182
 49
0.1181
 74
     0
 49
-0.0295
 74
     0
 49
0.0049
 74
     0
 49
-0.0295
 74
     0
  0
LTYPE
  5
77
330
5
100
AcDbSymbolTableRecord
100
AcDbLinetypeTableRecord
  2
DASH_DOUBLE_DOT
 70
     0
  3
Dash Double Dot __ __ . __ __ . __ __ . __ _
 72
    65
 73
     6
 40
0.2164
 49
0.1181
 74
     0
 49
-0.0295
 74
     0
 49
0.0049
 74
     0
 49
-0.0295
 74
     0
 49
0.0049
 74
     0
 49
-0.0295
 74
     0
  0
LTYPE
  5
78
330
5
100
AcDbSymbolTableRecord
100
AcDbLinetypeTableRecord
  2
DASH_TRIPLE_DOT
 70
     0
  3
Dash Triple-Dot _ . . . _ . . . _ . . . _
 72
    65
 73
     8
 40
0.2508
 49
0.1181
 74
     0
 49
-0.0295
 74
     0
 49
0.0049
 74
     0
 49
-0.0295
 74
     0
 49
0.0049
 74
     0
 49
-0.0295
 74
     0
 49
0.0049
 74
     0
 49
-0.0295
 74
     0
  0
LTYPE
  5
79
330
5
100
AcDbSymbolTableRecord
100
AcDbLinetypeTableRecord
  2
DASHED
 70
     0
  3
Dashed __ __ __ __ __ __ __ __ __ __ __ __ __ _
 72
    65
 73
     2
 40
0.2068
 49
0.1655
 74
     0
 49
-0.0413
 74
     0
  0
LTYPE
  5
7A
330
5
100
AcDbSymbolTableRecord
100
AcDbLinetypeTableRecord
  2
DASHED_SPACE
 70
     0
  3
Dashed Space __ __ __ __ __ __ __ __ __ __ __ _
 72
    65
 73
     2
 40
0.2067
 49
0.1654
 74
     0
 49
-0.0413
 74
     0
  0
LTYPE
  5
7B
330
5
100
AcDbSymbolTableRecord
100
AcDbLinetypeTableRecord
  2
DOTTED
 70
     0
  3
Dotted . . . . . . . . . . . . . . . . . . . . 
 72
    65
 73
     2
 40
0.0481
 49
0.0068
 74
     0
 49
-0.0413
 74
     0
  0
LTYPE
  5
7C
330
5
100
AcDbSymbolTableRecord
100
AcDbLinetypeTableRecord
  2
DOUBLE_DASH_CHAIN
 70
     0
  3
Double Dash Chain ___ _ _ ___ _ _ ___ _ _ ___ _
 72
    65
 73
     6
 40
1.240299999999998
 49
0.6614
 74
     0
 49
-0.0827
 74
     0
 49
0.1654
 74
     0
 49
-0.0827
 74
     0
 49
0.1654
 74
     0
 49
-0.0827
 74
     0
  0
LTYPE
  5
7D
330
5
100
AcDbSymbolTableRecord
100
AcDbLinetypeTableRecord
  2
DOUBLE_DASH_DOT
 70
     0
  3
Double Dash Dot __ __ . __ __ . __ __ . __ _
 72
    65
 73
     6
 40
0.3296
 49
0.1181
 74
     0
 49
-0.0295
 74
     0
 49
0.1181
 74
     0
 49
-0.0295
 74
     0
 49
0.0049
 74
     0
 49
-0.0295
 74
     0
  0
LTYPE
  5
7E
330
5
100
AcDbSymbolTableRecord
100
AcDbLinetypeTableRecord
  2
DOUBLE_DASH_DOUBLE_DOT
 70
     0
  3
Double Dash Double Dot _ _ . . _ _ . . _ _
 72
    65
 73
     8
 40
0.364
 49
0.1181
 74
     0
 49
-0.0295
 74
     0
 49
0.1181
 74
     0
 49
-0.0295
 74
     0
 49
0.0049
 74
     0
 49
-0.0295
 74
     0
 49
0.0049
 74
     0
 49
-0.0295
 74
     0
  0
LTYPE
  5
7F
330
5
100
AcDbSymbolTableRecord
100
AcDbLinetypeTableRecord
  2
DOUBLE_DASH_TRIPLE_DOT
 70
     0
  3
Double Dash Triple Dot __ __ . . . __ __ . . .
 72
    65
 73
    10
 40
0.3984
 49
0.1181
 74
     0
 49
-0.0295
 74
     0
 49
0.1181
 74
     0
 49
-0.0295
 74
     0
 49
0.0049
 74
     0
 49
-0.0295
 74
     0
 49
0.0049
 74
     0
 49
-0.0295
 74
     0
 49
0.0049
 74
     0
 49
-0.0295
 74
     0
  0
LTYPE
  5
80
330
5
100
AcDbSymbolTableRecord
100
AcDbLinetypeTableRecord
  2
LONG_DASH_DOTTED
 70
     0
  3
Long Dash Dotted ____ . ____ . ____ . ____ . _
 72
    65
 73
     4
 40
0.3001
 49
0.2362
 74
     0
 49
-0.0295
 74
     0
 49
0.0049
 74
     0
 49
-0.0295
 74
     0
  0
LTYPE
  5
81
330
5
100
AcDbSymbolTableRecord
100
AcDbLinetypeTableRecord
  2
LONG_DASH_DOUBLE_DOT
 70
     0
  3
Long Dash Double Dot ____ . . ____ . . ____ . .
 72
    65
 73
     6
 40
0.3345
 49
0.2362
 74
     0
 49
-0.0295
 74
     0
 49
0.0049
 74
     0
 49
-0.0295
 74
     0
 49
0.0049
 74
     0
 49
-0.0295
 74
     0
  0
LTYPE
  5
82
330
5
100
AcDbSymbolTableRecord
100
AcDbLinetypeTableRecord
  2
LONG_DASH_TRIPLE_DOT
 70
     0
  3
Long Dash Triple Dot ____ ... ____ ... ____
 72
    65
 73
     8
 40
0.3689
 49
0.2362
 74
     0
 49
-0.0295
 74
     0
 49
0.0049
 74
     0
 49
-0.0295
 74
     0
 49
0.0049
 74
     0
 49
-0.0295
 74
     0
 49
0.0049
 74
     0
 49
-0.0295
 74
     0
  0
LTYPE
  5
83
330
5
100
AcDbSymbolTableRecord
100
AcDbLinetypeTableRecord
  2
BORDER
 70
     0
  3
Border __ __ . __ __ . __ __ . __ __ . __ __ .
 72
    65
 73
     6
 40
44.45
 49
12.7
 74
     0
 49
-6.349999999999998
 74
     0
 49
12.7
 74
     0
 49
-6.349999999999998
 74
     0
 49
0.0
 74
     0
 49
-6.349999999999998
 74
     0
  0
LTYPE
  5
84
330
5
100
AcDbSymbolTableRecord
100
AcDbLinetypeTableRecord
  2
BORDER2
 70
     0
  3
Border (.5x) __.__.__.__.__.__.__.__.__.__.__.
 72
    65
 73
     6
 40
22.225
 49
6.349999999999998
 74
     0
 49
-3.174999999999998
 74
     0
 49
6.349999999999998
 74
     0
 49
-3.174999999999998
 74
     0
 49
0.0
 74
     0
 49
-3.174999999999998
 74
     0
  0
LTYPE
  5
85
330
5
100
AcDbSymbolTableRecord
100
AcDbLinetypeTableRecord
  2
BORDERX2
 70
     0
  3
Border (2x) ____  ____  .  ____  ____  .  ___
 72
    65
 73
     6
 40
88.9
 49
25.4
 74
     0
 49
-12.7
 74
     0
 49
25.4
 74
     0
 49
-12.7
 74
     0
 49
0.0
 74
     0
 49
-12.7
 74
     0
  0
LTYPE
  5
86
330
5
100
AcDbSymbolTableRecord
100
AcDbLinetypeTableRecord
  2
CENTER
 70
     0
  3
Center ____ _ ____ _ ____ _ ____ _ ____ _ ____
 72
    65
 73
     4
 40
50.8
 49
31.75
 74
     0
 49
-6.349999999999998
 74
     0
 49
6.349999999999998
 74
     0
 49
-6.349999999999998
 74
     0
  0
LTYPE
  5
87
330
5
100
AcDbSymbolTableRecord
100
AcDbLinetypeTableRecord
  2
CENTER2
 70
     0
  3
Center (.5x) ___ _ ___ _ ___ _ ___ _ ___ _ ___
 72
    65
 73
     4
 40
28.575
 49
19.05
 74
     0
 49
-3.174999999999998
 74
     0
 49
3.174999999999998
 74
     0
 49
-3.174999999999998
 74
     0
  0
LTYPE
  5
88
330
5
100
AcDbSymbolTableRecord
100
AcDbLinetypeTableRecord
  2
CENTERX2
 70
     0
  3
Center (2x) ________  __  ________  __  _____
 72
    65
 73
     4
 40
101.6
 49
63.5
 74
     0
 49
-12.7
 74
     0
 49
12.7
 74
     0
 49
-12.7
 74
     0
  0
LTYPE
  5
89
330
5
100
AcDbSymbolTableRecord
100
AcDbLinetypeTableRecord
  2
DASHDOT2
 70
     0
  3
Dash dot (.5x) _._._._._._._._._._._._._._._.
 72
    65
 73
     4
 40
12.7
 49
6.349999999999998
 74
     0
 49
-3.174999999999998
 74
     0
 49
0.0
 74
     0
 49
-3.174999999999998
 74
     0
  0
LTYPE
  5
8A
330
5
100
AcDbSymbolTableRecord
100
AcDbLinetypeTableRecord
  2
DASHDOTX2
 70
     0
  3
Dash dot (2x) ____  .  ____  .  ____  .  ___
 72
    65
 73
     4
 40
50.8
 49
25.4
 74
     0
 49
-12.7
 74
     0
 49
0.0
 74
     0
 49
-12.7
 74
     0
  0
LTYPE
  5
8B
330
5
100
AcDbSymbolTableRecord
100
AcDbLinetypeTableRecord
  2
DASHED2
 70
     0
  3
Dashed (.5x) _ _ _ _ _ _ _ _ _ _ _ _ _ _ _ _ _
 72
    65
 73
     2
 40
9.524999999999996
 49
6.349999999999998
 74
     0
 49
-3.174999999999998
 74
     0
  0
LTYPE
  5
8C
330
5
100
AcDbSymbolTableRecord
100
AcDbLinetypeTableRecord
  2
DASHEDX2
 70
     0
  3
Dashed (2x) ____  ____  ____  ____  ____  ___
 72
    65
 73
     2
 40
38.1
 49
25.4
 74
     0
 49
-12.7
 74
     0
  0
LTYPE
  5
8D
330
5
100
AcDbSymbolTableRecord
100
AcDbLinetypeTableRecord
  2
DIVIDE
 70
     0
  3
Divide ____ . . ____ . . ____ . . ____ . . ____
 72
    65
 73
     6
 40
31.75
 49
12.7
 74
     0
 49
-6.349999999999998
 74
     0
 49
0.0
 74
     0
 49
-6.349999999999998
 74
     0
 49
0.0
 74
     0
 49
-6.349999999999998
 74
     0
  0
LTYPE
  5
8E
330
5
100
AcDbSymbolTableRecord
100
AcDbLinetypeTableRecord
  2
DIVIDE2
 70
     0
  3
Divide (.5x) __..__..__..__..__..__..__..__.._
 72
    65
 73
     6
 40
15.875
 49
6.349999999999998
 74
     0
 49
-3.174999999999998
 74
     0
 49
0.0
 74
     0
 49
-3.174999999999998
 74
     0
 49
0.0
 74
     0
 49
-3.174999999999998
 74
     0
  0
LTYPE
  5
8F
330
5
100
AcDbSymbolTableRecord
100
AcDbLinetypeTableRecord
  2
DIVIDEX2
 70
     0
  3
Divide (2x) ________  .  .  ________  .  .  _
 72
    65
 73
     6
 40
63.49999999999999
 49
25.4
 74
     0
 49
-12.7
 74
     0
 49
0.0
 74
     0
 49
-12.7
 74
     0
 49
0.0
 74
     0
 49
-12.7
 74
     0
  0
LTYPE
  5
90
330
5
100
AcDbSymbolTableRecord
100
AcDbLinetypeTableRecord
  2
DOT
 70
     0
  3
Dot . . . . . . . . . . . . . . . . . . . . . .
 72
    65
 73
     2
 40
6.349999999999998
 49
0.0
 74
     0
 49
-6.349999999999998
 74
     0
  0
LTYPE
  5
91
330
5
100
AcDbSymbolTableRecord
100
AcDbLinetypeTableRecord
  2
DOT2
 70
     0
  3
Dot (.5x) .....................................
 72
    65
 73
     2
 40
3.174999999999998
 49
0.0
 74
     0
 49
-3.174999999999998
 74
     0
  0
LTYPE
  5
92
330
5
100
AcDbSymbolTableRecord
100
AcDbLinetypeTableRecord
  2
DOTX2
 70
     0
  3
Dot (2x) .  .  .  .  .  .  .  .  .  .  .  .  . 
 72
    65
 73
     2
 40
12.7
 49
0.0
 74
     0
 49
-12.7
 74
     0
  0
LTYPE
  5
93
330
5
100
AcDbSymbolTableRecord
100
AcDbLinetypeTableRecord
  2
HIDDEN
 70
     0
  3
Hidden __ __ __ __ __ __ __ __ __ __ __ __ __ _
 72
    65
 73
     2
 40
9.524999999999996
 49
6.349999999999998
 74
     0
 49
-3.174999999999998
 74
     0
  0
LTYPE
  5
94
330
5
100
AcDbSymbolTableRecord
100
AcDbLinetypeTableRecord
  2
HIDDEN2
 70
     0
  3
Hidden (.5x) _ _ _ _ _ _ _ _ _ _ _ _ _ _ _ _ _
 72
    65
 73
     2
 40
4.762499999999998
 49
3.174999999999998
 74
     0
 49
-1.587499999999999
 74
     0
  0
LTYPE
  5
95
330
5
100
AcDbSymbolTableRecord
100
AcDbLinetypeTableRecord
  2
HIDDENX2
 70
     0
  3
Hidden (2x) ____ ____ ____ ____ ____ ____ ____
 72
    65
 73
     2
 40
19.05
 49
12.7
 74
     0
 49
-6.349999999999998
 74
     0
  0
LTYPE
  5
96
330
5
100
AcDbSymbolTableRecord
100
AcDbLinetypeTableRecord
  2
PHANTOM
 70
     0
  3
Phantom ______  __  __  ______  __  __  ______
 72
    65
 73
     6
 40
63.5
 49
31.75
 74
     0
 49
-6.349999999999998
 74
     0
 49
6.349999999999998
 74
     0
 49
-6.349999999999998
 74
     0
 49
6.349999999999998
 74
     0
 49
-6.349999999999998
 74
     0
  0
LTYPE
  5
97
330
5
100
AcDbSymbolTableRecord
100
AcDbLinetypeTableRecord
  2
PHANTOM2
 70
     0
  3
Phantom (.5x) ___ _ _ ___ _ _ ___ _ _ ___ _ _
 72
    65
 73
     6
 40
31.75
 49
15.875
 74
     0
 49
-3.174999999999998
 74
     0
 49
3.174999999999998
 74
     0
 49
-3.174999999999998
 74
     0
 49
3.174999999999998
 74
     0
 49
-3.174999999999998
 74
     0
  0
LTYPE
  5
98
330
5
100
AcDbSymbolTableRecord
100
AcDbLinetypeTableRecord
  2
PHANTOMX2
 70
     0
  3
Phantom (2x) ____________    ____    ____   _
 72
    65
 73
     6
 40
127.0
 49
63.5
 74
     0
 49
-12.7
 74
     0
 49
12.7
 74
     0
 49
-12.7
 74
     0
 49
12.7
 74
     0
 49
-12.7
 74
     0
  0
LTYPE
  5
99
330
5
100
AcDbSymbolTableRecord
100
AcDbLinetypeTableRecord
  2
ACAD_ISO02W100
 70
     0
  3
ISO dash __ __ __ __ __ __ __ __ __ __ __ __ __
 72
    65
 73
     2
 40
15.0
 49
12.0
 74
     0
 49
-3.0
 74
     0
  0
LTYPE
  5
9A
330
5
100
AcDbSymbolTableRecord
100
AcDbLinetypeTableRecord
  2
ACAD_ISO03W100
 70
     0
  3
ISO dash space __    __    __    __    __    __
 72
    65
 73
     2
 40
30.0
 49
12.0
 74
     0
 49
-18.0
 74
     0
  0
LTYPE
  5
9B
330
5
100
AcDbSymbolTableRecord
100
AcDbLinetypeTableRecord
  2
ACAD_ISO04W100
 70
     0
  3
ISO long-dash dot ____ . ____ . ____ . ____ . _
 72
    65
 73
     4
 40
30.0
 49
24.0
 74
     0
 49
-3.0
 74
     0
 49
0.0
 74
     0
 49
-3.0
 74
     0
  0
LTYPE
  5
9C
330
5
100
AcDbSymbolTableRecord
100
AcDbLinetypeTableRecord
  2
ACAD_ISO05W100
 70
     0
  3
ISO long-dash double-dot ____ .. ____ .. ____ .
 72
    65
 73
     6
 40
33.0
 49
24.0
 74
     0
 49
-3.0
 74
     0
 49
0.0
 74
     0
 49
-3.0
 74
     0
 49
0.0
 74
     0
 49
-3.0
 74
     0
  0
LTYPE
  5
9D
330
5
100
AcDbSymbolTableRecord
100
AcDbLinetypeTableRecord
  2
ACAD_ISO06W100
 70
     0
  3
ISO long-dash triple-dot ____ ... ____ ... ____
 72
    65
 73
     8
 40
36.0
 49
24.0
 74
     0
 49
-3.0
 74
     0
 49
0.0
 74
     0
 49
-3.0
 74
     0
 49
0.0
 74
     0
 49
-3.0
 74
     0
 49
0.0
 74
     0
 49
-3.0
 74
     0
  0
LTYPE
  5
9E
330
5
100
AcDbSymbolTableRecord
100
AcDbLinetypeTableRecord
  2
ACAD_ISO07W100
 70
     0
  3
ISO dot . . . . . . . . . . . . . . . . . . . .
 72
    65
 73
     2
 40
3.0
 49
0.0
 74
     0
 49
-3.0
 74
     0
  0
LTYPE
  5
9F
330
5
100
AcDbSymbolTableRecord
100
AcDbLinetypeTableRecord
  2
ACAD_ISO08W100
 70
     0
  3
ISO long-dash short-dash ____ __ ____ __ ____ _
 72
    65
 73
     4
 40
36.0
 49
24.0
 74
     0
 49
-3.0
 74
     0
 49
6.0
 74
     0
 49
-3.0
 74
     0
  0
LTYPE
  5
A0
330
5
100
AcDbSymbolTableRecord
100
AcDbLinetypeTableRecord
  2
ACAD_ISO09W100
 70
     0
  3
ISO long-dash double-short-dash ____ __ __ ____
 72
    65
 73
     6
 40
45.0
 49
24.0
 74
     0
 49
-3.0
 74
     0
 49
6.0
 74
     0
 49
-3.0
 74
     0
 49
6.0
 74
     0
 49
-3.0
 74
     0
  0
LTYPE
  5
A1
330
5
100
AcDbSymbolTableRecord
100
AcDbLinetypeTableRecord
  2
ACAD_ISO10W100
 70
     0
  3
ISO dash dot __ . __ . __ . __ . __ . __ . __ .
 72
    65
 73
     4
 40
18.0
 49
12.0
 74
     0
 49
-3.0
 74
     0
 49
0.0
 74
     0
 49
-3.0
 74
     0
  0
LTYPE
  5
A2
330
5
100
AcDbSymbolTableRecord
100
AcDbLinetypeTableRecord
  2
ACAD_ISO11W100
 70
     0
  3
ISO double-dash dot __ __ . __ __ . __ __ . __ 
 72
    65
 73
     6
 40
33.0
 49
12.0
 74
     0
 49
-3.0
 74
     0
 49
12.0
 74
     0
 49
-3.0
 74
     0
 49
0.0
 74
     0
 49
-3.0
 74
     0
  0
LTYPE
  5
A3
330
5
100
AcDbSymbolTableRecord
100
AcDbLinetypeTableRecord
  2
ACAD_ISO12W100
 70
     0
  3
ISO dash double-dot __ . . __ . . __ . . __ . .
 72
    65
 73
     6
 40
21.0
 49
12.0
 74
     0
 49
-3.0
 74
     0
 49
0.0
 74
     0
 49
-3.0
 74
     0
 49
0.0
 74
     0
 49
-3.0
 74
     0
  0
LTYPE
  5
A4
330
5
100
AcDbSymbolTableRecord
100
AcDbLinetypeTableRecord
  2
ACAD_ISO13W100
 70
     0
  3
ISO double-dash double-dot __ __ . . __ __ . . 
 72
    65
 73
     8
 40
36.0
 49
12.0
 74
     0
 49
-3.0
 74
     0
 49
12.0
 74
     0
 49
-3.0
 74
     0
 49
0.0
 74
     0
 49
-3.0
 74
     0
 49
0.0
 74
     0
 49
-3.0
 74
     0
  0
LTYPE
  5
A5
330
5
100
AcDbSymbolTableRecord
100
AcDbLinetypeTableRecord
  2
ACAD_ISO14W100
 70
     0
  3
ISO dash triple-dot __ . . . __ . . . __ . . . 
 72
    65
 73
     8
 40
24.0
 49
12.0
 74
     0
 49
-3.0
 74
     0
 49
0.0
 74
     0
 49
-3.0
 74
     0
 49
0.0
 74
     0
 49
-3.0
 74
     0
 49
0.0
 74
     0
 49
-3.0
 74
     0
  0
LTYPE
  5
A6
330
5
100
AcDbSymbolTableRecord
100
AcDbLinetypeTableRecord
  2
ACAD_ISO15W100
 70
     0
  3
ISO double-dash triple-dot __ __ . . . __ __ . 
 72
    65
 73
    10
 40
39.0
 49
12.0
 74
     0
 49
-3.0
 74
     0
 49
12.0
 74
     0
 49
-3.0
 74
     0
 49
0.0
 74
     0
 49
-3.0
 74
     0
 49
0.0
 74
     0
 49
-3.0
 74
     0
 49
0.0
 74
     0
 49
-3.0
 74
     0
  0
LTYPE
  5
A9
330
5
100
AcDbSymbolTableRecord
100
AcDbLinetypeTableRecord
  2
FENCELINE1
 70
     0
  3
Fenceline circle ----0-----0----0-----0----0---
 72
    65
 73
     4
 40
36.83
 49
6.349999999999998
 74
     0
 49
-2.54
 74
     4
 75
   133
340
A8
 46
2.54
 50
0.0
 44
-2.54
 45
0.0
 49
-2.54
 74
     0
 49
25.4
 74
     0
  0
LTYPE
  5
AA
330
5
100
AcDbSymbolTableRecord
100
AcDbLinetypeTableRecord
  2
FENCELINE2
 70
     0
  3
Fenceline square ----[]-----[]----[]-----[]----
 72
    65
 73
     4
 40
36.83
 49
6.349999999999998
 74
     0
 49
-2.54
 74
     4
 75
   132
340
A8
 46
2.54
 50
0.0
 44
-2.54
 45
0.0
 49
-2.54
 74
     0
 49
25.4
 74
     0
  0
LTYPE
  5
AB
330
5
100
AcDbSymbolTableRecord
100
AcDbLinetypeTableRecord
  2
TRACKS
 70
     0
  3
Tracks -|-|-|-|-|-|-|-|-|-|-|-|-|-|-|-|-|-|-|-|
 72
    65
 73
     2
 40
7.62
 49
3.81
 74
     4
 75
   130
340
A8
 46
6.349999999999998
 50
0.0
 44
0.0
 45
0.0
 49
3.81
 74
     0
  0
LTYPE
  5
AC
330
5
100
AcDbSymbolTableRecord
100
AcDbLinetypeTableRecord
  2
BATTING
 70
     0
  3
Batting SSSSSSSSSSSSSSSSSSSSSSSSSSSSSSSSSSSSSSS
 72
    65
 73
     4
 40
10.16254
 49
0.00254
 74
     0
 49
-2.54
 74
     4
 75
   134
340
A8
 46
2.54
 50
0.0
 44
-2.54
 45
0.0
 49
-5.08
 74
     4
 75
   134
340
A8
 46
2.54
 50
180.0
 44
2.54
 45
0.0
 49
-2.54
 74
     0
  0
LTYPE
  5
AD
330
5
100
AcDbSymbolTableRecord
100
AcDbLinetypeTableRecord
  2
HOT_WATER_SUPPLY
 70
     0
  3
Hot water supply ---- HW ---- HW ---- HW ----
 72
    65
 73
     3
 40
22.86
 49
12.7
 74
     0
 49
-5.08
 74
     2
 75
     0
340
55
 46
2.54
 50
0.0
 44
-2.54
 45
-1.27
  9
HW
 49
-5.08
 74
     0
  0
LTYPE
  5
AE
330
5
100
AcDbSymbolTableRecord
100
AcDbLinetypeTableRecord
  2
GAS_LINE
 70
     0
  3
Gas line ----GAS----GAS----GAS----GAS----GAS---
 72
    65
 73
     3
 40
24.13
 49
12.7
 74
     0
 49
-5.08
 74
     2
 75
     0
340
55
 46
2.54
 50
0.0
 44
-2.54
 45
-1.27
  9
GAS
 49
-6.349999999999998
 74
     0
  0
LTYPE
  5
AF
330
5
100
AcDbSymbolTableRecord
100
AcDbLinetypeTableRecord
  2
ZIGZAG
 70
     0
  3
Zig zag /\/\/\/\/\/\/\/\/\/\/\/\/\/\/\/\/\/\/\/
 72
    65
 73
     4
 40
20.32254
 49
0.00254
 74
     0
 49
-5.08
 74
     4
 75
   131
340
A8
 46
5.08
 50
0.0
 44
-5.08
 45
0.0
 49
-10.16
 74
     4
 75
   131
340
A8
 46
5.08
 50
180.0
 44
5.08
 45
0.0
 49
-5.08
 74
     0
  0
ENDTAB
  0
TABLE
  2
LAYER
  5
2
330
0
100
AcDbSymbolTable
 70
     8
  0
LAYER
  5
54
330
2
100
AcDbSymbolTableRecord
100
AcDbLayerTableRecord
  2
0
 70
     0
 62
     7
  6
Continuous
370
    -3
390
F
347
21
348
0
  0
LAYER
  5
D5
330
2
100
AcDbSymbolTableRecord
100
AcDbLayerTableRecord
  2
Dimensions(Ram)
 70
     0
 62
     7
  6
Continuous
370
    25
390
F
347
21
348
0
  0
LAYER
  5
D6
330
2
100
AcDbSymbolTableRecord
100
AcDbLayerTableRecord
  2
Hatch
 70
     0
 62
   179
  6
Continuous
370
     9
390
F
347
21
348
0
  0
LAYER
  5
E6
330
2
100
AcDbSymbolTableRecord
100
AcDbLayerTableRecord
  2
Sketch Geometry(Ram)
 70
     0
 62
     7
  6
Continuous
370
    50
390
F
347
21
348
0
  0
LAYER
  5
E8
330
2
100
AcDbSymbolTableRecord
100
AcDbLayerTableRecord
  2
Sketch Lines(Ram)
 70
     0
 62
     7
  6
Continuous
370
    18
390
F
347
21
348
0
  0
LAYER
  5
F2
330
2
100
AcDbSymbolTableRecord
100
AcDbLayerTableRecord
  2
Symbols(Ram)
 70
     0
 62
     7
  6
Continuous
370
    25
390
F
347
21
348
0
  0
LAYER
  5
FA
330
2
100
AcDbSymbolTableRecord
100
AcDbLayerTableRecord
  2
Visible Edges(Ram)
 70
     0
 62
     7
  6
Continuous
370
    50
390
F
347
21
348
0
  0
LAYER
  5
3EB
330
2
100
AcDbSymbolTableRecord
100
AcDbLayerTableRecord
  2
Defpoints
 70
     0
 62
     7
  6
Continuous
290
     0
370
    -3
390
F
347
21
348
0
  0
ENDTAB
  0
TABLE
  2
STYLE
  5
3
330
0
100
AcDbSymbolTable
 70
    16
  0
STYLE
  5
55
330
3
100
AcDbSymbolTableRecord
100
AcDbTextStyleTableRecord
  2
Standard
 70
     0
 40
0.0
 41
1.0
 50
0.0
 71
     0
 42
0.2
  3
ARIAL.TTF
  4

1001
ACAD
1000
Arial
1071
      256
  0
STYLE
  5
5A
330
3
100
AcDbSymbolTableRecord
100
AcDbTextStyleTableRecord
  2
Annotative
 70
     0
 40
0.0
 41
1.0
 50
0.0
 71
     0
 42
0.2
  3
txt
  4

1001
AcadAnnotative
1000
AnnotativeData
1002
{
1070
     1
1070
     1
1002
}
  0
STYLE
  5
A8
330
3
100
AcDbSymbolTableRecord
100
AcDbTextStyleTableRecord
  2

 70
     1
 40
0.0
 41
1.0
 50
0.0
 71
     0
 42
0.2
  3
ltypeshp.shx
  4

  0
STYLE
  5
103
330
3
100
AcDbSymbolTableRecord
100
AcDbTextStyleTableRecord
  2
Current-ISO
 70
     0
 40
0.0
 41
1.0
 50
0.0
 71
     0
 42
0.2
  3
ARIAL.TTF
  4

1001
ACAD
1000
Arial
1071
      256
  0
STYLE
  5
104
330
3
100
AcDbSymbolTableRecord
100
AcDbTextStyleTableRecord
  2
DEFAULT-BSI~0
 70
     0
 40
0.0
 41
1.0
 50
0.0
 71
     0
 42
0.2
  3
ARIAL.TTF
  4

1001
ACAD
1000
Arial
1071
      256
  0
STYLE
  5
105
330
3
100
AcDbSymbolTableRecord
100
AcDbTextStyleTableRecord
  2
DEFAULT-ISO
 70
     0
 40
0.0
 41
1.0
 50
0.0
 71
     0
 42
0.2
  3
ARIAL.TTF
  4

1001
ACAD
1000
Arial
1071
      256
  0
STYLE
  5
106
330
3
100
AcDbSymbolTableRecord
100
AcDbTextStyleTableRecord
  2
DEFAULT-ISOBigText
 70
     0
 40
0.0
 41
1.0
 50
0.0
 71
     0
 42
0.2
  3
ARIAL.TTF
  4

1001
ACAD
1000
Arial
1071
      256
  0
STYLE
  5
107
330
3
100
AcDbSymbolTableRecord
100
AcDbTextStyleTableRecord
  2
DEFAULT-ISOByLayer
 70
     0
 40
0.0
 41
1.0
 50
0.0
 71
     0
 42
0.2
  3
ARIAL.TTF
  4

1001
ACAD
1000
Arial
1071
      256
  0
STYLE
  5
108
330
3
100
AcDbSymbolTableRecord
100
AcDbTextStyleTableRecord
  2
Label Text (ISO)
 70
     0
 40
0.0
 41
1.0
 50
0.0
 71
     0
 42
0.2
  3
TAHOMA.TTF
  4

1001
ACAD
1000
Tahoma
1071
      256
  0
STYLE
  5
109
330
3
100
AcDbSymbolTableRecord
100
AcDbTextStyleTableRecord
  2
Std 1.8 Arial
 70
     0
 40
0.0
 41
1.0
 50
0.0
 71
     0
 42
0.2
  3
ARIAL.TTF
  4

1001
ACAD
1000
Arial
1071
      256
  0
STYLE
  5
10A
330
3
100
AcDbSymbolTableRecord
100
AcDbTextStyleTableRecord
  2
Std 2.0 Arial
 70
     0
 40
0.0
 41
1.0
 50
0.0
 71
     0
 42
0.2
  3
ARIAL.TTF
  4

1001
ACAD
1000
Arial
1071
      256
  0
STYLE
  5
10B
330
3
100
AcDbSymbolTableRecord
100
AcDbTextStyleTableRecord
  2
STD 2.5 ARIAL
 70
     0
 40
0.0
 41
1.0
 50
0.0
 71
     0
 42
0.2
  3
ARIAL.TTF
  4

1001
ACAD
1000
Arial
1071
      256
  0
STYLE
  5
10C
330
3
100
AcDbSymbolTableRecord
100
AcDbTextStyleTableRecord
  2
STD 2.5 ARIALBigText
 70
     0
 40
0.0
 41
1.0
 50
0.0
 71
     0
 42
0.2
  3
ARIAL.TTF
  4

1001
ACAD
1000
Arial
1071
      256
  0
STYLE
  5
10D
330
3
100
AcDbSymbolTableRecord
100
AcDbTextStyleTableRecord
  2
STD 2.5 ARIALByLayer
 70
     0
 40
0.0
 41
1.0
 50
0.0
 71
     0
 42
0.2
  3
ARIAL.TTF
  4

1001
ACAD
1000
Arial
1071
      256
  0
STYLE
  5
2E7
330
3
100
AcDbSymbolTableRecord
100
AcDbTextStyleTableRecord
  2
Text Style14
 70
     0
 40
0.0
 41
1.0
 50
0.0
 71
     0
 42
0.2
  3
ARIAL.TTF
  4

1001
ACAD
1000
Arial
1071
      256
  0
STYLE
  5
2EF
330
3
100
AcDbSymbolTableRecord
100
AcDbTextStyleTableRecord
  2
Text Style59
 70
     0
 40
0.0
 41
1.0
 50
0.0
 71
     0
 42
0.2
  3
ARIALBD.TTF
  4

1001
ACAD
1000
Arial
1071
 33554688
  0
ENDTAB
  0
TABLE
  2
VIEW
  5
6
330
0
100
AcDbSymbolTable
 70
     0
  0
ENDTAB
  0
TABLE
  2
UCS
  5
7
330
0
100
AcDbSymbolTable
 70
     0
  0
ENDTAB
  0
TABLE
  2
APPID
  5
9
330
0
100
AcDbSymbolTable
 70
     5
  0
APPID
  5
56
330
9
100
AcDbSymbolTableRecord
100
AcDbRegAppTableRecord
  2
ACAD
 70
     0
  0
APPID
  5
5E
330
9
100
AcDbSymbolTableRecord
100
AcDbRegAppTableRecord
  2
AcadAnnotative
 70
     0
  0
APPID
  5
2EA
330
9
100
AcDbSymbolTableRecord
100
AcDbRegAppTableRecord
  2
AcadAnnoPO
 70
     0
  0
APPID
  5
B25
330
9
100
AcDbSymbolTableRecord
100
AcDbRegAppTableRecord
  2
ACAD_MLEADERVER
 70
     0
  0
APPID
  5
B3D
330
9
100
AcDbSymbolTableRecord
100
AcDbRegAppTableRecord
  2
ACAD_NAV_VCDISPLAY
 70
     0
  0
ENDTAB
  0
TABLE
  2
DIMSTYLE
  5
A
330
0
100
AcDbSymbolTable
 70
    25
100
AcDbDimStyleTable
 71
     2
340
11A
340
58
  0
DIMSTYLE
105
58
330
A
100
AcDbSymbolTableRecord
100
AcDbDimStyleTableRecord
  2
Standard
 70
     0
340
55
  0
DIMSTYLE
105
59
330
A
100
AcDbSymbolTableRecord
100
AcDbDimStyleTableRecord
  2
Annotative
 70
     0
340
55
1001
AcadAnnotative
1000
AnnotativeData
1002
{
1070
     1
1070
     1
1002
}
  0
DIMSTYLE
105
10E
330
A
100
AcDbSymbolTableRecord
100
AcDbDimStyleTableRecord
  2
DEFAULT-ISO
 70
     0
 40
6.666666666666666
 41
2.5
 42
1.0
 43
5.999999999999999
 44
3.174999999999998
 45
0.00000001
 46
10.0
 73
     0
 77
     1
140
2.5
143
0.03937
147
0.762
171
     3
172
     1
176
   250
177
   250
178
     7
179
     2
271
     2
272
     2
274
     3
340
104
371
    25
372
    25
  0
DIMSTYLE
105
10F
330
A
100
AcDbSymbolTableRecord
100
AcDbDimStyleTableRecord
  2
DEFAULT-ISO$7
 70
     0
 40
6.666666666666666
 41
2.5
 42
1.0
 43
5.999999999999999
 44
3.174999999999998
 45
0.00000001
 46
10.0
 73
     0
 77
     1
140
2.5
143
0.03937
147
0.762
171
     3
172
     1
176
     7
177
   250
178
     7
179
     2
271
     2
272
     2
274
     3
340
104
371
    25
372
    25
  0
DIMSTYLE
105
110
330
A
100
AcDbSymbolTableRecord
100
AcDbDimStyleTableRecord
  2
DEFAULT-ISOBigText
 70
     0
 40
6.666666666666666
 41
5.0
 42
0.0
 43
5.999999999999999
 44
3.174999999999998
 45
0.00000001
 46
10.0
 73
     0
 74
     0
 77
     1
140
5.25
143
0.03937
146
0.6666666666666666
147
0.762
171
     3
172
     1
176
   250
177
   250
178
     7
179
     2
271
     2
272
     2
274
     3
278
    44
340
106
371
    25
372
    25
  0
DIMSTYLE
105
111
330
A
100
AcDbSymbolTableRecord
100
AcDbDimStyleTableRecord
  2
DEFAULT-ISOBigText$7
 70
     0
 40
6.666666666666666
 41
5.0
 42
0.0
 43
5.999999999999999
 44
3.174999999999998
 45
0.00000001
 46
10.0
 73
     0
 74
     0
 77
     1
140
5.25
143
0.03937
146
0.6666666666666666
147
0.762
171
     3
172
     1
176
     7
177
   250
178
     7
179
     2
271
     2
272
     2
274
     3
278
    44
340
106
371
    25
372
    25
  0
DIMSTYLE
105
112
330
A
100
AcDbSymbolTableRecord
100
AcDbDimStyleTableRecord
  2
POINTS
 70
     0
 40
6.666666666666666
 41
2.5
 42
1.3
 43
5.999999999999999
 44
2.0
 45
0.00000001
 46
10.0
 73
     0
 74
     0
 77
     1
140
2.5
143
0.03937
147
1.0
171
     3
172
     1
176
     7
177
     7
178
     7
271
     2
272
     1
274
     3
340
10B
371
    25
372
    25
  0
DIMSTYLE
105
113
330
A
100
AcDbSymbolTableRecord
100
AcDbDimStyleTableRecord
  2
POINTS$7
 70
     0
 40
6.666666666666666
 41
2.5
 42
1.3
 43
5.999999999999999
 44
2.0
 45
0.00000001
 46
10.0
 73
     0
 74
     0
 77
     1
140
2.5
143
0.03937
147
1.0
171
     3
172
     1
176
     7
177
     7
178
     7
271
     2
272
     1
274
     3
340
10B
371
    15
372
    25
  0
DIMSTYLE
105
114
330
A
100
AcDbSymbolTableRecord
100
AcDbDimStyleTableRecord
  2
Ram Basic
 70
     0
 40
6.666666666666666
 41
2.5
 42
1.3
 43
5.999999999999999
 44
2.0
 45
0.00000001
 46
10.0
 73
     0
 74
     0
 77
     1
140
2.5
143
0.03937
147
1.0
171
     3
172
     1
176
     7
177
     7
178
     7
271
     1
272
     1
274
     3
340
10B
371
    25
372
    25
  0
DIMSTYLE
105
115
330
A
100
AcDbSymbolTableRecord
100
AcDbDimStyleTableRecord
  2
Ram Basic$7
 70
     0
 40
6.666666666666666
 41
2.5
 42
1.3
 43
5.999999999999999
 44
2.0
 45
0.00000001
 46
10.0
 73
     0
 74
     0
 77
     1
140
2.5
143
0.03937
147
1.0
171
     3
172
     1
176
     7
177
     7
178
     7
271
     1
272
     1
274
     3
340
10B
371
    15
372
    25
  0
DIMSTYLE
105
116
330
A
100
AcDbSymbolTableRecord
100
AcDbDimStyleTableRecord
  2
Ram Basic REF
 70
     0
 40
6.666666666666666
 41
2.5
 42
1.3
 43
5.999999999999999
 44
2.0
 45
0.00000001
 46
10.0
 73
     0
 74
     0
 77
     1
140
2.5
143
0.03937
147
1.0
171
     3
172
     1
176
     7
177
     7
178
     7
271
     2
272
     2
274
     3
340
10B
371
    25
372
    25
  0
DIMSTYLE
105
117
330
A
100
AcDbSymbolTableRecord
100
AcDbDimStyleTableRecord
  2
Ram Basic REF$7
 70
     0
 40
6.666666666666666
 41
2.5
 42
1.3
 43
5.999999999999999
 44
2.0
 45
0.00000001
 46
10.0
 73
     0
 74
     0
 77
     1
140
2.5
143
0.03937
147
1.0
171
     3
172
     1
176
     7
177
     7
178
     7
271
     2
272
     2
274
     3
340
10B
371
    15
372
    25
  0
DIMSTYLE
105
118
330
A
100
AcDbSymbolTableRecord
100
AcDbDimStyleTableRecord
  2
Small Font
 70
     0
 40
6.666666666666666
 41
2.5
 42
1.3
 43
5.999999999999999
 44
2.0
 45
0.00000001
 46
10.0
 73
     0
 74
     0
 77
     1
140
1.800000071525573
143
0.03937
146
0.8333333002196431
147
1.0
171
     3
172
     1
176
     7
177
     7
178
     7
271
     1
272
     1
274
     3
340
109
371
    25
372
    25
  0
DIMSTYLE
105
119
330
A
100
AcDbSymbolTableRecord
100
AcDbDimStyleTableRecord
  2
Small Font$7
 70
     0
 40
6.666666666666666
 41
2.5
 42
1.3
 43
5.999999999999999
 44
2.0
 45
0.00000001
 46
10.0
 73
     0
 74
     0
 77
     1
140
1.800000071525573
143
0.03937
146
0.8333333002196431
147
1.0
171
     3
172
     1
176
     7
177
     7
178
     7
271
     1
272
     1
274
     3
340
109
371
    15
372
    25
  0
DIMSTYLE
105
11A
102
{ACAD_REACTORS
330
3EA
330
4CD
330
5B8
330
69A
330
77C
330
87E
330
961
102
}
330
A
100
AcDbSymbolTableRecord
100
AcDbDimStyleTableRecord
  2
Whole Number
 70
     0
 40
6.666666666666666
 41
2.5
 42
1.3
 43
5.999999999999999
 44
2.0
 45
0.00000001
 46
10.0
 73
     0
 74
     0
 77
     1
140
2.5
143
0.03937
147
1.0
171
     3
172
     1
176
     7
177
     7
178
     7
271
     0
272
     0
274
     3
340
10B
371
    25
372
    25
  0
DIMSTYLE
105
11B
330
A
100
AcDbSymbolTableRecord
100
AcDbDimStyleTableRecord
  2
Whole Number$7
 70
     0
 40
6.666666666666666
 41
2.5
 42
1.3
 43
5.999999999999999
 44
2.0
 45
0.00000001
 46
10.0
 73
     0
 74
     0
 77
     1
140
2.5
143
0.03937
147
1.0
171
     3
172
     1
176
     7
177
     7
178
     7
271
     0
272
     0
274
     3
340
10B
371
    15
372
    25
  0
DIMSTYLE
105
126
330
A
100
AcDbSymbolTableRecord
100
AcDbDimStyleTableRecord
  2
Leader-Datum(ISO)
 70
     0
 40
6.666666666666666
 41
2.5
340
55
342
127
  0
DIMSTYLE
105
12E
330
A
100
AcDbSymbolTableRecord
100
AcDbDimStyleTableRecord
  2
Leader-Datum(Ram)
 70
     0
 40
6.666666666666666
 41
2.5
340
55
342
127
  0
DIMSTYLE
105
12F
330
A
100
AcDbSymbolTableRecord
100
AcDbDimStyleTableRecord
  2
Leader-Dot(ISO)
 70
     0
 40
6.666666666666666
 41
2.5
340
55
342
127
  0
DIMSTYLE
105
130
330
A
100
AcDbSymbolTableRecord
100
AcDbDimStyleTableRecord
  2
Leader-Dot(Ram)
 70
     0
 40
6.666666666666666
 41
2.5
340
55
342
127
  0
DIMSTYLE
105
131
330
A
100
AcDbSymbolTableRecord
100
AcDbDimStyleTableRecord
  2
Leader-Large(Ram)
 70
     0
 40
6.666666666666666
 41
5.0
340
55
342
127
  0
DIMSTYLE
105
132
330
A
100
AcDbSymbolTableRecord
100
AcDbDimStyleTableRecord
  2
Leader-OriginIndicator(ISO)
 70
     0
 40
6.666666666666666
 41
2.5
340
55
342
127
  0
DIMSTYLE
105
133
330
A
100
AcDbSymbolTableRecord
100
AcDbDimStyleTableRecord
  2
Leader-OriginIndicator(Ram)
 70
     0
 40
6.666666666666666
 41
2.5
340
55
342
127
  0
DIMSTYLE
105
134
330
A
100
AcDbSymbolTableRecord
100
AcDbDimStyleTableRecord
  2
Leader(ISO)
 70
     0
 40
6.666666666666666
 41
2.5
340
55
342
127
  0
DIMSTYLE
105
135
330
A
100
AcDbSymbolTableRecord
100
AcDbDimStyleTableRecord
  2
Leader(Ram)
 70
     0
 40
6.666666666666666
 41
2.5
340
55
342
127
  0
ENDTAB
  0
TABLE
  2
BLOCK_RECORD
  5
1
330
0
100
AcDbSymbolTable
 70
    58
  0
BLOCK_RECORD
  5
6C
330
1
100
AcDbSymbolTableRecord
100
AcDbBlockTableRecord
  2
*Model_Space
340
6F
 70
     0
280
     1
281
     0
  0
BLOCK_RECORD
  5
68
330
1
100
AcDbSymbolTableRecord
100
AcDbBlockTableRecord
  2
*Paper_Space
340
6B
 70
     0
280
     1
281
     0
  0
BLOCK_RECORD
  5
70
330
1
100
AcDbSymbolTableRecord
100
AcDbBlockTableRecord
  2
*Paper_Space0
340
73
 70
     0
280
     1
281
     0
  0
BLOCK_RECORD
  5
11C
330
1
100
AcDbSymbolTableRecord
100
AcDbBlockTableRecord
  2
DatumFilled45
340
0
 70
     0
280
     1
281
     0
  0
BLOCK_RECORD
  5
127
330
1
100
AcDbSymbolTableRecord
100
AcDbBlockTableRecord
  2
_Closed
340
0
 70
     0
280
     1
281
     0
  0
BLOCK_RECORD
  5
136
330
1
100
AcDbSymbolTableRecord
100
AcDbBlockTableRecord
  2
1_4 TURN STD
340
0
 70
     0
280
     1
281
     0
  0
BLOCK_RECORD
  5
13B
330
1
100
AcDbSymbolTableRecord
100
AcDbBlockTableRecord
  2
1_4 TURN STD NO HOLE DETAIL
340
0
 70
     0
280
     1
281
     0
  0
BLOCK_RECORD
  5
13F
330
1
100
AcDbSymbolTableRecord
100
AcDbBlockTableRecord
  2
1_4 TURN STD SECURE FIT
340
0
 70
     0
280
     1
281
     0
  0
BLOCK_RECORD
  5
143
330
1
100
AcDbSymbolTableRecord
100
AcDbBlockTableRecord
  2
1_4 TURN STD SECURE FIT NO HOLE DETAIL
340
0
 70
     0
280
     1
281
     0
  0
BLOCK_RECORD
  5
147
330
1
100
AcDbSymbolTableRecord
100
AcDbBlockTableRecord
  2
16 UP
340
0
 70
     0
280
     1
281
     0
  0
BLOCK_RECORD
  5
1CC
330
1
100
AcDbSymbolTableRecord
100
AcDbBlockTableRecord
  2
2 UP
340
0
 70
     0
280
     1
281
     0
  0
BLOCK_RECORD
  5
1E1
330
1
100
AcDbSymbolTableRecord
100
AcDbBlockTableRecord
  2
4 UP
340
0
 70
     0
280
     1
281
     0
  0
BLOCK_RECORD
  5
206
330
1
100
AcDbSymbolTableRecord
100
AcDbBlockTableRecord
  2
6 UP
340
0
 70
     0
280
     1
281
     0
  0
BLOCK_RECORD
  5
23B
330
1
100
AcDbSymbolTableRecord
100
AcDbBlockTableRecord
  2
8 UP
340
0
 70
     0
280
     1
281
     0
  0
BLOCK_RECORD
  5
280
330
1
100
AcDbSymbolTableRecord
100
AcDbBlockTableRecord
  2
APPROVED STAMP
340
0
 70
     0
280
     1
281
     0
  0
BLOCK_RECORD
  5
289
330
1
100
AcDbSymbolTableRecord
100
AcDbBlockTableRecord
  2
AVAIL WELS 3 STAR
340
0
 70
     0
280
     1
281
     0
  0
BLOCK_RECORD
  5
28D
330
1
100
AcDbSymbolTableRecord
100
AcDbBlockTableRecord
  2
AVAIL WELS 4 STAR
340
0
 70
     0
280
     1
281
     0
  0
BLOCK_RECORD
  5
291
330
1
100
AcDbSymbolTableRecord
100
AcDbBlockTableRecord
  2
AVAIL WELS 5 & 6 STAR
340
0
 70
     0
280
     1
281
     0
  0
BLOCK_RECORD
  5
295
330
1
100
AcDbSymbolTableRecord
100
AcDbBlockTableRecord
  2
AVAIL WELS RATING
340
0
 70
     0
280
     1
281
     0
  0
BLOCK_RECORD
  5
299
330
1
100
AcDbSymbolTableRecord
100
AcDbBlockTableRecord
  2
AVAIL WELS WITH 4 STAR
340
0
 70
     0
280
     1
281
     0
  0
BLOCK_RECORD
  5
29D
330
1
100
AcDbSymbolTableRecord
100
AcDbBlockTableRecord
  2
AVAILABLE WELS 4_5_6
340
0
 70
     0
280
     1
281
     0
  0
BLOCK_RECORD
  5
2A1
330
1
100
AcDbSymbolTableRecord
100
AcDbBlockTableRecord
  2
CENTRE STICKER
340
0
 70
     0
280
     1
281
     0
  0
BLOCK_RECORD
  5
2A6
330
1
100
AcDbSymbolTableRecord
100
AcDbBlockTableRecord
  2
GREASE
340
0
 70
     0
280
     1
281
     0
  0
BLOCK_RECORD
  5
2AB
330
1
100
AcDbSymbolTableRecord
100
AcDbBlockTableRecord
  2
J_VALVE
340
0
 70
     0
280
     1
281
     0
  0
BLOCK_RECORD
  5
2AF
330
1
100
AcDbSymbolTableRecord
100
AcDbBlockTableRecord
  2
J_VALVE 3_4 TURN SECURE FIT NO HOLE DETAIL
340
0
 70
     0
280
     1
281
     0
  0
BLOCK_RECORD
  5
2B3
330
1
100
AcDbSymbolTableRecord
100
AcDbBlockTableRecord
  2
J_VALVE 3_4 TURN SECURE FIT SPOUT ONLY
340
0
 70
     0
280
     1
281
     0
  0
BLOCK_RECORD
  5
2B7
330
1
100
AcDbSymbolTableRecord
100
AcDbBlockTableRecord
  2
J_VALVE 3_4 TURN SECURE FIT TAP ONLY
340
0
 70
     0
280
     1
281
     0
  0
BLOCK_RECORD
  5
2BB
330
1
100
AcDbSymbolTableRecord
100
AcDbBlockTableRecord
  2
J_VALVE 3_4 TURN SPOUT ONLY
340
0
 70
     0
280
     1
281
     0
  0
BLOCK_RECORD
  5
2BF
330
1
100
AcDbSymbolTableRecord
100
AcDbBlockTableRecord
  2
J_VALVE 3_4 TURN TAP ONLY
340
0
 70
     0
280
     1
281
     0
  0
BLOCK_RECORD
  5
2C3
330
1
100
AcDbSymbolTableRecord
100
AcDbBlockTableRecord
  2
J_VALVE NO HOLE DETAIL
340
0
 70
     0
280
     1
281
     0
  0
BLOCK_RECORD
  5
2C7
330
1
100
AcDbSymbolTableRecord
100
AcDbBlockTableRecord
  2
J_VALVE SPOUT ONLY
340
0
 70
     0
280
     1
281
     0
  0
BLOCK_RECORD
  5
2CB
330
1
100
AcDbSymbolTableRecord
100
AcDbBlockTableRecord
  2
J_VALVE STD 3_4 TURN
340
0
 70
     0
280
     1
281
     0
  0
BLOCK_RECORD
  5
2CF
330
1
100
AcDbSymbolTableRecord
100
AcDbBlockTableRecord
  2
J_VALVE STD 3_4 TURN NO HOLE DETAIL
340
0
 70
     0
280
     1
281
     0
  0
BLOCK_RECORD
  5
2D3
330
1
100
AcDbSymbolTableRecord
100
AcDbBlockTableRecord
  2
J_VALVE STD 3_4 TURN SECURE FIT
340
0
 70
     0
280
     1
281
     0
  0
BLOCK_RECORD
  5
2D7
330
1
100
AcDbSymbolTableRecord
100
AcDbBlockTableRecord
  2
J_VALVE STD 3_4 TURN SECURE FIT NO HOLE DETAIL
340
0
 70
     0
280
     1
281
     0
  0
BLOCK_RECORD
  5
2DB
330
1
100
AcDbSymbolTableRecord
100
AcDbBlockTableRecord
  2
J_VALVE TAP ONLY
340
0
 70
     0
280
     1
281
     0
  0
BLOCK_RECORD
  5
2DF
330
1
100
AcDbSymbolTableRecord
100
AcDbBlockTableRecord
  2
Koh characteristic
340
0
 70
     0
280
     1
281
     0
  0
BLOCK_RECORD
  5
2EB
330
1
100
AcDbSymbolTableRecord
100
AcDbBlockTableRecord
  2
NOTE 001
340
0
 70
     0
280
     1
281
     0
  0
BLOCK_RECORD
  5
2F7
330
1
100
AcDbSymbolTableRecord
100
AcDbBlockTableRecord
  2
PRESSURE AND TEMP
340
0
 70
     0
280
     1
281
     0
  0
BLOCK_RECORD
  5
2FB
330
1
100
AcDbSymbolTableRecord
100
AcDbBlockTableRecord
  2
PRESSURE AND TEMP ONLY
340
0
 70
     0
280
     1
281
     0
  0
BLOCK_RECORD
  5
2FF
330
1
100
AcDbSymbolTableRecord
100
AcDbBlockTableRecord
  2
PRESSURE AND TEMP ONLY NO HOSE
340
0
 70
     0
280
     1
281
     0
  0
BLOCK_RECORD
  5
303
330
1
100
AcDbSymbolTableRecord
100
AcDbBlockTableRecord
  2
PRESSURE AND TEMP_LASER-ETCHED
340
0
 70
     0
280
     1
281
     0
  0
BLOCK_RECORD
  5
307
330
1
100
AcDbSymbolTableRecord
100
AcDbBlockTableRecord
  2
PRESSURE AND TEMP_LASER-ETCHED NO HOSE
340
0
 70
     0
280
     1
281
     0
  0
BLOCK_RECORD
  5
30B
330
1
100
AcDbSymbolTableRecord
100
AcDbBlockTableRecord
  2
QUOTATION ONLY
340
0
 70
     0
280
     1
281
     0
  0
BLOCK_RECORD
  5
30F
330
1
100
AcDbSymbolTableRecord
100
AcDbBlockTableRecord
  2
Quote Only
340
0
 70
     0
280
     1
281
     0
  0
BLOCK_RECORD
  5
313
330
1
100
AcDbSymbolTableRecord
100
AcDbBlockTableRecord
  2
SCREW-IN _ TURNS
340
0
 70
     0
280
     1
281
     0
  0
BLOCK_RECORD
  5
319
330
1
100
AcDbSymbolTableRecord
100
AcDbBlockTableRecord
  2
THREAD RETAINER
340
0
 70
     0
280
     1
281
     0
  0
BLOCK_RECORD
  5
335
330
1
100
AcDbSymbolTableRecord
100
AcDbBlockTableRecord
  2
THREAD RETAINER H
340
0
 70
     0
280
     1
281
     0
  0
BLOCK_RECORD
  5
351
330
1
100
AcDbSymbolTableRecord
100
AcDbBlockTableRecord
  2
TIGHTEN TO
340
0
 70
     0
280
     1
281
     0
  0
BLOCK_RECORD
  5
357
330
1
100
AcDbSymbolTableRecord
100
AcDbBlockTableRecord
  2
WATERMARK ETCH
340
0
 70
     0
280
     1
281
     0
  0
BLOCK_RECORD
  5
35C
330
1
100
AcDbSymbolTableRecord
100
AcDbBlockTableRecord
  2
WATERMARK STICKER
340
0
 70
     0
280
     1
281
     0
  0
BLOCK_RECORD
  5
361
330
1
100
AcDbSymbolTableRecord
100
AcDbBlockTableRecord
  2
WATERMARK STICKER RH SIDE
340
0
 70
     0
280
     1
281
     0
  0
BLOCK_RECORD
  5
366
330
1
100
AcDbSymbolTableRecord
100
AcDbBlockTableRecord
  2
WELS
340
0
 70
     0
280
     1
281
     0
  0
BLOCK_RECORD
  5
3EC
330
1
100
AcDbSymbolTableRecord
100
AcDbBlockTableRecord
  2
*D51
340
0
 70
     0
280
     1
281
     0
  0
BLOCK_RECORD
  5
4CE
330
1
100
AcDbSymbolTableRecord
100
AcDbBlockTableRecord
  2
*D52
340
0
 70
     0
280
     1
281
     0
  0
BLOCK_RECORD
  5
5B9
330
1
100
AcDbSymbolTableRecord
100
AcDbBlockTableRecord
  2
*D53
340
0
 70
     0
280
     1
281
     0
  0
BLOCK_RECORD
  5
69B
330
1
100
AcDbSymbolTableRecord
100
AcDbBlockTableRecord
  2
*D54
340
0
 70
     0
280
     1
281
     0
  0
BLOCK_RECORD
  5
77D
330
1
100
AcDbSymbolTableRecord
100
AcDbBlockTableRecord
  2
*D55
340
0
 70
     0
280
     1
281
     0
  0
BLOCK_RECORD
  5
87F
330
1
100
AcDbSymbolTableRecord
100
AcDbBlockTableRecord
  2
*D56
340
0
 70
     0
280
     1
281
     0
  0
BLOCK_RECORD
  5
962
330
1
100
AcDbSymbolTableRecord
100
AcDbBlockTableRecord
  2
*D57
340
0
 70
     0
280
     1
281
     0
  0
ENDTAB
  0
ENDSEC
  0
SECTION
  2
BLOCKS
  0
BLOCK
  5
6D
330
6C
100
AcDbEntity
  8
0
100
AcDbBlockBegin
  2
*Model_Space
 70
     0
 10
0.0
 20
0.0
 30
0.0
  3
*Model_Space
  1

  0
ENDBLK
  5
6E
330
6C
100
AcDbEntity
  8
0
100
AcDbBlockEnd
  0
BLOCK
  5
69
330
68
100
AcDbEntity
 67
     1
  8
0
100
AcDbBlockBegin
  2
*Paper_Space
 70
     0
 10
0.0
 20
0.0
 30
0.0
  3
*Paper_Space
  1

  0
ENDBLK
  5
6A
330
68
100
AcDbEntity
 67
     1
  8
0
100
AcDbBlockEnd
  0
BLOCK
  5
71
330
70
100
AcDbEntity
 67
     1
  8
0
100
AcDbBlockBegin
  2
*Paper_Space0
 70
     0
 10
0.0
 20
0.0
 30
0.0
  3
*Paper_Space0
  1

  0
ENDBLK
  5
72
330
70
100
AcDbEntity
 67
     1
  8
0
100
AcDbBlockEnd
  0
BLOCK
  5
11D
330
11C
100
AcDbEntity
  8
0
100
AcDbBlockBegin
  2
DatumFilled45
 70
     0
 10
0.0
 20
0.0
 30
0.0
  3
DatumFilled45
  1

  0
POLYLINE
  5
11F
330
11C
100
AcDbEntity
  8
0
 62
     0
100
AcDb2dPolyline
 66
     1
 10
0.0
 20
0.0
 30
0.0
 70
   128
  0
VERTEX
  5
120
330
11F
100
AcDbEntity
  8
0
 62
     0
100
AcDbVertex
100
AcDb2dVertex
 10
0.0
 20
1.0
 30
0.0
  0
VERTEX
  5
121
330
11F
100
AcDbEntity
  8
0
 62
     0
100
AcDbVertex
100
AcDb2dVertex
 10
0.0
 20
-1.0
 30
0.0
  0
VERTEX
  5
123
330
11F
100
AcDbEntity
  8
0
 62
     0
100
AcDbVertex
100
AcDb2dVertex
 10
-1.0
 20
0.0
 30
0.0
  0
VERTEX
  5
124
330
11F
100
AcDbEntity
  8
0
 62
     0
100
AcDbVertex
100
AcDb2dVertex
 10
0.0
 20
1.0
 30
0.0
  0
SEQEND
  5
122
330
11F
100
AcDbEntity
  8
0
 62
     0
  0
SOLID
  5
125
330
11C
100
AcDbEntity
  8
0
 62
     0
100
AcDbTrace
 10
0.0
 20
1.0
 30
0.0
 11
0.0
 21
-1.0
 31
0.0
 12
-1.0
 22
0.0
 32
0.0
 13
0.0
 23
1.0
 33
0.0
  0
ENDBLK
  5
11E
330
11C
100
AcDbEntity
  8
0
100
AcDbBlockEnd
  0
BLOCK
  5
12C
330
127
100
AcDbEntity
  8
0
100
AcDbBlockBegin
  2
_Closed
 70
     0
 10
0.0
 20
0.0
 30
0.0
  3
_Closed
  1

  0
LINE
  5
128
330
127
100
AcDbEntity
  8
0
  6
ByBlock
 62
     0
370
    -2
100
AcDbLine
 10
-1.0
 20
0.1666666666666666
 30
0.0
 11
0.0
 21
0.0
 31
0.0
  0
LINE
  5
129
330
127
100
AcDbEntity
  8
0
  6
ByBlock
 62
     0
370
    -2
100
AcDbLine
 10
0.0
 20
0.0
 30
0.0
 11
-1.0
 21
-0.1666666666666666
 31
0.0
  0
LINE
  5
12A
330
127
100
AcDbEntity
  8
0
  6
ByBlock
 62
     0
370
    -2
100
AcDbLine
 10
-1.0
 20
0.1666666666666666
 30
0.0
 11
-1.0
 21
-0.1666666666666666
 31
0.0
  0
LINE
  5
12B
330
127
100
AcDbEntity
  8
0
  6
ByBlock
 62
     0
370
    -2
100
AcDbLine
 10
0.0
 20
0.0
 30
0.0
 11
-1.0
 21
0.0
 31
0.0
  0
ENDBLK
  5
12D
330
127
100
AcDbEntity
  8
0
100
AcDbBlockEnd
  0
BLOCK
  5
137
330
136
100
AcDbEntity
  8
0
100
AcDbBlockBegin
  2
1_4 TURN STD
 70
     0
 10
0.0
 20
0.0
 30
0.0
  3
1_4 TURN STD
  1

  0
MTEXT
  5
139
330
136
100
AcDbEntity
  8
Symbols(Ram)
 62
     7
100
AcDbMText
 10
-26.10136985778809
 20
23.09343125671148
 30
0.0
 40
2.5
 41
0.0
 46
0.0
 71
     1
 72
     1
  3
Headworks Available:\PCeramic Disc 1/4 Turn (Standard)\P \PMax Pressure: 1000kpa\PMin Pressure: 150kpa\PMax Temp: 80\fAIGDT|b0|i0;\H2.5000;~\fArial|b0|i0;\H2.5000;c\P \PMounting Holes:\P- Taps - Min \fAIGDT|b0|i0;\H2.5000;n\fArial|b0|i0;\H2.5000;32mm
  1
\P- Spout - Min \fAIGDT|b0|i0;\H2.5000;n\fArial|b0|i0;\H2.5000;21mm
  7
STD 2.5 ARIAL
 73
     2
 44
1.146487116813659
1001
ACAD
1000
MTEXTBEGIN
1070
    73
1070
     2
1070
    44
1040
1.146487116813659
1070
    74
1070
     0
1000
MTEXTEND
  0
ENDBLK
  5
138
330
136
100
AcDbEntity
  8
0
100
AcDbBlockEnd
  0
BLOCK
  5
13C
330
13B
100
AcDbEntity
  8
0
100
AcDbBlockBegin
  2
1_4 TURN STD NO HOLE DETAIL
 70
     0
 10
0.0
 20
0.0
 30
0.0
  3
1_4 TURN STD NO HOLE DETAIL
  1

  0
MTEXT
  5
13E
330
13B
100
AcDbEntity
  8
Symbols(Ram)
 62
     7
100
AcDbMText
 10
-26.10136985778809
 20
12.35388394445181
 30
0.0
 40
2.5
 41
0.0
 46
0.0
 71
     1
 72
     1
  1
Headworks Available:\PCeramic Disc 1/4 Turn (Standard)\P \PMax Pressure: 1000kpa\PMin Pressure: 150kpa\PMax Temp: 80\fAIGDT|b0|i0;\H2.5000;~\fArial|b0|i0;\H2.5000;c
  7
STD 2.5 ARIAL
 73
     2
 44
1.03268015384674
1001
ACAD
1000
MTEXTBEGIN
1070
    73
1070
     2
1070
    44
1040
1.03268015384674
1070
    74
1070
     0
1000
MTEXTEND
  0
ENDBLK
  5
13D
330
13B
100
AcDbEntity
  8
0
100
AcDbBlockEnd
  0
BLOCK
  5
140
330
13F
100
AcDbEntity
  8
0
100
AcDbBlockBegin
  2
1_4 TURN STD SECURE FIT
 70
     0
 10
0.0
 20
0.0
 30
0.0
  3
1_4 TURN STD SECURE FIT
  1

  0
MTEXT
  5
142
330
13F
100
AcDbEntity
  8
Symbols(Ram)
 62
     7
100
AcDbMText
 10
-35.61356604099275
 20
27.02768739312887
 30
0.0
 40
2.5
 41
0.0
 46
0.0
 71
     1
 72
     1
  3
Headworks Available:\PCeramic Disc 1/4 Turn (Standard)\P \PHandles are \fArial|b0|i1;\H2.5000;Secure Fit\fArial|b0|i0;\H2.5000; - Fit with key supplied.\P \PMax Pressure: 1000kpa\PMin Pressure: 150kpa\PMax Temp: 80\fAIGDT|b0|i0;\H2.5000;~\fArial|b0|i
  1
0;\H2.5000;c\P \PMounting Holes:\P- Taps - Min \fAIGDT|b0|i0;\H2.5000;n\fArial|b0|i0;\H2.5000;32mm\P- Spout - Min \fAIGDT|b0|i0;\H2.5000;n\fArial|b0|i0;\H2.5000;21mm
  7
STD 2.5 ARIAL
 73
     2
 44
1.1097115278244
1001
ACAD
1000
MTEXTBEGIN
1070
    73
1070
     2
1070
    44
1040
1.1097115278244
1070
    74
1070
     0
1000
MTEXTEND
  0
ENDBLK
  5
141
330
13F
100
AcDbEntity
  8
0
100
AcDbBlockEnd
  0
BLOCK
  5
144
330
143
100
AcDbEntity
  8
0
100
AcDbBlockBegin
  2
1_4 TURN STD SECURE FIT NO HOLE DETAIL
 70
     0
 10
0.0
 20
0.0
 30
0.0
  3
1_4 TURN STD SECURE FIT NO HOLE DETAIL
  1

  0
MTEXT
  5
146
330
143
100
AcDbEntity
  8
Symbols(Ram)
 62
     7
100
AcDbMText
 10
-35.61356604099275
 20
16.28814008086919
 30
0.0
 40
2.5
 41
0.0
 46
0.0
 71
     1
 72
     1
  3
Headworks Available:\PCeramic Disc 1/4 Turn (Standard)\P \PHandles are \fArial|b0|i1;\H2.5000;Secure Fit\fArial|b0|i0;\H2.5000; - Fit with key supplied.\P \PMax Pressure: 1000kpa\PMin Pressure: 150kpa\PMax Temp: 80\fAIGDT|b0|i0;\H2.5000;~\fArial|b0|i
  1
0;\H2.5000;c
  7
STD 2.5 ARIAL
 73
     2
 44
1.007406234741209
1001
ACAD
1000
MTEXTBEGIN
1070
    73
1070
     2
1070
    44
1040
1.007406234741209
1070
    74
1070
     0
1000
MTEXTEND
  0
ENDBLK
  5
145
330
143
100
AcDbEntity
  8
0
100
AcDbBlockEnd
  0
BLOCK
  5
148
330
147
100
AcDbEntity
  8
0
100
AcDbBlockBegin
  2
16 UP
 70
     0
 10
0.0
 20
0.0
 30
0.0
  3
16 UP
  1

  0
LINE
  5
14A
330
147
100
AcDbEntity
  8
Sketch Geometry(Ram)
370
    18
100
AcDbLine
 10
-4.499999999999957
 20
5.0
 30
0.0
 11
-5.999999999999943
 21
5.0
 31
0.0
  0
LINE
  5
14B
330
147
100
AcDbEntity
  8
Sketch Geometry(Ram)
370
    18
100
AcDbLine
 10
-6.49999999999995
 20
5.500000000000007
 30
0.0
 11
-6.49999999999995
 21
7.999999999999988
 31
0.0
  0
LINE
  5
14C
330
147
100
AcDbEntity
  8
Sketch Geometry(Ram)
370
    18
100
AcDbLine
 10
-5.999999999999943
 20
8.499999999999996
 30
0.0
 11
-4.499999999999957
 21
8.499999999999976
 31
0.0
  0
LINE
  5
14D
330
147
100
AcDbEntity
  8
Sketch Geometry(Ram)
370
    18
100
AcDbLine
 10
-3.999999999999949
 20
7.999999999999988
 30
0.0
 11
-3.999999999999949
 21
5.500000000000007
 31
0.0
  0
ARC
  5
14E
330
147
100
AcDbEntity
  8
Sketch Geometry(Ram)
370
    18
100
AcDbCircle
 10
-5.999999999999943
 20
7.999999999999988
 30
0.0
 40
0.5
100
AcDbArc
 50
90.0
 51
180.0
  0
ARC
  5
14F
330
147
100
AcDbEntity
  8
Sketch Geometry(Ram)
370
    18
100
AcDbCircle
 10
-4.499999999999957
 20
7.999999999999988
 30
0.0
 40
0.5
100
AcDbArc
 50
0.0
 51
90.0
  0
ARC
  5
150
330
147
100
AcDbEntity
  8
Sketch Geometry(Ram)
370
    18
100
AcDbCircle
 10
-4.499999999999957
 20
5.500000000000007
 30
0.0
 40
0.5
100
AcDbArc
 50
270.0
 51
0.0
  0
ARC
  5
151
330
147
100
AcDbEntity
  8
Sketch Geometry(Ram)
370
    18
100
AcDbCircle
 10
-5.999999999999943
 20
5.500000000000007
 30
0.0
 40
0.5
100
AcDbArc
 50
180.0
 51
270.0
  0
LINE
  5
152
330
147
100
AcDbEntity
  8
Sketch Geometry(Ram)
370
    18
100
AcDbLine
 10
-2.499999999999964
 20
8.499999999999996
 30
0.0
 11
-0.9999999999999785
 21
8.499999999999976
 31
0.0
  0
ARC
  5
153
330
147
100
AcDbEntity
  8
Sketch Geometry(Ram)
370
    18
100
AcDbCircle
 10
-2.499999999999964
 20
7.999999999999988
 30
0.0
 40
0.5
100
AcDbArc
 50
90.0
 51
180.0
  0
LINE
  5
154
330
147
100
AcDbEntity
  8
Sketch Geometry(Ram)
370
    18
100
AcDbLine
 10
-2.999999999999971
 20
5.500000000000007
 30
0.0
 11
-2.999999999999971
 21
7.999999999999988
 31
0.0
  0
LINE
  5
155
330
147
100
AcDbEntity
  8
Sketch Geometry(Ram)
370
    18
100
AcDbLine
 10
-0.4999999999999716
 20
7.999999999999988
 30
0.0
 11
-0.4999999999999716
 21
5.500000000000007
 31
0.0
  0
ARC
  5
156
330
147
100
AcDbEntity
  8
Sketch Geometry(Ram)
370
    18
100
AcDbCircle
 10
-0.9999999999999785
 20
7.999999999999988
 30
0.0
 40
0.5
100
AcDbArc
 50
0.0
 51
90.0
  0
ARC
  5
157
330
147
100
AcDbEntity
  8
Sketch Geometry(Ram)
370
    18
100
AcDbCircle
 10
-0.9999999999999785
 20
5.500000000000007
 30
0.0
 40
0.5
100
AcDbArc
 50
270.0
 51
0.0
  0
LINE
  5
158
330
147
100
AcDbEntity
  8
Sketch Geometry(Ram)
370
    18
100
AcDbLine
 10
-0.9999999999999785
 20
5.0
 30
0.0
 11
-2.499999999999964
 21
5.0
 31
0.0
  0
ARC
  5
159
330
147
100
AcDbEntity
  8
Sketch Geometry(Ram)
370
    18
100
AcDbCircle
 10
-2.499999999999964
 20
5.500000000000007
 30
0.0
 40
0.5
100
AcDbArc
 50
180.0
 51
270.0
  0
LINE
  5
15A
330
147
100
AcDbEntity
  8
Sketch Geometry(Ram)
370
    18
100
AcDbLine
 10
-5.999999999999943
 20
4.000000000000002
 30
0.0
 11
-4.499999999999957
 21
3.999999999999984
 31
0.0
  0
ARC
  5
15B
330
147
100
AcDbEntity
  8
Sketch Geometry(Ram)
370
    18
100
AcDbCircle
 10
-5.999999999999943
 20
3.499999999999996
 30
0.0
 40
0.5
100
AcDbArc
 50
90.0
 51
180.0
  0
LINE
  5
15C
330
147
100
AcDbEntity
  8
Sketch Geometry(Ram)
370
    18
100
AcDbLine
 10
-6.49999999999995
 20
1.000000000000013
 30
0.0
 11
-6.49999999999995
 21
3.499999999999996
 31
0.0
  0
LINE
  5
15D
330
147
100
AcDbEntity
  8
Sketch Geometry(Ram)
370
    18
100
AcDbLine
 10
-3.999999999999949
 20
3.499999999999996
 30
0.0
 11
-3.999999999999949
 21
1.000000000000013
 31
0.0
  0
ARC
  5
15E
330
147
100
AcDbEntity
  8
Sketch Geometry(Ram)
370
    18
100
AcDbCircle
 10
-4.499999999999957
 20
3.499999999999996
 30
0.0
 40
0.5
100
AcDbArc
 50
0.0
 51
90.0
  0
ARC
  5
15F
330
147
100
AcDbEntity
  8
Sketch Geometry(Ram)
370
    18
100
AcDbCircle
 10
-4.499999999999957
 20
1.000000000000013
 30
0.0
 40
0.5
100
AcDbArc
 50
270.0
 51
0.0
  0
LINE
  5
160
330
147
100
AcDbEntity
  8
Sketch Geometry(Ram)
370
    18
100
AcDbLine
 10
-4.499999999999957
 20
0.5000000000000071
 30
0.0
 11
-5.999999999999943
 21
0.5000000000000071
 31
0.0
  0
ARC
  5
161
330
147
100
AcDbEntity
  8
Sketch Geometry(Ram)
370
    18
100
AcDbCircle
 10
-5.999999999999943
 20
1.000000000000013
 30
0.0
 40
0.5
100
AcDbArc
 50
180.0
 51
270.0
  0
LINE
  5
162
330
147
100
AcDbEntity
  8
Sketch Geometry(Ram)
370
    18
100
AcDbLine
 10
-2.499999999999964
 20
4.000000000000002
 30
0.0
 11
-0.9999999999999785
 21
3.999999999999984
 31
0.0
  0
ARC
  5
163
330
147
100
AcDbEntity
  8
Sketch Geometry(Ram)
370
    18
100
AcDbCircle
 10
-2.499999999999964
 20
3.499999999999996
 30
0.0
 40
0.5
100
AcDbArc
 50
90.0
 51
180.0
  0
LINE
  5
164
330
147
100
AcDbEntity
  8
Sketch Geometry(Ram)
370
    18
100
AcDbLine
 10
-2.999999999999971
 20
1.000000000000013
 30
0.0
 11
-2.999999999999971
 21
3.499999999999996
 31
0.0
  0
LINE
  5
165
330
147
100
AcDbEntity
  8
Sketch Geometry(Ram)
370
    18
100
AcDbLine
 10
-0.4999999999999716
 20
3.499999999999996
 30
0.0
 11
-0.4999999999999716
 21
1.000000000000013
 31
0.0
  0
ARC
  5
166
330
147
100
AcDbEntity
  8
Sketch Geometry(Ram)
370
    18
100
AcDbCircle
 10
-0.9999999999999785
 20
3.499999999999996
 30
0.0
 40
0.5
100
AcDbArc
 50
0.0
 51
90.0
  0
ARC
  5
167
330
147
100
AcDbEntity
  8
Sketch Geometry(Ram)
370
    18
100
AcDbCircle
 10
-0.9999999999999785
 20
1.000000000000013
 30
0.0
 40
0.5
100
AcDbArc
 50
270.0
 51
0.0
  0
LINE
  5
168
330
147
100
AcDbEntity
  8
Sketch Geometry(Ram)
370
    18
100
AcDbLine
 10
-0.9999999999999785
 20
0.5000000000000071
 30
0.0
 11
-2.499999999999964
 21
0.5000000000000071
 31
0.0
  0
ARC
  5
169
330
147
100
AcDbEntity
  8
Sketch Geometry(Ram)
370
    18
100
AcDbCircle
 10
-2.499999999999964
 20
1.000000000000013
 30
0.0
 40
0.5
100
AcDbArc
 50
180.0
 51
270.0
  0
LINE
  5
16A
330
147
100
AcDbEntity
  8
Sketch Geometry(Ram)
370
    18
100
AcDbLine
 10
1.000000000000013
 20
8.499999999999996
 30
0.0
 11
2.5
 21
8.499999999999976
 31
0.0
  0
ARC
  5
16B
330
147
100
AcDbEntity
  8
Sketch Geometry(Ram)
370
    18
100
AcDbCircle
 10
1.000000000000013
 20
7.999999999999988
 30
0.0
 40
0.5
100
AcDbArc
 50
90.0
 51
180.0
  0
LINE
  5
16C
330
147
100
AcDbEntity
  8
Sketch Geometry(Ram)
370
    18
100
AcDbLine
 10
0.5000000000000071
 20
5.500000000000007
 30
0.0
 11
0.5000000000000071
 21
7.999999999999988
 31
0.0
  0
LINE
  5
16D
330
147
100
AcDbEntity
  8
Sketch Geometry(Ram)
370
    18
100
AcDbLine
 10
3.000000000000006
 20
7.999999999999988
 30
0.0
 11
3.000000000000006
 21
5.500000000000007
 31
0.0
  0
ARC
  5
16E
330
147
100
AcDbEntity
  8
Sketch Geometry(Ram)
370
    18
100
AcDbCircle
 10
2.5
 20
7.999999999999988
 30
0.0
 40
0.5
100
AcDbArc
 50
0.0
 51
90.0
  0
ARC
  5
16F
330
147
100
AcDbEntity
  8
Sketch Geometry(Ram)
370
    18
100
AcDbCircle
 10
2.5
 20
5.500000000000007
 30
0.0
 40
0.5
100
AcDbArc
 50
270.0
 51
0.0
  0
LINE
  5
170
330
147
100
AcDbEntity
  8
Sketch Geometry(Ram)
370
    18
100
AcDbLine
 10
2.5
 20
5.0
 30
0.0
 11
1.000000000000013
 21
5.0
 31
0.0
  0
ARC
  5
171
330
147
100
AcDbEntity
  8
Sketch Geometry(Ram)
370
    18
100
AcDbCircle
 10
1.000000000000013
 20
5.500000000000007
 30
0.0
 40
0.5
100
AcDbArc
 50
180.0
 51
270.0
  0
LINE
  5
172
330
147
100
AcDbEntity
  8
Sketch Geometry(Ram)
370
    18
100
AcDbLine
 10
1.000000000000013
 20
4.000000000000002
 30
0.0
 11
2.5
 21
3.999999999999984
 31
0.0
  0
ARC
  5
173
330
147
100
AcDbEntity
  8
Sketch Geometry(Ram)
370
    18
100
AcDbCircle
 10
1.000000000000013
 20
3.499999999999996
 30
0.0
 40
0.5
100
AcDbArc
 50
90.0
 51
180.0
  0
LINE
  5
174
330
147
100
AcDbEntity
  8
Sketch Geometry(Ram)
370
    18
100
AcDbLine
 10
0.5000000000000071
 20
1.000000000000013
 30
0.0
 11
0.5000000000000071
 21
3.499999999999996
 31
0.0
  0
LINE
  5
175
330
147
100
AcDbEntity
  8
Sketch Geometry(Ram)
370
    18
100
AcDbLine
 10
3.000000000000006
 20
3.499999999999996
 30
0.0
 11
3.000000000000006
 21
1.000000000000013
 31
0.0
  0
ARC
  5
176
330
147
100
AcDbEntity
  8
Sketch Geometry(Ram)
370
    18
100
AcDbCircle
 10
2.5
 20
3.499999999999996
 30
0.0
 40
0.5
100
AcDbArc
 50
0.0
 51
90.0
  0
ARC
  5
177
330
147
100
AcDbEntity
  8
Sketch Geometry(Ram)
370
    18
100
AcDbCircle
 10
2.5
 20
1.000000000000013
 30
0.0
 40
0.5
100
AcDbArc
 50
270.0
 51
0.0
  0
LINE
  5
178
330
147
100
AcDbEntity
  8
Sketch Geometry(Ram)
370
    18
100
AcDbLine
 10
2.5
 20
0.5000000000000071
 30
0.0
 11
1.000000000000013
 21
0.5000000000000071
 31
0.0
  0
ARC
  5
179
330
147
100
AcDbEntity
  8
Sketch Geometry(Ram)
370
    18
100
AcDbCircle
 10
1.000000000000013
 20
1.000000000000013
 30
0.0
 40
0.5
100
AcDbArc
 50
180.0
 51
270.0
  0
LINE
  5
17A
330
147
100
AcDbEntity
  8
Sketch Geometry(Ram)
370
    18
100
AcDbLine
 10
4.499999999999992
 20
8.499999999999996
 30
0.0
 11
5.999999999999976
 21
8.499999999999976
 31
0.0
  0
ARC
  5
17B
330
147
100
AcDbEntity
  8
Sketch Geometry(Ram)
370
    18
100
AcDbCircle
 10
4.499999999999992
 20
7.999999999999988
 30
0.0
 40
0.5
100
AcDbArc
 50
90.0
 51
180.0
  0
LINE
  5
17C
330
147
100
AcDbEntity
  8
Sketch Geometry(Ram)
370
    18
100
AcDbLine
 10
3.999999999999984
 20
5.500000000000007
 30
0.0
 11
3.999999999999984
 21
7.999999999999988
 31
0.0
  0
LINE
  5
17D
330
147
100
AcDbEntity
  8
Sketch Geometry(Ram)
370
    18
100
AcDbLine
 10
6.499999999999985
 20
7.999999999999988
 30
0.0
 11
6.499999999999985
 21
5.500000000000007
 31
0.0
  0
ARC
  5
17E
330
147
100
AcDbEntity
  8
Sketch Geometry(Ram)
370
    18
100
AcDbCircle
 10
5.999999999999976
 20
7.999999999999988
 30
0.0
 40
0.5
100
AcDbArc
 50
0.0
 51
90.0
  0
ARC
  5
17F
330
147
100
AcDbEntity
  8
Sketch Geometry(Ram)
370
    18
100
AcDbCircle
 10
5.999999999999976
 20
5.500000000000007
 30
0.0
 40
0.5
100
AcDbArc
 50
270.0
 51
0.0
  0
LINE
  5
180
330
147
100
AcDbEntity
  8
Sketch Geometry(Ram)
370
    18
100
AcDbLine
 10
5.999999999999976
 20
5.0
 30
0.0
 11
4.499999999999992
 21
5.0
 31
0.0
  0
ARC
  5
181
330
147
100
AcDbEntity
  8
Sketch Geometry(Ram)
370
    18
100
AcDbCircle
 10
4.499999999999992
 20
5.500000000000007
 30
0.0
 40
0.5
100
AcDbArc
 50
180.0
 51
270.0
  0
LINE
  5
182
330
147
100
AcDbEntity
  8
Sketch Geometry(Ram)
370
    18
100
AcDbLine
 10
4.499999999999992
 20
4.000000000000002
 30
0.0
 11
5.999999999999976
 21
3.999999999999984
 31
0.0
  0
ARC
  5
183
330
147
100
AcDbEntity
  8
Sketch Geometry(Ram)
370
    18
100
AcDbCircle
 10
4.499999999999992
 20
3.499999999999996
 30
0.0
 40
0.5
100
AcDbArc
 50
90.0
 51
180.0
  0
LINE
  5
184
330
147
100
AcDbEntity
  8
Sketch Geometry(Ram)
370
    18
100
AcDbLine
 10
3.999999999999984
 20
1.000000000000013
 30
0.0
 11
3.999999999999984
 21
3.499999999999996
 31
0.0
  0
LINE
  5
185
330
147
100
AcDbEntity
  8
Sketch Geometry(Ram)
370
    18
100
AcDbLine
 10
6.499999999999985
 20
3.499999999999996
 30
0.0
 11
6.499999999999985
 21
1.000000000000013
 31
0.0
  0
ARC
  5
186
330
147
100
AcDbEntity
  8
Sketch Geometry(Ram)
370
    18
100
AcDbCircle
 10
5.999999999999976
 20
3.499999999999996
 30
0.0
 40
0.5
100
AcDbArc
 50
0.0
 51
90.0
  0
ARC
  5
187
330
147
100
AcDbEntity
  8
Sketch Geometry(Ram)
370
    18
100
AcDbCircle
 10
5.999999999999976
 20
1.000000000000013
 30
0.0
 40
0.5
100
AcDbArc
 50
270.0
 51
0.0
  0
LINE
  5
188
330
147
100
AcDbEntity
  8
Sketch Geometry(Ram)
370
    18
100
AcDbLine
 10
5.999999999999976
 20
0.5000000000000071
 30
0.0
 11
4.499999999999992
 21
0.5000000000000071
 31
0.0
  0
ARC
  5
189
330
147
100
AcDbEntity
  8
Sketch Geometry(Ram)
370
    18
100
AcDbCircle
 10
4.499999999999992
 20
1.000000000000013
 30
0.0
 40
0.5
100
AcDbArc
 50
180.0
 51
270.0
  0
LINE
  5
18A
330
147
100
AcDbEntity
  8
Sketch Geometry(Ram)
370
    18
100
AcDbLine
 10
-5.999999999999943
 20
-0.4999999999999895
 30
0.0
 11
-4.499999999999957
 21
-0.5000000000000071
 31
0.0
  0
ARC
  5
18B
330
147
100
AcDbEntity
  8
Sketch Geometry(Ram)
370
    18
100
AcDbCircle
 10
-5.999999999999943
 20
-0.9999999999999964
 30
0.0
 40
0.5
100
AcDbArc
 50
90.0
 51
180.0
  0
LINE
  5
18C
330
147
100
AcDbEntity
  8
Sketch Geometry(Ram)
370
    18
100
AcDbLine
 10
-6.49999999999995
 20
-3.499999999999977
 30
0.0
 11
-6.49999999999995
 21
-0.9999999999999964
 31
0.0
  0
LINE
  5
18D
330
147
100
AcDbEntity
  8
Sketch Geometry(Ram)
370
    18
100
AcDbLine
 10
-3.999999999999949
 20
-0.9999999999999964
 30
0.0
 11
-3.999999999999949
 21
-3.499999999999977
 31
0.0
  0
ARC
  5
18E
330
147
100
AcDbEntity
  8
Sketch Geometry(Ram)
370
    18
100
AcDbCircle
 10
-4.499999999999957
 20
-0.9999999999999964
 30
0.0
 40
0.5
100
AcDbArc
 50
0.0
 51
90.0
  0
ARC
  5
18F
330
147
100
AcDbEntity
  8
Sketch Geometry(Ram)
370
    18
100
AcDbCircle
 10
-4.499999999999957
 20
-3.499999999999977
 30
0.0
 40
0.5
100
AcDbArc
 50
270.0
 51
0.0
  0
LINE
  5
190
330
147
100
AcDbEntity
  8
Sketch Geometry(Ram)
370
    18
100
AcDbLine
 10
-4.499999999999957
 20
-3.999999999999984
 30
0.0
 11
-5.999999999999943
 21
-3.999999999999984
 31
0.0
  0
ARC
  5
191
330
147
100
AcDbEntity
  8
Sketch Geometry(Ram)
370
    18
100
AcDbCircle
 10
-5.999999999999943
 20
-3.499999999999977
 30
0.0
 40
0.5
100
AcDbArc
 50
180.0
 51
270.0
  0
LINE
  5
192
330
147
100
AcDbEntity
  8
Sketch Geometry(Ram)
370
    18
100
AcDbLine
 10
-2.499999999999964
 20
-0.4999999999999895
 30
0.0
 11
-0.9999999999999785
 21
-0.5000000000000071
 31
0.0
  0
ARC
  5
193
330
147
100
AcDbEntity
  8
Sketch Geometry(Ram)
370
    18
100
AcDbCircle
 10
-2.499999999999964
 20
-0.9999999999999964
 30
0.0
 40
0.5
100
AcDbArc
 50
90.0
 51
180.0
  0
LINE
  5
194
330
147
100
AcDbEntity
  8
Sketch Geometry(Ram)
370
    18
100
AcDbLine
 10
-2.999999999999971
 20
-3.499999999999977
 30
0.0
 11
-2.999999999999971
 21
-0.9999999999999964
 31
0.0
  0
LINE
  5
195
330
147
100
AcDbEntity
  8
Sketch Geometry(Ram)
370
    18
100
AcDbLine
 10
-0.4999999999999716
 20
-0.9999999999999964
 30
0.0
 11
-0.4999999999999716
 21
-3.499999999999977
 31
0.0
  0
ARC
  5
196
330
147
100
AcDbEntity
  8
Sketch Geometry(Ram)
370
    18
100
AcDbCircle
 10
-0.9999999999999785
 20
-0.9999999999999964
 30
0.0
 40
0.5
100
AcDbArc
 50
0.0
 51
90.0
  0
ARC
  5
197
330
147
100
AcDbEntity
  8
Sketch Geometry(Ram)
370
    18
100
AcDbCircle
 10
-0.9999999999999785
 20
-3.499999999999977
 30
0.0
 40
0.5
100
AcDbArc
 50
270.0
 51
0.0
  0
LINE
  5
198
330
147
100
AcDbEntity
  8
Sketch Geometry(Ram)
370
    18
100
AcDbLine
 10
-0.9999999999999785
 20
-3.999999999999984
 30
0.0
 11
-2.499999999999964
 21
-3.999999999999984
 31
0.0
  0
ARC
  5
199
330
147
100
AcDbEntity
  8
Sketch Geometry(Ram)
370
    18
100
AcDbCircle
 10
-2.499999999999964
 20
-3.499999999999977
 30
0.0
 40
0.5
100
AcDbArc
 50
180.0
 51
270.0
  0
LINE
  5
19A
330
147
100
AcDbEntity
  8
Sketch Geometry(Ram)
370
    18
100
AcDbLine
 10
1.000000000000013
 20
-0.4999999999999895
 30
0.0
 11
2.5
 21
-0.5000000000000071
 31
0.0
  0
ARC
  5
19B
330
147
100
AcDbEntity
  8
Sketch Geometry(Ram)
370
    18
100
AcDbCircle
 10
1.000000000000013
 20
-0.9999999999999964
 30
0.0
 40
0.5
100
AcDbArc
 50
90.0
 51
180.0
  0
LINE
  5
19C
330
147
100
AcDbEntity
  8
Sketch Geometry(Ram)
370
    18
100
AcDbLine
 10
0.5000000000000071
 20
-3.499999999999977
 30
0.0
 11
0.5000000000000071
 21
-0.9999999999999964
 31
0.0
  0
LINE
  5
19D
330
147
100
AcDbEntity
  8
Sketch Geometry(Ram)
370
    18
100
AcDbLine
 10
3.000000000000006
 20
-0.9999999999999964
 30
0.0
 11
3.000000000000006
 21
-3.499999999999977
 31
0.0
  0
ARC
  5
19E
330
147
100
AcDbEntity
  8
Sketch Geometry(Ram)
370
    18
100
AcDbCircle
 10
2.5
 20
-0.9999999999999964
 30
0.0
 40
0.5
100
AcDbArc
 50
0.0
 51
90.0
  0
ARC
  5
19F
330
147
100
AcDbEntity
  8
Sketch Geometry(Ram)
370
    18
100
AcDbCircle
 10
2.5
 20
-3.499999999999977
 30
0.0
 40
0.5
100
AcDbArc
 50
270.0
 51
0.0
  0
LINE
  5
1A0
330
147
100
AcDbEntity
  8
Sketch Geometry(Ram)
370
    18
100
AcDbLine
 10
2.5
 20
-3.999999999999984
 30
0.0
 11
1.000000000000013
 21
-3.999999999999984
 31
0.0
  0
ARC
  5
1A1
330
147
100
AcDbEntity
  8
Sketch Geometry(Ram)
370
    18
100
AcDbCircle
 10
1.000000000000013
 20
-3.499999999999977
 30
0.0
 40
0.5
100
AcDbArc
 50
180.0
 51
270.0
  0
LINE
  5
1A2
330
147
100
AcDbEntity
  8
Sketch Geometry(Ram)
370
    18
100
AcDbLine
 10
4.499999999999992
 20
-0.4999999999999895
 30
0.0
 11
5.999999999999976
 21
-0.5000000000000071
 31
0.0
  0
ARC
  5
1A3
330
147
100
AcDbEntity
  8
Sketch Geometry(Ram)
370
    18
100
AcDbCircle
 10
4.499999999999992
 20
-0.9999999999999964
 30
0.0
 40
0.5
100
AcDbArc
 50
90.0
 51
180.0
  0
LINE
  5
1A4
330
147
100
AcDbEntity
  8
Sketch Geometry(Ram)
370
    18
100
AcDbLine
 10
3.999999999999984
 20
-3.499999999999977
 30
0.0
 11
3.999999999999984
 21
-0.9999999999999964
 31
0.0
  0
LINE
  5
1A5
330
147
100
AcDbEntity
  8
Sketch Geometry(Ram)
370
    18
100
AcDbLine
 10
6.499999999999985
 20
-0.9999999999999964
 30
0.0
 11
6.499999999999985
 21
-3.499999999999977
 31
0.0
  0
ARC
  5
1A6
330
147
100
AcDbEntity
  8
Sketch Geometry(Ram)
370
    18
100
AcDbCircle
 10
5.999999999999976
 20
-0.9999999999999964
 30
0.0
 40
0.5
100
AcDbArc
 50
0.0
 51
90.0
  0
ARC
  5
1A7
330
147
100
AcDbEntity
  8
Sketch Geometry(Ram)
370
    18
100
AcDbCircle
 10
5.999999999999976
 20
-3.499999999999977
 30
0.0
 40
0.5
100
AcDbArc
 50
270.0
 51
0.0
  0
LINE
  5
1A8
330
147
100
AcDbEntity
  8
Sketch Geometry(Ram)
370
    18
100
AcDbLine
 10
5.999999999999976
 20
-3.999999999999984
 30
0.0
 11
4.499999999999992
 21
-3.999999999999984
 31
0.0
  0
ARC
  5
1A9
330
147
100
AcDbEntity
  8
Sketch Geometry(Ram)
370
    18
100
AcDbCircle
 10
4.499999999999992
 20
-3.499999999999977
 30
0.0
 40
0.5
100
AcDbArc
 50
180.0
 51
270.0
  0
LINE
  5
1AA
330
147
100
AcDbEntity
  8
Sketch Geometry(Ram)
370
    18
100
AcDbLine
 10
-5.999999999999943
 20
-4.999999999999981
 30
0.0
 11
-4.499999999999957
 21
-5.0
 31
0.0
  0
ARC
  5
1AB
330
147
100
AcDbEntity
  8
Sketch Geometry(Ram)
370
    18
100
AcDbCircle
 10
-5.999999999999943
 20
-5.499999999999988
 30
0.0
 40
0.5
100
AcDbArc
 50
90.0
 51
180.0
  0
LINE
  5
1AC
330
147
100
AcDbEntity
  8
Sketch Geometry(Ram)
370
    18
100
AcDbLine
 10
-6.49999999999995
 20
-7.999999999999971
 30
0.0
 11
-6.49999999999995
 21
-5.499999999999988
 31
0.0
  0
LINE
  5
1AD
330
147
100
AcDbEntity
  8
Sketch Geometry(Ram)
370
    18
100
AcDbLine
 10
-3.999999999999949
 20
-5.499999999999988
 30
0.0
 11
-3.999999999999949
 21
-7.999999999999971
 31
0.0
  0
ARC
  5
1AE
330
147
100
AcDbEntity
  8
Sketch Geometry(Ram)
370
    18
100
AcDbCircle
 10
-4.499999999999957
 20
-5.499999999999988
 30
0.0
 40
0.5
100
AcDbArc
 50
0.0
 51
90.0
  0
ARC
  5
1AF
330
147
100
AcDbEntity
  8
Sketch Geometry(Ram)
370
    18
100
AcDbCircle
 10
-4.499999999999957
 20
-7.999999999999971
 30
0.0
 40
0.5
100
AcDbArc
 50
270.0
 51
0.0
  0
LINE
  5
1B0
330
147
100
AcDbEntity
  8
Sketch Geometry(Ram)
370
    18
100
AcDbLine
 10
-4.499999999999957
 20
-8.499999999999976
 30
0.0
 11
-5.999999999999943
 21
-8.499999999999976
 31
0.0
  0
ARC
  5
1B1
330
147
100
AcDbEntity
  8
Sketch Geometry(Ram)
370
    18
100
AcDbCircle
 10
-5.999999999999943
 20
-7.999999999999971
 30
0.0
 40
0.5
100
AcDbArc
 50
180.0
 51
270.0
  0
LINE
  5
1B2
330
147
100
AcDbEntity
  8
Sketch Geometry(Ram)
370
    18
100
AcDbLine
 10
-2.499999999999964
 20
-4.999999999999981
 30
0.0
 11
-0.9999999999999785
 21
-5.0
 31
0.0
  0
ARC
  5
1B3
330
147
100
AcDbEntity
  8
Sketch Geometry(Ram)
370
    18
100
AcDbCircle
 10
-2.499999999999964
 20
-5.499999999999988
 30
0.0
 40
0.5
100
AcDbArc
 50
90.0
 51
180.0
  0
LINE
  5
1B4
330
147
100
AcDbEntity
  8
Sketch Geometry(Ram)
370
    18
100
AcDbLine
 10
-2.999999999999971
 20
-7.999999999999971
 30
0.0
 11
-2.999999999999971
 21
-5.499999999999988
 31
0.0
  0
LINE
  5
1B5
330
147
100
AcDbEntity
  8
Sketch Geometry(Ram)
370
    18
100
AcDbLine
 10
-0.4999999999999716
 20
-5.499999999999988
 30
0.0
 11
-0.4999999999999716
 21
-7.999999999999971
 31
0.0
  0
ARC
  5
1B6
330
147
100
AcDbEntity
  8
Sketch Geometry(Ram)
370
    18
100
AcDbCircle
 10
-0.9999999999999785
 20
-5.499999999999988
 30
0.0
 40
0.5
100
AcDbArc
 50
0.0
 51
90.0
  0
ARC
  5
1B7
330
147
100
AcDbEntity
  8
Sketch Geometry(Ram)
370
    18
100
AcDbCircle
 10
-0.9999999999999785
 20
-7.999999999999971
 30
0.0
 40
0.5
100
AcDbArc
 50
270.0
 51
0.0
  0
LINE
  5
1B8
330
147
100
AcDbEntity
  8
Sketch Geometry(Ram)
370
    18
100
AcDbLine
 10
-0.9999999999999785
 20
-8.499999999999976
 30
0.0
 11
-2.499999999999964
 21
-8.499999999999976
 31
0.0
  0
ARC
  5
1B9
330
147
100
AcDbEntity
  8
Sketch Geometry(Ram)
370
    18
100
AcDbCircle
 10
-2.499999999999964
 20
-7.999999999999971
 30
0.0
 40
0.5
100
AcDbArc
 50
180.0
 51
270.0
  0
LINE
  5
1BA
330
147
100
AcDbEntity
  8
Sketch Geometry(Ram)
370
    18
100
AcDbLine
 10
1.000000000000013
 20
-4.999999999999981
 30
0.0
 11
2.5
 21
-5.0
 31
0.0
  0
ARC
  5
1BB
330
147
100
AcDbEntity
  8
Sketch Geometry(Ram)
370
    18
100
AcDbCircle
 10
1.000000000000013
 20
-5.499999999999988
 30
0.0
 40
0.5
100
AcDbArc
 50
90.0
 51
180.0
  0
LINE
  5
1BC
330
147
100
AcDbEntity
  8
Sketch Geometry(Ram)
370
    18
100
AcDbLine
 10
0.5000000000000071
 20
-7.999999999999971
 30
0.0
 11
0.5000000000000071
 21
-5.499999999999988
 31
0.0
  0
LINE
  5
1BD
330
147
100
AcDbEntity
  8
Sketch Geometry(Ram)
370
    18
100
AcDbLine
 10
3.000000000000006
 20
-5.499999999999988
 30
0.0
 11
3.000000000000006
 21
-7.999999999999971
 31
0.0
  0
ARC
  5
1BE
330
147
100
AcDbEntity
  8
Sketch Geometry(Ram)
370
    18
100
AcDbCircle
 10
2.5
 20
-5.499999999999988
 30
0.0
 40
0.5
100
AcDbArc
 50
0.0
 51
90.0
  0
ARC
  5
1BF
330
147
100
AcDbEntity
  8
Sketch Geometry(Ram)
370
    18
100
AcDbCircle
 10
2.5
 20
-7.999999999999971
 30
0.0
 40
0.5
100
AcDbArc
 50
270.0
 51
0.0
  0
LINE
  5
1C0
330
147
100
AcDbEntity
  8
Sketch Geometry(Ram)
370
    18
100
AcDbLine
 10
2.5
 20
-8.499999999999976
 30
0.0
 11
1.000000000000013
 21
-8.499999999999976
 31
0.0
  0
ARC
  5
1C1
330
147
100
AcDbEntity
  8
Sketch Geometry(Ram)
370
    18
100
AcDbCircle
 10
1.000000000000013
 20
-7.999999999999971
 30
0.0
 40
0.5
100
AcDbArc
 50
180.0
 51
270.0
  0
LINE
  5
1C2
330
147
100
AcDbEntity
  8
Sketch Geometry(Ram)
370
    18
100
AcDbLine
 10
4.499999999999992
 20
-4.999999999999981
 30
0.0
 11
5.999999999999976
 21
-5.0
 31
0.0
  0
ARC
  5
1C3
330
147
100
AcDbEntity
  8
Sketch Geometry(Ram)
370
    18
100
AcDbCircle
 10
4.499999999999992
 20
-5.499999999999988
 30
0.0
 40
0.5
100
AcDbArc
 50
90.0
 51
180.0
  0
LINE
  5
1C4
330
147
100
AcDbEntity
  8
Sketch Geometry(Ram)
370
    18
100
AcDbLine
 10
3.999999999999984
 20
-7.999999999999971
 30
0.0
 11
3.999999999999984
 21
-5.499999999999988
 31
0.0
  0
LINE
  5
1C5
330
147
100
AcDbEntity
  8
Sketch Geometry(Ram)
370
    18
100
AcDbLine
 10
6.499999999999985
 20
-5.499999999999988
 30
0.0
 11
6.499999999999985
 21
-7.999999999999971
 31
0.0
  0
ARC
  5
1C6
330
147
100
AcDbEntity
  8
Sketch Geometry(Ram)
370
    18
100
AcDbCircle
 10
5.999999999999976
 20
-5.499999999999988
 30
0.0
 40
0.5
100
AcDbArc
 50
0.0
 51
90.0
  0
ARC
  5
1C7
330
147
100
AcDbEntity
  8
Sketch Geometry(Ram)
370
    18
100
AcDbCircle
 10
5.999999999999976
 20
-7.999999999999971
 30
0.0
 40
0.5
100
AcDbArc
 50
270.0
 51
0.0
  0
LINE
  5
1C8
330
147
100
AcDbEntity
  8
Sketch Geometry(Ram)
370
    18
100
AcDbLine
 10
5.999999999999976
 20
-8.499999999999976
 30
0.0
 11
4.499999999999992
 21
-8.499999999999976
 31
0.0
  0
ARC
  5
1C9
330
147
100
AcDbEntity
  8
Sketch Geometry(Ram)
370
    18
100
AcDbCircle
 10
4.499999999999992
 20
-7.999999999999971
 30
0.0
 40
0.5
100
AcDbArc
 50
180.0
 51
270.0
  0
MTEXT
  5
1CA
330
147
100
AcDbEntity
  8
Symbols(Ram)
 62
     7
100
AcDbMText
 10
-5.999999999999943
 20
5.0
 30
0.0
 40
6.99999988079071
 41
0.0
 46
0.0
 71
     1
 72
     1
  1
\fArial|b1|i0;\H7.0000;16
  7
STD 2.5 ARIAL
 73
     1
 44
1.0
1001
ACAD
1000
MTEXTBEGIN
1070
    73
1070
     1
1070
    44
1040
1.0
1070
    74
1070
     0
1000
MTEXTEND
  0
MTEXT
  5
1CB
330
147
100
AcDbEntity
  8
Symbols(Ram)
 62
     7
100
AcDbMText
 10
-0.0510837138014608
 20
-10.57935449735255
 30
0.0
 40
1.49859994649887
 41
13.03165197372436
 46
0.0
 71
     2
 72
     1
  1
\fArial|b0|i0;\H1.4986;SKIN PACK 140 X 100mm
  7
STD 2.5 ARIAL
 73
     2
 44
0.9442214369773862
1001
ACAD
1000
MTEXTBEGIN
1070
    73
1070
     2
1070
    44
1040
0.9442214369773862
1070
    74
1070
     0
1000
MTEXTEND
  0
ENDBLK
  5
149
330
147
100
AcDbEntity
  8
0
100
AcDbBlockEnd
  0
BLOCK
  5
1CD
330
1CC
100
AcDbEntity
  8
0
100
AcDbBlockBegin
  2
2 UP
 70
     0
 10
0.0
 20
0.0
 30
0.0
  3
2 UP
  1

  0
LINE
  5
1CF
330
1CC
100
AcDbEntity
  8
Sketch Geometry(Ram)
370
    18
100
AcDbLine
 10
5.999999999999996
 20
-8.500000000000012
 30
0.0
 11
-5.999999999999996
 21
-8.500000000000012
 31
0.0
  0
LINE
  5
1D0
330
1CC
100
AcDbEntity
  8
Sketch Geometry(Ram)
370
    18
100
AcDbLine
 10
-6.499999999999993
 20
-7.999999999999988
 30
0.0
 11
-6.500000000000013
 21
-0.9999999999999964
 31
0.0
  0
LINE
  5
1D1
330
1CC
100
AcDbEntity
  8
Sketch Geometry(Ram)
370
    18
100
AcDbLine
 10
-6.000000000000004
 20
-0.4999999999999895
 30
0.0
 11
5.999999999999996
 21
-0.4999999999999895
 31
0.0
  0
LINE
  5
1D2
330
1CC
100
AcDbEntity
  8
Sketch Geometry(Ram)
370
    18
100
AcDbLine
 10
6.499999999999993
 20
-0.9999999999999964
 30
0.0
 11
6.499999999999993
 21
-7.999999999999988
 31
0.0
  0
ARC
  5
1D3
330
1CC
100
AcDbEntity
  8
Sketch Geometry(Ram)
370
    18
100
AcDbCircle
 10
-6.000000000000004
 20
-0.9999999999999964
 30
0.0
 40
0.5
100
AcDbArc
 50
90.0
 51
180.0
  0
ARC
  5
1D4
330
1CC
100
AcDbEntity
  8
Sketch Geometry(Ram)
370
    18
100
AcDbCircle
 10
5.999999999999996
 20
-0.9999999999999964
 30
0.0
 40
0.5
100
AcDbArc
 50
0.0
 51
90.0
  0
ARC
  5
1D5
330
1CC
100
AcDbEntity
  8
Sketch Geometry(Ram)
370
    18
100
AcDbCircle
 10
5.999999999999996
 20
-7.999999999999988
 30
0.0
 40
0.5
100
AcDbArc
 50
270.0
 51
0.0
  0
ARC
  5
1D6
330
1CC
100
AcDbEntity
  8
Sketch Geometry(Ram)
370
    18
100
AcDbCircle
 10
-6.000000000000004
 20
-7.999999999999988
 30
0.0
 40
0.5
100
AcDbArc
 50
180.0
 51
270.0
  0
LINE
  5
1D7
330
1CC
100
AcDbEntity
  8
Sketch Geometry(Ram)
370
    18
100
AcDbLine
 10
-6.499999999999993
 20
1.000000000000013
 30
0.0
 11
-6.500000000000013
 21
8.000000000000008
 31
0.0
  0
LINE
  5
1D8
330
1CC
100
AcDbEntity
  8
Sketch Geometry(Ram)
370
    18
100
AcDbLine
 10
-6.000000000000004
 20
8.500000000000012
 30
0.0
 11
5.999999999999996
 21
8.500000000000012
 31
0.0
  0
ARC
  5
1D9
330
1CC
100
AcDbEntity
  8
Sketch Geometry(Ram)
370
    18
100
AcDbCircle
 10
-6.000000000000004
 20
8.000000000000008
 30
0.0
 40
0.5
100
AcDbArc
 50
90.0
 51
180.0
  0
ARC
  5
1DA
330
1CC
100
AcDbEntity
  8
Sketch Geometry(Ram)
370
    18
100
AcDbCircle
 10
-6.000000000000004
 20
1.000000000000013
 30
0.0
 40
0.5
100
AcDbArc
 50
180.0
 51
270.0
  0
LINE
  5
1DB
330
1CC
100
AcDbEntity
  8
Sketch Geometry(Ram)
370
    18
100
AcDbLine
 10
5.999999999999996
 20
0.4999999999999895
 30
0.0
 11
-5.999999999999996
 21
0.4999999999999895
 31
0.0
  0
LINE
  5
1DC
330
1CC
100
AcDbEntity
  8
Sketch Geometry(Ram)
370
    18
100
AcDbLine
 10
6.499999999999993
 20
8.000000000000008
 30
0.0
 11
6.499999999999993
 21
1.000000000000013
 31
0.0
  0
ARC
  5
1DD
330
1CC
100
AcDbEntity
  8
Sketch Geometry(Ram)
370
    18
100
AcDbCircle
 10
5.999999999999996
 20
8.000000000000008
 30
0.0
 40
0.5
100
AcDbArc
 50
0.0
 51
90.0
  0
ARC
  5
1DE
330
1CC
100
AcDbEntity
  8
Sketch Geometry(Ram)
370
    18
100
AcDbCircle
 10
5.999999999999996
 20
1.000000000000013
 30
0.0
 40
0.5
100
AcDbArc
 50
270.0
 51
0.0
  0
MTEXT
  5
1DF
330
1CC
100
AcDbEntity
  8
Symbols(Ram)
 62
     7
100
AcDbMText
 10
-2.693369958193557
 20
3.877714748987841
 30
0.0
 40
6.99999988079071
 41
0.0
 46
0.0
 71
     1
 72
     1
  1
\fArial|b1|i0;\H7.0000;2
  7
STD 2.5 ARIAL
 73
     1
 44
1.0
1001
ACAD
1000
MTEXTBEGIN
1070
    73
1070
     1
1070
    44
1040
1.0
1070
    74
1070
     0
1000
MTEXTEND
  0
MTEXT
  5
1E0
330
1CC
100
AcDbEntity
  8
Symbols(Ram)
 62
     7
100
AcDbMText
 10
-0.1943525311948591
 20
-10.85544927742214
 30
0.0
 40
1.49859994649887
 41
12.69037379631852
 46
0.0
 71
     2
 72
     1
  1
\fArial|b0|i0;\H1.4986;SKIN PACK 435 x 290mm
  7
STD 2.5 ARIAL
 73
     2
 44
0.9442214369773862
1001
ACAD
1000
MTEXTBEGIN
1070
    73
1070
     2
1070
    44
1040
0.9442214369773862
1070
    74
1070
     0
1000
MTEXTEND
  0
ENDBLK
  5
1CE
330
1CC
100
AcDbEntity
  8
0
100
AcDbBlockEnd
  0
BLOCK
  5
1E2
330
1E1
100
AcDbEntity
  8
0
100
AcDbBlockBegin
  2
4 UP
 70
     0
 10
0.0
 20
0.0
 30
0.0
  3
4 UP
  1

  0
LINE
  5
1E4
330
1E1
100
AcDbEntity
  8
Sketch Geometry(Ram)
370
    18
100
AcDbLine
 10
-1.000000000000005
 20
0.5000000000000071
 30
0.0
 11
-6.000000000000004
 21
0.5000000000000071
 31
0.0
  0
LINE
  5
1E5
330
1E1
100
AcDbEntity
  8
Sketch Geometry(Ram)
370
    18
100
AcDbLine
 10
-6.500000000000002
 20
1.00000000000003
 30
0.0
 11
-6.500000000000021
 21
8.000000000000042
 31
0.0
  0
LINE
  5
1E6
330
1E1
100
AcDbEntity
  8
Sketch Geometry(Ram)
370
    18
100
AcDbLine
 10
-6.000000000000004
 20
8.500000000000012
 30
0.0
 11
-1.000000000000005
 21
8.500000000000012
 31
0.0
  0
LINE
  5
1E7
330
1E1
100
AcDbEntity
  8
Sketch Geometry(Ram)
370
    18
100
AcDbLine
 10
-0.5000000000000071
 20
8.000000000000023
 30
0.0
 11
-0.5000000000000071
 21
1.00000000000003
 31
0.0
  0
ARC
  5
1E8
330
1E1
100
AcDbEntity
  8
Sketch Geometry(Ram)
370
    18
100
AcDbCircle
 10
-6.000000000000004
 20
8.000000000000023
 30
0.0
 40
0.5
100
AcDbArc
 50
90.0
 51
180.0
  0
ARC
  5
1E9
330
1E1
100
AcDbEntity
  8
Sketch Geometry(Ram)
370
    18
100
AcDbCircle
 10
-1.000000000000005
 20
8.000000000000023
 30
0.0
 40
0.5
100
AcDbArc
 50
0.0
 51
90.0
  0
ARC
  5
1EA
330
1E1
100
AcDbEntity
  8
Sketch Geometry(Ram)
370
    18
100
AcDbCircle
 10
-1.000000000000005
 20
1.00000000000003
 30
0.0
 40
0.5
100
AcDbArc
 50
270.0
 51
0.0
  0
ARC
  5
1EB
330
1E1
100
AcDbEntity
  8
Sketch Geometry(Ram)
370
    18
100
AcDbCircle
 10
-6.000000000000004
 20
1.00000000000003
 30
0.0
 40
0.5
100
AcDbArc
 50
180.0
 51
270.0
  0
LINE
  5
1EC
330
1E1
100
AcDbEntity
  8
Sketch Geometry(Ram)
370
    18
100
AcDbLine
 10
0.9999999999999964
 20
8.500000000000012
 30
0.0
 11
5.999999999999996
 21
8.500000000000012
 31
0.0
  0
ARC
  5
1ED
330
1E1
100
AcDbEntity
  8
Sketch Geometry(Ram)
370
    18
100
AcDbCircle
 10
0.9999999999999964
 20
8.000000000000023
 30
0.0
 40
0.5
100
AcDbArc
 50
90.0
 51
180.0
  0
LINE
  5
1EE
330
1E1
100
AcDbEntity
  8
Sketch Geometry(Ram)
370
    18
100
AcDbLine
 10
0.4999999999999984
 20
1.00000000000003
 30
0.0
 11
0.4999999999999806
 21
8.000000000000042
 31
0.0
  0
LINE
  5
1EF
330
1E1
100
AcDbEntity
  8
Sketch Geometry(Ram)
370
    18
100
AcDbLine
 10
6.499999999999993
 20
8.000000000000023
 30
0.0
 11
6.499999999999993
 21
1.00000000000003
 31
0.0
  0
ARC
  5
1F0
330
1E1
100
AcDbEntity
  8
Sketch Geometry(Ram)
370
    18
100
AcDbCircle
 10
5.999999999999996
 20
8.000000000000023
 30
0.0
 40
0.5
100
AcDbArc
 50
0.0
 51
90.0
  0
ARC
  5
1F1
330
1E1
100
AcDbEntity
  8
Sketch Geometry(Ram)
370
    18
100
AcDbCircle
 10
5.999999999999996
 20
1.00000000000003
 30
0.0
 40
0.5
100
AcDbArc
 50
270.0
 51
0.0
  0
LINE
  5
1F2
330
1E1
100
AcDbEntity
  8
Sketch Geometry(Ram)
370
    18
100
AcDbLine
 10
5.999999999999996
 20
0.5000000000000071
 30
0.0
 11
0.9999999999999964
 21
0.5000000000000071
 31
0.0
  0
ARC
  5
1F3
330
1E1
100
AcDbEntity
  8
Sketch Geometry(Ram)
370
    18
100
AcDbCircle
 10
0.9999999999999964
 20
1.00000000000003
 30
0.0
 40
0.5
100
AcDbArc
 50
180.0
 51
270.0
  0
LINE
  5
1F4
330
1E1
100
AcDbEntity
  8
Sketch Geometry(Ram)
370
    18
100
AcDbLine
 10
-6.000000000000004
 20
-0.4999999999999895
 30
0.0
 11
-1.000000000000005
 21
-0.5000000000000071
 31
0.0
  0
ARC
  5
1F5
330
1E1
100
AcDbEntity
  8
Sketch Geometry(Ram)
370
    18
100
AcDbCircle
 10
-6.000000000000004
 20
-1.000000000000013
 30
0.0
 40
0.5
100
AcDbArc
 50
90.0
 51
180.0
  0
LINE
  5
1F6
330
1E1
100
AcDbEntity
  8
Sketch Geometry(Ram)
370
    18
100
AcDbLine
 10
-6.500000000000002
 20
-7.999999999999988
 30
0.0
 11
-6.500000000000013
 21
-1.000000000000013
 31
0.0
  0
LINE
  5
1F7
330
1E1
100
AcDbEntity
  8
Sketch Geometry(Ram)
370
    18
100
AcDbLine
 10
-0.5000000000000071
 20
-0.9999999999999964
 30
0.0
 11
-0.5000000000000071
 21
-7.999999999999988
 31
0.0
  0
ARC
  5
1F8
330
1E1
100
AcDbEntity
  8
Sketch Geometry(Ram)
370
    18
100
AcDbCircle
 10
-1.000000000000005
 20
-0.9999999999999964
 30
0.0
 40
0.5
100
AcDbArc
 50
0.0
 51
90.0
  0
ARC
  5
1F9
330
1E1
100
AcDbEntity
  8
Sketch Geometry(Ram)
370
    18
100
AcDbCircle
 10
-1.000000000000005
 20
-7.999999999999988
 30
0.0
 40
0.5
100
AcDbArc
 50
270.0
 51
0.0
  0
LINE
  5
1FA
330
1E1
100
AcDbEntity
  8
Sketch Geometry(Ram)
370
    18
100
AcDbLine
 10
-1.000000000000005
 20
-8.500000000000012
 30
0.0
 11
-6.000000000000004
 21
-8.500000000000012
 31
0.0
  0
ARC
  5
1FB
330
1E1
100
AcDbEntity
  8
Sketch Geometry(Ram)
370
    18
100
AcDbCircle
 10
-6.000000000000004
 20
-7.999999999999988
 30
0.0
 40
0.5
100
AcDbArc
 50
180.0
 51
270.0
  0
LINE
  5
1FC
330
1E1
100
AcDbEntity
  8
Sketch Geometry(Ram)
370
    18
100
AcDbLine
 10
0.9999999999999964
 20
-0.4999999999999895
 30
0.0
 11
5.999999999999996
 21
-0.5000000000000071
 31
0.0
  0
ARC
  5
1FD
330
1E1
100
AcDbEntity
  8
Sketch Geometry(Ram)
370
    18
100
AcDbCircle
 10
0.9999999999999964
 20
-0.9999999999999785
 30
0.0
 40
0.5
100
AcDbArc
 50
90.0
 51
180.0
  0
LINE
  5
1FE
330
1E1
100
AcDbEntity
  8
Sketch Geometry(Ram)
370
    18
100
AcDbLine
 10
0.4999999999999984
 20
-7.999999999999988
 30
0.0
 11
0.4999999999999806
 21
-0.9999999999999607
 31
0.0
  0
LINE
  5
1FF
330
1E1
100
AcDbEntity
  8
Sketch Geometry(Ram)
370
    18
100
AcDbLine
 10
6.499999999999993
 20
-0.9999999999999964
 30
0.0
 11
6.499999999999993
 21
-7.999999999999988
 31
0.0
  0
ARC
  5
200
330
1E1
100
AcDbEntity
  8
Sketch Geometry(Ram)
370
    18
100
AcDbCircle
 10
5.999999999999996
 20
-0.9999999999999964
 30
0.0
 40
0.5
100
AcDbArc
 50
0.0
 51
90.0
  0
ARC
  5
201
330
1E1
100
AcDbEntity
  8
Sketch Geometry(Ram)
370
    18
100
AcDbCircle
 10
5.999999999999996
 20
-7.999999999999988
 30
0.0
 40
0.5
100
AcDbArc
 50
270.0
 51
0.0
  0
LINE
  5
202
330
1E1
100
AcDbEntity
  8
Sketch Geometry(Ram)
370
    18
100
AcDbLine
 10
5.999999999999996
 20
-8.500000000000012
 30
0.0
 11
0.9999999999999964
 21
-8.500000000000012
 31
0.0
  0
ARC
  5
203
330
1E1
100
AcDbEntity
  8
Sketch Geometry(Ram)
370
    18
100
AcDbCircle
 10
0.9999999999999964
 20
-7.999999999999988
 30
0.0
 40
0.5
100
AcDbArc
 50
180.0
 51
270.0
  0
MTEXT
  5
204
330
1E1
100
AcDbEntity
  8
Symbols(Ram)
 62
     7
100
AcDbMText
 10
-3.285501171173564
 20
3.819317278035381
 30
0.0
 40
6.99999988079071
 41
0.0
 46
0.0
 71
     1
 72
     1
  1
\fArial|b1|i0;\H7.0000;4
  7
STD 2.5 ARIAL
 73
     1
 44
1.0
1001
ACAD
1000
MTEXTBEGIN
1070
    73
1070
     1
1070
    44
1040
1.0
1070
    74
1070
     0
1000
MTEXTEND
  0
MTEXT
  5
205
330
1E1
100
AcDbEntity
  8
Symbols(Ram)
 62
     7
100
AcDbMText
 10
0.0818006588334175
 20
-11.29726315604326
 30
0.0
 40
1.49859994649887
 41
12.69037379631852
 46
0.0
 71
     2
 72
     1
  1
\fArial|b0|i0;\H1.4986;SKIN PACK 290 x 210mm
  7
STD 2.5 ARIAL
 73
     2
 44
0.9442214369773862
1001
ACAD
1000
MTEXTBEGIN
1070
    73
1070
     2
1070
    44
1040
0.9442214369773862
1070
    74
1070
     0
1000
MTEXTEND
  0
ENDBLK
  5
1E3
330
1E1
100
AcDbEntity
  8
0
100
AcDbBlockEnd
  0
BLOCK
  5
207
330
206
100
AcDbEntity
  8
0
100
AcDbBlockBegin
  2
6 UP
 70
     0
 10
0.0
 20
0.0
 30
0.0
  3
6 UP
  1

  0
LINE
  5
209
330
206
100
AcDbEntity
  8
Sketch Geometry(Ram)
370
    18
100
AcDbLine
 10
-1.000000000000005
 20
3.499999999999996
 30
0.0
 11
-6.000000000000004
 21
3.499999999999996
 31
0.0
  0
LINE
  5
20A
330
206
100
AcDbEntity
  8
Sketch Geometry(Ram)
370
    18
100
AcDbLine
 10
-6.499999999999993
 20
4.000000000000021
 30
0.0
 11
-6.500000000000002
 21
8.000000000000008
 31
0.0
  0
LINE
  5
20B
330
206
100
AcDbEntity
  8
Sketch Geometry(Ram)
370
    18
100
AcDbLine
 10
-5.999999999999996
 20
8.500000000000012
 30
0.0
 11
-1.000000000000005
 21
8.50000000000003
 31
0.0
  0
LINE
  5
20C
330
206
100
AcDbEntity
  8
Sketch Geometry(Ram)
370
    18
100
AcDbLine
 10
-0.5000000000000071
 20
8.000000000000008
 30
0.0
 11
-0.5000000000000071
 21
4.000000000000021
 31
0.0
  0
ARC
  5
20D
330
206
100
AcDbEntity
  8
Sketch Geometry(Ram)
370
    18
100
AcDbCircle
 10
-5.999999999999996
 20
8.000000000000008
 30
0.0
 40
0.5
100
AcDbArc
 50
90.0
 51
180.0
  0
ARC
  5
20E
330
206
100
AcDbEntity
  8
Sketch Geometry(Ram)
370
    18
100
AcDbCircle
 10
-0.9999999999999964
 20
8.000000000000008
 30
0.0
 40
0.5
100
AcDbArc
 50
0.0
 51
90.0
  0
ARC
  5
20F
330
206
100
AcDbEntity
  8
Sketch Geometry(Ram)
370
    18
100
AcDbCircle
 10
-0.9999999999999964
 20
4.000000000000021
 30
0.0
 40
0.5
100
AcDbArc
 50
270.0
 51
0.0
  0
ARC
  5
210
330
206
100
AcDbEntity
  8
Sketch Geometry(Ram)
370
    18
100
AcDbCircle
 10
-6.000000000000004
 20
4.000000000000021
 30
0.0
 40
0.5
100
AcDbArc
 50
180.0
 51
270.0
  0
LINE
  5
211
330
206
100
AcDbEntity
  8
Sketch Geometry(Ram)
370
    18
100
AcDbLine
 10
1.000000000000005
 20
8.500000000000012
 30
0.0
 11
5.999999999999996
 21
8.50000000000003
 31
0.0
  0
ARC
  5
212
330
206
100
AcDbEntity
  8
Sketch Geometry(Ram)
370
    18
100
AcDbCircle
 10
1.000000000000005
 20
8.000000000000008
 30
0.0
 40
0.5
100
AcDbArc
 50
90.0
 51
180.0
  0
LINE
  5
213
330
206
100
AcDbEntity
  8
Sketch Geometry(Ram)
370
    18
100
AcDbLine
 10
5.999999999999996
 20
3.499999999999996
 30
0.0
 11
0.9999999999999964
 21
3.499999999999996
 31
0.0
  0
ARC
  5
214
330
206
100
AcDbEntity
  8
Sketch Geometry(Ram)
370
    18
100
AcDbCircle
 10
0.9999999999999964
 20
4.000000000000021
 30
0.0
 40
0.5
100
AcDbArc
 50
180.0
 51
270.0
  0
LINE
  5
215
330
206
100
AcDbEntity
  8
Sketch Geometry(Ram)
370
    18
100
AcDbLine
 10
0.5000000000000071
 20
4.000000000000021
 30
0.0
 11
0.4999999999999984
 21
8.000000000000008
 31
0.0
  0
LINE
  5
216
330
206
100
AcDbEntity
  8
Sketch Geometry(Ram)
370
    18
100
AcDbLine
 10
6.499999999999993
 20
8.000000000000008
 30
0.0
 11
6.499999999999993
 21
4.000000000000021
 31
0.0
  0
ARC
  5
217
330
206
100
AcDbEntity
  8
Sketch Geometry(Ram)
370
    18
100
AcDbCircle
 10
6.000000000000004
 20
8.000000000000008
 30
0.0
 40
0.5
100
AcDbArc
 50
0.0
 51
90.0
  0
ARC
  5
218
330
206
100
AcDbEntity
  8
Sketch Geometry(Ram)
370
    18
100
AcDbCircle
 10
6.000000000000004
 20
4.000000000000021
 30
0.0
 40
0.5
100
AcDbArc
 50
270.0
 51
0.0
  0
LINE
  5
219
330
206
100
AcDbEntity
  8
Sketch Geometry(Ram)
370
    18
100
AcDbLine
 10
-5.999999999999996
 20
2.500000000000016
 30
0.0
 11
-1.000000000000005
 21
2.500000000000035
 31
0.0
  0
ARC
  5
21A
330
206
100
AcDbEntity
  8
Sketch Geometry(Ram)
370
    18
100
AcDbCircle
 10
-5.999999999999996
 20
2.00000000000001
 30
0.0
 40
0.5
100
AcDbArc
 50
90.0
 51
180.0
  0
LINE
  5
21B
330
206
100
AcDbEntity
  8
Sketch Geometry(Ram)
370
    18
100
AcDbLine
 10
-1.000000000000005
 20
-2.5
 30
0.0
 11
-6.000000000000004
 21
-2.5
 31
0.0
  0
ARC
  5
21C
330
206
100
AcDbEntity
  8
Sketch Geometry(Ram)
370
    18
100
AcDbCircle
 10
-6.000000000000004
 20
-1.999999999999974
 30
0.0
 40
0.5
100
AcDbArc
 50
180.0
 51
270.0
  0
LINE
  5
21D
330
206
100
AcDbEntity
  8
Sketch Geometry(Ram)
370
    18
100
AcDbLine
 10
-6.499999999999993
 20
-1.999999999999974
 30
0.0
 11
-6.500000000000002
 21
2.00000000000001
 31
0.0
  0
LINE
  5
21E
330
206
100
AcDbEntity
  8
Sketch Geometry(Ram)
370
    18
100
AcDbLine
 10
-0.5000000000000071
 20
2.00000000000001
 30
0.0
 11
-0.5000000000000071
 21
-1.999999999999974
 31
0.0
  0
ARC
  5
21F
330
206
100
AcDbEntity
  8
Sketch Geometry(Ram)
370
    18
100
AcDbCircle
 10
-0.9999999999999964
 20
2.00000000000001
 30
0.0
 40
0.5
100
AcDbArc
 50
0.0
 51
90.0
  0
ARC
  5
220
330
206
100
AcDbEntity
  8
Sketch Geometry(Ram)
370
    18
100
AcDbCircle
 10
-0.9999999999999964
 20
-1.999999999999974
 30
0.0
 40
0.5
100
AcDbArc
 50
270.0
 51
0.0
  0
LINE
  5
221
330
206
100
AcDbEntity
  8
Sketch Geometry(Ram)
370
    18
100
AcDbLine
 10
1.000000000000005
 20
2.500000000000016
 30
0.0
 11
5.999999999999996
 21
2.500000000000035
 31
0.0
  0
ARC
  5
222
330
206
100
AcDbEntity
  8
Sketch Geometry(Ram)
370
    18
100
AcDbCircle
 10
1.000000000000005
 20
2.00000000000001
 30
0.0
 40
0.5
100
AcDbArc
 50
90.0
 51
180.0
  0
LINE
  5
223
330
206
100
AcDbEntity
  8
Sketch Geometry(Ram)
370
    18
100
AcDbLine
 10
5.999999999999996
 20
-2.5
 30
0.0
 11
0.9999999999999964
 21
-2.5
 31
0.0
  0
ARC
  5
224
330
206
100
AcDbEntity
  8
Sketch Geometry(Ram)
370
    18
100
AcDbCircle
 10
0.9999999999999964
 20
-1.999999999999974
 30
0.0
 40
0.5
100
AcDbArc
 50
180.0
 51
270.0
  0
LINE
  5
225
330
206
100
AcDbEntity
  8
Sketch Geometry(Ram)
370
    18
100
AcDbLine
 10
0.5000000000000071
 20
-1.999999999999974
 30
0.0
 11
0.4999999999999984
 21
2.00000000000001
 31
0.0
  0
LINE
  5
226
330
206
100
AcDbEntity
  8
Sketch Geometry(Ram)
370
    18
100
AcDbLine
 10
6.499999999999993
 20
2.00000000000001
 30
0.0
 11
6.499999999999993
 21
-1.999999999999974
 31
0.0
  0
ARC
  5
227
330
206
100
AcDbEntity
  8
Sketch Geometry(Ram)
370
    18
100
AcDbCircle
 10
6.000000000000004
 20
2.00000000000001
 30
0.0
 40
0.5
100
AcDbArc
 50
0.0
 51
90.0
  0
ARC
  5
228
330
206
100
AcDbEntity
  8
Sketch Geometry(Ram)
370
    18
100
AcDbCircle
 10
6.000000000000004
 20
-1.999999999999974
 30
0.0
 40
0.5
100
AcDbArc
 50
270.0
 51
0.0
  0
LINE
  5
229
330
206
100
AcDbEntity
  8
Sketch Geometry(Ram)
370
    18
100
AcDbLine
 10
-5.999999999999996
 20
-3.499999999999996
 30
0.0
 11
-1.000000000000005
 21
-3.49999999999996
 31
0.0
  0
ARC
  5
22A
330
206
100
AcDbEntity
  8
Sketch Geometry(Ram)
370
    18
100
AcDbCircle
 10
-5.999999999999996
 20
-4.000000000000002
 30
0.0
 40
0.5
100
AcDbArc
 50
90.0
 51
180.0
  0
LINE
  5
22B
330
206
100
AcDbEntity
  8
Sketch Geometry(Ram)
370
    18
100
AcDbLine
 10
-1.000000000000005
 20
-8.499999999999996
 30
0.0
 11
-6.000000000000004
 21
-8.499999999999996
 31
0.0
  0
ARC
  5
22C
330
206
100
AcDbEntity
  8
Sketch Geometry(Ram)
370
    18
100
AcDbCircle
 10
-6.000000000000004
 20
-7.999999999999988
 30
0.0
 40
0.5
100
AcDbArc
 50
180.0
 51
270.0
  0
LINE
  5
22D
330
206
100
AcDbEntity
  8
Sketch Geometry(Ram)
370
    18
100
AcDbLine
 10
-6.499999999999993
 20
-7.999999999999988
 30
0.0
 11
-6.500000000000002
 21
-4.000000000000002
 31
0.0
  0
LINE
  5
22E
330
206
100
AcDbEntity
  8
Sketch Geometry(Ram)
370
    18
100
AcDbLine
 10
-0.5000000000000071
 20
-4.000000000000002
 30
0.0
 11
-0.5000000000000071
 21
-7.999999999999988
 31
0.0
  0
ARC
  5
22F
330
206
100
AcDbEntity
  8
Sketch Geometry(Ram)
370
    18
100
AcDbCircle
 10
-0.9999999999999964
 20
-4.000000000000002
 30
0.0
 40
0.5
100
AcDbArc
 50
0.0
 51
90.0
  0
ARC
  5
230
330
206
100
AcDbEntity
  8
Sketch Geometry(Ram)
370
    18
100
AcDbCircle
 10
-0.9999999999999964
 20
-7.999999999999988
 30
0.0
 40
0.5
100
AcDbArc
 50
270.0
 51
0.0
  0
LINE
  5
231
330
206
100
AcDbEntity
  8
Sketch Geometry(Ram)
370
    18
100
AcDbLine
 10
1.000000000000005
 20
-3.499999999999977
 30
0.0
 11
5.999999999999996
 21
-3.49999999999996
 31
0.0
  0
ARC
  5
232
330
206
100
AcDbEntity
  8
Sketch Geometry(Ram)
370
    18
100
AcDbCircle
 10
1.000000000000005
 20
-3.999999999999984
 30
0.0
 40
0.5
100
AcDbArc
 50
90.0
 51
180.0
  0
LINE
  5
233
330
206
100
AcDbEntity
  8
Sketch Geometry(Ram)
370
    18
100
AcDbLine
 10
5.999999999999996
 20
-8.499999999999996
 30
0.0
 11
0.9999999999999964
 21
-8.499999999999996
 31
0.0
  0
ARC
  5
234
330
206
100
AcDbEntity
  8
Sketch Geometry(Ram)
370
    18
100
AcDbCircle
 10
0.9999999999999964
 20
-7.999999999999971
 30
0.0
 40
0.5
100
AcDbArc
 50
180.0
 51
270.0
  0
LINE
  5
235
330
206
100
AcDbEntity
  8
Sketch Geometry(Ram)
370
    18
100
AcDbLine
 10
0.5000000000000071
 20
-7.999999999999971
 30
0.0
 11
0.4999999999999984
 21
-3.999999999999984
 31
0.0
  0
LINE
  5
236
330
206
100
AcDbEntity
  8
Sketch Geometry(Ram)
370
    18
100
AcDbLine
 10
6.499999999999993
 20
-3.999999999999984
 30
0.0
 11
6.499999999999993
 21
-7.999999999999971
 31
0.0
  0
ARC
  5
237
330
206
100
AcDbEntity
  8
Sketch Geometry(Ram)
370
    18
100
AcDbCircle
 10
6.000000000000004
 20
-3.999999999999984
 30
0.0
 40
0.5
100
AcDbArc
 50
0.0
 51
90.0
  0
ARC
  5
238
330
206
100
AcDbEntity
  8
Sketch Geometry(Ram)
370
    18
100
AcDbCircle
 10
6.000000000000004
 20
-7.999999999999971
 30
0.0
 40
0.5
100
AcDbArc
 50
270.0
 51
0.0
  0
MTEXT
  5
239
330
206
100
AcDbEntity
  8
Symbols(Ram)
 62
     7
100
AcDbMText
 10
-2.501412751660002
 20
4.308296391833169
 30
0.0
 40
6.99999988079071
 41
0.0
 46
0.0
 71
     1
 72
     1
  1
\fArial|b1|i0;\H7.0000;6
  7
STD 2.5 ARIAL
 73
     1
 44
1.0
1001
ACAD
1000
MTEXTBEGIN
1070
    73
1070
     1
1070
    44
1040
1.0
1070
    74
1070
     0
1000
MTEXTEND
  0
MTEXT
  5
23A
330
206
100
AcDbEntity
  8
Symbols(Ram)
 62
     7
100
AcDbMText
 10
-0.1522701282913097
 20
-9.87539018147526
 30
0.0
 40
1.49859994649887
 41
13.03165197372436
 46
0.0
 71
     2
 72
     1
  1
\fArial|b0|i0;\H1.4986;SKIN PACK 210 X 190mm
  7
STD 2.5 ARIAL
 73
     2
 44
0.9442214369773862
1001
ACAD
1000
MTEXTBEGIN
1070
    73
1070
     2
1070
    44
1040
0.9442214369773862
1070
    74
1070
     0
1000
MTEXTEND
  0
ENDBLK
  5
208
330
206
100
AcDbEntity
  8
0
100
AcDbBlockEnd
  0
BLOCK
  5
23C
330
23B
100
AcDbEntity
  8
0
100
AcDbBlockBegin
  2
8 UP
 70
     0
 10
0.0
 20
0.0
 30
0.0
  3
8 UP
  1

  0
LINE
  5
23E
330
23B
100
AcDbEntity
  8
Sketch Geometry(Ram)
370
    18
100
AcDbLine
 10
-4.499999999999992
 20
0.5000000000000071
 30
0.0
 11
-5.999999999999996
 21
0.4999999999999895
 31
0.0
  0
LINE
  5
23F
330
23B
100
AcDbEntity
  8
Sketch Geometry(Ram)
370
    18
100
AcDbLine
 10
-6.499999999999985
 20
1.000000000000013
 30
0.0
 11
-6.499999999999993
 21
8.000000000000023
 31
0.0
  0
LINE
  5
240
330
23B
100
AcDbEntity
  8
Sketch Geometry(Ram)
370
    18
100
AcDbLine
 10
-5.999999999999996
 20
8.500000000000012
 30
0.0
 11
-4.499999999999992
 21
8.500000000000012
 31
0.0
  0
LINE
  5
241
330
23B
100
AcDbEntity
  8
Sketch Geometry(Ram)
370
    18
100
AcDbLine
 10
-4.000000000000002
 20
8.000000000000008
 30
0.0
 11
-4.000000000000002
 21
1.000000000000013
 31
0.0
  0
ARC
  5
242
330
23B
100
AcDbEntity
  8
Sketch Geometry(Ram)
370
    18
100
AcDbCircle
 10
-5.999999999999996
 20
8.000000000000023
 30
0.0
 40
0.5
100
AcDbArc
 50
90.0
 51
180.0
  0
ARC
  5
243
330
23B
100
AcDbEntity
  8
Sketch Geometry(Ram)
370
    18
100
AcDbCircle
 10
-4.499999999999992
 20
8.000000000000008
 30
0.0
 40
0.5
100
AcDbArc
 50
0.0
 51
90.0
  0
ARC
  5
244
330
23B
100
AcDbEntity
  8
Sketch Geometry(Ram)
370
    18
100
AcDbCircle
 10
-4.499999999999992
 20
1.000000000000013
 30
0.0
 40
0.5
100
AcDbArc
 50
270.0
 51
0.0
  0
ARC
  5
245
330
23B
100
AcDbEntity
  8
Sketch Geometry(Ram)
370
    18
100
AcDbCircle
 10
-5.999999999999996
 20
1.000000000000013
 30
0.0
 40
0.5
100
AcDbArc
 50
180.0
 51
270.0
  0
LINE
  5
246
330
23B
100
AcDbEntity
  8
Sketch Geometry(Ram)
370
    18
100
AcDbLine
 10
-2.5
 20
8.500000000000012
 30
0.0
 11
-0.9999999999999964
 21
8.500000000000012
 31
0.0
  0
ARC
  5
247
330
23B
100
AcDbEntity
  8
Sketch Geometry(Ram)
370
    18
100
AcDbCircle
 10
-2.5
 20
8.000000000000023
 30
0.0
 40
0.5
100
AcDbArc
 50
90.0
 51
180.0
  0
LINE
  5
248
330
23B
100
AcDbEntity
  8
Sketch Geometry(Ram)
370
    18
100
AcDbLine
 10
-2.999999999999988
 20
1.000000000000013
 30
0.0
 11
-2.999999999999998
 21
8.000000000000023
 31
0.0
  0
LINE
  5
249
330
23B
100
AcDbEntity
  8
Sketch Geometry(Ram)
370
    18
100
AcDbLine
 10
-0.5000000000000071
 20
8.000000000000008
 30
0.0
 11
-0.5000000000000071
 21
1.000000000000013
 31
0.0
  0
ARC
  5
24A
330
23B
100
AcDbEntity
  8
Sketch Geometry(Ram)
370
    18
100
AcDbCircle
 10
-0.9999999999999964
 20
8.000000000000008
 30
0.0
 40
0.5
100
AcDbArc
 50
0.0
 51
90.0
  0
ARC
  5
24B
330
23B
100
AcDbEntity
  8
Sketch Geometry(Ram)
370
    18
100
AcDbCircle
 10
-0.9999999999999964
 20
1.000000000000013
 30
0.0
 40
0.5
100
AcDbArc
 50
270.0
 51
0.0
  0
LINE
  5
24C
330
23B
100
AcDbEntity
  8
Sketch Geometry(Ram)
370
    18
100
AcDbLine
 10
-0.9999999999999964
 20
0.5000000000000071
 30
0.0
 11
-2.5
 21
0.4999999999999895
 31
0.0
  0
ARC
  5
24D
330
23B
100
AcDbEntity
  8
Sketch Geometry(Ram)
370
    18
100
AcDbCircle
 10
-2.5
 20
1.000000000000013
 30
0.0
 40
0.5
100
AcDbArc
 50
180.0
 51
270.0
  0
LINE
  5
24E
330
23B
100
AcDbEntity
  8
Sketch Geometry(Ram)
370
    18
100
AcDbLine
 10
-5.999999999999996
 20
-0.4999999999999895
 30
0.0
 11
-4.499999999999992
 21
-0.4999999999999895
 31
0.0
  0
ARC
  5
24F
330
23B
100
AcDbEntity
  8
Sketch Geometry(Ram)
370
    18
100
AcDbCircle
 10
-5.999999999999996
 20
-0.9999999999999785
 30
0.0
 40
0.5
100
AcDbArc
 50
90.0
 51
180.0
  0
LINE
  5
250
330
23B
100
AcDbEntity
  8
Sketch Geometry(Ram)
370
    18
100
AcDbLine
 10
-6.499999999999985
 20
-7.999999999999988
 30
0.0
 11
-6.499999999999993
 21
-0.9999999999999785
 31
0.0
  0
LINE
  5
251
330
23B
100
AcDbEntity
  8
Sketch Geometry(Ram)
370
    18
100
AcDbLine
 10
-4.000000000000002
 20
-0.9999999999999964
 30
0.0
 11
-4.000000000000002
 21
-7.999999999999988
 31
0.0
  0
ARC
  5
252
330
23B
100
AcDbEntity
  8
Sketch Geometry(Ram)
370
    18
100
AcDbCircle
 10
-4.499999999999992
 20
-0.9999999999999964
 30
0.0
 40
0.5
100
AcDbArc
 50
0.0
 51
90.0
  0
ARC
  5
253
330
23B
100
AcDbEntity
  8
Sketch Geometry(Ram)
370
    18
100
AcDbCircle
 10
-4.499999999999992
 20
-7.999999999999988
 30
0.0
 40
0.5
100
AcDbArc
 50
270.0
 51
0.0
  0
LINE
  5
254
330
23B
100
AcDbEntity
  8
Sketch Geometry(Ram)
370
    18
100
AcDbLine
 10
-4.499999999999992
 20
-8.499999999999996
 30
0.0
 11
-5.999999999999996
 21
-8.500000000000012
 31
0.0
  0
ARC
  5
255
330
23B
100
AcDbEntity
  8
Sketch Geometry(Ram)
370
    18
100
AcDbCircle
 10
-5.999999999999996
 20
-7.999999999999988
 30
0.0
 40
0.5
100
AcDbArc
 50
180.0
 51
270.0
  0
LINE
  5
256
330
23B
100
AcDbEntity
  8
Sketch Geometry(Ram)
370
    18
100
AcDbLine
 10
-2.5
 20
-0.4999999999999895
 30
0.0
 11
-0.9999999999999964
 21
-0.4999999999999895
 31
0.0
  0
ARC
  5
257
330
23B
100
AcDbEntity
  8
Sketch Geometry(Ram)
370
    18
100
AcDbCircle
 10
-2.5
 20
-0.9999999999999785
 30
0.0
 40
0.5
100
AcDbArc
 50
90.0
 51
180.0
  0
LINE
  5
258
330
23B
100
AcDbEntity
  8
Sketch Geometry(Ram)
370
    18
100
AcDbLine
 10
-2.999999999999988
 20
-7.999999999999988
 30
0.0
 11
-2.999999999999998
 21
-0.9999999999999785
 31
0.0
  0
LINE
  5
259
330
23B
100
AcDbEntity
  8
Sketch Geometry(Ram)
370
    18
100
AcDbLine
 10
-0.5000000000000071
 20
-0.9999999999999964
 30
0.0
 11
-0.5000000000000071
 21
-7.999999999999988
 31
0.0
  0
ARC
  5
25A
330
23B
100
AcDbEntity
  8
Sketch Geometry(Ram)
370
    18
100
AcDbCircle
 10
-0.9999999999999964
 20
-0.9999999999999964
 30
0.0
 40
0.5
100
AcDbArc
 50
0.0
 51
90.0
  0
ARC
  5
25B
330
23B
100
AcDbEntity
  8
Sketch Geometry(Ram)
370
    18
100
AcDbCircle
 10
-0.9999999999999964
 20
-7.999999999999988
 30
0.0
 40
0.5
100
AcDbArc
 50
270.0
 51
0.0
  0
LINE
  5
25C
330
23B
100
AcDbEntity
  8
Sketch Geometry(Ram)
370
    18
100
AcDbLine
 10
-0.9999999999999964
 20
-8.499999999999996
 30
0.0
 11
-2.5
 21
-8.500000000000012
 31
0.0
  0
ARC
  5
25D
330
23B
100
AcDbEntity
  8
Sketch Geometry(Ram)
370
    18
100
AcDbCircle
 10
-2.5
 20
-7.999999999999988
 30
0.0
 40
0.5
100
AcDbArc
 50
180.0
 51
270.0
  0
LINE
  5
25E
330
23B
100
AcDbEntity
  8
Sketch Geometry(Ram)
370
    18
100
AcDbLine
 10
0.9999999999999964
 20
8.500000000000012
 30
0.0
 11
2.5
 21
8.500000000000012
 31
0.0
  0
ARC
  5
25F
330
23B
100
AcDbEntity
  8
Sketch Geometry(Ram)
370
    18
100
AcDbCircle
 10
0.9999999999999964
 20
8.000000000000023
 30
0.0
 40
0.5
100
AcDbArc
 50
90.0
 51
180.0
  0
LINE
  5
260
330
23B
100
AcDbEntity
  8
Sketch Geometry(Ram)
370
    18
100
AcDbLine
 10
0.5000000000000071
 20
1.000000000000013
 30
0.0
 11
0.4999999999999984
 21
8.000000000000023
 31
0.0
  0
LINE
  5
261
330
23B
100
AcDbEntity
  8
Sketch Geometry(Ram)
370
    18
100
AcDbLine
 10
2.999999999999988
 20
8.000000000000008
 30
0.0
 11
2.999999999999988
 21
1.000000000000013
 31
0.0
  0
ARC
  5
262
330
23B
100
AcDbEntity
  8
Sketch Geometry(Ram)
370
    18
100
AcDbCircle
 10
2.5
 20
8.000000000000008
 30
0.0
 40
0.5
100
AcDbArc
 50
0.0
 51
90.0
  0
ARC
  5
263
330
23B
100
AcDbEntity
  8
Sketch Geometry(Ram)
370
    18
100
AcDbCircle
 10
2.5
 20
1.000000000000013
 30
0.0
 40
0.5
100
AcDbArc
 50
270.0
 51
0.0
  0
LINE
  5
264
330
23B
100
AcDbEntity
  8
Sketch Geometry(Ram)
370
    18
100
AcDbLine
 10
2.5
 20
0.5000000000000071
 30
0.0
 11
0.9999999999999964
 21
0.4999999999999895
 31
0.0
  0
ARC
  5
265
330
23B
100
AcDbEntity
  8
Sketch Geometry(Ram)
370
    18
100
AcDbCircle
 10
0.9999999999999964
 20
1.000000000000013
 30
0.0
 40
0.5
100
AcDbArc
 50
180.0
 51
270.0
  0
LINE
  5
266
330
23B
100
AcDbEntity
  8
Sketch Geometry(Ram)
370
    18
100
AcDbLine
 10
0.9999999999999964
 20
-0.4999999999999895
 30
0.0
 11
2.5
 21
-0.4999999999999895
 31
0.0
  0
ARC
  5
267
330
23B
100
AcDbEntity
  8
Sketch Geometry(Ram)
370
    18
100
AcDbCircle
 10
0.9999999999999964
 20
-0.9999999999999785
 30
0.0
 40
0.5
100
AcDbArc
 50
90.0
 51
180.0
  0
LINE
  5
268
330
23B
100
AcDbEntity
  8
Sketch Geometry(Ram)
370
    18
100
AcDbLine
 10
0.5000000000000071
 20
-7.999999999999988
 30
0.0
 11
0.4999999999999984
 21
-0.9999999999999785
 31
0.0
  0
LINE
  5
269
330
23B
100
AcDbEntity
  8
Sketch Geometry(Ram)
370
    18
100
AcDbLine
 10
2.999999999999988
 20
-0.9999999999999964
 30
0.0
 11
2.999999999999988
 21
-7.999999999999988
 31
0.0
  0
ARC
  5
26A
330
23B
100
AcDbEntity
  8
Sketch Geometry(Ram)
370
    18
100
AcDbCircle
 10
2.5
 20
-0.9999999999999964
 30
0.0
 40
0.5
100
AcDbArc
 50
0.0
 51
90.0
  0
ARC
  5
26B
330
23B
100
AcDbEntity
  8
Sketch Geometry(Ram)
370
    18
100
AcDbCircle
 10
2.5
 20
-7.999999999999988
 30
0.0
 40
0.5
100
AcDbArc
 50
270.0
 51
0.0
  0
LINE
  5
26C
330
23B
100
AcDbEntity
  8
Sketch Geometry(Ram)
370
    18
100
AcDbLine
 10
2.5
 20
-8.499999999999996
 30
0.0
 11
0.9999999999999964
 21
-8.500000000000012
 31
0.0
  0
ARC
  5
26D
330
23B
100
AcDbEntity
  8
Sketch Geometry(Ram)
370
    18
100
AcDbCircle
 10
0.9999999999999964
 20
-7.999999999999988
 30
0.0
 40
0.5
100
AcDbArc
 50
180.0
 51
270.0
  0
LINE
  5
26E
330
23B
100
AcDbEntity
  8
Sketch Geometry(Ram)
370
    18
100
AcDbLine
 10
4.499999999999992
 20
8.500000000000012
 30
0.0
 11
5.999999999999996
 21
8.500000000000012
 31
0.0
  0
ARC
  5
26F
330
23B
100
AcDbEntity
  8
Sketch Geometry(Ram)
370
    18
100
AcDbCircle
 10
4.499999999999992
 20
8.000000000000023
 30
0.0
 40
0.5
100
AcDbArc
 50
90.0
 51
180.0
  0
LINE
  5
270
330
23B
100
AcDbEntity
  8
Sketch Geometry(Ram)
370
    18
100
AcDbLine
 10
4.000000000000002
 20
1.000000000000013
 30
0.0
 11
3.999999999999993
 21
8.000000000000023
 31
0.0
  0
LINE
  5
271
330
23B
100
AcDbEntity
  8
Sketch Geometry(Ram)
370
    18
100
AcDbLine
 10
6.499999999999985
 20
8.000000000000008
 30
0.0
 11
6.499999999999985
 21
1.000000000000013
 31
0.0
  0
ARC
  5
272
330
23B
100
AcDbEntity
  8
Sketch Geometry(Ram)
370
    18
100
AcDbCircle
 10
5.999999999999996
 20
8.000000000000008
 30
0.0
 40
0.5
100
AcDbArc
 50
0.0
 51
90.0
  0
ARC
  5
273
330
23B
100
AcDbEntity
  8
Sketch Geometry(Ram)
370
    18
100
AcDbCircle
 10
5.999999999999996
 20
1.000000000000013
 30
0.0
 40
0.5
100
AcDbArc
 50
270.0
 51
0.0
  0
LINE
  5
274
330
23B
100
AcDbEntity
  8
Sketch Geometry(Ram)
370
    18
100
AcDbLine
 10
5.999999999999996
 20
0.5000000000000071
 30
0.0
 11
4.499999999999992
 21
0.4999999999999895
 31
0.0
  0
ARC
  5
275
330
23B
100
AcDbEntity
  8
Sketch Geometry(Ram)
370
    18
100
AcDbCircle
 10
4.499999999999992
 20
1.000000000000013
 30
0.0
 40
0.5
100
AcDbArc
 50
180.0
 51
270.0
  0
LINE
  5
276
330
23B
100
AcDbEntity
  8
Sketch Geometry(Ram)
370
    18
100
AcDbLine
 10
4.499999999999992
 20
-0.4999999999999895
 30
0.0
 11
5.999999999999996
 21
-0.4999999999999895
 31
0.0
  0
ARC
  5
277
330
23B
100
AcDbEntity
  8
Sketch Geometry(Ram)
370
    18
100
AcDbCircle
 10
4.499999999999992
 20
-0.9999999999999785
 30
0.0
 40
0.5
100
AcDbArc
 50
90.0
 51
180.0
  0
LINE
  5
278
330
23B
100
AcDbEntity
  8
Sketch Geometry(Ram)
370
    18
100
AcDbLine
 10
4.000000000000002
 20
-7.999999999999988
 30
0.0
 11
3.999999999999993
 21
-0.9999999999999785
 31
0.0
  0
LINE
  5
279
330
23B
100
AcDbEntity
  8
Sketch Geometry(Ram)
370
    18
100
AcDbLine
 10
6.499999999999985
 20
-0.9999999999999964
 30
0.0
 11
6.499999999999985
 21
-7.999999999999988
 31
0.0
  0
ARC
  5
27A
330
23B
100
AcDbEntity
  8
Sketch Geometry(Ram)
370
    18
100
AcDbCircle
 10
5.999999999999996
 20
-0.9999999999999964
 30
0.0
 40
0.5
100
AcDbArc
 50
0.0
 51
90.0
  0
ARC
  5
27B
330
23B
100
AcDbEntity
  8
Sketch Geometry(Ram)
370
    18
100
AcDbCircle
 10
5.999999999999996
 20
-7.999999999999988
 30
0.0
 40
0.5
100
AcDbArc
 50
270.0
 51
0.0
  0
LINE
  5
27C
330
23B
100
AcDbEntity
  8
Sketch Geometry(Ram)
370
    18
100
AcDbLine
 10
5.999999999999996
 20
-8.499999999999996
 30
0.0
 11
4.499999999999992
 21
-8.500000000000012
 31
0.0
  0
ARC
  5
27D
330
23B
100
AcDbEntity
  8
Sketch Geometry(Ram)
370
    18
100
AcDbCircle
 10
4.499999999999992
 20
-7.999999999999988
 30
0.0
 40
0.5
100
AcDbArc
 50
180.0
 51
270.0
  0
MTEXT
  5
27E
330
23B
100
AcDbEntity
  8
Symbols(Ram)
 62
     7
100
AcDbMText
 10
-2.622583667679929
 20
3.966036591120508
 30
0.0
 40
6.99999988079071
 41
0.0
 46
0.0
 71
     1
 72
     1
  1
\fArial|b1|i0;\H7.0000;8
  7
STD 2.5 ARIAL
 73
     1
 44
1.0
1001
ACAD
1000
MTEXTBEGIN
1070
    73
1070
     1
1070
    44
1040
1.0
1070
    74
1070
     0
1000
MTEXTEND
  0
MTEXT
  5
27F
330
23B
100
AcDbEntity
  8
Symbols(Ram)
 62
     7
100
AcDbMText
 10
-0.383652901660243
 20
-10.53909050618999
 30
0.0
 40
1.49859994649887
 41
12.69037379631852
 46
0.0
 71
     2
 72
     1
  1
\fArial|b0|i0;\H1.4986;SKIN PACK 290 x 100mm
  7
STD 2.5 ARIAL
 73
     2
 44
0.9442214369773862
1001
ACAD
1000
MTEXTBEGIN
1070
    73
1070
     2
1070
    44
1040
0.9442214369773862
1070
    74
1070
     0
1000
MTEXTEND
  0
ENDBLK
  5
23D
330
23B
100
AcDbEntity
  8
0
100
AcDbBlockEnd
  0
BLOCK
  5
281
330
280
100
AcDbEntity
  8
0
100
AcDbBlockBegin
  2
APPROVED STAMP
 70
     0
 10
0.0
 20
0.0
 30
0.0
  3
APPROVED STAMP
  1

  0
LINE
  5
283
330
280
100
AcDbEntity
  8
Sketch Geometry(Ram)
 62
   136
100
AcDbLine
 10
-35.54560624499878
 20
15.6783200154738
 30
0.0
 11
-35.54560624499878
 21
-15.67832001547382
 31
0.0
  0
LINE
  5
284
330
280
100
AcDbEntity
  8
Sketch Geometry(Ram)
 62
   136
100
AcDbLine
 10
-35.54560624499878
 20
-15.67832001547382
 30
0.0
 11
35.54560624499877
 21
-15.6783200154738
 31
0.0
  0
LINE
  5
285
330
280
100
AcDbEntity
  8
Sketch Geometry(Ram)
 62
   136
100
AcDbLine
 10
35.54560624499877
 20
-15.6783200154738
 30
0.0
 11
35.54560624499877
 21
15.67832001547382
 31
0.0
  0
LINE
  5
286
330
280
100
AcDbEntity
  8
Sketch Geometry(Ram)
 62
   136
100
AcDbLine
 10
35.54560624499877
 20
15.67832001547382
 30
0.0
 11
-35.54560624499878
 21
15.6783200154738
 31
0.0
  0
MTEXT
  5
287
330
280
100
AcDbEntity
  8
Symbols(Ram)
 62
   116
100
AcDbMText
 10
-13.49989445979156
 20
14.13192209042362
 30
0.0
 40
3.499999940395355
 41
27.45045900344849
 46
0.0
 71
     1
 72
     1
  1
\fArial|b1|i0;\H3.5000;APPROVED
  7
STD 2.5 ARIAL
 73
     1
 44
1.0
1001
ACAD
1000
MTEXTBEGIN
1070
    73
1070
     1
1070
    44
1040
1.0
1070
    74
1070
     0
1000
MTEXTEND
  0
MTEXT
  5
288
330
280
100
AcDbEntity
  8
Symbols(Ram)
 62
     7
100
AcDbMText
 10
-34.3463054353912
 20
4.981424486020865
 30
0.0
 40
2.5
 41
60.84163436697946
 46
0.0
 71
     1
 72
     1
  1
NAME: ...........................................\PSIGNATURE: ..................................\PDATE:  ......../...../........
  7
STD 2.5 ARIAL
 73
     2
 44
1.727335691452025
1001
ACAD
1000
MTEXTBEGIN
1070
    73
1070
     2
1070
    44
1040
1.727335691452025
1070
    74
1070
     0
1000
MTEXTEND
  0
ENDBLK
  5
282
330
280
100
AcDbEntity
  8
0
100
AcDbBlockEnd
  0
BLOCK
  5
28A
330
289
100
AcDbEntity
  8
0
100
AcDbBlockBegin
  2
AVAIL WELS 3 STAR
 70
     0
 10
0.0
 20
0.0
 30
0.0
  3
AVAIL WELS 3 STAR
  1

  0
MTEXT
  5
28C
330
289
100
AcDbEntity
  8
Symbols(Ram)
 62
     7
100
AcDbMText
 10
-12.80678272247314
 20
7.172344643622636
 30
0.0
 40
2.5
 41
0.0
 46
0.0
 71
     1
 72
     1
  1
\fArial|b1|i0;\H2.5000;AVAILABLE\PWELS RATING:\P \P\fArial|b0|i0;\H2.5000;3 STAR - 9 LPM
  7
STD 2.5 ARIAL
 73
     2
 44
0.9442214965820312
1001
ACAD
1000
MTEXTBEGIN
1070
    73
1070
     2
1070
    44
1040
0.9442214965820312
1070
    74
1070
     0
1000
MTEXTEND
  0
ENDBLK
  5
28B
330
289
100
AcDbEntity
  8
0
100
AcDbBlockEnd
  0
BLOCK
  5
28E
330
28D
100
AcDbEntity
  8
0
100
AcDbBlockBegin
  2
AVAIL WELS 4 STAR
 70
     0
 10
0.0
 20
0.0
 30
0.0
  3
AVAIL WELS 4 STAR
  1

  0
MTEXT
  5
290
330
28D
100
AcDbEntity
  8
Symbols(Ram)
 62
     7
100
AcDbMText
 10
-14.16825413703918
 20
7.172344643622636
 30
0.0
 40
2.5
 41
0.0
 46
0.0
 71
     1
 72
     1
  1
\fArial|b1|i0;\H2.5000;AVAILABLE\PWELS RATING:\P \P\fArial|b0|i0;\H2.5000;4 STAR - 7.5 LPM
  7
STD 2.5 ARIAL
 73
     2
 44
0.9442214965820312
1001
ACAD
1000
MTEXTBEGIN
1070
    73
1070
     2
1070
    44
1040
0.9442214965820312
1070
    74
1070
     0
1000
MTEXTEND
  0
ENDBLK
  5
28F
330
28D
100
AcDbEntity
  8
0
100
AcDbBlockEnd
  0
BLOCK
  5
292
330
291
100
AcDbEntity
  8
0
100
AcDbBlockBegin
  2
AVAIL WELS 5 & 6 STAR
 70
     0
 10
0.0
 20
0.0
 30
0.0
  3
AVAIL WELS 5 & 6 STAR
  1

  0
MTEXT
  5
294
330
291
100
AcDbEntity
  8
Symbols(Ram)
 62
     7
100
AcDbMText
 10
-12.80678272247314
 20
9.139472711831333
 30
0.0
 40
2.5
 41
0.0
 46
0.0
 71
     1
 72
     1
  1
\fArial|b1|i0;\H2.5000;AVAILABLE\PWELS RATING:\P \fArial|b0|i0;\H2.5000;\P5 STAR - 6 LPM\P6 STAR - 4 LPM
  7
STD 2.5 ARIAL
 73
     2
 44
0.9442214965820312
1001
ACAD
1000
MTEXTBEGIN
1070
    73
1070
     2
1070
    44
1040
0.9442214965820312
1070
    74
1070
     0
1000
MTEXTEND
  0
ENDBLK
  5
293
330
291
100
AcDbEntity
  8
0
100
AcDbBlockEnd
  0
BLOCK
  5
296
330
295
100
AcDbEntity
  8
0
100
AcDbBlockBegin
  2
AVAIL WELS RATING
 70
     0
 10
0.0
 20
0.0
 30
0.0
  3
AVAIL WELS RATING
  1

  0
MTEXT
  5
298
330
295
100
AcDbEntity
  8
Symbols(Ram)
 62
     7
100
AcDbMText
 10
-12.80678272247312
 20
11.10660078004002
 30
0.0
 40
2.5
 41
25.61356544494629
 46
0.0
 71
     1
 72
     1
  1
\fArial|b1|i0;\H2.5000;AVAILABLE\PWELS RATING:\P \P\fArial|b0|i0;\H2.5000;3 STAR - 9 LPM\P5 STAR - 6 LPM\P6 STAR - 4 LPM
  7
STD 2.5 ARIAL
 73
     2
 44
0.9442214965820312
1001
ACAD
1000
MTEXTBEGIN
1070
    73
1070
     2
1070
    44
1040
0.9442214965820312
1070
    74
1070
     0
1000
MTEXTEND
  0
ENDBLK
  5
297
330
295
100
AcDbEntity
  8
0
100
AcDbBlockEnd
  0
BLOCK
  5
29A
330
299
100
AcDbEntity
  8
0
100
AcDbBlockBegin
  2
AVAIL WELS WITH 4 STAR
 70
     0
 10
0.0
 20
0.0
 30
0.0
  3
AVAIL WELS WITH 4 STAR
  1

  0
MTEXT
  5
29C
330
299
100
AcDbEntity
  8
Symbols(Ram)
 62
     7
100
AcDbMText
 10
-14.16825413703918
 20
13.07372884824872
 30
0.0
 40
2.5
 41
0.0
 46
0.0
 71
     1
 72
     1
  1
\fArial|b1|i0;\H2.5000;AVAILABLE\PWELS RATING:\P \P\fArial|b0|i0;\H2.5000;3 STAR - 9 LPM\P4 STAR - 7.5 LPM\P5 STAR - 6 LPM\P6 STAR - 4 LPM
  7
STD 2.5 ARIAL
 73
     2
 44
0.9442214965820312
1001
ACAD
1000
MTEXTBEGIN
1070
    73
1070
     2
1070
    44
1040
0.9442214965820312
1070
    74
1070
     0
1000
MTEXTEND
  0
ENDBLK
  5
29B
330
299
100
AcDbEntity
  8
0
100
AcDbBlockEnd
  0
BLOCK
  5
29E
330
29D
100
AcDbEntity
  8
0
100
AcDbBlockBegin
  2
AVAILABLE WELS 4_5_6
 70
     0
 10
0.0
 20
0.0
 30
0.0
  3
AVAILABLE WELS 4_5_6
  1

  0
MTEXT
  5
2A0
330
29D
100
AcDbEntity
  8
Symbols(Ram)
 62
     7
100
AcDbMText
 10
-14.16825413703918
 20
11.10660078004002
 30
0.0
 40
2.5
 41
0.0
 46
0.0
 71
     1
 72
     1
  1
\fArial|b1|i0;\H2.5000;AVAILABLE\PWELS RATING:\P \P\fArial|b0|i0;\H2.5000;4 STAR - 7.5 LPM\P5 STAR - 6 LPM\P6 STAR - 4 LPM
  7
STD 2.5 ARIAL
 73
     2
 44
0.9442214965820312
1001
ACAD
1000
MTEXTBEGIN
1070
    73
1070
     2
1070
    44
1040
0.9442214965820312
1070
    74
1070
     0
1000
MTEXTEND
  0
ENDBLK
  5
29F
330
29D
100
AcDbEntity
  8
0
100
AcDbBlockEnd
  0
BLOCK
  5
2A2
330
2A1
100
AcDbEntity
  8
0
100
AcDbBlockBegin
  2
CENTRE STICKER
 70
     0
 10
0.0
 20
0.0
 30
0.0
  3
CENTRE STICKER
  1

  0
LINE
  5
2A4
330
2A1
100
AcDbEntity
  8
Sketch Geometry(Ram)
100
AcDbLine
 10
0.0
 20
0.0
 30
0.0
 11
2.999999999999998
 21
0.0
 31
0.0
  0
MTEXT
  5
2A5
330
2A1
100
AcDbEntity
  8
Symbols(Ram)
 62
     7
100
AcDbMText
 10
17.0
 20
1.124056048754846
 30
0.0
 40
2.5
 41
0.0
 46
0.0
 71
     2
 72
     1
  1
APPLY CENTRE\PSTICKER\P(STK10)
  7
STD 2.5 ARIAL
 73
     2
 44
0.9442214965820312
1001
ACAD
1000
MTEXTBEGIN
1070
    73
1070
     2
1070
    44
1040
0.9442214965820312
1070
    74
1070
     0
1000
MTEXTEND
  0
ENDBLK
  5
2A3
330
2A1
100
AcDbEntity
  8
0
100
AcDbBlockEnd
  0
BLOCK
  5
2A7
330
2A6
100
AcDbEntity
  8
0
100
AcDbBlockBegin
  2
GREASE
 70
     0
 10
0.0
 20
0.0
 30
0.0
  3
GREASE
  1

  0
LINE
  5
2A9
330
2A6
100
AcDbEntity
  8
Sketch Geometry(Ram)
100
AcDbLine
 10
0.0
 20
0.0
 30
0.0
 11
-3.000000000000006
 21
0.0
 31
0.0
  0
MTEXT
  5
2AA
330
2A6
100
AcDbEntity
  8
Symbols(Ram)
 62
     7
100
AcDbMText
 10
-19.0
 20
1.165139314759784
 30
0.0
 40
2.5
 41
0.0
 46
0.0
 71
     1
 72
     1
  1
GREASE
  7
STD 2.5 ARIAL
 73
     1
 44
1.0
1001
ACAD
1000
MTEXTBEGIN
1070
    73
1070
     1
1070
    44
1040
1.0
1070
    74
1070
     0
1000
MTEXTEND
  0
ENDBLK
  5
2A8
330
2A6
100
AcDbEntity
  8
0
100
AcDbBlockEnd
  0
BLOCK
  5
2AC
330
2AB
100
AcDbEntity
  8
0
100
AcDbBlockBegin
  2
J_VALVE
 70
     0
 10
0.0
 20
0.0
 30
0.0
  3
J_VALVE
  1

  0
MTEXT
  5
2AE
330
2AB
100
AcDbEntity
  8
Symbols(Ram)
 62
     7
100
AcDbMText
 10
-19.40834522247314
 20
23.09343125671148
 30
0.0
 40
2.5
 41
0.0
 46
0.0
 71
     1
 72
     1
  3
Headworks Available:\PJumper Valve (Standard)\P \PMax Pressure: 1000kpa\PMin Pressure: 150kpa\PMax Temp: 80\fAIGDT|b0|i0;\H2.5000;~\fArial|b0|i0;\H2.5000;c\P \PMounting Holes:\P- Taps - Min \fAIGDT|b0|i0;\H2.5000;n\fArial|b0|i0;\H2.5000;32mm\P- Spout
  1
 - Min \fAIGDT|b0|i0;\H2.5000;n\fArial|b0|i0;\H2.5000;21mm
  7
STD 2.5 ARIAL
 73
     2
 44
1.146487116813659
1001
ACAD
1000
MTEXTBEGIN
1070
    73
1070
     2
1070
    44
1040
1.146487116813659
1070
    74
1070
     0
1000
MTEXTEND
  0
ENDBLK
  5
2AD
330
2AB
100
AcDbEntity
  8
0
100
AcDbBlockEnd
  0
BLOCK
  5
2B0
330
2AF
100
AcDbEntity
  8
0
100
AcDbBlockBegin
  2
J_VALVE 3_4 TURN SECURE FIT NO HOLE DETAIL
 70
     0
 10
0.0
 20
0.0
 30
0.0
  3
J_VALVE 3_4 TURN SECURE FIT NO HOLE DETAIL
  1

  0
MTEXT
  5
2B2
330
2AF
100
AcDbEntity
  8
Symbols(Ram)
 62
     7
100
AcDbMText
 10
-35.61356604099275
 20
18.25526814907789
 30
0.0
 40
2.5
 41
0.0
 46
0.0
 71
     1
 72
     1
  3
Headworks Available:\PJumper Valve (Standard)\PCeramic Disc 3/4 Turn (Optional)\P \PHandles are \fArial|b0|i1;\H2.5000;Secure Fit\fArial|b0|i0;\H2.5000; - Fit with key supplied.\P \PMax Pressure: 1000kpa\PMin Pressure: 150kpa\PMax Temp: 80\fAIGDT|b0|
  1
i0;\H2.5000;~\fArial|b0|i0;\H2.5000;c
  7
STD 2.5 ARIAL
 73
     2
 44
0.999508261680603
1001
ACAD
1000
MTEXTBEGIN
1070
    73
1070
     2
1070
    44
1040
0.999508261680603
1070
    74
1070
     0
1000
MTEXTEND
  0
ENDBLK
  5
2B1
330
2AF
100
AcDbEntity
  8
0
100
AcDbBlockEnd
  0
BLOCK
  5
2B4
330
2B3
100
AcDbEntity
  8
0
100
AcDbBlockBegin
  2
J_VALVE 3_4 TURN SECURE FIT SPOUT ONLY
 70
     0
 10
0.0
 20
0.0
 30
0.0
  3
J_VALVE 3_4 TURN SECURE FIT SPOUT ONLY
  1

  0
MTEXT
  5
2B6
330
2B3
100
AcDbEntity
  8
Symbols(Ram)
 62
     7
100
AcDbMText
 10
-35.61356604099275
 20
25.59216987341642
 30
0.0
 40
2.5
 41
0.0
 46
0.0
 71
     1
 72
     1
  3
Headworks Available:\PJumper Valve (Standard)\PCeramic Disc 3/4 Turn (Optional)\P \PHandles are \fArial|b0|i1;\H2.5000;Secure Fit\fArial|b0|i0;\H2.5000; - Fit with key supplied.\P \PMax Pressure: 1000kpa\PMin Pressure: 150kpa\PMax Temp: 80\fAIGDT|b0|
  1
i0;\H2.5000;~\fArial|b0|i0;\H2.5000;c\P \PMounting Holes:\P- Spout - Min \fAIGDT|b0|i0;\H2.5000;n\fArial|b0|i0;\H2.5000;21mm
  7
STD 2.5 ARIAL
 73
     2
 44
1.047070741653442
1001
ACAD
1000
MTEXTBEGIN
1070
    73
1070
     2
1070
    44
1040
1.047070741653442
1070
    74
1070
     0
1000
MTEXTEND
  0
ENDBLK
  5
2B5
330
2B3
100
AcDbEntity
  8
0
100
AcDbBlockEnd
  0
BLOCK
  5
2B8
330
2B7
100
AcDbEntity
  8
0
100
AcDbBlockBegin
  2
J_VALVE 3_4 TURN SECURE FIT TAP ONLY
 70
     0
 10
0.0
 20
0.0
 30
0.0
  3
J_VALVE 3_4 TURN SECURE FIT TAP ONLY
  1

  0
MTEXT
  5
2BA
330
2B7
100
AcDbEntity
  8
Symbols(Ram)
 62
     7
100
AcDbMText
 10
-35.61356604099275
 20
25.59216987341642
 30
0.0
 40
2.5
 41
0.0
 46
0.0
 71
     1
 72
     1
  3
Headworks Available:\PJumper Valve (Standard)\PCeramic Disc 3/4 Turn (Optional)\P \PHandles are \fArial|b0|i1;\H2.5000;Secure Fit\fArial|b0|i0;\H2.5000; - Fit with key supplied.\P \PMax Pressure: 1000kpa\PMin Pressure: 150kpa\PMax Temp: 80\fAIGDT|b0|
  1
i0;\H2.5000;~\fArial|b0|i0;\H2.5000;c\P \PMounting Holes:\P- Taps - Min \fAIGDT|b0|i0;\H2.5000;n\fArial|b0|i0;\H2.5000;32mm
  7
STD 2.5 ARIAL
 73
     2
 44
1.047070741653442
1001
ACAD
1000
MTEXTBEGIN
1070
    73
1070
     2
1070
    44
1040
1.047070741653442
1070
    74
1070
     0
1000
MTEXTEND
  0
ENDBLK
  5
2B9
330
2B7
100
AcDbEntity
  8
0
100
AcDbBlockEnd
  0
BLOCK
  5
2BC
330
2BB
100
AcDbEntity
  8
0
100
AcDbBlockBegin
  2
J_VALVE 3_4 TURN SPOUT ONLY
 70
     0
 10
0.0
 20
0.0
 30
0.0
  3
J_VALVE 3_4 TURN SPOUT ONLY
  1

  0
MTEXT
  5
2BE
330
2BB
100
AcDbEntity
  8
Symbols(Ram)
 62
     7
100
AcDbMText
 10
-25.51829099655151
 20
21.65791373699903
 30
0.0
 40
2.5
 41
0.0
 46
0.0
 71
     1
 72
     1
  3
Headworks Available:\PJumper Valve (Standard)\PCeramic Disc 3/4 Turn (Optional)\P \PMax Pressure: 1000kpa\PMin Pressure: 150kpa\PMax Temp: 80\fAIGDT|b0|i0;\H2.5000;~\fArial|b0|i0;\H2.5000;c\P \PMounting Holes:\P- Spout - Min \fAIGDT|b0|i0;\H2.5000;n\
  1
fArial|b0|i0;\H2.5000;21mm
  7
STD 2.5 ARIAL
 73
     2
 44
1.069926142692564
1001
ACAD
1000
MTEXTBEGIN
1070
    73
1070
     2
1070
    44
1040
1.069926142692564
1070
    74
1070
     0
1000
MTEXTEND
  0
ENDBLK
  5
2BD
330
2BB
100
AcDbEntity
  8
0
100
AcDbBlockEnd
  0
BLOCK
  5
2C0
330
2BF
100
AcDbEntity
  8
0
100
AcDbBlockBegin
  2
J_VALVE 3_4 TURN TAP ONLY
 70
     0
 10
0.0
 20
0.0
 30
0.0
  3
J_VALVE 3_4 TURN TAP ONLY
  1

  0
MTEXT
  5
2C2
330
2BF
100
AcDbEntity
  8
Symbols(Ram)
 62
     7
100
AcDbMText
 10
-25.51829099655151
 20
21.65791373699903
 30
0.0
 40
2.5
 41
0.0
 46
0.0
 71
     1
 72
     1
  3
Headworks Available:\PJumper Valve (Standard)\PCeramic Disc 3/4 Turn (Optional)\P \PMax Pressure: 1000kpa\PMin Pressure: 150kpa\PMax Temp: 80\fAIGDT|b0|i0;\H2.5000;~\fArial|b0|i0;\H2.5000;c\P \PMounting Holes:\P- Taps - Min \fAIGDT|b0|i0;\H2.5000;n\f
  1
Arial|b0|i0;\H2.5000;32mm
  7
STD 2.5 ARIAL
 73
     2
 44
1.069926142692564
1001
ACAD
1000
MTEXTBEGIN
1070
    73
1070
     2
1070
    44
1040
1.069926142692564
1070
    74
1070
     0
1000
MTEXTEND
  0
ENDBLK
  5
2C1
330
2BF
100
AcDbEntity
  8
0
100
AcDbBlockEnd
  0
BLOCK
  5
2C4
330
2C3
100
AcDbEntity
  8
0
100
AcDbBlockBegin
  2
J_VALVE NO HOLE DETAIL
 70
     0
 10
0.0
 20
0.0
 30
0.0
  3
J_VALVE NO HOLE DETAIL
  1

  0
MTEXT
  5
2C6
330
2C3
100
AcDbEntity
  8
Symbols(Ram)
 62
     7
100
AcDbMText
 10
-19.40834522247314
 20
12.35388394445181
 30
0.0
 40
2.5
 41
0.0
 46
0.0
 71
     1
 72
     1
  1
Headworks Available:\PJumper Valve (Standard)\P \PMax Pressure: 1000kpa\PMin Pressure: 150kpa\PMax Temp: 80\fAIGDT|b0|i0;\H2.5000;~\fArial|b0|i0;\H2.5000;c
  7
STD 2.5 ARIAL
 73
     2
 44
1.03268015384674
1001
ACAD
1000
MTEXTBEGIN
1070
    73
1070
     2
1070
    44
1040
1.03268015384674
1070
    74
1070
     0
1000
MTEXTEND
  0
ENDBLK
  5
2C5
330
2C3
100
AcDbEntity
  8
0
100
AcDbBlockEnd
  0
BLOCK
  5
2C8
330
2C7
100
AcDbEntity
  8
0
100
AcDbBlockBegin
  2
J_VALVE SPOUT ONLY
 70
     0
 10
0.0
 20
0.0
 30
0.0
  3
J_VALVE SPOUT ONLY
  1

  0
MTEXT
  5
2CA
330
2C7
100
AcDbEntity
  8
Symbols(Ram)
 62
     7
100
AcDbMText
 10
-19.40834522247314
 20
19.69078566879034
 30
0.0
 40
2.5
 41
0.0
 46
0.0
 71
     1
 72
     1
  1
Headworks Available:\PJumper Valve (Standard)\P \PMax Pressure: 1000kpa\PMin Pressure: 150kpa\PMax Temp: 80\fAIGDT|b0|i0;\H2.5000;~\fArial|b0|i0;\H2.5000;c\P \PMounting Holes:\P- Spout - Min \fAIGDT|b0|i0;\H2.5000;n\fArial|b0|i0;\H2.5000;21mm
  7
STD 2.5 ARIAL
 73
     2
 44
1.085639238357542
1001
ACAD
1000
MTEXTBEGIN
1070
    73
1070
     2
1070
    44
1040
1.085639238357542
1070
    74
1070
     0
1000
MTEXTEND
  0
ENDBLK
  5
2C9
330
2C7
100
AcDbEntity
  8
0
100
AcDbBlockEnd
  0
BLOCK
  5
2CC
330
2CB
100
AcDbEntity
  8
0
100
AcDbBlockBegin
  2
J_VALVE STD 3_4 TURN
 70
     0
 10
0.0
 20
0.0
 30
0.0
  3
J_VALVE STD 3_4 TURN
  1

  0
MTEXT
  5
2CE
330
2CB
100
AcDbEntity
  8
Symbols(Ram)
 62
     7
100
AcDbMText
 10
-25.51829099655151
 20
25.06055932492018
 30
0.0
 40
2.5
 41
0.0
 46
0.0
 71
     1
 72
     1
  3
Headworks Available:\PJumper Valve (Standard)\PCeramic Disc 3/4 Turn (Optional)\P \PMax Pressure: 1000kpa\PMin Pressure: 150kpa\PMax Temp: 80\fAIGDT|b0|i0;\H2.5000;~\fArial|b0|i0;\H2.5000;c\P \PMounting Holes:\P- Taps - Min \fAIGDT|b0|i0;\H2.5000;n\f
  1
Arial|b0|i0;\H2.5000;32mm\P- Spout - Min \fAIGDT|b0|i0;\H2.5000;n\fArial|b0|i0;\H2.5000;21mm
  7
STD 2.5 ARIAL
 73
     2
 44
1.126260519027708
1001
ACAD
1000
MTEXTBEGIN
1070
    73
1070
     2
1070
    44
1040
1.126260519027708
1070
    74
1070
     0
1000
MTEXTEND
  0
ENDBLK
  5
2CD
330
2CB
100
AcDbEntity
  8
0
100
AcDbBlockEnd
  0
BLOCK
  5
2D0
330
2CF
100
AcDbEntity
  8
0
100
AcDbBlockBegin
  2
J_VALVE STD 3_4 TURN NO HOLE DETAIL
 70
     0
 10
0.0
 20
0.0
 30
0.0
  3
J_VALVE STD 3_4 TURN NO HOLE DETAIL
  1

  0
MTEXT
  5
2D2
330
2CF
100
AcDbEntity
  8
Symbols(Ram)
 62
     7
100
AcDbMText
 10
-25.51829099655151
 20
14.3210120126605
 30
0.0
 40
2.5
 41
0.0
 46
0.0
 71
     1
 72
     1
  1
Headworks Available:\PJumper Valve (Standard)\PCeramic Disc 3/4 Turn (Optional)\P \PMax Pressure: 1000kpa\PMin Pressure: 150kpa\PMax Temp: 80\fAIGDT|b0|i0;\H2.5000;~\fArial|b0|i0;\H2.5000;c
  7
STD 2.5 ARIAL
 73
     2
 44
1.017937064170837
1001
ACAD
1000
MTEXTBEGIN
1070
    73
1070
     2
1070
    44
1040
1.017937064170837
1070
    74
1070
     0
1000
MTEXTEND
  0
ENDBLK
  5
2D1
330
2CF
100
AcDbEntity
  8
0
100
AcDbBlockEnd
  0
BLOCK
  5
2D4
330
2D3
100
AcDbEntity
  8
0
100
AcDbBlockBegin
  2
J_VALVE STD 3_4 TURN SECURE FIT
 70
     0
 10
0.0
 20
0.0
 30
0.0
  3
J_VALVE STD 3_4 TURN SECURE FIT
  1

  0
MTEXT
  5
2D6
330
2D3
100
AcDbEntity
  8
Symbols(Ram)
 62
     7
100
AcDbMText
 10
-35.61356604099275
 20
28.99481546133756
 30
0.0
 40
2.5
 41
0.0
 46
0.0
 71
     1
 72
     1
  3
Headworks Available:\PJumper Valve (Standard)\PCeramic Disc 3/4 Turn (Optional)\P \PHandles are \fArial|b0|i1;\H2.5000;Secure Fit\fArial|b0|i0;\H2.5000; - Fit with key supplied.\P \PMax Pressure: 1000kpa\PMin pressure: 150kpa\PMax Temp: 80\fAIGDT|b0|
  1
i0;\H2.5000;~\fArial|b0|i0;\H2.5000;c\P \PMounting Holes:\P- Taps - Min \fAIGDT|b0|i0;\H2.5000;n\fArial|b0|i0;\H2.5000;32mm\P- Spout - Min \fAIGDT|b0|i0;\H2.5000;n\fArial|b0|i0;\H2.5000;21mm
  7
STD 2.5 ARIAL
 73
     2
 44
1.095920681953429
1001
ACAD
1000
MTEXTBEGIN
1070
    73
1070
     2
1070
    44
1040
1.095920681953429
1070
    74
1070
     0
1000
MTEXTEND
  0
ENDBLK
  5
2D5
330
2D3
100
AcDbEntity
  8
0
100
AcDbBlockEnd
  0
BLOCK
  5
2D8
330
2D7
100
AcDbEntity
  8
0
100
AcDbBlockBegin
  2
J_VALVE STD 3_4 TURN SECURE FIT NO HOLE DETAIL
 70
     0
 10
0.0
 20
0.0
 30
0.0
  3
J_VALVE STD 3_4 TURN SECURE FIT NO HOLE DETAIL
  1

  0
MTEXT
  5
2DA
330
2D7
100
AcDbEntity
  8
Symbols(Ram)
 62
     7
100
AcDbMText
 10
-35.61356604099275
 20
18.25526814907789
 30
0.0
 40
2.5
 41
0.0
 46
0.0
 71
     1
 72
     1
  3
Headworks Available:\PJumper Valve (Standard)\PCeramic Disc 3/4 Turn (Optional)\P \PHandles are \fArial|b0|i1;\H2.5000;Secure Fit\fArial|b0|i0;\H2.5000; - Fit with key supplied.\P \PMax Pressure: 1000kpa\PMin pressure: 150kpa\PMax Temp: 80\fAIGDT|b0|
  1
i0;\H2.5000;~\fArial|b0|i0;\H2.5000;c
  7
STD 2.5 ARIAL
 73
     2
 44
0.999508261680603
1001
ACAD
1000
MTEXTBEGIN
1070
    73
1070
     2
1070
    44
1040
0.999508261680603
1070
    74
1070
     0
1000
MTEXTEND
  0
ENDBLK
  5
2D9
330
2D7
100
AcDbEntity
  8
0
100
AcDbBlockEnd
  0
BLOCK
  5
2DC
330
2DB
100
AcDbEntity
  8
0
100
AcDbBlockBegin
  2
J_VALVE TAP ONLY
 70
     0
 10
0.0
 20
0.0
 30
0.0
  3
J_VALVE TAP ONLY
  1

  0
MTEXT
  5
2DE
330
2DB
100
AcDbEntity
  8
Symbols(Ram)
 62
     7
100
AcDbMText
 10
-19.40834522247314
 20
19.69078566879034
 30
0.0
 40
2.5
 41
0.0
 46
0.0
 71
     1
 72
     1
  1
Headworks Available:\PJumper Valve (Standard)\P \PMax Pressure: 1000kpa\PMin Pressure: 150kpa\PMax Temp: 80\fAIGDT|b0|i0;\H2.5000;~\fArial|b0|i0;\H2.5000;c\P \PMounting Holes:\P- Taps - Min \fAIGDT|b0|i0;\H2.5000;n\fArial|b0|i0;\H2.5000;32mm
  7
STD 2.5 ARIAL
 73
     2
 44
1.085639238357542
1001
ACAD
1000
MTEXTBEGIN
1070
    73
1070
     2
1070
    44
1040
1.085639238357542
1070
    74
1070
     0
1000
MTEXTEND
  0
ENDBLK
  5
2DD
330
2DB
100
AcDbEntity
  8
0
100
AcDbBlockEnd
  0
BLOCK
  5
2E0
330
2DF
100
AcDbEntity
  8
0
100
AcDbBlockBegin
  2
Koh characteristic
 70
     2
 10
0.0
 20
0.0
 30
0.0
  3
Koh characteristic
  1

  0
LINE
  5
2E2
330
2DF
100
AcDbEntity
  8
Sketch Lines(Ram)
100
AcDbLine
 10
-2.798607274432844
 20
5.375062500920826
 30
0.0
 11
-2.798607274432844
 21
-5.375062500920826
 31
0.0
  0
LINE
  5
2E3
330
2DF
100
AcDbEntity
  8
Sketch Lines(Ram)
100
AcDbLine
 10
-2.798607274432844
 20
-5.375062500920826
 30
0.0
 11
2.798607274432836
 21
-5.375062500920826
 31
0.0
  0
LINE
  5
2E4
330
2DF
100
AcDbEntity
  8
Sketch Lines(Ram)
100
AcDbLine
 10
2.798607274432836
 20
-5.375062500920826
 30
0.0
 11
2.798607274432836
 21
5.375062500920826
 31
0.0
  0
LINE
  5
2E5
330
2DF
100
AcDbEntity
  8
Sketch Lines(Ram)
100
AcDbLine
 10
2.798607274432836
 20
5.375062500920826
 30
0.0
 11
-2.798607274432844
 21
5.375062500920826
 31
0.0
  0
LINE
  5
2E6
330
2DF
100
AcDbEntity
  8
Sketch Lines(Ram)
100
AcDbLine
 10
-2.798607274432844
 20
0.0
 30
0.0
 11
2.798607274432836
 21
0.0
 31
0.0
  0
ATTDEF
  5
2E8
102
{ACAD_XDICTIONARY
360
AD0
102
}
330
2DF
100
AcDbEntity
  8
Symbols(Ram)
 62
     7
100
AcDbText
 10
-0.8478202475273363
 20
1.573328946584412
 30
0.0
 40
2.489199936389923
  1
3
  7
Text Style14
100
AcDbAttributeDefinition
280
     0
  3
Enter Prompt for Field
  2
Enter_Prompt_for_Field_001
 70
     0
280
     0
  0
ENDBLK
  5
2E1
330
2DF
100
AcDbEntity
  8
0
100
AcDbBlockEnd
  0
BLOCK
  5
2EC
330
2EB
100
AcDbEntity
  8
0
100
AcDbBlockBegin
  2
NOTE 001
 70
     2
 10
0.0
 20
0.0
 30
0.0
  3
NOTE 001
  1

  0
MTEXT
  5
2EE
330
2EB
100
AcDbEntity
  8
Symbols(Ram)
 62
     7
100
AcDbMText
 10
-42.35590971613071
 20
16.96511149406433
 30
0.0
 40
2.5
 41
0.0
 46
0.0
 71
     1
 72
     1
  1
NOTE:\P \P1. INSTALLATION INSTRUCTIONS:\P2. APPLY WELS LABEL:\P3. CARTON:\P4. LABEL:\P5. MISC. PACKING:\P6. WARANTY CARD:\P 
  7
STD 2.5 ARIAL
 73
     2
 44
0.9442215561866758
1001
ACAD
1000
MTEXTBEGIN
1070
    73
1070
     2
1070
    44
1040
0.9442215561866758
1070
    74
1070
     0
1000
MTEXTEND
  0
ATTDEF
  5
2F0
102
{ACAD_XDICTIONARY
360
AD3
102
}
330
2EB
100
AcDbEntity
  8
Symbols(Ram)
 62
     7
100
AcDbText
 10
16.26863993311069
 20
6.719737660884844
 30
0.0
 40
2.489199936389923
  1
AAAA
  7
Text Style59
100
AcDbAttributeDefinition
280
     0
  3
INSTRUCTIONS
  2
INSTRUCTIONS_001
 70
     0
280
     0
  0
ATTDEF
  5
2F2
102
{ACAD_XDICTIONARY
360
AD6
102
}
330
2EB
100
AcDbEntity
  8
Symbols(Ram)
 62
     7
100
AcDbText
 10
-2.025255139964639
 20
2.789737660884838
 30
0.0
 40
2.489199936389923
  1
BBBBB
  7
Text Style59
100
AcDbAttributeDefinition
280
     0
  3
WELS LABEL
  2
WELS_LABEL_001
 70
     0
280
     0
  0
ATTDEF
  5
2F3
102
{ACAD_XDICTIONARY
360
AD9
102
}
330
2EB
100
AcDbEntity
  8
Symbols(Ram)
 62
     7
100
AcDbText
 10
-21.5001692928418
 20
-1.182711178412404
 30
0.0
 40
2.489199936389923
  1
CCCC
  7
Text Style59
100
AcDbAttributeDefinition
280
     0
  3
CARTON
  2
CARTON_001
 70
     0
280
     0
  0
ATTDEF
  5
2F4
102
{ACAD_XDICTIONARY
360
ADC
102
}
330
2EB
100
AcDbEntity
  8
Symbols(Ram)
 62
     7
100
AcDbText
 10
-9.91961932874967
 20
-9.000262339115181
 30
0.0
 40
2.489199936389923
  1
DDDD
  7
Text Style59
100
AcDbAttributeDefinition
280
     0
  3
MISC. PACKING
  2
MISC._PACKING_001
 70
     0
280
     0
  0
ATTDEF
  5
2F5
102
{ACAD_XDICTIONARY
360
ADF
102
}
330
2EB
100
AcDbEntity
  8
Symbols(Ram)
 62
     7
100
AcDbText
 10
-25.62709020036181
 20
-5.070262339115174
 30
0.0
 40
2.489199936389923
  1
EEEE
  7
Text Style59
100
AcDbAttributeDefinition
280
     0
  3
LABEL
  2
LABEL_001
 70
     0
280
     0
  0
ATTDEF
  5
2F6
102
{ACAD_XDICTIONARY
360
AE2
102
}
330
2EB
100
AcDbEntity
  8
Symbols(Ram)
 62
     7
100
AcDbText
 10
-7.950273165483126
 20
-12.93026233911518
 30
0.0
 40
2.489199936389923
  1
FFFF
  7
Text Style59
100
AcDbAttributeDefinition
280
     0
  3
WARRANTY CARD
  2
WARRANTY_CARD_001
 70
     0
280
     0
  0
ENDBLK
  5
2ED
330
2EB
100
AcDbEntity
  8
0
100
AcDbBlockEnd
  0
BLOCK
  5
2F8
330
2F7
100
AcDbEntity
  8
0
100
AcDbBlockBegin
  2
PRESSURE AND TEMP
 70
     0
 10
0.0
 20
0.0
 30
0.0
  3
PRESSURE AND TEMP
  1

  0
MTEXT
  5
2FA
330
2F7
100
AcDbEntity
  8
Symbols(Ram)
 62
     7
100
AcDbMText
 10
-22.5190544128418
 20
3.216175381094216
 30
0.0
 40
2.5
 41
0.0
 46
0.0
 71
     1
 72
     1
  1
MAX PRESSURE : 1000 kpa\PMAX TEMP : 80°c
  7
STD 2.5 ARIAL
 73
     2
 44
0.9442214965820312
1001
ACAD
1000
MTEXTBEGIN
1070
    73
1070
     2
1070
    44
1040
0.9442214965820312
1070
    74
1070
     0
1000
MTEXTEND
  0
ENDBLK
  5
2F9
330
2F7
100
AcDbEntity
  8
0
100
AcDbBlockEnd
  0
BLOCK
  5
2FC
330
2FB
100
AcDbEntity
  8
0
100
AcDbBlockBegin
  2
PRESSURE AND TEMP ONLY
 70
     0
 10
0.0
 20
0.0
 30
0.0
  3
PRESSURE AND TEMP ONLY
  1

  0
MTEXT
  5
2FE
330
2FB
100
AcDbEntity
  8
Symbols(Ram)
 62
     7
100
AcDbMText
 10
-34.83803272247314
 20
11.57488588243723
 30
0.0
 40
2.5
 41
0.0
 46
0.0
 71
     1
 72
     1
  1
NOTES:\P1. Maximum Hydrostatic Pressure: : 1000kpa\P2. Minimum Hydrostatic Pressure: : 150kpa\P3. Maximum Water Temperature : 80°c\P4. Supplied With Flexible Connectors.\P5. Requires a \fAIGDT|b0|i0;\H2.5000;n\fArial|b0|i0;\H2.5000;32 - 35mm Hole.
  7
STD 2.5 ARIAL
 73
     2
 44
0.9600000381469724
1001
ACAD
1000
MTEXTBEGIN
1070
    73
1070
     2
1070
    44
1040
0.9600000381469724
1070
    74
1070
     0
1000
MTEXTEND
  0
ENDBLK
  5
2FD
330
2FB
100
AcDbEntity
  8
0
100
AcDbBlockEnd
  0
BLOCK
  5
300
330
2FF
100
AcDbEntity
  8
0
100
AcDbBlockBegin
  2
PRESSURE AND TEMP ONLY NO HOSE
 70
     0
 10
0.0
 20
0.0
 30
0.0
  3
PRESSURE AND TEMP ONLY NO HOSE
  1

  0
MTEXT
  5
302
330
2FF
100
AcDbEntity
  8
Symbols(Ram)
 62
     7
100
AcDbMText
 10
-33.86813879013061
 20
7.4762699380517
 30
0.0
 40
2.5
 41
0.0
 46
0.0
 71
     1
 72
     1
  1
NOTES:\P1. Maximum Hydrostatic Pressure: 1000kpa\P2. Minimum Hydrostatic Pressure: 150kpa\P3. Maximum Water Temperature : 80°c
  7
STD 2.5 ARIAL
 73
     2
 44
0.9442214965820312
1001
ACAD
1000
MTEXTBEGIN
1070
    73
1070
     2
1070
    44
1040
0.9442214965820312
1070
    74
1070
     0
1000
MTEXTEND
  0
ENDBLK
  5
301
330
2FF
100
AcDbEntity
  8
0
100
AcDbBlockEnd
  0
BLOCK
  5
304
330
303
100
AcDbEntity
  8
0
100
AcDbBlockBegin
  2
PRESSURE AND TEMP_LASER-ETCHED
 70
     0
 10
0.0
 20
0.0
 30
0.0
  3
PRESSURE AND TEMP_LASER-ETCHED
  1

  0
MTEXT
  5
306
330
303
100
AcDbEntity
  8
Symbols(Ram)
 62
     7
100
AcDbMText
 10
-33.86813879013061
 20
13.59489351511001
 30
0.0
 40
2.5
 41
0.0
 46
0.0
 71
     1
 72
     1
  3
NOTES:\P1. Maximum Hydrostatic Pressure: 1000kpa\P2. Minimum Hydrostatic Pressure: 150kpa\P3. Maximum Water Temperature : 80°c\P4. Supplied With Flexible Connectors.\P5. Requires a \fAIGDT|b0|i0;\H2.5000;n\fArial|b0|i0;\H2.5000;32 - 35mm Hole.\P6. La
  1
ser-etched H and C Markings.
  7
STD 2.5 ARIAL
 73
     2
 44
0.9600000381469724
1001
ACAD
1000
MTEXTBEGIN
1070
    73
1070
     2
1070
    44
1040
0.9600000381469724
1070
    74
1070
     0
1000
MTEXTEND
  0
ENDBLK
  5
305
330
303
100
AcDbEntity
  8
0
100
AcDbBlockEnd
  0
BLOCK
  5
308
330
307
100
AcDbEntity
  8
0
100
AcDbBlockBegin
  2
PRESSURE AND TEMP_LASER-ETCHED NO HOSE
 70
     0
 10
0.0
 20
0.0
 30
0.0
  3
PRESSURE AND TEMP_LASER-ETCHED NO HOSE
  1

  0
MTEXT
  5
30A
330
307
100
AcDbEntity
  8
Symbols(Ram)
 62
     7
100
AcDbMText
 10
-34.35308456420898
 20
9.463405609130859
 30
0.0
 40
2.5
 41
0.0
 46
0.0
 71
     1
 72
     1
  1
NOTES:\P1. Maximum Hydrostatic Pressure : 1000kpa\P2. Minimum Hydrostatic Pressure : 150kpa\P3. Maximum Water Temperature : 80°c\P4. Laser-etched H and C Markings.
  7
STD 2.5 ARIAL
 73
     2
 44
0.9442214965820312
1001
ACAD
1000
MTEXTBEGIN
1070
    73
1070
     2
1070
    44
1040
0.9442214965820312
1070
    74
1070
     0
1000
MTEXTEND
  0
ENDBLK
  5
309
330
307
100
AcDbEntity
  8
0
100
AcDbBlockEnd
  0
BLOCK
  5
30C
330
30B
100
AcDbEntity
  8
0
100
AcDbBlockBegin
  2
QUOTATION ONLY
 70
     0
 10
0.0
 20
0.0
 30
0.0
  3
QUOTATION ONLY
  1

  0
MTEXT
  5
30E
102
{ACAD_XDICTIONARY
360
AE5
102
}
330
30B
100
AcDbEntity
  8
Symbols(Ram)
 62
     1
100
AcDbMText
 10
-3.530143797397613
 20
6.114388415116795
 30
0.0
 40
2.5
 41
42.70007610321044
 46
0.0
 71
     2
 72
     1
  1
{\H1.4x;QUOTATION \PONLY\H1.27999x; \H0.78126x;\P}May be subject to alteration {\H1.31916x; }prior to production.{\H1.14106x; }
  7
STD 2.5 ARIAL
 11
0.8660254037844385
 21
0.5000000000000007
 31
0.0
 73
     1
 44
0.8339310288429258
1001
ACAD
1000
MTEXTBEGIN
1070
    73
1070
     1
1070
    44
1040
0.8339310288429258
1070
    74
1070
     0
1000
MTEXTEND
  0
ENDBLK
  5
30D
330
30B
100
AcDbEntity
  8
0
100
AcDbBlockEnd
  0
BLOCK
  5
310
330
30F
100
AcDbEntity
  8
0
100
AcDbBlockBegin
  2
Quote Only
 70
     0
 10
0.0
 20
0.0
 30
0.0
  3
Quote Only
  1

  0
MTEXT
  5
312
102
{ACAD_XDICTIONARY
360
AE7
102
}
330
30F
100
AcDbEntity
  8
Symbols(Ram)
 62
     1
100
AcDbMText
 10
-5.960016744211316
 20
10.32305181493523
 30
0.0
 40
2.5
 41
42.51561164855953
 46
0.0
 71
     2
 72
     1
  1
{\H2.8x;QUOTE\PONLY\H1.39959x; \H0.71449x;\P}NOT FOR PRODUCTION{\H1.97342x; }
  7
STD 2.5 ARIAL
 11
0.8660254037844385
 21
0.5000000000000007
 31
0.0
 73
     1
 44
0.8201032876968382
1001
ACAD
1000
MTEXTBEGIN
1070
    73
1070
     1
1070
    44
1040
0.8201032876968382
1070
    74
1070
     0
1000
MTEXTEND
  0
ENDBLK
  5
311
330
30F
100
AcDbEntity
  8
0
100
AcDbBlockEnd
  0
BLOCK
  5
314
330
313
100
AcDbEntity
  8
0
100
AcDbBlockBegin
  2
SCREW-IN _ TURNS
 70
     2
 10
0.0
 20
0.0
 30
0.0
  3
SCREW-IN _ TURNS
  1

  0
LINE
  5
316
330
313
100
AcDbEntity
  8
Sketch Geometry(Ram)
100
AcDbLine
 10
0.0
 20
0.0
 30
0.0
 11
2.999999999999998
 21
0.0
 31
0.0
  0
MTEXT
  5
317
330
313
100
AcDbEntity
  8
Symbols(Ram)
 62
     7
100
AcDbMText
 10
13.0
 20
0.661960271490365
 30
0.0
 40
2.489199936389923
 41
0.0
 46
0.0
 71
     2
 72
     1
  1
\fArial|b0|i0;SCREW-IN\P    FULL \PTURNS
  7
STD 2.5 ARIAL
 73
     2
 44
0.9442214369773862
1001
ACAD
1000
MTEXTBEGIN
1070
    73
1070
     2
1070
    44
1040
0.9442214369773862
1070
    74
1070
     0
1000
MTEXTEND
  0
ATTDEF
  5
318
102
{ACAD_XDICTIONARY
360
AE9
102
}
330
313
100
AcDbEntity
  8
Symbols(Ram)
 62
     7
100
AcDbText
 10
7.525716082480031
 20
-5.755678613203656
 30
0.0
 40
2.489199936389923
  1
5
  7
Text Style14
100
AcDbAttributeDefinition
280
     0
  3
NUMBER
  2
NUMBER_001
 70
     0
280
     0
  0
ENDBLK
  5
315
330
313
100
AcDbEntity
  8
0
100
AcDbBlockEnd
  0
BLOCK
  5
31A
330
319
100
AcDbEntity
  8
0
100
AcDbBlockBegin
  2
THREAD RETAINER
 70
     0
 10
0.0
 20
0.0
 30
0.0
  3
THREAD RETAINER
  1

  0
ARC
  5
31C
330
319
100
AcDbEntity
  8
Sketch Geometry(Ram)
370
    18
100
AcDbCircle
 10
-0.6774969242626128
 20
-0.6613829731234056
 30
0.0
 40
1.0
100
AcDbArc
 50
225.0000000000015
 51
255.0000000000018
  0
LINE
  5
31D
330
319
100
AcDbEntity
  8
Sketch Geometry(Ram)
370
    18
100
AcDbLine
 10
-1.42215834333104
 20
-1.330935116427927
 30
0.0
 11
-1.598935038627668
 21
-1.507711811724553
 31
0.0
  0
ARC
  5
31E
330
319
100
AcDbEntity
  8
Sketch Geometry(Ram)
370
    18
100
AcDbCircle
 10
-1.634290377686991
 20
-1.472356472665231
 30
0.0
 40
0.05
100
AcDbArc
 50
225.0
 51
314.9999999999999
  0
LINE
  5
31F
330
319
100
AcDbEntity
  8
Sketch Geometry(Ram)
370
    18
100
AcDbLine
 10
0.097851138708478
 20
-1.904413040859527
 30
0.0
 11
-0.9363159693650755
 21
-1.627308799412379
 31
0.0
  0
ARC
  5
320
330
319
100
AcDbEntity
  8
Sketch Geometry(Ram)
370
    18
100
AcDbCircle
 10
0.2633301278051192
 20
-1.286837045965682
 30
0.0
 40
0.639361717106625
100
AcDbArc
 50
255.000000000001
 51
315.0
  0
LINE
  5
321
330
319
100
AcDbEntity
  8
Sketch Geometry(Ram)
370
    18
100
AcDbLine
 10
-1.669645716746313
 20
-1.507711811724553
 30
0.0
 11
-2.588884532290548
 21
-0.5884729961804425
 31
0.0
  0
ARC
  5
322
330
319
100
AcDbEntity
  8
Sketch Geometry(Ram)
370
    18
100
AcDbCircle
 10
-2.553529193231208
 20
-0.5531176571211029
 30
0.0
 40
0.05
100
AcDbArc
 50
135.0000000000001
 51
224.9999999999999
  0
LINE
  5
323
330
319
100
AcDbEntity
  8
Sketch Geometry(Ram)
370
    18
100
AcDbLine
 10
-2.58888453229053
 20
-0.5177623180617808
 30
0.0
 11
-2.412107836993904
 21
-0.3409856227651531
 31
0.0
  0
LINE
  5
324
330
319
100
AcDbEntity
  8
Sketch Geometry(Ram)
370
    18
100
AcDbLine
 10
-1.38460370544907
 20
-1.368489754309897
 30
0.0
 11
-2.44966247487742
 21
-0.3034309848816541
 31
0.0
  0
LINE
  5
325
330
319
100
AcDbEntity
  8
Sketch Geometry(Ram)
370
    18
100
AcDbLine
 10
3.288844482959021
 20
7.001357097865116
 30
0.0
 11
5.920184377297452
 21
4.370017203526757
 31
0.0
  0
LINE
  5
326
330
319
100
AcDbEntity
  8
Sketch Geometry(Ram)
370
    18
100
AcDbLine
 10
5.920184377297452
 20
3.465823191932404
 30
0.0
 11
0.7154271336022866
 21
-1.738934051762849
 31
0.0
  0
LINE
  5
327
330
319
100
AcDbEntity
  8
Sketch Geometry(Ram)
370
    18
100
AcDbLine
 10
-2.820106772330531
 20
1.796599854169896
 30
0.0
 11
2.384650471364686
 21
7.001357097865116
 31
0.0
  0
ARC
  5
328
330
319
100
AcDbEntity
  8
Sketch Geometry(Ram)
370
    18
100
AcDbCircle
 10
-2.368009766533365
 20
1.344502848372729
 30
0.0
 40
0.639361717106625
100
AcDbArc
 50
135.0
 51
194.9999999999997
  0
ARC
  5
329
330
319
100
AcDbEntity
  8
Sketch Geometry(Ram)
370
    18
100
AcDbCircle
 10
2.836747477161853
 20
6.54926009206795
 30
0.0
 40
0.639361717106625
100
AcDbArc
 50
45.0
 51
135.0
  0
ARC
  5
32A
330
319
100
AcDbEntity
  8
Sketch Geometry(Ram)
370
    18
100
AcDbCircle
 10
5.468087371500284
 20
3.917920197729571
 30
0.0
 40
0.639361717106625
100
AcDbArc
 50
315.0
 51
45.00000000000111
  0
ARC
  5
32B
330
319
100
AcDbEntity
  8
Sketch Geometry(Ram)
370
    18
100
AcDbCircle
 10
-1.742555693690928
 20
0.4036757963049277
 30
0.0
 40
1.0
100
AcDbArc
 50
195.0000000000004
 51
225.0000000000035
  0
LINE
  5
32C
330
319
100
AcDbEntity
  8
Sketch Geometry(Ram)
370
    18
100
AcDbLine
 10
-2.985585761427173
 20
1.179023859276089
 30
0.0
 11
-2.708481519980007
 21
0.1448567512023935
 31
0.0
  0
LINE
  5
32D
330
319
100
AcDbEntity
  8
Sketch Geometry(Ram)
370
    18
100
AcDbLine
 10
-5.450847264539451
 20
-4.213552536714376
 30
0.0
 11
-2.553629214331412
 21
-0.6237283141395446
 31
0.0
  0
LINE
  5
32E
330
319
100
AcDbEntity
  8
Sketch Geometry(Ram)
370
    18
100
AcDbLine
 10
-1.704901034705431
 20
-1.472456493765434
 30
0.0
 11
-5.294725257281863
 21
-4.369674543972035
 31
0.0
  0
ARC
  5
32F
330
319
100
AcDbEntity
  8
Sketch Geometry(Ram)
370
    18
100
AcDbCircle
 10
-5.364451872038014
 20
-4.28327915147058
 30
0.0
 40
0.1110223610397212
100
AcDbArc
 50
141.0942481659214
 51
308.9057518340514
  0
ARC
  5
330
330
319
100
AcDbEntity
  8
Sketch Geometry(Ram)
370
    18
100
AcDbCircle
 10
-5.364451872038014
 20
-4.933672957984676
 30
0.0
 40
0.1
100
AcDbArc
 50
10.7837787376784
 51
169.2162212623296
  0
ARC
  5
331
330
319
100
AcDbEntity
  8
Sketch Geometry(Ram)
370
    18
100
AcDbCircle
 10
-2.810367191575781
 20
-4.447204618800917
 30
0.0
 40
2.5
100
AcDbArc
 50
190.7837787376725
 51
218.041075036832
  0
ARC
  5
332
330
319
100
AcDbEntity
  8
Sketch Geometry(Ram)
370
    18
100
AcDbCircle
 10
-7.918536552500227
 20
-4.447204618800917
 30
0.0
 40
2.5
100
AcDbArc
 50
321.9589249631677
 51
349.216221262327
  0
ARC
  5
333
330
319
100
AcDbEntity
  8
Sketch Geometry(Ram)
370
    18
100
AcDbCircle
 10
-5.364451872038014
 20
-6.445624592605661
 30
0.0
 40
0.7429972165688831
100
AcDbArc
 50
141.9589249631685
 51
38.04107503683136
  0
MTEXT
  5
334
330
319
100
AcDbEntity
  8
Symbols(Ram)
 62
     7
100
AcDbMText
 10
-1.083429051210895
 20
-8.380980076428057
 30
0.0
 40
1.49859994649887
 41
16.53502489896194
 46
0.0
 71
     2
 72
     1
  1
\fArial|b0|i0;\H1.4986;APPLY MEDIUM\PSTRENGTH\PTHREAD RETAINER
  7
STD 2.5 ARIAL
 73
     2
 44
0.9442214369773862
1001
ACAD
1000
MTEXTBEGIN
1070
    73
1070
     2
1070
    44
1040
0.9442214369773862
1070
    74
1070
     0
1000
MTEXTEND
  0
ENDBLK
  5
31B
330
319
100
AcDbEntity
  8
0
100
AcDbBlockEnd
  0
BLOCK
  5
336
330
335
100
AcDbEntity
  8
0
100
AcDbBlockBegin
  2
THREAD RETAINER H
 70
     0
 10
0.0
 20
0.0
 30
0.0
  3
THREAD RETAINER H
  1

  0
LINE
  5
338
330
335
100
AcDbEntity
  8
Sketch Geometry(Ram)
370
    18
100
AcDbLine
 10
3.288844482959021
 20
7.001357097865116
 30
0.0
 11
5.920184377297452
 21
4.370017203526757
 31
0.0
  0
LINE
  5
339
330
335
100
AcDbEntity
  8
Sketch Geometry(Ram)
370
    18
100
AcDbLine
 10
5.920184377297452
 20
3.465823191932404
 30
0.0
 11
0.7154271336022866
 21
-1.738934051762849
 31
0.0
  0
LINE
  5
33A
330
335
100
AcDbEntity
  8
Sketch Geometry(Ram)
370
    18
100
AcDbLine
 10
-2.820106772330531
 20
1.796599854169896
 30
0.0
 11
2.384650471364686
 21
7.001357097865116
 31
0.0
  0
ARC
  5
33B
330
335
100
AcDbEntity
  8
Sketch Geometry(Ram)
370
    18
100
AcDbCircle
 10
0.2633301278051192
 20
-1.286837045965682
 30
0.0
 40
0.639361717106625
100
AcDbArc
 50
255.000000000001
 51
315.0
  0
ARC
  5
33C
330
335
100
AcDbEntity
  8
Sketch Geometry(Ram)
370
    18
100
AcDbCircle
 10
-2.368009766533365
 20
1.344502848372729
 30
0.0
 40
0.639361717106625
100
AcDbArc
 50
135.0
 51
194.9999999999997
  0
ARC
  5
33D
330
335
100
AcDbEntity
  8
Sketch Geometry(Ram)
370
    18
100
AcDbCircle
 10
2.836747477161853
 20
6.54926009206795
 30
0.0
 40
0.639361717106625
100
AcDbArc
 50
45.0
 51
135.0
  0
ARC
  5
33E
330
335
100
AcDbEntity
  8
Sketch Geometry(Ram)
370
    18
100
AcDbCircle
 10
5.468087371500284
 20
3.917920197729571
 30
0.0
 40
0.639361717106625
100
AcDbArc
 50
315.0
 51
45.00000000000111
  0
LINE
  5
33F
330
335
100
AcDbEntity
  8
Sketch Geometry(Ram)
370
    18
100
AcDbLine
 10
0.097851138708478
 20
-1.904413040859527
 30
0.0
 11
-0.9363159693650755
 21
-1.627308799412379
 31
0.0
  0
LINE
  5
340
330
335
100
AcDbEntity
  8
Sketch Geometry(Ram)
370
    18
100
AcDbLine
 10
-2.985585761427173
 20
1.179023859276089
 30
0.0
 11
-2.708481519980007
 21
0.1448567512023935
 31
0.0
  0
LINE
  5
341
330
335
100
AcDbEntity
  8
Sketch Geometry(Ram)
370
    18
100
AcDbLine
 10
-1.38460370544907
 20
-1.368489754309897
 30
0.0
 11
-2.44966247487742
 21
-0.3034309848816541
 31
0.0
  0
LINE
  5
342
330
335
100
AcDbEntity
  8
Sketch Geometry(Ram)
370
    18
100
AcDbLine
 10
-1.42215834333104
 20
-1.330935116427927
 30
0.0
 11
-1.598935038627668
 21
-1.507711811724553
 31
0.0
  0
LINE
  5
343
330
335
100
AcDbEntity
  8
Sketch Geometry(Ram)
370
    18
100
AcDbLine
 10
-1.669645716746313
 20
-1.507711811724553
 30
0.0
 11
-2.588884532290548
 21
-0.5884729961804425
 31
0.0
  0
LINE
  5
344
330
335
100
AcDbEntity
  8
Sketch Geometry(Ram)
370
    18
100
AcDbLine
 10
-2.58888453229053
 20
-0.5177623180617808
 30
0.0
 11
-2.412107836993904
 21
-0.3409856227651531
 31
0.0
  0
ARC
  5
345
330
335
100
AcDbEntity
  8
Sketch Geometry(Ram)
370
    18
100
AcDbCircle
 10
-5.364451872038014
 20
-4.28327915147058
 30
0.0
 40
0.1110223610397212
100
AcDbArc
 50
141.0942481659214
 51
308.9057518340514
  0
LINE
  5
346
330
335
100
AcDbEntity
  8
Sketch Geometry(Ram)
370
    18
100
AcDbLine
 10
-5.450847264539451
 20
-4.213552536714376
 30
0.0
 11
-2.553629214331412
 21
-0.6237283141395446
 31
0.0
  0
LINE
  5
347
330
335
100
AcDbEntity
  8
Sketch Geometry(Ram)
370
    18
100
AcDbLine
 10
-1.704901034705431
 20
-1.472456493765434
 30
0.0
 11
-5.294725257281863
 21
-4.369674543972035
 31
0.0
  0
ARC
  5
348
330
335
100
AcDbEntity
  8
Sketch Geometry(Ram)
370
    18
100
AcDbCircle
 10
-0.6774969242626128
 20
-0.6613829731234056
 30
0.0
 40
1.0
100
AcDbArc
 50
225.0000000000015
 51
255.0000000000018
  0
ARC
  5
349
330
335
100
AcDbEntity
  8
Sketch Geometry(Ram)
370
    18
100
AcDbCircle
 10
-1.742555693690928
 20
0.4036757963049277
 30
0.0
 40
1.0
100
AcDbArc
 50
195.0000000000004
 51
225.0000000000035
  0
ARC
  5
34A
330
335
100
AcDbEntity
  8
Sketch Geometry(Ram)
370
    18
100
AcDbCircle
 10
-5.364451872038014
 20
-6.445624592605661
 30
0.0
 40
0.7429972165688831
100
AcDbArc
 50
141.9589249631685
 51
38.04107503683136
  0
ARC
  5
34B
330
335
100
AcDbEntity
  8
Sketch Geometry(Ram)
370
    18
100
AcDbCircle
 10
-7.918536552500227
 20
-4.447204618800917
 30
0.0
 40
2.5
100
AcDbArc
 50
321.9589249631677
 51
349.216221262327
  0
ARC
  5
34C
330
335
100
AcDbEntity
  8
Sketch Geometry(Ram)
370
    18
100
AcDbCircle
 10
-2.810367191575781
 20
-4.447204618800917
 30
0.0
 40
2.5
100
AcDbArc
 50
190.7837787376725
 51
218.041075036832
  0
ARC
  5
34D
330
335
100
AcDbEntity
  8
Sketch Geometry(Ram)
370
    18
100
AcDbCircle
 10
-5.364451872038014
 20
-4.933672957984676
 30
0.0
 40
0.1
100
AcDbArc
 50
10.7837787376784
 51
169.2162212623296
  0
ARC
  5
34E
330
335
100
AcDbEntity
  8
Sketch Geometry(Ram)
370
    18
100
AcDbCircle
 10
-1.634290377686991
 20
-1.472356472665231
 30
0.0
 40
0.05
100
AcDbArc
 50
225.0
 51
314.9999999999999
  0
ARC
  5
34F
330
335
100
AcDbEntity
  8
Sketch Geometry(Ram)
370
    18
100
AcDbCircle
 10
-2.553529193231208
 20
-0.5531176571211029
 30
0.0
 40
0.05
100
AcDbArc
 50
135.0000000000001
 51
224.9999999999999
  0
MTEXT
  5
350
330
335
100
AcDbEntity
  8
Symbols(Ram)
 62
     7
100
AcDbMText
 10
-0.5191429966991557
 20
-8.252703968673174
 30
0.0
 40
1.49859994649887
 41
12.69037379631854
 46
0.0
 71
     2
 72
     1
  1
\fArial|b0|i0;\H1.4986;APPLY HIGH\PSTRENGTH\PTHREAD RETAINER
  7
STD 2.5 ARIAL
 73
     2
 44
0.9442214369773862
1001
ACAD
1000
MTEXTBEGIN
1070
    73
1070
     2
1070
    44
1040
0.9442214369773862
1070
    74
1070
     0
1000
MTEXTEND
  0
ENDBLK
  5
337
330
335
100
AcDbEntity
  8
0
100
AcDbBlockEnd
  0
BLOCK
  5
352
330
351
100
AcDbEntity
  8
0
100
AcDbBlockBegin
  2
TIGHTEN TO
 70
     2
 10
0.0
 20
0.0
 30
0.0
  3
TIGHTEN TO
  1

  0
LINE
  5
354
330
351
100
AcDbEntity
  8
Sketch Geometry(Ram)
100
AcDbLine
 10
0.0
 20
0.0
 30
0.0
 11
3.000000000000006
 21
0.0
 31
0.0
  0
MTEXT
  5
355
330
351
100
AcDbEntity
  8
Symbols(Ram)
 62
     7
100
AcDbMText
 10
4.000000000000002
 20
-0.4158152686432004
 30
0.0
 40
2.489199936389923
 41
0.0
 46
0.0
 71
     4
 72
     1
  1
\fArial|b0|i0;TIGHTEN\PTO      N/m
  7
STD 2.5 ARIAL
 73
     2
 44
0.9442214369773862
1001
ACAD
1000
MTEXTBEGIN
1070
    73
1070
     2
1070
    44
1040
0.9442214369773862
1070
    74
1070
     0
1000
MTEXTEND
  0
ATTDEF
  5
356
102
{ACAD_XDICTIONARY
360
AEC
102
}
330
351
100
AcDbEntity
  8
Symbols(Ram)
 62
     7
100
AcDbText
 10
9.459908783374833
 20
-3.246431671331386
 30
0.0
 40
2.489199936389923
  1
10
  7
Text Style14
100
AcDbAttributeDefinition
280
     0
  3
AMOUNT
  2
AMOUNT_001
 70
     0
280
     0
  0
ENDBLK
  5
353
330
351
100
AcDbEntity
  8
0
100
AcDbBlockEnd
  0
BLOCK
  5
358
330
357
100
AcDbEntity
  8
0
100
AcDbBlockBegin
  2
WATERMARK ETCH
 70
     0
 10
0.0
 20
0.0
 30
0.0
  3
WATERMARK ETCH
  1

  0
LINE
  5
35A
330
357
100
AcDbEntity
  8
Sketch Geometry(Ram)
100
AcDbLine
 10
0.0
 20
0.0
 30
0.0
 11
-3.000000000000006
 21
0.0
 31
0.0
  0
MTEXT
  5
35B
330
357
100
AcDbEntity
  8
Symbols(Ram)
 62
     7
100
AcDbMText
 10
-21.00000000000001
 20
1.164973430248376
 30
0.0
 40
2.489199936389923
 41
0.0
 46
0.0
 71
     2
 72
     1
  1
\fArial|b0|i0;WATERMARK - ETCH\PAFTER SUCCESSFUL\PPRESSURE TEST
  7
STD 2.5 ARIAL
 73
     2
 44
0.9442214369773862
1001
ACAD
1000
MTEXTBEGIN
1070
    73
1070
     2
1070
    44
1040
0.9442214369773862
1070
    74
1070
     0
1000
MTEXTEND
  0
ENDBLK
  5
359
330
357
100
AcDbEntity
  8
0
100
AcDbBlockEnd
  0
BLOCK
  5
35D
330
35C
100
AcDbEntity
  8
0
100
AcDbBlockBegin
  2
WATERMARK STICKER
 70
     0
 10
0.0
 20
0.0
 30
0.0
  3
WATERMARK STICKER
  1

  0
LINE
  5
35F
330
35C
100
AcDbEntity
  8
Sketch Geometry(Ram)
100
AcDbLine
 10
0.0
 20
0.0
 30
0.0
 11
-2.999999999999998
 21
0.0
 31
0.0
  0
MTEXT
  5
360
330
35C
100
AcDbEntity
  8
Symbols(Ram)
 62
     7
100
AcDbMText
 10
-21.0
 20
1.063789565959075
 30
0.0
 40
2.489199936389923
 41
0.0
 46
0.0
 71
     2
 72
     1
  1
\fArial|b0|i0;APPLY WATERMARK\PSTICKER (STK09)\PAFTER SUCCESSFUL\PPRESSURE TEST
  7
STD 2.5 ARIAL
 73
     2
 44
0.9442214369773862
1001
ACAD
1000
MTEXTBEGIN
1070
    73
1070
     2
1070
    44
1040
0.9442214369773862
1070
    74
1070
     0
1000
MTEXTEND
  0
ENDBLK
  5
35E
330
35C
100
AcDbEntity
  8
0
100
AcDbBlockEnd
  0
BLOCK
  5
362
330
361
100
AcDbEntity
  8
0
100
AcDbBlockBegin
  2
WATERMARK STICKER RH SIDE
 70
     0
 10
0.0
 20
0.0
 30
0.0
  3
WATERMARK STICKER RH SIDE
  1

  0
LINE
  5
364
330
361
100
AcDbEntity
  8
Sketch Geometry(Ram)
100
AcDbLine
 10
0.0
 20
0.0
 30
0.0
 11
2.999999999999998
 21
0.0
 31
0.0
  0
MTEXT
  5
365
330
361
100
AcDbEntity
  8
Symbols(Ram)
 62
     7
100
AcDbMText
 10
21.00000000000001
 20
0.8759048483026532
 30
0.0
 40
2.489199936389923
 41
0.0
 46
0.0
 71
     2
 72
     1
  1
\fArial|b0|i0;APPLY WATERMARK\PSTICKER (STK09)\PAFTER SUCCESSFUL\PPRESSURE TEST
  7
STD 2.5 ARIAL
 73
     2
 44
0.9442214369773862
1001
ACAD
1000
MTEXTBEGIN
1070
    73
1070
     2
1070
    44
1040
0.9442214369773862
1070
    74
1070
     0
1000
MTEXTEND
  0
ENDBLK
  5
363
330
361
100
AcDbEntity
  8
0
100
AcDbBlockEnd
  0
BLOCK
  5
367
330
366
100
AcDbEntity
  8
0
100
AcDbBlockBegin
  2
WELS
 70
     0
 10
0.0
 20
0.0
 30
0.0
  3
WELS
  1

  0
HATCH
  5
36D
330
366
100
AcDbEntity
  8
Hatch
 62
     7
100
AcDbHatch
 10
0.0
 20
0.0
 30
0.0
210
0.0
220
0.0
230
1.0
  2
SOLID
 70
     1
 71
     0
 91
        1
 92
        1
 93
        4
 72
     1
 10
-12.13704218324615
 20
-1.7414967295168
 11
-12.13704218324612
 21
-10.3955455537293
 72
     1
 10
-12.13704218324612
 20
-10.3955455537293
 11
12.13704218324613
 21
-10.3955455537293
 72
     1
 10
12.13704218324613
 20
-10.3955455537293
 11
12.13704218324615
 21
-1.7414967295168
 72
     1
 10
12.13704218324615
 20
-1.7414967295168
 11
-12.13704218324615
 21
-1.7414967295168
 97
        0
 75
     0
 76
     1
 98
        1
 10
0.0
 20
0.0
450
        0
451
        0
460
0.0
461
0.0
452
        0
462
0.0
453
        0
470

  0
LINE
  5
36E
330
366
100
AcDbEntity
  8
Sketch Lines(Ram)
100
AcDbLine
 10
-12.13704218324615
 20
-1.7414967295168
 30
0.0
 11
12.13704218324615
 21
-1.7414967295168
 31
0.0
  0
LINE
  5
36F
330
366
100
AcDbEntity
  8
Sketch Lines(Ram)
100
AcDbLine
 10
12.13704218324615
 20
-1.7414967295168
 30
0.0
 11
12.13704218324613
 21
-10.3955455537293
 31
0.0
  0
LINE
  5
370
330
366
100
AcDbEntity
  8
Sketch Lines(Ram)
100
AcDbLine
 10
12.13704218324613
 20
-10.3955455537293
 30
0.0
 11
-12.13704218324612
 21
-10.3955455537293
 31
0.0
  0
LINE
  5
371
330
366
100
AcDbEntity
  8
Sketch Lines(Ram)
100
AcDbLine
 10
-12.13704218324612
 20
-10.3955455537293
 30
0.0
 11
-12.13704218324615
 21
-1.7414967295168
 31
0.0
  0
ARC
  5
372
330
366
100
AcDbEntity
  8
Sketch Lines(Ram)
100
AcDbCircle
 10
0.0
 20
-1.7414967295168
 30
0.0
 40
12.13704218324612
100
AcDbArc
 50
0.0
 51
180.0
  0
ARC
  5
373
330
366
100
AcDbEntity
  8
Sketch Lines(Ram)
100
AcDbCircle
 10
0.0
 20
-1.7414967295168
 30
0.0
 40
6.544500934971217
100
AcDbArc
 50
0.0
 51
180.0
  0
LINE
  5
374
330
366
100
AcDbEntity
  8
Sketch Lines(Ram)
100
AcDbLine
 10
-9.166134316541008
 20
2.793877233418715
 30
0.0
 11
-9.671290790193019
 21
1.239165470762344
 31
0.0
  0
LINE
  5
375
330
366
100
AcDbEntity
  8
Sketch Lines(Ram)
100
AcDbLine
 10
-9.671290790193019
 20
1.239165470762344
 30
0.0
 11
-11.3060114782051
 21
1.239165470762344
 31
0.0
  0
LINE
  5
376
330
366
100
AcDbEntity
  8
Sketch Lines(Ram)
100
AcDbLine
 10
-11.3060114782051
 20
1.239165470762344
 30
0.0
 11
-9.983494660547016
 21
0.2783007587314401
 31
0.0
  0
LINE
  5
377
330
366
100
AcDbEntity
  8
Sketch Lines(Ram)
100
AcDbLine
 10
-9.983494660547016
 20
0.2783007587314401
 30
0.0
 11
-10.48865113419906
 21
-1.276411003924913
 31
0.0
  0
LINE
  5
378
330
366
100
AcDbEntity
  8
Sketch Lines(Ram)
100
AcDbLine
 10
-10.48865113419906
 20
-1.276411003924913
 30
0.0
 11
-9.166134316541008
 21
-0.3155462918940088
 31
0.0
  0
LINE
  5
379
330
366
100
AcDbEntity
  8
Sketch Lines(Ram)
100
AcDbLine
 10
-9.166134316541008
 20
-0.3155462918940088
 30
0.0
 11
-7.843617498882924
 21
-1.276411003924895
 31
0.0
  0
LINE
  5
37A
330
366
100
AcDbEntity
  8
Sketch Lines(Ram)
100
AcDbLine
 10
-7.843617498882924
 20
-1.276411003924895
 30
0.0
 11
-8.348773972534946
 21
0.2783007587314579
 31
0.0
  0
LINE
  5
37B
330
366
100
AcDbEntity
  8
Sketch Lines(Ram)
100
AcDbLine
 10
-8.348773972534946
 20
0.2783007587314579
 30
0.0
 11
-7.026257154876897
 21
1.239165470762362
 31
0.0
  0
LINE
  5
37C
330
366
100
AcDbEntity
  8
Sketch Lines(Ram)
100
AcDbLine
 10
-7.026257154876897
 20
1.239165470762362
 30
0.0
 11
-8.66097784288895
 21
1.239165470762344
 31
0.0
  0
LINE
  5
37D
330
366
100
AcDbEntity
  8
Sketch Lines(Ram)
100
AcDbLine
 10
-8.66097784288895
 20
1.239165470762344
 30
0.0
 11
-9.166134316541008
 21
2.793877233418715
 31
0.0
  0
LINE
  5
37E
330
366
100
AcDbEntity
  8
Sketch Lines(Ram)
100
AcDbLine
 10
-6.220351606545442
 20
4.182086192073696
 30
0.0
 11
-4.59458608950598
 21
4.352961033463405
 31
0.0
  0
LINE
  5
37F
330
366
100
AcDbEntity
  8
Sketch Lines(Ram)
100
AcDbLine
 10
-4.59458608950598
 20
4.352961033463405
 30
0.0
 11
-6.010295733416412
 21
5.170321377469432
 31
0.0
  0
LINE
  5
380
330
366
100
AcDbEntity
  8
Sketch Lines(Ram)
100
AcDbLine
 10
-6.010295733416412
 20
5.170321377469432
 30
0.0
 11
-5.670418191157065
 21
6.769319496318378
 31
0.0
  0
LINE
  5
381
330
366
100
AcDbEntity
  8
Sketch Lines(Ram)
100
AcDbLine
 10
-5.670418191157065
 20
6.769319496318378
 30
0.0
 11
-6.88525241155407
 21
5.675477851121487
 31
0.0
  0
LINE
  5
382
330
366
100
AcDbEntity
  8
Sketch Lines(Ram)
100
AcDbLine
 10
-6.88525241155407
 20
5.675477851121487
 30
0.0
 11
-8.300962055464502
 21
6.492838195127513
 31
0.0
  0
LINE
  5
383
330
366
100
AcDbEntity
  8
Sketch Lines(Ram)
100
AcDbLine
 10
-8.300962055464502
 20
6.492838195127513
 30
0.0
 11
-7.636061250455892
 21
4.99944653607967
 31
0.0
  0
LINE
  5
384
330
366
100
AcDbEntity
  8
Sketch Lines(Ram)
100
AcDbLine
 10
-7.636061250455892
 20
4.99944653607967
 30
0.0
 11
-8.850895470852897
 21
3.905604890882816
 31
0.0
  0
LINE
  5
385
330
366
100
AcDbEntity
  8
Sketch Lines(Ram)
100
AcDbLine
 10
-8.850895470852897
 20
3.905604890882816
 30
0.0
 11
-7.225129953813436
 21
4.076479732272576
 31
0.0
  0
LINE
  5
386
330
366
100
AcDbEntity
  8
Sketch Lines(Ram)
100
AcDbLine
 10
-7.225129953813436
 20
4.076479732272576
 30
0.0
 11
-6.560229148804807
 21
2.583088073224768
 31
0.0
  0
LINE
  5
387
330
366
100
AcDbEntity
  8
Sketch Lines(Ram)
100
AcDbLine
 10
-6.560229148804807
 20
2.583088073224768
 30
0.0
 11
-6.220351606545442
 21
4.182086192073696
 31
0.0
  0
LINE
  5
388
330
366
100
AcDbEntity
  8
Sketch Lines(Ram)
100
AcDbLine
 10
-2.425191050944448
 20
6.498652365276951
 30
0.0
 11
-0.9317993918966747
 21
5.833751560268342
 31
0.0
  0
LINE
  5
389
330
366
100
AcDbEntity
  8
Sketch Lines(Ram)
100
AcDbLine
 10
-0.9317993918966747
 20
5.833751560268342
 30
0.0
 11
-1.749159735902718
 21
7.249461204178738
 31
0.0
  0
LINE
  5
38A
330
366
100
AcDbEntity
  8
Sketch Lines(Ram)
100
AcDbLine
 10
-1.749159735902718
 20
7.249461204178738
 30
0.0
 11
-0.6553180907058298
 21
8.464295424575796
 31
0.0
  0
LINE
  5
38B
330
366
100
AcDbEntity
  8
Sketch Lines(Ram)
100
AcDbLine
 10
-0.6553180907058298
 20
8.464295424575796
 30
0.0
 11
-2.254316209554739
 21
8.124417882316432
 31
0.0
  0
LINE
  5
38C
330
366
100
AcDbEntity
  8
Sketch Lines(Ram)
100
AcDbLine
 10
-2.254316209554739
 20
8.124417882316432
 30
0.0
 11
-3.071676553560783
 21
9.540127526226827
 31
0.0
  0
LINE
  5
38D
330
366
100
AcDbEntity
  8
Sketch Lines(Ram)
100
AcDbLine
 10
-3.071676553560783
 20
9.540127526226827
 30
0.0
 11
-3.242551394950528
 21
7.914362009187332
 31
0.0
  0
LINE
  5
38E
330
366
100
AcDbEntity
  8
Sketch Lines(Ram)
100
AcDbLine
 10
-3.242551394950528
 20
7.914362009187332
 30
0.0
 11
-4.841549513799421
 21
7.574484466928002
 31
0.0
  0
LINE
  5
38F
330
366
100
AcDbEntity
  8
Sketch Lines(Ram)
100
AcDbLine
 10
-4.841549513799421
 20
7.574484466928002
 30
0.0
 11
-3.348157854751628
 21
6.909583661919408
 31
0.0
  0
LINE
  5
390
330
366
100
AcDbEntity
  8
Sketch Lines(Ram)
100
AcDbLine
 10
-3.348157854751628
 20
6.909583661919408
 30
0.0
 11
-3.519032696141337
 21
5.283818144879911
 31
0.0
  0
LINE
  5
391
330
366
100
AcDbEntity
  8
Sketch Lines(Ram)
100
AcDbLine
 10
-3.519032696141337
 20
5.283818144879911
 30
0.0
 11
-2.425191050944448
 21
6.498652365276951
 31
0.0
  0
LINE
  5
392
330
366
100
AcDbEntity
  8
Sketch Lines(Ram)
100
AcDbLine
 10
2.019797488248311
 20
6.607277243018144
 30
0.0
 11
2.980662200279161
 21
5.284760425360079
 31
0.0
  0
LINE
  5
393
330
366
100
AcDbEntity
  8
Sketch Lines(Ram)
100
AcDbLine
 10
2.980662200279161
 20
5.284760425360079
 30
0.0
 11
2.980662200279161
 21
6.91948111337215
 31
0.0
  0
LINE
  5
394
330
366
100
AcDbEntity
  8
Sketch Lines(Ram)
100
AcDbLine
 10
2.980662200279161
 20
6.91948111337215
 30
0.0
 11
4.53537396293555
 21
7.424637587024206
 31
0.0
  0
LINE
  5
395
330
366
100
AcDbEntity
  8
Sketch Lines(Ram)
100
AcDbLine
 10
4.53537396293555
 20
7.424637587024206
 30
0.0
 11
2.980662200279161
 21
7.92979406067621
 31
0.0
  0
LINE
  5
396
330
366
100
AcDbEntity
  8
Sketch Lines(Ram)
100
AcDbLine
 10
2.980662200279161
 20
7.92979406067621
 30
0.0
 11
2.980662200279143
 21
9.564514748688264
 31
0.0
  0
LINE
  5
397
330
366
100
AcDbEntity
  8
Sketch Lines(Ram)
100
AcDbLine
 10
2.980662200279143
 20
9.564514748688264
 30
0.0
 11
2.01979748824824
 21
8.241997931030216
 31
0.0
  0
LINE
  5
398
330
366
100
AcDbEntity
  8
Sketch Lines(Ram)
100
AcDbLine
 10
2.01979748824824
 20
8.241997931030216
 30
0.0
 11
0.4650857255919051
 21
8.747154404682271
 31
0.0
  0
LINE
  5
399
330
366
100
AcDbEntity
  8
Sketch Lines(Ram)
100
AcDbLine
 10
0.4650857255919051
 20
8.747154404682271
 30
0.0
 11
1.425950437622809
 21
7.424637587024206
 31
0.0
  0
LINE
  5
39A
330
366
100
AcDbEntity
  8
Sketch Lines(Ram)
100
AcDbLine
 10
1.425950437622809
 20
7.424637587024206
 30
0.0
 11
0.4650857255919229
 21
6.102120769366107
 31
0.0
  0
LINE
  5
39B
330
366
100
AcDbEntity
  8
Sketch Lines(Ram)
100
AcDbLine
 10
0.4650857255919229
 20
6.102120769366107
 30
0.0
 11
2.019797488248311
 21
6.607277243018144
 31
0.0
  0
LINE
  5
39C
330
366
100
AcDbEntity
  8
Sketch Lines(Ram)
100
AcDbLine
 10
5.923582921590513
 20
4.478854877028624
 30
0.0
 11
6.094457762980222
 21
2.853089359989162
 31
0.0
  0
LINE
  5
39D
330
366
100
AcDbEntity
  8
Sketch Lines(Ram)
100
AcDbLine
 10
6.094457762980222
 20
2.853089359989162
 30
0.0
 11
6.911818106986248
 21
4.268799003899611
 31
0.0
  0
LINE
  5
39E
330
366
100
AcDbEntity
  8
Sketch Lines(Ram)
100
AcDbLine
 10
6.911818106986248
 20
4.268799003899611
 30
0.0
 11
8.510816225835178
 21
3.928921461640245
 31
0.0
  0
LINE
  5
39F
330
366
100
AcDbEntity
  8
Sketch Lines(Ram)
100
AcDbLine
 10
8.510816225835178
 20
3.928921461640245
 30
0.0
 11
7.416974580638271
 21
5.143755682037233
 31
0.0
  0
LINE
  5
3A0
330
366
100
AcDbEntity
  8
Sketch Lines(Ram)
100
AcDbLine
 10
7.416974580638271
 20
5.143755682037233
 30
0.0
 11
8.234334924644278
 21
6.559465325947666
 31
0.0
  0
LINE
  5
3A1
330
366
100
AcDbEntity
  8
Sketch Lines(Ram)
100
AcDbLine
 10
8.234334924644278
 20
6.559465325947666
 30
0.0
 11
6.740943265596505
 21
5.894564520939107
 31
0.0
  0
LINE
  5
3A2
330
366
100
AcDbEntity
  8
Sketch Lines(Ram)
100
AcDbLine
 10
6.740943265596505
 20
5.894564520939107
 30
0.0
 11
5.647101620399652
 21
7.109398741336113
 31
0.0
  0
LINE
  5
3A3
330
366
100
AcDbEntity
  8
Sketch Lines(Ram)
100
AcDbLine
 10
5.647101620399652
 20
7.109398741336113
 30
0.0
 11
5.817976461789378
 21
5.483633224296599
 31
0.0
  0
LINE
  5
3A4
330
366
100
AcDbEntity
  8
Sketch Lines(Ram)
100
AcDbLine
 10
5.817976461789378
 20
5.483633224296599
 30
0.0
 11
4.324584802741603
 21
4.818732419287972
 31
0.0
  0
LINE
  5
3A5
330
366
100
AcDbEntity
  8
Sketch Lines(Ram)
100
AcDbLine
 10
4.324584802741603
 20
4.818732419287972
 30
0.0
 11
5.923582921590513
 21
4.478854877028624
 31
0.0
  0
LINE
  5
3A6
330
366
100
AcDbEntity
  8
Sketch Lines(Ram)
100
AcDbLine
 10
8.240149094793736
 20
0.6836943214276481
 30
0.0
 11
7.575248289785142
 21
-0.8096973376201431
 31
0.0
  0
LINE
  5
3A7
330
366
100
AcDbEntity
  8
Sketch Lines(Ram)
100
AcDbLine
 10
7.575248289785142
 20
-0.8096973376201431
 30
0.0
 11
8.990957933695574
 21
0.0076630063859007
 31
0.0
  0
LINE
  5
3A8
330
366
100
AcDbEntity
  8
Sketch Lines(Ram)
100
AcDbLine
 10
8.990957933695574
 20
0.0076630063859007
 30
0.0
 11
10.20579215409256
 21
-1.086178638810987
 31
0.0
  0
LINE
  5
3A9
330
366
100
AcDbEntity
  8
Sketch Lines(Ram)
100
AcDbLine
 10
10.20579215409256
 20
-1.086178638810987
 30
0.0
 11
9.865914611833179
 21
0.5128194800379227
 31
0.0
  0
LINE
  5
3AA
330
366
100
AcDbEntity
  8
Sketch Lines(Ram)
100
AcDbLine
 10
9.865914611833179
 20
0.5128194800379227
 30
0.0
 11
11.28162425574359
 21
1.330179824043984
 31
0.0
  0
LINE
  5
3AB
330
366
100
AcDbEntity
  8
Sketch Lines(Ram)
100
AcDbLine
 10
11.28162425574359
 20
1.330179824043984
 30
0.0
 11
9.655858738704168
 21
1.501054665433726
 31
0.0
  0
LINE
  5
3AC
330
366
100
AcDbEntity
  8
Sketch Lines(Ram)
100
AcDbLine
 10
9.655858738704168
 20
1.501054665433726
 30
0.0
 11
9.315981196444838
 21
3.100052784282619
 31
0.0
  0
LINE
  5
3AD
330
366
100
AcDbEntity
  8
Sketch Lines(Ram)
100
AcDbLine
 10
9.315981196444838
 20
3.100052784282619
 30
0.0
 11
8.651080391436208
 21
1.606661125234811
 31
0.0
  0
LINE
  5
3AE
330
366
100
AcDbEntity
  8
Sketch Lines(Ram)
100
AcDbLine
 10
8.651080391436208
 20
1.606661125234811
 30
0.0
 11
7.02531487439673
 21
1.7775359666245
 31
0.0
  0
LINE
  5
3AF
330
366
100
AcDbEntity
  8
Sketch Lines(Ram)
100
AcDbLine
 10
7.02531487439673
 20
1.7775359666245
 30
0.0
 11
8.240149094793736
 21
0.6836943214276481
 31
0.0
  0
MTEXT
  5
3B0
330
366
100
AcDbEntity
  8
Symbols(Ram)
 62
     7
100
AcDbMText
 10
0.2641538309346636
 20
-2.814653579225723
 30
0.0
 40
2.5
 41
0.0
 46
0.0
 71
     2
 72
     1
  1
\fArial|b1|i0;\H2.5000;WELS \PPRODUCT
  7
STD 2.5 ARIAL
 73
     2
 44
0.9442214965820312
1001
ACAD
1000
MTEXTBEGIN
1070
    73
1070
     2
1070
    44
1040
0.9442214965820312
1070
    74
1070
     0
1000
MTEXTEND
  0
ENDBLK
  5
368
330
366
100
AcDbEntity
  8
0
100
AcDbBlockEnd
  0
BLOCK
  5
3ED
330
3EC
100
AcDbEntity
  8
0
100
AcDbBlockBegin
  2
*D51
 70
     1
 10
0.0
 20
0.0
 30
0.0
  3
*D51
  1

  0
LINE
  5
4C4
330
3EC
100
AcDbEntity
  8
Dimensions(Ram)
  6
Continuous
 62
     7
440
 16777216
370
    25
100
AcDbLine
 10
702.938572094694
 20
1304.870352547864
 30
0.0
 11
757.4457197487284
 21
1304.870352547864
 31
0.0
  0
LINE
  5
4C5
330
3EC
100
AcDbEntity
  8
Dimensions(Ram)
  6
Continuous
 62
     7
440
 16777216
370
    25
100
AcDbLine
 10
496.038572094697
 20
525.1703525478631
 30
0.0
 11
757.4457197487281
 21
525.1703525478631
 31
0.0
  0
LINE
  5
4C6
330
3EC
100
AcDbEntity
  8
Dimensions(Ram)
  6
Continuous
 62
     7
440
 16777216
370
    25
100
AcDbLine
 10
744.1123864153952
 20
1288.203685881197
 30
0.0
 11
744.112386415395
 21
541.8370192145298
 31
0.0
  0
SOLID
  5
4C7
330
3EC
100
AcDbEntity
  8
Dimensions(Ram)
  6
Continuous
 62
     7
440
 16777216
100
AcDbTrace
 10
741.3346086376172
 20
1288.203685881197
 30
0.0
 11
746.890164193173
 21
1288.203685881197
 31
0.0
 12
744.1123864153952
 22
1304.870352547864
 32
0.0
 13
744.1123864153952
 23
1304.870352547864
 33
0.0
  0
SOLID
  5
4C8
330
3EC
100
AcDbEntity
  8
Dimensions(Ram)
  6
Continuous
 62
     7
440
 16777216
100
AcDbTrace
 10
741.3346086376171
 20
541.8370192145298
 30
0.0
 11
746.8901641931727
 21
541.8370192145298
 31
0.0
 12
744.112386415395
 22
525.1703525478631
 32
0.0
 13
744.112386415395
 23
525.1703525478631
 33
0.0
  0
MTEXT
  5
4C9
330
3EC
100
AcDbEntity
  8
Dimensions(Ram)
  6
Continuous
 62
     7
440
 16777216
370
    25
100
AcDbMText
 10
720.4266201580052
 20
896.7052093009327
 30
0.0
 40
16.66666666666667
 41
0.0
 46
0.0
 71
     1
 72
     1
  1
\A1;780
  7
STD 2.5 ARIAL
 11
0.0000000000000001
 21
1.0
 31
0.0
 73
     1
 44
1.0
1001
ACAD
1000
MTEXTBEGIN
1070
    73
1070
     1
1070
    44
1040
1.0
1070
    74
1070
     0
1000
MTEXTEND
  0
POINT
  5
4CA
330
3EC
100
AcDbEntity
  8
Defpoints
  6
Continuous
 62
     0
440
 16777216
100
AcDbPoint
 10
694.2719054280273
 20
1304.870352547864
 30
0.0
  0
POINT
  5
4CB
330
3EC
100
AcDbEntity
  8
Defpoints
  6
Continuous
 62
     0
440
 16777216
100
AcDbPoint
 10
487.3719054280303
 20
525.1703525478631
 30
0.0
  0
POINT
  5
4CC
330
3EC
100
AcDbEntity
  8
Defpoints
  6
Continuous
 62
     0
440
 16777216
100
AcDbPoint
 10
744.112386415395
 20
525.1703525478631
 30
0.0
  0
ENDBLK
  5
3EE
330
3EC
100
AcDbEntity
  8
0
100
AcDbBlockEnd
  0
BLOCK
  5
4CF
330
4CE
100
AcDbEntity
  8
0
100
AcDbBlockBegin
  2
*D52
 70
     1
 10
0.0
 20
0.0
 30
0.0
  3
*D52
  1

  0
LINE
  5
5AF
330
4CE
100
AcDbEntity
  8
Dimensions(Ram)
  6
Continuous
 62
     7
440
 16777216
370
    25
100
AcDbLine
 10
407.397267931146
 20
1387.470352547863
 30
0.0
 11
283.5203040090657
 21
1387.470352547863
 31
0.0
  0
LINE
  5
5B0
330
4CE
100
AcDbEntity
  8
Dimensions(Ram)
  6
Continuous
 62
     7
440
 16777216
370
    25
100
AcDbLine
 10
378.7052387613637
 20
525.1703525478631
 30
0.0
 11
283.5203040090655
 21
525.1703525478631
 31
0.0
  0
LINE
  5
5B1
330
4CE
100
AcDbEntity
  8
Dimensions(Ram)
  6
Continuous
 62
     7
440
 16777216
370
    25
100
AcDbLine
 10
296.853637342399
 20
1370.803685881196
 30
0.0
 11
296.8536373423988
 21
541.8370192145298
 31
0.0
  0
SOLID
  5
5B2
330
4CE
100
AcDbEntity
  8
Dimensions(Ram)
  6
Continuous
 62
     7
440
 16777216
100
AcDbTrace
 10
294.0758595646212
 20
1370.803685881196
 30
0.0
 11
299.6314151201768
 21
1370.803685881196
 31
0.0
 12
296.853637342399
 22
1387.470352547863
 32
0.0
 13
296.853637342399
 23
1387.470352547863
 33
0.0
  0
SOLID
  5
5B3
330
4CE
100
AcDbEntity
  8
Dimensions(Ram)
  6
Continuous
 62
     7
440
 16777216
100
AcDbTrace
 10
294.0758595646211
 20
541.8370192145298
 30
0.0
 11
299.6314151201766
 21
541.8370192145298
 31
0.0
 12
296.8536373423988
 22
525.1703525478631
 32
0.0
 13
296.8536373423988
 23
525.1703525478631
 33
0.0
  0
MTEXT
  5
5B4
330
4CE
100
AcDbEntity
  8
Dimensions(Ram)
  6
Continuous
 62
     7
440
 16777216
370
    25
100
AcDbMText
 10
273.167871085009
 20
937.9256276729201
 30
0.0
 40
16.66666666666667
 41
0.0
 46
0.0
 71
     1
 72
     1
  1
\A1;860
  7
STD 2.5 ARIAL
 11
0.0000000000000001
 21
1.0
 31
0.0
 73
     1
 44
1.0
1001
ACAD
1000
MTEXTBEGIN
1070
    73
1070
     1
1070
    44
1040
1.0
1070
    74
1070
     0
1000
MTEXTEND
  0
POINT
  5
5B5
330
4CE
100
AcDbEntity
  8
Defpoints
  6
Continuous
 62
     0
440
 16777216
100
AcDbPoint
 10
416.0639345978128
 20
1387.470352547863
 30
0.0
  0
POINT
  5
5B6
330
4CE
100
AcDbEntity
  8
Defpoints
  6
Continuous
 62
     0
440
 16777216
100
AcDbPoint
 10
387.3719054280304
 20
525.1703525478631
 30
0.0
  0
POINT
  5
5B7
330
4CE
100
AcDbEntity
  8
Defpoints
  6
Continuous
 62
     0
440
 16777216
100
AcDbPoint
 10
296.8536373423988
 20
525.1703525478631
 30
0.0
  0
ENDBLK
  5
4D0
330
4CE
100
AcDbEntity
  8
0
100
AcDbBlockEnd
  0
BLOCK
  5
5BA
330
5B9
100
AcDbEntity
  8
0
100
AcDbBlockBegin
  2
*D53
 70
     1
 10
0.0
 20
0.0
 30
0.0
  3
*D53
  1

  0
LINE
  5
691
330
5B9
100
AcDbEntity
  8
Dimensions(Ram)
  6
Continuous
 62
     7
440
 16777216
370
    25
100
AcDbLine
 10
437.3719054280303
 20
1290.503685881196
 30
0.0
 11
437.3719054280303
 21
1220.941499553848
 31
0.0
  0
LINE
  5
692
330
5B9
100
AcDbEntity
  8
Dimensions(Ram)
  6
Continuous
 62
     7
440
 16777216
370
    25
100
AcDbLine
 10
687.3861616570434
 20
1296.203685881197
 30
0.0
 11
687.3861616570434
 21
1220.941499553848
 31
0.0
  0
LINE
  5
693
330
5B9
100
AcDbEntity
  8
Dimensions(Ram)
  6
Continuous
 62
     7
440
 16777216
370
    25
100
AcDbLine
 10
454.038572094697
 20
1234.274832887181
 30
0.0
 11
670.7194949903769
 21
1234.274832887181
 31
0.0
  0
SOLID
  5
694
330
5B9
100
AcDbEntity
  8
Dimensions(Ram)
  6
Continuous
 62
     7
440
 16777216
100
AcDbTrace
 10
454.038572094697
 20
1237.052610664959
 30
0.0
 11
454.038572094697
 21
1231.497055109403
 31
0.0
 12
437.3719054280303
 22
1234.274832887181
 32
0.0
 13
437.3719054280303
 23
1234.274832887181
 33
0.0
  0
SOLID
  5
695
330
5B9
100
AcDbEntity
  8
Dimensions(Ram)
  6
Continuous
 62
     7
440
 16777216
100
AcDbTrace
 10
670.7194949903769
 20
1237.052610664959
 30
0.0
 11
670.7194949903769
 21
1231.497055109403
 31
0.0
 12
687.3861616570434
 22
1234.274832887181
 32
0.0
 13
687.3861616570434
 23
1234.274832887181
 33
0.0
  0
MTEXT
  5
696
330
5B9
100
AcDbEntity
  8
Dimensions(Ram)
  6
Continuous
 62
     7
440
 16777216
370
    25
100
AcDbMText
 10
547.6518501088134
 20
1257.960599144571
 30
0.0
 40
16.66666666666667
 41
0.0
 46
0.0
 71
     1
 72
     1
  1
\A1;250
  7
STD 2.5 ARIAL
 73
     1
 44
1.0
1001
ACAD
1000
MTEXTBEGIN
1070
    73
1070
     1
1070
    44
1040
1.0
1070
    74
1070
     0
1000
MTEXTEND
  0
POINT
  5
697
330
5B9
100
AcDbEntity
  8
Defpoints
  6
Continuous
 62
     0
440
 16777216
100
AcDbPoint
 10
437.3719054280303
 20
1299.170352547863
 30
0.0
  0
POINT
  5
698
330
5B9
100
AcDbEntity
  8
Defpoints
  6
Continuous
 62
     0
440
 16777216
100
AcDbPoint
 10
687.3861616570434
 20
1304.870352547864
 30
0.0
  0
POINT
  5
699
330
5B9
100
AcDbEntity
  8
Defpoints
  6
Continuous
 62
     0
440
 16777216
100
AcDbPoint
 10
687.3861616570434
 20
1234.274832887181
 30
0.0
  0
ENDBLK
  5
5BB
330
5B9
100
AcDbEntity
  8
0
100
AcDbBlockEnd
  0
BLOCK
  5
69C
330
69B
100
AcDbEntity
  8
0
100
AcDbBlockBegin
  2
*D54
 70
     1
 10
0.0
 20
0.0
 30
0.0
  3
*D54
  1

  0
LINE
  5
773
330
69B
100
AcDbEntity
  8
Dimensions(Ram)
  6
Continuous
 62
     7
440
 16777216
370
    25
100
AcDbLine
 10
437.3719054280301
 20
1367.83701921453
 30
0.0
 11
437.3719054280301
 21
1453.142778174318
 31
0.0
  0
LINE
  5
774
330
69B
100
AcDbEntity
  8
Dimensions(Ram)
  6
Continuous
 62
     7
440
 16777216
370
    25
100
AcDbLine
 10
517.3631024049178
 20
1395.128292679031
 30
0.0
 11
517.3631024049178
 21
1453.142778174318
 31
0.0
  0
LINE
  5
775
330
69B
100
AcDbEntity
  8
Dimensions(Ram)
  6
Continuous
 62
     7
440
 16777216
370
    25
100
AcDbLine
 10
454.0385720946968
 20
1439.809444840985
 30
0.0
 11
500.6964357382511
 21
1439.809444840985
 31
0.0
  0
SOLID
  5
776
330
69B
100
AcDbEntity
  8
Dimensions(Ram)
  6
Continuous
 62
     7
440
 16777216
100
AcDbTrace
 10
454.0385720946968
 20
1442.587222618763
 30
0.0
 11
454.0385720946968
 21
1437.031667063207
 31
0.0
 12
437.3719054280301
 22
1439.809444840985
 32
0.0
 13
437.3719054280301
 23
1439.809444840985
 33
0.0
  0
SOLID
  5
777
330
69B
100
AcDbEntity
  8
Dimensions(Ram)
  6
Continuous
 62
     7
440
 16777216
100
AcDbTrace
 10
500.6964357382511
 20
1442.587222618763
 30
0.0
 11
500.6964357382511
 21
1437.031667063207
 31
0.0
 12
517.3631024049178
 22
1439.809444840985
 32
0.0
 13
517.3631024049178
 23
1439.809444840985
 33
0.0
  0
MTEXT
  5
778
330
69B
100
AcDbEntity
  8
Dimensions(Ram)
  6
Continuous
 62
     7
440
 16777216
370
    25
100
AcDbMText
 10
465.4473129205667
 20
1463.495211098375
 30
0.0
 40
16.66666666666667
 41
0.0
 46
0.0
 71
     1
 72
     1
  1
\A1;80
  7
STD 2.5 ARIAL
 73
     1
 44
1.0
1001
ACAD
1000
MTEXTBEGIN
1070
    73
1070
     1
1070
    44
1040
1.0
1070
    74
1070
     0
1000
MTEXTEND
  0
POINT
  5
779
330
69B
100
AcDbEntity
  8
Defpoints
  6
Continuous
 62
     0
440
 16777216
100
AcDbPoint
 10
437.3719054280301
 20
1359.170352547863
 30
0.0
  0
POINT
  5
77A
330
69B
100
AcDbEntity
  8
Defpoints
  6
Continuous
 62
     0
440
 16777216
100
AcDbPoint
 10
517.3631024049178
 20
1386.461626012365
 30
0.0
  0
POINT
  5
77B
330
69B
100
AcDbEntity
  8
Defpoints
  6
Continuous
 62
     0
440
 16777216
100
AcDbPoint
 10
517.3631024049178
 20
1439.809444840985
 30
0.0
  0
ENDBLK
  5
69D
330
69B
100
AcDbEntity
  8
0
100
AcDbBlockEnd
  0
BLOCK
  5
77E
330
77D
100
AcDbEntity
  8
0
100
AcDbBlockBegin
  2
*D55
 70
     1
 10
0.0
 20
0.0
 30
0.0
  3
*D55
  1

  0
LINE
  5
871
330
77D
100
AcDbEntity
  8
Dimensions(Ram)
  6
Continuous
 62
     7
440
 16777216
370
    25
100
AcDbLine
 10
496.038572094697
 20
525.1703525478631
 30
0.0
 11
567.3719054280302
 21
525.1703525478631
 31
0.0
  0
LINE
  5
872
330
77D
100
AcDbEntity
  8
Dimensions(Ram)
  6
Continuous
 62
     7
440
 16777216
370
    25
100
AcDbLine
 10
495.0385720946968
 20
555.1703525478631
 30
0.0
 11
567.3719054280302
 21
555.1703525478631
 31
0.0
  0
LINE
  5
873
330
77D
100
AcDbEntity
  8
Dimensions(Ram)
  6
Continuous
 62
     7
440
 16777216
370
    25
100
AcDbLine
 10
554.0385720946971
 20
508.5036858811965
 30
0.0
 11
554.0385720946971
 21
491.8370192145299
 31
0.0
  0
LINE
  5
874
330
77D
100
AcDbEntity
  8
Dimensions(Ram)
  6
Continuous
 62
     7
440
 16777216
370
    25
100
AcDbLine
 10
554.0385720946971
 20
571.8370192145297
 30
0.0
 11
554.0385720946971
 21
588.5036858811965
 31
0.0
  0
LINE
  5
875
330
77D
100
AcDbEntity
  8
Dimensions(Ram)
  6
Continuous
 62
     7
440
 16777216
370
    25
100
AcDbLine
 10
607.844847674506
 20
608.5736223118697
 30
0.0
 11
554.0385720946971
 21
608.5736223118697
 31
0.0
  0
LINE
  5
876
330
77D
100
AcDbEntity
  8
Dimensions(Ram)
  6
Continuous
 62
     7
440
 16777216
370
    25
100
AcDbLine
 10
554.0385720946971
 20
608.5736223118697
 30
0.0
 11
554.0385720946971
 21
588.5036858811965
 31
0.0
  0
MTEXT
  5
877
330
77D
100
AcDbEntity
  8
Dimensions(Ram)
  6
Continuous
 62
     7
440
 16777216
370
    25
100
AcDbMText
 10
577.3719054280302
 20
632.2707573732615
 30
0.0
 40
16.66666666666667
 41
0.0
 46
0.0
 71
     1
 72
     1
  1
\A1;30
  7
STD 2.5 ARIAL
 73
     1
 44
1.0
1001
ACAD
1000
MTEXTBEGIN
1070
    73
1070
     1
1070
    44
1040
1.0
1070
    74
1070
     0
1000
MTEXTEND
  0
LINE
  5
878
330
77D
100
AcDbEntity
  8
Dimensions(Ram)
  6
Continuous
 62
     7
440
 16777216
370
    25
100
AcDbLine
 10
554.0385720946971
 20
525.1703525478631
 30
0.0
 11
554.0385720946971
 21
555.1703525478631
 31
0.0
  0
SOLID
  5
879
330
77D
100
AcDbEntity
  8
Dimensions(Ram)
  6
Continuous
 62
     7
440
 16777216
100
AcDbTrace
 10
551.2607943169191
 20
508.5036858811965
 30
0.0
 11
556.8163498724747
 21
508.5036858811965
 31
0.0
 12
554.0385720946971
 22
525.1703525478631
 32
0.0
 13
554.0385720946971
 23
525.1703525478631
 33
0.0
  0
SOLID
  5
87A
330
77D
100
AcDbEntity
  8
Dimensions(Ram)
  6
Continuous
 62
     7
440
 16777216
100
AcDbTrace
 10
551.2607943169191
 20
571.8370192145297
 30
0.0
 11
556.8163498724747
 21
571.8370192145297
 31
0.0
 12
554.0385720946971
 22
555.1703525478631
 32
0.0
 13
554.0385720946971
 23
555.1703525478631
 33
0.0
  0
POINT
  5
87B
330
77D
100
AcDbEntity
  8
Defpoints
  6
Continuous
 62
     0
440
 16777216
100
AcDbPoint
 10
487.3719054280303
 20
525.1703525478631
 30
0.0
  0
POINT
  5
87C
330
77D
100
AcDbEntity
  8
Defpoints
  6
Continuous
 62
     0
440
 16777216
100
AcDbPoint
 10
486.3719054280301
 20
555.1703525478631
 30
0.0
  0
POINT
  5
87D
330
77D
100
AcDbEntity
  8
Defpoints
  6
Continuous
 62
     0
440
 16777216
100
AcDbPoint
 10
554.0385720946971
 20
555.1703525478631
 30
0.0
  0
ENDBLK
  5
77F
330
77D
100
AcDbEntity
  8
0
100
AcDbBlockEnd
  0
BLOCK
  5
880
330
87F
100
AcDbEntity
  8
0
100
AcDbBlockBegin
  2
*D56
 70
     1
 10
0.0
 20
0.0
 30
0.0
  3
*D56
  1

  0
LINE
  5
958
330
87F
100
AcDbEntity
  8
Dimensions(Ram)
  6
Continuous
 62
     7
440
 16777216
370
    25
100
AcDbLine
 10
387.3719054280305
 20
516.5036858811966
 30
0.0
 11
387.3719054280305
 21
387.4740722424651
 31
0.0
  0
LINE
  5
959
330
87F
100
AcDbEntity
  8
Dimensions(Ram)
  6
Continuous
 62
     7
440
 16777216
370
    25
100
AcDbLine
 10
487.3719054280303
 20
516.5036858811966
 30
0.0
 11
487.3719054280303
 21
387.4740722424651
 31
0.0
  0
LINE
  5
95A
330
87F
100
AcDbEntity
  8
Dimensions(Ram)
  6
Continuous
 62
     7
440
 16777216
370
    25
100
AcDbLine
 10
404.0385720946972
 20
400.8074055757983
 30
0.0
 11
470.7052387613636
 21
400.8074055757983
 31
0.0
  0
SOLID
  5
95B
330
87F
100
AcDbEntity
  8
Dimensions(Ram)
  6
Continuous
 62
     7
440
 16777216
100
AcDbTrace
 10
404.0385720946972
 20
403.5851833535762
 30
0.0
 11
404.0385720946972
 21
398.0296277980207
 31
0.0
 12
387.3719054280305
 22
400.8074055757983
 32
0.0
 13
387.3719054280305
 23
400.8074055757983
 33
0.0
  0
SOLID
  5
95C
330
87F
100
AcDbEntity
  8
Dimensions(Ram)
  6
Continuous
 62
     7
440
 16777216
100
AcDbTrace
 10
470.7052387613636
 20
403.5851833535762
 30
0.0
 11
470.7052387613636
 21
398.0296277980207
 31
0.0
 12
487.3719054280303
 22
400.8074055757983
 32
0.0
 13
487.3719054280303
 23
400.8074055757983
 33
0.0
  0
MTEXT
  5
95D
330
87F
100
AcDbEntity
  8
Dimensions(Ram)
  6
Continuous
 62
     7
440
 16777216
370
    25
100
AcDbMText
 10
409.5040431239368
 20
432.5507759218344
 30
0.0
 40
16.66666666666667
 41
0.0
 46
0.0
 71
     1
 72
     1
  1
\A1;{\fAIGDT|b0|i0;\H16.6667;\ln\fArial|b0|i0;\H16.6667;}100
  7
STD 2.5 ARIAL
 73
     1
 44
1.0
1001
ACAD
1000
MTEXTBEGIN
1070
    73
1070
     1
1070
    44
1040
1.0
1070
    74
1070
     0
1000
MTEXTEND
  0
POINT
  5
95E
330
87F
100
AcDbEntity
  8
Defpoints
  6
Continuous
 62
     0
440
 16777216
100
AcDbPoint
 10
387.3719054280305
 20
525.1703525478631
 30
0.0
  0
POINT
  5
95F
330
87F
100
AcDbEntity
  8
Defpoints
  6
Continuous
 62
     0
440
 16777216
100
AcDbPoint
 10
487.3719054280303
 20
525.1703525478631
 30
0.0
  0
POINT
  5
960
330
87F
100
AcDbEntity
  8
Defpoints
  6
Continuous
 62
     0
440
 16777216
100
AcDbPoint
 10
487.3719054280303
 20
400.8074055757983
 30
0.0
  0
ENDBLK
  5
881
330
87F
100
AcDbEntity
  8
0
100
AcDbBlockEnd
  0
BLOCK
  5
963
330
962
100
AcDbEntity
  8
0
100
AcDbBlockBegin
  2
*D57
 70
     1
 10
0.0
 20
0.0
 30
0.0
  3
*D57
  1

  0
LINE
  5
A4D
330
962
100
AcDbEntity
  8
Dimensions(Ram)
  6
Continuous
 62
     7
440
 16777216
370
    25
100
AcDbLine
 10
399.7052387613636
 20
727.9762155136175
 30
0.0
 11
383.038572094697
 21
727.9762155136175
 31
0.0
  0
LINE
  5
A4E
330
962
100
AcDbEntity
  8
Dimensions(Ram)
  6
Continuous
 62
     7
440
 16777216
370
    25
100
AcDbLine
 10
475.038572094697
 20
727.9762155136175
 30
0.0
 11
560.692946779945
 21
727.9762155136175
 31
0.0
  0
LINE
  5
A4F
330
962
100
AcDbEntity
  8
Dimensions(Ram)
  6
Continuous
 62
     7
440
 16777216
370
    25
100
AcDbLine
 10
416.3719054280303
 20
727.9762155136175
 30
0.0
 11
458.3719054280303
 21
727.9762155136175
 31
0.0
  0
SOLID
  5
A50
330
962
100
AcDbEntity
  8
Dimensions(Ram)
  6
Continuous
 62
     7
440
 16777216
100
AcDbTrace
 10
399.7052387613636
 20
730.7539932913954
 30
0.0
 11
399.7052387613636
 21
725.1984377358397
 31
0.0
 12
416.3719054280303
 22
727.9762155136175
 32
0.0
 13
416.3719054280303
 23
727.9762155136175
 33
0.0
  0
SOLID
  5
A51
330
962
100
AcDbEntity
  8
Dimensions(Ram)
  6
Continuous
 62
     7
440
 16777216
100
AcDbTrace
 10
475.038572094697
 20
730.7539932913954
 30
0.0
 11
475.038572094697
 21
725.1984377358397
 31
0.0
 12
458.3719054280303
 22
727.9762155136175
 32
0.0
 13
458.3719054280303
 23
727.9762155136175
 33
0.0
  0
MTEXT
  5
A52
330
962
100
AcDbEntity
  8
Dimensions(Ram)
  6
Continuous
 62
     7
440
 16777216
370
    25
100
AcDbMText
 10
512.1890813865843
 20
752.5942236991563
 30
0.0
 40
16.66666666666667
 41
0.0
 46
0.0
 71
     1
 72
     1
  1
\A1;{Ø}42
  7
STD 2.5 ARIAL
 73
     1
 44
1.0
1001
ACAD
1000
MTEXTBEGIN
1070
    73
1070
     1
1070
    44
1040
1.0
1070
    74
1070
     0
1000
MTEXTEND
  0
POINT
  5
A53
330
962
100
AcDbEntity
  8
Defpoints
  6
Continuous
 62
     0
440
 16777216
100
AcDbPoint
 10
416.3719054280303
 20
746.3598527716824
 30
0.0
  0
POINT
  5
A54
330
962
100
AcDbEntity
  8
Defpoints
  6
Continuous
 62
     0
440
 16777216
100
AcDbPoint
 10
458.3719054280303
 20
746.3598527716824
 30
0.0
  0
POINT
  5
A55
330
962
100
AcDbEntity
  8
Defpoints
  6
Continuous
 62
     0
440
 16777216
100
AcDbPoint
 10
458.3719054280303
 20
727.9762155136175
 30
0.0
  0
ENDBLK
  5
964
330
962
100
AcDbEntity
  8
0
100
AcDbBlockEnd
  0
ENDSEC
  0
SECTION
  2
ENTITIES
  0
LINE
  5
3B1
330
6C
100
AcDbEntity
  8
Visible Edges(Ram)
100
AcDbLine
 10
416.3719054280303
 20
1299.170352547863
 30
0.0
 11
458.3719054280303
 21
1299.170352547863
 31
0.0
  0
LINE
  5
3B2
330
6C
100
AcDbEntity
  8
Visible Edges(Ram)
100
AcDbLine
 10
416.3719054280303
 20
555.1703525478631
 30
0.0
 11
416.3719054280303
 21
1299.170352547863
 31
0.0
  0
LINE
  5
3B3
330
6C
100
AcDbEntity
  8
Visible Edges(Ram)
100
AcDbLine
 10
458.3719054280304
 20
555.1703525478631
 30
0.0
 11
458.3719054280303
 21
1299.170352547863
 31
0.0
  0
LINE
  5
3B4
330
6C
100
AcDbEntity
  8
Visible Edges(Ram)
100
AcDbLine
 10
458.3719054280303
 20
1299.170352547863
 30
0.0
 11
416.3719054280303
 21
1299.170352547863
 31
0.0
  0
LINE
  5
3B5
330
6C
100
AcDbEntity
  8
Visible Edges(Ram)
100
AcDbLine
 10
458.3719054280303
 20
1301.170352547863
 30
0.0
 11
416.3719054280303
 21
1301.170352547863
 31
0.0
  0
LINE
  5
3B6
330
6C
100
AcDbEntity
  8
Visible Edges(Ram)
100
AcDbLine
 10
458.3719054280303
 20
1301.170352547863
 30
0.0
 11
458.3719054280303
 21
1299.170352547863
 31
0.0
  0
LINE
  5
3B7
330
6C
100
AcDbEntity
  8
Visible Edges(Ram)
100
AcDbLine
 10
416.3719054280303
 20
1301.170352547863
 30
0.0
 11
416.3719054280303
 21
1299.170352547863
 31
0.0
  0
ARC
  5
3B8
330
6C
100
AcDbEntity
  8
Visible Edges(Ram)
100
AcDbCircle
 10
437.3706939037084
 20
1357.494649357609
 30
0.0
 40
20.61700000000003
100
AcDbArc
 50
148.162293390839
 51
175.3379858880243
  0
ARC
  5
3B9
330
6C
100
AcDbEntity
  8
Visible Edges(Ram)
100
AcDbCircle
 10
437.3731169523518
 20
1357.494649357609
 30
0.0
 40
20.61700000000003
100
AcDbArc
 50
4.662014111975728
 51
19.7762054692307
  0
LINE
  5
3BA
330
6C
100
AcDbEntity
  8
Visible Edges(Ram)
100
AcDbLine
 10
416.3719054280301
 20
1359.170352547863
 30
0.0
 11
458.37190542803
 21
1359.170352547863
 31
0.0
  0
LINE
  5
3BB
330
6C
100
AcDbEntity
  8
Visible Edges(Ram)
100
AcDbLine
 10
458.3719054280301
 20
1300.170352547863
 30
0.0
 11
416.3719054280303
 21
1300.170352547863
 31
0.0
  0
LINE
  5
3BC
330
6C
100
AcDbEntity
  8
Visible Edges(Ram)
100
AcDbLine
 10
458.37190542803
 20
1359.170352547863
 30
0.0
 11
458.3719054280301
 21
1321.547050171422
 31
0.0
  0
LINE
  5
3BD
330
6C
100
AcDbEntity
  8
Visible Edges(Ram)
100
AcDbLine
 10
458.3719054280301
 20
1304.870352547863
 30
0.0
 11
458.3719054280301
 21
1300.170352547863
 31
0.0
  0
LINE
  5
3BE
330
6C
100
AcDbEntity
  8
Visible Edges(Ram)
100
AcDbLine
 10
416.3719054280301
 20
1359.170352547863
 30
0.0
 11
416.3719054280303
 21
1300.170352547863
 31
0.0
  0
SPLINE
  5
3BF
330
6C
100
AcDbEntity
  8
Visible Edges(Ram)
100
AcDbSpline
210
0.0
220
0.0
230
1.0
 70
     8
 71
     3
 72
    14
 73
    10
 74
     0
 42
0.000000001
 43
0.0000000001
 40
-2.372416086823065
 40
-2.372416086823065
 40
-2.372416086823065
 40
-2.372416086823065
 40
-2.118777895221211
 40
-2.118777895221211
 40
-1.354232941090825
 40
-1.354232941090825
 40
-0.6391960191064631
 40
-0.6391960191064631
 40
-0.1804101820066404
 40
-0.1804101820066404
 40
-0.1804101820066404
 40
-0.1804101820066404
 10
458.3719939165193
 20
1321.546545193366
 30
0.0
 10
458.3719633294034
 20
1321.546726868045
 30
0.0
 10
458.3213377647588
 20
1321.536504247591
 30
0.0
 10
457.9135384602802
 20
1321.452359480576
 30
0.0
 10
457.1504443336444
 20
1321.293654457695
 30
0.0
 10
454.8689933273429
 20
1320.872798434483
 30
0.0
 10
453.4186700713106
 20
1320.622307475615
 30
0.0
 10
450.5709874728625
 20
1320.217724655799
 30
0.0
 10
449.3490750300548
 20
1320.062760133083
 30
0.0
 10
448.0399609323667
 20
1319.924684448502
 30
0.0
  0
LINE
  5
3C0
330
6C
100
AcDbEntity
  8
Visible Edges(Ram)
100
AcDbLine
 10
458.3719054280298
 20
1321.547050171422
 30
0.0
 11
694.274711175425
 21
1320.885146047752
 31
0.0
  0
LINE
  5
3C1
330
6C
100
AcDbEntity
  8
Visible Edges(Ram)
100
AcDbLine
 10
695.2719054280276
 20
1305.870352547864
 30
0.0
 11
695.2719054280276
 21
1319.637212099825
 31
0.0
  0
LINE
  5
3C2
330
6C
100
AcDbEntity
  8
Visible Edges(Ram)
100
AcDbLine
 10
694.2719054280273
 20
1304.870352547864
 30
0.0
 11
687.3861616570434
 21
1304.870352547864
 31
0.0
  0
LINE
  5
3C3
330
6C
100
AcDbEntity
  8
Visible Edges(Ram)
100
AcDbLine
 10
448.3495275631405
 20
1304.870352547864
 30
0.0
 11
687.3861616570434
 21
1304.870352547864
 31
0.0
  0
SPLINE
  5
3C4
330
6C
100
AcDbEntity
  8
Visible Edges(Ram)
100
AcDbSpline
210
0.0
220
0.0
230
1.0
 70
     8
 71
     3
 72
    14
 73
    10
 74
     0
 42
0.000000001
 43
0.0000000001
 40
0.9222301631890827
 40
0.9222301631890827
 40
0.9222301631890827
 40
0.9222301631890827
 40
0.9394854253322806
 40
0.9394854253322806
 40
0.9567406874754784
 40
0.9567406874754784
 40
1.020123601421182
 40
1.020123601421182
 40
1.163512121673649
 40
1.163512121673649
 40
1.163512121673649
 40
1.163512121673649
 10
446.4564712240982
 20
1305.870352547863
 30
0.0
 10
446.4564712240982
 20
1305.812835007386
 30
0.0
 10
446.4680497138973
 20
1305.752070204292
 30
0.0
 10
446.5112755748481
 20
1305.638789768615
 30
0.0
 10
446.5425469065161
 20
1305.586101439453
 30
0.0
 10
446.6959364697177
 20
1305.378427846628
 30
0.0
 10
446.8912139625159
 20
1305.249449727352
 30
0.0
 10
447.4494700099649
 20
1304.96823014509
 30
0.0
 10
447.9420700756076
 20
1304.870352547863
 30
0.0
 10
448.3495275631405
 20
1304.870352547863
 30
0.0
  0
ARC
  5
3C5
330
6C
100
AcDbEntity
  8
Visible Edges(Ram)
100
AcDbCircle
 10
694.2719054280273
 20
1305.870352547864
 30
0.0
 40
1.000000000000035
100
AcDbArc
 50
270.0
 51
0.0
  0
SPLINE
  5
3C6
330
6C
100
AcDbEntity
  8
Visible Edges(Ram)
100
AcDbSpline
210
0.0
220
0.0
230
1.0
 70
     8
 71
     3
 72
    16
 73
    12
 74
     0
 42
0.000000001
 43
0.0000000001
 40
0.0
 40
0.0
 40
0.0
 40
0.0
 40
0.1425138932504749
 40
0.1425138932504749
 40
0.2166835636725157
 40
0.2166835636725157
 40
0.2506189010900484
 40
0.2506189010900484
 40
0.2660453774662143
 40
0.2660453774662143
 40
0.2809727840028704
 40
0.2809727840028704
 40
0.2809727840028704
 40
0.2809727840028704
 10
448.0399609323667
 20
1319.924684448502
 30
0.0
 10
447.6324554163562
 20
1319.881703776922
 30
0.0
 10
447.2410947481681
 20
1319.758121090916
 30
0.0
 10
446.7977744968472
 20
1319.498159491586
 30
0.0
 10
446.673058996064
 20
1319.396330375334
 30
0.0
 10
446.5474181076018
 20
1319.234419124891
 30
0.0
 10
446.5130898297151
 20
1319.177820698156
 30
0.0
 10
446.4788408767955
 20
1319.087906405968
 30
0.0
 10
446.4704309261889
 20
1319.058893426606
 30
0.0
 10
446.4592918137562
 20
1319.00015252693
 30
0.0
 10
446.4564712240982
 20
1318.970916946995
 30
0.0
 10
446.4564712240982
 20
1318.941397823573
 30
0.0
  0
SPLINE
  5
3C7
330
6C
100
AcDbEntity
  8
Visible Edges(Ram)
100
AcDbSpline
210
0.0
220
0.0
230
1.0
 70
    24
 71
     3
 72
    12
 73
     8
 74
     0
 42
0.000000001
 43
0.0000000001
 40
0.0000000000000008
 40
0.0000000000000008
 40
0.0000000000000008
 40
0.0000000000000008
 40
0.1750266435825979
 40
0.1750266435825979
 40
0.4550692733147532
 40
0.4550692733147532
 40
0.7001065743303787
 40
0.7001065743303787
 40
0.7001065743303787
 40
0.7001065743303787
 10
695.2719054280276
 20
1319.637212099825
 30
0.0
 10
695.2719054280276
 20
1319.678483324787
 30
0.0
 10
695.2719054280276
 20
1319.714621038472
 30
0.0
 10
695.2719054280276
 20
1319.795188121471
 30
0.0
 10
695.2719054280276
 20
1319.831581290886
 30
0.0
 10
695.2719054280276
 20
1319.87501156308
 30
0.0
 10
695.2719054280276
 20
1319.885146319192
 30
0.0
 10
695.2719054280276
 20
1319.885146763248
 30
0.0
  0
ARC
  5
3C8
330
6C
100
AcDbEntity
  8
Visible Edges(Ram)
100
AcDbCircle
 10
694.2719054280274
 20
1319.885149983869
 30
0.0
 40
0.9999999999999944
100
AcDbArc
 50
0.0
 51
89.83923797308401
  0
LINE
  5
3C9
330
6C
100
AcDbEntity
  8
Visible Edges(Ram)
100
AcDbLine
 10
446.4564712240982
 20
1318.941397823573
 30
0.0
 11
446.4564712240982
 21
1305.870352547863
 31
0.0
  0
LINE
  5
3CA
330
6C
100
AcDbEntity
  8
Visible Edges(Ram)
100
AcDbLine
 10
388.3719054280305
 20
555.1703525478631
 30
0.0
 11
486.3719054280301
 21
555.1703525478631
 31
0.0
  0
ARC
  5
3CB
330
6C
100
AcDbEntity
  8
Visible Edges(Ram)
100
AcDbCircle
 10
486.3719054280301
 20
554.1703525478631
 30
0.0
 40
0.9999999999999996
100
AcDbArc
 50
0.0
 51
90.0
  0
ARC
  5
3CC
330
6C
100
AcDbEntity
  8
Visible Edges(Ram)
100
AcDbCircle
 10
388.3719054280305
 20
554.1703525478631
 30
0.0
 40
0.9999999999999996
100
AcDbArc
 50
90.0
 51
180.0
  0
LINE
  5
3CD
330
6C
100
AcDbEntity
  8
Visible Edges(Ram)
100
AcDbLine
 10
487.3719054280303
 20
525.1703525478631
 30
0.0
 11
387.3719054280305
 21
525.1703525478631
 31
0.0
  0
LINE
  5
3CE
330
6C
100
AcDbEntity
  8
Visible Edges(Ram)
100
AcDbLine
 10
487.3719054280303
 20
554.1703525478631
 30
0.0
 11
487.3719054280303
 21
525.1703525478631
 31
0.0
  0
LINE
  5
3CF
330
6C
100
AcDbEntity
  8
Visible Edges(Ram)
100
AcDbLine
 10
387.3719054280305
 20
554.1703525478631
 30
0.0
 11
387.3719054280305
 21
525.1703525478631
 31
0.0
  0
LINE
  5
3D0
330
6C
100
AcDbEntity
  8
Visible Edges(Ram)
100
AcDbLine
 10
459.8719054280303
 20
1372.194383664299
 30
0.0
 11
459.7297144657153
 21
1372.194383664299
 31
0.0
  0
LINE
  5
3D1
330
6C
100
AcDbEntity
  8
Visible Edges(Ram)
100
AcDbLine
 10
459.6628000082419
 20
1372.783281299323
 30
0.0
 11
459.8719054280303
 21
1372.783281299323
 31
0.0
  0
LINE
  5
3D2
330
6C
100
AcDbEntity
  8
Visible Edges(Ram)
100
AcDbLine
 10
459.6113588810204
 20
1373.281235585886
 30
0.0
 11
459.8719054280303
 21
1373.281235585886
 31
0.0
  0
LINE
  5
3D3
330
6C
100
AcDbEntity
  8
Visible Edges(Ram)
100
AcDbLine
 10
459.8719054280303
 20
1371.449426096356
 30
0.0
 11
459.8719054280303
 21
1378.491278999369
 31
0.0
  0
ARC
  5
3D4
330
6C
100
AcDbEntity
  8
Visible Edges(Ram)
100
AcDbCircle
 10
460.0219054280302
 20
1378.491278999369
 30
0.0
 40
0.15
100
AcDbArc
 50
37.6402108889329
 51
180.0
  0
ARC
  5
3D5
330
6C
100
AcDbEntity
  8
Visible Edges(Ram)
100
AcDbCircle
 10
460.0219054280302
 20
1371.449426096356
 30
0.0
 40
0.15
100
AcDbArc
 50
180.0
 51
322.3597891110533
  0
LINE
  5
3D6
330
6C
100
AcDbEntity
  8
Visible Edges(Ram)
100
AcDbLine
 10
459.7512564808231
 20
1378.295352547863
 30
0.0
 11
459.8719054280303
 21
1378.295352547863
 31
0.0
  0
LINE
  5
3D7
330
6C
100
AcDbEntity
  8
Visible Edges(Ram)
100
AcDbLine
 10
459.8092901516316
 20
1371.645352547863
 30
0.0
 11
459.8719054280303
 21
1371.645352547863
 31
0.0
  0
ARC
  5
3D8
330
6C
100
AcDbEntity
  8
Visible Edges(Ram)
100
AcDbCircle
 10
455.4565208126456
 20
1374.970352547863
 30
0.0
 40
5.915384615384616
100
AcDbArc
 50
322.3597891111063
 51
37.64021088889322
  0
SPLINE
  5
3D9
330
6C
100
AcDbEntity
  8
Visible Edges(Ram)
100
AcDbSpline
210
0.0
220
0.0
230
1.0
 70
     8
 71
     3
 72
    10
 73
     6
 74
     0
 42
0.000000001
 43
0.0000000001
 40
0.6819089062906416
 40
0.6819089062906416
 40
0.6819089062906416
 40
0.6819089062906416
 40
0.7478471772727373
 40
0.7478471772727373
 40
0.8271517516843886
 40
0.8271517516843886
 40
0.8271517516843886
 40
0.8271517516843886
 10
459.7310187545137
 20
1372.212804131179
 30
0.0
 10
459.7143302744735
 20
1372.339207790172
 30
0.0
 10
459.6963183193842
 20
1372.483379727944
 30
0.0
 10
459.6576254698168
 20
1372.824844546816
 30
0.0
 10
459.6353820600761
 20
1373.04288091984
 30
0.0
 10
459.6151229763801
 20
1373.281623997927
 30
0.0
  0
LINE
  5
3DA
330
6C
100
AcDbEntity
  8
Visible Edges(Ram)
100
AcDbLine
 10
437.3719054280299
 20
1364.470352547863
 30
0.0
 11
414.915539766984
 21
1369.470352547863
 31
0.0
  0
LINE
  5
3DB
330
6C
100
AcDbEntity
  8
Visible Edges(Ram)
100
AcDbLine
 10
437.3719054280301
 20
1364.470352547863
 30
0.0
 11
459.8719054280303
 21
1364.470352547863
 31
0.0
  0
LINE
  5
3DC
330
6C
100
AcDbEntity
  8
Visible Edges(Ram)
100
AcDbLine
 10
459.750033900246
 20
1378.435446405869
 30
0.0
 11
459.7512564808231
 21
1378.295352547863
 31
0.0
  0
LINE
  5
3DD
330
6C
100
AcDbEntity
  8
Visible Edges(Ram)
100
AcDbLine
 10
459.8092901516316
 20
1371.645352547863
 30
0.0
 11
459.8719054280303
 21
1364.470352547863
 31
0.0
  0
LINE
  5
3DE
330
6C
100
AcDbEntity
  8
Visible Edges(Ram)
100
AcDbLine
 10
415.0639726747486
 20
1386.479079083361
 30
0.0
 11
414.9155397669841
 21
1369.470352547863
 31
0.0
  0
LINE
  5
3DF
330
6C
100
AcDbEntity
  8
Visible Edges(Ram)
100
AcDbLine
 10
455.1856564681818
 20
1382.470352547863
 30
0.0
 11
511.877126480268
 21
1382.470352547863
 31
0.0
  0
ARC
  5
3E0
330
6C
100
AcDbEntity
  8
Visible Edges(Ram)
100
AcDbCircle
 10
516.3369598784814
 20
1383.470352547863
 30
0.0
 40
0.9999999999999984
100
AcDbArc
 50
270.0
 51
359.5000000000074
  0
LINE
  5
3E1
330
6C
100
AcDbEntity
  8
Visible Edges(Ram)
100
AcDbLine
 10
516.3369598784814
 20
1382.470352547863
 30
0.0
 11
511.877126480268
 21
1382.470352547863
 31
0.0
  0
SPLINE
  5
3E2
330
6C
100
AcDbEntity
  8
Visible Edges(Ram)
100
AcDbSpline
210
0.0
220
0.0
230
1.0
 70
     8
 71
     3
 72
    10
 73
     6
 74
     0
 42
0.000000001
 43
0.0000000001
 40
-0.8652674144235131
 40
-0.8652674144235131
 40
-0.8652674144235131
 40
-0.8652674144235131
 40
-0.8637060700923358
 40
-0.8637060700923358
 40
-0.8635495328985401
 40
-0.8635495328985401
 40
-0.8635495328985401
 40
-0.8635495328985401
 10
440.6563771873018
 20
1386.479072256236
 30
0.0
 10
440.6563829832289
 20
1386.473870041748
 30
0.0
 10
440.6575003085583
 20
1386.468359086503
 30
0.0
 10
440.6597579524881
 20
1386.462655006242
 30
0.0
 10
440.6599739723015
 20
1386.462138923861
 30
0.0
 10
440.6601974551906
 20
1386.461626012365
 30
0.0
  0
LINE
  5
3E3
330
6C
100
AcDbEntity
  8
Visible Edges(Ram)
100
AcDbLine
 10
416.0639345978128
 20
1387.470352547863
 30
0.0
 11
440.5284901836843
 21
1387.470352547863
 31
0.0
  0
LINE
  5
3E4
330
6C
100
AcDbEntity
  8
Visible Edges(Ram)
100
AcDbLine
 10
511.9033070836403
 20
1387.470352547863
 30
0.0
 11
440.5284901836843
 21
1387.470352547863
 31
0.0
  0
ARC
  5
3E5
330
6C
100
AcDbEntity
  8
Visible Edges(Ram)
100
AcDbCircle
 10
516.3631404818537
 20
1386.470352547863
 30
0.0
 40
0.9999999999999984
100
AcDbArc
 50
359.4999999999942
 51
89.99999999999664
  0
LINE
  5
3E6
330
6C
100
AcDbEntity
  8
Visible Edges(Ram)
100
AcDbLine
 10
511.9033070836403
 20
1387.470352547863
 30
0.0
 11
516.3631404818537
 21
1387.470352547863
 31
0.0
  0
ARC
  5
3E7
330
6C
100
AcDbEntity
  8
Visible Edges(Ram)
100
AcDbCircle
 10
416.0639345978128
 20
1386.470352547863
 30
0.0
 40
0.9999999999999998
100
AcDbArc
 50
90.00000000000339
 51
179.5000000000074
  0
LINE
  5
3E8
330
6C
100
AcDbEntity
  8
Visible Edges(Ram)
100
AcDbLine
 10
517.3369218015456
 20
1383.461626012364
 30
0.0
 11
517.3631024049178
 21
1386.461626012365
 31
0.0
  0
ARC
  5
3E9
330
6C
100
AcDbEntity
  8
Visible Edges(Ram)
100
AcDbCircle
 10
463.7498815925026
 20
1378.470352547863
 30
0.0
 40
3.999999999999998
100
AcDbArc
 50
90.00000000000088
 51
180.4999999999991
  0
DIMENSION
  5
3EA
330
6C
100
AcDbEntity
  8
Dimensions(Ram)
  6
Continuous
 62
     7
370
    25
100
AcDbDimension
280
     0
  2
*D51
 10
744.112386415395
 20
525.1703525478631
 30
0.0
 11
744.1123864153949
 21
915.0203525478634
 31
0.0
 70
   160
  1
<>
 71
     5
 42
779.7000000000007
 73
     0
 74
     0
 75
     0
  3
Whole Number
100
AcDbAlignedDimension
 13
694.2719054280273
 23
1304.870352547864
 33
0.0
 14
487.3719054280303
 24
525.1703525478631
 34
0.0
 50
90.0
100
AcDbRotatedDimension
1001
ACAD
1000
DSTYLE
1002
{
1070
   172
1070
     0
1070
   289
1070
     1
1070
   271
1070
     0
1070
   272
1070
     0
1070
    48
1040
0.0
1070
    47
1040
0.0
1002
}
  0
DIMENSION
  5
4CD
330
6C
100
AcDbEntity
  8
Dimensions(Ram)
  6
Continuous
 62
     7
370
    25
100
AcDbDimension
280
     0
  2
*D52
 10
296.8536373423988
 20
525.1703525478631
 30
0.0
 11
296.8536373423988
 21
956.3203525478629
 31
0.0
 70
   160
  1
<>
 71
     5
 42
860.0
 73
     0
 74
     0
 75
     0
  3
Whole Number
100
AcDbAlignedDimension
 13
416.0639345978128
 23
1387.470352547863
 33
0.0
 14
387.3719054280304
 24
525.1703525478631
 34
0.0
 50
90.0
100
AcDbRotatedDimension
1001
ACAD
1000
DSTYLE
1002
{
1070
   172
1070
     0
1070
   289
1070
     1
1070
   271
1070
     0
1070
   144
1040
0.9973327148324251
1070
   272
1070
     0
1070
    48
1040
0.0
1070
    47
1040
0.0
1002
}
  0
DIMENSION
  5
5B8
330
6C
100
AcDbEntity
  8
Dimensions(Ram)
  6
Continuous
 62
     7
370
    25
100
AcDbDimension
280
     0
  2
*D53
 10
687.3861616570434
 20
1234.274832887181
 30
0.0
 11
566.1773162297776
 21
1234.274832887181
 31
0.0
 70
   160
  1
<>
 71
     5
 42
250.0142562290132
 73
     0
 74
     0
 75
     0
  3
Whole Number
100
AcDbAlignedDimension
 13
437.3719054280303
 23
1299.170352547863
 33
0.0
 14
687.3861616570434
 24
1304.870352547864
 34
0.0
 50
180.0
100
AcDbRotatedDimension
1001
ACAD
1000
DSTYLE
1002
{
1070
   172
1070
     0
1070
   289
1070
     1
1070
   271
1070
     0
1070
   272
1070
     0
1070
    48
1040
0.0
1070
    47
1040
0.0
1002
}
  0
DIMENSION
  5
69A
330
6C
100
AcDbEntity
  8
Dimensions(Ram)
  6
Continuous
 62
     7
370
    25
100
AcDbDimension
280
     0
  2
*D54
 10
517.3631024049178
 20
1439.809444840985
 30
0.0
 11
477.3675039164738
 21
1439.809444840985
 31
0.0
 70
   160
  1
<>
 71
     5
 42
79.99119697688779
 73
     0
 74
     0
 75
     0
  3
Whole Number
100
AcDbAlignedDimension
 13
437.3719054280301
 23
1359.170352547863
 33
0.0
 14
517.3631024049178
 24
1386.461626012365
 34
0.0
 50
180.0
100
AcDbRotatedDimension
1001
ACAD
1000
DSTYLE
1002
{
1070
   172
1070
     0
1070
   289
1070
     1
1070
   271
1070
     0
1070
   272
1070
     0
1070
    48
1040
0.0
1070
    47
1040
0.0
1002
}
  0
DIMENSION
  5
77C
330
6C
100
AcDbEntity
  8
Dimensions(Ram)
  6
Continuous
 62
     7
370
    25
100
AcDbDimension
280
     0
  2
*D55
 10
554.0385720946971
 20
555.1703525478631
 30
0.0
 11
555.2324343712086
 21
608.5736223118699
 31
0.0
 70
   160
  1
<>
 71
     5
 42
30.0
 73
     0
 74
     0
 75
     0
  3
Whole Number
100
AcDbAlignedDimension
 13
487.3719054280303
 23
525.1703525478631
 33
0.0
 14
486.3719054280301
 24
555.1703525478631
 34
0.0
 50
270.0
100
AcDbRotatedDimension
1001
ACAD
1000
DSTYLE
1002
{
1070
   172
1070
     1
1070
   289
1070
     1
1070
   279
1070
     1
1070
    73
1070
     1
1070
    74
1070
     1
1070
   271
1070
     0
1070
   272
1070
     0
1070
    48
1040
0.0
1070
    47
1040
0.0
1002
}
  0
DIMENSION
  5
87E
330
6C
100
AcDbEntity
  8
Dimensions(Ram)
  6
Continuous
 62
     7
370
    25
100
AcDbDimension
280
     0
  2
*D56
 10
487.3719054280303
 20
400.8074055757983
 30
0.0
 11
437.3719054280304
 21
400.8074055757983
 31
0.0
 70
   160
  1
{\fAIGDT|b0|i0;\H16.6667;\ln\fArial|b0|i0;\H16.6667;}<>
 71
     5
 42
99.99999999999978
 73
     0
 74
     0
 75
     0
  3
Whole Number
100
AcDbAlignedDimension
 13
387.3719054280305
 23
525.1703525478631
 33
0.0
 14
487.3719054280303
 24
525.1703525478631
 34
0.0
 50
180.0
100
AcDbRotatedDimension
1001
ACAD
1000
DSTYLE
1002
{
1070
   172
1070
     0
1070
   289
1070
     1
1070
   271
1070
     0
1070
   272
1070
     0
1070
    48
1040
0.0
1070
    47
1040
0.0
1002
}
  0
DIMENSION
  5
961
330
6C
100
AcDbEntity
  8
Dimensions(Ram)
  6
Continuous
 62
     7
370
    25
100
AcDbDimension
280
     0
  2
*D57
 10
458.3719054280303
 20
727.9762155136175
 30
0.0
 11
533.1076807499314
 21
727.9762155136175
 31
0.0
 70
   160
  1
{Ø}<>
 71
     5
 42
42.00000000000005
 73
     0
 74
     0
 75
     0
  3
Whole Number
100
AcDbAlignedDimension
 13
416.3719054280303
 23
746.3598527716824
 33
0.0
 14
458.3719054280303
 24
746.3598527716824
 34
0.0
100
AcDbRotatedDimension
1001
ACAD
1000
DSTYLE
1002
{
1070
   172
1070
     1
1070
   289
1070
     1
1070
   271
1070
     0
1070
    76
1070
     1
1070
    75
1070
     1
1070
   272
1070
     0
1070
    48
1040
0.0
1070
    47
1040
0.0
1002
}
  0
LINE
  5
A56
330
6C
100
AcDbEntity
  8
Visible Edges(Ram)
100
AcDbLine
 10
948.2336925678024
 20
1299.170352547863
 30
0.0
 11
990.2336925678026
 21
1299.170352547863
 31
0.0
  0
LINE
  5
A57
330
6C
100
AcDbEntity
  8
Visible Edges(Ram)
100
AcDbLine
 10
948.2336925678028
 20
555.1703525478631
 30
0.0
 11
948.2336925678024
 21
1299.170352547863
 31
0.0
  0
LINE
  5
A58
330
6C
100
AcDbEntity
  8
Visible Edges(Ram)
100
AcDbLine
 10
990.2336925678026
 20
555.1703525478631
 30
0.0
 11
990.2336925678026
 21
1299.170352547863
 31
0.0
  0
LINE
  5
A59
330
6C
100
AcDbEntity
  8
Visible Edges(Ram)
100
AcDbLine
 10
990.2336925678026
 20
1299.170352547863
 30
0.0
 11
948.2336925678028
 21
1299.170352547863
 31
0.0
  0
LINE
  5
A5A
330
6C
100
AcDbEntity
  8
Visible Edges(Ram)
100
AcDbLine
 10
990.2336925678026
 20
1301.170352547863
 30
0.0
 11
948.2336925678028
 21
1301.170352547863
 31
0.0
  0
LINE
  5
A5B
330
6C
100
AcDbEntity
  8
Visible Edges(Ram)
100
AcDbLine
 10
990.2336925678026
 20
1301.170352547863
 30
0.0
 11
990.2336925678026
 21
1299.170352547863
 31
0.0
  0
LINE
  5
A5C
330
6C
100
AcDbEntity
  8
Visible Edges(Ram)
100
AcDbLine
 10
948.2336925678028
 20
1301.170352547863
 30
0.0
 11
948.2336925678028
 21
1299.170352547863
 31
0.0
  0
ARC
  5
A5D
330
6C
100
AcDbEntity
  8
Visible Edges(Ram)
100
AcDbCircle
 10
969.232481043481
 20
1357.494649357609
 30
0.0
 40
20.61700000000003
100
AcDbArc
 50
160.2237945307693
 51
175.3379858880243
  0
ARC
  5
A5E
330
6C
100
AcDbEntity
  8
Visible Edges(Ram)
100
AcDbCircle
 10
969.2349040921243
 20
1357.494649357609
 30
0.0
 40
20.61700000000002
100
AcDbArc
 50
4.662014111975728
 51
19.7762054692307
  0
LINE
  5
A5F
330
6C
100
AcDbEntity
  8
Visible Edges(Ram)
100
AcDbLine
 10
948.2336925678028
 20
1359.170352547863
 30
0.0
 11
990.2336925678024
 21
1359.170352547863
 31
0.0
  0
LINE
  5
A60
330
6C
100
AcDbEntity
  8
Visible Edges(Ram)
100
AcDbLine
 10
990.2336925678024
 20
1300.170352547863
 30
0.0
 11
948.2336925678028
 21
1300.170352547863
 31
0.0
  0
LINE
  5
A61
330
6C
100
AcDbEntity
  8
Visible Edges(Ram)
100
AcDbLine
 10
990.2336925678024
 20
1359.170352547863
 30
0.0
 11
990.2336925678024
 21
1300.170352547863
 31
0.0
  0
LINE
  5
A62
330
6C
100
AcDbEntity
  8
Visible Edges(Ram)
100
AcDbLine
 10
948.2336925678028
 20
1359.170352547863
 30
0.0
 11
948.2336925678028
 21
1300.170352547863
 31
0.0
  0
SPLINE
  5
A63
330
6C
100
AcDbEntity
  8
Visible Edges(Ram)
100
AcDbSpline
210
0.0
220
0.0
230
1.0
 70
     8
 71
     3
 72
    20
 73
    16
 74
     0
 42
0.000000001
 43
0.0000000001
 40
-4.564509691020862
 40
-4.564509691020862
 40
-4.564509691020862
 40
-4.564509691020862
 40
-4.135654106256281
 40
-4.135654106256281
 40
-3.679754756307373
 40
-3.679754756307373
 40
-2.92499593026633
 40
-2.92499593026633
 40
-2.118777895221211
 40
-2.118777895221211
 40
-1.354232941090825
 40
-1.354232941090825
 40
-0.6391960191064631
 40
-0.6391960191064631
 40
-0.1804101820066404
 40
-0.1804101820066404
 40
-0.1804101820066404
 40
-0.1804101820066404
 10
987.3221582782075
 20
1319.924684448502
 30
0.0
 10
986.6003492044203
 20
1320.053770259308
 30
0.0
 10
985.7559630297597
 20
1320.197627841581
 30
0.0
 10
983.7873815317907
 20
1320.501829803066
 30
0.0
 10
982.6547147240294
 20
1320.661603782311
 30
0.0
 10
979.384645786153
 20
1321.057265404875
 30
0.0
 10
977.0990916456032
 20
1321.269945833734
 30
0.0
 10
972.0791588367085
 20
1321.540300054875
 30
0.0
 10
969.3781555150335
 20
1321.58217059198
 30
0.0
 10
964.1804195938147
 20
1321.452359480575
 30
0.0
 10
961.7332023760512
 20
1321.293654457695
 30
0.0
 10
957.3807674577839
 20
1320.872798434483
 30
0.0
 10
955.4815888846054
 20
1320.622307475615
 30
0.0
 10
952.8295014783935
 20
1320.217724655798
 30
0.0
 10
951.9173046045853
 20
1320.062760133082
 30
0.0
 10
951.1452268574041
 20
1319.924684448502
 30
0.0
  0
LINE
  5
A64
330
6C
100
AcDbEntity
  8
Visible Edges(Ram)
100
AcDbLine
 10
962.2326268245737
 20
1304.870352547864
 30
0.0
 11
955.2335593499623
 21
1304.870352547864
 31
0.0
  0
LINE
  5
A65
330
6C
100
AcDbEntity
  8
Visible Edges(Ram)
100
AcDbLine
 10
951.3314074550407
 20
1304.870352547863
 30
0.0
 11
955.2335593499623
 21
1304.870352547864
 31
0.0
  0
LINE
  5
A66
330
6C
100
AcDbEntity
  8
Visible Edges(Ram)
100
AcDbLine
 10
983.2338257857882
 20
1304.870352547863
 30
0.0
 11
987.1359776805707
 21
1304.870352547863
 31
0.0
  0
LINE
  5
A67
330
6C
100
AcDbEntity
  8
Visible Edges(Ram)
100
AcDbLine
 10
983.233825785788
 20
1304.870352547864
 30
0.0
 11
976.2347583111811
 21
1304.870352547864
 31
0.0
  0
LINE
  5
A68
330
6C
100
AcDbEntity
  8
Visible Edges(Ram)
100
AcDbLine
 10
962.2326268245737
 20
1304.870352547864
 30
0.0
 11
976.2347583111811
 21
1304.870352547864
 31
0.0
  0
SPLINE
  5
A69
330
6C
100
AcDbEntity
  8
Visible Edges(Ram)
100
AcDbSpline
210
0.0
220
0.0
230
1.0
 70
     8
 71
     3
 72
    14
 73
    10
 74
     0
 42
0.000000001
 43
0.0000000001
 40
0.9222301631890827
 40
0.9222301631890827
 40
0.9222301631890827
 40
0.9222301631890827
 40
0.9394854253322806
 40
0.9394854253322806
 40
0.9567406874754784
 40
0.9567406874754784
 40
1.020123601421182
 40
1.020123601421182
 40
1.163512121673649
 40
1.163512121673649
 40
1.163512121673649
 40
1.163512121673649
 10
950.3003710341467
 20
1305.870352547863
 30
0.0
 10
950.3003710341467
 20
1305.812835007386
 30
0.0
 10
950.3059157635854
 20
1305.752070204292
 30
0.0
 10
950.3267496905568
 20
1305.638789768615
 30
0.0
 10
950.3418777175792
 20
1305.586101439452
 30
0.0
 10
950.4166673714927
 20
1305.378427846628
 30
0.0
 10
950.514184785519
 20
1305.249449727352
 30
0.0
 10
950.8045550832786
 20
1304.96823014509
 30
0.0
 10
951.0815558687164
 20
1304.870352547863
 30
0.0
 10
951.3314074550407
 20
1304.870352547863
 30
0.0
  0
SPLINE
  5
A6A
330
6C
100
AcDbEntity
  8
Visible Edges(Ram)
100
AcDbSpline
210
0.0
220
0.0
230
1.0
 70
     8
 71
     3
 72
    14
 73
    10
 74
     0
 42
0.000000001
 43
0.0000000001
 40
0.6809482047045154
 40
0.6809482047045154
 40
0.6809482047045154
 40
0.6809482047045154
 40
0.8243367249569832
 40
0.8243367249569832
 40
0.8877196389026874
 40
0.8877196389026874
 40
0.9049749010458851
 40
0.9049749010458851
 40
0.9222301631890827
 40
0.9222301631890827
 40
0.9222301631890827
 40
0.9222301631890827
 10
987.1359776805707
 20
1304.870352547863
 30
0.0
 10
987.3858292668952
 20
1304.870352547863
 30
0.0
 10
987.6628300523323
 20
1304.96823014509
 30
0.0
 10
987.9532003500921
 20
1305.249449727352
 30
0.0
 10
988.0507177641181
 20
1305.378427846628
 30
0.0
 10
988.1255074180314
 20
1305.586101439452
 30
0.0
 10
988.1406354450536
 20
1305.638789768615
 30
0.0
 10
988.1614693720253
 20
1305.752070204292
 30
0.0
 10
988.1670141014639
 20
1305.812835007386
 30
0.0
 10
988.1670141014639
 20
1305.870352547863
 30
0.0
  0
SPLINE
  5
A6B
330
6C
100
AcDbEntity
  8
Visible Edges(Ram)
100
AcDbSpline
210
0.0
220
0.0
230
1.0
 70
     8
 71
     3
 72
    16
 73
    12
 74
     0
 42
0.000000001
 43
0.0000000001
 40
0.0
 40
0.0
 40
0.0
 40
0.0
 40
0.1425138932504749
 40
0.1425138932504749
 40
0.2166835636725157
 40
0.2166835636725157
 40
0.2506189010900484
 40
0.2506189010900484
 40
0.2660453774662143
 40
0.2660453774662143
 40
0.2809727840028704
 40
0.2809727840028704
 40
0.2809727840028704
 40
0.2809727840028704
 10
951.1452268574041
 20
1319.924684448502
 30
0.0
 10
950.904891854274
 20
1319.881703776922
 30
0.0
 10
950.6943709600216
 20
1319.758121090915
 30
0.0
 10
950.4671780560236
 20
1319.498159491586
 30
0.0
 10
950.4055820727126
 20
1319.396330375334
 30
0.0
 10
950.3442274222788
 20
1319.23441912489
 30
0.0
 10
950.3276239413336
 20
1319.177820698156
 30
0.0
 10
950.3111169527375
 20
1319.087906405967
 30
0.0
 10
950.3070744546107
 20
1319.058893426606
 30
0.0
 10
950.3017236895018
 20
1319.00015252693
 30
0.0
 10
950.3003710341467
 20
1318.970916946995
 30
0.0
 10
950.3003710341467
 20
1318.941397823572
 30
0.0
  0
SPLINE
  5
A6C
330
6C
100
AcDbEntity
  8
Visible Edges(Ram)
100
AcDbSpline
210
0.0
220
0.0
230
1.0
 70
     8
 71
     3
 72
    16
 73
    12
 74
     0
 42
0.000000001
 43
0.0000000001
 40
0.0
 40
0.0
 40
0.0
 40
0.0
 40
0.0167525218451694
 40
0.0167525218451694
 40
0.037777405698534
 40
0.037777405698534
 40
0.0731823518223362
 40
0.0731823518223362
 40
0.1331559636151523
 40
0.1331559636151523
 40
0.1942462540530019
 40
0.1942462540530019
 40
0.1942462540530019
 40
0.1942462540530019
 10
988.1670141014639
 20
1318.941397823572
 30
0.0
 10
988.1670141014639
 20
1318.997239563056
 30
0.0
 10
988.1621791823633
 20
1319.05137618183
 30
0.0
 10
988.142246769194
 20
1319.168661273147
 30
0.0
 10
988.1252293761452
 20
1319.228301378372
 30
0.0
 10
988.0716045260603
 20
1319.37150387688
 30
0.0
 10
988.0278435310318
 20
1319.448114246679
 30
0.0
 10
987.9061289364747
 20
1319.617927968672
 30
0.0
 10
987.8082646240294
 20
1319.710037339529
 30
0.0
 10
987.5781941530135
 20
1319.854056002801
 30
0.0
 10
987.451350369653
 20
1319.901580186614
 30
0.0
 10
987.3221582782075
 20
1319.924684448502
 30
0.0
  0
LINE
  5
A6D
330
6C
100
AcDbEntity
  8
Visible Edges(Ram)
100
AcDbLine
 10
950.3003710341467
 20
1318.941397823572
 30
0.0
 11
950.3003710341467
 21
1305.870352547863
 31
0.0
  0
LINE
  5
A6E
330
6C
100
AcDbEntity
  8
Visible Edges(Ram)
100
AcDbLine
 10
988.1670141014639
 20
1305.870352547863
 30
0.0
 11
988.1670141014639
 21
1318.941397823572
 31
0.0
  0
LINE
  5
A6F
330
6C
100
AcDbEntity
  8
Visible Edges(Ram)
100
AcDbLine
 10
920.2336925678027
 20
555.1703525478631
 30
0.0
 11
1018.233692567802
 21
555.1703525478631
 31
0.0
  0
ARC
  5
A70
330
6C
100
AcDbEntity
  8
Visible Edges(Ram)
100
AcDbCircle
 10
1018.233692567802
 20
554.1703525478631
 30
0.0
 40
0.9999999999999996
100
AcDbArc
 50
0.0
 51
90.0
  0
ARC
  5
A71
330
6C
100
AcDbEntity
  8
Visible Edges(Ram)
100
AcDbCircle
 10
920.2336925678027
 20
554.1703525478631
 30
0.0
 40
0.9999999999999998
100
AcDbArc
 50
90.0
 51
180.0
  0
LINE
  5
A72
330
6C
100
AcDbEntity
  8
Visible Edges(Ram)
100
AcDbLine
 10
1019.233692567802
 20
525.1703525478631
 30
0.0
 11
919.2336925678027
 21
525.1703525478631
 31
0.0
  0
LINE
  5
A73
330
6C
100
AcDbEntity
  8
Visible Edges(Ram)
100
AcDbLine
 10
1019.233692567802
 20
554.1703525478631
 30
0.0
 11
1019.233692567802
 21
525.1703525478631
 31
0.0
  0
LINE
  5
A74
330
6C
100
AcDbEntity
  8
Visible Edges(Ram)
100
AcDbLine
 10
919.2336925678027
 20
554.1703525478631
 30
0.0
 11
919.2336925678027
 21
525.1703525478631
 31
0.0
  0
CIRCLE
  5
A75
330
6C
100
AcDbEntity
  8
Visible Edges(Ram)
100
AcDbCircle
 10
969.2336925678093
 20
1374.970352547863
 30
0.0
 40
3.670926451507197
  0
LINE
  5
A76
330
6C
100
AcDbEntity
  8
Visible Edges(Ram)
100
AcDbLine
 10
946.7336925678027
 20
1364.470352547863
 30
0.0
 11
991.7336925678025
 21
1364.470352547863
 31
0.0
  0
LINE
  5
A77
330
6C
100
AcDbEntity
  8
Visible Edges(Ram)
100
AcDbLine
 10
991.5416253210842
 20
1386.479079083361
 30
0.0
 11
991.7336925678025
 21
1364.470352547863
 31
0.0
  0
LINE
  5
A78
330
6C
100
AcDbEntity
  8
Visible Edges(Ram)
100
AcDbLine
 10
946.925759814521
 20
1386.479079083361
 30
0.0
 11
946.7336925678027
 21
1364.470352547863
 31
0.0
  0
SPLINE
  5
A79
330
6C
100
AcDbEntity
  8
Visible Edges(Ram)
100
AcDbSpline
210
0.0
220
0.0
230
1.0
 70
     8
 71
     3
 72
    10
 73
     6
 74
     0
 42
0.000000001
 43
0.0000000001
 40
-0.8725147413700153
 40
-0.8725147413700153
 40
-0.8725147413700153
 40
-0.8725147413700153
 40
-0.8723582041762208
 40
-0.8723582041762208
 40
-0.8707968598450378
 40
-0.8707968598450378
 40
-0.8707968598450378
 40
-0.8707968598450378
 10
991.2980936420094
 20
1386.461626012365
 30
0.0
 10
991.2981224224662
 20
1386.462138923861
 30
0.0
 10
991.2981500583184
 20
1386.462655006242
 30
0.0
 10
991.2984361392595
 20
1386.468359086503
 30
0.0
 10
991.298553620088
 20
1386.473870041671
 30
0.0
 10
991.298508715818
 20
1386.479072256236
 30
0.0
  0
SPLINE
  5
A7A
330
6C
100
AcDbEntity
  8
Visible Edges(Ram)
100
AcDbSpline
210
0.0
220
0.0
230
1.0
 70
     8
 71
     3
 72
    10
 73
     6
 74
     0
 42
0.000000001
 43
0.0000000001
 40
-0.8652674144235131
 40
-0.8652674144235131
 40
-0.8652674144235131
 40
-0.8652674144235131
 40
-0.8637060700923358
 40
-0.8637060700923358
 40
-0.8635495328985401
 40
-0.8635495328985401
 40
-0.8635495328985401
 40
-0.8635495328985401
 10
947.1688764197894
 20
1386.479072256236
 30
0.0
 10
947.1688313832876
 20
1386.473870041748
 30
0.0
 10
947.1689489963477
 20
1386.468359086503
 30
0.0
 10
947.1692350772888
 20
1386.462655006242
 30
0.0
 10
947.169262713141
 20
1386.462138923861
 30
0.0
 10
947.1692914935976
 20
1386.461626012365
 30
0.0
  0
LINE
  5
A7B
330
6C
100
AcDbEntity
  8
Visible Edges(Ram)
100
AcDbLine
 10
947.9257217375852
 20
1387.470352547863
 30
0.0
 11
948.1608286527643
 21
1387.470352547863
 31
0.0
  0
LINE
  5
A7C
330
6C
100
AcDbEntity
  8
Visible Edges(Ram)
100
AcDbLine
 10
990.306556482843
 20
1387.470352547863
 30
0.0
 11
990.5416633980204
 21
1387.470352547863
 31
0.0
  0
SPLINE
  5
A7D
330
6C
100
AcDbEntity
  8
Visible Edges(Ram)
100
AcDbSpline
210
0.0
220
0.0
230
1.0
 70
     8
 71
     3
 72
    16
 73
    12
 74
     0
 42
0.000000001
 43
0.0000000001
 40
-0.1567111984683065
 40
-0.1567111984683065
 40
-0.1567111984683065
 40
-0.1567111984683065
 40
-0.1561175516276764
 40
-0.1561175516276764
 40
-0.1171881877638275
 40
-0.1171881877638275
 40
-0.0781187457857877
 40
-0.0781187457857877
 40
-0.0390573153849223
 40
-0.0390573153849223
 40
0.0
 40
0.0
 40
0.0
 40
0.0
 10
990.306556482843
 20
1387.470352547863
 30
0.0
 10
990.3085190202563
 20
1387.470352547863
 30
0.0
 10
990.3104815537247
 20
1387.470346676559
 30
0.0
 10
990.441138443314
 20
1387.469564898297
 30
0.0
 10
990.5684661855779
 20
1387.443554258634
 30
0.0
 10
990.8065834118801
 20
1387.343775107689
 30
0.0
 10
990.9150374088376
 20
1387.270788050688
 30
0.0
 10
991.0980743683516
 20
1387.087024478563
 30
0.0
 10
991.1709144938617
 20
1386.97801226487
 30
0.0
 10
991.271044772181
 20
1386.737983232957
 30
0.0
 10
991.2973816125044
 20
1386.609265175428
 30
0.0
 10
991.298508656801
 20
1386.479079083361
 30
0.0
  0
SPLINE
  5
A7E
330
6C
100
AcDbEntity
  8
Visible Edges(Ram)
100
AcDbSpline
210
0.0
220
0.0
230
1.0
 70
     8
 71
     3
 72
    16
 73
    12
 74
     0
 42
0.000000001
 43
0.0000000001
 40
-0.1561188810019791
 40
-0.1561188810019791
 40
-0.1561188810019791
 40
-0.1561188810019791
 40
-0.1170612330356826
 40
-0.1170612330356826
 40
-0.0779994700184106
 40
-0.0779994700184106
 40
-0.0389296953557429
 40
-0.0389296953557429
 40
0.0
 40
0.0
 40
0.0005936518956477
 40
0.0005936518956477
 40
0.0005936518956477
 40
0.0005936518956477
 10
947.1688764788062
 20
1386.479079083361
 30
0.0
 10
947.1700035231027
 20
1386.609265175428
 30
0.0
 10
947.1963403634262
 20
1386.737983232956
 30
0.0
 10
947.2964706417457
 20
1386.97801226487
 30
0.0
 10
947.3693107672556
 20
1387.087024478562
 30
0.0
 10
947.5523477267696
 20
1387.270788050688
 30
0.0
 10
947.6608017237271
 20
1387.343775107689
 30
0.0
 10
947.8989189500296
 20
1387.443554258634
 30
0.0
 10
948.0262466922972
 20
1387.469564898296
 30
0.0
 10
948.1569035818823
 20
1387.470346676559
 30
0.0
 10
948.1588661153509
 20
1387.470352547863
 30
0.0
 10
948.1608286527643
 20
1387.470352547863
 30
0.0
  0
LINE
  5
A7F
330
6C
100
AcDbEntity
  8
Visible Edges(Ram)
100
AcDbLine
 10
955.9146150677072
 20
1387.470352547863
 30
0.0
 11
948.1608286527643
 21
1387.470352547863
 31
0.0
  0
LINE
  5
A80
330
6C
100
AcDbEntity
  8
Visible Edges(Ram)
100
AcDbLine
 10
955.9146150677072
 20
1387.470352547863
 30
0.0
 11
960.8851806164576
 21
1387.470352547863
 31
0.0
  0
LINE
  5
A81
330
6C
100
AcDbEntity
  8
Visible Edges(Ram)
100
AcDbLine
 10
990.306556482843
 20
1387.470352547863
 30
0.0
 11
982.5527700679414
 21
1387.470352547863
 31
0.0
  0
LINE
  5
A82
330
6C
100
AcDbEntity
  8
Visible Edges(Ram)
100
AcDbLine
 10
977.5822045191933
 20
1387.470352547863
 30
0.0
 11
960.8851806164576
 21
1387.470352547863
 31
0.0
  0
LINE
  5
A83
330
6C
100
AcDbEntity
  8
Visible Edges(Ram)
100
AcDbLine
 10
977.5822045191933
 20
1387.470352547863
 30
0.0
 11
982.5527700679414
 21
1387.470352547863
 31
0.0
  0
ARC
  5
A84
330
6C
100
AcDbEntity
  8
Visible Edges(Ram)
100
AcDbCircle
 10
947.9257217375852
 20
1386.470352547863
 30
0.0
 40
0.9999999999999975
100
AcDbArc
 50
90.00000000000676
 51
179.5000000000074
  0
ARC
  5
A85
330
6C
100
AcDbEntity
  8
Visible Edges(Ram)
100
AcDbCircle
 10
990.5416633980204
 20
1386.470352547863
 30
0.0
 40
0.9999999999999975
100
AcDbArc
 50
0.4999999999925733
 51
90.0
  0
SPLINE
  5
A86
330
6C
100
AcDbEntity
  8
Visible Edges(Ram)
100
AcDbSpline
210
0.0
220
0.0
230
1.0
 70
    12
 71
     2
 72
     6
 73
     3
 74
     0
 42
0.000000001
 43
0.0000000001
 40
0.7927011558421433
 40
0.7927011558421433
 40
0.7927011558421433
 40
1.0940141731429
 40
1.0940141731429
 40
1.0940141731429
 10
991.2980936420094
 20
1386.461626012365
 30
0.0
 41
1.0
 10
991.2286788677782
 20
1385.224549199951
 30
0.0
 41
1.0
 10
991.1461018287907
 20
1382.470352547863
 30
0.0
 41
1.0
  0
SPLINE
  5
A87
330
6C
100
AcDbEntity
  8
Visible Edges(Ram)
100
AcDbSpline
210
0.0
220
0.0
230
1.0
 70
    12
 71
     2
 72
     6
 73
     3
 74
     0
 42
0.000000001
 43
0.0000000001
 40
3.446714341646126
 40
3.446714341646126
 40
3.446714341646126
 40
3.803226645190986
 40
3.803226645190986
 40
3.803226645190986
 10
991.1461018287907
 20
1382.470352547863
 30
0.0
 41
1.0
 10
991.0973387353704
 20
1380.843954334883
 30
0.0
 41
1.0
 10
991.043985834071
 20
1378.688521892422
 30
0.0
 41
1.0
  0
SPLINE
  5
A88
330
6C
100
AcDbEntity
  8
Visible Edges(Ram)
100
AcDbSpline
210
0.0
220
0.0
230
1.0
 70
    12
 71
     2
 72
     6
 73
     3
 74
     0
 42
0.000000001
 43
0.0000000001
 40
0.8981662827529326
 40
0.8981662827529326
 40
0.8981662827529326
 40
1.254678586284063
 40
1.254678586284063
 40
1.254678586284063
 10
947.4233993015372
 20
1378.688521892421
 30
0.0
 41
1.0
 10
947.3700464002384
 20
1380.843954334841
 30
0.0
 41
1.0
 10
947.3212833068172
 20
1382.470352547863
 30
0.0
 41
1.0
  0
SPLINE
  5
A89
330
6C
100
AcDbEntity
  8
Visible Edges(Ram)
100
AcDbSpline
210
0.0
220
0.0
230
1.0
 70
    12
 71
     2
 72
     6
 73
     3
 74
     0
 42
0.000000001
 43
0.0000000001
 40
0.0
 40
0.0
 40
0.0
 40
0.3013130173007579
 40
0.3013130173007579
 40
0.3013130173007579
 10
947.3212833068172
 20
1382.470352547863
 30
0.0
 41
1.0
 10
947.2387062678294
 20
1385.224549199951
 30
0.0
 41
1.0
 10
947.1692914935976
 20
1386.461626012365
 30
0.0
 41
1.0
  0
SPLINE
  5
A8A
330
6C
100
AcDbEntity
  8
Visible Edges(Ram)
100
AcDbSpline
210
0.0
220
0.0
230
1.0
 70
     8
 71
     3
 72
    14
 73
    10
 74
     0
 42
0.000000001
 43
0.0000000001
 40
0.0
 40
0.0
 40
0.0
 40
0.0
 40
0.0008705064089206
 40
0.0008705064089206
 40
0.0146829301813225
 40
0.0146829301813225
 40
0.0274368845364642
 40
0.0274368845364642
 40
0.0275732665275444
 40
0.0275732665275444
 40
0.0275732665275444
 40
0.0275732665275444
 10
991.043985834071
 20
1378.688521892421
 30
0.0
 10
991.0439147947528
 20
1378.685651936948
 30
0.0
 10
991.0438394600124
 20
1378.682784878092
 30
0.0
 10
991.0424954795328
 20
1378.634477659466
 30
0.0
 10
991.0401503201343
 20
1378.590214622265
 30
0.0
 10
991.0332511680094
 20
1378.508281581531
 30
0.0
 10
991.0289712737228
 20
1378.471418385094
 30
0.0
 10
991.0236336865049
 20
1378.436190932368
 30
0.0
 10
991.0235771098813
 20
1378.435818519369
 30
0.0
 10
991.0235204294371
 20
1378.435446405869
 30
0.0
  0
SPLINE
  5
A8B
330
6C
100
AcDbEntity
  8
Visible Edges(Ram)
100
AcDbSpline
210
0.0
220
0.0
230
1.0
 70
     8
 71
     3
 72
    12
 73
     8
 74
     0
 42
0.000000001
 43
0.0000000001
 40
-0.0001366545167719
 40
-0.0001366545167719
 40
-0.0001366545167719
 40
-0.0001366545167719
 40
0.0
 40
0.0
 40
0.0135651875057844
 40
0.0135651875057844
 40
0.0275076048133658
 40
0.0275076048133658
 40
0.0275076048133658
 40
0.0275076048133658
 10
947.4438647061711
 20
1378.435446405869
 30
0.0
 10
947.4438080260853
 20
1378.435818517016
 30
0.0
 10
947.4437514487462
 20
1378.436190934742
 30
0.0
 10
947.4380891864493
 20
1378.473561204699
 30
0.0
 10
947.4336171859567
 20
1378.512783043287
 30
0.0
 10
947.4267561000823
 20
1378.597890415965
 30
0.0
 10
947.4245346102907
 20
1378.642655945862
 30
0.0
 10
947.4233993015372
 20
1378.688521892421
 30
0.0
  0
LINE
  5
A8C
330
6C
100
AcDbEntity
  8
Visible Edges(Ram)
100
AcDbLine
 10
949.7794410938253
 20
1382.470352547863
 30
0.0
 11
955.9381055796338
 21
1382.470352547863
 31
0.0
  0
LINE
  5
A8D
330
6C
100
AcDbEntity
  8
Visible Edges(Ram)
100
AcDbLine
 10
960.9086711283843
 20
1382.470352547863
 30
0.0
 11
955.9381055796338
 21
1382.470352547863
 31
0.0
  0
LINE
  5
A8E
330
6C
100
AcDbEntity
  8
Visible Edges(Ram)
100
AcDbLine
 10
960.9086711283843
 20
1382.470352547863
 30
0.0
 11
977.5587140072666
 21
1382.470352547863
 31
0.0
  0
LINE
  5
A8F
330
6C
100
AcDbEntity
  8
Visible Edges(Ram)
100
AcDbLine
 10
982.5292795560145
 20
1382.470352547863
 30
0.0
 11
977.5587140072666
 21
1382.470352547863
 31
0.0
  0
LINE
  5
A90
330
6C
100
AcDbEntity
  8
Visible Edges(Ram)
100
AcDbLine
 10
982.5292795560145
 20
1382.470352547863
 30
0.0
 11
988.6879440417907
 21
1382.470352547863
 31
0.0
  0
SPLINE
  5
A91
330
6C
100
AcDbEntity
  8
Visible Edges(Ram)
100
AcDbSpline
210
0.0
220
0.0
230
1.0
 70
     8
 71
     3
 72
    14
 73
    10
 74
     0
 42
0.000000001
 43
0.0000000001
 40
0.0000000000000001
 40
0.0000000000000001
 40
0.0000000000000001
 40
0.0000000000000001
 40
0.1357452717168735
 40
0.1357452717168735
 40
0.352937706463871
 40
0.352937706463871
 40
0.700445602059067
 40
0.700445602059067
 40
1.085962173734987
 40
1.085962173734987
 40
1.085962173734987
 40
1.085962173734987
 10
695.271905428232
 20
1652.277992337295
 30
0.0
 10
695.271905428232
 20
1652.793821678266
 30
0.0
 10
695.2215567298158
 20
1653.314359740291
 30
0.0
 10
694.9597956436404
 20
1654.642339573932
 30
0.0
 10
694.6729983516417
 20
1655.426194284188
 30
0.0
 10
693.6292693876402
 20
1657.312229568852
 30
0.0
 10
692.6939858349629
 20
1658.307863821389
 30
0.0
 10
690.3363039901486
 20
1659.812806958589
 30
0.0
 10
688.8709228618055
 20
1660.25295507346
 30
0.0
 10
687.402483975679
 20
1660.276926593991
 30
0.0
  0
SPLINE
  5
A92
330
6C
100
AcDbEntity
  8
Visible Edges(Ram)
100
AcDbSpline
210
0.0
220
0.0
230
1.0
 70
     8
 71
     3
 72
    14
 73
    10
 74
     0
 42
0.000000001
 43
0.0000000001
 40
0.0
 40
0.0
 40
0.0
 40
0.0
 40
0.1358745146694985
 40
0.1358745146694985
 40
0.3532737381406962
 40
0.3532737381406962
 40
0.7011124956946126
 40
0.7011124956946126
 40
1.086996117355987
 40
1.086996117355987
 40
1.086996117355987
 40
1.086996117355987
 10
687.4024839756787
 20
1630.276926593992
 30
0.0
 10
687.9200322100047
 20
1630.285375306595
 30
0.0
 10
688.4366057285594
 20
1630.344136741406
 30
0.0
 10
689.7547779609208
 20
1630.625801650072
 30
0.0
 10
690.5389300893095
 20
1630.926535513656
 30
0.0
 10
692.4062129306695
 20
1631.999306774826
 30
0.0
 10
693.3861236422822
 20
1632.948266340573
 30
0.0
 10
694.8567128840493
 20
1635.335575750024
 30
0.0
 10
695.2719054282318
 20
1636.809510739663
 30
0.0
 10
695.2719054282318
 20
1638.275860850688
 30
0.0
  0
SPLINE
  5
A93
330
6C
100
AcDbEntity
  8
Visible Edges(Ram)
100
AcDbSpline
210
0.0
220
0.0
230
1.0
 70
    24
 71
     3
 72
    20
 73
    16
 74
     0
 42
0.000000001
 43
0.0000000001
 40
2.783316514125699
 40
2.783316514125699
 40
2.783316514125699
 40
2.783316514125699
 40
4.229915990578883
 40
4.229915990578883
 40
9.064105694097612
 40
9.064105694097612
 40
12.08547425879681
 40
12.08547425879681
 40
13.59615854114641
 40
13.59615854114641
 40
16.01325339290578
 40
16.01325339290578
 40
19.88060515572076
 40
19.88060515572076
 40
24.17094851759363
 40
24.17094851759363
 40
24.17094851759363
 40
24.17094851759363
 10
473.5546583887813
 20
1626.785969230963
 30
0.0
 10
478.3760142344672
 20
1626.864675421419
 30
0.0
 10
483.1973700792976
 20
1626.943381611862
 30
0.0
 10
504.1305448177363
 20
1627.285105079398
 30
0.0
 10
520.2423637018458
 20
1627.548122356338
 30
0.0
 10
546.4240693663465
 20
1627.975525431002
 30
0.0
 10
556.4939561548611
 20
1628.139911228859
 30
0.0
 10
571.5987863289686
 20
1628.386489925504
 30
0.0
 10
576.6337297190032
 20
1628.468682824364
 30
0.0
 10
589.7245825291372
 20
1628.682384361335
 30
0.0
 10
597.7804919468651
 20
1628.813892999408
 30
0.0
 10
618.7258564208084
 20
1629.155815458198
 30
0.0
 10
631.6153114697499
 20
1629.366229278797
 30
0.0
 10
658.8040056813282
 20
1629.810070931096
 30
0.0
 10
673.1032448404635
 20
1630.043498762739
 30
0.0
 10
687.4024839756787
 20
1630.276926593992
 30
0.0
  0
SPLINE
  5
A94
330
6C
100
AcDbEntity
  8
Visible Edges(Ram)
100
AcDbSpline
210
0.0
220
0.0
230
1.0
 70
    24
 71
     3
 72
    14
 73
    10
 74
     0
 42
0.000000001
 43
0.0000000001
 40
0.0000000000000008
 40
0.0000000000000008
 40
0.0000000000000008
 40
0.0000000000000008
 40
0.1750266435825979
 40
0.1750266435825979
 40
0.4550692733147532
 40
0.4550692733147532
 40
0.9031374808862018
 40
0.9031374808862018
 40
1.400213148660777
 40
1.400213148660777
 40
1.400213148660777
 40
1.400213148660777
 10
695.2719054282318
 20
1638.275860850688
 30
0.0
 10
695.2719054282318
 20
1638.85782140398
 30
0.0
 10
695.2719054282318
 20
1639.440328354512
 30
0.0
 10
695.2719054282318
 20
1640.955915864934
 30
0.0
 10
695.2719054282318
 20
1641.889638329738
 30
0.0
 10
695.2719054282318
 20
1644.318599910695
 30
0.0
 10
695.271905428232
 20
1645.814608284829
 30
0.0
 10
695.271905428232
 20
1648.968043756758
 30
0.0
 10
695.271905428232
 20
1650.625224365946
 30
0.0
 10
695.271905428232
 20
1652.277992337295
 30
0.0
  0
SPLINE
  5
A95
330
6C
100
AcDbEntity
  8
Visible Edges(Ram)
100
AcDbSpline
210
0.0
220
0.0
230
1.0
 70
    24
 71
     3
 72
    14
 73
    10
 74
     0
 42
0.000000001
 43
0.0000000001
 40
0.0
 40
0.0
 40
0.0
 40
0.0
 40
3.021368564699203
 40
3.021368564699203
 40
7.855558268217928
 40
7.855558268217928
 40
15.59026179384789
 40
15.59026179384789
 40
21.38763200346784
 40
21.38763200346784
 40
21.38763200346784
 40
21.38763200346784
 10
687.402483975679
 20
1660.276926593991
 30
0.0
 10
677.3325972607388
 20
1660.441312390648
 30
0.0
 10
667.2627105339205
 20
1660.605698187499
 30
0.0
 10
641.0810050180527
 20
1661.033101259737
 30
0.0
 10
624.9691862133437
 20
1661.29611853538
 30
0.0
 10
583.0784572715982
 20
1661.979963452861
 30
0.0
 10
557.2995471078241
 20
1662.400791095135
 30
0.0
 10
512.1986440874193
 20
1663.13704047736
 30
0.0
 10
492.8766512449896
 20
1663.452462217078
 30
0.0
 10
473.5546583888071
 20
1663.767883957022
 30
0.0
  0
ARC
  5
A96
330
6C
100
AcDbEntity
  8
Visible Edges(Ram)
100
AcDbCircle
 10
437.3719054282346
 20
1645.276926593766
 30
0.0
 40
49.99999999999989
100
AcDbArc
 50
21.49644413260737
 51
338.5035558673909
  0
ELLIPSE
  5
A97
330
6C
100
AcDbEntity
  8
Visible Edges(Ram)
100
AcDbEllipse
 10
437.4156247169211
 20
1645.276926594006
 30
0.0
 11
22.50008494973275
 21
-0.0000000000016515
 31
0.0
210
0.0
220
0.0
230
1.0
 40
0.9999981122335023
 41
1.572739400178609
 42
4.710445907000971
  0
ARC
  5
A98
330
6C
100
AcDbEntity
  8
Visible Edges(Ram)
100
AcDbCircle
 10
437.3719054282346
 20
1645.276926594006
 30
0.0
 40
22.50000000000012
100
AcDbArc
 50
75.97547117210044
 51
89.99999999999941
  0
ARC
  5
A99
330
6C
100
AcDbEntity
  8
Visible Edges(Ram)
100
AcDbCircle
 10
437.3719054282346
 20
1645.276926594006
 30
0.0
 40
22.50000000000003
100
AcDbArc
 50
269.9999999999995
 51
284.0245288278973
  0
SPLINE
  5
A9A
330
6C
100
AcDbEntity
  8
Visible Edges(Ram)
100
AcDbSpline
210
0.0
220
0.0
230
1.0
 70
     8
 71
     3
 72
     8
 73
     4
 74
     0
 42
0.000000001
 43
0.0000000001
 40
-0.871651808925108
 40
-0.871651808925108
 40
-0.871651808925108
 40
-0.871651808925108
 40
-0.8707968598450378
 40
-0.8707968598450378
 40
-0.8707968598450378
 40
-0.8707968598450378
 10
440.6573577862991
 20
1667.341673700123
 30
0.0
 10
440.6567172510526
 20
1667.341743229882
 30
0.0
 10
440.6563808476187
 20
1667.341767330366
 30
0.0
 10
440.6563771875063
 20
1667.341742742027
 30
0.0
  0
SPLINE
  5
A9B
330
6C
100
AcDbEntity
  8
Visible Edges(Ram)
100
AcDbSpline
210
0.0
220
0.0
230
1.0
 70
     8
 71
     3
 72
     8
 73
     4
 74
     0
 42
0.000000001
 43
0.0000000001
 40
-0.8652674144235131
 40
-0.8652674144235131
 40
-0.8652674144235131
 40
-0.8652674144235131
 40
-0.8644124653434499
 40
-0.8644124653434499
 40
-0.8644124653434499
 40
-0.8644124653434499
 10
440.656377187506
 20
1623.212110445999
 30
0.0
 10
440.6563803611958
 20
1623.212085785253
 30
0.0
 10
440.6567168109103
 20
1623.212109892627
 30
0.0
 10
440.6573574876003
 20
1623.21217944344
 30
0.0
  0
SPLINE
  5
A9C
330
6C
100
AcDbEntity
  8
Visible Edges(Ram)
100
AcDbSpline
210
0.0
220
0.0
230
1.0
 70
     8
 71
     3
 72
    16
 73
    12
 74
     0
 42
0.000000001
 43
0.0000000001
 40
-0.1567111984683065
 40
-0.1567111984683065
 40
-0.1567111984683065
 40
-0.1567111984683065
 40
-0.1561175516276764
 40
-0.1561175516276764
 40
-0.1171881877638275
 40
-0.1171881877638275
 40
-0.0781187457857877
 40
-0.0781187457857877
 40
-0.0390573153849223
 40
-0.0390573153849223
 40
0.0
 40
0.0
 40
0.0
 40
0.0
 10
440.528490183888
 20
1666.349790509053
 30
0.0
 10
440.5287436661778
 20
1666.351753046466
 30
0.0
 10
440.5289971451063
 20
1666.353715579935
 30
0.0
 10
440.5458724789428
 20
1666.484372469524
 30
0.0
 10
440.5623053309486
 20
1666.611700211788
 30
0.0
 10
440.5930171203515
 20
1666.84981743809
 30
0.0
 10
440.6069949789836
 20
1666.958271435047
 30
0.0
 10
440.6305752591387
 20
1667.141308394561
 30
0.0
 10
440.6399534411873
 20
1667.214148520071
 30
0.0
 10
440.6528431427079
 20
1667.31427879839
 30
0.0
 10
440.6562321354898
 20
1667.340615638714
 30
0.0
 10
440.6563771793172
 20
1667.34174268301
 30
0.0
  0
SPLINE
  5
A9D
330
6C
100
AcDbEntity
  8
Visible Edges(Ram)
100
AcDbSpline
210
0.0
220
0.0
230
1.0
 70
     8
 71
     3
 72
    16
 73
    12
 74
     0
 42
0.000000001
 43
0.0000000001
 40
-0.1561188810019791
 40
-0.1561188810019791
 40
-0.1561188810019791
 40
-0.1561188810019791
 40
-0.1170612330356826
 40
-0.1170612330356826
 40
-0.0779994700184106
 40
-0.0779994700184106
 40
-0.0389296953557429
 40
-0.0389296953557429
 40
0.0
 40
0.0
 40
0.0005936518956477
 40
0.0005936518956477
 40
0.0005936518956477
 40
0.0005936518956477
 10
440.6563771793168
 20
1623.212110505016
 30
0.0
 10
440.6562321354893
 20
1623.213237549312
 30
0.0
 10
440.6528431427075
 20
1623.239574389636
 30
0.0
 10
440.6399534411869
 20
1623.339704667955
 30
0.0
 10
440.6305752591384
 20
1623.412544793465
 30
0.0
 10
440.6069949789833
 20
1623.595581752979
 30
0.0
 10
440.5930171203512
 20
1623.704035749937
 30
0.0
 10
440.5623053309478
 20
1623.942152976239
 30
0.0
 10
440.5458724789624
 20
1624.069480718507
 30
0.0
 10
440.5289971451057
 20
1624.200137608092
 30
0.0
 10
440.5287436661782
 20
1624.202100141561
 30
0.0
 10
440.5284901838887
 20
1624.204062678974
 30
0.0
  0
LINE
  5
A9E
330
6C
100
AcDbEntity
  8
Visible Edges(Ram)
100
AcDbLine
 10
440.6573386842786
 20
1623.212176656921
 30
0.0
 11
512.0113064395504
 21
1630.963698129923
 31
0.0
  0
SPLINE
  5
A9F
330
6C
100
AcDbEntity
  8
Visible Edges(Ram)
100
AcDbSpline
210
0.0
220
0.0
230
1.0
 70
     8
 71
     3
 72
    16
 73
    12
 74
     0
 42
0.000000001
 43
0.0000000001
 40
-0.7312587926286715
 40
-0.7312587926286715
 40
-0.7312587926286715
 40
-0.7312587926286715
 40
-0.438755275577203
 40
-0.438755275577203
 40
-0.1462517585257346
 40
-0.1462517585257346
 40
0.1462517585257338
 40
0.1462517585257338
 40
0.4387552755772023
 40
0.4387552755772023
 40
0.7312587926286707
 40
0.7312587926286707
 40
0.7312587926286707
 40
0.7312587926286707
 10
517.363140482058
 20
1636.928414642645
 30
0.0
 10
517.363140482058
 20
1636.34339194107
 30
0.0
 10
517.2769743550312
 20
1635.758443158491
 30
0.0
 10
516.9395858210565
 20
1634.638108279634
 30
0.0
 10
516.6884043571362
 20
1634.102858391318
 30
0.0
 10
516.0422849180596
 20
1633.127411851481
 30
0.0
 10
515.6474254785547
 20
1632.687333814623
 30
0.0
 10
514.7474648438015
 20
1631.939645953595
 30
0.0
 10
514.2424730876349
 20
1631.632127016027
 30
0.0
 10
513.16512883214
 20
1631.175716434652
 30
0.0
 10
512.5929073222667
 20
1631.026880204766
 30
0.0
 10
512.0113064395504
 20
1630.963698129923
 30
0.0
  0
LINE
  5
AA0
330
6C
100
AcDbEntity
  8
Visible Edges(Ram)
100
AcDbLine
 10
512.0113064395508
 20
1659.590155058102
 30
0.0
 11
440.657338684279
 21
1667.341676531105
 31
0.0
  0
LINE
  5
AA1
330
6C
100
AcDbEntity
  8
Visible Edges(Ram)
100
AcDbLine
 10
517.363140482058
 20
1636.928414642645
 30
0.0
 11
517.3631404820581
 21
1653.62543854538
 31
0.0
  0
SPLINE
  5
AA2
330
6C
100
AcDbEntity
  8
Visible Edges(Ram)
100
AcDbSpline
210
0.0
220
0.0
230
1.0
 70
     8
 71
     3
 72
    16
 73
    12
 74
     0
 42
0.000000001
 43
0.0000000001
 40
-0.7312587926286706
 40
-0.7312587926286706
 40
-0.7312587926286706
 40
-0.7312587926286706
 40
-0.4387552755772023
 40
-0.4387552755772023
 40
-0.1462517585257339
 40
-0.1462517585257339
 40
0.1462517585257344
 40
0.1462517585257344
 40
0.4387552755772028
 40
0.4387552755772028
 40
0.7312587926286711
 40
0.7312587926286711
 40
0.7312587926286711
 40
0.7312587926286711
 10
512.0113064395508
 20
1659.590155058102
 30
0.0
 10
512.592907322267
 20
1659.526972983258
 30
0.0
 10
513.1651288321402
 20
1659.378136753374
 30
0.0
 10
514.2424730876353
 20
1658.921726171997
 30
0.0
 10
514.7474648438016
 20
1658.614207234429
 30
0.0
 10
515.6474254785548
 20
1657.866519373402
 30
0.0
 10
516.04228491806
 20
1657.426441336544
 30
0.0
 10
516.6884043571366
 20
1656.450994796706
 30
0.0
 10
516.9395858210569
 20
1655.915744908391
 30
0.0
 10
517.2769743550317
 20
1654.795410029534
 30
0.0
 10
517.3631404820581
 20
1654.210461246955
 30
0.0
 10
517.3631404820581
 20
1653.62543854538
 30
0.0
  0
LINE
  5
AA3
330
6C
100
AcDbEntity
  8
Visible Edges(Ram)
100
AcDbLine
 10
510.313140601267
 20
1636.869914280317
 30
0.0
 11
510.3131406012669
 21
1636.405737458953
 31
0.0
  0
LINE
  5
AA4
330
6C
100
AcDbEntity
  8
Visible Edges(Ram)
100
AcDbLine
 10
508.6645125805626
 20
1636.869914280318
 30
0.0
 11
510.313140601267
 21
1636.869914280317
 31
0.0
  0
LINE
  5
AA5
330
6C
100
AcDbEntity
  8
Visible Edges(Ram)
100
AcDbLine
 10
508.664512580563
 20
1638.683938639669
 30
0.0
 11
508.6645125805626
 21
1636.869914280318
 31
0.0
  0
LINE
  5
AA6
330
6C
100
AcDbEntity
  8
Visible Edges(Ram)
100
AcDbLine
 10
510.3131406012676
 20
1638.683938639668
 30
0.0
 11
508.664512580563
 21
1638.683938639669
 31
0.0
  0
LINE
  5
AA7
330
6C
100
AcDbEntity
  8
Visible Edges(Ram)
100
AcDbLine
 10
510.3131406012678
 20
1639.148115461032
 30
0.0
 11
510.3131406012676
 21
1638.683938639668
 31
0.0
  0
LINE
  5
AA8
330
6C
100
AcDbEntity
  8
Visible Edges(Ram)
100
AcDbLine
 10
506.8131406608723
 20
1639.148115461033
 30
0.0
 11
510.3131406012678
 21
1639.148115461032
 31
0.0
  0
LINE
  5
AA9
330
6C
100
AcDbEntity
  8
Visible Edges(Ram)
100
AcDbLine
 10
506.8131406608721
 20
1638.683938639669
 30
0.0
 11
506.8131406608723
 21
1639.148115461033
 31
0.0
  0
LINE
  5
AAA
330
6C
100
AcDbEntity
  8
Visible Edges(Ram)
100
AcDbLine
 10
508.2510217339462
 20
1638.683938639669
 30
0.0
 11
506.8131406608721
 21
1638.683938639669
 31
0.0
  0
LINE
  5
AAB
330
6C
100
AcDbEntity
  8
Visible Edges(Ram)
100
AcDbLine
 10
508.2510217339457
 20
1636.869914280318
 30
0.0
 11
508.2510217339462
 21
1638.683938639669
 31
0.0
  0
LINE
  5
AAC
330
6C
100
AcDbEntity
  8
Visible Edges(Ram)
100
AcDbLine
 10
506.8131406608716
 20
1636.869914280318
 30
0.0
 11
508.2510217339457
 21
1636.869914280318
 31
0.0
  0
LINE
  5
AAD
330
6C
100
AcDbEntity
  8
Visible Edges(Ram)
100
AcDbLine
 10
506.8131406608716
 20
1636.405737458954
 30
0.0
 11
506.8131406608716
 21
1636.869914280318
 31
0.0
  0
LINE
  5
AAE
330
6C
100
AcDbEntity
  8
Visible Edges(Ram)
100
AcDbLine
 10
510.313140601267
 20
1636.405737458953
 30
0.0
 11
506.8131406608716
 21
1636.405737458954
 31
0.0
  0
LINE
  5
AAF
330
6C
100
AcDbEntity
  8
Visible Edges(Ram)
100
AcDbLine
 10
508.5631404820581
 20
1657.476926594013
 30
0.0
 11
509.8131404820581
 21
1655.311863084551
 31
0.0
  0
LINE
  5
AB0
330
6C
100
AcDbEntity
  8
Visible Edges(Ram)
100
AcDbLine
 10
507.3131404820582
 20
1655.311863084551
 30
0.0
 11
508.5631404820581
 21
1657.476926594013
 31
0.0
  0
LINE
  5
AB1
330
6C
100
AcDbEntity
  8
Visible Edges(Ram)
100
AcDbLine
 10
509.8131404820581
 20
1655.311863084551
 30
0.0
 11
507.3131404820582
 21
1655.311863084551
 31
0.0
  0
LINE
  5
AB2
330
6C
100
AcDbEntity
  8
Visible Edges(Ram)
100
AcDbLine
 10
508.563140482058
 20
1633.076926594013
 30
0.0
 11
507.313140482058
 21
1635.241990103474
 31
0.0
  0
LINE
  5
AB3
330
6C
100
AcDbEntity
  8
Visible Edges(Ram)
100
AcDbLine
 10
509.813140482058
 20
1635.241990103474
 30
0.0
 11
508.563140482058
 21
1633.076926594013
 31
0.0
  0
LINE
  5
AB4
330
6C
100
AcDbEntity
  8
Visible Edges(Ram)
100
AcDbLine
 10
507.313140482058
 20
1635.241990103474
 30
0.0
 11
509.813140482058
 21
1635.241990103474
 31
0.0
  0
SPLINE
  5
AB5
330
6C
100
AcDbEntity
  8
Visible Edges(Ram)
100
AcDbSpline
210
0.0
220
0.0
230
1.0
 70
     8
 71
     2
 72
     7
 73
     4
 74
     0
 42
0.000000001
 43
0.0000000001
 40
0.0
 40
0.0
 40
0.0
 40
1.0
 40
2.0
 40
2.0
 40
2.0
 10
509.9756785758228
 20
1652.859624629316
 30
0.0
 10
509.975678575823
 20
1653.24910633
 30
0.0
 10
509.5275078517481
 20
1653.787978272043
 30
0.0
 10
509.0846724934358
 20
1653.884014855773
 30
0.0
  0
SPLINE
  5
AB6
330
6C
100
AcDbEntity
  8
Visible Edges(Ram)
100
AcDbSpline
210
0.0
220
0.0
230
1.0
 70
     8
 71
     2
 72
     8
 73
     5
 74
     0
 42
0.000000001
 43
0.0000000001
 40
0.0
 40
0.0
 40
0.0
 40
1.0
 40
2.0
 40
3.0
 40
3.0
 40
3.0
 10
508.5351298198671
 20
1651.731194770485
 30
0.0
 10
508.9806328610607
 20
1651.731194770485
 30
0.0
 10
509.6475535814105
 20
1651.992627692861
 30
0.0
 10
509.9756785758226
 20
1652.539502683548
 30
0.0
 10
509.9756785758228
 20
1652.859624629316
 30
0.0
  0
SPLINE
  5
AB7
330
6C
100
AcDbEntity
  8
Visible Edges(Ram)
100
AcDbSpline
210
0.0
220
0.0
230
1.0
 70
     8
 71
     2
 72
     8
 73
     5
 74
     0
 42
0.000000001
 43
0.0000000001
 40
0.0
 40
0.0
 40
0.0
 40
1.0
 40
2.0
 40
3.0
 40
3.0
 40
3.0
 10
507.1506024044214
 20
1652.896972189656
 30
0.0
 10
507.1506024044213
 20
1652.494152074565
 30
0.0
 10
507.5374164222239
 20
1651.94994476676
 30
0.0
 10
508.1883310452853
 20
1651.731194770485
 30
0.0
 10
508.5351298198671
 20
1651.731194770485
 30
0.0
  0
SPLINE
  5
AB8
330
6C
100
AcDbEntity
  8
Visible Edges(Ram)
100
AcDbSpline
210
0.0
220
0.0
230
1.0
 70
     8
 71
     2
 72
     7
 73
     4
 74
     0
 42
0.000000001
 43
0.0000000001
 40
0.0
 40
0.0
 40
0.0
 40
1.0
 40
2.0
 40
2.0
 40
2.0
 10
507.881547513925
 20
1653.833328881027
 30
0.0
 10
507.5000688618849
 20
1653.710615468483
 30
0.0
 10
507.1506024044214
 20
1653.24910633
 30
0.0
 10
507.1506024044214
 20
1652.896972189656
 30
0.0
  0
LINE
  5
AB9
330
6C
100
AcDbEntity
  8
Visible Edges(Ram)
100
AcDbLine
 10
507.7721725157878
 20
1654.289502653747
 30
0.0
 11
507.881547513925
 21
1653.833328881027
 31
0.0
  0
SPLINE
  5
ABA
330
6C
100
AcDbEntity
  8
Visible Edges(Ram)
100
AcDbSpline
210
0.0
220
0.0
230
1.0
 70
     8
 71
     2
 72
     7
 73
     4
 74
     0
 42
0.000000001
 43
0.0000000001
 40
0.0
 40
0.0
 40
0.0
 40
1.0
 40
2.0
 40
2.0
 40
2.0
 10
506.753117655093
 20
1652.907642921182
 30
0.0
 10
506.7531176550931
 20
1653.433176448818
 30
0.0
 10
507.2893219142545
 20
1654.148115461033
 30
0.0
 10
507.7721725157878
 20
1654.289502653747
 30
0.0
  0
SPLINE
  5
ABB
330
6C
100
AcDbEntity
  8
Visible Edges(Ram)
100
AcDbSpline
210
0.0
220
0.0
230
1.0
 70
     8
 71
     2
 72
     8
 73
     5
 74
     0
 42
0.000000001
 43
0.0000000001
 40
0.0
 40
0.0
 40
0.0
 40
1.0
 40
2.0
 40
3.0
 40
3.0
 40
3.0
 10
508.5377975027483
 20
1651.253679534714
 30
0.0
 10
507.9909225120616
 20
1651.253679534714
 30
0.0
 10
507.1746115503536
 20
1651.672505747094
 30
0.0
 10
506.7531176550928
 20
1652.443466099819
 30
0.0
 10
506.753117655093
 20
1652.907642921182
 30
0.0
  0
SPLINE
  5
ABC
330
6C
100
AcDbEntity
  8
Visible Edges(Ram)
100
AcDbSpline
210
0.0
220
0.0
230
1.0
 70
     8
 71
     2
 72
     8
 73
     5
 74
     0
 42
0.000000001
 43
0.0000000001
 40
0.0
 40
0.0
 40
0.0
 40
1.0
 40
2.0
 40
3.0
 40
3.0
 40
3.0
 10
510.3731633251512
 20
1652.899639872537
 30
0.0
 10
510.3731633251511
 20
1652.33409110168
 30
0.0
 10
509.9116541866687
 20
1651.624487455228
 30
0.0
 10
509.0393218844512
 20
1651.253679534714
 30
0.0
 10
508.5377975027483
 20
1651.253679534714
 30
0.0
  0
SPLINE
  5
ABD
330
6C
100
AcDbEntity
  8
Visible Edges(Ram)
100
AcDbSpline
210
0.0
220
0.0
230
1.0
 70
     8
 71
     2
 72
     7
 73
     4
 74
     0
 42
0.000000001
 43
0.0000000001
 40
0.0
 40
0.0
 40
0.0
 40
1.0
 40
2.0
 40
2.0
 40
2.0
 10
509.2020505402175
 20
1654.348191677137
 30
0.0
 10
509.7729346768367
 20
1654.20146911866
 30
0.0
 10
510.3731633251515
 20
1653.446514863223
 30
0.0
 10
510.3731633251512
 20
1652.899639872537
 30
0.0
  0
LINE
  5
ABE
330
6C
100
AcDbEntity
  8
Visible Edges(Ram)
100
AcDbLine
 10
509.0846724934358
 20
1653.884014855773
 30
0.0
 11
509.2020505402175
 21
1654.348191677137
 31
0.0
  0
ENDSEC
  0
SECTION
  2
OBJECTS
  0
DICTIONARY
  5
C
330
0
100
AcDbDictionary
281
     1
  3
ACAD_CIP_PREVIOUS_PRODUCT_INFO
350
B3B
  3
ACAD_COLOR
350
63
  3
ACAD_DETAILVIEWSTYLE
350
B32
  3
ACAD_GROUP
350
D
  3
ACAD_LAYOUT
350
62
  3
ACAD_MATERIAL
350
10
  3
ACAD_MLEADERSTYLE
350
66
  3
ACAD_MLINESTYLE
350
5F
  3
ACAD_PLOTSETTINGS
350
61
  3
ACAD_PLOTSTYLENAME
350
E
  3
ACAD_SCALELIST
350
42
  3
ACAD_SECTIONVIEWSTYLE
350
B30
  3
ACAD_TABLESTYLE
350
64
  3
ACAD_VISUALSTYLE
350
29
  3
ACDB_RECOMPOSE_DATA
350
B74
  3
AcDbVariableDictionary
350
ABF
  0
DICTIONARY
  5
AD0
330
2E8
100
AcDbDictionary
280
     1
281
     1
  3
ACAD_MLATT
360
B5D
  3
ACAD_XREC_ROUNDTRIP
360
B5C
  0
DICTIONARY
  5
AD3
330
2F0
100
AcDbDictionary
280
     1
281
     1
  3
ACAD_MLATT
360
B5F
  3
ACAD_XREC_ROUNDTRIP
360
B5E
  0
DICTIONARY
  5
AD6
330
2F2
100
AcDbDictionary
280
     1
281
     1
  3
ACAD_MLATT
360
B61
  3
ACAD_XREC_ROUNDTRIP
360
B60
  0
DICTIONARY
  5
AD9
330
2F3
100
AcDbDictionary
280
     1
281
     1
  3
ACAD_MLATT
360
B63
  3
ACAD_XREC_ROUNDTRIP
360
B62
  0
DICTIONARY
  5
ADC
330
2F4
100
AcDbDictionary
280
     1
281
     1
  3
ACAD_MLATT
360
B65
  3
ACAD_XREC_ROUNDTRIP
360
B64
  0
DICTIONARY
  5
ADF
330
2F5
100
AcDbDictionary
280
     1
281
     1
  3
ACAD_MLATT
360
B67
  3
ACAD_XREC_ROUNDTRIP
360
B66
  0
DICTIONARY
  5
AE2
330
2F6
100
AcDbDictionary
280
     1
281
     1
  3
ACAD_MLATT
360
B69
  3
ACAD_XREC_ROUNDTRIP
360
B68
  0
DICTIONARY
  5
AE5
330
30E
100
AcDbDictionary
280
     1
281
     1
  3
ACAD_MTEXT_2008_RT
360
B6A
  0
DICTIONARY
  5
AE7
330
312
100
AcDbDictionary
280
     1
281
     1
  3
ACAD_MTEXT_2008_RT
360
B6B
  0
DICTIONARY
  5
AE9
330
318
100
AcDbDictionary
280
     1
281
     1
  3
ACAD_MLATT
360
B6D
  3
ACAD_XREC_ROUNDTRIP
360
B6C
  0
DICTIONARY
  5
AEC
330
356
100
AcDbDictionary
280
     1
281
     1
  3
ACAD_MLATT
360
B6F
  3
ACAD_XREC_ROUNDTRIP
360
B6E
  0
XRECORD
  5
B3B
102
{ACAD_REACTORS
330
C
102
}
330
C
100
AcDbXrecord
280
     1
300
ACD
300
2017
300
ACD_F_S
  0
DICTIONARY
  5
63
102
{ACAD_REACTORS
330
C
102
}
330
C
100
AcDbDictionary
281
     1
  0
DICTIONARY
  5
B32
102
{ACAD_REACTORS
330
C
102
}
330
C
100
AcDbDictionary
281
     1
  3
Metric50
350
B33
  0
DICTIONARY
  5
D
102
{ACAD_REACTORS
330
C
102
}
330
C
100
AcDbDictionary
281
     1
  0
DICTIONARY
  5
62
102
{ACAD_REACTORS
330
C
102
}
330
C
100
AcDbDictionary
281
     1
  3
Layout1
350
6B
  3
Layout2
350
73
  3
Model
350
6F
  0
DICTIONARY
  5
10
102
{ACAD_REACTORS
330
C
102
}
330
C
100
AcDbDictionary
281
     1
  3
ByBlock
350
19
  3
ByLayer
350
11
  3
Global
350
21
  0
DICTIONARY
  5
66
102
{ACAD_REACTORS
330
C
102
}
330
C
100
AcDbDictionary
281
     1
  3
Standard
350
67
  0
DICTIONARY
  5
5F
102
{ACAD_REACTORS
330
C
102
}
330
C
100
AcDbDictionary
281
     1
  3
Standard
350
60
  0
DICTIONARY
  5
61
102
{ACAD_REACTORS
330
C
102
}
330
C
100
AcDbDictionary
281
     1
  0
ACDBDICTIONARYWDFLT
  5
E
102
{ACAD_REACTORS
330
C
102
}
330
C
100
AcDbDictionary
281
     1
  3
Normal
350
F
100
AcDbDictionaryWithDefault
340
F
  0
DICTIONARY
  5
42
102
{ACAD_REACTORS
330
C
102
}
330
C
100
AcDbDictionary
281
     1
  3
A0
350
43
  3
A1
350
44
  3
A2
350
45
  3
A3
350
46
  3
A4
350
47
  3
A5
350
48
  3
A6
350
49
  3
A7
350
4A
  3
A8
350
4B
  3
A9
350
4C
  3
B0
350
4D
  3
B1
350
4E
  3
B2
350
4F
  3
B3
350
50
  3
B4
350
51
  3
B5
350
52
  3
B6
350
53
  0
DICTIONARY
  5
B30
102
{ACAD_REACTORS
330
C
102
}
330
C
100
AcDbDictionary
281
     1
  3
Metric50
350
B31
  0
DICTIONARY
  5
64
102
{ACAD_REACTORS
330
C
102
}
330
C
100
AcDbDictionary
281
     1
  3
Standard
350
65
  0
DICTIONARY
  5
29
102
{ACAD_REACTORS
330
C
102
}
330
C
100
AcDbDictionary
281
     1
  3
2dWireframe
350
2F
  3
Basic
350
2E
  3
Brighten
350
35
  3
ColorChange
350
39
  3
Conceptual
350
32
  3
Dim
350
34
  3
EdgeColorOff
350
41
  3
Facepattern
350
38
  3
Flat
350
2A
  3
FlatWithEdges
350
2B
  3
Gouraud
350
2C
  3
GouraudWithEdges
350
2D
  3
Hidden
350
31
  3
JitterOff
350
3F
  3
Linepattern
350
37
  3
OverhangOff
350
40
  3
Realistic
350
33
  3
Shaded
350
3E
  3
Shaded with edges
350
3D
  3
Shades of Gray
350
3A
  3
Sketchy
350
3B
  3
Thicken
350
36
  3
Wireframe
350
30
  3
X-Ray
350
3C
  0
XRECORD
  5
B74
102
{ACAD_REACTORS
330
C
102
}
330
C
100
AcDbXrecord
280
     1
 90
        1
330
65
330
2E8
330
2F0
330
2F2
330
2F3
330
2F4
330
2F5
330
2F6
330
30E
330
312
330
318
330
356
330
B31
330
B33
  0
DICTIONARY
  5
ABF
102
{ACAD_REACTORS
330
C
102
}
330
C
100
AcDbDictionary
281
     1
  3
CANNOSCALE
350
AC3
  3
CMLEADERSTYLE
350
AC1
  3
CTABLESTYLE
350
AC0
  3
CVIEWDETAILSTYLE
350
B59
  3
CVIEWSECTIONSTYLE
350
B5A
  3
DIMASSOC
350
ACA
  3
HIDETEXT
350
AC9
  3
INDEXCTL
350
AC8
  3
LAYEREVAL
350
AC5
  3
LAYERNOTIFY
350
AC6
  3
LIGHTINGUNITS
350
AC4
  3
MSLTSCALE
350
AC2
  3
SORTENTS
350
AC7
  0
XRECORD
  5
B5D
102
{ACAD_REACTORS
330
AD0
102
}
330
AD0
100
AcDbXrecord
280
     1
 70
     4
 70
     0
 70
     0
 40
1.0
  2
Enter_Prompt_for_Field
  1
Embedded Object
 10
0.1132214741620885
 20
2.80094937906048
 30
0.0
 40
2.489199936389923
 41
16.74543584364862
 46
0.0
 71
     5
 72
     5
  1
3
  7
Text Style14
 73
     1
 44
1.0
  0
XRECORD
  5
B5C
102
{ACAD_REACTORS
330
AD0
102
}
330
AD0
100
AcDbXrecord
280
     1
102
ACAD_MATT_HEIGHT
140
2.489199936389923
  0
XRECORD
  5
B5F
102
{ACAD_REACTORS
330
AD3
102
}
330
AD3
100
AcDbXrecord
280
     1
 70
     4
 70
     0
 70
     0
 40
1.0
  2
INSTRUCTIONS
  1
Embedded Object
 10
16.26863993311069
 20
9.208937597274767
 30
0.0
 40
2.489199936389923
 41
0.0
 46
0.0
 71
     1
 72
     5
  1
AAAA
  7
Text Style59
 73
     1
 44
1.0
  0
XRECORD
  5
B5E
102
{ACAD_REACTORS
330
AD3
102
}
330
AD3
100
AcDbXrecord
280
     1
102
ACAD_MATT_HEIGHT
140
2.489199936389923
  0
XRECORD
  5
B61
102
{ACAD_REACTORS
330
AD6
102
}
330
AD6
100
AcDbXrecord
280
     1
 70
     4
 70
     0
 70
     0
 40
1.0
  2
WELS_LABEL
  1
Embedded Object
 10
-1.770562104181223
 20
5.278937597274762
 30
0.0
 40
2.489199936389923
 41
0.0
 46
0.0
 71
     1
 72
     5
  1
BBBBB
  7
Text Style59
 73
     1
 44
1.0
  0
XRECORD
  5
B60
102
{ACAD_REACTORS
330
AD6
102
}
330
AD6
100
AcDbXrecord
280
     1
102
ACAD_MATT_HEIGHT
140
2.489199936389923
  0
XRECORD
  5
B63
102
{ACAD_REACTORS
330
AD9
102
}
330
AD9
100
AcDbXrecord
280
     1
 70
     4
 70
     0
 70
     0
 40
1.0
  2
CARTON
  1
Embedded Object
 10
-21.33546779636852
 20
1.348937597274755
 30
0.0
 40
2.489199936389923
 41
0.0
 46
0.0
 71
     1
 72
     5
  1
CCCC
  7
Text Style59
 73
     1
 44
1.0
  0
XRECORD
  5
B62
102
{ACAD_REACTORS
330
AD9
102
}
330
AD9
100
AcDbXrecord
280
     1
102
ACAD_MATT_HEIGHT
140
2.489199936389923
  0
XRECORD
  5
B65
102
{ACAD_REACTORS
330
ADC
102
}
330
ADC
100
AcDbXrecord
280
     1
 70
     4
 70
     0
 70
     0
 40
1.0
  2
MISC._PACKING
  1
Embedded Object
 10
-9.668322200110033
 20
-6.511062402725257
 30
0.0
 40
2.489199936389923
 41
0.0
 46
0.0
 71
     1
 72
     5
  1
DDDD
  7
Text Style59
 73
     1
 44
1.0
  0
XRECORD
  5
B64
102
{ACAD_REACTORS
330
ADC
102
}
330
ADC
100
AcDbXrecord
280
     1
102
ACAD_MATT_HEIGHT
140
2.489199936389923
  0
XRECORD
  5
B67
102
{ACAD_REACTORS
330
ADF
102
}
330
ADF
100
AcDbXrecord
280
     1
 70
     4
 70
     0
 70
     0
 40
1.0
  2
LABEL
  1
Embedded Object
 10
-25.37409511815028
 20
-2.581062402725251
 30
0.0
 40
2.489199936389923
 41
0.0
 46
0.0
 71
     1
 72
     5
  1
EEEE
  7
Text Style59
 73
     1
 44
1.0
  0
XRECORD
  5
B66
102
{ACAD_REACTORS
330
ADF
102
}
330
ADF
100
AcDbXrecord
280
     1
102
ACAD_MATT_HEIGHT
140
2.489199936389923
  0
XRECORD
  5
B69
102
{ACAD_REACTORS
330
AE2
102
}
330
AE2
100
AcDbXrecord
280
     1
 70
     4
 70
     0
 70
     0
 40
1.0
  2
WARRANTY_CARD
  1
Embedded Object
 10
-7.693882176127821
 20
-10.44106240272526
 30
0.0
 40
2.489199936389923
 41
0.0
 46
0.0
 71
     1
 72
     5
  1
FFFF
  7
Text Style59
 73
     1
 44
1.0
  0
XRECORD
  5
B68
102
{ACAD_REACTORS
330
AE2
102
}
330
AE2
100
AcDbXrecord
280
     1
102
ACAD_MATT_HEIGHT
140
2.489199936389923
  0
XRECORD
  5
B6A
102
{ACAD_REACTORS
330
AE5
102
}
330
AE5
100
AcDbXrecord
280
     1
 40
673191.0
  1
\pxsm0.94;\fArial|b0|i0;\H3.5000;QUOTATION \PONLY\P\fArial|b0|i0;\H2.5000;May be subject to alteration prior to production.
  0
XRECORD
  5
B6B
102
{ACAD_REACTORS
330
AE7
102
}
330
AE7
100
AcDbXrecord
280
     1
 40
214000.0
  1
\pxsm0.94;\fArial|b0|i0;\H7.0000;QUOTE\PONLY\P\fArial|b0|i0;\H2.5000;NOT FOR PRODUCTION
  0
XRECORD
  5
B6D
102
{ACAD_REACTORS
330
AE9
102
}
330
AE9
100
AcDbXrecord
280
     1
 70
     4
 70
     0
 70
     0
 40
1.0
  2
NUMBER
  1
Embedded Object
 10
8.495247572028903
 20
-3.266478676813732
 30
0.0
 40
2.489199936389923
 41
0.0
 46
0.0
 71
     2
 72
     5
  1
5
  7
Text Style14
 73
     1
 44
1.0
  0
XRECORD
  5
B6C
102
{ACAD_REACTORS
330
AE9
102
}
330
AE9
100
AcDbXrecord
280
     1
102
ACAD_MATT_HEIGHT
140
2.489199936389923
  0
XRECORD
  5
B6F
102
{ACAD_REACTORS
330
AEC
102
}
330
AEC
100
AcDbXrecord
280
     1
 70
     4
 70
     0
 70
     0
 40
1.0
  2
AMOUNT
  1
Embedded Object
 10
11.5
 20
-2.017962262069374
 30
0.0
 40
2.489199936389923
 41
0.0
 46
0.0
 71
     5
 72
     5
  1
10
  7
Text Style14
 73
     1
 44
1.0
  0
XRECORD
  5
B6E
102
{ACAD_REACTORS
330
AEC
102
}
330
AEC
100
AcDbXrecord
280
     1
102
ACAD_MATT_HEIGHT
140
2.489199936389923
  0
ACDBDETAILVIEWSTYLE
  5
B33
102
{ACAD_XDICTIONARY
360
B72
102
}
102
{ACAD_REACTORS
330
B32
102
}
330
B32
100
AcDbModelDocViewStyle
 70
     0
  3
Metric50
290
     0
100
AcDbDetailViewStyle
 70
     0
 71
     0
 90
        3
 71
     1
340
55
 62
   256
 40
5.0
340
0
 62
   256
 40
5.0
300

 40
0.0
280
     1
 71
     2
340
5D
 90
       25
 62
   256
 71
     3
340
55
 62
   256
 40
5.0
 90
        0
 40
15.0
 90
        1
300
%<\AcVar ViewDetailId>% (%<\AcVar ViewScale \f "%sn">%)
 71
     4
340
5D
 90
       25
 62
   256
340
5D
 90
       25
 62
   256
280
     0
  0
LAYOUT
  5
6B
102
{ACAD_REACTORS
330
62
102
}
330
62
100
AcDbPlotSettings
  1

  2

  4

  6

 40
0.0
 41
0.0
 42
0.0
 43
0.0
 44
0.0
 45
0.0
 46
0.0
 47
0.0
 48
0.0
 49
0.0
140
0.0
141
0.0
142
1.0
143
1.0
 70
   688
 72
     0
 73
     0
 74
     5
  7

 75
    16
147
1.0
 76
     0
 77
     2
 78
   300
148
0.0
149
0.0
100
AcDbLayout
  1
Layout1
 70
     1
 71
     1
 10
0.0
 20
0.0
 11
1400.0
 21
1980.0
 12
0.0
 22
0.0
 32
0.0
 14
0.0
 24
0.0
 34
0.0
 15
1400.0
 25
1980.0
 35
0.0
146
0.0
 13
0.0
 23
0.0
 33
0.0
 16
1.0
 26
0.0
 36
0.0
 17
0.0
 27
1.0
 37
0.0
 76
     0
330
68
  0
LAYOUT
  5
73
102
{ACAD_REACTORS
330
62
102
}
330
62
100
AcDbPlotSettings
  1

  2

  4

  6

 40
0.0
 41
0.0
 42
0.0
 43
0.0
 44
0.0
 45
0.0
 46
0.0
 47
0.0
 48
0.0
 49
0.0
140
0.0
141
0.0
142
1.0
143
1.0
 70
   688
 72
     0
 73
     0
 74
     5
  7

 75
    16
147
1.0
 76
     0
 77
     2
 78
   300
148
0.0
149
0.0
100
AcDbLayout
  1
Layout2
 70
     1
 71
     2
 10
0.0
 20
0.0
 11
12.0
 21
9.0
 12
0.0
 22
0.0
 32
0.0
 14
0.0
 24
0.0
 34
0.0
 15
0.0
 25
0.0
 35
0.0
146
0.0
 13
0.0
 23
0.0
 33
0.0
 16
1.0
 26
0.0
 36
0.0
 17
0.0
 27
1.0
 37
0.0
 76
     0
330
70
  0
LAYOUT
  5
6F
102
{ACAD_REACTORS
330
62
102
}
330
62
100
AcDbPlotSettings
  1

  2

  4

  6

 40
0.0
 41
0.0
 42
0.0
 43
0.0
 44
0.0
 45
0.0
 46
0.0
 47
0.0
 48
0.0
 49
0.0
140
0.0
141
0.0
142
1.0
143
1.0
 70
  1712
 72
     0
 73
     0
 74
     0
  7

 75
     0
147
1.0
 76
     0
 77
     2
 78
   300
148
0.0
149
0.0
100
AcDbLayout
  1
Model
 70
     1
 71
     0
 10
0.0
 20
0.0
 11
12.0
 21
9.0
 12
0.0
 22
0.0
 32
0.0
 14
0.0
 24
0.0
 34
0.0
 15
0.0
 25
0.0
 35
0.0
146
0.0
 13
0.0
 23
0.0
 33
0.0
 16
1.0
 26
0.0
 36
0.0
 17
0.0
 27
1.0
 37
0.0
 76
     0
330
6C
331
57
  0
MATERIAL
  5
19
102
{ACAD_XDICTIONARY
360
1A
102
}
102
{ACAD_REACTORS
330
10
102
}
330
10
100
AcDbMaterial
  1
ByBlock
 72
     0
 43
0.0208333333333333
 43
0.0
 43
0.0
 43
0.0
 43
0.0
 43
0.0208333333333333
 43
0.0
 43
0.0
 43
0.0
 43
0.0
 43
1.0
 43
0.0
 43
0.0
 43
0.0
 43
0.0
 43
1.0
 77
     0
 47
0.0208333333333333
 47
0.0
 47
0.0
 47
0.0
 47
0.0
 47
0.0208333333333333
 47
0.0
 47
0.0
 47
0.0
 47
0.0
 47
1.0
 47
0.0
 47
0.0
 47
0.0
 47
0.0
 47
1.0
171
     0
 49
0.0208333333333333
 49
0.0
 49
0.0
 49
0.0
 49
0.0
 49
0.0208333333333333
 49
0.0
 49
0.0
 49
0.0
 49
0.0
 49
1.0
 49
0.0
 49
0.0
 49
0.0
 49
0.0
 49
1.0
175
     0
142
0.0208333333333333
142
0.0
142
0.0
142
0.0
142
0.0
142
0.0208333333333333
142
0.0
142
0.0
142
0.0
142
0.0
142
1.0
142
0.0
142
0.0
142
0.0
142
0.0
142
1.0
179
     0
144
0.0208333333333333
144
0.0
144
0.0
144
0.0
144
0.0
144
0.0208333333333333
144
0.0
144
0.0
144
0.0
144
0.0
144
1.0
144
0.0
144
0.0
144
0.0
144
0.0
144
1.0
147
0.0208333333333333
147
0.0
147
0.0
147
0.0
147
0.0
147
0.0208333333333333
147
0.0
147
0.0
147
0.0
147
0.0
147
1.0
147
0.0
147
0.0
147
0.0
147
0.0
147
1.0
  0
MATERIAL
  5
11
102
{ACAD_XDICTIONARY
360
12
102
}
102
{ACAD_REACTORS
330
10
102
}
330
10
100
AcDbMaterial
  1
ByLayer
 72
     0
 43
0.0208333333333333
 43
0.0
 43
0.0
 43
0.0
 43
0.0
 43
0.0208333333333333
 43
0.0
 43
0.0
 43
0.0
 43
0.0
 43
1.0
 43
0.0
 43
0.0
 43
0.0
 43
0.0
 43
1.0
 77
     0
 47
0.0208333333333333
 47
0.0
 47
0.0
 47
0.0
 47
0.0
 47
0.0208333333333333
 47
0.0
 47
0.0
 47
0.0
 47
0.0
 47
1.0
 47
0.0
 47
0.0
 47
0.0
 47
0.0
 47
1.0
171
     0
 49
0.0208333333333333
 49
0.0
 49
0.0
 49
0.0
 49
0.0
 49
0.0208333333333333
 49
0.0
 49
0.0
 49
0.0
 49
0.0
 49
1.0
 49
0.0
 49
0.0
 49
0.0
 49
0.0
 49
1.0
175
     0
142
0.0208333333333333
142
0.0
142
0.0
142
0.0
142
0.0
142
0.0208333333333333
142
0.0
142
0.0
142
0.0
142
0.0
142
1.0
142
0.0
142
0.0
142
0.0
142
0.0
142
1.0
179
     0
144
0.0208333333333333
144
0.0
144
0.0
144
0.0
144
0.0
144
0.0208333333333333
144
0.0
144
0.0
144
0.0
144
0.0
144
1.0
144
0.0
144
0.0
144
0.0
144
0.0
144
1.0
147
0.0208333333333333
147
0.0
147
0.0
147
0.0
147
0.0
147
0.0208333333333333
147
0.0
147
0.0
147
0.0
147
0.0
147
1.0
147
0.0
147
0.0
147
0.0
147
0.0
147
1.0
  0
MATERIAL
  5
21
102
{ACAD_XDICTIONARY
360
22
102
}
102
{ACAD_REACTORS
330
10
102
}
330
10
100
AcDbMaterial
  1
Global
 72
     0
 43
0.0208333333333333
 43
0.0
 43
0.0
 43
0.0
 43
0.0
 43
0.0208333333333333
 43
0.0
 43
0.0
 43
0.0
 43
0.0
 43
1.0
 43
0.0
 43
0.0
 43
0.0
 43
0.0
 43
1.0
 77
     0
 47
0.0208333333333333
 47
0.0
 47
0.0
 47
0.0
 47
0.0
 47
0.0208333333333333
 47
0.0
 47
0.0
 47
0.0
 47
0.0
 47
1.0
 47
0.0
 47
0.0
 47
0.0
 47
0.0
 47
1.0
171
     0
 49
0.0208333333333333
 49
0.0
 49
0.0
 49
0.0
 49
0.0
 49
0.0208333333333333
 49
0.0
 49
0.0
 49
0.0
 49
0.0
 49
1.0
 49
0.0
 49
0.0
 49
0.0
 49
0.0
 49
1.0
175
     0
142
0.0208333333333333
142
0.0
142
0.0
142
0.0
142
0.0
142
0.0208333333333333
142
0.0
142
0.0
142
0.0
142
0.0
142
1.0
142
0.0
142
0.0
142
0.0
142
0.0
142
1.0
179
     0
144
0.0208333333333333
144
0.0
144
0.0
144
0.0
144
0.0
144
0.0208333333333333
144
0.0
144
0.0
144
0.0
144
0.0
144
1.0
144
0.0
144
0.0
144
0.0
144
0.0
144
1.0
147
0.0208333333333333
147
0.0
147
0.0
147
0.0
147
0.0
147
0.0208333333333333
147
0.0
147
0.0
147
0.0
147
0.0
147
1.0
147
0.0
147
0.0
147
0.0
147
0.0
147
1.0
  0
MLEADERSTYLE
  5
67
102
{ACAD_REACTORS
330
66
102
}
330
66
100
AcDbMLeaderStyle
179
     2
170
     2
171
     1
172
     0
 90
        2
 40
0.0
 41
0.0
173
     1
 91
-1056964608
340
5B
 92
       -2
290
     1
 42
0.09
291
     1
 43
0.36
  3
Standard
 44
0.18
300

342
55
174
     1
178
     6
175
     1
176
     0
 93
-1056964608
 45
0.18
292
     0
297
     0
 46
0.18
 94
-1056964608
 47
1.0
 49
1.0
140
1.0
293
     1
141
0.0
294
     1
177
     0
142
1.0
295
     0
296
     0
143
0.125
271
     0
272
     9
273
     9
298
     0
1001
ACAD_MLEADERVER
1070
     2
  0
MLINESTYLE
  5
60
102
{ACAD_REACTORS
330
5F
102
}
330
5F
100
AcDbMlineStyle
  2
STANDARD
 70
     0
  3

 62
   256
 51
90.0
 52
90.0
 71
     2
 49
0.5
 62
   256
  6
BYLAYER
 49
-0.5
 62
   256
  6
BYLAYER
  0
ACDBPLACEHOLDER
  5
F
102
{ACAD_REACTORS
330
E
102
}
330
E
  0
SCALE
  5
43
102
{ACAD_REACTORS
330
42
102
}
330
42
100
AcDbScale
 70
     0
300
1:1
140
1.0
141
1.0
290
     1
  0
SCALE
  5
44
102
{ACAD_REACTORS
330
42
102
}
330
42
100
AcDbScale
 70
     0
300
1/128" = 1'-0"
140
0.0078125
141
12.0
290
     0
  0
SCALE
  5
45
102
{ACAD_REACTORS
330
42
102
}
330
42
100
AcDbScale
 70
     0
300
1/64" = 1'-0"
140
0.015625
141
12.0
290
     0
  0
SCALE
  5
46
102
{ACAD_REACTORS
330
42
102
}
330
42
100
AcDbScale
 70
     0
300
1/32" = 1'-0"
140
0.03125
141
12.0
290
     0
  0
SCALE
  5
47
102
{ACAD_REACTORS
330
42
102
}
330
42
100
AcDbScale
 70
     0
300
1/16" = 1'-0"
140
0.0625
141
12.0
290
     0
  0
SCALE
  5
48
102
{ACAD_REACTORS
330
42
102
}
330
42
100
AcDbScale
 70
     0
300
3/32" = 1'-0"
140
0.09375
141
12.0
290
     0
  0
SCALE
  5
49
102
{ACAD_REACTORS
330
42
102
}
330
42
100
AcDbScale
 70
     0
300
1/8" = 1'-0"
140
0.125
141
12.0
290
     0
  0
SCALE
  5
4A
102
{ACAD_REACTORS
330
42
102
}
330
42
100
AcDbScale
 70
     0
300
3/16" = 1'-0"
140
0.1875
141
12.0
290
     0
  0
SCALE
  5
4B
102
{ACAD_REACTORS
330
42
102
}
330
42
100
AcDbScale
 70
     0
300
1/4" = 1'-0"
140
0.25
141
12.0
290
     0
  0
SCALE
  5
4C
102
{ACAD_REACTORS
330
42
102
}
330
42
100
AcDbScale
 70
     0
300
3/8" = 1'-0"
140
0.375
141
12.0
290
     0
  0
SCALE
  5
4D
102
{ACAD_REACTORS
330
42
102
}
330
42
100
AcDbScale
 70
     0
300
1/2" = 1'-0"
140
0.5
141
12.0
290
     0
  0
SCALE
  5
4E
102
{ACAD_REACTORS
330
42
102
}
330
42
100
AcDbScale
 70
     0
300
3/4" = 1'-0"
140
0.75
141
12.0
290
     0
  0
SCALE
  5
4F
102
{ACAD_REACTORS
330
42
102
}
330
42
100
AcDbScale
 70
     0
300
1" = 1'-0"
140
1.0
141
12.0
290
     0
  0
SCALE
  5
50
102
{ACAD_REACTORS
330
42
102
}
330
42
100
AcDbScale
 70
     0
300
1-1/2" = 1'-0"
140
1.5
141
12.0
290
     0
  0
SCALE
  5
51
102
{ACAD_REACTORS
330
42
102
}
330
42
100
AcDbScale
 70
     0
300
3" = 1'-0"
140
3.0
141
12.0
290
     0
  0
SCALE
  5
52
102
{ACAD_REACTORS
330
42
102
}
330
42
100
AcDbScale
 70
     0
300
6" = 1'-0"
140
6.0
141
12.0
290
     0
  0
SCALE
  5
53
102
{ACAD_REACTORS
330
42
102
}
330
42
100
AcDbScale
 70
     0
300
1'-0" = 1'-0"
140
12.0
141
12.0
290
     0
  0
ACDBSECTIONVIEWSTYLE
  5
B31
102
{ACAD_XDICTIONARY
360
B70
102
}
102
{ACAD_REACTORS
330
B30
102
}
330
B30
100
AcDbModelDocViewStyle
 70
     0
  3
Metric50
290
     0
100
AcDbSectionViewStyle
 70
     0
 71
     0
 90
      102
 71
     1
340
55
 62
   256
 40
5.0
340
0
340
0
 62
   256
 40
5.0
300
I, O, Q, S, X, Z
 40
10.0
 90
        0
 40
2.5
 90
        0
 71
     2
340
5D
 90
       25
 62
   256
340
5D
 90
       50
 62
   256
 40
5.0
 40
2.5
 40
5.0
 71
     3
340
55
 62
   256
 40
5.0
 90
        0
 40
15.0
 90
        1
300
%<\AcVar ViewSectionStartId>%-%<\AcVar ViewSectionEndId>% (%<\AcVar ViewScale \f "%sn">%)
 71
     4
 62
   256
 62
   257
300
ANSI31
 40
1.0
 90
        0
290
     0
290
     0
 90
        6
 40
0.0
 40
1.570796326794896
 40
0.2617993877991494
 40
1.308996938995747
 40
-0.2617993877991494
 40
1.832595714594046
  0
TABLESTYLE
  5
65
102
{ACAD_XDICTIONARY
360
ACC
102
}
102
{ACAD_REACTORS
330
64
102
}
330
64
100
AcDbTableStyle
280
     0
  3
Standard
 70
     0
 71
     0
 40
0.06
 41
0.06
280
     0
281
     0
  7
Standard
140
0.18
170
     2
 62
     0
 63
     7
283
     0
 90
      512
 91
        0
  1

274
    -2
284
     1
 64
     0
275
    -2
285
     1
 65
     0
276
    -2
286
     1
 66
     0
277
    -2
287
     1
 67
     0
278
    -2
288
     1
 68
     0
279
    -2
289
     1
 69
     0
  7
Standard
140
0.25
170
     5
 62
     0
 63
     7
283
     0
 90
      512
 91
        0
  1

274
    -2
284
     1
 64
     0
275
    -2
285
     1
 65
     0
276
    -2
286
     1
 66
     0
277
    -2
287
     1
 67
     0
278
    -2
288
     1
 68
     0
279
    -2
289
     1
 69
     0
  7
Standard
140
0.18
170
     5
 62
     0
 63
     7
283
     0
 90
      512
 91
        0
  1

274
    -2
284
     1
 64
     0
275
    -2
285
     1
 65
     0
276
    -2
286
     1
 66
     0
277
    -2
287
     1
 67
     0
278
    -2
288
     1
 68
     0
279
    -2
289
     1
 69
     0
  0
VISUALSTYLE
  5
2F
102
{ACAD_REACTORS
330
29
102
}
330
29
100
AcDbVisualStyle
  2

 70
     4
177
     3
291
     0
 70
    58
 90
        0
176
     1
 90
        2
176
     1
 90
        0
176
     1
 90
        0
176
     1
 40
0.6
176
     1
 40
30.0
176
     1
 62
     7
176
     1
 90
        1
176
     1
 90
        4
176
     1
 62
     7
176
     1
 62
   257
176
     1
 90
        1
176
     1
 90
        1
176
     1
 40
1.0
176
     1
 90
        0
176
     1
 62
   257
176
     1
 40
1.0
176
     1
 90
        1
176
     1
 90
        6
176
     1
 90
        2
176
     1
 62
     7
176
     1
 90
        5
176
     1
 90
        0
176
     1
 90
        0
176
     1
290
     0
176
     1
 90
        1
176
     1
 40
0.0
176
     1
 90
        0
176
     1
290
     1
176
     1
290
     1
176
     1
290
     0
176
     1
290
     0
176
     1
290
     0
176
     1
290
     0
176
     1
290
     0
176
     1
290
     0
176
     1
290
     0
176
     1
 90
       50
176
     1
 40
0.0
176
     1
 40
1.0
176
     1
 90
        0
176
     1
 62
    18
420
        0
176
     1
 90
       50
176
     1
 90
        3
176
     1
 62
     5
420
      255
176
     1
290
     0
176
     1
 90
       50
176
     1
 90
       50
176
     1
 90
       50
176
     1
290
     0
176
     1
 90
       50
176
     1
 62
   256
176
     0
 40
1.0
176
     0
 90
        2
176
     1
  1
strokes_ogs.tif
176
     1
290
     0
176
     1
 40
1.0
176
     1
 40
1.0
176
     1
1001
ACAD
1000
AcDbSavedByObjectVersion
1070
     0
  0
VISUALSTYLE
  5
2E
102
{ACAD_REACTORS
330
29
102
}
330
29
100
AcDbVisualStyle
  2

 70
     7
177
     3
291
     1
 70
    58
 90
        1
176
     1
 90
        0
176
     1
 90
        1
176
     1
 90
        0
176
     1
 40
0.6
176
     1
 40
30.0
176
     1
 62
     7
176
     1
 90
        0
176
     1
 90
        4
176
     1
 62
     7
176
     1
 62
   257
176
     1
 90
        1
176
     1
 90
        1
176
     1
 40
1.0
176
     1
 90
        8
176
     1
 62
     7
176
     1
 40
1.0
176
     1
 90
        1
176
     1
 90
        6
176
     1
 90
        2
176
     1
 62
     7
176
     1
 90
        5
176
     1
 90
        0
176
     1
 90
        0
176
     1
290
     0
176
     1
 90
        1
176
     1
 40
0.0
176
     1
 90
        0
176
     1
290
     0
176
     1
290
     1
176
     1
290
     1
176
     1
290
     0
176
     1
290
     0
176
     1
290
     0
176
     1
290
     0
176
     1
290
     0
176
     1
290
     0
176
     1
 90
       50
176
     1
 40
0.0
176
     1
 40
1.0
176
     1
 90
        0
176
     1
 62
    18
420
        0
176
     1
 90
       50
176
     1
 90
        3
176
     1
 62
     5
420
      255
176
     1
290
     0
176
     1
 90
       50
176
     1
 90
       50
176
     1
 90
       50
176
     1
290
     0
176
     1
 90
       50
176
     1
 62
   256
176
     0
 40
1.0
176
     0
 90
        2
176
     1
  1
strokes_ogs.tif
176
     1
290
     0
176
     1
 40
1.0
176
     1
 40
1.0
176
     1
1001
ACAD
1000
AcDbSavedByObjectVersion
1070
     0
  0
VISUALSTYLE
  5
35
102
{ACAD_REACTORS
330
29
102
}
330
29
100
AcDbVisualStyle
  2

 70
    12
177
     3
291
     1
 70
    58
 90
        2
176
     1
 90
        2
176
     1
 90
        0
176
     1
 90
        0
176
     1
 40
0.6
176
     1
 40
30.0
176
     1
 62
     7
176
     1
 90
        1
176
     1
 90
        4
176
     1
 62
     7
176
     1
 62
   257
176
     1
 90
        1
176
     1
 90
        1
176
     1
 40
1.0
176
     1
 90
        8
176
     1
 62
     7
176
     1
 40
1.0
176
     1
 90
        1
176
     1
 90
        6
176
     1
 90
        2
176
     1
 62
     7
176
     1
 90
        5
176
     1
 90
        0
176
     1
 90
        0
176
     1
290
     0
176
     1
 90
        1
176
     1
 40
50.0
176
     1
 90
        0
176
     1
290
     0
176
     1
290
     1
176
     1
290
     1
176
     1
290
     0
176
     1
290
     0
176
     1
290
     0
176
     1
290
     0
176
     1
290
     0
176
     1
290
     0
176
     1
 90
       50
176
     1
 40
0.0
176
     1
 40
1.0
176
     1
 90
        0
176
     1
 62
    18
420
        0
176
     1
 90
       50
176
     1
 90
        3
176
     1
 62
     5
420
      255
176
     1
290
     0
176
     1
 90
       50
176
     1
 90
       50
176
     1
 90
       50
176
     1
290
     0
176
     1
 90
       50
176
     1
 62
   256
176
     0
 40
1.0
176
     0
 90
        2
176
     1
  1
strokes_ogs.tif
176
     1
290
     0
176
     1
 40
1.0
176
     1
 40
1.0
176
     1
1001
ACAD
1000
AcDbSavedByObjectVersion
1070
     0
  0
VISUALSTYLE
  5
39
102
{ACAD_REACTORS
330
29
102
}
330
29
100
AcDbVisualStyle
  2

 70
    16
177
     3
291
     1
 70
    58
 90
        2
176
     1
 90
        2
176
     1
 90
        3
176
     1
 90
        0
176
     1
 40
0.6
176
     1
 40
30.0
176
     1
 62
     8
176
     1
 90
        1
176
     1
 90
        4
176
     1
 62
     7
176
     1
 62
   257
176
     1
 90
        1
176
     1
 90
        1
176
     1
 40
1.0
176
     1
 90
        8
176
     1
 62
     8
176
     1
 40
1.0
176
     1
 90
        1
176
     1
 90
        6
176
     1
 90
        2
176
     1
 62
     7
176
     1
 90
        5
176
     1
 90
        0
176
     1
 90
        0
176
     1
290
     0
176
     1
 90
        1
176
     1
 40
0.0
176
     1
 90
        0
176
     1
290
     0
176
     1
290
     1
176
     1
290
     1
176
     1
290
     0
176
     1
290
     0
176
     1
290
     0
176
     1
290
     0
176
     1
290
     0
176
     1
290
     0
176
     1
 90
       50
176
     1
 40
0.0
176
     1
 40
1.0
176
     1
 90
        0
176
     1
 62
    18
420
        0
176
     1
 90
       50
176
     1
 90
        3
176
     1
 62
     5
420
      255
176
     1
290
     0
176
     1
 90
       50
176
     1
 90
       50
176
     1
 90
       50
176
     1
290
     0
176
     1
 90
       50
176
     1
 62
   256
176
     0
 40
1.0
176
     0
 90
        2
176
     1
  1
strokes_ogs.tif
176
     1
290
     0
176
     1
 40
1.0
176
     1
 40
1.0
176
     1
1001
ACAD
1000
AcDbSavedByObjectVersion
1070
     0
  0
VISUALSTYLE
  5
32
102
{ACAD_REACTORS
330
29
102
}
330
29
100
AcDbVisualStyle
  2

 70
     9
177
     3
291
     0
 70
    58
 90
        3
176
     1
 90
        2
176
     1
 90
        0
176
     1
 90
        0
176
     1
 40
0.6
176
     1
 40
30.0
176
     1
 62
     7
176
     1
 90
        2
176
     1
 90
        2
176
     1
 62
     7
176
     1
 62
   257
176
     1
 90
        1
176
     1
 90
        1
176
     1
 40
179.0
176
     1
 90
        8
176
     1
 62
     7
176
     1
 40
1.0
176
     1
 90
        1
176
     1
 90
        6
176
     1
 90
        2
176
     1
 62
     7
176
     1
 90
        3
176
     1
 90
        0
176
     1
 90
        0
176
     1
290
     0
176
     1
 90
        1
176
     1
 40
0.0
176
     1
 90
        0
176
     1
290
     0
176
     1
290
     1
176
     1
290
     1
176
     1
290
     0
176
     1
290
     0
176
     1
290
     0
176
     1
290
     0
176
     1
290
     0
176
     1
290
     0
176
     1
 90
       50
176
     1
 40
0.0
176
     1
 40
1.0
176
     1
 90
        0
176
     1
 62
    18
420
        0
176
     1
 90
       50
176
     1
 90
        3
176
     1
 62
     5
420
      255
176
     1
290
     0
176
     1
 90
       50
176
     1
 90
       50
176
     1
 90
       50
176
     1
290
     0
176
     1
 90
       50
176
     1
 62
   256
176
     0
 40
1.0
176
     0
 90
        2
176
     1
  1
strokes_ogs.tif
176
     1
290
     0
176
     1
 40
1.0
176
     1
 40
1.0
176
     1
1001
ACAD
1000
AcDbSavedByObjectVersion
1070
     0
  0
VISUALSTYLE
  5
34
102
{ACAD_REACTORS
330
29
102
}
330
29
100
AcDbVisualStyle
  2

 70
    11
177
     3
291
     1
 70
    58
 90
        2
176
     1
 90
        2
176
     1
 90
        0
176
     1
 90
        0
176
     1
 40
0.6
176
     1
 40
30.0
176
     1
 62
     7
176
     1
 90
        1
176
     1
 90
        4
176
     1
 62
     7
176
     1
 62
   257
176
     1
 90
        1
176
     1
 90
        1
176
     1
 40
1.0
176
     1
 90
        8
176
     1
 62
     7
176
     1
 40
1.0
176
     1
 90
        1
176
     1
 90
        6
176
     1
 90
        2
176
     1
 62
     7
176
     1
 90
        5
176
     1
 90
        0
176
     1
 90
        0
176
     1
290
     0
176
     1
 90
        1
176
     1
 40
-50.0
176
     1
 90
        0
176
     1
290
     0
176
     1
290
     1
176
     1
290
     1
176
     1
290
     0
176
     1
290
     0
176
     1
290
     0
176
     1
290
     0
176
     1
290
     0
176
     1
290
     0
176
     1
 90
       50
176
     1
 40
0.0
176
     1
 40
1.0
176
     1
 90
        0
176
     1
 62
    18
420
        0
176
     1
 90
       50
176
     1
 90
        3
176
     1
 62
     5
420
      255
176
     1
290
     0
176
     1
 90
       50
176
     1
 90
       50
176
     1
 90
       50
176
     1
290
     0
176
     1
 90
       50
176
     1
 62
   256
176
     0
 40
1.0
176
     0
 90
        2
176
     1
  1
strokes_ogs.tif
176
     1
290
     0
176
     1
 40
1.0
176
     1
 40
1.0
176
     1
1001
ACAD
1000
AcDbSavedByObjectVersion
1070
     0
  0
VISUALSTYLE
  5
41
102
{ACAD_REACTORS
330
29
102
}
330
29
100
AcDbVisualStyle
  2

 70
    22
177
     3
291
     1
 70
    58
 90
        2
176
     0
 90
        2
176
     0
 90
        0
176
     0
 90
        0
176
     0
 40
0.6
176
     0
 40
30.0
176
     0
 62
     7
176
     0
 90
        1
176
     0
 90
        4
176
     0
 62
     7
176
     0
 62
   257
176
     0
 90
        1
176
     0
 90
        1
176
     0
 40
1.0
176
     0
 90
        8
176
     2
 62
     7
176
     0
 40
1.0
176
     0
 90
        1
176
     0
 90
        6
176
     0
 90
        2
176
     0
 62
     7
176
     0
 90
        5
176
     0
 90
        0
176
     0
 90
        0
176
     0
290
     0
176
     0
 90
        1
176
     0
 40
0.0
176
     0
 90
        0
176
     0
290
     0
176
     0
290
     1
176
     0
290
     1
176
     0
290
     0
176
     0
290
     0
176
     0
290
     0
176
     1
290
     0
176
     1
290
     0
176
     1
290
     0
176
     1
 90
       50
176
     1
 40
0.0
176
     1
 40
1.0
176
     1
 90
        0
176
     1
 62
    18
420
        0
176
     1
 90
       50
176
     1
 90
        3
176
     1
 62
     5
420
      255
176
     1
290
     0
176
     1
 90
       50
176
     1
 90
       50
176
     1
 90
       50
176
     1
290
     0
176
     1
 90
       50
176
     1
 62
   256
176
     0
 40
1.0
176
     0
 90
        2
176
     1
  1
strokes_ogs.tif
176
     1
290
     0
176
     1
 40
1.0
176
     1
 40
1.0
176
     1
1001
ACAD
1000
AcDbSavedByObjectVersion
1070
     0
  0
VISUALSTYLE
  5
38
102
{ACAD_REACTORS
330
29
102
}
330
29
100
AcDbVisualStyle
  2

 70
    15
177
     3
291
     1
 70
    58
 90
        2
176
     1
 90
        2
176
     1
 90
        0
176
     1
 90
        0
176
     1
 40
0.6
176
     1
 40
30.0
176
     1
 62
     7
176
     1
 90
        1
176
     1
 90
        4
176
     1
 62
     7
176
     1
 62
   257
176
     1
 90
        1
176
     1
 90
        1
176
     1
 40
1.0
176
     1
 90
        8
176
     1
 62
     7
176
     1
 40
1.0
176
     1
 90
        1
176
     1
 90
        6
176
     1
 90
        2
176
     1
 62
     7
176
     1
 90
        5
176
     1
 90
        0
176
     1
 90
        0
176
     1
290
     0
176
     1
 90
        1
176
     1
 40
0.0
176
     1
 90
        0
176
     1
290
     0
176
     1
290
     1
176
     1
290
     1
176
     1
290
     0
176
     1
290
     0
176
     1
290
     0
176
     1
290
     0
176
     1
290
     0
176
     1
290
     0
176
     1
 90
       50
176
     1
 40
0.0
176
     1
 40
1.0
176
     1
 90
        0
176
     1
 62
    18
420
        0
176
     1
 90
       50
176
     1
 90
        3
176
     1
 62
     5
420
      255
176
     1
290
     0
176
     1
 90
       50
176
     1
 90
       50
176
     1
 90
       50
176
     1
290
     0
176
     1
 90
       50
176
     1
 62
   256
176
     0
 40
1.0
176
     0
 90
        2
176
     1
  1
strokes_ogs.tif
176
     1
290
     0
176
     1
 40
1.0
176
     1
 40
1.0
176
     1
1001
ACAD
1000
AcDbSavedByObjectVersion
1070
     0
  0
VISUALSTYLE
  5
2A
102
{ACAD_REACTORS
330
29
102
}
330
29
100
AcDbVisualStyle
  2

 70
     0
177
     3
291
     1
 70
    58
 90
        2
176
     1
 90
        1
176
     1
 90
        1
176
     1
 90
        2
176
     1
 40
0.6
176
     1
 40
30.0
176
     1
 62
     7
176
     1
 90
        0
176
     1
 90
        0
176
     1
 62
     7
176
     1
 62
   257
176
     1
 90
        1
176
     1
 90
        1
176
     1
 40
1.0
176
     1
 90
        8
176
     1
 62
     7
176
     1
 40
1.0
176
     1
 90
        1
176
     1
 90
        6
176
     1
 90
        2
176
     1
 62
     7
176
     1
 90
        5
176
     1
 90
        0
176
     1
 90
        0
176
     1
290
     0
176
     1
 90
       13
176
     1
 40
0.0
176
     1
 90
        0
176
     1
290
     0
176
     1
290
     1
176
     1
290
     1
176
     1
290
     0
176
     1
290
     0
176
     1
290
     0
176
     1
290
     0
176
     1
290
     0
176
     1
290
     0
176
     1
 90
       50
176
     1
 40
0.0
176
     1
 40
1.0
176
     1
 90
        0
176
     1
 62
    18
420
        0
176
     1
 90
       50
176
     1
 90
        3
176
     1
 62
     5
420
      255
176
     1
290
     0
176
     1
 90
       50
176
     1
 90
       50
176
     1
 90
       50
176
     1
290
     0
176
     1
 90
       50
176
     1
 62
   256
176
     0
 40
1.0
176
     0
 90
        2
176
     1
  1
strokes_ogs.tif
176
     1
290
     0
176
     1
 40
1.0
176
     1
 40
1.0
176
     1
1001
ACAD
1000
AcDbSavedByObjectVersion
1070
     0
  0
VISUALSTYLE
  5
2B
102
{ACAD_REACTORS
330
29
102
}
330
29
100
AcDbVisualStyle
  2

 70
     1
177
     3
291
     1
 70
    58
 90
        2
176
     1
 90
        1
176
     1
 90
        1
176
     1
 90
        2
176
     1
 40
0.6
176
     1
 40
30.0
176
     1
 62
     7
176
     1
 90
        1
176
     1
 90
        0
176
     1
 62
     7
176
     1
 62
   257
176
     1
 90
        1
176
     1
 90
        1
176
     1
 40
1.0
176
     1
 90
        0
176
     1
 62
   257
176
     1
 40
1.0
176
     1
 90
        1
176
     1
 90
        6
176
     1
 90
        2
176
     1
 62
     7
176
     1
 90
        5
176
     1
 90
        0
176
     1
 90
        0
176
     1
290
     0
176
     1
 90
       13
176
     1
 40
0.0
176
     1
 90
        0
176
     1
290
     0
176
     1
290
     1
176
     1
290
     1
176
     1
290
     0
176
     1
290
     0
176
     1
290
     0
176
     1
290
     0
176
     1
290
     0
176
     1
290
     0
176
     1
 90
       50
176
     1
 40
0.0
176
     1
 40
1.0
176
     1
 90
        0
176
     1
 62
    18
420
        0
176
     1
 90
       50
176
     1
 90
        3
176
     1
 62
     5
420
      255
176
     1
290
     0
176
     1
 90
       50
176
     1
 90
       50
176
     1
 90
       50
176
     1
290
     0
176
     1
 90
       50
176
     1
 62
   256
176
     0
 40
1.0
176
     0
 90
        2
176
     1
  1
strokes_ogs.tif
176
     1
290
     0
176
     1
 40
1.0
176
     1
 40
1.0
176
     1
1001
ACAD
1000
AcDbSavedByObjectVersion
1070
     0
  0
VISUALSTYLE
  5
2C
102
{ACAD_REACTORS
330
29
102
}
330
29
100
AcDbVisualStyle
  2

 70
     2
177
     3
291
     1
 70
    58
 90
        2
176
     1
 90
        2
176
     1
 90
        1
176
     1
 90
        2
176
     1
 40
0.6
176
     1
 40
30.0
176
     1
 62
     7
176
     1
 90
        0
176
     1
 90
        0
176
     1
 62
     7
176
     1
 62
   257
176
     1
 90
        1
176
     1
 90
        1
176
     1
 40
1.0
176
     1
 90
        0
176
     1
 62
     7
176
     1
 40
1.0
176
     1
 90
        1
176
     1
 90
        6
176
     1
 90
        2
176
     1
 62
     7
176
     1
 90
        5
176
     1
 90
        0
176
     1
 90
        0
176
     1
290
     0
176
     1
 90
       13
176
     1
 40
0.0
176
     1
 90
        0
176
     1
290
     0
176
     1
290
     1
176
     1
290
     1
176
     1
290
     0
176
     1
290
     0
176
     1
290
     0
176
     1
290
     0
176
     1
290
     0
176
     1
290
     0
176
     1
 90
       50
176
     1
 40
0.0
176
     1
 40
1.0
176
     1
 90
        0
176
     1
 62
    18
420
        0
176
     1
 90
       50
176
     1
 90
        3
176
     1
 62
     5
420
      255
176
     1
290
     0
176
     1
 90
       50
176
     1
 90
       50
176
     1
 90
       50
176
     1
290
     0
176
     1
 90
       50
176
     1
 62
   256
176
     0
 40
1.0
176
     0
 90
        2
176
     1
  1
strokes_ogs.tif
176
     1
290
     0
176
     1
 40
1.0
176
     1
 40
1.0
176
     1
1001
ACAD
1000
AcDbSavedByObjectVersion
1070
     0
  0
VISUALSTYLE
  5
2D
102
{ACAD_REACTORS
330
29
102
}
330
29
100
AcDbVisualStyle
  2

 70
     3
177
     3
291
     1
 70
    58
 90
        2
176
     1
 90
        2
176
     1
 90
        1
176
     1
 90
        2
176
     1
 40
0.6
176
     1
 40
30.0
176
     1
 62
     7
176
     1
 90
        1
176
     1
 90
        0
176
     1
 62
     7
176
     1
 62
   257
176
     1
 90
        1
176
     1
 90
        1
176
     1
 40
1.0
176
     1
 90
        0
176
     1
 62
   257
176
     1
 40
1.0
176
     1
 90
        1
176
     1
 90
        6
176
     1
 90
        2
176
     1
 62
     7
176
     1
 90
        5
176
     1
 90
        0
176
     1
 90
        0
176
     1
290
     0
176
     1
 90
       13
176
     1
 40
0.0
176
     1
 90
        0
176
     1
290
     0
176
     1
290
     1
176
     1
290
     1
176
     1
290
     0
176
     1
290
     0
176
     1
290
     0
176
     1
290
     0
176
     1
290
     0
176
     1
290
     0
176
     1
 90
       50
176
     1
 40
0.0
176
     1
 40
1.0
176
     1
 90
        0
176
     1
 62
    18
420
        0
176
     1
 90
       50
176
     1
 90
        3
176
     1
 62
     5
420
      255
176
     1
290
     0
176
     1
 90
       50
176
     1
 90
       50
176
     1
 90
       50
176
     1
290
     0
176
     1
 90
       50
176
     1
 62
   256
176
     0
 40
1.0
176
     0
 90
        2
176
     1
  1
strokes_ogs.tif
176
     1
290
     0
176
     1
 40
1.0
176
     1
 40
1.0
176
     1
1001
ACAD
1000
AcDbSavedByObjectVersion
1070
     0
  0
VISUALSTYLE
  5
31
102
{ACAD_REACTORS
330
29
102
}
330
29
100
AcDbVisualStyle
  2

 70
     6
177
     3
291
     0
 70
    58
 90
        1
176
     1
 90
        2
176
     1
 90
        2
176
     1
 90
        0
176
     1
 40
0.6
176
     1
 40
30.0
176
     1
 62
     7
176
     1
 90
        2
176
     1
 90
        2
176
     1
 62
     7
176
     1
 62
   257
176
     1
 90
        2
176
     1
 90
        1
176
     1
 40
40.0
176
     1
 90
        0
176
     1
 62
   257
176
     1
 40
1.0
176
     1
 90
        1
176
     1
 90
        6
176
     1
 90
        2
176
     1
 62
     7
176
     1
 90
        3
176
     1
 90
        0
176
     1
 90
        0
176
     1
290
     0
176
     1
 90
        1
176
     1
 40
0.0
176
     1
 90
        0
176
     1
290
     0
176
     1
290
     1
176
     1
290
     1
176
     1
290
     0
176
     1
290
     0
176
     1
290
     0
176
     1
290
     0
176
     1
290
     0
176
     1
290
     0
176
     1
 90
       50
176
     1
 40
0.0
176
     1
 40
1.0
176
     1
 90
        0
176
     1
 62
    18
420
        0
176
     1
 90
       50
176
     1
 90
        3
176
     1
 62
     5
420
      255
176
     1
290
     0
176
     1
 90
       50
176
     1
 90
       50
176
     1
 90
       50
176
     1
290
     0
176
     1
 90
       50
176
     1
 62
   256
176
     0
 40
1.0
176
     0
 90
        2
176
     1
  1
strokes_ogs.tif
176
     1
290
     0
176
     1
 40
1.0
176
     1
 40
1.0
176
     1
1001
ACAD
1000
AcDbSavedByObjectVersion
1070
     0
  0
VISUALSTYLE
  5
3F
102
{ACAD_REACTORS
330
29
102
}
330
29
100
AcDbVisualStyle
  2

 70
    20
177
     3
291
     1
 70
    58
 90
        2
176
     0
 90
        2
176
     0
 90
        0
176
     0
 90
        0
176
     0
 40
0.6
176
     0
 40
30.0
176
     0
 62
     7
176
     0
 90
        1
176
     0
 90
        4
176
     0
 62
     7
176
     0
 62
   257
176
     0
 90
        1
176
     0
 90
        1
176
     0
 40
1.0
176
     0
 90
       10
176
     2
 62
     7
176
     0
 40
1.0
176
     0
 90
        1
176
     0
 90
        6
176
     0
 90
        2
176
     0
 62
     7
176
     0
 90
        5
176
     0
 90
        0
176
     0
 90
        0
176
     0
290
     0
176
     0
 90
        1
176
     0
 40
0.0
176
     0
 90
        0
176
     0
290
     0
176
     0
290
     1
176
     0
290
     1
176
     0
290
     0
176
     0
290
     0
176
     0
290
     0
176
     1
290
     0
176
     1
290
     0
176
     1
290
     0
176
     1
 90
       50
176
     1
 40
0.0
176
     1
 40
1.0
176
     1
 90
        0
176
     1
 62
    18
420
        0
176
     1
 90
       50
176
     1
 90
        3
176
     1
 62
     5
420
      255
176
     1
290
     0
176
     1
 90
       50
176
     1
 90
       50
176
     1
 90
       50
176
     1
290
     0
176
     1
 90
       50
176
     1
 62
   256
176
     0
 40
1.0
176
     0
 90
        2
176
     1
  1
strokes_ogs.tif
176
     1
290
     0
176
     1
 40
1.0
176
     1
 40
1.0
176
     1
1001
ACAD
1000
AcDbSavedByObjectVersion
1070
     0
  0
VISUALSTYLE
  5
37
102
{ACAD_REACTORS
330
29
102
}
330
29
100
AcDbVisualStyle
  2

 70
    14
177
     3
291
     1
 70
    58
 90
        2
176
     1
 90
        2
176
     1
 90
        0
176
     1
 90
        0
176
     1
 40
0.6
176
     1
 40
30.0
176
     1
 62
     7
176
     1
 90
        1
176
     1
 90
        4
176
     1
 62
     7
176
     1
 62
   257
176
     1
 90
        7
176
     1
 90
        7
176
     1
 40
1.0
176
     1
 90
        8
176
     1
 62
     7
176
     1
 40
1.0
176
     1
 90
        1
176
     1
 90
        6
176
     1
 90
        2
176
     1
 62
     7
176
     1
 90
        5
176
     1
 90
        0
176
     1
 90
        0
176
     1
290
     0
176
     1
 90
        1
176
     1
 40
0.0
176
     1
 90
        0
176
     1
290
     0
176
     1
290
     1
176
     1
290
     1
176
     1
290
     0
176
     1
290
     0
176
     1
290
     0
176
     1
290
     0
176
     1
290
     0
176
     1
290
     0
176
     1
 90
       50
176
     1
 40
0.0
176
     1
 40
1.0
176
     1
 90
        0
176
     1
 62
    18
420
        0
176
     1
 90
       50
176
     1
 90
        3
176
     1
 62
     5
420
      255
176
     1
290
     0
176
     1
 90
       50
176
     1
 90
       50
176
     1
 90
       50
176
     1
290
     0
176
     1
 90
       50
176
     1
 62
   256
176
     0
 40
1.0
176
     0
 90
        2
176
     1
  1
strokes_ogs.tif
176
     1
290
     0
176
     1
 40
1.0
176
     1
 40
1.0
176
     1
1001
ACAD
1000
AcDbSavedByObjectVersion
1070
     0
  0
VISUALSTYLE
  5
40
102
{ACAD_REACTORS
330
29
102
}
330
29
100
AcDbVisualStyle
  2

 70
    21
177
     3
291
     1
 70
    58
 90
        2
176
     0
 90
        2
176
     0
 90
        0
176
     0
 90
        0
176
     0
 40
0.6
176
     0
 40
30.0
176
     0
 62
     7
176
     0
 90
        1
176
     0
 90
        4
176
     0
 62
     7
176
     0
 62
   257
176
     0
 90
        1
176
     0
 90
        1
176
     0
 40
1.0
176
     0
 90
        9
176
     2
 62
     7
176
     0
 40
1.0
176
     0
 90
        1
176
     0
 90
        6
176
     0
 90
        2
176
     0
 62
     7
176
     0
 90
        5
176
     0
 90
        0
176
     0
 90
        0
176
     0
290
     0
176
     0
 90
        1
176
     0
 40
0.0
176
     0
 90
        0
176
     0
290
     0
176
     0
290
     1
176
     0
290
     1
176
     0
290
     0
176
     0
290
     0
176
     0
290
     0
176
     1
290
     0
176
     1
290
     0
176
     1
290
     0
176
     1
 90
       50
176
     1
 40
0.0
176
     1
 40
1.0
176
     1
 90
        0
176
     1
 62
    18
420
        0
176
     1
 90
       50
176
     1
 90
        3
176
     1
 62
     5
420
      255
176
     1
290
     0
176
     1
 90
       50
176
     1
 90
       50
176
     1
 90
       50
176
     1
290
     0
176
     1
 90
       50
176
     1
 62
   256
176
     0
 40
1.0
176
     0
 90
        2
176
     1
  1
strokes_ogs.tif
176
     1
290
     0
176
     1
 40
1.0
176
     1
 40
1.0
176
     1
1001
ACAD
1000
AcDbSavedByObjectVersion
1070
     0
  0
VISUALSTYLE
  5
33
102
{ACAD_REACTORS
330
29
102
}
330
29
100
AcDbVisualStyle
  2

 70
     8
177
     3
291
     0
 70
    58
 90
        2
176
     1
 90
        3
176
     1
 90
        0
176
     1
 90
        2
176
     1
 40
0.6
176
     1
 40
30.0
176
     1
 62
     7
176
     1
 90
        0
176
     1
 90
        0
176
     1
 62
     7
176
     1
 62
   257
176
     1
 90
        1
176
     1
 90
        1
176
     1
 40
1.0
176
     1
 90
        8
176
     1
 62
   257
176
     1
 40
1.0
176
     1
 90
        1
176
     1
 90
        6
176
     1
 90
        2
176
     1
 62
     7
176
     1
 90
        3
176
     1
 90
        0
176
     1
 90
        0
176
     1
290
     0
176
     1
 90
       13
176
     1
 40
0.0
176
     1
 90
        0
176
     1
290
     0
176
     1
290
     1
176
     1
290
     1
176
     1
290
     0
176
     1
290
     0
176
     1
290
     0
176
     1
290
     0
176
     1
290
     0
176
     1
290
     0
176
     1
 90
       50
176
     1
 40
0.0
176
     1
 40
1.0
176
     1
 90
        0
176
     1
 62
    18
420
        0
176
     1
 90
       50
176
     1
 90
        3
176
     1
 62
     5
420
      255
176
     1
290
     0
176
     1
 90
       50
176
     1
 90
       50
176
     1
 90
       50
176
     1
290
     0
176
     1
 90
       50
176
     1
 62
   256
176
     0
 40
1.0
176
     0
 90
        2
176
     1
  1
strokes_ogs.tif
176
     1
290
     0
176
     1
 40
1.0
176
     1
 40
1.0
176
     1
1001
ACAD
1000
AcDbSavedByObjectVersion
1070
     0
  0
VISUALSTYLE
  5
3E
102
{ACAD_REACTORS
330
29
102
}
330
29
100
AcDbVisualStyle
  2

 70
    27
177
     3
291
     0
 70
    58
 90
        2
176
     1
 90
        2
176
     1
 90
        1
176
     1
 90
        2
176
     1
 40
0.6
176
     1
 40
30.0
176
     1
 62
     7
176
     1
 90
        0
176
     1
 90
        4
176
     1
 62
     7
176
     1
 62
   257
176
     1
 90
        1
176
     1
 90
        1
176
     1
 40
1.0
176
     1
 90
        8
176
     1
 62
   257
176
     1
 40
1.0
176
     1
 90
        1
176
     1
 90
        6
176
     1
 90
        2
176
     1
 62
     8
176
     1
 90
        3
176
     1
 90
        0
176
     1
 90
        0
176
     1
290
     0
176
     1
 90
        5
176
     1
 40
0.0
176
     1
 90
        0
176
     1
290
     0
176
     1
290
     1
176
     1
290
     1
176
     1
290
     0
176
     1
290
     0
176
     1
290
     0
176
     1
290
     0
176
     1
290
     0
176
     1
290
     0
176
     1
 90
       50
176
     1
 40
0.0
176
     1
 40
1.0
176
     1
 90
        0
176
     1
 62
    18
420
        0
176
     1
 90
       50
176
     1
 90
        3
176
     1
 62
     5
420
      255
176
     1
290
     0
176
     1
 90
       50
176
     1
 90
       50
176
     1
 90
       50
176
     1
290
     0
176
     1
 90
       50
176
     1
 62
   256
176
     0
 40
1.0
176
     0
 90
        2
176
     1
  1
strokes_ogs.tif
176
     1
290
     0
176
     1
 40
1.0
176
     1
 40
1.0
176
     1
1001
ACAD
1000
AcDbSavedByObjectVersion
1070
     0
  0
VISUALSTYLE
  5
3D
102
{ACAD_REACTORS
330
29
102
}
330
29
100
AcDbVisualStyle
  2

 70
    26
177
     3
291
     0
 70
    58
 90
        2
176
     1
 90
        2
176
     1
 90
        1
176
     1
 90
        2
176
     1
 40
0.6
176
     1
 40
30.0
176
     1
 62
     7
176
     1
 90
        1
176
     1
 90
       10
176
     1
 62
     7
176
     1
 62
   257
176
     1
 90
        2
176
     1
 90
        1
176
     1
 40
1.0
176
     1
 90
        8
176
     1
 62
   257
176
     1
 40
1.0
176
     1
 90
        1
176
     1
 90
        6
176
     1
 90
        2
176
     1
 62
     7
176
     1
 90
        3
176
     1
 90
        0
176
     1
 90
        0
176
     1
290
     0
176
     1
 90
        5
176
     1
 40
0.0
176
     1
 90
        0
176
     1
290
     0
176
     1
290
     1
176
     1
290
     1
176
     1
290
     0
176
     1
290
     0
176
     1
290
     0
176
     1
290
     0
176
     1
290
     0
176
     1
290
     0
176
     1
 90
       50
176
     1
 40
0.0
176
     1
 40
1.0
176
     1
 90
        0
176
     1
 62
    18
420
        0
176
     1
 90
       50
176
     1
 90
        3
176
     1
 62
     5
420
      255
176
     1
290
     0
176
     1
 90
       50
176
     1
 90
       50
176
     1
 90
       50
176
     1
290
     0
176
     1
 90
       50
176
     1
 62
   256
176
     0
 40
1.0
176
     0
 90
        2
176
     1
  1
strokes_ogs.tif
176
     1
290
     0
176
     1
 40
1.0
176
     1
 40
1.0
176
     1
1001
ACAD
1000
AcDbSavedByObjectVersion
1070
     0
  0
VISUALSTYLE
  5
3A
102
{ACAD_REACTORS
330
29
102
}
330
29
100
AcDbVisualStyle
  2

 70
    23
177
     3
291
     0
 70
    58
 90
        2
176
     1
 90
        2
176
     1
 90
        3
176
     1
 90
        0
176
     1
 40
0.6
176
     1
 40
30.0
176
     1
 62
     7
176
     1
 90
        2
176
     1
 90
        2
176
     1
 62
     7
176
     1
 62
     7
176
     1
 90
        1
176
     1
 90
        1
176
     1
 40
40.0
176
     1
 90
        8
176
     1
 62
     7
176
     1
 40
1.0
176
     1
 90
        1
176
     1
 90
        6
176
     1
 90
        2
176
     1
 62
     7
176
     1
 90
        3
176
     1
 90
        0
176
     1
 90
        0
176
     1
290
     0
176
     1
 90
        1
176
     1
 40
0.0
176
     1
 90
        0
176
     1
290
     0
176
     1
290
     1
176
     1
290
     1
176
     1
290
     0
176
     1
290
     0
176
     1
290
     0
176
     1
290
     0
176
     1
290
     0
176
     1
290
     0
176
     1
 90
       50
176
     1
 40
0.0
176
     1
 40
1.0
176
     1
 90
        0
176
     1
 62
    18
420
        0
176
     1
 90
       50
176
     1
 90
        3
176
     1
 62
     5
420
      255
176
     1
290
     0
176
     1
 90
       50
176
     1
 90
       50
176
     1
 90
       50
176
     1
290
     0
176
     1
 90
       50
176
     1
 62
   256
176
     0
 40
1.0
176
     0
 90
        2
176
     1
  1
strokes_ogs.tif
176
     1
290
     0
176
     1
 40
1.0
176
     1
 40
1.0
176
     1
1001
ACAD
1000
AcDbSavedByObjectVersion
1070
     0
  0
VISUALSTYLE
  5
3B
102
{ACAD_REACTORS
330
29
102
}
330
29
100
AcDbVisualStyle
  2

 70
    24
177
     3
291
     0
 70
    58
 90
        1
176
     1
 90
        2
176
     1
 90
        2
176
     1
 90
        0
176
     1
 40
0.6
176
     1
 40
30.0
176
     1
 62
     7
176
     1
 90
        2
176
     1
 90
        2
176
     1
 62
     7
176
     1
 62
     7
176
     1
 90
        1
176
     1
 90
        1
176
     1
 40
40.0
176
     1
 90
       11
176
     1
 62
     7
176
     1
 40
1.0
176
     1
 90
        1
176
     1
 90
        6
176
     1
 90
        2
176
     1
 62
     7
176
     1
 90
        6
176
     1
 90
        0
176
     1
 90
        0
176
     1
290
     0
176
     1
 90
        1
176
     1
 40
0.0
176
     1
 90
        0
176
     1
290
     0
176
     1
290
     1
176
     1
290
     1
176
     1
290
     0
176
     1
290
     0
176
     1
290
     0
176
     1
290
     0
176
     1
290
     0
176
     1
290
     0
176
     1
 90
       50
176
     1
 40
0.0
176
     1
 40
1.0
176
     1
 90
        0
176
     1
 62
    18
420
        0
176
     1
 90
       50
176
     1
 90
        3
176
     1
 62
     5
420
      255
176
     1
290
     0
176
     1
 90
       50
176
     1
 90
       50
176
     1
 90
       50
176
     1
290
     0
176
     1
 90
       50
176
     1
 62
   256
176
     0
 40
1.0
176
     0
 90
        2
176
     1
  1
strokes_ogs.tif
176
     1
290
     0
176
     1
 40
1.0
176
     1
 40
1.0
176
     1
1001
ACAD
1000
AcDbSavedByObjectVersion
1070
     0
  0
VISUALSTYLE
  5
36
102
{ACAD_REACTORS
330
29
102
}
330
29
100
AcDbVisualStyle
  2

 70
    13
177
     3
291
     1
 70
    58
 90
        2
176
     1
 90
        2
176
     1
 90
        0
176
     1
 90
        0
176
     1
 40
0.6
176
     1
 40
30.0
176
     1
 62
     7
176
     1
 90
        1
176
     1
 90
        4
176
     1
 62
     7
176
     1
 62
   257
176
     1
 90
        1
176
     1
 90
        1
176
     1
 40
1.0
176
     1
 90
       12
176
     1
 62
     7
176
     1
 40
1.0
176
     1
 90
        1
176
     1
 90
        6
176
     1
 90
        2
176
     1
 62
     7
176
     1
 90
        5
176
     1
 90
        0
176
     1
 90
        0
176
     1
290
     0
176
     1
 90
        1
176
     1
 40
0.0
176
     1
 90
        0
176
     1
290
     0
176
     1
290
     1
176
     1
290
     1
176
     1
290
     0
176
     1
290
     0
176
     1
290
     0
176
     1
290
     0
176
     1
290
     0
176
     1
290
     0
176
     1
 90
       50
176
     1
 40
0.0
176
     1
 40
1.0
176
     1
 90
        0
176
     1
 62
    18
420
        0
176
     1
 90
       50
176
     1
 90
        3
176
     1
 62
     5
420
      255
176
     1
290
     0
176
     1
 90
       50
176
     1
 90
       50
176
     1
 90
       50
176
     1
290
     0
176
     1
 90
       50
176
     1
 62
   256
176
     0
 40
1.0
176
     0
 90
        2
176
     1
  1
strokes_ogs.tif
176
     1
290
     0
176
     1
 40
1.0
176
     1
 40
1.0
176
     1
1001
ACAD
1000
AcDbSavedByObjectVersion
1070
     0
  0
VISUALSTYLE
  5
30
102
{ACAD_REACTORS
330
29
102
}
330
29
100
AcDbVisualStyle
  2

 70
     5
177
     3
291
     0
 70
    58
 90
        0
176
     1
 90
        2
176
     1
 90
        0
176
     1
 90
        0
176
     1
 40
0.6
176
     1
 40
30.0
176
     1
 62
     7
176
     1
 90
        1
176
     1
 90
        4
176
     1
 62
     7
176
     1
 62
   257
176
     1
 90
        1
176
     1
 90
        1
176
     1
 40
1.0
176
     1
 90
        0
176
     1
 62
   257
176
     1
 40
1.0
176
     1
 90
        1
176
     1
 90
        6
176
     1
 90
        2
176
     1
 62
     7
176
     1
 90
        3
176
     1
 90
        0
176
     1
 90
        0
176
     1
290
     0
176
     1
 90
        1
176
     1
 40
0.0
176
     1
 90
        0
176
     1
290
     0
176
     1
290
     1
176
     1
290
     1
176
     1
290
     0
176
     1
290
     0
176
     1
290
     0
176
     1
290
     0
176
     1
290
     0
176
     1
290
     0
176
     1
 90
       50
176
     1
 40
0.0
176
     1
 40
1.0
176
     1
 90
        0
176
     1
 62
    18
420
        0
176
     1
 90
       50
176
     1
 90
        3
176
     1
 62
     5
420
      255
176
     1
290
     0
176
     1
 90
       50
176
     1
 90
       50
176
     1
 90
       50
176
     1
290
     0
176
     1
 90
       50
176
     1
 62
   256
176
     0
 40
1.0
176
     0
 90
        2
176
     1
  1
strokes_ogs.tif
176
     1
290
     0
176
     1
 40
1.0
176
     1
 40
1.0
176
     1
1001
ACAD
1000
AcDbSavedByObjectVersion
1070
     0
  0
VISUALSTYLE
  5
3C
102
{ACAD_REACTORS
330
29
102
}
330
29
100
AcDbVisualStyle
  2

 70
    25
177
     3
291
     0
 70
    58
 90
        2
176
     1
 90
        2
176
     1
 90
        1
176
     1
 90
        1
176
     1
 40
0.5
176
     1
 40
30.0
176
     1
 62
     7
176
     1
 90
        1
176
     1
 90
        0
176
     1
 62
     7
176
     1
 62
   257
176
     1
 90
        1
176
     1
 90
        1
176
     1
 40
1.0
176
     1
 90
        8
176
     1
 62
     7
176
     1
 40
1.0
176
     1
 90
        1
176
     1
 90
        6
176
     1
 90
        2
176
     1
 62
     7
176
     1
 90
        3
176
     1
 90
        0
176
     1
 90
        0
176
     1
290
     0
176
     1
 90
       13
176
     1
 40
0.0
176
     1
 90
        0
176
     1
290
     0
176
     1
290
     1
176
     1
290
     1
176
     1
290
     0
176
     1
290
     0
176
     1
290
     0
176
     1
290
     0
176
     1
290
     0
176
     1
290
     0
176
     1
 90
       50
176
     1
 40
0.0
176
     1
 40
1.0
176
     1
 90
        0
176
     1
 62
    18
420
        0
176
     1
 90
       50
176
     1
 90
        3
176
     1
 62
     5
420
      255
176
     1
290
     0
176
     1
 90
       50
176
     1
 90
       50
176
     1
 90
       50
176
     1
290
     0
176
     1
 90
       50
176
     1
 62
   256
176
     0
 40
1.0
176
     0
 90
        2
176
     1
  1
strokes_ogs.tif
176
     1
290
     0
176
     1
 40
1.0
176
     1
 40
1.0
176
     1
1001
ACAD
1000
AcDbSavedByObjectVersion
1070
     0
  0
DICTIONARYVAR
  5
AC3
102
{ACAD_REACTORS
330
ABF
102
}
330
ABF
100
DictionaryVariables
280
     0
  1
1:1
  0
DICTIONARYVAR
  5
AC1
102
{ACAD_REACTORS
330
ABF
102
}
330
ABF
100
DictionaryVariables
280
     0
  1
STANDARD
  0
DICTIONARYVAR
  5
AC0
102
{ACAD_REACTORS
330
ABF
102
}
330
ABF
100
DictionaryVariables
280
     0
  1
STANDARD
  0
DICTIONARYVAR
  5
B59
102
{ACAD_REACTORS
330
ABF
102
}
330
ABF
100
DictionaryVariables
280
     0
  1
Metric50
  0
DICTIONARYVAR
  5
B5A
102
{ACAD_REACTORS
330
ABF
102
}
330
ABF
100
DictionaryVariables
280
     0
  1
Metric50
  0
DICTIONARYVAR
  5
ACA
102
{ACAD_REACTORS
330
ABF
102
}
330
ABF
100
DictionaryVariables
280
     0
  1
1
  0
DICTIONARYVAR
  5
AC9
102
{ACAD_REACTORS
330
ABF
102
}
330
ABF
100
DictionaryVariables
280
     0
  1
1
  0
DICTIONARYVAR
  5
AC8
102
{ACAD_REACTORS
330
ABF
102
}
330
ABF
100
DictionaryVariables
280
     0
  1
0
  0
DICTIONARYVAR
  5
AC5
102
{ACAD_REACTORS
330
ABF
102
}
330
ABF
100
DictionaryVariables
280
     0
  1
0
  0
DICTIONARYVAR
  5
AC6
102
{ACAD_REACTORS
330
ABF
102
}
330
ABF
100
DictionaryVariables
280
     0
  1
0
  0
DICTIONARYVAR
  5
AC4
102
{ACAD_REACTORS
330
ABF
102
}
330
ABF
100
DictionaryVariables
280
     0
  1
2
  0
DICTIONARYVAR
  5
AC2
102
{ACAD_REACTORS
330
ABF
102
}
330
ABF
100
DictionaryVariables
280
     0
  1
1
  0
DICTIONARYVAR
  5
AC7
102
{ACAD_REACTORS
330
ABF
102
}
330
ABF
100
DictionaryVariables
280
     0
  1
127
  0
DICTIONARY
  5
B72
330
B33
100
AcDbDictionary
280
     1
281
     1
  3
ACAD_XREC_ROUNDTRIP
360
B73
  0
DICTIONARY
  5
1A
330
19
100
AcDbDictionary
280
     1
281
     1
  3
ACAD_XREC_ROUNDTRIP
360
AF2
  3
BUMPTILE
360
1C
  3
DIFFUSETILE
360
1B
  3
OPACITYTILE
360
1F
  3
REFLECTIONTILE
360
1E
  3
REFRACTIONTILE
360
20
  3
SPECULARTILE
360
1D
  0
DICTIONARY
  5
12
330
11
100
AcDbDictionary
280
     1
281
     1
  3
ACAD_XREC_ROUNDTRIP
360
AF1
  3
BUMPTILE
360
14
  3
DIFFUSETILE
360
13
  3
OPACITYTILE
360
17
  3
REFLECTIONTILE
360
16
  3
REFRACTIONTILE
360
18
  3
SPECULARTILE
360
15
  0
DICTIONARY
  5
22
330
21
100
AcDbDictionary
280
     1
281
     1
  3
ACAD_XREC_ROUNDTRIP
360
AF3
  3
BUMPTILE
360
24
  3
DIFFUSETILE
360
23
  3
OPACITYTILE
360
27
  3
REFLECTIONTILE
360
26
  3
REFRACTIONTILE
360
28
  3
SPECULARTILE
360
25
  0
DICTIONARY
  5
B70
330
B31
100
AcDbDictionary
280
     1
281
     1
  3
ACAD_XREC_ROUNDTRIP
360
B71
  0
DICTIONARY
  5
ACC
330
65
100
AcDbDictionary
280
     1
281
     1
  3
ACAD_ROUNDTRIP_2008_TABLESTYLE_CELLSTYLEMAP
360
B5B
  0
XRECORD
  5
B73
102
{ACAD_REACTORS
330
B72
102
}
330
B72
100
AcDbXrecord
280
     1
102
DISPLAYNAME
  1
Metric50
102
FLAGS
 90
        0
  0
XRECORD
  5
AF2
102
{ACAD_REACTORS
330
1A
102
}
330
1A
100
AcDbXrecord
280
     1
102
MATERIAL
148
0.0
149
0.0
149
0.0
 93
        0
 94
      127
282
     0
 72
     0
 77
     0
171
     0
175
     0
179
     0
273
     0
  0
XRECORD
  5
1C
102
{ACAD_REACTORS
330
1A
102
}
330
1A
100
AcDbXrecord
280
     1
270
     1
271
     1
  0
XRECORD
  5
1B
102
{ACAD_REACTORS
330
1A
102
}
330
1A
100
AcDbXrecord
280
     1
270
     1
271
     1
  0
XRECORD
  5
1F
102
{ACAD_REACTORS
330
1A
102
}
330
1A
100
AcDbXrecord
280
     1
270
     1
271
     1
  0
XRECORD
  5
1E
102
{ACAD_REACTORS
330
1A
102
}
330
1A
100
AcDbXrecord
280
     1
270
     1
271
     1
  0
XRECORD
  5
20
102
{ACAD_REACTORS
330
1A
102
}
330
1A
100
AcDbXrecord
280
     1
270
     1
271
     1
  0
XRECORD
  5
1D
102
{ACAD_REACTORS
330
1A
102
}
330
1A
100
AcDbXrecord
280
     1
270
     1
271
     1
  0
XRECORD
  5
AF1
102
{ACAD_REACTORS
330
12
102
}
330
12
100
AcDbXrecord
280
     1
102
MATERIAL
148
0.0
149
0.0
149
0.0
 93
        0
 94
      127
282
     0
 72
     0
 77
     0
171
     0
175
     0
179
     0
273
     0
  0
XRECORD
  5
14
102
{ACAD_REACTORS
330
12
102
}
330
12
100
AcDbXrecord
280
     1
270
     1
271
     1
  0
XRECORD
  5
13
102
{ACAD_REACTORS
330
12
102
}
330
12
100
AcDbXrecord
280
     1
270
     1
271
     1
  0
XRECORD
  5
17
102
{ACAD_REACTORS
330
12
102
}
330
12
100
AcDbXrecord
280
     1
270
     1
271
     1
  0
XRECORD
  5
16
102
{ACAD_REACTORS
330
12
102
}
330
12
100
AcDbXrecord
280
     1
270
     1
271
     1
  0
XRECORD
  5
18
102
{ACAD_REACTORS
330
12
102
}
330
12
100
AcDbXrecord
280
     1
270
     1
271
     1
  0
XRECORD
  5
15
102
{ACAD_REACTORS
330
12
102
}
330
12
100
AcDbXrecord
280
     1
270
     1
271
     1
  0
XRECORD
  5
AF3
102
{ACAD_REACTORS
330
22
102
}
330
22
100
AcDbXrecord
280
     1
102
MATERIAL
148
0.0
149
0.0
149
0.0
 93
        0
 94
      127
282
     0
 72
     0
 77
     0
171
     0
175
     0
179
     0
273
     0
  0
XRECORD
  5
24
102
{ACAD_REACTORS
330
22
102
}
330
22
100
AcDbXrecord
280
     1
270
     1
271
     1
  0
XRECORD
  5
23
102
{ACAD_REACTORS
330
22
102
}
330
22
100
AcDbXrecord
280
     1
270
     1
271
     1
  0
XRECORD
  5
27
102
{ACAD_REACTORS
330
22
102
}
330
22
100
AcDbXrecord
280
     1
270
     1
271
     1
  0
XRECORD
  5
26
102
{ACAD_REACTORS
330
22
102
}
330
22
100
AcDbXrecord
280
     1
270
     1
271
     1
  0
XRECORD
  5
28
102
{ACAD_REACTORS
330
22
102
}
330
22
100
AcDbXrecord
280
     1
270
     1
271
     1
  0
XRECORD
  5
25
102
{ACAD_REACTORS
330
22
102
}
330
22
100
AcDbXrecord
280
     1
270
     1
271
     1
  0
XRECORD
  5
B71
102
{ACAD_REACTORS
330
B70
102
}
330
B70
100
AcDbXrecord
280
     1
102
DISPLAYNAME
  1
Metric50
102
FLAGS
 90
        0
  0
CELLSTYLEMAP
  5
B5B
102
{ACAD_REACTORS
330
ACC
102
}
330
ACC
100
AcDbCellStyleMap
 90
        3
300
CELLSTYLE
  1
TABLEFORMAT_BEGIN
 90
        5
170
     1
 91
        0
 92
    32768
 62
   257
 93
        1
300
CONTENTFORMAT
  1
CONTENTFORMAT_BEGIN
 90
        0
 91
        0
 92
      512
 93
        0
300

 40
0.0
140
1.0
 94
        5
 62
     0
340
55
144
0.25
309
CONTENTFORMAT_END
171
     1
301
MARGIN
  1
CELLMARGIN_BEGIN
 40
0.06
 40
0.06
 40
0.06
 40
0.06
 40
0.18
 40
0.18
309
CELLMARGIN_END
 94
        6
 95
        1
302
GRIDFORMAT
  1
GRIDFORMAT_BEGIN
 90
        0
 91
        1
 62
     0
 92
       -2
340
0
 93
        0
 40
0.045
309
GRIDFORMAT_END
 95
        2
302
GRIDFORMAT
  1
GRIDFORMAT_BEGIN
 90
        0
 91
        1
 62
     0
 92
       -2
340
0
 93
        0
 40
0.045
309
GRIDFORMAT_END
 95
        4
302
GRIDFORMAT
  1
GRIDFORMAT_BEGIN
 90
        0
 91
        1
 62
     0
 92
       -2
340
0
 93
        0
 40
0.045
309
GRIDFORMAT_END
 95
        8
302
GRIDFORMAT
  1
GRIDFORMAT_BEGIN
 90
        0
 91
        1
 62
     0
 92
       -2
340
0
 93
        0
 40
0.045
309
GRIDFORMAT_END
 95
       16
302
GRIDFORMAT
  1
GRIDFORMAT_BEGIN
 90
        0
 91
        1
 62
     0
 92
       -2
340
0
 93
        0
 40
0.045
309
GRIDFORMAT_END
 95
       32
302
GRIDFORMAT
  1
GRIDFORMAT_BEGIN
 90
        0
 91
        1
 62
     0
 92
       -2
340
0
 93
        0
 40
0.045
309
GRIDFORMAT_END
309
TABLEFORMAT_END
  1
CELLSTYLE_BEGIN
 90
        1
 91
        1
300
_TITLE
309
CELLSTYLE_END
300
CELLSTYLE
  1
TABLEFORMAT_BEGIN
 90
        5
170
     1
 91
        0
 92
        0
 62
   257
 93
        1
300
CONTENTFORMAT
  1
CONTENTFORMAT_BEGIN
 90
        0
 91
        0
 92
      512
 93
        0
300

 40
0.0
140
1.0
 94
        5
 62
     0
340
55
144
0.18
309
CONTENTFORMAT_END
171
     1
301
MARGIN
  1
CELLMARGIN_BEGIN
 40
0.06
 40
0.06
 40
0.06
 40
0.06
 40
0.18
 40
0.18
309
CELLMARGIN_END
 94
        6
 95
        1
302
GRIDFORMAT
  1
GRIDFORMAT_BEGIN
 90
        0
 91
        1
 62
     0
 92
       -2
340
0
 93
        0
 40
0.045
309
GRIDFORMAT_END
 95
        2
302
GRIDFORMAT
  1
GRIDFORMAT_BEGIN
 90
        0
 91
        1
 62
     0
 92
       -2
340
0
 93
        0
 40
0.045
309
GRIDFORMAT_END
 95
        4
302
GRIDFORMAT
  1
GRIDFORMAT_BEGIN
 90
        0
 91
        1
 62
     0
 92
       -2
340
0
 93
        0
 40
0.045
309
GRIDFORMAT_END
 95
        8
302
GRIDFORMAT
  1
GRIDFORMAT_BEGIN
 90
        0
 91
        1
 62
     0
 92
       -2
340
0
 93
        0
 40
0.045
309
GRIDFORMAT_END
 95
       16
302
GRIDFORMAT
  1
GRIDFORMAT_BEGIN
 90
        0
 91
        1
 62
     0
 92
       -2
340
0
 93
        0
 40
0.045
309
GRIDFORMAT_END
 95
       32
302
GRIDFORMAT
  1
GRIDFORMAT_BEGIN
 90
        0
 91
        1
 62
     0
 92
       -2
340
0
 93
        0
 40
0.045
309
GRIDFORMAT_END
309
TABLEFORMAT_END
  1
CELLSTYLE_BEGIN
 90
        2
 91
        1
300
_HEADER
309
CELLSTYLE_END
300
CELLSTYLE
  1
TABLEFORMAT_BEGIN
 90
        5
170
     1
 91
        0
 92
        0
 62
   257
 93
        1
300
CONTENTFORMAT
  1
CONTENTFORMAT_BEGIN
 90
        0
 91
        0
 92
      512
 93
        0
300

 40
0.0
140
1.0
 94
        2
 62
     0
340
55
144
0.18
309
CONTENTFORMAT_END
171
     1
301
MARGIN
  1
CELLMARGIN_BEGIN
 40
0.06
 40
0.06
 40
0.06
 40
0.06
 40
0.18
 40
0.18
309
CELLMARGIN_END
 94
        6
 95
        1
302
GRIDFORMAT
  1
GRIDFORMAT_BEGIN
 90
        0
 91
        1
 62
     0
 92
       -2
340
0
 93
        0
 40
0.045
309
GRIDFORMAT_END
 95
        2
302
GRIDFORMAT
  1
GRIDFORMAT_BEGIN
 90
        0
 91
        1
 62
     0
 92
       -2
340
0
 93
        0
 40
0.045
309
GRIDFORMAT_END
 95
        4
302
GRIDFORMAT
  1
GRIDFORMAT_BEGIN
 90
        0
 91
        1
 62
     0
 92
       -2
340
0
 93
        0
 40
0.045
309
GRIDFORMAT_END
 95
        8
302
GRIDFORMAT
  1
GRIDFORMAT_BEGIN
 90
        0
 91
        1
 62
     0
 92
       -2
340
0
 93
        0
 40
0.045
309
GRIDFORMAT_END
 95
       16
302
GRIDFORMAT
  1
GRIDFORMAT_BEGIN
 90
        0
 91
        1
 62
     0
 92
       -2
340
0
 93
        0
 40
0.045
309
GRIDFORMAT_END
 95
       32
302
GRIDFORMAT
  1
GRIDFORMAT_BEGIN
 90
        0
 91
        1
 62
     0
 92
       -2
340
0
 93
        0
 40
0.045
309
GRIDFORMAT_END
309
TABLEFORMAT_END
  1
CELLSTYLE_BEGIN
 90
        3
 91
        2
300
_DATA
309
CELLSTYLE_END
  0
ENDSEC
  0
EOF
