  0
SECTION
  2
HEADER
  9
$ACADVER
  1
AC1027
  9
$ACADMAINTVER
 70
   125
  9
$DWGCODEPAGE
  3
ANSI_1252
  9
$LASTSAVEDBY
  1
fleminab
  9
$REQUIREDVERSIONS
160
                 0
  9
$INSBASE
 10
0.0
 20
0.0
 30
0.0
  9
$EXTMIN
 10
-672.2192018287986
 20
1889.157517041578
 30
-0.0015258207003583
  9
$EXTMAX
 10
-367.7662921874912
 20
2134.792652034256
 30
0.0000000349246037
  9
$LIMMIN
 10
0.0
 20
0.0
  9
$LIMMAX
 10
0.0
 20
0.0
  9
$ORTHOMODE
 70
     0
  9
$REGENMODE
 70
     1
  9
$FILLMODE
 70
     1
  9
$QTEXTMODE
 70
     0
  9
$MIRRTEXT
 70
     1
  9
$LTSCALE
 40
0.5
  9
$ATTMODE
 70
     1
  9
$TEXTSIZE
 40
2.5
  9
$TRACEWID
 40
1.0
  9
$TEXTSTYLE
  7
Standard
  9
$CLAYER
  8
0
  9
$CELTYPE
  6
ByLayer
  9
$CECOLOR
 62
   256
  9
$CELTSCALE
 40
0.5
  9
$DISPSILH
 70
     0
  9
$DIMSCALE
 40
1.0
  9
$DIMASZ
 40
2.5
  9
$DIMEXO
 40
1.0
  9
$DIMDLI
 40
3.75
  9
$DIMRND
 40
0.0
  9
$DIMDLE
 40
0.0
  9
$DIMEXE
 40
1.0
  9
$DIMTP
 40
0.0
  9
$DIMTM
 40
0.0
  9
$DIMTXT
 40
2.5
  9
$DIMCEN
 40
2.5
  9
$DIMTSZ
 40
0.0
  9
$DIMTOL
 70
     0
  9
$DIMLIM
 70
     0
  9
$DIMTIH
 70
     0
  9
$DIMTOH
 70
     0
  9
$DIMSE1
 70
     0
  9
$DIMSE2
 70
     0
  9
$DIMTAD
 70
     1
  9
$DIMZIN
 70
     8
  9
$DIMBLK
  1
Open30
  9
$DIMASO
 70
     1
  9
$DIMSHO
 70
     1
  9
$DIMPOST
  1

  9
$DIMAPOST
  1

  9
$DIMALT
 70
     0
  9
$DIMALTD
 70
     3
  9
$DIMALTF
 40
0.0393700787401575
  9
$DIMLFAC
 40
1.0
  9
$DIMTOFL
 70
     1
  9
$DIMTVP
 40
0.0
  9
$DIMTIX
 70
     0
  9
$DIMSOXD
 70
     0
  9
$DIMSAH
 70
     0
  9
$DIMBLK1
  1

  9
$DIMBLK2
  1

  9
$DIMSTYLE
  2
ISO-25
  9
$DIMCLRD
 70
     0
  9
$DIMCLRE
 70
     0
  9
$DIMCLRT
 70
     0
  9
$DIMTFAC
 40
1.0
  9
$DIMGAP
 40
0.526
  9
$DIMJUST
 70
     0
  9
$DIMSD1
 70
     0
  9
$DIMSD2
 70
     0
  9
$DIMTOLJ
 70
     0
  9
$DIMTZIN
 70
     0
  9
$DIMALTZ
 70
     0
  9
$DIMALTTZ
 70
     0
  9
$DIMUPT
 70
     0
  9
$DIMDEC
 70
     1
  9
$DIMTDEC
 70
     1
  9
$DIMALTU
 70
     2
  9
$DIMALTTD
 70
     3
  9
$DIMTXSTY
  7
Standard
  9
$DIMAUNIT
 70
     0
  9
$DIMADEC
 70
     0
  9
$DIMALTRND
 40
0.0
  9
$DIMAZIN
 70
     0
  9
$DIMDSEP
 70
    46
  9
$DIMATFIT
 70
     3
  9
$DIMFRAC
 70
     0
  9
$DIMLDRBLK
  1

  9
$DIMLUNIT
 70
     2
  9
$DIMLWD
 70
    -2
  9
$DIMLWE
 70
    -2
  9
$DIMTMOVE
 70
     0
  9
$DIMFXL
 40
1.0
  9
$DIMFXLON
 70
     0
  9
$DIMJOGANG
 40
0.7853981633974483
  9
$DIMTFILL
 70
     0
  9
$DIMTFILLCLR
 70
     0
  9
$DIMARCSYM
 70
     0
  9
$DIMLTYPE
  6

  9
$DIMLTEX1
  6

  9
$DIMLTEX2
  6

  9
$DIMTXTDIRECTION
 70
     0
  9
$LUNITS
 70
     2
  9
$LUPREC
 70
     4
  9
$SKETCHINC
 40
1.0
  9
$FILLETRAD
 40
1.5
  9
$AUNITS
 70
     0
  9
$AUPREC
 70
     0
  9
$MENU
  1
.
  9
$ELEVATION
 40
0.0
  9
$PELEVATION
 40
0.0
  9
$THICKNESS
 40
0.0
  9
$LIMCHECK
 70
     0
  9
$CHAMFERA
 40
0.5
  9
$CHAMFERB
 40
0.5
  9
$CHAMFERC
 40
20.0
  9
$CHAMFERD
 40
0.0
  9
$SKPOLY
 70
     0
  9
$TDCREATE
 40
2454454.816539352
  9
$TDUCREATE
 40
2454454.358216864
  9
$TDUPDATE
 40
2458219.412673611
  9
$TDUUPDATE
 40
2458218.996006944
  9
$TDINDWG
 40
8.2592303009
  9
$TDUSRTIMER
 40
8.2592303009
  9
$USRTIMER
 70
     1
  9
$ANGBASE
 50
0.0
  9
$ANGDIR
 70
     0
  9
$PDMODE
 70
     0
  9
$PDSIZE
 40
-1.0
  9
$PLINEWID
 40
0.0
  9
$SPLFRAME
 70
     0
  9
$SPLINETYPE
 70
     6
  9
$SPLINESEGS
 70
     8
  9
$HANDSEED
  5
101AE3F
  9
$SURFTAB1
 70
     6
  9
$SURFTAB2
 70
     6
  9
$SURFTYPE
 70
     6
  9
$SURFU
 70
     6
  9
$SURFV
 70
     6
  9
$UCSBASE
  2

  9
$UCSNAME
  2

  9
$UCSORG
 10
0.0
 20
0.0
 30
0.0
  9
$UCSXDIR
 10
1.0
 20
0.0
 30
0.0
  9
$UCSYDIR
 10
0.0
 20
1.0
 30
0.0
  9
$UCSORTHOREF
  2

  9
$UCSORTHOVIEW
 70
     0
  9
$UCSORGTOP
 10
0.0
 20
0.0
 30
0.0
  9
$UCSORGBOTTOM
 10
0.0
 20
0.0
 30
0.0
  9
$UCSORGLEFT
 10
0.0
 20
0.0
 30
0.0
  9
$UCSORGRIGHT
 10
0.0
 20
0.0
 30
0.0
  9
$UCSORGFRONT
 10
0.0
 20
0.0
 30
0.0
  9
$UCSORGBACK
 10
0.0
 20
0.0
 30
0.0
  9
$PUCSBASE
  2

  9
$PUCSNAME
  2

  9
$PUCSORG
 10
0.0
 20
0.0
 30
0.0
  9
$PUCSXDIR
 10
1.0
 20
0.0
 30
0.0
  9
$PUCSYDIR
 10
0.0
 20
1.0
 30
0.0
  9
$PUCSORTHOREF
  2

  9
$PUCSORTHOVIEW
 70
     0
  9
$PUCSORGTOP
 10
0.0
 20
0.0
 30
0.0
  9
$PUCSORGBOTTOM
 10
0.0
 20
0.0
 30
0.0
  9
$PUCSORGLEFT
 10
0.0
 20
0.0
 30
0.0
  9
$PUCSORGRIGHT
 10
0.0
 20
0.0
 30
0.0
  9
$PUCSORGFRONT
 10
0.0
 20
0.0
 30
0.0
  9
$PUCSORGBACK
 10
0.0
 20
0.0
 30
0.0
  9
$USERI1
 70
     0
  9
$USERI2
 70
     0
  9
$USERI3
 70
     0
  9
$USERI4
 70
     0
  9
$USERI5
 70
     0
  9
$USERR1
 40
0.0
  9
$USERR2
 40
0.0
  9
$USERR3
 40
0.0
  9
$USERR4
 40
0.0
  9
$USERR5
 40
0.0
  9
$WORLDVIEW
 70
     1
  9
$SHADEDGE
 70
     3
  9
$SHADEDIF
 70
    70
  9
$TILEMODE
 70
     1
  9
$MAXACTVP
 70
    64
  9
$PINSBASE
 10
0.0
 20
0.0
 30
0.0
  9
$PLIMCHECK
 70
     0
  9
$PEXTMIN
 10
1.000000000000000E+20
 20
1.000000000000000E+20
 30
1.000000000000000E+20
  9
$PEXTMAX
 10
-1.000000000000000E+20
 20
-1.000000000000000E+20
 30
-1.000000000000000E+20
  9
$PLIMMIN
 10
0.0
 20
0.0
  9
$PLIMMAX
 10
420.0
 20
297.0
  9
$UNITMODE
 70
     0
  9
$VISRETAIN
 70
     1
  9
$PLINEGEN
 70
     0
  9
$PSLTSCALE
 70
     1
  9
$TREEDEPTH
 70
  3020
  9
$CMLSTYLE
  2
Standard
  9
$CMLJUST
 70
     0
  9
$CMLSCALE
 40
20.0
  9
$PROXYGRAPHICS
 70
     1
  9
$MEASUREMENT
 70
     1
  9
$CELWEIGHT
370
    -1
  9
$ENDCAPS
280
     0
  9
$JOINSTYLE
280
     0
  9
$LWDISPLAY
290
     0
  9
$INSUNITS
 70
     4
  9
$HYPERLINKBASE
  1

  9
$STYLESHEET
  1

  9
$XEDIT
290
     1
  9
$CEPSNTYPE
380
     0
  9
$PSTYLEMODE
290
     1
  9
$FINGERPRINTGUID
  2
{A12051D7-B147-4678-A729-AB49B70941BD}
  9
$VERSIONGUID
  2
{37FB9F20-420B-0342-AB05-C0841E4DFE76}
  9
$EXTNAMES
290
     1
  9
$PSVPSCALE
 40
0.0
  9
$OLESTARTUP
290
     0
  9
$SORTENTS
280
   127
  9
$INDEXCTL
280
     0
  9
$HIDETEXT
280
     0
  9
$XCLIPFRAME
280
     2
  9
$HALOGAP
280
     0
  9
$OBSCOLOR
 70
   257
  9
$OBSLTYPE
280
     0
  9
$INTERSECTIONDISPLAY
280
     0
  9
$INTERSECTIONCOLOR
 70
   257
  9
$DIMASSOC
280
     1
  9
$PROJECTNAME
  1

  9
$CAMERADISPLAY
290
     0
  9
$LENSLENGTH
 40
50.0
  9
$CAMERAHEIGHT
 40
0.0
  9
$STEPSPERSEC
 40
2.0
  9
$STEPSIZE
 40
6.0
  9
$3DDWFPREC
 40
2.0
  9
$PSOLWIDTH
 40
0.25
  9
$PSOLHEIGHT
 40
4.0
  9
$LOFTANG1
 40
1.570796326794896
  9
$LOFTANG2
 40
1.570796326794896
  9
$LOFTMAG1
 40
0.0
  9
$LOFTMAG2
 40
0.0
  9
$LOFTPARAM
 70
     7
  9
$LOFTNORMALS
280
     1
  9
$LATITUDE
 40
37.795
  9
$LONGITUDE
 40
-122.394
  9
$NORTHDIRECTION
 40
0.0
  9
$TIMEZONE
 70
 -8000
  9
$LIGHTGLYPHDISPLAY
280
     1
  9
$TILEMODELIGHTSYNCH
280
     1
  9
$CMATERIAL
347
101AD65
  9
$SOLIDHIST
280
     0
  9
$SHOWHIST
280
     1
  9
$DWFFRAME
280
     2
  9
$DGNFRAME
280
     0
  9
$REALWORLDSCALE
290
     1
  9
$INTERFERECOLOR
 62
     1
  9
$INTERFEREOBJVS
345
101AD87
  9
$INTERFEREVPVS
346
101AD84
  9
$CSHADOW
280
     0
  9
$SHADOWPLANELOCATION
 40
0.0
  0
ENDSEC
  0
SECTION
  2
CLASSES
  0
CLASS
  1
ACDBDICTIONARYWDFLT
  2
AcDbDictionaryWithDefault
  3
ObjectDBX Classes
 90
        0
 91
        1
280
     0
281
     0
  0
CLASS
  1
TABLESTYLE
  2
AcDbTableStyle
  3
ObjectDBX Classes
 90
     4095
 91
        1
280
     0
281
     0
  0
CLASS
  1
SORTENTSTABLE
  2
AcDbSortentsTable
  3
ObjectDBX Classes
 90
        0
 91
        1
280
     0
281
     0
  0
CLASS
  1
DICTIONARYVAR
  2
AcDbDictionaryVar
  3
ObjectDBX Classes
 90
        0
 91
       19
280
     0
281
     0
  0
CLASS
  1
DIMASSOC
  2
AcDbDimAssoc
  3
"AcDbDimAssoc|Product Desc:     AcDim ARX App For Dimension|Company:          Autodesk, Inc.|WEB Address:      www.autodesk.com"
 90
        0
 91
        0
280
     0
281
     0
  0
CLASS
  1
ARC_DIMENSION
  2
AcDbArcDimension
  3
ObjectDBX Classes
 90
     1025
 91
        0
280
     0
281
     1
  0
CLASS
  1
MATERIAL
  2
AcDbMaterial
  3
ObjectDBX Classes
 90
     1153
 91
        3
280
     0
281
     0
  0
CLASS
  1
VISUALSTYLE
  2
AcDbVisualStyle
  3
ObjectDBX Classes
 90
     4095
 91
       24
280
     0
281
     0
  0
CLASS
  1
SCALE
  2
AcDbScale
  3
ObjectDBX Classes
 90
     1153
 91
       17
280
     0
281
     0
  0
CLASS
  1
MLEADERSTYLE
  2
AcDbMLeaderStyle
  3
ACDB_MLEADERSTYLE_CLASS
 90
     4095
 91
        1
280
     0
281
     0
  0
CLASS
  1
ACDBSECTIONVIEWSTYLE
  2
AcDbSectionViewStyle
  3
ObjectDBX Classes
 90
     1025
 91
        1
280
     0
281
     0
  0
CLASS
  1
ACDBDETAILVIEWSTYLE
  2
AcDbDetailViewStyle
  3
ObjectDBX Classes
 90
     1025
 91
        1
280
     0
281
     0
  0
CLASS
  1
CELLSTYLEMAP
  2
AcDbCellStyleMap
  3
ObjectDBX Classes
 90
     1152
 91
        1
280
     0
281
     0
  0
ENDSEC
  0
SECTION
  2
TABLES
  0
TABLE
  2
VPORT
  5
8
330
0
100
AcDbSymbolTable
 70
     1
1001
ACAD
1000
DbSaveVer
1071
        5
  0
VPORT
  5
1AD5C
330
8
100
AcDbSymbolTableRecord
100
AcDbViewportTableRecord
  2
*Active
 70
     0
 10
0.0
 20
0.0
 11
1.0
 21
1.0
 12
-519.9927470081449
 22
2011.975084537917
 13
0.0
 23
0.0
 14
10.0
 24
10.0
 15
10.0
 25
10.0
 16
0.0
 26
0.0
 36
1.0
 17
0.0
 27
0.0
 37
0.0
 40
247.3938591095709
 41
2.292712066905615
 42
50.0
 43
0.0
 44
0.0
 50
0.0
 51
0.0
 71
     0
 72
  2000
 73
     1
 74
     3
 75
     0
 76
     0
 77
     0
 78
     0
281
     0
 65
     1
110
0.0
120
0.0
130
0.0
111
1.0
121
0.0
131
0.0
112
0.0
122
1.0
132
0.0
 79
     0
146
0.0
348
101AD83
 60
     3
 61
     5
292
     1
282
     1
141
0.0
142
0.0
 63
   250
421
  3355443
1001
ACAD_NAV_VCDISPLAY
1070
     3
  0
ENDTAB
  0
TABLE
  2
LTYPE
  5
5
330
0
100
AcDbSymbolTable
 70
     4
  0
LTYPE
  5
14
330
5
100
AcDbSymbolTableRecord
100
AcDbLinetypeTableRecord
  2
ByBlock
 70
     0
  3

 72
    65
 73
     0
 40
0.0
  0
LTYPE
  5
15
330
5
100
AcDbSymbolTableRecord
100
AcDbLinetypeTableRecord
  2
ByLayer
 70
     0
  3

 72
    65
 73
     0
 40
0.0
  0
LTYPE
  5
16
330
5
100
AcDbSymbolTableRecord
100
AcDbLinetypeTableRecord
  2
Continuous
 70
     0
  3
Solid line
 72
    65
 73
     0
 40
0.0
  0
LTYPE
  5
40E
330
5
100
AcDbSymbolTableRecord
100
AcDbLinetypeTableRecord
  2
CENTER2
 70
     0
  3
Center (.5x) ___ _ ___ _ ___ _ ___ _ ___ _ ___
 72
    65
 73
     4
 40
28.575
 49
19.05
 74
     0
 49
-3.174999999999999
 74
     0
 49
3.174999999999999
 74
     0
 49
-3.174999999999999
 74
     0
  0
LTYPE
  5
281C
330
5
100
AcDbSymbolTableRecord
100
AcDbLinetypeTableRecord
  2
PHANTOM
 70
     0
  3
Phantom ______  __  __  ______  __  __  ______
 72
    65
 73
     6
 40
63.5
 49
31.75
 74
     0
 49
-6.349999999999999
 74
     0
 49
6.349999999999999
 74
     0
 49
-6.349999999999999
 74
     0
 49
6.349999999999999
 74
     0
 49
-6.349999999999999
 74
     0
  0
LTYPE
  5
2EF9
330
5
100
AcDbSymbolTableRecord
100
AcDbLinetypeTableRecord
  2
ACAD_ISO02W100
 70
     0
  3
ISO dash __ __ __ __ __ __ __ __ __ __ __ __ __
 72
    65
 73
     2
 40
15.0
 49
12.0
 74
     0
 49
-3.0
 74
     0
  0
ENDTAB
  0
TABLE
  2
LAYER
  5
2
102
{ACAD_XDICTIONARY
360
411
102
}
330
0
100
AcDbSymbolTable
 70
     9
  0
LAYER
  5
10
102
{ACAD_XDICTIONARY
360
101AE12
102
}
330
2
100
AcDbSymbolTableRecord
100
AcDbLayerTableRecord
  2
0
 70
     0
 62
     7
  6
Continuous
370
    50
390
F
347
101AD75
348
0
  0
LAYER
  5
20A
330
2
100
AcDbSymbolTableRecord
100
AcDbLayerTableRecord
  2
Defpoints
 70
     0
 62
     7
  6
Continuous
290
     0
370
    -3
390
F
347
101AD75
348
0
  0
LAYER
  5
40A
102
{ACAD_XDICTIONARY
360
101AE14
102
}
330
2
100
AcDbSymbolTableRecord
100
AcDbLayerTableRecord
  2
中心线
 70
     0
 62
     1
  6
CENTER2
370
    -3
390
F
347
101AD75
348
0
1001
AcAecLayerStandard
1000

1000

1001
AcadStringInfo
1000
MIFCodePage
1070
     5
  0
LAYER
  5
40F
102
{ACAD_XDICTIONARY
360
101AE16
102
}
330
2
100
AcDbSymbolTableRecord
100
AcDbLayerTableRecord
  2
尺寸线
 70
     0
 62
     5
  6
Continuous
370
    -3
390
F
347
101AD75
348
0
1001
AcAecLayerStandard
1000

1000

1001
AcadStringInfo
1000
MIFCodePage
1070
     5
  0
LAYER
  5
410
102
{ACAD_XDICTIONARY
360
101AE18
102
}
330
2
100
AcDbSymbolTableRecord
100
AcDbLayerTableRecord
  2
细实线
 70
     0
 62
     7
  6
Continuous
370
    -3
390
F
347
101AD75
348
0
1001
AcAecLayerStandard
1000

1000

1001
AcadStringInfo
1000
MIFCodePage
1070
     5
  0
LAYER
  5
281D
102
{ACAD_XDICTIONARY
360
101AE1A
102
}
330
2
100
AcDbSymbolTableRecord
100
AcDbLayerTableRecord
  2
双点划线
 70
     0
 62
     7
  6
PHANTOM
370
    -3
390
F
347
101AD75
348
0
1001
AcadStringInfo
1000
MIFCodePage
1070
     5
  0
LAYER
  5
4262
102
{ACAD_XDICTIONARY
360
101AE1C
102
}
330
2
100
AcDbSymbolTableRecord
100
AcDbLayerTableRecord
  2
虚线
 70
     0
 62
     7
  6
ACAD_ISO02W100
370
    -3
390
F
347
101AD75
348
0
1001
AcAecLayerStandard
1000

1000

1001
AcadStringInfo
1000
MIFCodePage
1070
     5
  0
LAYER
  5
CAEE
102
{ACAD_XDICTIONARY
360
101AE1E
102
}
330
2
100
AcDbSymbolTableRecord
100
AcDbLayerTableRecord
  2
图层3
 70
     0
 62
     5
  6
Continuous
370
    15
390
F
347
101AD75
348
0
1001
AcadStringInfo
1000
MIFCodePage
1070
     5
  0
LAYER
  5
CAF2
102
{ACAD_XDICTIONARY
360
101AE20
102
}
330
2
100
AcDbSymbolTableRecord
100
AcDbLayerTableRecord
  2
图层7
 70
     0
 62
     7
  6
Continuous
370
    15
390
F
347
101AD75
348
0
1001
AcadStringInfo
1000
MIFCodePage
1070
     5
  0
ENDTAB
  0
TABLE
  2
STYLE
  5
3
330
0
100
AcDbSymbolTable
 70
     3
  0
STYLE
  5
11
330
3
100
AcDbSymbolTableRecord
100
AcDbTextStyleTableRecord
  2
Standard
 70
     0
 40
0.0
 41
1.0
 50
0.0
 71
     0
 42
2.5
  3
txt
  4

  0
STYLE
  5
281F
330
3
100
AcDbSymbolTableRecord
100
AcDbTextStyleTableRecord
  2
样式 1
 70
     0
 40
2.5
 41
1.0
 50
0.0
 71
     0
 42
2.5
  3
SimSun.ttf
  4

1001
ACAD
1000
SimSun
1071
    34306
1001
AcadStringInfo
1000
MIFCodePage
1070
     5
  0
STYLE
  5
CAF4
330
3
100
AcDbSymbolTableRecord
100
AcDbTextStyleTableRecord
  2
样式 2
 70
     0
 40
3.2
 41
1.0
 50
0.0
 71
     0
 42
3.2
  3
SimSun.ttf
  4

1001
ACAD
1000
SimSun
1071
    34306
1001
AcadStringInfo
1000
MIFCodePage
1070
     5
  0
ENDTAB
  0
TABLE
  2
VIEW
  5
6
330
0
100
AcDbSymbolTable
 70
     0
  0
ENDTAB
  0
TABLE
  2
UCS
  5
7
330
0
100
AcDbSymbolTable
 70
     0
  0
ENDTAB
  0
TABLE
  2
APPID
  5
9
330
0
100
AcDbSymbolTable
 70
    15
  0
APPID
  5
12
330
9
100
AcDbSymbolTableRecord
100
AcDbRegAppTableRecord
  2
ACAD
 70
     0
  0
APPID
  5
26F
330
9
100
AcDbSymbolTableRecord
100
AcDbRegAppTableRecord
  2
ACAD_DSTYLE_DIMTEXT_FILL
 70
     0
  0
APPID
  5
270
330
9
100
AcDbSymbolTableRecord
100
AcDbRegAppTableRecord
  2
ACAD_DSTYLE_DIMEXT_LENGTH
 70
     0
  0
APPID
  5
271
330
9
100
AcDbSymbolTableRecord
100
AcDbRegAppTableRecord
  2
ACAD_DSTYLE_DIMEXT_ENABLED
 70
     0
  0
APPID
  5
272
330
9
100
AcDbSymbolTableRecord
100
AcDbRegAppTableRecord
  2
ACAD_DSTYLE_DIM_LINETYPE
 70
     0
  0
APPID
  5
273
330
9
100
AcDbSymbolTableRecord
100
AcDbRegAppTableRecord
  2
ACAD_DSTYLE_DIM_EXT1_LINETYPE
 70
     0
  0
APPID
  5
274
330
9
100
AcDbSymbolTableRecord
100
AcDbRegAppTableRecord
  2
ACAD_DSTYLE_DIM_EXT2_LINETYPE
 70
     0
  0
APPID
  5
330
330
9
100
AcDbSymbolTableRecord
100
AcDbRegAppTableRecord
  2
ACAD_DSTYLE_DIMJOGGED_JOGANGLE_SYMBOL
 70
     0
  0
APPID
  5
3C4
330
9
100
AcDbSymbolTableRecord
100
AcDbRegAppTableRecord
  2
ACAD_DSTYLE_DIMARC_LENGTH_SYMBOL
 70
     0
  0
APPID
  5
3FB
330
9
100
AcDbSymbolTableRecord
100
AcDbRegAppTableRecord
  2
ACAD_EXEMPT_FROM_CAD_STANDARDS
 70
     0
  0
APPID
  5
40B
330
9
100
AcDbSymbolTableRecord
100
AcDbRegAppTableRecord
  2
AcAecLayerStandard
 70
     0
  0
APPID
  5
5D3
330
9
100
AcDbSymbolTableRecord
100
AcDbRegAppTableRecord
  2
ACAD_PSEXT
 70
     0
  0
APPID
  5
AB62
330
9
100
AcDbSymbolTableRecord
100
AcDbRegAppTableRecord
  2
DCO15
 70
     0
  0
APPID
  5
101ADAB
330
9
100
AcDbSymbolTableRecord
100
AcDbRegAppTableRecord
  2
AcadStringInfo
 70
     0
  0
APPID
  5
101AE22
330
9
100
AcDbSymbolTableRecord
100
AcDbRegAppTableRecord
  2
ACAD_NAV_VCDISPLAY
 70
     0
  0
ENDTAB
  0
TABLE
  2
DIMSTYLE
  5
A
330
0
100
AcDbSymbolTable
 70
     2
100
AcDbDimStyleTable
 71
     1
340
27
  0
DIMSTYLE
105
27
102
{ACAD_REACTORS
330
B11A
330
B127
330
B143
330
B15C
330
B166
330
B170
102
}
330
A
100
AcDbSymbolTableRecord
100
AcDbDimStyleTableRecord
  2
ISO-25
 70
     0
 41
2.5
 42
0.625
 43
3.75
 44
1.25
 73
     0
 74
     0
 77
     1
 78
     8
140
2.5
141
2.5
143
0.03937007874016
147
0.625
171
     3
172
     1
271
     2
272
     2
274
     3
278
    44
283
     0
284
     8
340
11
  0
DIMSTYLE
105
AB60
330
A
100
AcDbSymbolTableRecord
100
AcDbDimStyleTableRecord
  2
STANDARD
 70
     0
 41
0.1875
 47
0.01
 48
0.01
 78
     4
140
0.15625
271
     2
272
     2
284
     4
340
11
  0
ENDTAB
  0
TABLE
  2
BLOCK_RECORD
  5
1
330
0
100
AcDbSymbolTable
 70
     9
  0
BLOCK_RECORD
  5
1F
102
{ACAD_XDICTIONARY
360
206
102
}
330
1
100
AcDbSymbolTableRecord
100
AcDbBlockTableRecord
  2
*Model_Space
340
22
 70
     0
280
     1
281
     0
  0
BLOCK_RECORD
  5
1B
330
1
100
AcDbSymbolTableRecord
100
AcDbBlockTableRecord
  2
*Paper_Space
340
1E
 70
     0
280
     1
281
     0
  0
BLOCK_RECORD
  5
23
330
1
100
AcDbSymbolTableRecord
100
AcDbBlockTableRecord
  2
*Paper_Space0
340
26
 70
     0
280
     1
281
     0
  0
BLOCK_RECORD
  5
111D
330
1
100
AcDbSymbolTableRecord
100
AcDbBlockTableRecord
  2
_Open30
340
0
102
{BLKREFS
331
101ADE3
331
101ADE4
331
101ADEE
331
101ADEF
331
101ADF7
331
101ADF8
331
101AE00
331
101AE06
331
101AE0C
331
101AE0D
102
}
 70
     0
280
     1
281
     0
  0
BLOCK_RECORD
  5
12E9
330
1
100
AcDbSymbolTableRecord
100
AcDbBlockTableRecord
  2
_DotSmall
340
0
 70
     0
280
     1
281
     0
  0
BLOCK_RECORD
  5
B11B
330
1
100
AcDbSymbolTableRecord
100
AcDbBlockTableRecord
  2
*D3
340
0
 70
     0
280
     1
281
     0
  0
BLOCK_RECORD
  5
B128
330
1
100
AcDbSymbolTableRecord
100
AcDbBlockTableRecord
  2
*D4
340
0
 70
     0
280
     1
281
     0
  0
BLOCK_RECORD
  5
B144
330
1
100
AcDbSymbolTableRecord
100
AcDbBlockTableRecord
  2
*D5
340
0
 70
     0
280
     1
281
     0
  0
BLOCK_RECORD
  5
B15D
330
1
100
AcDbSymbolTableRecord
100
AcDbBlockTableRecord
  2
*D6
340
0
 70
     0
280
     1
281
     0
  0
BLOCK_RECORD
  5
B167
330
1
100
AcDbSymbolTableRecord
100
AcDbBlockTableRecord
  2
*D7
340
0
 70
     0
280
     1
281
     0
  0
BLOCK_RECORD
  5
B171
330
1
100
AcDbSymbolTableRecord
100
AcDbBlockTableRecord
  2
*D8
340
0
 70
     0
280
     1
281
     0
  0
ENDTAB
  0
ENDSEC
  0
SECTION
  2
BLOCKS
  0
BLOCK
  5
20
330
1F
100
AcDbEntity
  8
0
100
AcDbBlockBegin
  2
*Model_Space
 70
     0
 10
0.0
 20
0.0
 30
0.0
  3
*Model_Space
  1

  0
ENDBLK
  5
21
330
1F
100
AcDbEntity
  8
0
100
AcDbBlockEnd
  0
BLOCK
  5
1C
330
1B
100
AcDbEntity
 67
     1
  8
0
100
AcDbBlockBegin
  2
*Paper_Space
 70
     0
 10
0.0
 20
0.0
 30
0.0
  3
*Paper_Space
  1

  0
ENDBLK
  5
1D
330
1B
100
AcDbEntity
 67
     1
  8
0
100
AcDbBlockEnd
  0
BLOCK
  5
24
330
23
100
AcDbEntity
 67
     1
  8
0
100
AcDbBlockBegin
  2
*Paper_Space0
 70
     0
 10
0.0
 20
0.0
 30
0.0
  3
*Paper_Space0
  1

  0
ENDBLK
  5
25
330
23
100
AcDbEntity
 67
     1
  8
0
100
AcDbBlockEnd
  0
BLOCK
  5
1121
330
111D
100
AcDbEntity
  8
0
 48
0.5
100
AcDbBlockBegin
  2
_Open30
 70
     0
 10
0.0
 20
0.0
 30
0.0
  3
_Open30
  1

  0
LINE
  5
111E
330
111D
100
AcDbEntity
  8
0
  6
ByBlock
 62
     0
370
    -2
100
AcDbLine
 10
-1.0
 20
0.26794919
 30
0.0
 11
0.0
 21
0.0
 31
0.0
  0
LINE
  5
111F
330
111D
100
AcDbEntity
  8
0
  6
ByBlock
 62
     0
370
    -2
100
AcDbLine
 10
0.0
 20
0.0
 30
0.0
 11
-1.0
 21
-0.26794919
 31
0.0
  0
LINE
  5
1120
330
111D
100
AcDbEntity
  8
0
  6
ByBlock
 62
     0
370
    -2
100
AcDbLine
 10
0.0
 20
0.0
 30
0.0
 11
-1.0
 21
0.0
 31
0.0
  0
ENDBLK
  5
1122
330
111D
100
AcDbEntity
  8
0
 48
0.5
100
AcDbBlockEnd
  0
BLOCK
  5
12EB
330
12E9
100
AcDbEntity
  8
0
 48
0.5
100
AcDbBlockBegin
  2
_DotSmall
 70
     0
 10
0.0
 20
0.0
 30
0.0
  3
_DotSmall
  1

  0
LWPOLYLINE
  5
12EA
330
12E9
100
AcDbEntity
  8
0
  6
ByBlock
 62
     0
100
AcDbPolyline
 90
        2
 70
     1
 43
0.5
 10
-0.0625
 20
0.0
 42
1.0
 10
0.0625
 20
0.0
 42
1.0
  0
ENDBLK
  5
12EC
330
12E9
100
AcDbEntity
  8
0
 48
0.5
100
AcDbBlockEnd
  0
BLOCK
  5
B125
330
B11B
100
AcDbEntity
  8
0
 48
0.5
100
AcDbBlockBegin
  2
*D3
 70
     1
 10
0.0
 20
0.0
 30
0.0
  3
*D3
  1

  0
LINE
  5
101ADE0
330
B11B
100
AcDbEntity
  8
尺寸线
 62
     0
440
 16777216
 48
0.5
370
    -2
100
AcDbLine
 10
-656.7619955813425
 20
1980.680358750676
 30
0.0
 11
-670.2278470821038
 21
1980.696988723114
 31
0.0
  0
LINE
  5
101ADE1
330
B11B
100
AcDbEntity
  8
尺寸线
 62
     0
440
 16777216
 48
0.5
370
    -2
100
AcDbLine
 10
-656.6743125155904
 20
2051.680304607557
 30
0.0
 11
-670.1401640163444
 21
2051.696934579994
 31
0.0
  0
LINE
  5
101ADE2
330
B11B
100
AcDbEntity
  8
尺寸线
 62
     0
440
 16777216
 48
0.5
370
    -2
100
AcDbLine
 10
-669.22476041279
 20
1983.195751843908
 30
0.0
 11
-669.1432522108165
 21
2049.195701513685
 31
0.0
  0
INSERT
  5
101ADE3
330
B11B
100
AcDbEntity
  8
尺寸线
 62
     0
440
 16777216
 48
0.5
370
    -2
100
AcDbBlockReference
  2
_Open30
 10
-669.2278478446829
 20
1980.695753750356
 30
0.0
 41
2.5
 42
2.5
 43
2.5
 50
269.9292412552139
  0
INSERT
  5
101ADE4
330
B11B
100
AcDbEntity
  8
尺寸线
 62
     0
440
 16777216
 48
0.5
370
    -2
100
AcDbBlockReference
  2
_Open30
 10
-669.1401647789235
 20
2051.695699607237
 30
0.0
 41
2.5
 42
2.5
 43
2.5
 50
89.92924125521383
  0
MTEXT
  5
101ADE5
330
B11B
100
AcDbEntity
  8
尺寸线
 62
     0
440
 16777216
 48
0.5
100
AcDbMText
 10
-670.9600049574628
 20
2016.197919990414
 30
0.0
 40
2.5
 41
0.0
 46
0.0
 71
     5
 72
     1
  1
71
 11
0.0012349727571752
 21
0.9999992374208536
 31
0.0
 73
     1
 44
1.0
  0
POINT
  5
101ADE6
330
B11B
100
AcDbEntity
  8
Defpoints
 62
     0
440
 16777216
 48
0.5
100
AcDbPoint
 10
-655.7619963439216
 20
1980.679123777919
 30
0.0
  0
POINT
  5
101ADE7
330
B11B
100
AcDbEntity
  8
Defpoints
 62
     0
440
 16777216
 48
0.5
100
AcDbPoint
 10
-655.6743132781694
 20
2051.6790696348
 30
0.0
  0
POINT
  5
101ADE8
330
B11B
100
AcDbEntity
  8
Defpoints
 62
     0
440
 16777216
 48
0.5
100
AcDbPoint
 10
-669.1401647789235
 20
2051.695699607237
 30
0.0
  0
ENDBLK
  5
B126
330
B11B
100
AcDbEntity
  8
0
 48
0.5
100
AcDbBlockEnd
  0
BLOCK
  5
B134
330
B128
100
AcDbEntity
  8
0
 48
0.5
100
AcDbBlockBegin
  2
*D4
 70
     1
 10
0.0
 20
0.0
 30
0.0
  3
*D4
  1

  0
LINE
  5
101ADE9
330
B128
100
AcDbEntity
  8
尺寸线
 62
     0
440
 16777216
 48
0.5
370
    -2
100
AcDbLine
 10
-656.6817223521327
 20
2045.680309183032
 30
0.0
 11
-663.8930529698958
 21
2045.689214986679
 31
0.0
  0
LINE
  5
101ADEA
330
B128
100
AcDbEntity
  8
尺寸线
 62
     0
440
 16777216
 48
0.5
370
    -2
100
AcDbLine
 10
-656.6743125155904
 20
2051.680304607557
 30
0.0
 11
-663.8856431333528
 21
2051.689210411204
 31
0.0
  0
LINE
  5
101ADEB
330
B128
100
AcDbEntity
  8
尺寸线
 62
     0
440
 16777216
 48
0.5
370
    -2
100
AcDbLine
 10
-662.8961411643679
 20
2043.187981920369
 30
0.0
 11
-662.8992285962608
 21
2040.687983826817
 31
0.0
  0
LINE
  5
101ADEC
330
B128
100
AcDbEntity
  8
尺寸线
 62
     0
440
 16777216
 48
0.5
370
    -2
100
AcDbLine
 10
-662.882556464039
 20
2054.187973531999
 30
0.0
 11
-662.879469032146
 21
2056.687971625551
 31
0.0
  0
LINE
  5
101ADED
330
B128
100
AcDbEntity
  8
尺寸线
 62
     0
440
 16777216
 48
0.5
370
    -2
100
AcDbLine
 10
-662.8930537324749
 20
2045.687980013922
 30
0.0
 11
-662.8856438959319
 21
2051.687975438447
 31
0.0
  0
INSERT
  5
101ADEE
330
B128
100
AcDbEntity
  8
尺寸线
 62
     0
440
 16777216
 48
0.5
370
    -2
100
AcDbBlockReference
  2
_Open30
 10
-662.8930537324749
 20
2045.687980013922
 30
0.0
 41
2.5
 42
2.5
 43
2.5
 50
89.92924125521382
  0
INSERT
  5
101ADEF
330
B128
100
AcDbEntity
  8
尺寸线
 62
     0
440
 16777216
 48
0.5
370
    -2
100
AcDbBlockReference
  2
_Open30
 10
-662.8856438959319
 20
2051.687975438447
 30
0.0
 41
2.5
 42
2.5
 43
2.5
 50
269.9292412552139
  0
MTEXT
  5
101ADF0
330
B128
100
AcDbEntity
  8
尺寸线
 62
     0
440
 16777216
 48
0.5
100
AcDbMText
 10
-664.6653474598629
 20
2048.690171037801
 30
0.0
 40
2.5
 41
0.0
 46
0.0
 71
     5
 72
     1
  1
6
 11
0.0012349727571752
 21
0.9999992374208536
 31
0.0
 73
     1
 44
1.0
  0
POINT
  5
101ADF1
330
B128
100
AcDbEntity
  8
Defpoints
 62
     0
440
 16777216
 48
0.5
100
AcDbPoint
 10
-655.6817231147118
 20
2045.679074210275
 30
0.0
  0
POINT
  5
101ADF2
330
B128
100
AcDbEntity
  8
Defpoints
 62
     0
440
 16777216
 48
0.5
100
AcDbPoint
 10
-655.6743132781694
 20
2051.6790696348
 30
0.0
  0
POINT
  5
101ADF3
330
B128
100
AcDbEntity
  8
Defpoints
 62
     0
440
 16777216
 48
0.5
100
AcDbPoint
 10
-662.8856438959319
 20
2051.687975438447
 30
0.0
  0
ENDBLK
  5
B135
330
B128
100
AcDbEntity
  8
0
 48
0.5
100
AcDbBlockEnd
  0
BLOCK
  5
B14E
330
B144
100
AcDbEntity
  8
0
 48
0.5
100
AcDbBlockBegin
  2
*D5
 70
     1
 10
0.0
 20
0.0
 30
0.0
  3
*D5
  1

  0
LINE
  5
101ADF4
330
B144
100
AcDbEntity
  8
尺寸线
 62
     0
440
 16777216
 48
0.5
370
    -2
100
AcDbLine
 10
-620.7628875151217
 20
1979.935900265227
 30
0.0
 11
-620.7720402373667
 21
1972.524631302241
 31
0.0
  0
LINE
  5
101ADF5
330
B144
100
AcDbEntity
  8
尺寸线
 62
     0
440
 16777216
 48
0.5
370
    -2
100
AcDbLine
 10
-655.7632313166788
 20
1979.679124540498
 30
0.0
 11
-655.7720135470967
 21
1972.567855348742
 31
0.0
  0
LINE
  5
101ADF6
330
B144
100
AcDbEntity
  8
尺寸线
 62
     0
440
 16777216
 48
0.5
370
    -2
100
AcDbLine
 10
-623.2708033581617
 20
1973.527717971555
 30
0.0
 11
-653.2707804807874
 21
1973.56476715427
 31
0.0
  0
INSERT
  5
101ADF7
330
B144
100
AcDbEntity
  8
尺寸线
 62
     0
440
 16777216
 48
0.5
370
    -2
100
AcDbBlockReference
  2
_Open30
 10
-620.7708052646096
 20
1973.524630539662
 30
0.0
 41
2.5
 42
2.5
 43
2.5
 50
359.9292412552139
  0
INSERT
  5
101ADF8
330
B144
100
AcDbEntity
  8
尺寸线
 62
     0
440
 16777216
 48
0.5
370
    -2
100
AcDbBlockReference
  2
_Open30
 10
-655.7707785743396
 20
1973.567854586163
 30
0.0
 41
2.5
 42
2.5
 43
2.5
 50
179.9292412552139
  0
MTEXT
  5
101ADF9
330
B144
100
AcDbEntity
  8
尺寸线
 62
     0
440
 16777216
 48
0.5
100
AcDbMText
 10
-638.2685986078579
 20
1975.322241208572
 30
0.0
 40
2.5
 41
0.0
 46
0.0
 71
     5
 72
     1
  1
35
 11
0.9999992374208536
 21
-0.0012349727571743
 31
0.0
 73
     1
 44
1.0
  0
POINT
  5
101ADFA
330
B144
100
AcDbEntity
  8
Defpoints
 62
     0
440
 16777216
 48
0.5
100
AcDbPoint
 10
-620.7616525423645
 20
1980.935899502648
 30
0.0
  0
POINT
  5
101ADFB
330
B144
100
AcDbEntity
  8
Defpoints
 62
     0
440
 16777216
 48
0.5
100
AcDbPoint
 10
-655.7619963439216
 20
1980.679123777919
 30
0.0
  0
POINT
  5
101ADFC
330
B144
100
AcDbEntity
  8
Defpoints
 62
     0
440
 16777216
 48
0.5
100
AcDbPoint
 10
-655.7707785743396
 20
1973.567854586163
 30
0.0
  0
ENDBLK
  5
B14F
330
B144
100
AcDbEntity
  8
0
 48
0.5
100
AcDbBlockEnd
  0
BLOCK
  5
B164
330
B15D
100
AcDbEntity
  8
0
 48
0.5
100
AcDbBlockBegin
  2
*D6
 70
     1
 10
0.0
 20
0.0
 30
0.0
  3
*D6
  1

  0
LINE
  5
101ADFD
330
B15D
100
AcDbEntity
  8
尺寸线
 62
     0
440
 16777216
 48
0.5
370
    -2
100
AcDbLine
 10
-663.2582449960972
 20
1907.668336288567
 30
0.0
 11
-655.9802721064031
 21
1912.909337375637
 31
0.0
  0
MTEXT
  5
101ADFE
330
B15D
100
AcDbEntity
  8
尺寸线
 62
     0
440
 16777216
 48
0.5
100
AcDbMText
 10
-661.6714570247602
 20
1910.99958110772
 30
0.0
 40
2.5
 41
0.0
 46
0.0
 71
     5
 72
     1
  1
R10
 11
0.8114888377715766
 21
0.5843679202113476
 31
0.0
 73
     1
 44
1.0
  0
LINE
  5
101ADFF
330
B15D
100
AcDbEntity
  8
尺寸线
 62
     0
440
 16777216
 48
0.5
370
    -2
100
AcDbLine
 10
-645.8366616342584
 20
1920.213936378278
 30
0.0
 11
-653.9515500119742
 21
1914.370257176165
 31
0.0
  0
INSERT
  5
101AE00
330
B15D
100
AcDbEntity
  8
尺寸线
 62
     0
440
 16777216
 48
0.5
370
    -2
100
AcDbBlockReference
  2
_Open30
 10
-653.9515500119742
 20
1914.370257176165
 30
0.0
 41
2.5
 42
2.5
 43
2.5
 50
35.75834901508303
  0
POINT
  5
101AE01
330
B15D
100
AcDbEntity
  8
Defpoints
 62
     0
440
 16777216
 48
0.5
100
AcDbPoint
 10
-653.9515500119742
 20
1914.370257176165
 30
0.0
  0
POINT
  5
101AE02
330
B15D
100
AcDbEntity
  8
Defpoints
 62
     0
440
 16777216
 48
0.5
100
AcDbPoint
 10
-645.8366616342584
 20
1920.213936378278
 30
0.0
  0
ENDBLK
  5
B165
330
B15D
100
AcDbEntity
  8
0
 48
0.5
100
AcDbBlockEnd
  0
BLOCK
  5
B16E
330
B167
100
AcDbEntity
  8
0
 48
0.5
100
AcDbBlockBegin
  2
*D7
 70
     1
 10
0.0
 20
0.0
 30
0.0
  3
*D7
  1

  0
LINE
  5
101AE03
330
B167
100
AcDbEntity
  8
尺寸线
 62
     0
440
 16777216
 48
0.5
370
    -2
100
AcDbLine
 10
-370.8667217810424
 20
1905.892358970514
 30
0.0
 11
-377.665309272326
 21
1911.741819620962
 31
0.0
  0
MTEXT
  5
101AE04
330
B167
100
AcDbEntity
  8
尺寸线
 62
     0
440
 16777216
 48
0.5
100
AcDbMText
 10
-372.1601421364402
 20
1909.348100843882
 30
0.0
 40
2.5
 41
0.0
 46
0.0
 71
     5
 72
     1
  1
R10
 11
0.7580377043726553
 21
-0.6522107318569934
 31
0.0
 73
     1
 44
1.0
  0
LINE
  5
101AE05
330
B167
100
AcDbEntity
  8
尺寸线
 62
     0
440
 16777216
 48
0.5
370
    -2
100
AcDbLine
 10
-387.140780576984
 20
1919.894453769174
 30
0.0
 11
-379.5604035332577
 21
1913.372346450605
 31
0.0
  0
INSERT
  5
101AE06
330
B167
100
AcDbEntity
  8
尺寸线
 62
     0
440
 16777216
 48
0.5
370
    -2
100
AcDbBlockReference
  2
_Open30
 10
-379.5604035332577
 20
1913.372346450605
 30
0.0
 41
2.5
 42
2.5
 43
2.5
 50
139.2915103013889
  0
POINT
  5
101AE07
330
B167
100
AcDbEntity
  8
Defpoints
 62
     0
440
 16777216
 48
0.5
100
AcDbPoint
 10
-379.5604035332577
 20
1913.372346450605
 30
0.0
  0
POINT
  5
101AE08
330
B167
100
AcDbEntity
  8
Defpoints
 62
     0
440
 16777216
 48
0.5
100
AcDbPoint
 10
-387.140780576984
 20
1919.894453769174
 30
0.0
  0
ENDBLK
  5
B16F
330
B167
100
AcDbEntity
  8
0
 48
0.5
100
AcDbBlockEnd
  0
BLOCK
  5
B17B
330
B171
100
AcDbEntity
  8
0
 48
0.5
100
AcDbBlockBegin
  2
*D8
 70
     1
 10
0.0
 20
0.0
 30
0.0
  3
*D8
  1

  0
LINE
  5
101AE09
330
B171
100
AcDbEntity
  8
尺寸线
 62
     0
440
 16777216
 48
0.5
370
    -2
100
AcDbLine
 10
-387.1573705808087
 20
1906.460966205278
 30
0.0
 11
-387.1786458913495
 21
1889.233627227051
 31
0.0
  0
LINE
  5
101AE0A
330
B171
100
AcDbEntity
  8
尺寸线
 62
     0
440
 16777216
 48
0.5
370
    -2
100
AcDbLine
 10
-645.8532516380834
 20
1906.780448814382
 30
0.0
 11
-645.8745269486243
 21
1889.553109836181
 31
0.0
  0
LINE
  5
101AE0B
330
B171
100
AcDbEntity
  8
尺寸线
 62
     0
440
 16777216
 48
0.5
370
    -2
100
AcDbLine
 10
-389.6774090121444
 20
1890.236713896365
 30
0.0
 11
-643.3732938823149
 21
1890.550021641708
 31
0.0
  0
INSERT
  5
101AE0C
330
B171
100
AcDbEntity
  8
尺寸线
 62
     0
440
 16777216
 48
0.5
370
    -2
100
AcDbBlockReference
  2
_Open30
 10
-387.1774109185923
 20
1890.233626464471
 30
0.0
 41
2.5
 42
2.5
 43
2.5
 50
359.9292412552139
  0
INSERT
  5
101AE0D
330
B171
100
AcDbEntity
  8
尺寸线
 62
     0
440
 16777216
 48
0.5
370
    -2
100
AcDbBlockReference
  2
_Open30
 10
-645.8732919758671
 20
1890.553109073601
 30
0.0
 41
2.5
 42
2.5
 43
2.5
 50
179.9292412552139
  0
MTEXT
  5
101AE0E
330
B171
100
AcDbEntity
  8
尺寸线
 62
     0
440
 16777216
 48
0.5
100
AcDbMText
 10
-516.523158135613
 20
1892.169366414696
 30
0.0
 40
2.5
 41
0.0
 46
0.0
 71
     5
 72
     1
  1
600
 11
0.9999992374208536
 21
-0.0012349727571743
 31
0.0
 73
     1
 44
1.0
  0
POINT
  5
101AE0F
330
B171
100
AcDbEntity
  8
Defpoints
 62
     0
440
 16777216
 48
0.5
100
AcDbPoint
 10
-387.1561356080515
 20
1907.460965442699
 30
0.0
  0
POINT
  5
101AE10
330
B171
100
AcDbEntity
  8
Defpoints
 62
     0
440
 16777216
 48
0.5
100
AcDbPoint
 10
-645.8520166653263
 20
1907.780448051803
 30
0.0
  0
POINT
  5
101AE11
330
B171
100
AcDbEntity
  8
Defpoints
 62
     0
440
 16777216
 48
0.5
100
AcDbPoint
 10
-645.8732919758671
 20
1890.553109073601
 30
0.0
  0
ENDBLK
  5
B17C
330
B171
100
AcDbEntity
  8
0
 48
0.5
100
AcDbBlockEnd
  0
ENDSEC
  0
SECTION
  2
ENTITIES
  0
LINE
  5
AE56
330
1F
100
AcDbEntity
  8
0
100
AcDbLine
 10
-376.9784474724775
 20
2051.334887570555
 30
0.0
 11
-376.98585730902
 21
2045.33489214603
 31
0.0
  0
LINE
  5
AE57
330
1F
100
AcDbEntity
  8
0
100
AcDbLine
 10
-655.6743132781696
 20
2051.6790696348
 30
0.0
 11
-655.6817231147119
 21
2045.679074210275
 31
0.0
  0
LINE
  5
AE58
330
1F
100
AcDbEntity
  8
0
100
AcDbLine
 10
-376.98585730902
 20
2045.33489214603
 30
0.0
 11
-516.4008432149764
 21
2045.507065986847
 31
0.0
  0
LINE
  5
AE5B
330
1F
100
AcDbEntity
  8
0
100
AcDbLine
 10
-376.9784474724775
 20
2051.334887570555
 30
0.0
 11
-516.393433378434
 21
2051.507061411372
 31
0.0
  0
LINE
  5
AE5C
330
1F
100
AcDbEntity
  8
0
100
AcDbLine
 10
-523.460671448948
 20
2051.515789264513
 30
0.0
 11
-655.6743132781696
 21
2051.6790696348
 31
0.0
  0
LINE
  5
AE64
330
1F
100
AcDbEntity
  8
中心线
 48
0.5
100
AcDbLine
 10
-516.3854163928511
 20
2057.998685962119
 30
0.0
 11
-516.4105742907017
 21
2037.627484636729
 31
0.0
  0
LINE
  5
AE66
330
1F
100
AcDbEntity
  8
中心线
 48
0.5
100
AcDbLine
 10
-523.4537452927452
 20
2057.124132348399
 30
0.0
 11
-523.4774487531901
 21
2037.930638213953
 31
0.0
  0
LINE
  5
AE67
330
1F
100
AcDbEntity
  8
中心线
 48
0.5
100
AcDbLine
 10
-386.9715848029359
 20
2056.897998222517
 30
0.0
 11
-386.9973777379578
 21
2036.012585807853
 31
0.0
  0
LINE
  5
AEB3
330
1F
100
AcDbEntity
  8
0
100
AcDbLine
 10
-645.7620039697131
 20
1980.666774050348
 30
0.0
 11
-654.0619976403063
 21
1980.677024324232
 31
0.0
  0
LINE
  5
AEB4
330
1F
100
AcDbEntity
  8
0
100
AcDbLine
 10
-654.0619976403063
 20
1980.677024324232
 30
0.0
 11
-645.7620039697131
 21
1980.666774050348
 31
0.0
  0
LINE
  5
AEB5
330
1F
100
AcDbEntity
  8
0
100
AcDbLine
 10
-645.7620039697131
 20
1980.666774050348
 30
0.0
 11
-655.7619963439217
 21
1980.679123777919
 31
0.0
  0
LINE
  5
AEB6
330
1F
100
AcDbEntity
  8
0
100
AcDbLine
 10
-655.6820936065392
 20
2045.379074439049
 30
0.0
 11
-655.7619963439217
 21
1980.679123777919
 31
0.0
  0
LINE
  5
AEB7
330
1F
100
AcDbEntity
  8
0
100
AcDbLine
 10
-655.7619963439217
 20
1980.679123777919
 30
0.0
 11
-621.0620228054181
 21
1980.636270223248
 31
0.0
  0
ARC
  5
AF28
330
1F
100
AcDbEntity
  8
0
100
AcDbCircle
 10
-655.3820938353128
 20
2045.378703947221
 30
0.0
 40
0.2999999999999829
100
AcDbArc
 50
89.92924125521389
 51
179.9292412552139
  0
LINE
  5
AF39
330
1F
100
AcDbEntity
  8
0
100
AcDbLine
 10
-377.0657600464024
 20
1980.6349414849
 30
0.0
 11
-376.9862278008468
 21
2045.034892374804
 31
0.0
  0
LINE
  5
AF3A
330
1F
100
AcDbEntity
  8
0
100
AcDbLine
 10
-411.9862011105769
 20
2045.078116421301
 30
0.0
 11
-412.0661038479597
 21
1980.378165760171
 31
0.0
  0
LINE
  5
AF3B
330
1F
100
AcDbEntity
  8
0
100
AcDbLine
 10
-412.0661038479597
 20
1980.378165760171
 30
0.0
 11
-377.3661303094559
 21
1980.335312205501
 31
0.0
  0
ARC
  5
AF3C
330
1F
100
AcDbEntity
  8
0
100
AcDbCircle
 10
-377.3657598176287
 20
1980.635311976728
 30
0.0
 40
0.3000000000000682
100
AcDbArc
 50
269.9292412552139
 51
359.9292412552139
  0
ARC
  5
AF3D
330
1F
100
AcDbEntity
  8
0
100
AcDbCircle
 10
-377.2862275720731
 20
2045.035262866631
 30
0.0
 40
0.3000000000000113
100
AcDbArc
 50
359.9292412552139
 51
89.92924125521389
  0
LINE
  5
AF4B
330
1F
100
AcDbEntity
  8
中心线
100
AcDbLine
 10
-398.0525086158859
 20
1991.378040470468
 30
0.0
 11
-398.0679553118025
 21
1978.87032801365
 31
0.0
  0
LINE
  5
AF4E
330
1F
100
AcDbEntity
  8
中心线
100
AcDbLine
 10
-403.5613890249228
 20
1985.367666473948
 30
0.0
 11
-392.5711115776016
 21
1985.354093770357
 31
0.0
  0
ARC
  5
AF4F
330
1F
100
AcDbEntity
  8
0
 48
0.5
100
AcDbCircle
 10
-398.0599396602825
 20
1985.360872328677
 30
0.0
 40
2.499999999999999
100
AcDbArc
 50
269.9292412552139
 51
179.9292412552139
  0
CIRCLE
  5
AF50
330
1F
100
AcDbEntity
  8
细实线
 48
0.5
100
AcDbCircle
 10
-398.0599396602825
 20
1985.360872328677
 30
0.0
 40
2.099999999999999
  0
LINE
  5
AFC8
330
1F
100
AcDbEntity
  8
0
100
AcDbLine
 10
-386.9087109916163
 20
2107.809051129165
 30
0.0
 11
-516.3237045233641
 21
2107.968875242412
 31
0.0
  0
LINE
  5
AFC9
330
1F
100
AcDbEntity
  8
0
100
AcDbLine
 10
-523.3909425938779
 20
2107.977603095553
 30
0.0
 11
-645.6045920488909
 21
2108.128533738269
 31
0.0
  0
LINE
  5
AFCA
330
1F
100
AcDbEntity
  8
0
100
AcDbLine
 10
-386.8840115364747
 20
2127.809035877582
 30
0.0
 11
-516.2990050682226
 21
2127.968859990829
 31
0.0
  0
LINE
  5
AFCB
330
1F
100
AcDbEntity
  8
0
100
AcDbLine
 10
-386.886481481989
 20
2125.809037402741
 30
0.0
 11
-409.8864639426683
 21
2125.837441776154
 31
0.0
  0
LINE
  5
AFCC
330
1F
100
AcDbEntity
  8
0
100
AcDbLine
 10
-523.3662431387365
 20
2127.97758784397
 30
0.0
 11
-645.5798925937495
 21
2128.128518486686
 31
0.0
  0
LINE
  5
AFCD
330
1F
100
AcDbEntity
  8
0
100
AcDbLine
 10
-630.5860788962222
 20
2123.109997708226
 30
0.0
 11
-638.5860727955887
 21
2123.119877490282
 31
0.0
  0
ARC
  5
AFCE
330
1F
100
AcDbEntity
  8
0
100
AcDbCircle
 10
-386.8963612640455
 20
2117.809043503374
 30
0.0
 40
9.999999999999998
100
AcDbArc
 50
269.9292412552139
 51
89.92924125521389
  0
ARC
  5
AFCF
330
1F
100
AcDbEntity
  8
0
100
AcDbCircle
 10
-386.8963612640455
 20
2117.809043503374
 30
0.0
 40
7.999999999999999
100
AcDbArc
 50
269.9292412552139
 51
89.92924125521389
  0
ARC
  5
AFD0
330
1F
100
AcDbEntity
  8
0
100
AcDbCircle
 10
-645.5922423213201
 20
2118.128526112478
 30
0.0
 40
9.999999999999998
100
AcDbArc
 50
89.92924125521389
 51
269.9292412552139
  0
LINE
  5
AFD1
330
1F
100
AcDbEntity
  8
中心线
 48
0.5
100
AcDbLine
 10
-645.5768271265301
 20
2130.610731040807
 30
0.0
 11
-645.6075973523882
 21
2105.695037786002
 31
0.0
  0
LINE
  5
AFD2
330
1F
100
AcDbEntity
  8
中心线
 48
0.5
100
AcDbLine
 10
-386.8800618657069
 20
2131.007217969572
 30
0.0
 11
-386.9126004955965
 21
2104.659588121106
 31
0.0
  0
LINE
  5
AFD3
330
1F
100
AcDbEntity
  8
中心线
 48
0.5
100
AcDbLine
 10
-411.8963421995667
 20
2117.8399178223
 30
0.0
 11
-620.5922613857987
 21
2118.097651793551
 31
0.0
  0
LINE
  5
AFD4
330
1F
100
AcDbEntity
  8
中心线
 48
0.5
100
AcDbLine
 10
-516.3341308659749
 20
2099.52631276467
 30
0.0
 11
-516.2907130594524
 21
2134.683180124157
 31
0.0
  0
LINE
  5
AFD5
330
1F
100
AcDbEntity
  8
中心线
 48
0.5
100
AcDbLine
 10
-523.4013689364887
 20
2099.53504061781
 30
0.0
 11
-523.359405567372
 21
2133.514200786354
 31
0.0
  0
LINE
  5
AFD6
330
1F
100
AcDbEntity
  8
中心线
 48
0.5
100
AcDbLine
 10
-386.8809460692555
 20
2130.291248431703
 30
0.0
 11
-386.9117162951134
 21
2105.375555176899
 31
0.0
  0
LINE
  5
AFD7
330
1F
100
AcDbEntity
  8
0
 48
0.5
100
AcDbLine
 10
-411.8839924719959
 20
2127.839910196509
 30
0.0
 11
-411.9086919271376
 21
2107.839925448092
 31
0.0
  0
LINE
  5
AFD8
330
1F
100
AcDbEntity
  8
0
 48
0.5
100
AcDbLine
 10
-409.8864639426683
 20
2125.837441776154
 30
0.0
 11
-409.9062235067813
 21
2109.837453977419
 31
0.0
  0
LINE
  5
AFD9
330
1F
100
AcDbEntity
  8
0
 48
0.5
100
AcDbLine
 10
-620.5799116582282
 20
2128.097644167759
 30
0.0
 11
-620.6046111133696
 21
2108.097659419343
 31
0.0
  0
LINE
  5
AFDA
330
1F
100
AcDbEntity
  8
中心线
 48
0.5
100
AcDbLine
 10
-634.5782977664891
 20
2129.413111741548
 30
0.0
 11
-634.5876247483577
 21
2121.860738863284
 31
0.0
  0
LINE
  5
AFDB
330
1F
100
AcDbEntity
  8
0
100
AcDbLine
 10
-636.6860742444892
 20
2123.117531042044
 30
0.0
 11
-636.6868152281438
 21
2122.517531499591
 31
0.0
  0
LINE
  5
AFDC
330
1F
100
AcDbEntity
  8
0
100
AcDbLine
 10
-632.4860774473215
 20
2123.112344156464
 30
0.0
 11
-632.4868184309762
 21
2122.512344614011
 31
0.0
  0
LINE
  5
AFDD
330
1F
100
AcDbEntity
  8
0
100
AcDbLine
 10
-637.0860739394575
 20
2123.118025031146
 30
0.0
 11
-637.0868149231118
 21
2122.518025488694
 31
0.0
  0
LINE
  5
AFDE
330
1F
100
AcDbEntity
  8
0
100
AcDbLine
 10
-632.0860777523533
 20
2123.111850167361
 30
0.0
 11
-632.0868187360076
 21
2122.511850624908
 31
0.0
  0
LINE
  5
AFDF
330
1F
100
AcDbEntity
  8
0
 48
0.5
100
AcDbLine
 10
-638.5823678773176
 20
2126.119875202545
 30
0.0
 11
-638.5860727955887
 21
2123.119877490282
 31
0.0
  0
LINE
  5
AFE0
330
1F
100
AcDbEntity
  8
0
 48
0.5
100
AcDbLine
 10
-630.5823739779509
 20
2126.109995420488
 30
0.0
 11
-630.586078896222
 21
2123.109997708226
 31
0.0
  0
LINE
  5
AFE1
330
1F
100
AcDbEntity
  8
0
 48
0.5
100
AcDbLine
 10
-622.582380078584
 20
2126.100115638432
 30
0.0
 11
-622.6021396426972
 21
2110.100127839698
 31
0.0
  0
ARC
  5
AFE2
330
1F
100
AcDbEntity
  8
0
 48
0.5
100
AcDbCircle
 10
-645.5922423213201
 20
2118.128526112478
 30
0.0
 40
7.999999999999999
100
AcDbArc
 50
89.92924125521389
 51
269.9292412552139
  0
LINE
  5
AFE3
330
1F
100
AcDbEntity
  8
0
 48
0.5
100
AcDbLine
 10
-645.6021221033767
 20
2110.128532213111
 30
0.0
 11
-622.6021396426972
 21
2110.100127839698
 31
0.0
  0
LINE
  5
AFE4
330
1F
100
AcDbEntity
  8
0
 48
0.5
100
AcDbLine
 10
-645.5823625392635
 20
2126.128520011845
 30
0.0
 11
-622.582380078584
 21
2126.100115638432
 31
0.0
  0
LINE
  5
AFE5
330
1F
100
AcDbEntity
  8
0
100
AcDbLine
 10
-630.2868201086503
 20
2122.509627673946
 30
0.0
 11
-638.8868135504695
 21
2122.520248439657
 31
0.0
  0
LINE
  5
AFE6
330
1F
100
AcDbEntity
  8
0
 48
0.5
100
AcDbLine
 10
-638.8831086321982
 20
2125.52024615192
 30
0.0
 11
-638.8868135504696
 21
2122.520248439657
 31
0.0
  0
LINE
  5
AFE7
330
1F
100
AcDbEntity
  8
0
 48
0.5
100
AcDbLine
 10
-630.283115190379
 20
2125.509625386209
 30
0.0
 11
-630.2868201086501
 21
2122.509627673946
 31
0.0
  0
LINE
  5
AFE8
330
1F
100
AcDbEntity
  8
0
 48
0.5
100
AcDbLine
 10
-622.8831208334647
 20
2125.500486587807
 30
0.0
 11
-622.9021394139236
 21
2110.100498331525
 31
0.0
  0
ARC
  5
AFE9
330
1F
100
AcDbEntity
  8
0
 48
0.5
100
AcDbCircle
 10
-645.5926128131473
 20
2117.828526341251
 30
0.0
 40
7.699999999999999
100
AcDbArc
 50
89.92924125521389
 51
269.9292412552139
  0
LINE
  5
AFEA
330
1F
100
AcDbEntity
  8
0
 48
0.5
100
AcDbLine
 10
-645.6021221033767
 20
2110.128532213111
 30
0.0
 11
-622.9021394139236
 21
2110.100498331525
 31
0.0
  0
LINE
  5
AFEB
330
1F
100
AcDbEntity
  8
0
 48
0.5
100
AcDbLine
 10
-645.5831035229177
 20
2125.528520469392
 30
0.0
 11
-638.8831086321982
 21
2125.52024615192
 31
0.0
  0
LINE
  5
AFEC
330
1F
100
AcDbEntity
  8
0
 48
0.5
100
AcDbLine
 10
-630.283115190379
 20
2125.509625386209
 30
0.0
 11
-622.8831208334647
 21
2125.500486587807
 31
0.0
  0
LINE
  5
AFED
330
1F
100
AcDbEntity
  8
中心线
 48
0.5
100
AcDbLine
 10
-626.8989851909848
 20
2112.657049341624
 30
0.0
 11
-626.8861754833558
 21
2123.029503136816
 31
0.0
  0
ARC
  5
AFEE
330
1F
100
AcDbEntity
  8
0
 48
0.5
100
AcDbCircle
 10
-626.8950970188911
 20
2115.805433875852
 30
0.0
 40
2.099999999999999
100
AcDbArc
 50
179.9292412552139
 51
359.9292412552139
  0
ARC
  5
AFEF
330
1F
100
AcDbEntity
  8
0
 48
0.5
100
AcDbCircle
 10
-626.8901571278629
 20
2119.805430825536
 30
0.0
 40
2.099999999999999
100
AcDbArc
 50
359.9292412552139
 51
179.9292412552139
  0
LINE
  5
AFF0
330
1F
100
AcDbEntity
  8
0
 48
0.5
100
AcDbLine
 10
-624.7950986203075
 20
2115.802840433063
 30
0.0
 11
-624.7901587292792
 21
2119.802837382746
 31
0.0
  0
LINE
  5
AFF1
330
1F
100
AcDbEntity
  8
0
 48
0.5
100
AcDbLine
 10
-628.995095417475
 20
2115.808027318642
 30
0.0
 11
-628.9901555264468
 21
2119.808024268325
 31
0.0
  0
LINE
  5
AFF2
330
1F
100
AcDbEntity
  8
中心线
 48
0.5
100
AcDbLine
 10
-642.1442285076923
 20
2117.824267677331
 30
0.0
 11
-652.516682302885
 21
2117.83707738496
 31
0.0
  0
ARC
  5
AFF3
330
1F
100
AcDbEntity
  8
0
 48
0.5
100
AcDbCircle
 10
-645.2926130419212
 20
2117.828155849424
 30
0.0
 40
2.099999999999999
100
AcDbArc
 50
269.9292412552139
 51
89.92924125521389
  0
ARC
  5
AFF4
330
1F
100
AcDbEntity
  8
0
 48
0.5
100
AcDbCircle
 10
-649.2926099916046
 20
2117.833095740452
 30
0.0
 40
2.099999999999999
100
AcDbArc
 50
89.92924125521389
 51
269.9292412552139
  0
LINE
  5
AFF5
330
1F
100
AcDbEntity
  8
0
 48
0.5
100
AcDbLine
 10
-645.2900195991312
 20
2119.928154248008
 30
0.0
 11
-649.2900165488147
 21
2119.933094139037
 31
0.0
  0
LINE
  5
AFF6
330
1F
100
AcDbEntity
  8
0
 48
0.5
100
AcDbLine
 10
-645.2952064847108
 20
2115.72815745084
 30
0.0
 11
-649.2952034343943
 21
2115.733097341868
 31
0.0
  0
LINE
  5
AFF7
330
1F
100
AcDbEntity
  8
中心线
 48
0.5
100
AcDbLine
 10
-645.2963572754003
 20
2114.79632328271
 30
0.0
 11
-645.2888871511095
 21
2120.845135737441
 31
0.0
  0
LINE
  5
AFF8
330
1F
100
AcDbEntity
  8
中心线
 48
0.5
100
AcDbLine
 10
-649.296237503848
 20
2114.895776308579
 30
0.0
 11
-649.288942452712
 21
2120.802826104808
 31
0.0
  0
LINE
  5
AFF9
330
1F
100
AcDbEntity
  8
0
100
AcDbLine
 10
-401.8901749615729
 20
2122.827564281834
 30
0.0
 11
-393.890181062206
 21
2122.817684499778
 31
0.0
  0
LINE
  5
AFFA
330
1F
100
AcDbEntity
  8
中心线
 48
0.5
100
AcDbLine
 10
-386.8809460692555
 20
2130.291248431703
 30
0.0
 11
-386.9117162951134
 21
2105.375555176899
 31
0.0
  0
LINE
  5
AFFB
330
1F
100
AcDbEntity
  8
0
100
AcDbLine
 10
-395.7901796133056
 20
2122.820030948016
 30
0.0
 11
-395.7909205969599
 21
2122.220031405564
 31
0.0
  0
LINE
  5
AFFC
330
1F
100
AcDbEntity
  8
0
100
AcDbLine
 10
-399.9901764104734
 20
2122.825217833596
 30
0.0
 11
-399.9909173941274
 21
2122.225218291143
 31
0.0
  0
LINE
  5
AFFD
330
1F
100
AcDbEntity
  8
0
100
AcDbLine
 10
-395.3901799183377
 20
2122.819536958913
 30
0.0
 11
-395.3909209019916
 21
2122.21953741646
 31
0.0
  0
LINE
  5
AFFE
330
1F
100
AcDbEntity
  8
0
100
AcDbLine
 10
-400.3901761054416
 20
2122.825711822699
 30
0.0
 11
-400.3909170890956
 21
2122.225712280246
 31
0.0
  0
LINE
  5
AFFF
330
1F
100
AcDbEntity
  8
0
 48
0.5
100
AcDbLine
 10
-393.8864761439354
 20
2125.81768221204
 30
0.0
 11
-393.890181062206
 21
2122.817684499778
 31
0.0
  0
LINE
  5
B000
330
1F
100
AcDbEntity
  8
0
 48
0.5
100
AcDbLine
 10
-401.8864700433023
 20
2125.827561994096
 30
0.0
 11
-401.8901749615729
 21
2122.827564281834
 31
0.0
  0
LINE
  5
B001
330
1F
100
AcDbEntity
  8
0
100
AcDbLine
 10
-402.1909157164532
 20
2122.227935231209
 30
0.0
 11
-393.5909222746346
 21
2122.217314465498
 31
0.0
  0
LINE
  5
B002
330
1F
100
AcDbEntity
  8
0
 48
0.5
100
AcDbLine
 10
-393.5872173563635
 20
2125.217312177761
 30
0.0
 11
-393.5909222746346
 21
2122.217314465498
 31
0.0
  0
LINE
  5
B003
330
1F
100
AcDbEntity
  8
0
 48
0.5
100
AcDbLine
 10
-402.1872107981821
 20
2125.227932943472
 30
0.0
 11
-402.1909157164536
 21
2122.227935231209
 31
0.0
  0
LINE
  5
B004
330
1F
100
AcDbEntity
  8
0
 48
0.5
100
AcDbLine
 10
-409.5872051550968
 20
2125.237071741874
 30
0.0
 11
-409.6062237355554
 21
2109.837083485592
 31
0.0
  0
ARC
  5
B005
330
1F
100
AcDbEntity
  8
0
 48
0.5
100
AcDbCircle
 10
-386.8967317558727
 20
2117.509043732147
 30
0.0
 40
7.699999999999999
100
AcDbArc
 50
269.9292412552139
 51
89.92924125521389
  0
LINE
  5
B006
330
1F
100
AcDbEntity
  8
0
 48
0.5
100
AcDbLine
 10
-386.8872224656434
 20
2125.209037860288
 30
0.0
 11
-393.5872173563635
 21
2125.217312177761
 31
0.0
  0
LINE
  5
B007
330
1F
100
AcDbEntity
  8
0
 48
0.5
100
AcDbLine
 10
-402.1872107981821
 20
2125.227932943472
 30
0.0
 11
-409.5872051550968
 21
2125.237071741874
 31
0.0
  0
LINE
  5
B008
330
1F
100
AcDbEntity
  8
中心线
 48
0.5
100
AcDbLine
 10
-405.6030756132504
 20
2112.383754713635
 30
0.0
 11
-405.590265905621
 21
2122.756208508827
 31
0.0
  0
ARC
  5
B009
330
1F
100
AcDbEntity
  8
0
 48
0.5
100
AcDbCircle
 10
-405.5991874411565
 20
2115.532139247863
 30
0.0
 40
2.099999999999999
100
AcDbArc
 50
179.9292412552139
 51
359.9292412552139
  0
ARC
  5
B00A
330
1F
100
AcDbEntity
  8
0
 48
0.5
100
AcDbCircle
 10
-405.5942475501283
 20
2119.532136197546
 30
0.0
 40
2.099999999999999
100
AcDbArc
 50
359.9292412552139
 51
179.9292412552139
  0
LINE
  5
B00B
330
1F
100
AcDbEntity
  8
0
 48
0.5
100
AcDbLine
 10
-407.6991858397405
 20
2115.534732690653
 30
0.0
 11
-407.6942459487122
 21
2119.534729640337
 31
0.0
  0
LINE
  5
B00C
330
1F
100
AcDbEntity
  8
0
 48
0.5
100
AcDbLine
 10
-403.4991890425731
 20
2115.529545805074
 30
0.0
 11
-403.4942491515448
 21
2119.529542754757
 31
0.0
  0
LINE
  5
B00D
330
1F
100
AcDbEntity
  8
中心线
 48
0.5
100
AcDbLine
 10
-390.3451160613276
 20
2117.513302396068
 30
0.0
 11
-379.9726622661347
 21
2117.500492688439
 31
0.0
  0
ARC
  5
B00E
330
1F
100
AcDbEntity
  8
0
 48
0.5
100
AcDbCircle
 10
-387.196731527099
 20
2117.509414223975
 30
0.0
 40
2.099999999999999
100
AcDbArc
 50
89.92924125521389
 51
269.9292412552139
  0
ARC
  5
B00F
330
1F
100
AcDbEntity
  8
0
 48
0.5
100
AcDbCircle
 10
-383.1967345774156
 20
2117.504474332946
 30
0.0
 40
2.099999999999999
100
AcDbArc
 50
269.9292412552139
 51
89.92924125521389
  0
LINE
  5
B010
330
1F
100
AcDbEntity
  8
0
 48
0.5
100
AcDbLine
 10
-387.1941380843091
 20
2119.609412622558
 30
0.0
 11
-383.1941411346256
 21
2119.604472731531
 31
0.0
  0
LINE
  5
B011
330
1F
100
AcDbEntity
  8
0
 48
0.5
100
AcDbLine
 10
-387.1993249698889
 20
2115.409415825391
 30
0.0
 11
-383.1993280202055
 21
2115.404475934362
 31
0.0
  0
LINE
  5
B012
330
1F
100
AcDbEntity
  8
中心线
 48
0.5
100
AcDbLine
 10
-387.2004757605782
 20
2114.477581657261
 30
0.0
 11
-387.1930056362871
 21
2120.526394111992
 31
0.0
  0
LINE
  5
B013
330
1F
100
AcDbEntity
  8
中心线
 48
0.5
100
AcDbLine
 10
-383.2003620896589
 20
2114.567154901072
 30
0.0
 11
-383.1930670385227
 21
2120.474204697302
 31
0.0
  0
LINE
  5
B014
330
1F
100
AcDbEntity
  8
0
 48
0.5
100
AcDbLine
 10
-386.906241046102
 20
2109.809049604007
 30
0.0
 11
-409.9062235067813
 21
2109.837453977419
 31
0.0
  0
LINE
  5
B10C
330
1F
100
AcDbEntity
  8
0
100
AcDbLine
 10
-387.1531303045545
 20
1909.894461394966
 30
0.0
 11
-516.5681238363021
 21
1910.054285508213
 31
0.0
  0
LINE
  5
B10D
330
1F
100
AcDbEntity
  8
0
100
AcDbLine
 10
-523.6353619068161
 20
1910.063013361353
 30
0.0
 11
-645.8490113618291
 21
1910.21394400407
 31
0.0
  0
LINE
  5
B10E
330
1F
100
AcDbEntity
  8
0
100
AcDbLine
 10
-387.1284308494128
 20
1929.894446143383
 30
0.0
 11
-516.5434243811607
 21
1930.05427025663
 31
0.0
  0
LINE
  5
B10F
330
1F
100
AcDbEntity
  8
0
100
AcDbLine
 10
-523.6106624516747
 20
1930.062998109771
 30
0.0
 11
-645.8243119066876
 21
1930.213928752487
 31
0.0
  0
ARC
  5
B110
330
1F
100
AcDbEntity
  8
0
100
AcDbCircle
 10
-387.1407805769836
 20
1919.894453769174
 30
0.0
 40
9.999999999999998
100
AcDbArc
 50
269.9292412552139
 51
89.92924125521389
  0
ARC
  5
B111
330
1F
100
AcDbEntity
  8
0
100
AcDbCircle
 10
-645.8366616342582
 20
1920.213936378278
 30
0.0
 40
9.999999999999998
100
AcDbArc
 50
89.92924125521389
 51
269.9292412552139
  0
LINE
  5
B112
330
1F
100
AcDbEntity
  8
中心线
 48
0.5
100
AcDbLine
 10
-645.8212464394683
 20
1932.696141306607
 30
0.0
 11
-645.8520166653263
 21
1907.780448051803
 31
0.0
  0
LINE
  5
B113
330
1F
100
AcDbEntity
  8
中心线
 48
0.5
100
AcDbLine
 10
-367.7669398171679
 20
1919.870527585391
 30
0.0
 11
-667.4274519472237
 21
1920.240600436452
 31
0.0
  0
LINE
  5
B114
330
1F
100
AcDbEntity
  8
中心线
 48
0.5
100
AcDbLine
 10
-516.5785501789129
 20
1901.61172303047
 30
0.0
 11
-516.5351323723905
 21
1936.768590389958
 31
0.0
  0
LINE
  5
B115
330
1F
100
AcDbEntity
  8
中心线
 48
0.5
100
AcDbLine
 10
-523.6457882494269
 20
1901.62045088361
 30
0.0
 11
-523.6038248803102
 21
1935.599611052155
 31
0.0
  0
LINE
  5
B116
330
1F
100
AcDbEntity
  8
中心线
 48
0.5
100
AcDbLine
 10
-387.1253653821936
 20
1932.376658697504
 30
0.0
 11
-387.1561356080515
 21
1907.460965442699
 31
0.0
  0
DIMENSION
  5
B11A
330
1F
100
AcDbEntity
  8
尺寸线
 48
0.5
100
AcDbDimension
280
     0
  2
*D3
 10
-669.1401647789235
 20
2051.695699607237
 30
0.0
 11
-670.9600049574628
 21
2016.197919990414
 31
0.0
 70
    32
 71
     5
 42
70.99999999999977
 73
     0
 74
     0
 75
     0
  3
ISO-25
100
AcDbAlignedDimension
 13
-655.7619963439217
 23
1980.679123777919
 33
0.0
 14
-655.6743132781696
 24
2051.6790696348
 34
0.0
 50
269.9292412552139
100
AcDbRotatedDimension
1001
ACAD
1000
DSTYLE
1002
{
1070
    42
1040
1.0
1070
    44
1040
1.0
1070
   143
1040
0.0393700787401575
1070
   147
1040
0.526
1070
   271
1070
     1
1070
   272
1070
     1
1070
   278
1070
    46
1070
   284
1070
     0
1070
   341
1005
12E9
1070
   342
1005
111D
1002
}
  0
DIMENSION
  5
B127
330
1F
100
AcDbEntity
  8
尺寸线
 48
0.5
100
AcDbDimension
280
     0
  2
*D4
 10
-662.8856438959319
 20
2051.687975438447
 30
0.0
 11
-664.6653474598629
 21
2048.690171037801
 31
0.0
 70
    32
 71
     5
 42
6.000000000000227
 73
     0
 74
     0
 75
     0
  3
ISO-25
100
AcDbAlignedDimension
 13
-655.6817231147119
 23
2045.679074210275
 33
0.0
 14
-655.6743132781696
 24
2051.6790696348
 34
0.0
 50
269.9292412552139
100
AcDbRotatedDimension
1001
ACAD
1000
DSTYLE
1002
{
1070
    42
1040
1.0
1070
    44
1040
1.0
1070
   143
1040
0.0393700787401575
1070
   147
1040
0.526
1070
   271
1070
     1
1070
   272
1070
     1
1070
   278
1070
    46
1070
   284
1070
     0
1070
   341
1005
12E9
1070
   342
1005
111D
1002
}
  0
DIMENSION
  5
B143
330
1F
100
AcDbEntity
  8
尺寸线
 48
0.5
100
AcDbDimension
280
     0
  2
*D5
 10
-655.7707785743396
 20
1973.567854586163
 30
0.0
 11
-638.2685986078579
 21
1975.322241208572
 31
0.0
 70
    32
 71
     5
 42
35.00000000000011
 73
     0
 74
     0
 75
     0
  3
ISO-25
100
AcDbAlignedDimension
 13
-620.7616525423645
 23
1980.935899502648
 33
0.0
 14
-655.7619963439217
 24
1980.679123777919
 34
0.0
 50
359.9292412552139
100
AcDbRotatedDimension
1001
ACAD
1000
DSTYLE
1002
{
1070
    42
1040
1.0
1070
    44
1040
1.0
1070
   143
1040
0.0393700787401575
1070
   147
1040
0.526
1070
   271
1070
     1
1070
   272
1070
     1
1070
   278
1070
    46
1070
   284
1070
     0
1070
   341
1005
12E9
1070
   342
1005
111D
1002
}
  0
LINE
  5
B151
330
1F
100
AcDbEntity
  8
中心线
 48
0.5
100
AcDbLine
 10
-649.1480658829805
 20
1927.718031594779
 30
0.0
 11
-642.4366128701414
 21
1927.709743126827
 31
0.0
  0
CIRCLE
  5
B152
330
1F
100
AcDbEntity
  8
虚线
 48
0.5
100
AcDbCircle
 10
-645.8273993385801
 20
1927.713930658935
 30
0.0
 40
0.9999999999999998
  0
LINE
  5
B153
330
1F
100
AcDbEntity
  8
中心线
 48
0.5
100
AcDbLine
 10
-649.1665904743367
 20
1912.718043033467
 30
0.0
 11
-642.4551374614978
 21
1912.709754565515
 31
0.0
  0
CIRCLE
  5
B154
330
1F
100
AcDbEntity
  8
虚线
 48
0.5
100
AcDbCircle
 10
-645.8459239299363
 20
1912.713942097622
 30
0.0
 40
0.9999999999999998
  0
LINE
  5
B155
330
1F
100
AcDbEntity
  8
中心线
 48
0.5
100
AcDbLine
 10
-390.4521848257059
 20
1927.398548985676
 30
0.0
 11
-383.7407318128667
 21
1927.390260517724
 31
0.0
  0
CIRCLE
  5
B156
330
1F
100
AcDbEntity
  8
虚线
 48
0.5
100
AcDbCircle
 10
-387.1315182813055
 20
1927.394448049831
 30
0.0
 40
0.9999999999999998
  0
LINE
  5
B157
330
1F
100
AcDbEntity
  8
中心线
 48
0.5
100
AcDbLine
 10
-390.4707094170622
 20
1912.398560424363
 30
0.0
 11
-383.7592564042229
 21
1912.390271956411
 31
0.0
  0
CIRCLE
  5
B158
330
1F
100
AcDbEntity
  8
虚线
 48
0.5
100
AcDbCircle
 10
-387.1500428726617
 20
1912.394459488518
 30
0.0
 40
0.9999999999999998
  0
DIMENSION
  5
B15C
330
1F
100
AcDbEntity
  8
尺寸线
 48
0.5
100
AcDbDimension
280
     0
  2
*D6
 10
-645.8366616342584
 20
1920.213936378278
 30
0.0
 11
-661.6714570247602
 21
1910.99958110772
 31
0.0
 70
    36
 71
     5
 42
10.0
 73
     0
 74
     0
 75
     0
  3
ISO-25
100
AcDbRadialDimension
 15
-653.9515500119742
 25
1914.370257176165
 35
0.0
 40
0.0
1001
ACAD
1000
DSTYLE
1002
{
1070
    42
1040
1.0
1070
    44
1040
1.0
1070
   143
1040
0.0393700787401575
1070
   147
1040
0.526
1070
   271
1070
     1
1070
   272
1070
     1
1070
   278
1070
    46
1070
   284
1070
     0
1070
   288
1070
     1
1070
   341
1005
12E9
1070
   342
1005
111D
1002
}
  0
DIMENSION
  5
B166
330
1F
100
AcDbEntity
  8
尺寸线
 48
0.5
100
AcDbDimension
280
     0
  2
*D7
 10
-387.140780576984
 20
1919.894453769174
 30
0.0
 11
-372.1601421364402
 21
1909.348100843882
 31
0.0
 70
    36
 71
     5
 42
9.999999999999772
 73
     0
 74
     0
 75
     0
  3
ISO-25
100
AcDbRadialDimension
 15
-379.5604035332577
 25
1913.372346450605
 35
0.0
 40
0.0
1001
ACAD
1000
DSTYLE
1002
{
1070
    42
1040
1.0
1070
    44
1040
1.0
1070
   143
1040
0.0393700787401575
1070
   147
1040
0.526
1070
   271
1070
     1
1070
   272
1070
     1
1070
   278
1070
    46
1070
   284
1070
     0
1070
   288
1070
     1
1070
   341
1005
12E9
1070
   342
1005
111D
1002
}
  0
DIMENSION
  5
B170
330
1F
100
AcDbEntity
  8
尺寸线
 48
0.5
100
AcDbDimension
280
     0
  2
*D8
 10
-645.8732919758671
 20
1890.553109073601
 30
0.0
 11
-516.523158135613
 21
1892.169366414696
 31
0.0
 70
    32
  1
600
 71
     5
 42
258.6960783335094
 73
     0
 74
     0
 75
     0
  3
ISO-25
100
AcDbAlignedDimension
 13
-387.1561356080515
 23
1907.460965442699
 33
0.0
 14
-645.8520166653263
 24
1907.780448051803
 34
0.0
 50
359.9292412552139
100
AcDbRotatedDimension
1001
ACAD
1000
DSTYLE
1002
{
1070
    42
1040
1.0
1070
    44
1040
1.0
1070
   143
1040
0.0393700787401575
1070
   147
1040
0.526
1070
   271
1070
     1
1070
   272
1070
     1
1070
   278
1070
    46
1070
   284
1070
     0
1070
   341
1005
12E9
1070
   342
1005
111D
1002
}
  0
LINE
  5
E01E
330
1F
100
AcDbEntity
  8
中心线
 48
0.5
100
AcDbLine
 10
-629.8063078661003
 20
2119.809032195
 30
0.0
 11
-624.2329509523267
 21
2119.802149245797
 31
0.0
  0
LINE
  5
E01F
330
1F
100
AcDbEntity
  8
中心线
 48
0.5
100
AcDbLine
 10
-629.9205284069721
 20
2115.809170204045
 30
0.0
 11
-624.0557476725926
 21
2115.801927354088
 31
0.0
  0
LINE
  5
1AD11
330
1F
100
AcDbEntity
  8
0
100
AcDbLine
 10
-620.6821202968092
 20
2045.335850392551
 30
0.0
 11
-620.7620230341917
 21
1980.635899731422
 31
0.0
  0
LINE
  5
1AD12
330
1F
100
AcDbEntity
  8
中心线
100
AcDbLine
 10
-634.748406449902
 20
1991.670353678916
 30
0.0
 11
-634.7638531458187
 21
1979.162641222098
 31
0.0
  0
LINE
  5
1AD13
330
1F
100
AcDbEntity
  8
0
100
AcDbLine
 10
-620.7620230341917
 20
1980.635899731422
 30
0.0
 11
-655.4619965726956
 21
1980.678753286092
 31
0.0
  0
LINE
  5
1AD14
330
1F
100
AcDbEntity
  8
中心线
100
AcDbLine
 10
-629.2543881296579
 20
1985.646391391854
 30
0.0
 11
-640.2446655769788
 21
1985.659964095444
 31
0.0
  0
ARC
  5
1AD15
330
1F
100
AcDbEntity
  8
0
 48
0.5
100
AcDbCircle
 10
-634.7558374942984
 20
1985.653185537125
 30
0.0
 40
2.499999999999999
100
AcDbArc
 50
359.9292412552139
 51
269.9292412552139
  0
CIRCLE
  5
1AD16
330
1F
100
AcDbEntity
  8
细实线
 48
0.5
100
AcDbCircle
 10
-634.7558374942984
 20
1985.653185537125
 30
0.0
 40
2.099999999999999
  0
LINE
  5
1AD17
330
1F
100
AcDbEntity
  8
0
 48
0.5
100
AcDbLine
 10
-523.4680812854903
 20
2045.515793839988
 30
0.0
 11
-655.6817231147119
 21
2045.679074210275
 31
0.0
  0
ENDSEC
  0
SECTION
  2
OBJECTS
  0
DICTIONARY
  5
C
330
0
100
AcDbDictionary
281
     1
  3
ACAD_CIP_PREVIOUS_PRODUCT_INFO
350
101ADB3
  3
ACAD_COLOR
350
1D4
  3
ACAD_DETAILVIEWSTYLE
350
101ADAD
  3
ACAD_GROUP
350
D
  3
ACAD_LAYOUT
350
1A
  3
ACAD_MATERIAL
350
1D3
  3
ACAD_MLEADERSTYLE
350
101ADA8
  3
ACAD_MLINESTYLE
350
17
  3
ACAD_PLOTSETTINGS
350
19
  3
ACAD_PLOTSTYLENAME
350
E
  3
ACAD_SCALELIST
350
101AD96
  3
ACAD_SECTIONVIEWSTYLE
350
101ADAA
  3
ACAD_TABLESTYLE
350
1D5
  3
ACAD_VISUALSTYLE
350
101AD7D
  3
AcadDim
350
158D3
  3
ACDB_RECOMPOSE_DATA
350
101AE3E
  3
AcDbVariableDictionary
350
265
  0
DICTIONARY
  5
411
330
2
100
AcDbDictionary
280
     1
281
     1
  3
ACAD_LAYERFILTERS
360
4264
  3
ACLYDICTIONARY
360
4263
  0
DICTIONARY
  5
101AE12
330
10
100
AcDbDictionary
280
     1
281
     1
  3
ADSK_XREC_LAYER_RECONCILED
360
101AE13
  0
DICTIONARY
  5
101AE14
330
40A
100
AcDbDictionary
280
     1
281
     1
  3
ADSK_XREC_LAYER_RECONCILED
360
101AE15
  0
DICTIONARY
  5
101AE16
330
40F
100
AcDbDictionary
280
     1
281
     1
  3
ADSK_XREC_LAYER_RECONCILED
360
101AE17
  0
DICTIONARY
  5
101AE18
330
410
100
AcDbDictionary
280
     1
281
     1
  3
ADSK_XREC_LAYER_RECONCILED
360
101AE19
  0
DICTIONARY
  5
101AE1A
330
281D
100
AcDbDictionary
280
     1
281
     1
  3
ADSK_XREC_LAYER_RECONCILED
360
101AE1B
  0
DICTIONARY
  5
101AE1C
330
4262
100
AcDbDictionary
280
     1
281
     1
  3
ADSK_XREC_LAYER_RECONCILED
360
101AE1D
  0
DICTIONARY
  5
101AE1E
330
CAEE
100
AcDbDictionary
280
     1
281
     1
  3
ADSK_XREC_LAYER_RECONCILED
360
101AE1F
  0
DICTIONARY
  5
101AE20
330
CAF2
100
AcDbDictionary
280
     1
281
     1
  3
ADSK_XREC_LAYER_RECONCILED
360
101AE21
  0
DICTIONARY
  5
206
330
1F
100
AcDbDictionary
280
     1
281
     1
  3
ACAD_SORTENTS
360
207
  0
XRECORD
  5
101ADB3
102
{ACAD_REACTORS
330
C
102
}
330
C
100
AcDbXrecord
280
     1
300
ACD
300
2017
300
ACD_F_S
  0
DICTIONARY
  5
1D4
102
{ACAD_REACTORS
330
C
102
}
330
C
100
AcDbDictionary
281
     1
  0
DICTIONARY
  5
101ADAD
102
{ACAD_REACTORS
330
C
102
}
330
C
100
AcDbDictionary
281
     1
  3
Metric50
350
101ADAE
  0
DICTIONARY
  5
D
102
{ACAD_REACTORS
330
C
102
}
330
C
100
AcDbDictionary
281
     1
  0
DICTIONARY
  5
1A
102
{ACAD_REACTORS
330
C
102
}
330
C
100
AcDbDictionary
281
     1
  3
Layout1
350
1E
  3
Layout2
350
26
  3
Model
350
22
  0
DICTIONARY
  5
1D3
102
{ACAD_REACTORS
330
C
102
}
330
C
100
AcDbDictionary
281
     1
  3
ByBlock
350
101AD6D
  3
ByLayer
350
101AD65
  3
Global
350
101AD75
  0
DICTIONARY
  5
101ADA8
102
{ACAD_REACTORS
330
C
102
}
330
C
100
AcDbDictionary
281
     1
  3
Standard
350
101ADA9
  0
DICTIONARY
  5
17
102
{ACAD_REACTORS
330
C
102
}
330
C
100
AcDbDictionary
281
     1
  3
Standard
350
18
  0
DICTIONARY
  5
19
102
{ACAD_REACTORS
330
C
102
}
330
C
100
AcDbDictionary
281
     1
  0
ACDBDICTIONARYWDFLT
  5
E
102
{ACAD_REACTORS
330
C
102
}
330
C
100
AcDbDictionary
281
     1
  3
Normal
350
F
100
AcDbDictionaryWithDefault
340
F
  0
DICTIONARY
  5
101AD96
102
{ACAD_REACTORS
330
C
102
}
330
C
100
AcDbDictionary
281
     1
  3
A0
350
101AD97
  3
A1
350
101AD98
  3
A2
350
101AD99
  3
A3
350
101AD9A
  3
A4
350
101AD9B
  3
A5
350
101AD9C
  3
A6
350
101AD9D
  3
A7
350
101AD9E
  3
A8
350
101AD9F
  3
A9
350
101ADA0
  3
B0
350
101ADA1
  3
B1
350
101ADA2
  3
B2
350
101ADA3
  3
B3
350
101ADA4
  3
B4
350
101ADA5
  3
B5
350
101ADA6
  3
B6
350
101ADA7
  0
DICTIONARY
  5
101ADAA
102
{ACAD_REACTORS
330
C
102
}
330
C
100
AcDbDictionary
281
     1
  3
Metric50
350
101ADAC
  0
DICTIONARY
  5
1D5
102
{ACAD_REACTORS
330
C
102
}
330
C
100
AcDbDictionary
281
     1
  3
Standard
350
1D6
  0
DICTIONARY
  5
101AD7D
102
{ACAD_REACTORS
330
C
102
}
330
C
100
AcDbDictionary
281
     1
  3
2dWireframe
350
101AD83
  3
Basic
350
101AD82
  3
Brighten
350
101AD89
  3
ColorChange
350
101AD8D
  3
Conceptual
350
101AD86
  3
Dim
350
101AD88
  3
EdgeColorOff
350
101AD95
  3
Facepattern
350
101AD8C
  3
Flat
350
101AD7E
  3
FlatWithEdges
350
101AD7F
  3
Gouraud
350
101AD80
  3
GouraudWithEdges
350
101AD81
  3
Hidden
350
101AD85
  3
JitterOff
350
101AD93
  3
Linepattern
350
101AD8B
  3
OverhangOff
350
101AD94
  3
Realistic
350
101AD87
  3
Shaded
350
101AD92
  3
Shaded with edges
350
101AD91
  3
Shades of Gray
350
101AD8E
  3
Sketchy
350
101AD8F
  3
Thicken
350
101AD8A
  3
Wireframe
350
101AD84
  3
X-Ray
350
101AD90
  0
XRECORD
  5
158D3
102
{ACAD_REACTORS
330
C
102
}
330
C
100
AcDbXrecord
280
     1
 90
   990106
  3

 60
     0
 61
     0
 62
     1
 63
     3
 64
     0
 65
     0
 66
     0
 67
     3
 68
     1
 69
     0
 70
     0
 71
     0
 72
     0
 40
51.92405077377407
170
     0
340
0
  0
XRECORD
  5
101AE3E
102
{ACAD_REACTORS
330
C
102
}
330
C
100
AcDbXrecord
280
     1
 90
        1
330
1D6
330
101ADAC
330
101ADAE
  0
DICTIONARY
  5
265
102
{ACAD_REACTORS
330
C
102
}
330
C
100
AcDbDictionary
281
     1
  3
CANNOSCALE
350
101AE34
  3
CMLEADERSTYLE
350
101AE30
  3
CTABLESTYLE
350
266
  3
CVIEWDETAILSTYLE
350
101AE31
  3
CVIEWSECTIONSTYLE
350
101AE32
  3
DIMASSOC
350
1A744
  3
LAYEREVAL
350
101AE36
  3
LAYERNOTIFY
350
101AE37
  3
LIGHTINGUNITS
350
101AE35
  3
MSLTSCALE
350
101AE33
  3
PROJECTNAME
350
1A745
  0
DICTIONARY
  5
4264
102
{ACAD_REACTORS
330
411
102
}
330
411
100
AcDbDictionary
281
     1
  0
DICTIONARY
  5
4263
102
{ACAD_REACTORS
330
411
102
}
330
411
100
AcDbDictionary
281
     1
1001
ACAD
1000
<All
  0
XRECORD
  5
101AE13
102
{ACAD_REACTORS
330
101AE12
102
}
330
101AE12
100
AcDbXrecord
280
     1
290
     1
  0
XRECORD
  5
101AE15
102
{ACAD_REACTORS
330
101AE14
102
}
330
101AE14
100
AcDbXrecord
280
     1
290
     1
  0
XRECORD
  5
101AE17
102
{ACAD_REACTORS
330
101AE16
102
}
330
101AE16
100
AcDbXrecord
280
     1
290
     1
  0
XRECORD
  5
101AE19
102
{ACAD_REACTORS
330
101AE18
102
}
330
101AE18
100
AcDbXrecord
280
     1
290
     1
  0
XRECORD
  5
101AE1B
102
{ACAD_REACTORS
330
101AE1A
102
}
330
101AE1A
100
AcDbXrecord
280
     1
290
     1
  0
XRECORD
  5
101AE1D
102
{ACAD_REACTORS
330
101AE1C
102
}
330
101AE1C
100
AcDbXrecord
280
     1
290
     1
  0
XRECORD
  5
101AE1F
102
{ACAD_REACTORS
330
101AE1E
102
}
330
101AE1E
100
AcDbXrecord
280
     1
290
     1
  0
XRECORD
  5
101AE21
102
{ACAD_REACTORS
330
101AE20
102
}
330
101AE20
100
AcDbXrecord
280
     1
290
     1
  0
SORTENTSTABLE
  5
207
102
{ACAD_REACTORS
330
206
102
}
330
206
100
AcDbSortentsTable
330
1F
331
AE5B
  5
AEC9
331
AE67
  5
AED0
331
AFCC
  5
AFEC
331
AFC8
  5
AFE8
331
B00F
  5
B06D
331
AFD4
  5
AFF4
331
B00B
  5
B069
331
AFD0
  5
AFF0
331
B113
  5
B197
331
B013
  5
B071
331
B154
  5
B1DB
331
E01F
  5
E32A
331
B15C
  5
B1E3
331
B158
  5
B1DF
331
AEB4
  5
AF57
331
AF28
  5
AF81
331
AFDD
  5
AFFD
331
AFD9
  5
AFF9
331
AFE5
  5
B005
331
AFE1
  5
B001
331
AF3C
  5
AF96
331
AFED
  5
B00D
331
AFE9
  5
B009
331
AFF5
  5
B015
331
AFF1
  5
B011
331
AFFC
  5
B058
331
AFF8
  5
B031
331
B004
  5
B062
331
B10C
  5
B15B
331
B000
  5
B05E
331
AE5C
  5
AECA
331
AE58
  5
AEB8
331
AE64
  5
AECC
331
AFCD
  5
AFED
331
B00C
  5
B06A
331
B114
  5
B198
331
AFC9
  5
AFE9
331
B008
  5
B066
331
AFD5
  5
AFF5
331
B014
  5
B072
331
B110
  5
B186
331
AFD1
  5
AFF1
331
B010
  5
B06E
331
B155
  5
B1DC
331
B151
  5
B1D7
331
AEB5
  5
AF58
331
AFDE
  5
AFFE
331
AFDA
  5
AFFA
331
AFE6
  5
B006
331
AFE2
  5
B002
331
B166
  5
B1E5
331
AF3D
  5
AFC8
331
AF39
  5
AF8F
331
AFEE
  5
B00E
331
AFEA
  5
B00A
331
AFF6
  5
B016
331
AFF2
  5
B012
331
AF4E
  5
AF95
331
AFFD
  5
B059
331
AFF9
  5
B048
331
B005
  5
B063
331
B10D
  5
B15C
331
B001
  5
B05F
331
AFCE
  5
AFEE
331
B00D
  5
B06B
331
B115
  5
B199
331
AFCA
  5
AFEA
331
B009
  5
B067
331
AFD6
  5
AFF6
331
B111
  5
B188
331
AFD2
  5
AFF2
331
B011
  5
B06F
331
B156
  5
B1DD
331
B152
  5
B1D8
331
AEB6
  5
AF59
331
AFDF
  5
AFFF
331
AFDB
  5
AFFB
331
AFE7
  5
B007
331
AFE3
  5
B003
331
AF3A
  5
AF90
331
AFEF
  5
B00F
331
AFEB
  5
B00B
331
AFF7
  5
B023
331
AFF3
  5
B013
331
AE56
  5
AEAE
331
AFFE
  5
B05A
331
AF4F
  5
AFCA
331
AF4B
  5
AF93
331
AFFA
  5
B056
331
B006
  5
B064
331
B002
  5
B060
331
B10E
  5
B166
331
B143
  5
B1D6
331
AE66
  5
AECD
331
AFCF
  5
AFEF
331
B00E
  5
B06C
331
AFCB
  5
AFEB
331
B00A
  5
B068
331
B116
  5
B19B
331
AFD7
  5
AFF7
331
B112
  5
B194
331
AFD3
  5
AFF3
331
B012
  5
B070
331
B11A
  5
B1CF
331
B157
  5
B1DE
331
E01E
  5
E05B
331
B153
  5
B1D9
331
AEB7
  5
AF5B
331
AEB3
  5
AF56
331
AFDC
  5
AFFC
331
AFD8
  5
AFF8
331
AFE4
  5
B004
331
B127
  5
B1D2
331
AFE0
  5
B000
331
AF3B
  5
AF94
331
AFEC
  5
B00C
331
AFE8
  5
B008
331
AFF4
  5
B014
331
AFF0
  5
B010
331
B170
  5
B1E8
331
AE57
  5
AEB1
331
AFFF
  5
B05D
331
AFFB
  5
B057
331
AF50
  5
AFCB
331
B007
  5
B065
331
B003
  5
B061
331
B10F
  5
B170
  0
ACDBDETAILVIEWSTYLE
  5
101ADAE
102
{ACAD_XDICTIONARY
360
101AE3C
102
}
102
{ACAD_REACTORS
330
101ADAD
102
}
330
101ADAD
100
AcDbModelDocViewStyle
 70
     0
  3
Metric50
290
     0
100
AcDbDetailViewStyle
 70
     0
 71
     0
 90
        3
 71
     1
340
11
 62
   256
 40
5.0
340
0
 62
   256
 40
5.0
300

 40
0.0
280
     1
 71
     2
340
16
 90
       25
 62
   256
 71
     3
340
11
 62
   256
 40
5.0
 90
        0
 40
15.0
 90
        1
300
%<\AcVar ViewDetailId>% (%<\AcVar ViewScale \f "%sn">%)
 71
     4
340
16
 90
       25
 62
   256
340
16
 90
       25
 62
   256
280
     0
  0
LAYOUT
  5
1E
102
{ACAD_REACTORS
330
1A
102
}
330
1A
100
AcDbPlotSettings
  1

  2

  4

  6

 40
0.0
 41
0.0
 42
0.0
 43
0.0
 44
0.0
 45
0.0
 46
0.0
 47
0.0
 48
0.0
 49
0.0
140
0.0
141
0.0
142
1.0
143
1.0
 70
   688
 72
     0
 73
     0
 74
     5
  7

 75
    16
147
1.0
 76
     0
 77
     2
 78
   300
148
0.0
149
0.0
100
AcDbLayout
  1
Layout1
 70
     1
 71
     1
 10
0.0
 20
0.0
 11
420.0
 21
297.0
 12
0.0
 22
0.0
 32
0.0
 14
1.000000000000000E+20
 24
1.000000000000000E+20
 34
1.000000000000000E+20
 15
-1.000000000000000E+20
 25
-1.000000000000000E+20
 35
-1.000000000000000E+20
146
0.0
 13
0.0
 23
0.0
 33
0.0
 16
1.0
 26
0.0
 36
0.0
 17
0.0
 27
1.0
 37
0.0
 76
     0
330
1B
  0
LAYOUT
  5
26
102
{ACAD_REACTORS
330
1A
102
}
330
1A
100
AcDbPlotSettings
  1

  2

  4

  6

 40
0.0
 41
0.0
 42
0.0
 43
0.0
 44
0.0
 45
0.0
 46
0.0
 47
0.0
 48
0.0
 49
0.0
140
0.0
141
0.0
142
1.0
143
1.0
 70
   688
 72
     0
 73
     0
 74
     5
  7

 75
    16
147
1.0
 76
     0
 77
     2
 78
   300
148
0.0
149
0.0
100
AcDbLayout
  1
Layout2
 70
     1
 71
     2
 10
0.0
 20
0.0
 11
0.0
 21
0.0
 12
0.0
 22
0.0
 32
0.0
 14
0.0
 24
0.0
 34
0.0
 15
0.0
 25
0.0
 35
0.0
146
0.0
 13
0.0
 23
0.0
 33
0.0
 16
1.0
 26
0.0
 36
0.0
 17
0.0
 27
1.0
 37
0.0
 76
     0
330
23
  0
LAYOUT
  5
22
102
{ACAD_REACTORS
330
1A
102
}
330
1A
100
AcDbPlotSettings
  1

  2
Adobe PDF
  4
A4
  6

 40
3.174999952316284
 41
3.174999952316284
 42
3.175003051757812
 43
3.17498779296875
 44
209.9733276367187
 45
297.0318298339844
 46
0.0
 47
0.0
 48
0.0
 49
0.0
140
0.0
141
0.0
142
1.0
143
0.7475498042581874
 70
 11952
 72
     1
 73
     1
 74
     0
  7

 75
     0
147
1.337703513938212
 76
     0
 77
     2
 78
   300
148
-62.04520941299825
149
-114.2038463351312
100
AcDbLayout
  1
Model
 70
     1
 71
     0
 10
0.0
 20
0.0
 11
0.0
 21
0.0
 12
0.0
 22
0.0
 32
0.0
 14
0.0
 24
0.0
 34
0.0
 15
297.0
 25
210.0
 35
0.0
146
0.0
 13
0.0
 23
0.0
 33
0.0
 16
1.0
 26
0.0
 36
0.0
 17
0.0
 27
1.0
 37
0.0
 76
     0
330
1F
331
1AD5C
1001
ACAD_PSEXT
1000
Adobe PDF
1000
Adobe PDF Converter
1000
My Documents
1000

1070
     0
  0
MATERIAL
  5
101AD6D
102
{ACAD_XDICTIONARY
360
101AD6E
102
}
102
{ACAD_REACTORS
330
1D3
102
}
330
1D3
100
AcDbMaterial
  1
ByBlock
 72
     0
 43
0.0008202099737533
 43
0.0
 43
0.0
 43
0.0
 43
0.0
 43
0.0008202099737533
 43
0.0
 43
0.0
 43
0.0
 43
0.0
 43
1.0
 43
0.0
 43
0.0
 43
0.0
 43
0.0
 43
1.0
 77
     0
 47
0.0008202099737533
 47
0.0
 47
0.0
 47
0.0
 47
0.0
 47
0.0008202099737533
 47
0.0
 47
0.0
 47
0.0
 47
0.0
 47
1.0
 47
0.0
 47
0.0
 47
0.0
 47
0.0
 47
1.0
171
     0
 49
0.0008202099737533
 49
0.0
 49
0.0
 49
0.0
 49
0.0
 49
0.0008202099737533
 49
0.0
 49
0.0
 49
0.0
 49
0.0
 49
1.0
 49
0.0
 49
0.0
 49
0.0
 49
0.0
 49
1.0
175
     0
142
0.0008202099737533
142
0.0
142
0.0
142
0.0
142
0.0
142
0.0008202099737533
142
0.0
142
0.0
142
0.0
142
0.0
142
1.0
142
0.0
142
0.0
142
0.0
142
0.0
142
1.0
179
     0
144
0.0008202099737533
144
0.0
144
0.0
144
0.0
144
0.0
144
0.0008202099737533
144
0.0
144
0.0
144
0.0
144
0.0
144
1.0
144
0.0
144
0.0
144
0.0
144
0.0
144
1.0
147
0.0008202099737533
147
0.0
147
0.0
147
0.0
147
0.0
147
0.0008202099737533
147
0.0
147
0.0
147
0.0
147
0.0
147
1.0
147
0.0
147
0.0
147
0.0
147
0.0
147
1.0
  0
MATERIAL
  5
101AD65
102
{ACAD_XDICTIONARY
360
101AD66
102
}
102
{ACAD_REACTORS
330
1D3
102
}
330
1D3
100
AcDbMaterial
  1
ByLayer
 72
     0
 43
0.0008202099737533
 43
0.0
 43
0.0
 43
0.0
 43
0.0
 43
0.0008202099737533
 43
0.0
 43
0.0
 43
0.0
 43
0.0
 43
1.0
 43
0.0
 43
0.0
 43
0.0
 43
0.0
 43
1.0
 77
     0
 47
0.0008202099737533
 47
0.0
 47
0.0
 47
0.0
 47
0.0
 47
0.0008202099737533
 47
0.0
 47
0.0
 47
0.0
 47
0.0
 47
1.0
 47
0.0
 47
0.0
 47
0.0
 47
0.0
 47
1.0
171
     0
 49
0.0008202099737533
 49
0.0
 49
0.0
 49
0.0
 49
0.0
 49
0.0008202099737533
 49
0.0
 49
0.0
 49
0.0
 49
0.0
 49
1.0
 49
0.0
 49
0.0
 49
0.0
 49
0.0
 49
1.0
175
     0
142
0.0008202099737533
142
0.0
142
0.0
142
0.0
142
0.0
142
0.0008202099737533
142
0.0
142
0.0
142
0.0
142
0.0
142
1.0
142
0.0
142
0.0
142
0.0
142
0.0
142
1.0
179
     0
144
0.0008202099737533
144
0.0
144
0.0
144
0.0
144
0.0
144
0.0008202099737533
144
0.0
144
0.0
144
0.0
144
0.0
144
1.0
144
0.0
144
0.0
144
0.0
144
0.0
144
1.0
147
0.0008202099737533
147
0.0
147
0.0
147
0.0
147
0.0
147
0.0008202099737533
147
0.0
147
0.0
147
0.0
147
0.0
147
1.0
147
0.0
147
0.0
147
0.0
147
0.0
147
1.0
  0
MATERIAL
  5
101AD75
102
{ACAD_XDICTIONARY
360
101AD76
102
}
102
{ACAD_REACTORS
330
1D3
102
}
330
1D3
100
AcDbMaterial
  1
Global
 72
     0
 43
0.0008202099737533
 43
0.0
 43
0.0
 43
0.0
 43
0.0
 43
0.0008202099737533
 43
0.0
 43
0.0
 43
0.0
 43
0.0
 43
1.0
 43
0.0
 43
0.0
 43
0.0
 43
0.0
 43
1.0
 77
     0
 47
0.0008202099737533
 47
0.0
 47
0.0
 47
0.0
 47
0.0
 47
0.0008202099737533
 47
0.0
 47
0.0
 47
0.0
 47
0.0
 47
1.0
 47
0.0
 47
0.0
 47
0.0
 47
0.0
 47
1.0
171
     0
 49
0.0008202099737533
 49
0.0
 49
0.0
 49
0.0
 49
0.0
 49
0.0008202099737533
 49
0.0
 49
0.0
 49
0.0
 49
0.0
 49
1.0
 49
0.0
 49
0.0
 49
0.0
 49
0.0
 49
1.0
175
     0
142
0.0008202099737533
142
0.0
142
0.0
142
0.0
142
0.0
142
0.0008202099737533
142
0.0
142
0.0
142
0.0
142
0.0
142
1.0
142
0.0
142
0.0
142
0.0
142
0.0
142
1.0
179
     0
144
0.0008202099737533
144
0.0
144
0.0
144
0.0
144
0.0
144
0.0008202099737533
144
0.0
144
0.0
144
0.0
144
0.0
144
1.0
144
0.0
144
0.0
144
0.0
144
0.0
144
1.0
147
0.0008202099737533
147
0.0
147
0.0
147
0.0
147
0.0
147
0.0008202099737533
147
0.0
147
0.0
147
0.0
147
0.0
147
1.0
147
0.0
147
0.0
147
0.0
147
0.0
147
1.0
  0
MLEADERSTYLE
  5
101ADA9
102
{ACAD_REACTORS
330
101ADA8
102
}
330
101ADA8
100
AcDbMLeaderStyle
179
     2
170
     2
171
     1
172
     0
 90
        2
 40
0.0
 41
0.0
173
     1
 91
-1056964608
340
14
 92
       -2
290
     1
 42
2.0
291
     1
 43
0.36
  3
Standard
 44
4.0
300

342
11
174
     1
178
     6
175
     1
176
     0
 93
-1056964608
 45
4.0
292
     0
297
     0
 46
4.0
 94
-1056964608
 47
1.0
 49
1.0
140
1.0
293
     1
141
0.0
294
     1
177
     0
142
1.0
295
     1
296
     0
143
0.125
271
     0
272
     9
273
     9
298
     1
  0
MLINESTYLE
  5
18
102
{ACAD_REACTORS
330
17
102
}
330
17
100
AcDbMlineStyle
  2
STANDARD
 70
     0
  3

 62
   256
 51
90.0
 52
90.0
 71
     2
 49
0.5
 62
   256
  6
BYLAYER
 49
-0.5
 62
   256
  6
BYLAYER
  0
ACDBPLACEHOLDER
  5
F
102
{ACAD_REACTORS
330
E
102
}
330
E
  0
SCALE
  5
101AD97
102
{ACAD_REACTORS
330
101AD96
102
}
330
101AD96
100
AcDbScale
 70
     0
300
1:1
140
1.0
141
1.0
290
     1
  0
SCALE
  5
101AD98
102
{ACAD_REACTORS
330
101AD96
102
}
330
101AD96
100
AcDbScale
 70
     0
300
1:2
140
1.0
141
2.0
290
     0
  0
SCALE
  5
101AD99
102
{ACAD_REACTORS
330
101AD96
102
}
330
101AD96
100
AcDbScale
 70
     0
300
1:4
140
1.0
141
4.0
290
     0
  0
SCALE
  5
101AD9A
102
{ACAD_REACTORS
330
101AD96
102
}
330
101AD96
100
AcDbScale
 70
     0
300
1:5
140
1.0
141
5.0
290
     0
  0
SCALE
  5
101AD9B
102
{ACAD_REACTORS
330
101AD96
102
}
330
101AD96
100
AcDbScale
 70
     0
300
1:8
140
1.0
141
8.0
290
     0
  0
SCALE
  5
101AD9C
102
{ACAD_REACTORS
330
101AD96
102
}
330
101AD96
100
AcDbScale
 70
     0
300
1:10
140
1.0
141
10.0
290
     0
  0
SCALE
  5
101AD9D
102
{ACAD_REACTORS
330
101AD96
102
}
330
101AD96
100
AcDbScale
 70
     0
300
1:16
140
1.0
141
16.0
290
     0
  0
SCALE
  5
101AD9E
102
{ACAD_REACTORS
330
101AD96
102
}
330
101AD96
100
AcDbScale
 70
     0
300
1:20
140
1.0
141
20.0
290
     0
  0
SCALE
  5
101AD9F
102
{ACAD_REACTORS
330
101AD96
102
}
330
101AD96
100
AcDbScale
 70
     0
300
1:30
140
1.0
141
30.0
290
     0
  0
SCALE
  5
101ADA0
102
{ACAD_REACTORS
330
101AD96
102
}
330
101AD96
100
AcDbScale
 70
     0
300
1:40
140
1.0
141
40.0
290
     0
  0
SCALE
  5
101ADA1
102
{ACAD_REACTORS
330
101AD96
102
}
330
101AD96
100
AcDbScale
 70
     0
300
1:50
140
1.0
141
50.0
290
     0
  0
SCALE
  5
101ADA2
102
{ACAD_REACTORS
330
101AD96
102
}
330
101AD96
100
AcDbScale
 70
     0
300
1:100
140
1.0
141
100.0
290
     0
  0
SCALE
  5
101ADA3
102
{ACAD_REACTORS
330
101AD96
102
}
330
101AD96
100
AcDbScale
 70
     0
300
2:1
140
2.0
141
1.0
290
     0
  0
SCALE
  5
101ADA4
102
{ACAD_REACTORS
330
101AD96
102
}
330
101AD96
100
AcDbScale
 70
     0
300
4:1
140
4.0
141
1.0
290
     0
  0
SCALE
  5
101ADA5
102
{ACAD_REACTORS
330
101AD96
102
}
330
101AD96
100
AcDbScale
 70
     0
300
8:1
140
8.0
141
1.0
290
     0
  0
SCALE
  5
101ADA6
102
{ACAD_REACTORS
330
101AD96
102
}
330
101AD96
100
AcDbScale
 70
     0
300
10:1
140
10.0
141
1.0
290
     0
  0
SCALE
  5
101ADA7
102
{ACAD_REACTORS
330
101AD96
102
}
330
101AD96
100
AcDbScale
 70
     0
300
100:1
140
100.0
141
1.0
290
     0
  0
ACDBSECTIONVIEWSTYLE
  5
101ADAC
102
{ACAD_XDICTIONARY
360
101AE3A
102
}
102
{ACAD_REACTORS
330
101ADAA
102
}
330
101ADAA
100
AcDbModelDocViewStyle
 70
     0
  3
Metric50
290
     0
100
AcDbSectionViewStyle
 70
     0
 71
     0
 90
      102
 71
     1
340
11
 62
   256
 40
5.0
340
0
340
0
 62
   256
 40
5.0
300
I, O, Q, S, X, Z
 40
10.0
 90
        0
 40
2.5
 90
        0
 71
     2
340
16
 90
       25
 62
   256
340
16
 90
       50
 62
   256
 40
5.0
 40
2.5
 40
5.0
 71
     3
340
11
 62
   256
 40
5.0
 90
        0
 40
15.0
 90
        1
300
%<\AcVar ViewSectionStartId>%-%<\AcVar ViewSectionEndId>% (%<\AcVar ViewScale \f "%sn">%)
 71
     4
 62
   256
 62
   257
300
ANSI31
 40
1.0
 90
        0
290
     0
290
     0
 90
        6
 40
0.0
 40
1.570796326794896
 40
0.2617993877991494
 40
1.308996938995747
 40
-0.2617993877991494
 40
1.832595714594046
  0
TABLESTYLE
  5
1D6
102
{ACAD_XDICTIONARY
360
101AE38
102
}
102
{ACAD_REACTORS
330
1D5
102
}
330
1D5
100
AcDbTableStyle
280
     0
  3
Standard
 70
     0
 71
     0
 40
1.5
 41
1.5
280
     0
281
     0
  7
Standard
140
4.5
170
     2
 62
     0
 63
     7
283
     0
 90
        4
 91
        0
  1

274
    -2
284
     1
 64
     0
275
    -2
285
     1
 65
     0
276
    -2
286
     1
 66
     0
277
    -2
287
     1
 67
     0
278
    -2
288
     1
 68
     0
279
    -2
289
     1
 69
     0
  7
Standard
140
6.0
170
     5
 62
     0
 63
     7
283
     0
 90
        4
 91
        0
  1

274
    -2
284
     1
 64
     0
275
    -2
285
     1
 65
     0
276
    -2
286
     1
 66
     0
277
    -2
287
     1
 67
     0
278
    -2
288
     1
 68
     0
279
    -2
289
     1
 69
     0
  7
Standard
140
4.5
170
     5
 62
     0
 63
     7
283
     0
 90
        4
 91
        0
  1

274
    -2
284
     1
 64
     0
275
    -2
285
     1
 65
     0
276
    -2
286
     1
 66
     0
277
    -2
287
     1
 67
     0
278
    -2
288
     1
 68
     0
279
    -2
289
     1
 69
     0
  0
VISUALSTYLE
  5
101AD83
102
{ACAD_REACTORS
330
101AD7D
102
}
330
101AD7D
100
AcDbVisualStyle
  2
2dWireframe
 70
     4
177
     3
291
     0
 70
    58
 90
        0
176
     1
 90
        2
176
     1
 90
        0
176
     1
 90
        0
176
     1
 40
0.6
176
     1
 40
30.0
176
     1
 62
     7
420
 16777215
176
     1
 90
        1
176
     1
 90
        4
176
     1
 62
     7
176
     1
 62
   257
176
     1
 90
        1
176
     1
 90
        1
176
     1
 40
1.0
176
     1
 90
        0
176
     1
 62
   257
176
     1
 40
1.0
176
     1
 90
        1
176
     1
 90
        6
176
     1
 90
        2
176
     1
 62
     7
176
     1
 90
        5
176
     1
 90
        0
176
     1
 90
        0
176
     1
290
     0
176
     1
 90
        1
176
     1
 40
0.0
176
     1
 90
        0
176
     1
290
     1
176
     1
290
     1
176
     1
290
     0
176
     1
290
     0
176
     1
290
     0
176
     1
290
     0
176
     1
290
     0
176
     1
290
     0
176
     1
290
     0
176
     1
 90
       50
176
     1
 40
0.0
176
     1
 40
1.0
176
     1
 90
        0
176
     1
 62
    18
420
        0
176
     1
 90
       50
176
     1
 90
        3
176
     1
 62
     5
420
      255
176
     1
290
     0
176
     1
 90
       50
176
     1
 90
       50
176
     1
 90
       50
176
     1
290
     0
176
     1
 90
       50
176
     1
 62
   256
176
     0
 40
1.0
176
     0
 90
        2
176
     1
  1
strokes_ogs.tif
176
     1
290
     0
176
     1
 40
1.0
176
     1
 40
1.0
176
     1
  0
VISUALSTYLE
  5
101AD82
102
{ACAD_REACTORS
330
101AD7D
102
}
330
101AD7D
100
AcDbVisualStyle
  2
Basic
 70
     7
177
     3
291
     1
 70
    58
 90
        1
176
     1
 90
        0
176
     1
 90
        1
176
     1
 90
        0
176
     1
 40
0.6
176
     1
 40
30.0
176
     1
 62
     7
420
 16777215
176
     1
 90
        0
176
     1
 90
        4
176
     1
 62
     7
176
     1
 62
   257
176
     1
 90
        1
176
     1
 90
        1
176
     1
 40
1.0
176
     1
 90
        8
176
     1
 62
     7
176
     1
 40
1.0
176
     1
 90
        1
176
     1
 90
        6
176
     1
 90
        2
176
     1
 62
     7
176
     1
 90
        5
176
     1
 90
        0
176
     1
 90
        0
176
     1
290
     0
176
     1
 90
        1
176
     1
 40
0.0
176
     1
 90
        0
176
     1
290
     0
176
     1
290
     1
176
     1
290
     1
176
     1
290
     0
176
     1
290
     0
176
     1
290
     0
176
     1
290
     0
176
     1
290
     0
176
     1
290
     0
176
     1
 90
       50
176
     1
 40
0.0
176
     1
 40
1.0
176
     1
 90
        0
176
     1
 62
    18
420
        0
176
     1
 90
       50
176
     1
 90
        3
176
     1
 62
     5
420
      255
176
     1
290
     0
176
     1
 90
       50
176
     1
 90
       50
176
     1
 90
       50
176
     1
290
     0
176
     1
 90
       50
176
     1
 62
   256
176
     0
 40
1.0
176
     0
 90
        2
176
     1
  1
strokes_ogs.tif
176
     1
290
     0
176
     1
 40
1.0
176
     1
 40
1.0
176
     1
  0
VISUALSTYLE
  5
101AD89
102
{ACAD_REACTORS
330
101AD7D
102
}
330
101AD7D
100
AcDbVisualStyle
  2
Brighten
 70
    12
177
     3
291
     1
 70
    58
 90
        2
176
     1
 90
        2
176
     1
 90
        0
176
     1
 90
        0
176
     1
 40
0.6
176
     1
 40
30.0
176
     1
 62
     7
420
 16777215
176
     1
 90
        1
176
     1
 90
        4
176
     1
 62
     7
176
     1
 62
   257
176
     1
 90
        1
176
     1
 90
        1
176
     1
 40
1.0
176
     1
 90
        8
176
     1
 62
     7
176
     1
 40
1.0
176
     1
 90
        1
176
     1
 90
        6
176
     1
 90
        2
176
     1
 62
     7
176
     1
 90
        5
176
     1
 90
        0
176
     1
 90
        0
176
     1
290
     0
176
     1
 90
        1
176
     1
 40
50.0
176
     1
 90
        0
176
     1
290
     0
176
     1
290
     1
176
     1
290
     1
176
     1
290
     0
176
     1
290
     0
176
     1
290
     0
176
     1
290
     0
176
     1
290
     0
176
     1
290
     0
176
     1
 90
       50
176
     1
 40
0.0
176
     1
 40
1.0
176
     1
 90
        0
176
     1
 62
    18
420
        0
176
     1
 90
       50
176
     1
 90
        3
176
     1
 62
     5
420
      255
176
     1
290
     0
176
     1
 90
       50
176
     1
 90
       50
176
     1
 90
       50
176
     1
290
     0
176
     1
 90
       50
176
     1
 62
   256
176
     0
 40
1.0
176
     0
 90
        2
176
     1
  1
strokes_ogs.tif
176
     1
290
     0
176
     1
 40
1.0
176
     1
 40
1.0
176
     1
  0
VISUALSTYLE
  5
101AD8D
102
{ACAD_REACTORS
330
101AD7D
102
}
330
101AD7D
100
AcDbVisualStyle
  2
ColorChange
 70
    16
177
     3
291
     1
 70
    58
 90
        2
176
     1
 90
        2
176
     1
 90
        3
176
     1
 90
        0
176
     1
 40
0.6
176
     1
 40
30.0
176
     1
 62
     8
420
  8421504
176
     1
 90
        1
176
     1
 90
        4
176
     1
 62
     7
176
     1
 62
   257
176
     1
 90
        1
176
     1
 90
        1
176
     1
 40
1.0
176
     1
 90
        8
176
     1
 62
     8
420
  8421504
176
     1
 40
1.0
176
     1
 90
        1
176
     1
 90
        6
176
     1
 90
        2
176
     1
 62
     7
176
     1
 90
        5
176
     1
 90
        0
176
     1
 90
        0
176
     1
290
     0
176
     1
 90
        1
176
     1
 40
0.0
176
     1
 90
        0
176
     1
290
     0
176
     1
290
     1
176
     1
290
     1
176
     1
290
     0
176
     1
290
     0
176
     1
290
     0
176
     1
290
     0
176
     1
290
     0
176
     1
290
     0
176
     1
 90
       50
176
     1
 40
0.0
176
     1
 40
1.0
176
     1
 90
        0
176
     1
 62
    18
420
        0
176
     1
 90
       50
176
     1
 90
        3
176
     1
 62
     5
420
      255
176
     1
290
     0
176
     1
 90
       50
176
     1
 90
       50
176
     1
 90
       50
176
     1
290
     0
176
     1
 90
       50
176
     1
 62
   256
176
     0
 40
1.0
176
     0
 90
        2
176
     1
  1
strokes_ogs.tif
176
     1
290
     0
176
     1
 40
1.0
176
     1
 40
1.0
176
     1
  0
VISUALSTYLE
  5
101AD86
102
{ACAD_REACTORS
330
101AD7D
102
}
330
101AD7D
100
AcDbVisualStyle
  2
Conceptual
 70
     9
177
     3
291
     0
 70
    58
 90
        3
176
     1
 90
        2
176
     1
 90
        0
176
     1
 90
        0
176
     1
 40
0.6
176
     1
 40
30.0
176
     1
 62
     7
420
 16777215
176
     1
 90
        2
176
     1
 90
        2
176
     1
 62
     7
176
     1
 62
   257
176
     1
 90
        1
176
     1
 90
        1
176
     1
 40
179.0
176
     1
 90
        8
176
     1
 62
     7
176
     1
 40
1.0
176
     1
 90
        1
176
     1
 90
        6
176
     1
 90
        2
176
     1
 62
     7
176
     1
 90
        3
176
     1
 90
        0
176
     1
 90
        0
176
     1
290
     0
176
     1
 90
        1
176
     1
 40
0.0
176
     1
 90
        0
176
     1
290
     0
176
     1
290
     1
176
     1
290
     1
176
     1
290
     0
176
     1
290
     0
176
     1
290
     0
176
     1
290
     0
176
     1
290
     0
176
     1
290
     0
176
     1
 90
       50
176
     1
 40
0.0
176
     1
 40
1.0
176
     1
 90
        0
176
     1
 62
    18
420
        0
176
     1
 90
       50
176
     1
 90
        3
176
     1
 62
     5
420
      255
176
     1
290
     0
176
     1
 90
       50
176
     1
 90
       50
176
     1
 90
       50
176
     1
290
     0
176
     1
 90
       50
176
     1
 62
   256
176
     0
 40
1.0
176
     0
 90
        2
176
     1
  1
strokes_ogs.tif
176
     1
290
     0
176
     1
 40
1.0
176
     1
 40
1.0
176
     1
  0
VISUALSTYLE
  5
101AD88
102
{ACAD_REACTORS
330
101AD7D
102
}
330
101AD7D
100
AcDbVisualStyle
  2
Dim
 70
    11
177
     3
291
     1
 70
    58
 90
        2
176
     1
 90
        2
176
     1
 90
        0
176
     1
 90
        0
176
     1
 40
0.6
176
     1
 40
30.0
176
     1
 62
     7
420
 16777215
176
     1
 90
        1
176
     1
 90
        4
176
     1
 62
     7
176
     1
 62
   257
176
     1
 90
        1
176
     1
 90
        1
176
     1
 40
1.0
176
     1
 90
        8
176
     1
 62
     7
176
     1
 40
1.0
176
     1
 90
        1
176
     1
 90
        6
176
     1
 90
        2
176
     1
 62
     7
176
     1
 90
        5
176
     1
 90
        0
176
     1
 90
        0
176
     1
290
     0
176
     1
 90
        1
176
     1
 40
-50.0
176
     1
 90
        0
176
     1
290
     0
176
     1
290
     1
176
     1
290
     1
176
     1
290
     0
176
     1
290
     0
176
     1
290
     0
176
     1
290
     0
176
     1
290
     0
176
     1
290
     0
176
     1
 90
       50
176
     1
 40
0.0
176
     1
 40
1.0
176
     1
 90
        0
176
     1
 62
    18
420
        0
176
     1
 90
       50
176
     1
 90
        3
176
     1
 62
     5
420
      255
176
     1
290
     0
176
     1
 90
       50
176
     1
 90
       50
176
     1
 90
       50
176
     1
290
     0
176
     1
 90
       50
176
     1
 62
   256
176
     0
 40
1.0
176
     0
 90
        2
176
     1
  1
strokes_ogs.tif
176
     1
290
     0
176
     1
 40
1.0
176
     1
 40
1.0
176
     1
  0
VISUALSTYLE
  5
101AD95
102
{ACAD_REACTORS
330
101AD7D
102
}
330
101AD7D
100
AcDbVisualStyle
  2
EdgeColorOff
 70
    22
177
     3
291
     1
 70
    58
 90
        2
176
     0
 90
        2
176
     0
 90
        0
176
     0
 90
        0
176
     0
 40
0.6
176
     0
 40
30.0
176
     0
 62
     7
420
 16777215
176
     0
 90
        1
176
     0
 90
        4
176
     0
 62
     7
176
     0
 62
   257
176
     0
 90
        1
176
     0
 90
        1
176
     0
 40
1.0
176
     0
 90
        8
176
     2
 62
     7
176
     0
 40
1.0
176
     0
 90
        1
176
     0
 90
        6
176
     0
 90
        2
176
     0
 62
     7
176
     0
 90
        5
176
     0
 90
        0
176
     0
 90
        0
176
     0
290
     0
176
     0
 90
        1
176
     0
 40
0.0
176
     0
 90
        0
176
     0
290
     0
176
     0
290
     1
176
     0
290
     1
176
     0
290
     0
176
     0
290
     0
176
     0
290
     0
176
     0
290
     0
176
     0
290
     0
176
     0
290
     0
176
     0
 90
       50
176
     0
 40
0.0
176
     0
 40
1.0
176
     0
 90
        0
176
     0
 62
    18
420
        0
176
     0
 90
       50
176
     0
 90
        3
176
     0
 62
     5
420
      255
176
     0
290
     0
176
     0
 90
       50
176
     0
 90
       50
176
     0
 90
       50
176
     0
290
     0
176
     0
 90
       50
176
     0
 62
   256
176
     0
 40
1.0
176
     0
 90
        2
176
     0
  1
strokes_ogs.tif
176
     0
290
     0
176
     0
 40
1.0
176
     0
 40
1.0
176
     0
  0
VISUALSTYLE
  5
101AD8C
102
{ACAD_REACTORS
330
101AD7D
102
}
330
101AD7D
100
AcDbVisualStyle
  2
Facepattern
 70
    15
177
     3
291
     1
 70
    58
 90
        2
176
     1
 90
        2
176
     1
 90
        0
176
     1
 90
        0
176
     1
 40
0.6
176
     1
 40
30.0
176
     1
 62
     7
420
 16777215
176
     1
 90
        1
176
     1
 90
        4
176
     1
 62
     7
176
     1
 62
   257
176
     1
 90
        1
176
     1
 90
        1
176
     1
 40
1.0
176
     1
 90
        8
176
     1
 62
     7
176
     1
 40
1.0
176
     1
 90
        1
176
     1
 90
        6
176
     1
 90
        2
176
     1
 62
     7
176
     1
 90
        5
176
     1
 90
        0
176
     1
 90
        0
176
     1
290
     0
176
     1
 90
        1
176
     1
 40
0.0
176
     1
 90
        0
176
     1
290
     0
176
     1
290
     1
176
     1
290
     1
176
     1
290
     0
176
     1
290
     0
176
     1
290
     0
176
     1
290
     0
176
     1
290
     0
176
     1
290
     0
176
     1
 90
       50
176
     1
 40
0.0
176
     1
 40
1.0
176
     1
 90
        0
176
     1
 62
    18
420
        0
176
     1
 90
       50
176
     1
 90
        3
176
     1
 62
     5
420
      255
176
     1
290
     0
176
     1
 90
       50
176
     1
 90
       50
176
     1
 90
       50
176
     1
290
     0
176
     1
 90
       50
176
     1
 62
   256
176
     0
 40
1.0
176
     0
 90
        2
176
     1
  1
strokes_ogs.tif
176
     1
290
     0
176
     1
 40
1.0
176
     1
 40
1.0
176
     1
  0
VISUALSTYLE
  5
101AD7E
102
{ACAD_REACTORS
330
101AD7D
102
}
330
101AD7D
100
AcDbVisualStyle
  2
Flat
 70
     0
177
     3
291
     1
 70
    58
 90
        2
176
     1
 90
        1
176
     1
 90
        1
176
     1
 90
        2
176
     1
 40
0.6
176
     1
 40
30.0
176
     1
 62
     7
420
 16777215
176
     1
 90
        0
176
     1
 90
        0
176
     1
 62
     7
176
     1
 62
   257
176
     1
 90
        1
176
     1
 90
        1
176
     1
 40
1.0
176
     1
 90
        8
176
     1
 62
     7
176
     1
 40
1.0
176
     1
 90
        1
176
     1
 90
        6
176
     1
 90
        2
176
     1
 62
     7
176
     1
 90
        5
176
     1
 90
        0
176
     1
 90
        0
176
     1
290
     0
176
     1
 90
       13
176
     1
 40
0.0
176
     1
 90
        0
176
     1
290
     0
176
     1
290
     1
176
     1
290
     1
176
     1
290
     0
176
     1
290
     0
176
     1
290
     0
176
     1
290
     0
176
     1
290
     0
176
     1
290
     0
176
     1
 90
       50
176
     1
 40
0.0
176
     1
 40
1.0
176
     1
 90
        0
176
     1
 62
    18
420
        0
176
     1
 90
       50
176
     1
 90
        3
176
     1
 62
     5
420
      255
176
     1
290
     0
176
     1
 90
       50
176
     1
 90
       50
176
     1
 90
       50
176
     1
290
     0
176
     1
 90
       50
176
     1
 62
   256
176
     0
 40
1.0
176
     0
 90
        2
176
     1
  1
strokes_ogs.tif
176
     1
290
     0
176
     1
 40
1.0
176
     1
 40
1.0
176
     1
  0
VISUALSTYLE
  5
101AD7F
102
{ACAD_REACTORS
330
101AD7D
102
}
330
101AD7D
100
AcDbVisualStyle
  2
FlatWithEdges
 70
     1
177
     3
291
     1
 70
    58
 90
        2
176
     1
 90
        1
176
     1
 90
        1
176
     1
 90
        2
176
     1
 40
0.6
176
     1
 40
30.0
176
     1
 62
     7
420
 16777215
176
     1
 90
        1
176
     1
 90
        0
176
     1
 62
     7
176
     1
 62
   257
176
     1
 90
        1
176
     1
 90
        1
176
     1
 40
1.0
176
     1
 90
        0
176
     1
 62
   257
176
     1
 40
1.0
176
     1
 90
        1
176
     1
 90
        6
176
     1
 90
        2
176
     1
 62
     7
176
     1
 90
        5
176
     1
 90
        0
176
     1
 90
        0
176
     1
290
     0
176
     1
 90
       13
176
     1
 40
0.0
176
     1
 90
        0
176
     1
290
     0
176
     1
290
     1
176
     1
290
     1
176
     1
290
     0
176
     1
290
     0
176
     1
290
     0
176
     1
290
     0
176
     1
290
     0
176
     1
290
     0
176
     1
 90
       50
176
     1
 40
0.0
176
     1
 40
1.0
176
     1
 90
        0
176
     1
 62
    18
420
        0
176
     1
 90
       50
176
     1
 90
        3
176
     1
 62
     5
420
      255
176
     1
290
     0
176
     1
 90
       50
176
     1
 90
       50
176
     1
 90
       50
176
     1
290
     0
176
     1
 90
       50
176
     1
 62
   256
176
     0
 40
1.0
176
     0
 90
        2
176
     1
  1
strokes_ogs.tif
176
     1
290
     0
176
     1
 40
1.0
176
     1
 40
1.0
176
     1
  0
VISUALSTYLE
  5
101AD80
102
{ACAD_REACTORS
330
101AD7D
102
}
330
101AD7D
100
AcDbVisualStyle
  2
Gouraud
 70
     2
177
     3
291
     1
 70
    58
 90
        2
176
     1
 90
        2
176
     1
 90
        1
176
     1
 90
        2
176
     1
 40
0.6
176
     1
 40
30.0
176
     1
 62
     7
420
 16777215
176
     1
 90
        0
176
     1
 90
        0
176
     1
 62
     7
176
     1
 62
   257
176
     1
 90
        1
176
     1
 90
        1
176
     1
 40
1.0
176
     1
 90
        0
176
     1
 62
     7
176
     1
 40
1.0
176
     1
 90
        1
176
     1
 90
        6
176
     1
 90
        2
176
     1
 62
     7
176
     1
 90
        5
176
     1
 90
        0
176
     1
 90
        0
176
     1
290
     0
176
     1
 90
       13
176
     1
 40
0.0
176
     1
 90
        0
176
     1
290
     0
176
     1
290
     1
176
     1
290
     1
176
     1
290
     0
176
     1
290
     0
176
     1
290
     0
176
     1
290
     0
176
     1
290
     0
176
     1
290
     0
176
     1
 90
       50
176
     1
 40
0.0
176
     1
 40
1.0
176
     1
 90
        0
176
     1
 62
    18
420
        0
176
     1
 90
       50
176
     1
 90
        3
176
     1
 62
     5
420
      255
176
     1
290
     0
176
     1
 90
       50
176
     1
 90
       50
176
     1
 90
       50
176
     1
290
     0
176
     1
 90
       50
176
     1
 62
   256
176
     0
 40
1.0
176
     0
 90
        2
176
     1
  1
strokes_ogs.tif
176
     1
290
     0
176
     1
 40
1.0
176
     1
 40
1.0
176
     1
  0
VISUALSTYLE
  5
101AD81
102
{ACAD_REACTORS
330
101AD7D
102
}
330
101AD7D
100
AcDbVisualStyle
  2
GouraudWithEdges
 70
     3
177
     3
291
     1
 70
    58
 90
        2
176
     1
 90
        2
176
     1
 90
        1
176
     1
 90
        2
176
     1
 40
0.6
176
     1
 40
30.0
176
     1
 62
     7
420
 16777215
176
     1
 90
        1
176
     1
 90
        0
176
     1
 62
     7
176
     1
 62
   257
176
     1
 90
        1
176
     1
 90
        1
176
     1
 40
1.0
176
     1
 90
        0
176
     1
 62
   257
176
     1
 40
1.0
176
     1
 90
        1
176
     1
 90
        6
176
     1
 90
        2
176
     1
 62
     7
176
     1
 90
        5
176
     1
 90
        0
176
     1
 90
        0
176
     1
290
     0
176
     1
 90
       13
176
     1
 40
0.0
176
     1
 90
        0
176
     1
290
     0
176
     1
290
     1
176
     1
290
     1
176
     1
290
     0
176
     1
290
     0
176
     1
290
     0
176
     1
290
     0
176
     1
290
     0
176
     1
290
     0
176
     1
 90
       50
176
     1
 40
0.0
176
     1
 40
1.0
176
     1
 90
        0
176
     1
 62
    18
420
        0
176
     1
 90
       50
176
     1
 90
        3
176
     1
 62
     5
420
      255
176
     1
290
     0
176
     1
 90
       50
176
     1
 90
       50
176
     1
 90
       50
176
     1
290
     0
176
     1
 90
       50
176
     1
 62
   256
176
     0
 40
1.0
176
     0
 90
        2
176
     1
  1
strokes_ogs.tif
176
     1
290
     0
176
     1
 40
1.0
176
     1
 40
1.0
176
     1
  0
VISUALSTYLE
  5
101AD85
102
{ACAD_REACTORS
330
101AD7D
102
}
330
101AD7D
100
AcDbVisualStyle
  2
Hidden
 70
     6
177
     3
291
     0
 70
    58
 90
        1
176
     1
 90
        2
176
     1
 90
        2
176
     1
 90
        0
176
     1
 40
0.6
176
     1
 40
30.0
176
     1
 62
     7
420
 16777215
176
     1
 90
        2
176
     1
 90
        2
176
     1
 62
     7
176
     1
 62
   257
176
     1
 90
        2
176
     1
 90
        1
176
     1
 40
40.0
176
     1
 90
        0
176
     1
 62
   257
176
     1
 40
1.0
176
     1
 90
        1
176
     1
 90
        6
176
     1
 90
        2
176
     1
 62
     7
176
     1
 90
        3
176
     1
 90
        0
176
     1
 90
        0
176
     1
290
     0
176
     1
 90
        1
176
     1
 40
0.0
176
     1
 90
        0
176
     1
290
     0
176
     1
290
     1
176
     1
290
     1
176
     1
290
     0
176
     1
290
     0
176
     1
290
     0
176
     1
290
     0
176
     1
290
     0
176
     1
290
     0
176
     1
 90
       50
176
     1
 40
0.0
176
     1
 40
1.0
176
     1
 90
        0
176
     1
 62
    18
420
        0
176
     1
 90
       50
176
     1
 90
        3
176
     1
 62
     5
420
      255
176
     1
290
     0
176
     1
 90
       50
176
     1
 90
       50
176
     1
 90
       50
176
     1
290
     0
176
     1
 90
       50
176
     1
 62
   256
176
     0
 40
1.0
176
     0
 90
        2
176
     1
  1
strokes_ogs.tif
176
     1
290
     0
176
     1
 40
1.0
176
     1
 40
1.0
176
     1
  0
VISUALSTYLE
  5
101AD93
102
{ACAD_REACTORS
330
101AD7D
102
}
330
101AD7D
100
AcDbVisualStyle
  2
JitterOff
 70
    20
177
     3
291
     1
 70
    58
 90
        2
176
     0
 90
        2
176
     0
 90
        0
176
     0
 90
        0
176
     0
 40
0.6
176
     0
 40
30.0
176
     0
 62
     7
420
 16777215
176
     0
 90
        1
176
     0
 90
        4
176
     0
 62
     7
176
     0
 62
   257
176
     0
 90
        1
176
     0
 90
        1
176
     0
 40
1.0
176
     0
 90
       10
176
     2
 62
     7
176
     0
 40
1.0
176
     0
 90
        1
176
     0
 90
        6
176
     0
 90
        2
176
     0
 62
     7
176
     0
 90
        5
176
     0
 90
        0
176
     0
 90
        0
176
     0
290
     0
176
     0
 90
        1
176
     0
 40
0.0
176
     0
 90
        0
176
     0
290
     0
176
     0
290
     1
176
     0
290
     1
176
     0
290
     0
176
     0
290
     0
176
     0
290
     0
176
     0
290
     0
176
     0
290
     0
176
     0
290
     0
176
     0
 90
       50
176
     0
 40
0.0
176
     0
 40
1.0
176
     0
 90
        0
176
     0
 62
    18
420
        0
176
     0
 90
       50
176
     0
 90
        3
176
     0
 62
     5
420
      255
176
     0
290
     0
176
     0
 90
       50
176
     0
 90
       50
176
     0
 90
       50
176
     0
290
     0
176
     0
 90
       50
176
     0
 62
   256
176
     0
 40
1.0
176
     0
 90
        2
176
     0
  1
strokes_ogs.tif
176
     0
290
     0
176
     0
 40
1.0
176
     0
 40
1.0
176
     0
  0
VISUALSTYLE
  5
101AD8B
102
{ACAD_REACTORS
330
101AD7D
102
}
330
101AD7D
100
AcDbVisualStyle
  2
Linepattern
 70
    14
177
     3
291
     1
 70
    58
 90
        2
176
     1
 90
        2
176
     1
 90
        0
176
     1
 90
        0
176
     1
 40
0.6
176
     1
 40
30.0
176
     1
 62
     7
420
 16777215
176
     1
 90
        1
176
     1
 90
        4
176
     1
 62
     7
176
     1
 62
   257
176
     1
 90
        7
176
     1
 90
        7
176
     1
 40
1.0
176
     1
 90
        8
176
     1
 62
     7
176
     1
 40
1.0
176
     1
 90
        1
176
     1
 90
        6
176
     1
 90
        2
176
     1
 62
     7
176
     1
 90
        5
176
     1
 90
        0
176
     1
 90
        0
176
     1
290
     0
176
     1
 90
        1
176
     1
 40
0.0
176
     1
 90
        0
176
     1
290
     0
176
     1
290
     1
176
     1
290
     1
176
     1
290
     0
176
     1
290
     0
176
     1
290
     0
176
     1
290
     0
176
     1
290
     0
176
     1
290
     0
176
     1
 90
       50
176
     1
 40
0.0
176
     1
 40
1.0
176
     1
 90
        0
176
     1
 62
    18
420
        0
176
     1
 90
       50
176
     1
 90
        3
176
     1
 62
     5
420
      255
176
     1
290
     0
176
     1
 90
       50
176
     1
 90
       50
176
     1
 90
       50
176
     1
290
     0
176
     1
 90
       50
176
     1
 62
   256
176
     0
 40
1.0
176
     0
 90
        2
176
     1
  1
strokes_ogs.tif
176
     1
290
     0
176
     1
 40
1.0
176
     1
 40
1.0
176
     1
  0
VISUALSTYLE
  5
101AD94
102
{ACAD_REACTORS
330
101AD7D
102
}
330
101AD7D
100
AcDbVisualStyle
  2
OverhangOff
 70
    21
177
     3
291
     1
 70
    58
 90
        2
176
     0
 90
        2
176
     0
 90
        0
176
     0
 90
        0
176
     0
 40
0.6
176
     0
 40
30.0
176
     0
 62
     7
420
 16777215
176
     0
 90
        1
176
     0
 90
        4
176
     0
 62
     7
176
     0
 62
   257
176
     0
 90
        1
176
     0
 90
        1
176
     0
 40
1.0
176
     0
 90
        9
176
     2
 62
     7
176
     0
 40
1.0
176
     0
 90
        1
176
     0
 90
        6
176
     0
 90
        2
176
     0
 62
     7
176
     0
 90
        5
176
     0
 90
        0
176
     0
 90
        0
176
     0
290
     0
176
     0
 90
        1
176
     0
 40
0.0
176
     0
 90
        0
176
     0
290
     0
176
     0
290
     1
176
     0
290
     1
176
     0
290
     0
176
     0
290
     0
176
     0
290
     0
176
     0
290
     0
176
     0
290
     0
176
     0
290
     0
176
     0
 90
       50
176
     0
 40
0.0
176
     0
 40
1.0
176
     0
 90
        0
176
     0
 62
    18
420
        0
176
     0
 90
       50
176
     0
 90
        3
176
     0
 62
     5
420
      255
176
     0
290
     0
176
     0
 90
       50
176
     0
 90
       50
176
     0
 90
       50
176
     0
290
     0
176
     0
 90
       50
176
     0
 62
   256
176
     0
 40
1.0
176
     0
 90
        2
176
     0
  1
strokes_ogs.tif
176
     0
290
     0
176
     0
 40
1.0
176
     0
 40
1.0
176
     0
  0
VISUALSTYLE
  5
101AD87
102
{ACAD_REACTORS
330
101AD7D
102
}
330
101AD7D
100
AcDbVisualStyle
  2
Realistic
 70
     8
177
     3
291
     0
 70
    58
 90
        2
176
     1
 90
        3
176
     1
 90
        0
176
     1
 90
        2
176
     1
 40
0.6
176
     1
 40
30.0
176
     1
 62
     7
420
 16777215
176
     1
 90
        0
176
     1
 90
        0
176
     1
 62
     7
176
     1
 62
   257
176
     1
 90
        1
176
     1
 90
        1
176
     1
 40
1.0
176
     1
 90
        8
176
     1
 62
   257
176
     1
 40
1.0
176
     1
 90
        1
176
     1
 90
        6
176
     1
 90
        2
176
     1
 62
     7
176
     1
 90
        3
176
     1
 90
        0
176
     1
 90
        0
176
     1
290
     0
176
     1
 90
       13
176
     1
 40
0.0
176
     1
 90
        0
176
     1
290
     0
176
     1
290
     1
176
     1
290
     1
176
     1
290
     0
176
     1
290
     0
176
     1
290
     0
176
     1
290
     0
176
     1
290
     0
176
     1
290
     0
176
     1
 90
       50
176
     1
 40
0.0
176
     1
 40
1.0
176
     1
 90
        0
176
     1
 62
    18
420
        0
176
     1
 90
       50
176
     1
 90
        3
176
     1
 62
     5
420
      255
176
     1
290
     0
176
     1
 90
       50
176
     1
 90
       50
176
     1
 90
       50
176
     1
290
     0
176
     1
 90
       50
176
     1
 62
   256
176
     0
 40
1.0
176
     0
 90
        2
176
     1
  1
strokes_ogs.tif
176
     1
290
     0
176
     1
 40
1.0
176
     1
 40
1.0
176
     1
  0
VISUALSTYLE
  5
101AD92
102
{ACAD_REACTORS
330
101AD7D
102
}
330
101AD7D
100
AcDbVisualStyle
  2
Shaded
 70
    27
177
     3
291
     0
 70
    58
 90
        2
176
     1
 90
        2
176
     1
 90
        1
176
     1
 90
        2
176
     1
 40
0.6
176
     1
 40
30.0
176
     1
 62
     7
420
 16777215
176
     1
 90
        0
176
     1
 90
        4
176
     1
 62
     7
176
     1
 62
   257
176
     1
 90
        1
176
     1
 90
        1
176
     1
 40
1.0
176
     1
 90
        8
176
     1
 62
   257
176
     1
 40
1.0
176
     1
 90
        1
176
     1
 90
        6
176
     1
 90
        2
176
     1
 62
     8
420
  7895160
176
     1
 90
        3
176
     1
 90
        0
176
     1
 90
        0
176
     1
290
     0
176
     1
 90
        5
176
     1
 40
0.0
176
     1
 90
        0
176
     1
290
     0
176
     1
290
     1
176
     1
290
     1
176
     1
290
     0
176
     1
290
     0
176
     1
290
     0
176
     1
290
     0
176
     1
290
     0
176
     1
290
     0
176
     1
 90
       50
176
     1
 40
0.0
176
     1
 40
1.0
176
     1
 90
        0
176
     1
 62
    18
420
        0
176
     1
 90
       50
176
     1
 90
        3
176
     1
 62
     5
420
      255
176
     1
290
     0
176
     1
 90
       50
176
     1
 90
       50
176
     1
 90
       50
176
     1
290
     0
176
     1
 90
       50
176
     1
 62
   256
176
     0
 40
1.0
176
     0
 90
        2
176
     1
  1
strokes_ogs.tif
176
     1
290
     0
176
     1
 40
1.0
176
     1
 40
1.0
176
     1
  0
VISUALSTYLE
  5
101AD91
102
{ACAD_REACTORS
330
101AD7D
102
}
330
101AD7D
100
AcDbVisualStyle
  2
Shaded with edges
 70
    26
177
     3
291
     0
 70
    58
 90
        2
176
     1
 90
        2
176
     1
 90
        1
176
     1
 90
        2
176
     1
 40
0.6
176
     1
 40
30.0
176
     1
 62
     7
420
 16777215
176
     1
 90
        1
176
     1
 90
        2
176
     1
 62
     7
176
     1
 62
   257
176
     1
 90
        2
176
     1
 90
        1
176
     1
 40
1.0
176
     1
 90
        8
176
     1
 62
   257
176
     1
 40
1.0
176
     1
 90
        1
176
     1
 90
        6
176
     1
 90
        2
176
     1
 62
     7
176
     1
 90
        3
176
     1
 90
        0
176
     1
 90
        0
176
     1
290
     0
176
     1
 90
        5
176
     1
 40
0.0
176
     1
 90
        0
176
     1
290
     0
176
     1
290
     1
176
     1
290
     1
176
     1
290
     0
176
     1
290
     0
176
     1
290
     0
176
     1
290
     0
176
     1
290
     0
176
     1
290
     0
176
     1
 90
       50
176
     1
 40
0.0
176
     1
 40
1.0
176
     1
 90
        0
176
     1
 62
    18
420
        0
176
     1
 90
       50
176
     1
 90
        3
176
     1
 62
     5
420
      255
176
     1
290
     0
176
     1
 90
       50
176
     1
 90
       50
176
     1
 90
       50
176
     1
290
     0
176
     1
 90
       50
176
     1
 62
   256
176
     0
 40
1.0
176
     0
 90
        2
176
     1
  1
strokes_ogs.tif
176
     1
290
     0
176
     1
 40
1.0
176
     1
 40
1.0
176
     1
  0
VISUALSTYLE
  5
101AD8E
102
{ACAD_REACTORS
330
101AD7D
102
}
330
101AD7D
100
AcDbVisualStyle
  2
Shades of Gray
 70
    23
177
     3
291
     0
 70
    58
 90
        2
176
     1
 90
        2
176
     1
 90
        3
176
     1
 90
        0
176
     1
 40
0.6
176
     1
 40
30.0
176
     1
 62
     7
420
 16777215
176
     1
 90
        2
176
     1
 90
        2
176
     1
 62
     7
176
     1
 62
     7
176
     1
 90
        1
176
     1
 90
        1
176
     1
 40
40.0
176
     1
 90
        8
176
     1
 62
     7
176
     1
 40
1.0
176
     1
 90
        1
176
     1
 90
        6
176
     1
 90
        2
176
     1
 62
     7
176
     1
 90
        3
176
     1
 90
        0
176
     1
 90
        0
176
     1
290
     0
176
     1
 90
        1
176
     1
 40
0.0
176
     1
 90
        0
176
     1
290
     0
176
     1
290
     1
176
     1
290
     1
176
     1
290
     0
176
     1
290
     0
176
     1
290
     0
176
     1
290
     0
176
     1
290
     0
176
     1
290
     0
176
     1
 90
       50
176
     1
 40
0.0
176
     1
 40
1.0
176
     1
 90
        0
176
     1
 62
    18
420
        0
176
     1
 90
       50
176
     1
 90
        3
176
     1
 62
     5
420
      255
176
     1
290
     0
176
     1
 90
       50
176
     1
 90
       50
176
     1
 90
       50
176
     1
290
     0
176
     1
 90
       50
176
     1
 62
   256
176
     0
 40
1.0
176
     0
 90
        2
176
     1
  1
strokes_ogs.tif
176
     1
290
     0
176
     1
 40
1.0
176
     1
 40
1.0
176
     1
  0
VISUALSTYLE
  5
101AD8F
102
{ACAD_REACTORS
330
101AD7D
102
}
330
101AD7D
100
AcDbVisualStyle
  2
Sketchy
 70
    24
177
     3
291
     0
 70
    58
 90
        1
176
     1
 90
        2
176
     1
 90
        2
176
     1
 90
        0
176
     1
 40
0.6
176
     1
 40
30.0
176
     1
 62
     7
420
 16777215
176
     1
 90
        2
176
     1
 90
        2
176
     1
 62
     7
176
     1
 62
     7
176
     1
 90
        1
176
     1
 90
        1
176
     1
 40
40.0
176
     1
 90
       11
176
     1
 62
     7
176
     1
 40
1.0
176
     1
 90
        1
176
     1
 90
        6
176
     1
 90
        2
176
     1
 62
     7
176
     1
 90
        6
176
     1
 90
        0
176
     1
 90
        0
176
     1
290
     0
176
     1
 90
        1
176
     1
 40
0.0
176
     1
 90
        0
176
     1
290
     0
176
     1
290
     1
176
     1
290
     1
176
     1
290
     0
176
     1
290
     0
176
     1
290
     0
176
     1
290
     0
176
     1
290
     0
176
     1
290
     0
176
     1
 90
       50
176
     1
 40
0.0
176
     1
 40
1.0
176
     1
 90
        0
176
     1
 62
    18
420
        0
176
     1
 90
       50
176
     1
 90
        3
176
     1
 62
     5
420
      255
176
     1
290
     0
176
     1
 90
       50
176
     1
 90
       50
176
     1
 90
       50
176
     1
290
     0
176
     1
 90
       50
176
     1
 62
   256
176
     0
 40
1.0
176
     0
 90
        2
176
     1
  1
strokes_ogs.tif
176
     1
290
     0
176
     1
 40
1.0
176
     1
 40
1.0
176
     1
  0
VISUALSTYLE
  5
101AD8A
102
{ACAD_REACTORS
330
101AD7D
102
}
330
101AD7D
100
AcDbVisualStyle
  2
Thicken
 70
    13
177
     3
291
     1
 70
    58
 90
        2
176
     1
 90
        2
176
     1
 90
        0
176
     1
 90
        0
176
     1
 40
0.6
176
     1
 40
30.0
176
     1
 62
     7
420
 16777215
176
     1
 90
        1
176
     1
 90
        4
176
     1
 62
     7
176
     1
 62
   257
176
     1
 90
        1
176
     1
 90
        1
176
     1
 40
1.0
176
     1
 90
       12
176
     1
 62
     7
176
     1
 40
1.0
176
     1
 90
        1
176
     1
 90
        6
176
     1
 90
        2
176
     1
 62
     7
176
     1
 90
        5
176
     1
 90
        0
176
     1
 90
        0
176
     1
290
     0
176
     1
 90
        1
176
     1
 40
0.0
176
     1
 90
        0
176
     1
290
     0
176
     1
290
     1
176
     1
290
     1
176
     1
290
     0
176
     1
290
     0
176
     1
290
     0
176
     1
290
     0
176
     1
290
     0
176
     1
290
     0
176
     1
 90
       50
176
     1
 40
0.0
176
     1
 40
1.0
176
     1
 90
        0
176
     1
 62
    18
420
        0
176
     1
 90
       50
176
     1
 90
        3
176
     1
 62
     5
420
      255
176
     1
290
     0
176
     1
 90
       50
176
     1
 90
       50
176
     1
 90
       50
176
     1
290
     0
176
     1
 90
       50
176
     1
 62
   256
176
     0
 40
1.0
176
     0
 90
        2
176
     1
  1
strokes_ogs.tif
176
     1
290
     0
176
     1
 40
1.0
176
     1
 40
1.0
176
     1
  0
VISUALSTYLE
  5
101AD84
102
{ACAD_REACTORS
330
101AD7D
102
}
330
101AD7D
100
AcDbVisualStyle
  2
Wireframe
 70
     5
177
     3
291
     0
 70
    58
 90
        0
176
     1
 90
        2
176
     1
 90
        0
176
     1
 90
        0
176
     1
 40
0.6
176
     1
 40
30.0
176
     1
 62
     7
420
 16777215
176
     1
 90
        1
176
     1
 90
        4
176
     1
 62
     7
176
     1
 62
   257
176
     1
 90
        1
176
     1
 90
        1
176
     1
 40
1.0
176
     1
 90
        0
176
     1
 62
   257
176
     1
 40
1.0
176
     1
 90
        1
176
     1
 90
        6
176
     1
 90
        2
176
     1
 62
     7
176
     1
 90
        3
176
     1
 90
        0
176
     1
 90
        0
176
     1
290
     0
176
     1
 90
        1
176
     1
 40
0.0
176
     1
 90
        0
176
     1
290
     0
176
     1
290
     1
176
     1
290
     1
176
     1
290
     0
176
     1
290
     0
176
     1
290
     0
176
     1
290
     0
176
     1
290
     0
176
     1
290
     0
176
     1
 90
       50
176
     1
 40
0.0
176
     1
 40
1.0
176
     1
 90
        0
176
     1
 62
    18
420
        0
176
     1
 90
       50
176
     1
 90
        3
176
     1
 62
     5
420
      255
176
     1
290
     0
176
     1
 90
       50
176
     1
 90
       50
176
     1
 90
       50
176
     1
290
     0
176
     1
 90
       50
176
     1
 62
   256
176
     0
 40
1.0
176
     0
 90
        2
176
     1
  1
strokes_ogs.tif
176
     1
290
     0
176
     1
 40
1.0
176
     1
 40
1.0
176
     1
  0
VISUALSTYLE
  5
101AD90
102
{ACAD_REACTORS
330
101AD7D
102
}
330
101AD7D
100
AcDbVisualStyle
  2
X-Ray
 70
    25
177
     3
291
     0
 70
    58
 90
        2
176
     1
 90
        2
176
     1
 90
        1
176
     1
 90
        1
176
     1
 40
0.5
176
     1
 40
30.0
176
     1
 62
     7
420
 16777215
176
     1
 90
        1
176
     1
 90
        0
176
     1
 62
     7
176
     1
 62
   257
176
     1
 90
        1
176
     1
 90
        1
176
     1
 40
1.0
176
     1
 90
        8
176
     1
 62
     7
176
     1
 40
1.0
176
     1
 90
        1
176
     1
 90
        6
176
     1
 90
        2
176
     1
 62
     7
176
     1
 90
        3
176
     1
 90
        0
176
     1
 90
        0
176
     1
290
     0
176
     1
 90
       13
176
     1
 40
0.0
176
     1
 90
        0
176
     1
290
     0
176
     1
290
     1
176
     1
290
     1
176
     1
290
     0
176
     1
290
     0
176
     1
290
     0
176
     1
290
     0
176
     1
290
     0
176
     1
290
     0
176
     1
 90
       50
176
     1
 40
0.0
176
     1
 40
1.0
176
     1
 90
        0
176
     1
 62
    18
420
        0
176
     1
 90
       50
176
     1
 90
        3
176
     1
 62
     5
420
      255
176
     1
290
     0
176
     1
 90
       50
176
     1
 90
       50
176
     1
 90
       50
176
     1
290
     0
176
     1
 90
       50
176
     1
 62
   256
176
     0
 40
1.0
176
     0
 90
        2
176
     1
  1
strokes_ogs.tif
176
     1
290
     0
176
     1
 40
1.0
176
     1
 40
1.0
176
     1
  0
DICTIONARYVAR
  5
101AE34
102
{ACAD_REACTORS
330
265
102
}
330
265
100
DictionaryVariables
280
     0
  1
1:1
  0
DICTIONARYVAR
  5
101AE30
102
{ACAD_REACTORS
330
265
102
}
330
265
100
DictionaryVariables
280
     0
  1
STANDARD
  0
DICTIONARYVAR
  5
266
102
{ACAD_REACTORS
330
265
102
}
330
265
100
DictionaryVariables
280
     0
  1
STANDARD
  0
DICTIONARYVAR
  5
101AE31
102
{ACAD_REACTORS
330
265
102
}
330
265
100
DictionaryVariables
280
     0
  1
Metric50
  0
DICTIONARYVAR
  5
101AE32
102
{ACAD_REACTORS
330
265
102
}
330
265
100
DictionaryVariables
280
     0
  1
Metric50
  0
DICTIONARYVAR
  5
1A744
102
{ACAD_REACTORS
330
265
102
}
330
265
100
DictionaryVariables
280
     0
  1
1
  0
DICTIONARYVAR
  5
101AE36
102
{ACAD_REACTORS
330
265
102
}
330
265
100
DictionaryVariables
280
     0
  1
1
  0
DICTIONARYVAR
  5
101AE37
102
{ACAD_REACTORS
330
265
102
}
330
265
100
DictionaryVariables
280
     0
  1
15
  0
DICTIONARYVAR
  5
101AE35
102
{ACAD_REACTORS
330
265
102
}
330
265
100
DictionaryVariables
280
     0
  1
0
  0
DICTIONARYVAR
  5
101AE33
102
{ACAD_REACTORS
330
265
102
}
330
265
100
DictionaryVariables
280
     0
  1
0
  0
DICTIONARYVAR
  5
1A745
102
{ACAD_REACTORS
330
265
102
}
330
265
100
DictionaryVariables
280
     0
  1

  0
DICTIONARY
  5
101AE3C
330
101ADAE
100
AcDbDictionary
280
     1
281
     1
  3
ACAD_XREC_ROUNDTRIP
360
101AE3D
  0
DICTIONARY
  5
101AD6E
330
101AD6D
100
AcDbDictionary
280
     1
281
     1
  3
BUMPTILE
360
101AD70
  3
DIFFUSETILE
360
101AD6F
  3
OPACITYTILE
360
101AD73
  3
REFLECTIONTILE
360
101AD72
  3
REFRACTIONTILE
360
101AD74
  3
SPECULARTILE
360
101AD71
  0
DICTIONARY
  5
101AD66
330
101AD65
100
AcDbDictionary
280
     1
281
     1
  3
BUMPTILE
360
101AD68
  3
DIFFUSETILE
360
101AD67
  3
OPACITYTILE
360
101AD6B
  3
REFLECTIONTILE
360
101AD6A
  3
REFRACTIONTILE
360
101AD6C
  3
SPECULARTILE
360
101AD69
  0
DICTIONARY
  5
101AD76
330
101AD75
100
AcDbDictionary
280
     1
281
     1
  3
BUMPTILE
360
101AD78
  3
DIFFUSETILE
360
101AD77
  3
OPACITYTILE
360
101AD7B
  3
REFLECTIONTILE
360
101AD7A
  3
REFRACTIONTILE
360
101AD7C
  3
SPECULARTILE
360
101AD79
  0
DICTIONARY
  5
101AE3A
330
101ADAC
100
AcDbDictionary
280
     1
281
     1
  3
ACAD_XREC_ROUNDTRIP
360
101AE3B
  0
DICTIONARY
  5
101AE38
330
1D6
100
AcDbDictionary
280
     1
281
     1
  3
ACAD_ROUNDTRIP_2008_TABLESTYLE_CELLSTYLEMAP
360
101AE39
  0
XRECORD
  5
101AE3D
102
{ACAD_REACTORS
330
101AE3C
102
}
330
101AE3C
100
AcDbXrecord
280
     1
102
DISPLAYNAME
  1
Metric50
102
FLAGS
 90
        0
  0
XRECORD
  5
101AD70
102
{ACAD_REACTORS
330
101AD6E
102
}
330
101AD6E
100
AcDbXrecord
280
     1
270
     1
271
     1
  0
XRECORD
  5
101AD6F
102
{ACAD_REACTORS
330
101AD6E
102
}
330
101AD6E
100
AcDbXrecord
280
     1
270
     1
271
     1
  0
XRECORD
  5
101AD73
102
{ACAD_REACTORS
330
101AD6E
102
}
330
101AD6E
100
AcDbXrecord
280
     1
270
     1
271
     1
  0
XRECORD
  5
101AD72
102
{ACAD_REACTORS
330
101AD6E
102
}
330
101AD6E
100
AcDbXrecord
280
     1
270
     1
271
     1
  0
XRECORD
  5
101AD74
102
{ACAD_REACTORS
330
101AD6E
102
}
330
101AD6E
100
AcDbXrecord
280
     1
270
     1
271
     1
  0
XRECORD
  5
101AD71
102
{ACAD_REACTORS
330
101AD6E
102
}
330
101AD6E
100
AcDbXrecord
280
     1
270
     1
271
     1
  0
XRECORD
  5
101AD68
102
{ACAD_REACTORS
330
101AD66
102
}
330
101AD66
100
AcDbXrecord
280
     1
270
     1
271
     1
  0
XRECORD
  5
101AD67
102
{ACAD_REACTORS
330
101AD66
102
}
330
101AD66
100
AcDbXrecord
280
     1
270
     1
271
     1
  0
XRECORD
  5
101AD6B
102
{ACAD_REACTORS
330
101AD66
102
}
330
101AD66
100
AcDbXrecord
280
     1
270
     1
271
     1
  0
XRECORD
  5
101AD6A
102
{ACAD_REACTORS
330
101AD66
102
}
330
101AD66
100
AcDbXrecord
280
     1
270
     1
271
     1
  0
XRECORD
  5
101AD6C
102
{ACAD_REACTORS
330
101AD66
102
}
330
101AD66
100
AcDbXrecord
280
     1
270
     1
271
     1
  0
XRECORD
  5
101AD69
102
{ACAD_REACTORS
330
101AD66
102
}
330
101AD66
100
AcDbXrecord
280
     1
270
     1
271
     1
  0
XRECORD
  5
101AD78
102
{ACAD_REACTORS
330
101AD76
102
}
330
101AD76
100
AcDbXrecord
280
     1
270
     1
271
     1
  0
XRECORD
  5
101AD77
102
{ACAD_REACTORS
330
101AD76
102
}
330
101AD76
100
AcDbXrecord
280
     1
270
     1
271
     1
  0
XRECORD
  5
101AD7B
102
{ACAD_REACTORS
330
101AD76
102
}
330
101AD76
100
AcDbXrecord
280
     1
270
     1
271
     1
  0
XRECORD
  5
101AD7A
102
{ACAD_REACTORS
330
101AD76
102
}
330
101AD76
100
AcDbXrecord
280
     1
270
     1
271
     1
  0
XRECORD
  5
101AD7C
102
{ACAD_REACTORS
330
101AD76
102
}
330
101AD76
100
AcDbXrecord
280
     1
270
     1
271
     1
  0
XRECORD
  5
101AD79
102
{ACAD_REACTORS
330
101AD76
102
}
330
101AD76
100
AcDbXrecord
280
     1
270
     1
271
     1
  0
XRECORD
  5
101AE3B
102
{ACAD_REACTORS
330
101AE3A
102
}
330
101AE3A
100
AcDbXrecord
280
     1
102
DISPLAYNAME
  1
Metric50
102
FLAGS
 90
        0
  0
CELLSTYLEMAP
  5
101AE39
102
{ACAD_REACTORS
330
101AE38
102
}
330
101AE38
100
AcDbCellStyleMap
 90
        3
300
CELLSTYLE
  1
TABLEFORMAT_BEGIN
 90
        5
170
     1
 91
        0
 92
    32768
 62
   257
 93
        1
300
CONTENTFORMAT
  1
CONTENTFORMAT_BEGIN
 90
        0
 91
        0
 92
        4
 93
        0
300

 40
0.0
140
1.0
 94
        5
 62
     0
340
11
144
6.0
309
CONTENTFORMAT_END
171
     1
301
MARGIN
  1
CELLMARGIN_BEGIN
 40
1.5
 40
1.5
 40
1.5
 40
1.5
 40
0.18
 40
0.18
309
CELLMARGIN_END
 94
        6
 95
        1
302
GRIDFORMAT
  1
GRIDFORMAT_BEGIN
 90
        0
 91
        1
 62
     0
 92
       -2
340
0
 93
        0
 40
0.045
309
GRIDFORMAT_END
 95
        2
302
GRIDFORMAT
  1
GRIDFORMAT_BEGIN
 90
        0
 91
        1
 62
     0
 92
       -2
340
0
 93
        0
 40
0.045
309
GRIDFORMAT_END
 95
        4
302
GRIDFORMAT
  1
GRIDFORMAT_BEGIN
 90
        0
 91
        1
 62
     0
 92
       -2
340
0
 93
        0
 40
0.045
309
GRIDFORMAT_END
 95
        8
302
GRIDFORMAT
  1
GRIDFORMAT_BEGIN
 90
        0
 91
        1
 62
     0
 92
       -2
340
0
 93
        0
 40
0.045
309
GRIDFORMAT_END
 95
       16
302
GRIDFORMAT
  1
GRIDFORMAT_BEGIN
 90
        0
 91
        1
 62
     0
 92
       -2
340
0
 93
        0
 40
0.045
309
GRIDFORMAT_END
 95
       32
302
GRIDFORMAT
  1
GRIDFORMAT_BEGIN
 90
        0
 91
        1
 62
     0
 92
       -2
340
0
 93
        0
 40
0.045
309
GRIDFORMAT_END
309
TABLEFORMAT_END
  1
CELLSTYLE_BEGIN
 90
        1
 91
        1
300
_TITLE
309
CELLSTYLE_END
300
CELLSTYLE
  1
TABLEFORMAT_BEGIN
 90
        5
170
     1
 91
        0
 92
        0
 62
   257
 93
        1
300
CONTENTFORMAT
  1
CONTENTFORMAT_BEGIN
 90
        0
 91
        0
 92
        4
 93
        0
300

 40
0.0
140
1.0
 94
        5
 62
     0
340
11
144
4.5
309
CONTENTFORMAT_END
171
     1
301
MARGIN
  1
CELLMARGIN_BEGIN
 40
1.5
 40
1.5
 40
1.5
 40
1.5
 40
0.18
 40
0.18
309
CELLMARGIN_END
 94
        6
 95
        1
302
GRIDFORMAT
  1
GRIDFORMAT_BEGIN
 90
        0
 91
        1
 62
     0
 92
       -2
340
0
 93
        0
 40
0.045
309
GRIDFORMAT_END
 95
        2
302
GRIDFORMAT
  1
GRIDFORMAT_BEGIN
 90
        0
 91
        1
 62
     0
 92
       -2
340
0
 93
        0
 40
0.045
309
GRIDFORMAT_END
 95
        4
302
GRIDFORMAT
  1
GRIDFORMAT_BEGIN
 90
        0
 91
        1
 62
     0
 92
       -2
340
0
 93
        0
 40
0.045
309
GRIDFORMAT_END
 95
        8
302
GRIDFORMAT
  1
GRIDFORMAT_BEGIN
 90
        0
 91
        1
 62
     0
 92
       -2
340
0
 93
        0
 40
0.045
309
GRIDFORMAT_END
 95
       16
302
GRIDFORMAT
  1
GRIDFORMAT_BEGIN
 90
        0
 91
        1
 62
     0
 92
       -2
340
0
 93
        0
 40
0.045
309
GRIDFORMAT_END
 95
       32
302
GRIDFORMAT
  1
GRIDFORMAT_BEGIN
 90
        0
 91
        1
 62
     0
 92
       -2
340
0
 93
        0
 40
0.045
309
GRIDFORMAT_END
309
TABLEFORMAT_END
  1
CELLSTYLE_BEGIN
 90
        2
 91
        1
300
_HEADER
309
CELLSTYLE_END
300
CELLSTYLE
  1
TABLEFORMAT_BEGIN
 90
        5
170
     1
 91
        0
 92
        0
 62
   257
 93
        1
300
CONTENTFORMAT
  1
CONTENTFORMAT_BEGIN
 90
        0
 91
        0
 92
        4
 93
        0
300

 40
0.0
140
1.0
 94
        2
 62
     0
340
11
144
4.5
309
CONTENTFORMAT_END
171
     1
301
MARGIN
  1
CELLMARGIN_BEGIN
 40
1.5
 40
1.5
 40
1.5
 40
1.5
 40
0.18
 40
0.18
309
CELLMARGIN_END
 94
        6
 95
        1
302
GRIDFORMAT
  1
GRIDFORMAT_BEGIN
 90
        0
 91
        1
 62
     0
 92
       -2
340
0
 93
        0
 40
0.045
309
GRIDFORMAT_END
 95
        2
302
GRIDFORMAT
  1
GRIDFORMAT_BEGIN
 90
        0
 91
        1
 62
     0
 92
       -2
340
0
 93
        0
 40
0.045
309
GRIDFORMAT_END
 95
        4
302
GRIDFORMAT
  1
GRIDFORMAT_BEGIN
 90
        0
 91
        1
 62
     0
 92
       -2
340
0
 93
        0
 40
0.045
309
GRIDFORMAT_END
 95
        8
302
GRIDFORMAT
  1
GRIDFORMAT_BEGIN
 90
        0
 91
        1
 62
     0
 92
       -2
340
0
 93
        0
 40
0.045
309
GRIDFORMAT_END
 95
       16
302
GRIDFORMAT
  1
GRIDFORMAT_BEGIN
 90
        0
 91
        1
 62
     0
 92
       -2
340
0
 93
        0
 40
0.045
309
GRIDFORMAT_END
 95
       32
302
GRIDFORMAT
  1
GRIDFORMAT_BEGIN
 90
        0
 91
        1
 62
     0
 92
       -2
340
0
 93
        0
 40
0.045
309
GRIDFORMAT_END
309
TABLEFORMAT_END
  1
CELLSTYLE_BEGIN
 90
        3
 91
        2
300
_DATA
309
CELLSTYLE_END
  0
ENDSEC
  0
EOF
