  0
SECTION
  2
HEADER
  9
$ACADVER
  1
AC1009
  9
$DWGCODEPAGE
  3
ansi_1252
  9
$INSBASE
 10
0.0
 20
0.0
 30
0.0
  9
$EXTMIN
 10
0.0
 20
0.0
 30
0.0
  9
$EXTMAX
 10
1189.0
 20
841.0
 30
0.0
  9
$LIMMIN
 10
0.0
 20
0.0
  9
$LIMMAX
 10
0.0
 20
0.0
  9
$ORTHOMODE
 70
         0
  9
$REGENMODE
 70
         1
  9
$FILLMODE
 70
         1
  9
$QTEXTMODE
 70
         0
  9
$MIRRTEXT
 70
         1
  9
$DRAGMODE
 70
         2
  9
$LTSCALE
 40
1.0
  9
$OSMODE
 70
         0
  9
$ATTMODE
 70
         1
  9
$TEXTSIZE
 40
3.5
  9
$TRACEWID
 40
0.05
  9
$TEXTSTYLE
  7
STANDARD
  9
$CLAYER
  8
0
  9
$CELTYPE
  6
CONTINUOUS
  9
$CECOLOR
 62
       256
  9
$DIMSCALE
 40
1.0
  9
$DIMASZ
 40
2.5
  9
$DIMEXO
 40
0.005
  9
$DIMDLI
 40
0.38
  9
$DIMRND
 40
0.0
  9
$DIMDLE
 40
1.0
  9
$DIMEXE
 40
0.18
  9
$DIMTP
 40
0.0
  9
$DIMTM
 40
0.0
  9
$DIMTXT
 40
3.5
  9
$DIMCEN
 40
0.09
  9
$DIMTSZ
 40
0.0
  9
$DIMTOL
 70
         0
  9
$DIMLIM
 70
         0
  9
$DIMTIH
 70
         1
  9
$DIMTOH
 70
         1
  9
$DIMSE1
 70
         0
  9
$DIMSE2
 70
         0
  9
$DIMTAD
 70
         1
  9
$DIMZIN
 70
         0
  9
$DIMBLK
  1

  9
$DIMASO
 70
         1
  9
$DIMSHO
 70
         1
  9
$DIMPOST
  1

  9
$DIMAPOST
  1

  9
$DIMALT
 70
         0
  9
$DIMALTD
 70
         2
  9
$DIMALTF
 40
0.0394
  9
$DIMLFAC
 40
1.0
  9
$DIMTOFL
 70
         0
  9
$DIMTVP
 40
0.0
  9
$DIMTIX
 70
         0
  9
$DIMSOXD
 70
         0
  9
$DIMSAH
 70
         0
  9
$DIMBLK1
  1

  9
$DIMBLK2
  1

  9
$DIMSTYLE
  2
STANDARD
  9
$DIMCLRD
 70
         0
  9
$DIMCLRE
 70
         0
  9
$DIMCLRT
 70
         0
  9
$DIMTFAC
 40
1.0
  9
$DIMGAP
 40
0.005
  9
$LUNITS
 70
         2
  9
$LUPREC
 70
         2
  9
$AXISMODE
 70
         0
  9
$AXISUNIT
 10
0.0
 20
0.0
  9
$SKETCHINC
 40
0.1
  9
$FILLETRAD
 40
0.0
  9
$AUNITS
 70
         0
  9
$AUPREC
 70
         2
  9
$MENU
  1
acad
  9
$ELEVATION
 40
0.0
  9
$PELEVATION
 40
0.0
  9
$THICKNESS
 40
0.0
  9
$LIMCHECK
 70
         0
  9
$BLIPMODE
 70
         1
  9
$CHAMFERA
 40
0.0
  9
$CHAMFERB
 40
0.0
  9
$SKPOLY
 70
         0
  9
$TDCREATE
 40
0.000000000
  9
$TDUPDATE
 40
0.000000000
  9
$TDINDWG
 40
0.0000000000
  9
$TDUSRTIMER
 40
0.0000000000
  9
$USRTIMER
 70
         1
  9
$ANGBASE
 50
0.0
  9
$ANGDIR
 70
         0
  9
$PDMODE
 70
         0
  9
$PDSIZE
 40
-1.0
  9
$PLINEWID
 40
0.0
  9
$COORDS
 70
         0
  9
$SPLFRAME
 70
         0
  9
$SPLINETYPE
 70
         6
  9
$SPLINESEGS
 70
         8
  9
$ATTDIA
 70
         0
  9
$ATTREQ
 70
         1
  9
$HANDLING
 70
         1
  9
$HANDSEED
  5
81
  9
$SURFTAB1
 70
         6
  9
$SURFTAB2
 70
         6
  9
$SURFTYPE
 70
         6
  9
$SURFU
 70
         6
  9
$SURFV
 70
         6
  9
$UCSNAME
  2

  9
$UCSORG
 10
0.0
 20
0.0
 30
0.0
  9
$UCSXDIR
 10
1.0
 20
0.0
 30
0.0
  9
$UCSYDIR
 10
0.0
 20
1.0
 30
0.0
  9
$PUCSNAME
  2

  9
$PUCSORG
 10
0.0
 20
0.0
 30
0.0
  9
$PUCSXDIR
 10
1.0
 20
0.0
 30
0.0
  9
$PUCSYDIR
 10
0.0
 20
1.0
 30
0.0
  9
$USERI1
 70
         0
  9
$USERI2
 70
         0
  9
$USERI3
 70
         0
  9
$USERI4
 70
         0
  9
$USERI5
 70
         0
  9
$USERR1
 40
0.0
  9
$USERR2
 40
0.0
  9
$USERR3
 40
0.0
  9
$USERR4
 40
0.0
  9
$USERR5
 40
0.0
  9
$WORLDVIEW
 70
         1
  9
$SHADEDGE
 70
         3
  9
$SHADEDIF
 70
        70
  9
$TILEMODE
 70
         1
  9
$MAXACTVP
 70
        16
  9
$PINSBASE
 10
0.0
 20
0.0
 30
0.0
  9
$PLIMCHECK
 70
         0
  9
$PEXTMIN
 10
1.0000000000E+20
 20
1.0000000000E+20
 30
1.0000000000E+20
  9
$PEXTMAX
 10
-1.0000000000E+20
 20
-1.0000000000E+20
 30
-1.0000000000E+20
  9
$PLIMMIN
 10
0.0
 20
0.0
  9
$PLIMMAX
 10
12.0
 20
9.0
  9
$UNITMODE
 70
         0
  9
$VISRETAIN
 70
         0
  9
$PLINEGEN
 70
         1
  9
$PSLTSCALE
 70
         1
  9
$TREEDEPTH
 70
      3020
  9
$DWGCODEPAGE
  3
ansi_1252
  0
ENDSEC
  0
SECTION
  2
TABLES
  0
TABLE
  2
VPORT
 70
         1
  0
VPORT
  2
*ACTIVE
 70
         0
 10
0.0
 20
0.0
 11
1.0
 21
1.0
 12
594.5
 22
420.5
 13
0.0
 23
0.0
 14
1.0
 24
1.0
 15
0.0
 25
0.0
 16
0.0
 26
0.0
 36
1.0
 17
0.0
 27
0.0
 37
0.0
 40
841.0
 41
0.7073170732
 42
50.0
 43
0.0
 44
0.0
 50
0.0
 51
0.0
 71
         0
 72
      2000
 73
         1
 74
         1
 75
         0
 76
         0
 77
         0
 78
         0
  0
ENDTAB
  0
TABLE
  2
LTYPE
 70
         6
  0
LTYPE
  2
CONTINUOUS
 70
        64
  3
Solid line
 72
        65
 73
         0
 40
0.0
  0
LTYPE
  2
HIDDEN
 70
        64
  3
Hidden __ __ __ __ __ __ __ __ __ __ __ __ __ __
 72
        65
 73
         2
 40
1.905
 49
1.27
 49
-0.635
  0
LTYPE
  2
PHANTOM
 70
        64
  3
Phantom ______  __  __  ______  __  __  ______
 72
        65
 73
         6
 40
12.7
 49
6.35
 49
-1.27
 49
1.27
 49
-1.27
 49
1.27
 49
-1.27
  0
LTYPE
  2
CENTER
 70
        64
  3
Center ____ _ ____ _ ____ _ ____ _ ____ _ ____
 72
        65
 73
         4
 40
10.16
 49
6.35
 49
-1.27
 49
1.27
 49
-1.27
  0
LTYPE
  2
CENTERX2
 70
        64
  3
Center (2x) ________  __  ________  __  _____
 72
        65
 73
         4
 40
20.32
 49
12.7
 49
-2.54
 49
2.54
 49
-2.54
  0
LTYPE
  2
DOT2
 70
        64
  3
Dot (.5x) ........................................
 72
        65
 73
         2
 40
0.635
 49
0.0
 49
-0.635
  0
ENDTAB
  0
TABLE
  2
LAYER
 70
         2
  0
LAYER
  2
0
 70
         0
 62
         7
  6
CONTINUOUS
  0
LAYER
  2
DEFPOINTS
 70
         0
 62
         7
  6
CONTINUOUS
  0
ENDTAB
  0
TABLE
  2
STYLE
 70
         1
  0
STYLE
  2
STANDARD
 70
         0
 40
0.0
 41
1.0
 50
0.0
 71
         0
 42
0.0
  3
txt
  4

  0
ENDTAB
  0
TABLE
  2
VIEW
 70
         0
  0
ENDTAB
  0
TABLE
  2
UCS
 70
         0
  0
ENDTAB
  0
TABLE
  2
APPID
 70
         1
  0
APPID
  2
ACAD
 70
         0
  0
ENDTAB
  0
TABLE
  2
DIMSTYLE
 70
         3
  0
DIMSTYLE
  2
STANDARD
 70
         0
  3

  4

  5

  6

  7

 40
1.0
 41
0.18
 42
0.0625
 43
0.38
 44
0.18
 45
0.0
 46
0.0
 47
0.0
 48
0.0
 71
         0
 72
         0
 73
         1
 74
         1
 75
         0
 76
         0
 77
         0
 78
         0
140
0.18
141
0.09
142
0.0
143
25.4
144
1.0
145
0.0
146
1.0
147
0.09
170
         0
171
         2
172
         0
173
         0
174
         0
175
         0
176
         0
177
         0
178
         0
  0
DIMSTYLE
  2
SLDDIMSTYLE0
 70
         0
  3

  4

  5

  6

  7

 40
1.0
 41
2.5
 42
0.0625
 43
0.38
 44
1.0
 45
0.0
 46
0.0
 47
0.0
 48
0.0
 71
         0
 72
         0
 73
         0
 74
         0
 75
         0
 76
         0
 77
         2
 78
        12
140
3.5
141
0.09
142
0.0
143
25.4
144
1.0
145
0.0
146
1.0
147
0.875
170
         0
171
         2
172
         0
173
         1
174
         0
175
         0
176
         7
177
         7
178
         7
  0
DIMSTYLE
  2
SLDDIMSTYLE1
 70
         0
  3

  4

  5

  6

  7

 40
1.0
 41
2.5
 42
0.0625
 43
0.38
 44
1.0
 45
0.0
 46
0.0
 47
0.0
 48
0.0
 71
         0
 72
         0
 73
         0
 74
         0
 75
         0
 76
         0
 77
         2
 78
        12
140
3.5
141
0.09
142
0.0
143
25.4
144
1.0
145
0.0
146
1.0
147
0.875
170
         0
171
         2
172
         1
173
         1
174
         0
175
         0
176
         7
177
         7
178
         7
  0
ENDTAB
  0
ENDSEC
  0
SECTION
  2
BLOCKS
  0
BLOCK
  8
0
 62
         0
  5
25
  2
DRAUFSICHT
 70
         0
 10
0.0
 20
0.0
 30
0.0
  3
Draufsicht
  0
TEXT
  8
0
 62
         7
  5
26
 10
0.0
 20
1.5295365771
 30
0.0
 40
5.2916666667
  1
Draufsicht / top view
 41
0.75
  0
ENDBLK
  8
0
  5
27
  0
BLOCK
  8
0
 62
         0
  5
29
  2
VORDERANSICHT
 70
         0
 10
0.0
 20
0.0
 30
0.0
  3
Vorderansicht
  0
TEXT
  8
0
 62
         7
  5
2A
 10
0.331577667
 20
1.4239526381
 30
0.0
 40
5.2916666667
  1
Vorderansicht / front view
 41
0.75
  0
ENDBLK
  8
0
  5
2B
  0
BLOCK
  8
0
 62
         7
  5
43
  2
*D2
 70
         1
 10
0.0
 20
0.0
 30
0.0
  3
*D2
  0
TEXT
  8
0
 62
         7
  5
44
 10
586.7625106108
 20
686.5625470126
 30
0.0
 40
3.5
  1
125
 50
90.0
 41
0.75
  0
LINE
  8
0
 62
         7
  5
45
 10
413.5375220339
 20
634.0234383066
 30
0.0
 11
589.2625106108
 21
634.0234383066
 31
0.0
  0
LINE
  8
0
 62
         7
  5
46
 10
572.3751941742
 20
759.0234383066
 30
0.0
 11
589.2625106108
 21
759.0234383066
 31
0.0
  0
LINE
  8
0
 62
         7
  5
47
 10
588.2625106108
 20
634.0234383066
 30
0.0
 11
588.2625106108
 21
759.0234383066
 31
0.0
  0
SOLID
  8
0
 62
         7
  5
48
 10
588.2625106108
 20
634.0234383066
 30
0.0
 11
588.5725106108
 21
636.5234383066
 31
0.0
 12
587.9525106108
 22
636.5234383066
 32
0.0
 13
587.9525106108
 23
636.5234383066
 33
0.0
  0
SOLID
  8
0
 62
         7
  5
49
 10
588.2625106108
 20
759.0234383066
 30
0.0
 11
587.9525106108
 21
756.5234383066
 31
0.0
 12
588.5725106108
 22
756.5234383066
 32
0.0
 13
588.5725106108
 23
756.5234383066
 33
0.0
  0
POINT
  8
DEFPOINTS
 62
         7
  5
4B
 10
413.5325220339
 20
634.0234383066
 30
0.0
  0
POINT
  8
DEFPOINTS
 62
         7
  5
4C
 10
572.3701941742
 20
759.0234383066
 30
0.0
  0
ENDBLK
  8
0
 62
         7
  5
4D
  0
BLOCK
  8
0
 62
         7
  5
58
  2
*D3
 70
         1
 10
0.0
 20
0.0
 30
0.0
  3
*D3
  0
TEXT
  8
0
 62
         7
  5
59
 10
601.7578737598
 20
339.9753973299
 30
0.0
 40
3.5
  1
%%c
 50
16.284837777
 41
0.75
  0
TEXT
  8
0
 62
         7
  5
5A
 10
607.66052191
 20
341.6997569825
 30
0.0
 40
3.5
  1
360
 50
16.284837777
 41
0.75
  0
LINE
  8
0
 62
         7
  5
5B
 10
562.3108376856
 20
326.8891140433
 30
0.0
 11
614.7001055796
 21
342.1937599387
 31
0.0
  0
LINE
  8
0
 62
         7
  5
5C
 10
562.3108376856
 20
326.8891140433
 30
0.0
 11
216.7542063822
 21
225.940540194
 31
0.0
  0
SOLID
  8
0
 62
         7
  5
5D
 10
216.7542063822
 20
225.940540194
 30
0.0
 11
219.2408331493
 21
226.3440093021
 31
0.0
 12
219.0669772721
 22
226.9391346115
 32
0.0
 13
219.0669772721
 23
226.9391346115
 33
0.0
  0
SOLID
  8
0
 62
         7
  5
5E
 10
562.3108376856
 20
326.8891140433
 30
0.0
 11
559.8242109185
 21
326.4856449352
 31
0.0
 12
559.9980667957
 22
325.8905196258
 32
0.0
 13
559.9980667957
 23
325.8905196258
 33
0.0
  0
POINT
  8
DEFPOINTS
 62
         7
  5
60
 10
216.7542063822
 20
225.940540194
 30
0.0
  0
POINT
  8
DEFPOINTS
 62
         7
  5
61
 10
562.3108376856
 20
326.8891140433
 30
0.0
  0
ENDBLK
  8
0
  5
62
  0
BLOCK
  8
0
 62
         0
  5
65
  2
NOTE0
 70
         0
 10
0.0
 20
0.0
 30
0.0
  3
NOTE0
  0
TEXT
  8
0
 62
         7
  5
66
 10
0.0
 20
-5.2916666667
 30
0.0
 40
5.2916666667
  1
Alape
 41
0.75
  0
TEXT
  8
0
 62
         7
  5
67
 10
0.0
 20
-17.875
 30
0.0
 40
5.2916666667
  1
Schalenbecken / Dish Basin  SB.K360.GS
 41
0.75
  0
TEXT
  8
0
 62
         7
  5
68
 10
0.0
 20
-30.4583333333
 30
0.0
 40
5.2916666667
  1
Datum / Date 01.2004
 41
0.75
  0
TEXT
  8
0
 62
         7
  5
69
 10
0.0
 20
-43.0416666667
 30
0.0
 40
5.2916666667
  1
Maßstab / Scale 1:1
 41
0.75
  0
ENDBLK
  8
0
  5
6A
  0
BLOCK
  8
0
 62
         0
  5
6D
  2
NOTE1
 70
         0
 10
0.0
 20
0.0
 30
0.0
  3
NOTE1
  0
TEXT
  8
0
 62
         7
  5
6E
 10
0.0
 20
-5.2916666667
 30
0.0
 40
5.2916666667
  1
SB.K360.GS-2D.dxf
 41
0.75
  0
ENDBLK
  8
0
  5
6F
  0
BLOCK
  8
0
 62
         0
  5
72
  2
SW_CENTERMARK0
 70
         0
 10
0.0
 20
0.0
 30
0.0
  3
SW_CENTERMARK0
  0
LINE
  8
0
  6
CONTINUOUS
 62
         7
  5
73
 10
389.5325220339
 20
276.4148271186
 30
0.0
 11
389.5325220339
 21
278.9148271186
 31
0.0
  0
LINE
  8
0
  6
CONTINUOUS
 62
         7
  5
74
 10
389.5325220339
 20
276.4148271186
 30
0.0
 11
387.0325220339
 21
276.4148271186
 31
0.0
  0
LINE
  8
0
  6
CONTINUOUS
 62
         7
  5
75
 10
389.5325220339
 20
276.4148271186
 30
0.0
 11
389.5325220339
 21
273.9148271186
 31
0.0
  0
LINE
  8
0
  6
CONTINUOUS
 62
         7
  5
76
 10
389.5325220339
 20
276.4148271186
 30
0.0
 11
392.0325220339
 21
276.4148271186
 31
0.0
  0
LINE
  8
0
  6
CENTERX2
 62
         7
  5
77
 10
389.5325220339
 20
281.4148271186
 30
0.0
 11
389.5325220339
 21
302.9148271186
 31
0.0
  0
LINE
  8
0
  6
CENTERX2
 62
         7
  5
78
 10
384.5325220339
 20
276.4148271186
 30
0.0
 11
363.0325220339
 21
276.4148271186
 31
0.0
  0
LINE
  8
0
  6
CENTERX2
 62
         7
  5
79
 10
389.5325220339
 20
271.4148271186
 30
0.0
 11
389.5325220339
 21
249.9148271186
 31
0.0
  0
LINE
  8
0
  6
CENTERX2
 62
         7
  5
7A
 10
394.5325220339
 20
276.4148271186
 30
0.0
 11
416.0325220339
 21
276.4148271186
 31
0.0
  0
ENDBLK
  8
0
  5
7C
  0
ENDSEC
  0
SECTION
  2
ENTITIES
  0
LINE
  8
0
  6
CENTERX2
 62
         7
  5
2C
 10
570.6649405086
 20
759.0234383066
 30
0.0
 11
572.3701941742
 21
759.0234383066
 31
0.0
  0
ARC
  8
0
  6
CONTINUOUS
 62
         7
  5
2D
 10
211.4987047723
 20
758.3062159307
 30
0.0
 40
1.5
 50
112.5683806155
 51
203.0127058005
  0
ARC
  8
0
  6
CONTINUOUS
 62
         7
  5
2E
 10
567.5663392955
 20
758.3062159307
 30
0.0
 40
1.5
 50
336.9872941995
 51
67.4316193845
  0
ARC
  8
0
  6
CONTINUOUS
 62
         7
  5
2F
 10
389.5325220339
 20
833.9236861515
 30
0.0
 40
194.9270970968
 50
281.7964501857
 51
336.9872941995
  0
ARC
  8
0
  6
CONTINUOUS
 62
         7
  5
30
 10
389.5325220339
 20
833.9236861515
 30
0.0
 40
194.9270970968
 50
203.0127058005
 51
258.2035498143
  0
ARC
  8
0
  6
CONTINUOUS
 62
         7
  5
31
 10
211.4987047723
 20
758.3062159307
 30
0.0
 40
1.5
 50
90.0
 51
112.5683806155
  0
ARC
  8
0
  6
CONTINUOUS
 62
         7
  5
32
 10
567.5663392955
 20
758.3062159307
 30
0.0
 40
1.5
 50
67.4316193845
 51
90.0
  0
LINE
  8
0
  6
CONTINUOUS
 62
         7
  5
33
 10
567.5663392955
 20
759.8062159307
 30
0.0
 11
211.4987047723
 21
759.8062159307
 31
0.0
  0
ARC
  8
0
  6
CONTINUOUS
 62
         7
  5
34
 10
430.4197098261
 20
634.2640122527
 30
0.0
 40
8.91
 50
96.6847945145
 51
127.8519053216
  0
ARC
  8
0
  6
CONTINUOUS
 62
         7
  5
35
 10
348.6453342417
 20
634.2640122527
 30
0.0
 40
8.91
 50
52.1480946784
 51
83.3152054855
  0
LINE
  8
0
  6
CONTINUOUS
 62
         7
  5
36
 10
354.1127117708
 20
641.2993433007
 30
0.0
 11
361.8507863241
 21
635.2858416413
 31
0.0
  0
LINE
  8
0
  6
CONTINUOUS
 62
         7
  5
37
 10
417.2142577437
 20
635.2858416413
 30
0.0
 11
424.952332297
 21
641.2993433007
 31
0.0
  0
ARC
  8
0
  6
CONTINUOUS
 62
         7
  5
38
 10
413.5325220339
 20
640.0234383066
 30
0.0
 40
6.0
 50
270.0
 51
307.8519053216
  0
ARC
  8
0
  6
CONTINUOUS
 62
         7
  5
39
 10
365.5325220339
 20
640.0234383066
 30
0.0
 40
6.0
 50
232.1480946784
 51
270.0
  0
LINE
  8
0
  6
CONTINUOUS
 62
         7
  5
3A
 10
389.5325220339
 20
757.7198130583
 30
0.0
 11
210.1180774978
 21
757.7198130583
 31
0.0
  0
LINE
  8
0
  6
CONTINUOUS
 62
         7
  5
3B
 10
568.94696657
 20
757.7198130583
 30
0.0
 11
389.5325220339
 21
757.7198130583
 31
0.0
  0
LINE
  8
0
  6
CONTINUOUS
 62
         7
  5
3C
 10
389.5325220339
 20
759.6913491626
 30
0.0
 11
210.9230261036
 21
759.6913491626
 31
0.0
  0
LINE
  8
0
  6
CONTINUOUS
 62
         7
  5
3D
 10
568.1420179642
 20
759.6913491626
 30
0.0
 11
389.5325220339
 21
759.6913491626
 31
0.0
  0
LINE
  8
0
  6
CONTINUOUS
 62
         7
  5
3E
 10
429.3825220339
 20
643.1134383066
 30
0.0
 11
349.6825220339
 21
643.1134383066
 31
0.0
  0
LINE
  8
0
  6
CONTINUOUS
 62
         7
  5
3F
 10
424.952332297
 20
641.2993433007
 30
0.0
 11
354.1127117708
 21
641.2993433007
 31
0.0
  0
LINE
  8
0
  6
CONTINUOUS
 62
         7
  5
40
 10
417.2142577437
 20
635.2858416413
 30
0.0
 11
361.8507863241
 21
635.2858416413
 31
0.0
  0
LINE
  8
0
  6
CONTINUOUS
 62
         7
  5
41
 10
413.5325220339
 20
634.0234383066
 30
0.0
 11
365.5325220339
 21
634.0234383066
 31
0.0
  0
DIMENSION
  8
0
 62
         7
  5
4E
  2
*D2
 10
588.2625106108
 20
759.0234383066
 30
0.0
 11
588.2625106108
 21
689.8475253892
 31
0.0
 70
       160
 13
413.5325220339
 23
634.0234383066
 33
0.0
 14
572.3701941742
 24
759.0234383066
 34
0.0
 50
90.0
  3
SLDDIMSTYLE0
  0
INSERT
  8
0
  5
4F
  2
VORDERANSICHT
 10
207.2641383899
 20
783.8055555556
 30
0.0
  0
CIRCLE
  8
0
  6
CONTINUOUS
 62
         7
  5
50
 10
389.5325220339
 20
276.4148271186
 30
0.0
 40
179.5338172616
  0
CIRCLE
  8
0
  6
CONTINUOUS
 62
         7
  5
51
 10
389.5325220339
 20
276.4148271186
 30
0.0
 40
178.6094959303
  0
CIRCLE
  8
0
  6
CONTINUOUS
 62
         7
  5
52
 10
389.5325220339
 20
276.4148271186
 30
0.0
 40
176.653189987
  0
CIRCLE
  8
0
  6
CONTINUOUS
 62
         7
  5
53
 10
389.5325220339
 20
276.4148271186
 30
0.0
 40
39.2366937856
  0
CIRCLE
  8
0
  6
CONTINUOUS
 62
         7
  5
54
 10
389.5325220339
 20
276.4148271186
 30
0.0
 40
34.4317825576
  0
CIRCLE
  8
0
  6
CONTINUOUS
 62
         7
  5
55
 10
389.5325220339
 20
276.4148271186
 30
0.0
 40
25.8741720248
  0
CIRCLE
  8
0
  6
CONTINUOUS
 62
         7
  5
56
 10
389.5325220339
 20
276.4148271186
 30
0.0
 40
24.0
  0
DIMENSION
  8
0
  5
63
  2
*D3
 10
562.3108376856
 20
326.8891140433
 30
0.0
 11
607.6929814531
 21
340.146746155
 31
0.0
 70
       163
  1
<>
 15
216.7542063822
 25
225.940540194
 35
0.0
  3
SLDDIMSTYLE1
  0
INSERT
  8
0
  5
6B
  2
NOTE0
 10
805.0570840872
 20
355.6230310964
 30
0.0
  0
INSERT
  8
0
  5
70
  2
NOTE1
 10
983.9726533306
 20
128.127041092
 30
0.0
  0
INSERT
  8
0
  5
7D
  2
SW_CENTERMARK0
 10
0.0
 20
0.0
 30
0.0
  0
INSERT
  8
0
  5
7E
  2
DRAUFSICHT
 10
229.0189620758
 20
460.3838434243
 30
0.0
  0
ENDSEC
  0
EOF
