  0
SECTION
  2
HEADER
  9
$ACADVER
  1
AC1027
  9
$ACADMAINTVER
 70
   125
  9
$DWGCODEPAGE
  3
ANSI_1252
  9
$LASTSAVEDBY
  1
fleminab
  9
$REQUIREDVERSIONS
160
                 0
  9
$INSBASE
 10
8.0
 20
5.0
 30
0.0
  9
$EXTMIN
 10
807.9637528631646
 20
340.3827697704183
 30
0.0
  9
$EXTMAX
 10
6491.903458355546
 20
4549.317060241676
 30
0.0
  9
$LIMMIN
 10
0.0
 20
0.0
  9
$LIMMAX
 10
420.0
 20
297.0
  9
$ORTHOMODE
 70
     0
  9
$REGENMODE
 70
     1
  9
$FILLMODE
 70
     1
  9
$QTEXTMODE
 70
     0
  9
$MIRRTEXT
 70
     1
  9
$LTSCALE
 40
0.5
  9
$ATTMODE
 70
     1
  9
$TEXTSIZE
 40
6.0
  9
$TRACEWID
 40
1.0
  9
$TEXTSTYLE
  7
黑体
  9
$CLAYER
  8
0
  9
$CELTYPE
  6
ByLayer
  9
$CECOLOR
 62
   256
  9
$CELTSCALE
 40
1.0
  9
$DISPSILH
 70
     1
  9
$DIMSCALE
 40
1.0
  9
$DIMASZ
 40
2.5
  9
$DIMEXO
 40
0.625
  9
$DIMDLI
 40
3.75
  9
$DIMRND
 40
0.0
  9
$DIMDLE
 40
0.0
  9
$DIMEXE
 40
1.25
  9
$DIMTP
 40
0.0
  9
$DIMTM
 40
0.0
  9
$DIMTXT
 40
30.0
  9
$DIMCEN
 40
2.5
  9
$DIMTSZ
 40
0.0
  9
$DIMTOL
 70
     0
  9
$DIMLIM
 70
     0
  9
$DIMTIH
 70
     0
  9
$DIMTOH
 70
     0
  9
$DIMSE1
 70
     0
  9
$DIMSE2
 70
     0
  9
$DIMTAD
 70
     1
  9
$DIMZIN
 70
     8
  9
$DIMBLK
  1
ClosedBlank
  9
$DIMASO
 70
     1
  9
$DIMSHO
 70
     1
  9
$DIMPOST
  1

  9
$DIMAPOST
  1

  9
$DIMALT
 70
     0
  9
$DIMALTD
 70
     3
  9
$DIMALTF
 40
0.03937007874016
  9
$DIMLFAC
 40
1.0
  9
$DIMTOFL
 70
     1
  9
$DIMTVP
 40
0.0
  9
$DIMTIX
 70
     0
  9
$DIMSOXD
 70
     0
  9
$DIMSAH
 70
     0
  9
$DIMBLK1
  1

  9
$DIMBLK2
  1

  9
$DIMSTYLE
  2
线性标注
  9
$DIMCLRD
 70
     0
  9
$DIMCLRE
 70
     0
  9
$DIMCLRT
 70
     0
  9
$DIMTFAC
 40
1.0
  9
$DIMGAP
 40
0.625
  9
$DIMJUST
 70
     0
  9
$DIMSD1
 70
     0
  9
$DIMSD2
 70
     0
  9
$DIMTOLJ
 70
     0
  9
$DIMTZIN
 70
     8
  9
$DIMALTZ
 70
     0
  9
$DIMALTTZ
 70
     0
  9
$DIMUPT
 70
     0
  9
$DIMDEC
 70
     1
  9
$DIMTDEC
 70
     1
  9
$DIMALTU
 70
     2
  9
$DIMALTTD
 70
     3
  9
$DIMTXSTY
  7
黑体
  9
$DIMAUNIT
 70
     0
  9
$DIMADEC
 70
     0
  9
$DIMALTRND
 40
0.0
  9
$DIMAZIN
 70
     0
  9
$DIMDSEP
 70
    46
  9
$DIMATFIT
 70
     3
  9
$DIMFRAC
 70
     0
  9
$DIMLDRBLK
  1

  9
$DIMLUNIT
 70
     2
  9
$DIMLWD
 70
    -2
  9
$DIMLWE
 70
    -2
  9
$DIMTMOVE
 70
     0
  9
$DIMFXL
 40
1.25
  9
$DIMFXLON
 70
     0
  9
$DIMJOGANG
 40
1.570796326794896
  9
$DIMTFILL
 70
     0
  9
$DIMTFILLCLR
 70
     0
  9
$DIMARCSYM
 70
     0
  9
$DIMLTYPE
  6

  9
$DIMLTEX1
  6

  9
$DIMLTEX2
  6

  9
$DIMTXTDIRECTION
 70
     0
  9
$LUNITS
 70
     2
  9
$LUPREC
 70
     4
  9
$SKETCHINC
 40
1.0
  9
$FILLETRAD
 40
55.0
  9
$AUNITS
 70
     0
  9
$AUPREC
 70
     0
  9
$MENU
  1
.
  9
$ELEVATION
 40
0.0
  9
$PELEVATION
 40
0.0
  9
$THICKNESS
 40
0.0
  9
$LIMCHECK
 70
     0
  9
$CHAMFERA
 40
1.0
  9
$CHAMFERB
 40
1.0
  9
$CHAMFERC
 40
0.5
  9
$CHAMFERD
 40
0.7853981633974483
  9
$SKPOLY
 70
     0
  9
$TDCREATE
 40
2454593.406203704
  9
$TDUCREATE
 40
2454592.989546620
  9
$TDUPDATE
 40
2458015.654583334
  9
$TDUUPDATE
 40
2458015.237916666
  9
$TDINDWG
 40
8.3267278704
  9
$TDUSRTIMER
 40
8.3267220833
  9
$USRTIMER
 70
     1
  9
$ANGBASE
 50
0.0
  9
$ANGDIR
 70
     0
  9
$PDMODE
 70
    34
  9
$PDSIZE
 40
-2.0
  9
$PLINEWID
 40
0.0
  9
$SPLFRAME
 70
     0
  9
$SPLINETYPE
 70
     6
  9
$SPLINESEGS
 70
     8
  9
$HANDSEED
  5
6063F89
  9
$SURFTAB1
 70
     6
  9
$SURFTAB2
 70
     6
  9
$SURFTYPE
 70
     6
  9
$SURFU
 70
     6
  9
$SURFV
 70
     6
  9
$UCSBASE
  2

  9
$UCSNAME
  2

  9
$UCSORG
 10
0.0
 20
0.0
 30
0.0
  9
$UCSXDIR
 10
1.0
 20
-0.0000000000000002
 30
0.0
  9
$UCSYDIR
 10
0.0000000000000002
 20
1.0
 30
0.0
  9
$UCSORTHOREF
  2

  9
$UCSORTHOVIEW
 70
     0
  9
$UCSORGTOP
 10
0.0
 20
0.0
 30
0.0
  9
$UCSORGBOTTOM
 10
0.0
 20
0.0
 30
0.0
  9
$UCSORGLEFT
 10
0.0
 20
0.0
 30
0.0
  9
$UCSORGRIGHT
 10
0.0
 20
0.0
 30
0.0
  9
$UCSORGFRONT
 10
0.0
 20
0.0
 30
0.0
  9
$UCSORGBACK
 10
0.0
 20
0.0
 30
0.0
  9
$PUCSBASE
  2

  9
$PUCSNAME
  2

  9
$PUCSORG
 10
0.0
 20
0.0
 30
0.0
  9
$PUCSXDIR
 10
1.0
 20
0.0
 30
0.0
  9
$PUCSYDIR
 10
0.0
 20
1.0
 30
0.0
  9
$PUCSORTHOREF
  2

  9
$PUCSORTHOVIEW
 70
     0
  9
$PUCSORGTOP
 10
0.0
 20
0.0
 30
0.0
  9
$PUCSORGBOTTOM
 10
0.0
 20
0.0
 30
0.0
  9
$PUCSORGLEFT
 10
0.0
 20
0.0
 30
0.0
  9
$PUCSORGRIGHT
 10
0.0
 20
0.0
 30
0.0
  9
$PUCSORGFRONT
 10
0.0
 20
0.0
 30
0.0
  9
$PUCSORGBACK
 10
0.0
 20
0.0
 30
0.0
  9
$USERI1
 70
     0
  9
$USERI2
 70
     0
  9
$USERI3
 70
     0
  9
$USERI4
 70
     0
  9
$USERI5
 70
     0
  9
$USERR1
 40
0.0
  9
$USERR2
 40
0.0
  9
$USERR3
 40
0.0
  9
$USERR4
 40
0.0
  9
$USERR5
 40
0.0
  9
$WORLDVIEW
 70
     1
  9
$SHADEDGE
 70
     3
  9
$SHADEDIF
 70
    70
  9
$TILEMODE
 70
     1
  9
$MAXACTVP
 70
    64
  9
$PINSBASE
 10
0.0
 20
0.0
 30
0.0
  9
$PLIMCHECK
 70
     0
  9
$PEXTMIN
 10
0.0451739414299368
 20
0.0000025706221436
 30
0.0
  9
$PEXTMAX
 10
287.29517394143
 20
200.4000025706222
 30
0.0
  9
$PLIMMIN
 10
-4.7730712890625
 20
-4.773083209991455
  9
$PLIMMAX
 10
292.2375793457031
 20
205.2425875663757
  9
$UNITMODE
 70
     0
  9
$VISRETAIN
 70
     1
  9
$PLINEGEN
 70
     0
  9
$PSLTSCALE
 70
     0
  9
$TREEDEPTH
 70
  3020
  9
$CMLSTYLE
  2
Standard
  9
$CMLJUST
 70
     0
  9
$CMLSCALE
 40
20.0
  9
$PROXYGRAPHICS
 70
     1
  9
$MEASUREMENT
 70
     1
  9
$CELWEIGHT
370
    -1
  9
$ENDCAPS
280
     0
  9
$JOINSTYLE
280
     0
  9
$LWDISPLAY
290
     0
  9
$INSUNITS
 70
     4
  9
$HYPERLINKBASE
  1

  9
$STYLESHEET
  1
grayscaleDS.ctb
  9
$XEDIT
290
     1
  9
$CEPSNTYPE
380
     0
  9
$PSTYLEMODE
290
     1
  9
$FINGERPRINTGUID
  2
{FDEAD578-A652-11D2-9A35-0060089B3A3F}
  9
$VERSIONGUID
  2
{A3A23922-6EB5-3946-A8EE-B0B7EF68AB1C}
  9
$EXTNAMES
290
     1
  9
$PSVPSCALE
 40
1.0
  9
$OLESTARTUP
290
     0
  9
$SORTENTS
280
   127
  9
$INDEXCTL
280
     0
  9
$HIDETEXT
280
     1
  9
$XCLIPFRAME
280
     2
  9
$HALOGAP
280
     0
  9
$OBSCOLOR
 70
   257
  9
$OBSLTYPE
280
     0
  9
$INTERSECTIONDISPLAY
280
     0
  9
$INTERSECTIONCOLOR
 70
   257
  9
$DIMASSOC
280
     1
  9
$PROJECTNAME
  1

  9
$CAMERADISPLAY
290
     0
  9
$LENSLENGTH
 40
50.0
  9
$CAMERAHEIGHT
 40
0.0
  9
$STEPSPERSEC
 40
2.0
  9
$STEPSIZE
 40
6.0
  9
$3DDWFPREC
 40
2.0
  9
$PSOLWIDTH
 40
0.25
  9
$PSOLHEIGHT
 40
4.0
  9
$LOFTANG1
 40
1.570795999999999
  9
$LOFTANG2
 40
1.570795999999999
  9
$LOFTMAG1
 40
0.0
  9
$LOFTMAG2
 40
0.0
  9
$LOFTPARAM
 70
     7
  9
$LOFTNORMALS
280
     1
  9
$LATITUDE
 40
37.795
  9
$LONGITUDE
 40
-122.394
  9
$NORTHDIRECTION
 40
0.0
  9
$TIMEZONE
 70
 -8000
  9
$LIGHTGLYPHDISPLAY
280
     1
  9
$TILEMODELIGHTSYNCH
280
     1
  9
$CMATERIAL
347
982F
  9
$SOLIDHIST
280
     0
  9
$SHOWHIST
280
     1
  9
$DWFFRAME
280
     2
  9
$DGNFRAME
280
     2
  9
$REALWORLDSCALE
290
     1
  9
$INTERFERECOLOR
 62
   256
  9
$INTERFEREOBJVS
345
9851
  9
$INTERFEREVPVS
346
63AC7
  9
$CSHADOW
280
     0
  9
$SHADOWPLANELOCATION
 40
0.0
  0
ENDSEC
  0
SECTION
  2
CLASSES
  0
CLASS
  1
ACDBDICTIONARYWDFLT
  2
AcDbDictionaryWithDefault
  3
ObjectDBX Classes
 90
        0
 91
        1
280
     0
281
     0
  0
CLASS
  1
ACDBPLACEHOLDER
  2
AcDbPlaceHolder
  3
ObjectDBX Classes
 90
        0
 91
        1
280
     0
281
     0
  0
CLASS
  1
LAYOUT
  2
AcDbLayout
  3
ObjectDBX Classes
 90
        0
 91
        2
280
     0
281
     0
  0
CLASS
  1
PLOTSETTINGS
  2
AcDbPlotSettings
  3
ObjectDBX Classes
 90
        0
 91
        1
280
     0
281
     0
  0
CLASS
  1
DICTIONARYVAR
  2
AcDbDictionaryVar
  3
ObjectDBX Classes
 90
        0
 91
       20
280
     0
281
     0
  0
CLASS
  1
WIPEOUT
  2
AcDbWipeout
  3
WipeOut|Product Desc: Object Enabler for WipeOut entity | Company: Autodesk, Inc. | WEB Address: www.autodesk.com
 90
     2175
 91
        0
280
     0
281
     1
  0
CLASS
  1
WIPEOUTVARIABLES
  2
AcDbWipeoutVariables
  3
"WipeOut|Product Desc:     WipeOut Dbx Application|Company:          Autodesk, Inc.|WEB Address:      www.autodesk.com"
 90
        0
 91
        0
280
     0
281
     0
  0
CLASS
  1
DIMASSOC
  2
AcDbDimAssoc
  3
"AcDbDimAssoc|Product Desc:     AcDim ARX App For Dimension|Company:          Autodesk, Inc.|WEB Address:      www.autodesk.com"
 90
        0
 91
        0
280
     0
281
     0
  0
CLASS
  1
RASTERVARIABLES
  2
AcDbRasterVariables
  3
ISM
 90
        0
 91
        3
280
     0
281
     0
  0
CLASS
  1
IMAGEDEF
  2
AcDbRasterImageDef
  3
ISM
 90
        0
 91
        1
280
     0
281
     0
  0
CLASS
  1
IMAGEDEF_REACTOR
  2
AcDbRasterImageDefReactor
  3
ISM
 90
        1
 91
        0
280
     0
281
     0
  0
CLASS
  1
IMAGE
  2
AcDbRasterImage
  3
ISM
 90
     2175
 91
        0
280
     0
281
     1
  0
CLASS
  1
MATERIAL
  2
AcDbMaterial
  3
ObjectDBX Classes
 90
     1153
 91
        3
280
     0
281
     0
  0
CLASS
  1
VISUALSTYLE
  2
AcDbVisualStyle
  3
ObjectDBX Classes
 90
     4095
 91
       26
280
     0
281
     0
  0
CLASS
  1
TABLESTYLE
  2
AcDbTableStyle
  3
ObjectDBX Classes
 90
     4095
 91
        1
280
     0
281
     0
  0
CLASS
  1
SCALE
  2
AcDbScale
  3
ObjectDBX Classes
 90
     1153
 91
       33
280
     0
281
     0
  0
CLASS
  1
MLEADERSTYLE
  2
AcDbMLeaderStyle
  3
ACDB_MLEADERSTYLE_CLASS
 90
     4095
 91
        1
280
     0
281
     0
  0
CLASS
  1
CELLSTYLEMAP
  2
AcDbCellStyleMap
  3
ObjectDBX Classes
 90
     1152
 91
        2
280
     0
281
     0
  0
CLASS
  1
SORTENTSTABLE
  2
AcDbSortentsTable
  3
ObjectDBX Classes
 90
        0
 91
        1
280
     0
281
     0
  0
CLASS
  1
ACDBSECTIONVIEWSTYLE
  2
AcDbSectionViewStyle
  3
ObjectDBX Classes
 90
     1025
 91
        1
280
     0
281
     0
  0
CLASS
  1
ACDBDETAILVIEWSTYLE
  2
AcDbDetailViewStyle
  3
ObjectDBX Classes
 90
     1025
 91
        1
280
     0
281
     0
  0
ENDSEC
  0
SECTION
  2
TABLES
  0
TABLE
  2
VPORT
  5
1A
102
{ACAD_XDICTIONARY
360
62567
102
}
330
0
100
AcDbSymbolTable
 70
     1
1001
ACAD
1000
DbSaveVer
1071
        5
  0
VPORT
  5
63AB8
330
1A
100
AcDbSymbolTableRecord
100
AcDbViewportTableRecord
  2
*Active
 70
     0
 10
0.0
 20
0.0
 11
1.0
 21
1.0
 12
4841.056582749189
 22
3485.914951639767
 13
0.0
 23
0.0
 14
10.0
 24
10.0
 15
10.0
 25
10.0
 16
0.0
 26
0.0
 36
1.0
 17
0.0
 27
0.0
 37
0.0
 40
2455.138423716691
 41
2.292712066905615
 42
50.0
 43
0.0
 44
0.0
 50
0.0
 51
0.0
 71
    16
 72
 20000
 73
     1
 74
     1
 75
     0
 76
     0
 77
     0
 78
     0
281
     0
 65
     1
110
0.0
120
0.0
130
0.0
111
1.0
121
-0.0000000000000002
131
0.0
112
0.0000000000000002
122
1.0
132
0.0
 79
     0
146
0.0
348
984D
 60
     3
 61
     5
292
     1
282
     1
141
0.0
142
0.0
 63
   250
421
  3355443
1001
ACAD_NAV_VCDISPLAY
1070
     3
  0
ENDTAB
  0
TABLE
  2
LTYPE
  5
15
330
0
100
AcDbSymbolTable
 70
     3
  0
LTYPE
  5
16
330
15
100
AcDbSymbolTableRecord
100
AcDbLinetypeTableRecord
  2
ByBlock
 70
     0
  3

 72
    65
 73
     0
 40
0.0
  0
LTYPE
  5
17
330
15
100
AcDbSymbolTableRecord
100
AcDbLinetypeTableRecord
  2
ByLayer
 70
     0
  3

 72
    65
 73
     0
 40
0.0
  0
LTYPE
  5
8
330
15
100
AcDbSymbolTableRecord
100
AcDbLinetypeTableRecord
  2
Continuous
 70
     0
  3
Solid line
 72
    65
 73
     0
 40
0.0
  0
LTYPE
  5
3FE
330
15
100
AcDbSymbolTableRecord
100
AcDbLinetypeTableRecord
  2
CENTER
 70
     0
  3
Center ____ _ ____ _ ____ _ ____ _ ____ _ ____
 72
    65
 73
     4
 40
50.8
 49
31.75
 74
     0
 49
-6.349999999999998
 74
     0
 49
6.349999999999998
 74
     0
 49
-6.349999999999998
 74
     0
  0
LTYPE
  5
63D99
330
15
100
AcDbSymbolTableRecord
100
AcDbLinetypeTableRecord
  2
ACAD_ISO02W100
 70
     0
  3
ISO dash __ __ __ __ __ __ __ __ __ __ __ __ __
 72
    65
 73
     2
 40
15.0
 49
12.0
 74
     0
 49
-3.0
 74
     0
  0
ENDTAB
  0
TABLE
  2
LAYER
  5
10
102
{ACAD_XDICTIONARY
360
3FD7
102
}
330
0
100
AcDbSymbolTable
 70
     8
  0
LAYER
  5
4
102
{ACAD_XDICTIONARY
360
9891
102
}
330
10
100
AcDbSymbolTableRecord
100
AcDbLayerTableRecord
  2
0
 70
     0
 62
     7
  6
Continuous
370
    30
390
5
347
983F
348
0
  0
LAYER
  5
400
102
{ACAD_XDICTIONARY
360
9893
102
}
330
10
100
AcDbSymbolTableRecord
100
AcDbLayerTableRecord
  2
标注
 70
     0
 62
     3
  6
Continuous
370
     9
390
5
347
983F
348
0
1001
AcadStringInfo
1000
MIFCodePage
1070
     5
  0
LAYER
  5
401
330
10
100
AcDbSymbolTableRecord
100
AcDbLayerTableRecord
  2
Defpoints
 70
     0
 62
     7
  6
Continuous
290
     0
370
    -3
390
5
347
983F
348
0
  0
LAYER
  5
403
102
{ACAD_XDICTIONARY
360
9897
102
}
330
10
100
AcDbSymbolTableRecord
100
AcDbLayerTableRecord
  2
中心线
 70
     0
 62
     1
  6
CENTER
370
     9
390
5
347
983F
348
0
1001
AcadStringInfo
1000
MIFCodePage
1070
     5
  0
LAYER
  5
405
102
{ACAD_XDICTIONARY
360
989B
102
}
330
10
100
AcDbSymbolTableRecord
100
AcDbLayerTableRecord
  2
剖面线
 70
     0
 62
    50
  6
Continuous
370
     9
390
5
347
983F
348
0
1001
AcadStringInfo
1000
MIFCodePage
1070
     5
  0
LAYER
  5
92F
102
{ACAD_XDICTIONARY
360
989F
102
}
330
10
100
AcDbSymbolTableRecord
100
AcDbLayerTableRecord
  2
ASHADE
 70
     4
 62
    -7
  6
Continuous
370
    -3
390
5
347
983F
348
0
  0
LAYER
  5
4563
102
{ACAD_XDICTIONARY
360
98A9
102
}
330
10
100
AcDbSymbolTableRecord
100
AcDbLayerTableRecord
  2
图层1
 70
     0
 62
     7
  6
Continuous
370
    13
390
5
347
983F
348
0
1001
AcadStringInfo
1000
MIFCodePage
1070
     5
  0
LAYER
  5
63D94
330
10
100
AcDbSymbolTableRecord
100
AcDbLayerTableRecord
  2
Hidden
 70
     0
 62
     2
  6
ACAD_ISO02W100
370
    30
390
5
347
983F
348
0
1001
AcAecLayerStandard
1000

1000

1001
AcCmTransparency
1071
        0
  0
ENDTAB
  0
TABLE
  2
STYLE
  5
11
330
0
100
AcDbSymbolTable
 70
     6
  0
STYLE
  5
12
330
11
100
AcDbSymbolTableRecord
100
AcDbTextStyleTableRecord
  2
Standard
 70
     0
 40
0.0
 41
1.0
 50
0.0
 71
     0
 42
4.5
  3
simhei.ttf
  4

1001
ACAD
1000
SimHei
1071
    34306
  0
STYLE
  5
406
330
11
100
AcDbSymbolTableRecord
100
AcDbTextStyleTableRecord
  2
样式 1
 70
     0
 40
0.0
 41
1.0
 50
0.0
 71
     0
 42
4.5
  3

  4

1001
ACAD
1000
LiSu
1071
    34353
1001
AcadStringInfo
1000
MIFCodePage
1070
     5
  0
STYLE
  5
3FD6
330
11
100
AcDbSymbolTableRecord
100
AcDbTextStyleTableRecord
  2
黑体
 70
     0
 40
0.0
 41
1.0
 50
0.0
 71
     0
 42
6.0
  3
simhei.ttf
  4

1001
ACAD
1000
SimHei
1071
    34306
1001
AcadStringInfo
1000
MIFCodePage
1070
     5
  0
STYLE
  5
639E5
330
11
100
AcDbSymbolTableRecord
100
AcDbTextStyleTableRecord
  2
GN3
 70
     0
 40
0.156
 41
1.0
 50
0.0
 71
     0
 42
0.2
  3
ROMANK
  4

  0
STYLE
  5
639E6
330
11
100
AcDbSymbolTableRecord
100
AcDbTextStyleTableRecord
  2
GN4
 70
     0
 40
0.188
 41
1.0
 50
0.0
 71
     0
 42
0.2
  3
ROMAND
  4

  0
STYLE
  5
63D98
330
11
100
AcDbSymbolTableRecord
100
AcDbTextStyleTableRecord
  2

 70
     1
 40
0.0
 41
1.0
 50
0.0
 71
     0
 42
6.0
  3
ltypeshp.shx
  4

  0
ENDTAB
  0
TABLE
  2
VIEW
  5
18
330
0
100
AcDbSymbolTable
 70
     0
  0
ENDTAB
  0
TABLE
  2
UCS
  5
19
330
0
100
AcDbSymbolTable
 70
     0
  0
ENDTAB
  0
TABLE
  2
APPID
  5
1C
330
0
100
AcDbSymbolTable
 70
    22
  0
APPID
  5
13
330
1C
100
AcDbSymbolTableRecord
100
AcDbRegAppTableRecord
  2
ACAD
 70
     0
  0
APPID
  5
2BE8
330
1C
100
AcDbSymbolTableRecord
100
AcDbRegAppTableRecord
  2
DCO15
 70
     0
  0
APPID
  5
987D
330
1C
100
AcDbSymbolTableRecord
100
AcDbRegAppTableRecord
  2
ACAD_MLEADERVER
 70
     0
  0
APPID
  5
988A
330
1C
100
AcDbSymbolTableRecord
100
AcDbRegAppTableRecord
  2
ACAD_EXEMPT_FROM_CAD_STANDARDS
 70
     0
  0
APPID
  5
A534
330
1C
100
AcDbSymbolTableRecord
100
AcDbRegAppTableRecord
  2
ACAD_DSTYLE_DIMRADIAL_EXTENSION
 70
     0
  0
APPID
  5
30A41
330
1C
100
AcDbSymbolTableRecord
100
AcDbRegAppTableRecord
  2
ACAD_PSEXT
 70
     0
  0
APPID
  5
46FFE
330
1C
100
AcDbSymbolTableRecord
100
AcDbRegAppTableRecord
  2
ACAD_DSTYLE_DIMJAG
 70
     0
  0
APPID
  5
46FFF
330
1C
100
AcDbSymbolTableRecord
100
AcDbRegAppTableRecord
  2
ACAD_DSTYLE_DIMTALN
 70
     0
  0
APPID
  5
62DE1
330
1C
100
AcDbSymbolTableRecord
100
AcDbRegAppTableRecord
  2
ACAD_DSTYLE_DIMTEXT_FILL
 70
     0
  0
APPID
  5
62DE2
330
1C
100
AcDbSymbolTableRecord
100
AcDbRegAppTableRecord
  2
ACAD_DSTYLE_DIMEXT_LENGTH
 70
     0
  0
APPID
  5
62DE3
330
1C
100
AcDbSymbolTableRecord
100
AcDbRegAppTableRecord
  2
ACAD_DSTYLE_DIMEXT_ENABLED
 70
     0
  0
APPID
  5
62DE4
330
1C
100
AcDbSymbolTableRecord
100
AcDbRegAppTableRecord
  2
ACAD_DSTYLE_DIM_LINETYPE
 70
     0
  0
APPID
  5
62DE5
330
1C
100
AcDbSymbolTableRecord
100
AcDbRegAppTableRecord
  2
ACAD_DSTYLE_DIM_EXT1_LINETYPE
 70
     0
  0
APPID
  5
62DE6
330
1C
100
AcDbSymbolTableRecord
100
AcDbRegAppTableRecord
  2
ACAD_DSTYLE_DIM_EXT2_LINETYPE
 70
     0
  0
APPID
  5
62FC2
330
1C
100
AcDbSymbolTableRecord
100
AcDbRegAppTableRecord
  2
ACAD_DSTYLE_DIMJOGGED_JOGANGLE_SYMBOL
 70
     0
  0
APPID
  5
630B6
330
1C
100
AcDbSymbolTableRecord
100
AcDbRegAppTableRecord
  2
ACAD_DSTYLE_DIMARC_LENGTH_SYMBOL
 70
     0
  0
APPID
  5
639E7
330
1C
100
AcDbSymbolTableRecord
100
AcDbRegAppTableRecord
  2
PSP
 70
     0
  0
APPID
  5
63AD1
330
1C
100
AcDbSymbolTableRecord
100
AcDbRegAppTableRecord
  2
AcadStringInfo
 70
     0
  0
APPID
  5
63AE7
330
1C
100
AcDbSymbolTableRecord
100
AcDbRegAppTableRecord
  2
AcadAnnotative
 70
     0
  0
APPID
  5
63D95
330
1C
100
AcDbSymbolTableRecord
100
AcDbRegAppTableRecord
  2
AcAecLayerStandard
 70
     0
  0
APPID
  5
63D96
330
1C
100
AcDbSymbolTableRecord
100
AcDbRegAppTableRecord
  2
AcCmTransparency
 70
     0
  0
APPID
  5
6063F79
330
1C
100
AcDbSymbolTableRecord
100
AcDbRegAppTableRecord
  2
ACAD_NAV_VCDISPLAY
 70
     0
  0
ENDTAB
  0
TABLE
  2
DIMSTYLE
  5
1D
330
0
100
AcDbSymbolTable
 70
     5
100
AcDbDimStyleTable
 71
     1
340
18F2E
  0
DIMSTYLE
105
4564
330
1D
100
AcDbSymbolTableRecord
100
AcDbDimStyleTableRecord
  2
STANDARD
 70
     0
 41
15.0
 42
6.0
 44
5.0
140
15.0
271
     0
272
     0
340
12
  0
DIMSTYLE
105
18F2E
102
{ACAD_REACTORS
330
622D6
330
622E4
330
6231F
330
6228A
330
6230B
330
62460
330
6246D
330
638ED
330
638FD
330
63974
330
63BDC
330
63BE6
330
63E0A
330
63E0B
330
63E0C
330
63E1A
330
63E1B
102
}
330
1D
100
AcDbSymbolTableRecord
100
AcDbDimStyleTableRecord
  2
线性标注
 70
     0
 41
2.5
 42
0.625
 43
3.75
 44
1.25
 49
1.25
 50
90.0
 73
     0
 74
     0
 77
     1
 78
     8
140
30.0
141
2.5
143
0.03937007874016
147
0.625
171
     3
172
     1
271
     1
272
     1
274
     3
283
     0
284
     8
340
3FD6
342
18F26
1001
ACAD_DSTYLE_DIMJAG
1070
   388
1040
1.5
1001
ACAD_DSTYLE_DIMTALN
1070
   392
1070
     0
1001
ACAD_DSTYLE_DIMJOGGED_JOGANGLE_SYMBOL
1070
   384
1040
1.570796326794896
1001
AcadStringInfo
1000
MIFCodePage
1070
     5
  0
DIMSTYLE
105
6383A
102
{ACAD_REACTORS
330
6243C
102
}
330
1D
100
AcDbSymbolTableRecord
100
AcDbDimStyleTableRecord
  2
线性标注$3
 70
     0
 41
12.0
 42
0.625
 43
3.75
 44
1.25
 49
1.25
 50
90.0
 73
     0
 74
     0
 77
     1
 78
     8
140
30.0
141
2.5
143
0.03937007874016
147
0.625
171
     3
172
     1
271
     1
272
     1
274
     3
283
     0
284
     8
340
406
1001
ACAD_DSTYLE_DIMJOGGED_JOGANGLE_SYMBOL
1070
   384
1040
1.570796326794896
1001
AcadStringInfo
1000
MIFCodePage
1070
     5
  0
DIMSTYLE
105
63AE5
330
1D
100
AcDbSymbolTableRecord
100
AcDbDimStyleTableRecord
  2
ISO-25
 70
     0
 41
2.5
 42
0.625
 43
3.75
 44
1.25
 73
     0
 74
     0
 77
     1
 78
     8
140
2.5
141
2.5
143
0.03937007874016
147
0.625
171
     3
172
     1
271
     2
272
     2
274
     3
278
    44
283
     0
284
     8
340
12
  0
DIMSTYLE
105
63AE6
330
1D
100
AcDbSymbolTableRecord
100
AcDbDimStyleTableRecord
  2
Annotative
 70
     0
 40
0.0
 41
2.5
 42
0.625
 43
3.75
 44
1.25
 73
     0
 74
     0
 77
     1
 78
     8
140
2.5
141
2.5
143
0.03937007874016
147
0.625
171
     3
172
     1
271
     2
272
     2
274
     3
278
    44
283
     0
284
     8
340
12
1001
AcadAnnotative
1000
AnnotativeData
1002
{
1070
     1
1070
     1
1002
}
1001
ACAD_DSTYLE_DIMJAG
1070
   388
1040
1.5
1001
ACAD_DSTYLE_DIMTALN
1070
   392
1070
     0
  0
ENDTAB
  0
TABLE
  2
BLOCK_RECORD
  5
1
330
0
100
AcDbSymbolTable
 70
    19
  0
BLOCK_RECORD
  5
2
102
{ACAD_XDICTIONARY
360
98C5
102
}
330
1
100
AcDbSymbolTableRecord
100
AcDbBlockTableRecord
  2
*Model_Space
340
A
 70
     0
280
     1
281
     0
  0
BLOCK_RECORD
  5
C
330
1
100
AcDbSymbolTableRecord
100
AcDbBlockTableRecord
  2
*Paper_Space
340
F
 70
     0
280
     1
281
     0
  0
BLOCK_RECORD
  5
18F26
330
1
100
AcDbSymbolTableRecord
100
AcDbBlockTableRecord
  2
_ClosedBlank
340
0
102
{BLKREFS
331
63D6E
331
63D6F
331
63E5B
331
63E5C
331
63E74
331
63E7A
331
63E7B
331
63E84
331
63E85
331
63E8C
331
63E8D
331
63B12
331
63B13
331
63B1B
331
63B1C
331
63B24
331
6398D
331
6398E
331
63B80
331
63B81
331
63C30
331
63C31
331
63C4C
331
63C4D
331
630FA
331
630FB
331
63103
331
63137
331
63138
331
63928
331
63929
102
}
 70
     0
280
     1
281
     0
  0
BLOCK_RECORD
  5
6228B
330
1
100
AcDbSymbolTableRecord
100
AcDbBlockTableRecord
  2
*D1
340
0
 70
     0
280
     1
281
     0
  0
BLOCK_RECORD
  5
622D7
330
1
100
AcDbSymbolTableRecord
100
AcDbBlockTableRecord
  2
*D2
340
0
 70
     0
280
     1
281
     0
  0
BLOCK_RECORD
  5
622E5
330
1
100
AcDbSymbolTableRecord
100
AcDbBlockTableRecord
  2
*D3
340
0
 70
     0
280
     1
281
     0
  0
BLOCK_RECORD
  5
6230C
330
1
100
AcDbSymbolTableRecord
100
AcDbBlockTableRecord
  2
*D4
340
0
 70
     0
280
     1
281
     0
  0
BLOCK_RECORD
  5
62320
330
1
100
AcDbSymbolTableRecord
100
AcDbBlockTableRecord
  2
*D5
340
0
 70
     0
280
     1
281
     0
  0
BLOCK_RECORD
  5
6243D
330
1
100
AcDbSymbolTableRecord
100
AcDbBlockTableRecord
  2
*D6
340
0
 70
     0
280
     1
281
     0
  0
BLOCK_RECORD
  5
62461
330
1
100
AcDbSymbolTableRecord
100
AcDbBlockTableRecord
  2
*D7
340
0
 70
     0
280
     1
281
     0
  0
BLOCK_RECORD
  5
6246E
330
1
100
AcDbSymbolTableRecord
100
AcDbBlockTableRecord
  2
*D8
340
0
 70
     0
280
     1
281
     0
  0
BLOCK_RECORD
  5
638EE
330
1
100
AcDbSymbolTableRecord
100
AcDbBlockTableRecord
  2
*D9
340
0
 70
     0
280
     1
281
     0
  0
BLOCK_RECORD
  5
638FE
330
1
100
AcDbSymbolTableRecord
100
AcDbBlockTableRecord
  2
*D10
340
0
 70
     0
280
     1
281
     0
  0
BLOCK_RECORD
  5
63975
330
1
100
AcDbSymbolTableRecord
100
AcDbBlockTableRecord
  2
*D11
340
0
 70
     0
280
     1
281
     0
  0
BLOCK_RECORD
  5
63BF3
330
1
100
AcDbSymbolTableRecord
100
AcDbBlockTableRecord
  2
*D12
340
0
 70
     0
280
     1
281
     0
  0
BLOCK_RECORD
  5
63BFF
330
1
100
AcDbSymbolTableRecord
100
AcDbBlockTableRecord
  2
*D13
340
0
 70
     0
280
     1
281
     0
  0
BLOCK_RECORD
  5
63E1F
330
1
100
AcDbSymbolTableRecord
100
AcDbBlockTableRecord
  2
*D14
340
0
 70
     0
280
     1
281
     0
  0
BLOCK_RECORD
  5
63E2C
330
1
100
AcDbSymbolTableRecord
100
AcDbBlockTableRecord
  2
*D15
340
0
 70
     0
280
     1
281
     0
  0
BLOCK_RECORD
  5
63E37
330
1
100
AcDbSymbolTableRecord
100
AcDbBlockTableRecord
  2
*D16
340
0
 70
     0
280
     1
281
     0
  0
BLOCK_RECORD
  5
63E42
330
1
100
AcDbSymbolTableRecord
100
AcDbBlockTableRecord
  2
*D17
340
0
 70
     0
280
     1
281
     0
  0
BLOCK_RECORD
  5
63E4B
330
1
100
AcDbSymbolTableRecord
100
AcDbBlockTableRecord
  2
*D18
340
0
 70
     0
280
     1
281
     0
  0
ENDTAB
  0
ENDSEC
  0
SECTION
  2
BLOCKS
  0
BLOCK
  5
3
330
2
100
AcDbEntity
  8
0
100
AcDbBlockBegin
  2
*Model_Space
 70
     2
 10
0.0
 20
0.0
 30
0.0
  3
*Model_Space
  1

  0
ENDBLK
  5
9
330
2
100
AcDbEntity
  8
0
100
AcDbBlockEnd
  0
BLOCK
  5
D
330
C
100
AcDbEntity
 67
     1
  8
0
100
AcDbBlockBegin
  2
*Paper_Space
 70
     0
 10
0.0
 20
0.0
 30
0.0
  3
*Paper_Space
  1

  0
ENDBLK
  5
E
330
C
100
AcDbEntity
 67
     1
  8
0
100
AcDbBlockEnd
  0
BLOCK
  5
18F27
330
18F26
100
AcDbEntity
  8
0
 48
0.2
100
AcDbBlockBegin
  2
_ClosedBlank
 70
     0
 10
0.0
 20
0.0
 30
0.0
  3
_ClosedBlank
  1

  0
LINE
  5
18F28
330
18F26
100
AcDbEntity
  8
0
  6
ByBlock
 62
     0
370
    -2
100
AcDbLine
 10
-1.0
 20
0.1666666666666666
 30
0.0
 11
0.0
 21
0.0
 31
0.0
  0
LINE
  5
18F29
330
18F26
100
AcDbEntity
  8
0
  6
ByBlock
 62
     0
370
    -2
100
AcDbLine
 10
0.0
 20
0.0
 30
0.0
 11
-1.0
 21
-0.1666666666666666
 31
0.0
  0
LINE
  5
18F2A
330
18F26
100
AcDbEntity
  8
0
  6
ByBlock
 62
     0
370
    -2
100
AcDbLine
 10
-1.0
 20
0.1666666666666666
 30
0.0
 11
-1.0
 21
-0.1666666666666666
 31
0.0
  0
ENDBLK
  5
18F2B
330
18F26
100
AcDbEntity
  8
0
 48
0.2
100
AcDbBlockEnd
  0
BLOCK
  5
6228C
330
6228B
100
AcDbEntity
  8
0
100
AcDbBlockBegin
  2
*D1
 70
     1
 10
0.0
 20
0.0
 30
0.0
  3
*D1
  1

  0
LINE
  5
630F7
330
6228B
100
AcDbEntity
  8
标注
 62
     0
440
 16777216
370
    -2
100
AcDbLine
 10
4738.979516489837
 20
4042.104900821839
 30
0.0
 11
4855.208106639162
 21
4042.104900821839
 31
0.0
  0
LINE
  5
630F8
330
6228B
100
AcDbEntity
  8
标注
 62
     0
440
 16777216
370
    -2
100
AcDbLine
 10
4642.252848297372
 20
3442.10490082184
 30
0.0
 11
4855.208106639162
 21
3442.10490082184
 31
0.0
  0
LINE
  5
630F9
330
6228B
100
AcDbEntity
  8
标注
 62
     0
440
 16777216
370
    -2
100
AcDbLine
 10
4853.958106639161
 20
4039.604900821839
 30
0.0
 11
4853.958106639161
 21
3444.60490082184
 31
0.0
  0
INSERT
  5
630FA
330
6228B
100
AcDbEntity
  8
标注
 62
     0
440
 16777216
370
    -2
100
AcDbBlockReference
  2
_ClosedBlank
 10
4853.958106639161
 20
4042.104900821839
 30
0.0
 41
2.5
 42
2.5
 43
2.5
 50
90.0
  0
INSERT
  5
630FB
330
6228B
100
AcDbEntity
  8
标注
 62
     0
440
 16777216
370
    -2
100
AcDbBlockReference
  2
_ClosedBlank
 10
4853.958106639161
 20
3442.10490082184
 30
0.0
 41
2.5
 42
2.5
 43
2.5
 50
270.0
  0
MTEXT
  5
630FC
330
6228B
100
AcDbEntity
  8
标注
 62
     0
440
 16777216
100
AcDbMText
 10
4838.333106639161
 20
3742.10490082184
 30
0.0
 40
30.0
 41
0.0
 46
0.0
 71
     5
 72
     1
  1
600
  7
黑体
 11
0.0000000000000001
 21
1.0
 31
0.0
 73
     1
 44
1.0
  0
POINT
  5
630FD
330
6228B
100
AcDbEntity
  8
Defpoints
 62
     0
440
 16777216
100
AcDbPoint
 10
4738.354516489837
 20
4042.104900821839
 30
0.0
  0
POINT
  5
630FE
330
6228B
100
AcDbEntity
  8
Defpoints
 62
     0
440
 16777216
100
AcDbPoint
 10
4641.627848297372
 20
3442.10490082184
 30
0.0
  0
POINT
  5
630FF
330
6228B
100
AcDbEntity
  8
Defpoints
 62
     0
440
 16777216
100
AcDbPoint
 10
4853.958106639161
 20
3442.10490082184
 30
0.0
  0
ENDBLK
  5
6228D
330
6228B
100
AcDbEntity
  8
0
100
AcDbBlockEnd
  0
BLOCK
  5
622D8
330
622D7
100
AcDbEntity
  8
0
100
AcDbBlockBegin
  2
*D2
 70
     1
 10
0.0
 20
0.0
 30
0.0
  3
*D2
  1

  0
LINE
  5
63B0E
330
622D7
100
AcDbEntity
  8
标注
 62
     0
440
 16777216
370
    -2
100
AcDbLine
 10
3458.757241010932
 20
4012.979900821838
 30
0.0
 11
3458.757241010932
 21
3959.573506029618
 31
0.0
  0
LINE
  5
63B0F
330
622D7
100
AcDbEntity
  8
标注
 62
     0
440
 16777216
370
    -2
100
AcDbLine
 10
3445.757241010932
 20
4012.979900821838
 30
0.0
 11
3445.757241010932
 21
3959.573506029618
 31
0.0
  0
LINE
  5
63B10
330
622D7
100
AcDbEntity
  8
标注
 62
     0
440
 16777216
370
    -2
100
AcDbLine
 10
3456.257241010932
 20
3960.823506029618
 30
0.0
 11
3448.257241010932
 21
3960.823506029618
 31
0.0
  0
LINE
  5
63B11
330
622D7
100
AcDbEntity
  8
标注
 62
     0
440
 16777216
370
    -2
100
AcDbLine
 10
3445.757241010932
 20
3960.823506029618
 30
0.0
 11
3404.928589325538
 21
3960.823506029618
 31
0.0
  0
INSERT
  5
63B12
330
622D7
100
AcDbEntity
  8
标注
 62
     0
440
 16777216
370
    -2
100
AcDbBlockReference
  2
_ClosedBlank
 10
3458.757241010932
 20
3960.823506029618
 30
0.0
 41
2.5
 42
2.5
 43
2.5
  0
INSERT
  5
63B13
330
622D7
100
AcDbEntity
  8
标注
 62
     0
440
 16777216
370
    -2
100
AcDbBlockReference
  2
_ClosedBlank
 10
3445.757241010932
 20
3960.823506029618
 30
0.0
 41
2.5
 42
2.5
 43
2.5
 50
180.0
  0
MTEXT
  5
63B14
330
622D7
100
AcDbEntity
  8
标注
 62
     0
440
 16777216
100
AcDbMText
 10
3424.092915168235
 20
3976.448506029618
 30
0.0
 40
30.0
 41
0.0
 46
0.0
 71
     5
 72
     1
  1
13
  7
黑体
 73
     1
 44
1.0
  0
POINT
  5
63B15
330
622D7
100
AcDbEntity
  8
Defpoints
 62
     0
440
 16777216
100
AcDbPoint
 10
3458.757241010932
 20
4013.604900821838
 30
0.0
  0
POINT
  5
63B16
330
622D7
100
AcDbEntity
  8
Defpoints
 62
     0
440
 16777216
100
AcDbPoint
 10
3445.757241010932
 20
4013.604900821838
 30
0.0
  0
POINT
  5
63B17
330
622D7
100
AcDbEntity
  8
Defpoints
 62
     0
440
 16777216
100
AcDbPoint
 10
3445.757241010932
 20
3960.823506029618
 30
0.0
  0
ENDBLK
  5
622D9
330
622D7
100
AcDbEntity
  8
0
100
AcDbBlockEnd
  0
BLOCK
  5
622E6
330
622E5
100
AcDbEntity
  8
0
100
AcDbBlockBegin
  2
*D3
 70
     1
 10
0.0
 20
0.0
 30
0.0
  3
*D3
  1

  0
LINE
  5
63B18
330
622E5
100
AcDbEntity
  8
标注
 62
     0
440
 16777216
370
    -2
100
AcDbLine
 10
3445.757241010932
 20
4071.229900821839
 30
0.0
 11
3445.757241010932
 21
4093.558456840119
 31
0.0
  0
LINE
  5
63B19
330
622E5
100
AcDbEntity
  8
标注
 62
     0
440
 16777216
370
    -2
100
AcDbLine
 10
3549.657241010931
 20
3987.72990082184
 30
0.0
 11
3549.657241010931
 21
4093.558456840119
 31
0.0
  0
LINE
  5
63B1A
330
622E5
100
AcDbEntity
  8
标注
 62
     0
440
 16777216
370
    -2
100
AcDbLine
 10
3448.257241010932
 20
4092.308456840119
 30
0.0
 11
3547.157241010931
 21
4092.308456840119
 31
0.0
  0
INSERT
  5
63B1B
330
622E5
100
AcDbEntity
  8
标注
 62
     0
440
 16777216
370
    -2
100
AcDbBlockReference
  2
_ClosedBlank
 10
3445.757241010932
 20
4092.308456840119
 30
0.0
 41
2.5
 42
2.5
 43
2.5
 50
180.0
  0
INSERT
  5
63B1C
330
622E5
100
AcDbEntity
  8
标注
 62
     0
440
 16777216
370
    -2
100
AcDbBlockReference
  2
_ClosedBlank
 10
3549.657241010931
 20
4092.308456840119
 30
0.0
 41
2.5
 42
2.5
 43
2.5
  0
MTEXT
  5
63B1D
330
622E5
100
AcDbEntity
  8
标注
 62
     0
440
 16777216
100
AcDbMText
 10
3497.707241010932
 20
4107.933456840119
 30
0.0
 40
30.0
 41
0.0
 46
0.0
 71
     5
 72
     1
  1
88
  7
黑体
 73
     1
 44
1.0
  0
POINT
  5
63B1E
330
622E5
100
AcDbEntity
  8
Defpoints
 62
     0
440
 16777216
100
AcDbPoint
 10
3445.757241010932
 20
4070.60490082184
 30
0.0
  0
POINT
  5
63B1F
330
622E5
100
AcDbEntity
  8
Defpoints
 62
     0
440
 16777216
100
AcDbPoint
 10
3549.657241010931
 20
3987.104900821839
 30
0.0
  0
POINT
  5
63B20
330
622E5
100
AcDbEntity
  8
Defpoints
 62
     0
440
 16777216
100
AcDbPoint
 10
3549.657241010931
 20
4092.308456840119
 30
0.0
  0
ENDBLK
  5
622E7
330
622E5
100
AcDbEntity
  8
0
100
AcDbBlockEnd
  0
BLOCK
  5
6230D
330
6230C
100
AcDbEntity
  8
0
100
AcDbBlockBegin
  2
*D4
 70
     1
 10
0.0
 20
0.0
 30
0.0
  3
*D4
  1

  0
LINE
  5
63100
330
6230C
100
AcDbEntity
  8
标注
 62
     0
440
 16777216
370
    -2
100
AcDbLine
 10
4790.563092352675
 20
3365.442474684167
 30
0.0
 11
4696.123722040035
 21
3457.066136189857
 31
0.0
  0
MTEXT
  5
63101
330
6230C
100
AcDbEntity
  8
标注
 62
     0
440
 16777216
100
AcDbMText
 10
4779.280381161322
 20
3398.158959040979
 30
0.0
 40
30.0
 41
0.0
 46
0.0
 71
     5
 72
     1
  1
R55
  7
黑体
 11
0.7177253139165445
 21
-0.6963263414257698
 31
0.0
 73
     1
 44
1.0
  0
LINE
  5
63102
330
6230C
100
AcDbEntity
  8
标注
 62
     0
440
 16777216
370
    -2
100
AcDbLine
 10
4654.854516489836
 20
3497.104900821835
 30
0.0
 11
4694.329408755243
 21
3458.806952043421
 31
0.0
  0
INSERT
  5
63103
330
6230C
100
AcDbEntity
  8
标注
 62
     0
440
 16777216
370
    -2
100
AcDbBlockReference
  2
_ClosedBlank
 10
4694.329408755243
 20
3458.806952043421
 30
0.0
 41
2.5
 42
2.5
 43
2.5
 50
135.8669960701391
  0
POINT
  5
63104
330
6230C
100
AcDbEntity
  8
Defpoints
 62
     0
440
 16777216
100
AcDbPoint
 10
4694.329408755243
 20
3458.806952043421
 30
0.0
  0
POINT
  5
63105
330
6230C
100
AcDbEntity
  8
Defpoints
 62
     0
440
 16777216
100
AcDbPoint
 10
4654.854516489836
 20
3497.104900821835
 30
0.0
  0
ENDBLK
  5
6230E
330
6230C
100
AcDbEntity
  8
0
100
AcDbBlockEnd
  0
BLOCK
  5
62321
330
62320
100
AcDbEntity
  8
0
100
AcDbBlockBegin
  2
*D5
 70
     1
 10
0.0
 20
0.0
 30
0.0
  3
*D5
  1

  0
LINE
  5
63B21
330
62320
100
AcDbEntity
  8
标注
 62
     0
440
 16777216
370
    -2
100
AcDbLine
 10
3641.927701497603
 20
4065.172051101414
 30
0.0
 11
3530.626357180049
 21
4011.921121078652
 31
0.0
  0
MTEXT
  5
63B22
330
62320
100
AcDbEntity
  8
标注
 62
     0
440
 16777216
100
AcDbMText
 10
3607.330169271538
 20
4065.94047599236
 30
0.0
 40
30.0
 41
0.0
 46
0.0
 71
     5
 72
     1
  1
R55
  7
黑体
 11
0.9020715855498348
 21
0.4315864392489726
 31
0.0
 73
     1
 44
1.0
  0
LINE
  5
63B23
330
62320
100
AcDbEntity
  8
标注
 62
     0
440
 16777216
370
    -2
100
AcDbLine
 10
3478.757241010938
 20
3987.104900821838
 30
0.0
 11
3528.371178216174
 21
4010.842154980529
 31
0.0
  0
INSERT
  5
63B24
330
62320
100
AcDbEntity
  8
标注
 62
     0
440
 16777216
370
    -2
100
AcDbBlockReference
  2
_ClosedBlank
 10
3528.371178216174
 20
4010.842154980529
 30
0.0
 41
2.5
 42
2.5
 43
2.5
 50
205.5682817627192
  0
POINT
  5
63B25
330
62320
100
AcDbEntity
  8
Defpoints
 62
     0
440
 16777216
100
AcDbPoint
 10
3528.371178216174
 20
4010.842154980529
 30
0.0
  0
POINT
  5
63B26
330
62320
100
AcDbEntity
  8
Defpoints
 62
     0
440
 16777216
100
AcDbPoint
 10
3478.757241010938
 20
3987.104900821838
 30
0.0
  0
ENDBLK
  5
62322
330
62320
100
AcDbEntity
  8
0
100
AcDbBlockEnd
  0
BLOCK
  5
6243E
330
6243D
100
AcDbEntity
  8
0
100
AcDbBlockBegin
  2
*D6
 70
     1
 10
0.0
 20
0.0
 30
0.0
  3
*D6
  1

  0
LINE
  5
63B27
330
6243D
100
AcDbEntity
  8
标注
 62
     0
440
 16777216
370
    -2
100
AcDbLine
 10
3688.634247562137
 20
3345.693357862978
 30
0.0
 11
3568.139688336208
 21
3420.701692746303
 31
0.0
  0
LINE
  5
63B28
330
6243D
100
AcDbEntity
  8
标注
 62
     0
440
 16777216
370
    -2
100
AcDbLine
 10
3499.374793685657
 20
3463.508108897376
 30
0.0
 11
3489.187401885575
 21
3469.849800179016
 31
0.0
  0
MTEXT
  5
63B29
102
{ACAD_XDICTIONARY
360
63F5F
102
}
330
6243D
100
AcDbEntity
  8
标注
 62
     0
440
 16777216
100
AcDbMText
 10
3664.222269202404
 20
3379.295013424
 30
0.0
 40
30.0
 41
0.0
 46
0.0
 71
     5
 72
     1
  1
∅57
  7
样式 1
 11
0.8489493166734611
 21
-0.5284742734700179
 31
0.0
 73
     1
 44
1.0
  0
LINE
  5
63B2A
330
6243D
100
AcDbEntity
  8
标注
 62
     0
440
 16777216
370
    -2
100
AcDbLine
 10
3509.562185485738
 20
3457.166417615735
 30
0.0
 11
3557.952296536126
 21
3427.043384027944
 31
0.0
  0
SOLID
  5
63B2B
330
6243D
100
AcDbEntity
  8
标注
 62
     0
440
 16777216
100
AcDbTrace
 10
3500.431742232596
 20
3465.206007530723
 30
0.0
 11
3498.317845138716
 21
3461.810210264029
 31
0.0
 12
3509.562185485738
 22
3457.166417615735
 32
0.0
 13
3509.562185485738
 23
3457.166417615735
 33
0.0
  0
SOLID
  5
63B2C
330
6243D
100
AcDbEntity
  8
标注
 62
     0
440
 16777216
100
AcDbTrace
 10
3569.196636883148
 20
3422.39959137965
 30
0.0
 11
3567.082739789267
 21
3419.003794112956
 31
0.0
 12
3557.952296536126
 22
3427.043384027944
 32
0.0
 13
3557.952296536126
 23
3427.043384027944
 33
0.0
  0
POINT
  5
63B2D
330
6243D
100
AcDbEntity
  8
Defpoints
 62
     0
440
 16777216
100
AcDbPoint
 10
3557.952296536126
 20
3427.043384027944
 30
0.0
  0
POINT
  5
63B2E
330
6243D
100
AcDbEntity
  8
Defpoints
 62
     0
440
 16777216
100
AcDbPoint
 10
3509.562185485738
 20
3457.166417615735
 30
0.0
  0
ENDBLK
  5
6243F
330
6243D
100
AcDbEntity
  8
0
100
AcDbBlockEnd
  0
BLOCK
  5
62462
330
62461
100
AcDbEntity
  8
0
100
AcDbBlockBegin
  2
*D7
 70
     1
 10
0.0
 20
0.0
 30
0.0
  3
*D7
  1

  0
LINE
  5
63C2D
330
62461
100
AcDbEntity
  8
标注
 62
     0
440
 16777216
370
    -2
100
AcDbLine
 10
3756.854516489836
 20
3412.97990082184
 30
0.0
 11
3756.854516489836
 21
3010.290731936428
 31
0.0
  0
LINE
  5
63C2E
330
62461
100
AcDbEntity
  8
标注
 62
     0
440
 16777216
370
    -2
100
AcDbLine
 10
4710.170238615461
 20
3541.47990082184
 30
0.0
 11
4710.170238615461
 21
3010.290731936428
 31
0.0
  0
LINE
  5
63C2F
330
62461
100
AcDbEntity
  8
标注
 62
     0
440
 16777216
370
    -2
100
AcDbLine
 10
3759.354516489836
 20
3011.540731936428
 30
0.0
 11
4707.670238615461
 21
3011.540731936428
 31
0.0
  0
INSERT
  5
63C30
330
62461
100
AcDbEntity
  8
标注
 62
     0
440
 16777216
370
    -2
100
AcDbBlockReference
  2
_ClosedBlank
 10
3756.854516489836
 20
3011.540731936428
 30
0.0
 41
2.5
 42
2.5
 43
2.5
 50
180.0
  0
INSERT
  5
63C31
330
62461
100
AcDbEntity
  8
标注
 62
     0
440
 16777216
370
    -2
100
AcDbBlockReference
  2
_ClosedBlank
 10
4710.170238615461
 20
3011.540731936428
 30
0.0
 41
2.5
 42
2.5
 43
2.5
  0
MTEXT
  5
63C32
330
62461
100
AcDbEntity
  8
标注
 62
     0
440
 16777216
100
AcDbMText
 10
4233.512377552648
 20
3027.334271262271
 30
0.0
 40
30.0
 41
0.0
 46
0.0
 71
     5
 72
     1
  1
1000
  7
黑体
 73
     1
 44
1.0
  0
POINT
  5
63C33
330
62461
100
AcDbEntity
  8
Defpoints
 62
     0
440
 16777216
100
AcDbPoint
 10
3756.854516489836
 20
3413.60490082184
 30
0.0
  0
POINT
  5
63C34
330
62461
100
AcDbEntity
  8
Defpoints
 62
     0
440
 16777216
100
AcDbPoint
 10
4710.170238615461
 20
3542.10490082184
 30
0.0
  0
POINT
  5
63C35
330
62461
100
AcDbEntity
  8
Defpoints
 62
     0
440
 16777216
100
AcDbPoint
 10
4710.170238615461
 20
3011.540731936428
 30
0.0
  0
ENDBLK
  5
62463
330
62461
100
AcDbEntity
  8
0
100
AcDbBlockEnd
  0
BLOCK
  5
6246F
330
6246E
100
AcDbEntity
  8
0
100
AcDbBlockBegin
  2
*D8
 70
     1
 10
0.0
 20
0.0
 30
0.0
  3
*D8
  1

  0
LINE
  5
63133
330
6246E
100
AcDbEntity
  8
标注
 62
     0
440
 16777216
370
    -2
100
AcDbLine
 10
3756.854516489836
 20
3412.97990082184
 30
0.0
 11
3756.854516489836
 21
3371.574936969755
 31
0.0
  0
LINE
  5
63134
330
6246E
100
AcDbEntity
  8
标注
 62
     0
440
 16777216
370
    -2
100
AcDbLine
 10
3769.854516489836
 20
3412.97990082184
 30
0.0
 11
3769.854516489836
 21
3371.574936969755
 31
0.0
  0
LINE
  5
63135
330
6246E
100
AcDbEntity
  8
标注
 62
     0
440
 16777216
370
    -2
100
AcDbLine
 10
3759.354516489836
 20
3372.824936969755
 30
0.0
 11
3767.354516489837
 21
3372.824936969755
 31
0.0
  0
LINE
  5
63136
330
6246E
100
AcDbEntity
  8
标注
 62
     0
440
 16777216
370
    -2
100
AcDbLine
 10
3769.854516489836
 20
3372.824936969755
 30
0.0
 11
3810.214685981362
 21
3372.824936969755
 31
0.0
  0
INSERT
  5
63137
330
6246E
100
AcDbEntity
  8
标注
 62
     0
440
 16777216
370
    -2
100
AcDbBlockReference
  2
_ClosedBlank
 10
3756.854516489836
 20
3372.824936969755
 30
0.0
 41
2.5
 42
2.5
 43
2.5
 50
180.0
  0
INSERT
  5
63138
330
6246E
100
AcDbEntity
  8
标注
 62
     0
440
 16777216
370
    -2
100
AcDbBlockReference
  2
_ClosedBlank
 10
3769.854516489836
 20
3372.824936969755
 30
0.0
 41
2.5
 42
2.5
 43
2.5
  0
MTEXT
  5
63139
330
6246E
100
AcDbEntity
  8
标注
 62
     0
440
 16777216
100
AcDbMText
 10
3791.284601235599
 20
3388.449936969755
 30
0.0
 40
30.0
 41
0.0
 46
0.0
 71
     5
 72
     1
  1
13
  7
黑体
 73
     1
 44
1.0
  0
POINT
  5
6313A
330
6246E
100
AcDbEntity
  8
Defpoints
 62
     0
440
 16777216
100
AcDbPoint
 10
3756.854516489836
 20
3413.60490082184
 30
0.0
  0
POINT
  5
6313B
330
6246E
100
AcDbEntity
  8
Defpoints
 62
     0
440
 16777216
100
AcDbPoint
 10
3769.854516489836
 20
3413.60490082184
 30
0.0
  0
POINT
  5
6313C
330
6246E
100
AcDbEntity
  8
Defpoints
 62
     0
440
 16777216
100
AcDbPoint
 10
3769.854516489836
 20
3372.824936969755
 30
0.0
  0
ENDBLK
  5
62470
330
6246E
100
AcDbEntity
  8
0
100
AcDbBlockEnd
  0
BLOCK
  5
638F8
330
638EE
100
AcDbEntity
  8
0
100
AcDbBlockBegin
  2
*D9
 70
     1
 10
0.0
 20
0.0
 30
0.0
  3
*D9
  1

  0
LINE
  5
63B7D
330
638EE
100
AcDbEntity
  8
标注
 62
     0
440
 16777216
370
    -2
100
AcDbLine
 10
5372.011933819882
 20
3473.7303965857
 30
0.0
 11
5372.011933819882
 21
3316.469117003361
 31
0.0
  0
LINE
  5
63B7E
330
638EE
100
AcDbEntity
  8
标注
 62
     0
440
 16777216
370
    -2
100
AcDbLine
 10
5913.31176333816
 20
3285.9381918033
 30
0.0
 11
5913.31176333816
 21
3128.676912220958
 31
0.0
  0
LINE
  5
63B7F
330
638EE
100
AcDbEntity
  8
标注
 62
     0
440
 16777216
370
    -2
100
AcDbLine
 10
5374.373833044939
 20
3316.972795207968
 30
0.0
 11
5910.949864113103
 21
3130.819409574435
 31
0.0
  0
INSERT
  5
63B80
330
638EE
100
AcDbEntity
  8
标注
 62
     0
440
 16777216
370
    -2
100
AcDbBlockReference
  2
_ClosedBlank
 10
5372.011933819882
 20
3317.792204782403
 30
0.0
 41
2.5
 42
2.5
 43
2.5
 50
160.8668948645879
  0
INSERT
  5
63B81
330
638EE
100
AcDbEntity
  8
标注
 62
     0
440
 16777216
370
    -2
100
AcDbBlockReference
  2
_ClosedBlank
 10
5913.31176333816
 20
3130.0
 30
0.0
 41
2.5
 42
2.5
 43
2.5
 50
340.866894864588
  0
MTEXT
  5
63B82
330
638EE
100
AcDbEntity
  8
标注
 62
     0
440
 16777216
100
AcDbMText
 10
5625.106109337282
 20
3246.703675451087
 30
0.0
 40
30.0
 41
0.0
 46
0.0
 71
     5
 72
     1
  1
1000
  7
黑体
 11
0.9447596900227566
 21
-0.3277638297739773
 31
0.0
 73
     1
 44
1.0
  0
POINT
  5
63B83
330
638EE
100
AcDbEntity
  8
Defpoints
 62
     0
440
 16777216
100
AcDbPoint
 10
5372.011933819882
 20
3474.391940475221
 30
0.0
  0
POINT
  5
63B84
330
638EE
100
AcDbEntity
  8
Defpoints
 62
     0
440
 16777216
100
AcDbPoint
 10
5913.31176333816
 20
3286.599735692821
 30
0.0
  0
POINT
  5
63B85
330
638EE
100
AcDbEntity
  8
Defpoints
 62
     0
440
 16777216
100
AcDbPoint
 10
5913.31176333816
 20
3130.0
 30
0.0
  0
ENDBLK
  5
638F9
330
638EE
100
AcDbEntity
  8
0
100
AcDbBlockEnd
  0
BLOCK
  5
63908
330
638FE
100
AcDbEntity
  8
0
100
AcDbBlockBegin
  2
*D10
 70
     1
 10
0.0
 20
0.0
 30
0.0
  3
*D10
  1

  0
LINE
  5
63925
330
638FE
100
AcDbEntity
  8
标注
 62
     0
440
 16777216
370
    -2
100
AcDbLine
 10
5993.533227416314
 20
3642.889963105861
 30
0.0
 11
6038.695483937054
 21
3627.17669144391
 31
0.0
  0
LINE
  5
63926
330
638FE
100
AcDbEntity
  8
标注
 62
     0
440
 16777216
370
    -2
100
AcDbLine
 10
5993.505016781963
 20
3295.753123244636
 30
0.0
 11
6038.667273302703
 21
3280.039851582685
 31
0.0
  0
LINE
  5
63927
330
638FE
100
AcDbEntity
  8
标注
 62
     0
440
 16777216
370
    -2
100
AcDbLine
 10
6037.445316109194
 20
3625.111590764213
 30
0.0
 11
6037.417511807894
 21
3282.974750886477
 31
0.0
  0
INSERT
  5
63928
330
638FE
100
AcDbEntity
  8
标注
 62
     0
440
 16777216
370
    -2
100
AcDbBlockReference
  2
_ClosedBlank
 10
6037.44551927572
 20
3627.611590755958
 30
0.0
 41
2.5
 42
2.5
 43
2.5
 50
89.99534376621394
  0
INSERT
  5
63929
330
638FE
100
AcDbEntity
  8
标注
 62
     0
440
 16777216
370
    -2
100
AcDbBlockReference
  2
_ClosedBlank
 10
6037.417308641368
 20
3280.474750894733
 30
0.0
 41
2.5
 42
2.5
 43
2.5
 50
269.9953437662139
  0
MTEXT
  5
6392A
330
638FE
100
AcDbEntity
  8
标注
 62
     0
440
 16777216
100
AcDbMText
 10
6021.805972328419
 20
3448.609469006321
 30
0.0
 40
30.0
 41
0.0
 46
0.0
 71
     5
 72
     1
  1
600
  7
黑体
 11
0.0000812666102202
 21
0.9999999966978689
 31
0.0
 73
     1
 44
1.0
  0
POINT
  5
6392B
330
638FE
100
AcDbEntity
  8
Defpoints
 62
     0
440
 16777216
100
AcDbPoint
 10
5992.908245085647
 20
3643.107412761884
 30
0.0
  0
POINT
  5
6392C
330
638FE
100
AcDbEntity
  8
Defpoints
 62
     0
440
 16777216
100
AcDbPoint
 10
5992.880034451295
 20
3295.970572900659
 30
0.0
  0
POINT
  5
6392D
330
638FE
100
AcDbEntity
  8
Defpoints
 62
     0
440
 16777216
100
AcDbPoint
 10
6037.417308641368
 20
3280.474750894733
 30
0.0
  0
ENDBLK
  5
63909
330
638FE
100
AcDbEntity
  8
0
100
AcDbBlockEnd
  0
BLOCK
  5
6397F
330
63975
100
AcDbEntity
  8
0
100
AcDbBlockBegin
  2
*D11
 70
     1
 10
0.0
 20
0.0
 30
0.0
  3
*D11
  1

  0
LINE
  5
6398A
330
63975
100
AcDbEntity
  8
标注
 62
     0
440
 16777216
370
    -2
100
AcDbLine
 10
5979.393621051507
 20
3670.311774432272
 30
0.0
 11
5979.19834806281
 21
3728.765962350836
 31
0.0
  0
LINE
  5
6398B
330
63975
100
AcDbEntity
  8
标注
 62
     0
440
 16777216
370
    -2
100
AcDbLine
 10
5907.736281650341
 20
3625.836420281211
 30
0.0
 11
5907.541008661645
 21
3684.290608199775
 31
0.0
  0
LINE
  5
6398C
330
63975
100
AcDbEntity
  8
标注
 62
     0
440
 16777216
370
    -2
100
AcDbLine
 10
5977.079130727672
 20
3725.979437649551
 30
0.0
 11
5909.670035061296
 21
3684.140828683336
 31
0.0
  0
INSERT
  5
6398D
330
63975
100
AcDbEntity
  8
标注
 62
     0
440
 16777216
370
    -2
100
AcDbBlockReference
  2
_ClosedBlank
 10
5979.203252595067
 20
3727.297810241974
 30
0.0
 41
2.5
 42
2.5
 43
2.5
 50
31.8265143005855
  0
INSERT
  5
6398E
330
63975
100
AcDbEntity
  8
标注
 62
     0
440
 16777216
370
    -2
100
AcDbBlockReference
  2
_ClosedBlank
 10
5907.545913193901
 20
3682.822456090914
 30
0.0
 41
2.5
 42
2.5
 43
2.5
 50
211.8265143005855
  0
MTEXT
  5
6398F
330
63975
100
AcDbEntity
  8
标注
 62
     0
440
 16777216
100
AcDbMText
 10
5938.84643605764
 20
3720.639613714993
 30
0.0
 40
30.0
 41
0.0
 46
0.0
 71
     5
 72
     1
  1
88
  7
黑体
 11
0.8496487469582628
 21
0.5273490369691158
 31
0.0
 73
     1
 44
1.0
  0
POINT
  5
63990
330
63975
100
AcDbEntity
  8
Defpoints
 62
     0
440
 16777216
100
AcDbPoint
 10
5979.396073317635
 20
3669.577698377841
 30
0.0
  0
POINT
  5
63991
330
63975
100
AcDbEntity
  8
Defpoints
 62
     0
440
 16777216
100
AcDbPoint
 10
5907.73873391647
 20
3625.102344226781
 30
0.0
  0
POINT
  5
63992
330
63975
100
AcDbEntity
  8
Defpoints
 62
     0
440
 16777216
100
AcDbPoint
 10
5907.545913193901
 20
3682.822456090914
 30
0.0
  0
ENDBLK
  5
63980
330
63975
100
AcDbEntity
  8
0
100
AcDbBlockEnd
  0
BLOCK
  5
63BF4
330
63BF3
100
AcDbEntity
  8
0
100
AcDbBlockBegin
  2
*D12
 70
     1
 10
0.0
 20
0.0
 30
0.0
  3
*D12
  1

  0
LINE
  5
63C49
330
63BF3
100
AcDbEntity
  8
标注
 62
     0
440
 16777216
370
    -2
100
AcDbLine
 10
4710.170238615461
 20
3540.85490082184
 30
0.0
 11
4710.170238615461
 21
3215.341682767512
 31
0.0
  0
LINE
  5
63C4A
330
63BF3
100
AcDbEntity
  8
标注
 62
     0
440
 16777216
370
    -2
100
AcDbLine
 10
4609.854516489835
 20
3315.069991654654
 30
0.0
 11
4609.854516489835
 21
3215.341682767512
 31
0.0
  0
LINE
  5
63C4B
330
63BF3
100
AcDbEntity
  8
标注
 62
     0
440
 16777216
370
    -2
100
AcDbLine
 10
4707.670238615461
 20
3216.591682767513
 30
0.0
 11
4612.354516489835
 21
3216.591682767513
 31
0.0
  0
INSERT
  5
63C4C
330
63BF3
100
AcDbEntity
  8
标注
 62
     0
440
 16777216
370
    -2
100
AcDbBlockReference
  2
_ClosedBlank
 10
4710.170238615461
 20
3216.591682767513
 30
0.0
 41
2.5
 42
2.5
 43
2.5
  0
INSERT
  5
63C4D
330
63BF3
100
AcDbEntity
  8
标注
 62
     0
440
 16777216
370
    -2
100
AcDbBlockReference
  2
_ClosedBlank
 10
4609.854516489835
 20
3216.591682767513
 30
0.0
 41
2.5
 42
2.5
 43
2.5
 50
180.0
  0
MTEXT
  5
63C4E
330
63BF3
100
AcDbEntity
  8
标注
 62
     0
440
 16777216
100
AcDbMText
 10
4681.481856579677
 20
3232.385222093355
 30
0.0
 40
30.0
 41
0.0
 46
0.0
 71
     5
 72
     1
  1
100
  7
黑体
 73
     1
 44
1.0
  0
POINT
  5
63C4F
330
63BF3
100
AcDbEntity
  8
Defpoints
 62
     0
440
 16777216
100
AcDbPoint
 10
4710.170238615461
 20
3541.47990082184
 30
0.0
  0
POINT
  5
63C50
330
63BF3
100
AcDbEntity
  8
Defpoints
 62
     0
440
 16777216
100
AcDbPoint
 10
4609.854516489835
 20
3315.694991654654
 30
0.0
  0
POINT
  5
63C51
330
63BF3
100
AcDbEntity
  8
Defpoints
 62
     0
440
 16777216
100
AcDbPoint
 10
4609.854516489835
 20
3216.591682767513
 30
0.0
  0
ENDBLK
  5
63BF5
330
63BF3
100
AcDbEntity
  8
0
100
AcDbBlockEnd
  0
BLOCK
  5
63C00
330
63BFF
100
AcDbEntity
  8
0
100
AcDbBlockBegin
  2
*D13
 70
     1
 10
0.0
 20
0.0
 30
0.0
  3
*D13
  1

  0
LINE
  5
63D6A
330
63BFF
100
AcDbEntity
  8
标注
 62
     0
440
 16777216
370
    -2
100
AcDbLine
 10
4507.958112530761
 20
3259.188997721962
 30
0.0
 11
4600.945111607919
 21
3350.696995355708
 31
0.0
  0
LINE
  5
63D6B
330
63BFF
100
AcDbEntity
  8
标注
 62
     0
440
 16777216
370
    -2
100
AcDbLine
 10
4618.763921371752
 20
3368.232388667539
 30
0.0
 11
4620.545802348135
 21
3369.985927998722
 31
0.0
  0
MTEXT
  5
63D6C
102
{ACAD_XDICTIONARY
360
63F61
102
}
330
63BFF
100
AcDbEntity
  8
标注
 62
     0
440
 16777216
100
AcDbMText
 10
4522.640143531559
 20
3299.224734476256
 30
0.0
 40
30.0
 41
0.0
 46
0.0
 71
     5
 72
     1
  1
∅20
  7
黑体
 11
0.7127523905531307
 21
0.7014157324731159
 31
0.0
 73
     1
 44
1.0
  0
LINE
  5
63D6D
330
63BFF
100
AcDbEntity
  8
标注
 62
     0
440
 16777216
370
    -2
100
AcDbLine
 10
4616.982040395369
 20
3366.478849336356
 30
0.0
 11
4602.726992584303
 21
3352.45053468689
 31
0.0
  0
INSERT
  5
63D6E
330
63BFF
100
AcDbEntity
  8
标注
 62
     0
440
 16777216
370
    -2
100
AcDbBlockReference
  2
_ClosedBlank
 10
4616.982040395369
 20
3366.478849336356
 30
0.0
 41
2.5
 42
2.5
 43
2.5
 50
224.5406990599985
  0
INSERT
  5
63D6F
330
63BFF
100
AcDbEntity
  8
标注
 62
     0
440
 16777216
370
    -2
100
AcDbBlockReference
  2
_ClosedBlank
 10
4602.726992584303
 20
3352.45053468689
 30
0.0
 41
2.5
 42
2.5
 43
2.5
 50
44.54069905999847
  0
POINT
  5
63D70
330
63BFF
100
AcDbEntity
  8
Defpoints
 62
     0
440
 16777216
100
AcDbPoint
 10
4602.726992584303
 20
3352.45053468689
 30
0.0
  0
POINT
  5
63D71
330
63BFF
100
AcDbEntity
  8
Defpoints
 62
     0
440
 16777216
100
AcDbPoint
 10
4616.982040395369
 20
3366.478849336356
 30
0.0
  0
ENDBLK
  5
63C01
330
63BFF
100
AcDbEntity
  8
0
100
AcDbBlockEnd
  0
BLOCK
  5
63E20
330
63E1F
100
AcDbEntity
  8
0
100
AcDbBlockBegin
  2
*D14
 70
     1
 10
0.0
 20
0.0
 30
0.0
  3
*D14
  1

  0
LINE
  5
63E57
330
63E1F
100
AcDbEntity
  8
标注
 62
     0
440
 16777216
370
    -2
100
AcDbLine
 10
5053.365179527571
 20
3039.073651013029
 30
0.0
 11
5053.365179527571
 21
3014.694593882197
 31
0.0
  0
LINE
  5
63E58
330
63E1F
100
AcDbEntity
  8
标注
 62
     0
440
 16777216
370
    -2
100
AcDbLine
 10
5066.365179527571
 20
3039.073651013028
 30
0.0
 11
5066.365179527571
 21
3014.694593882197
 31
0.0
  0
LINE
  5
63E59
330
63E1F
100
AcDbEntity
  8
标注
 62
     0
440
 16777216
370
    -2
100
AcDbLine
 10
5055.865179527572
 20
3015.944593882196
 30
0.0
 11
5063.865179527571
 21
3015.944593882196
 31
0.0
  0
LINE
  5
63E5A
330
63E1F
100
AcDbEntity
  8
标注
 62
     0
440
 16777216
370
    -2
100
AcDbLine
 10
5066.365179527571
 20
3015.944593882196
 30
0.0
 11
5107.193831212964
 21
3015.944593882196
 31
0.0
  0
INSERT
  5
63E5B
330
63E1F
100
AcDbEntity
  8
标注
 62
     0
440
 16777216
370
    -2
100
AcDbBlockReference
  2
_ClosedBlank
 10
5053.365179527571
 20
3015.944593882196
 30
0.0
 41
2.5
 42
2.5
 43
2.5
 50
180.0
  0
INSERT
  5
63E5C
330
63E1F
100
AcDbEntity
  8
标注
 62
     0
440
 16777216
370
    -2
100
AcDbBlockReference
  2
_ClosedBlank
 10
5066.365179527571
 20
3015.944593882196
 30
0.0
 41
2.5
 42
2.5
 43
2.5
  0
MTEXT
  5
63E5D
330
63E1F
100
AcDbEntity
  8
标注
 62
     0
440
 16777216
100
AcDbMText
 10
5088.029505370267
 20
3031.569593882196
 30
0.0
 40
30.0
 41
0.0
 46
0.0
 71
     5
 72
     1
  1
13
  7
黑体
 73
     1
 44
1.0
  0
POINT
  5
63E5E
330
63E1F
100
AcDbEntity
  8
Defpoints
 62
     0
440
 16777216
100
AcDbPoint
 10
5053.365179527571
 20
3039.698651013029
 30
0.0
  0
POINT
  5
63E5F
330
63E1F
100
AcDbEntity
  8
Defpoints
 62
     0
440
 16777216
100
AcDbPoint
 10
5066.365179527571
 20
3039.698651013028
 30
0.0
  0
POINT
  5
63E60
330
63E1F
100
AcDbEntity
  8
Defpoints
 62
     0
440
 16777216
100
AcDbPoint
 10
5066.365179527571
 20
3015.944593882196
 30
0.0
  0
ENDBLK
  5
63E21
330
63E1F
100
AcDbEntity
  8
0
100
AcDbBlockEnd
  0
BLOCK
  5
63E2D
330
63E2C
100
AcDbEntity
  8
0
100
AcDbBlockBegin
  2
*D15
 70
     1
 10
0.0
 20
0.0
 30
0.0
  3
*D15
  1

  0
LINE
  5
63E88
330
63E2C
100
AcDbEntity
  8
标注
 62
     0
440
 16777216
370
    -2
100
AcDbLine
 10
4823.52813339243
 20
3303.920129453147
 30
0.0
 11
4980.214342248604
 21
3171.441950380459
 31
0.0
  0
LINE
  5
63E89
330
63E2C
100
AcDbEntity
  8
标注
 62
     0
440
 16777216
370
    -2
100
AcDbLine
 10
5008.31601680654
 20
3147.681986427628
 30
0.0
 11
5010.225097958573
 21
3146.067858441702
 31
0.0
  0
MTEXT
  5
63E8A
102
{ACAD_XDICTIONARY
360
63F65
102
}
330
63E2C
100
AcDbEntity
  8
标注
 62
     0
440
 16777216
100
AcDbMText
 10
4881.093458146235
 20
3279.020676156307
 30
0.0
 40
30.0
 41
0.0
 46
0.0
 71
     5
 72
     1
  1
∅31.8
  7
黑体
 11
0.7636324608134717
 21
-0.6456511943704291
 31
0.0
 73
     1
 44
1.0
  0
LINE
  5
63E8B
330
63E2C
100
AcDbEntity
  8
标注
 62
     0
440
 16777216
370
    -2
100
AcDbLine
 10
5006.406935654506
 20
3149.296114413554
 30
0.0
 11
4982.123423400638
 21
3169.827822394534
 31
0.0
  0
INSERT
  5
63E8C
330
63E2C
100
AcDbEntity
  8
标注
 62
     0
440
 16777216
370
    -2
100
AcDbBlockReference
  2
_ClosedBlank
 10
5006.406935654506
 20
3149.296114413554
 30
0.0
 41
2.5
 42
2.5
 43
2.5
 50
139.785482640702
  0
INSERT
  5
63E8D
330
63E2C
100
AcDbEntity
  8
标注
 62
     0
440
 16777216
370
    -2
100
AcDbBlockReference
  2
_ClosedBlank
 10
4982.123423400638
 20
3169.827822394534
 30
0.0
 41
2.5
 42
2.5
 43
2.5
 50
319.785482640702
  0
POINT
  5
63E8E
330
63E2C
100
AcDbEntity
  8
Defpoints
 62
     0
440
 16777216
100
AcDbPoint
 10
4982.123423400638
 20
3169.827822394534
 30
0.0
  0
POINT
  5
63E8F
330
63E2C
100
AcDbEntity
  8
Defpoints
 62
     0
440
 16777216
100
AcDbPoint
 10
5006.406935654506
 20
3149.296114413554
 30
0.0
  0
ENDBLK
  5
63E2E
330
63E2C
100
AcDbEntity
  8
0
100
AcDbBlockEnd
  0
BLOCK
  5
63E38
330
63E37
100
AcDbEntity
  8
0
100
AcDbBlockBegin
  2
*D16
 70
     1
 10
0.0
 20
0.0
 30
0.0
  3
*D16
  1

  0
LINE
  5
63E80
330
63E37
100
AcDbEntity
  8
标注
 62
     0
440
 16777216
370
    -2
100
AcDbLine
 10
4780.727005844426
 20
3074.123478032025
 30
0.0
 11
4978.203135136764
 21
3153.135404004017
 31
0.0
  0
LINE
  5
63E81
330
63E37
100
AcDbEntity
  8
标注
 62
     0
440
 16777216
370
    -2
100
AcDbLine
 10
5010.327223918381
 20
3165.988532804071
 30
0.0
 11
5012.648328599135
 21
3166.917227081533
 31
0.0
  0
MTEXT
  5
63E82
102
{ACAD_XDICTIONARY
360
63F63
102
}
330
63E37
100
AcDbEntity
  8
标注
 62
     0
440
 16777216
100
AcDbMText
 10
4830.270326073926
 20
3113.498403023776
 30
0.0
 40
30.0
 41
0.0
 46
0.0
 71
     5
 72
     1
  1
∅29.6
  7
黑体
 11
0.9284418723010592
 21
0.3714777109842577
 31
0.0
 73
     1
 44
1.0
  0
LINE
  5
63E83
330
63E37
100
AcDbEntity
  8
标注
 62
     0
440
 16777216
370
    -2
100
AcDbLine
 10
5008.006119237629
 20
3165.059838526611
 30
0.0
 11
4980.524239817516
 21
3154.064098281477
 31
0.0
  0
INSERT
  5
63E84
330
63E37
100
AcDbEntity
  8
标注
 62
     0
440
 16777216
370
    -2
100
AcDbBlockReference
  2
_ClosedBlank
 10
5008.006119237629
 20
3165.059838526611
 30
0.0
 41
2.5
 42
2.5
 43
2.5
 50
201.8067804456114
  0
INSERT
  5
63E85
330
63E37
100
AcDbEntity
  8
标注
 62
     0
440
 16777216
370
    -2
100
AcDbBlockReference
  2
_ClosedBlank
 10
4980.524239817516
 20
3154.064098281477
 30
0.0
 41
2.5
 42
2.5
 43
2.5
 50
21.80678044561143
  0
POINT
  5
63E86
330
63E37
100
AcDbEntity
  8
Defpoints
 62
     0
440
 16777216
100
AcDbPoint
 10
4980.524239817516
 20
3154.064098281477
 30
0.0
  0
POINT
  5
63E87
330
63E37
100
AcDbEntity
  8
Defpoints
 62
     0
440
 16777216
100
AcDbPoint
 10
5008.006119237629
 20
3165.059838526611
 30
0.0
  0
ENDBLK
  5
63E39
330
63E37
100
AcDbEntity
  8
0
100
AcDbBlockEnd
  0
BLOCK
  5
63E43
330
63E42
100
AcDbEntity
  8
0
100
AcDbBlockBegin
  2
*D17
 70
     1
 10
0.0
 20
0.0
 30
0.0
  3
*D17
  1

  0
LINE
  5
63E71
330
63E42
100
AcDbEntity
  8
标注
 62
     0
440
 16777216
370
    -2
100
AcDbLine
 10
4932.980550613942
 20
3086.706906570864
 30
0.0
 11
4994.663731930941
 21
3109.046582332515
 31
0.0
  0
MTEXT
  5
63E72
330
63E42
100
AcDbEntity
  8
标注
 62
     0
440
 16777216
100
AcDbMText
 10
4957.326167728865
 20
3112.142278185873
 30
0.0
 40
30.0
 41
0.0
 46
0.0
 71
     5
 72
     1
  1
R46
  7
黑体
 11
0.94023603292021
 21
0.3405234241553228
 31
0.0
 73
     1
 44
1.0
  0
LINE
  5
63E73
330
63E42
100
AcDbEntity
  8
标注
 62
     0
440
 16777216
370
    -2
100
AcDbLine
 10
5040.265179527567
 20
3125.561968404046
 30
0.0
 11
4997.014322013243
 21
3109.897890892903
 31
0.0
  0
INSERT
  5
63E74
330
63E42
100
AcDbEntity
  8
标注
 62
     0
440
 16777216
370
    -2
100
AcDbBlockReference
  2
_ClosedBlank
 10
4997.014322013243
 20
3109.897890892903
 30
0.0
 41
2.5
 42
2.5
 43
2.5
 50
19.90876709784824
  0
POINT
  5
63E75
330
63E42
100
AcDbEntity
  8
Defpoints
 62
     0
440
 16777216
100
AcDbPoint
 10
4997.014322013243
 20
3109.897890892903
 30
0.0
  0
POINT
  5
63E76
330
63E42
100
AcDbEntity
  8
Defpoints
 62
     0
440
 16777216
100
AcDbPoint
 10
5040.265179527567
 20
3125.561968404046
 30
0.0
  0
ENDBLK
  5
63E44
330
63E42
100
AcDbEntity
  8
0
100
AcDbBlockEnd
  0
BLOCK
  5
63E4C
330
63E4B
100
AcDbEntity
  8
0
100
AcDbBlockBegin
  2
*D18
 70
     1
 10
0.0
 20
0.0
 30
0.0
  3
*D18
  1

  0
LINE
  5
63E77
330
63E4B
100
AcDbEntity
  8
标注
 62
     0
440
 16777216
370
    -2
100
AcDbLine
 10
5066.990179527572
 20
3159.561968404045
 30
0.0
 11
5107.018579483554
 21
3159.561968404045
 31
0.0
  0
LINE
  5
63E78
330
63E4B
100
AcDbEntity
  8
标注
 62
     0
440
 16777216
370
    -2
100
AcDbLine
 10
5066.990179527572
 20
3079.561968404045
 30
0.0
 11
5107.018579483554
 21
3079.561968404045
 31
0.0
  0
LINE
  5
63E79
330
63E4B
100
AcDbEntity
  8
标注
 62
     0
440
 16777216
370
    -2
100
AcDbLine
 10
5105.768579483553
 20
3157.061968404045
 30
0.0
 11
5105.768579483553
 21
3082.061968404045
 31
0.0
  0
INSERT
  5
63E7A
330
63E4B
100
AcDbEntity
  8
标注
 62
     0
440
 16777216
370
    -2
100
AcDbBlockReference
  2
_ClosedBlank
 10
5105.768579483553
 20
3159.561968404045
 30
0.0
 41
2.5
 42
2.5
 43
2.5
 50
90.0
  0
INSERT
  5
63E7B
330
63E4B
100
AcDbEntity
  8
标注
 62
     0
440
 16777216
370
    -2
100
AcDbBlockReference
  2
_ClosedBlank
 10
5105.768579483553
 20
3079.561968404045
 30
0.0
 41
2.5
 42
2.5
 43
2.5
 50
270.0
  0
MTEXT
  5
63E7C
330
63E4B
100
AcDbEntity
  8
标注
 62
     0
440
 16777216
100
AcDbMText
 10
5089.975040157709
 20
3119.561968404046
 30
0.0
 40
30.0
 41
0.0
 46
0.0
 71
     5
 72
     1
  1
80
  7
黑体
 11
0.0000000000000001
 21
1.0
 31
0.0
 73
     1
 44
1.0
  0
POINT
  5
63E7D
330
63E4B
100
AcDbEntity
  8
Defpoints
 62
     0
440
 16777216
100
AcDbPoint
 10
5066.365179527572
 20
3159.561968404045
 30
0.0
  0
POINT
  5
63E7E
330
63E4B
100
AcDbEntity
  8
Defpoints
 62
     0
440
 16777216
100
AcDbPoint
 10
5066.365179527572
 20
3079.561968404045
 30
0.0
  0
POINT
  5
63E7F
330
63E4B
100
AcDbEntity
  8
Defpoints
 62
     0
440
 16777216
100
AcDbPoint
 10
5105.768579483553
 20
3079.561968404045
 30
0.0
  0
ENDBLK
  5
63E4D
330
63E4B
100
AcDbEntity
  8
0
100
AcDbBlockEnd
  0
ENDSEC
  0
SECTION
  2
ENTITIES
  0
HATCH
  5
47A0
330
2
100
AcDbEntity
  8
标注
100
AcDbHatch
 10
0.0
 20
0.0
 30
0.0
210
0.0
220
0.0
230
1.0
  2
ANSI31
 70
     0
 71
     0
 91
        1
 92
        7
 72
     0
 73
     1
 93
        6
 10
808.9637528631646
 20
341.4077636669027
 10
807.9637528631646
 20
340.4077636669027
 10
807.9637528631646
 20
340.3827697704183
 10
808.9637528631646
 20
340.3827697704183
 10
817.9637528631646
 20
340.3827697704183
 10
817.9637528631646
 20
341.4077636669027
 97
        0
 75
     0
 76
     1
 52
0.0
 41
1.0
 77
     0
 78
     1
 53
45.0
 43
0.0
 44
0.0
 45
-57.02462636878911
 46
57.02462636878912
 79
     0
 47
0.0
 98
        2
 10
811.6304195298312
 20
290.00483008513
 10
814.540916511757
 20
290.1885128832553
  0
HATCH
  5
47AF
330
2
100
AcDbEntity
  8
标注
100
AcDbHatch
 10
0.0
 20
0.0
 30
0.0
210
0.0
220
0.0
230
1.0
  2
ANSI31
 70
     0
 71
     0
 91
        1
 92
        7
 72
     0
 73
     1
 93
        6
 10
807.9637528631646
 20
340.4077636669027
 10
807.9637528631646
 20
340.3827697704183
 10
808.9637528631646
 20
340.3827697704183
 10
817.9637528631646
 20
340.3827697704183
 10
817.9637528631646
 20
341.4077636669027
 10
808.9637528631646
 20
341.4077636669027
 97
        0
 75
     0
 76
     1
 52
0.0
 41
1.0
 77
     0
 78
     1
 53
45.0
 43
0.0
 44
0.0
 45
-57.02462636878911
 46
57.02462636878912
 79
     0
 47
0.0
 98
        2
 10
811.6304195298312
 20
290.00483008513
 10
815.1155934479202
 20
290.0208102015142
  0
HATCH
  5
47C4
330
2
100
AcDbEntity
  8
标注
100
AcDbHatch
 10
0.0
 20
0.0
 30
0.0
210
0.0
220
0.0
230
1.0
  2
ANSI31
 70
     0
 71
     0
 91
        1
 92
        7
 72
     0
 73
     1
 93
        6
 10
807.9637528631646
 20
340.4077636669027
 10
807.9637528631646
 20
340.3827697704183
 10
808.9637528631646
 20
340.3827697704183
 10
817.9637528631646
 20
340.3827697704183
 10
817.9637528631646
 20
341.4077636669027
 10
808.9637528631646
 20
341.4077636669027
 97
        0
 75
     0
 76
     1
 52
0.0
 41
1.0
 77
     0
 78
     1
 53
45.0
 43
0.0
 44
0.0
 45
-57.02462636878911
 46
57.02462636878912
 79
     0
 47
0.0
 98
        2
 10
811.6304195298312
 20
290.00483008513
 10
811.6304195298312
 20
290.00483008513
  0
HATCH
  5
7FDE
330
2
100
AcDbEntity
  8
剖面线
100
AcDbHatch
 10
0.0
 20
0.0
 30
0.0
210
0.0
220
0.0
230
1.0
  2
ANSI31
 70
     0
 71
     1
 91
        0
 75
     0
 76
     1
 52
0.0
 41
0.25
 77
     0
 78
     1
 53
45.0
 43
0.0
 44
0.0
 45
-0.5612660075668221
 46
0.5612660075668221
 79
     0
 98
        1
 10
267.1978866720704
 20
1009.396111914461
  0
HATCH
  5
807B
330
2
100
AcDbEntity
  8
剖面线
100
AcDbHatch
 10
0.0
 20
0.0
 30
0.0
210
0.0
220
0.0
230
1.0
  2
ANSI31
 70
     0
 71
     1
 91
        0
 75
     0
 76
     1
 52
0.0
 41
0.25
 77
     0
 78
     1
 53
45.0
 43
0.0
 44
0.0
 45
-0.5612660075668221
 46
0.5612660075668221
 79
     0
 98
        1
 10
260.9063311437414
 20
1015.611866868925
  0
HATCH
  5
80BB
330
2
100
AcDbEntity
  8
0
100
AcDbHatch
 10
0.0
 20
0.0
 30
0.0
210
0.0
220
0.0
230
1.0
  2
ANSI31
 70
     0
 71
     1
 91
        0
 75
     0
 76
     1
 52
0.0
 41
0.25
 77
     0
 78
     1
 53
45.0
 43
0.0
 44
0.0
 45
-0.5612660075668221
 46
0.5612660075668221
 79
     0
 98
        1
 10
0.0
 20
0.0
  0
HATCH
  5
8127
330
2
100
AcDbEntity
  8
0
100
AcDbHatch
 10
0.0
 20
0.0
 30
0.0
210
0.0
220
0.0
230
1.0
  2
ANSI31
 70
     0
 71
     1
 91
        0
 75
     0
 76
     1
 52
0.0
 41
0.25
 77
     0
 78
     1
 53
45.0
 43
0.0
 44
0.0
 45
-0.5612660075668221
 46
0.5612660075668221
 79
     0
 98
        1
 10
0.0
 20
0.0
  0
HATCH
  5
8151
330
2
100
AcDbEntity
  8
0
100
AcDbHatch
 10
0.0
 20
0.0
 30
0.0
210
0.0
220
0.0
230
1.0
  2
ANSI31
 70
     0
 71
     1
 91
        0
 75
     0
 76
     1
 52
0.0
 41
0.25
 77
     0
 78
     1
 53
45.0
 43
0.0
 44
0.0
 45
-0.5612660075668221
 46
0.5612660075668221
 79
     0
 98
        1
 10
0.0
 20
0.0
  0
HATCH
  5
8184
330
2
100
AcDbEntity
  8
剖面线
100
AcDbHatch
 10
0.0
 20
0.0
 30
0.0
210
0.0
220
0.0
230
1.0
  2
ANSI31
 70
     0
 71
     0
 91
        0
 75
     0
 76
     1
 52
0.0
 41
0.25
 77
     0
 78
     1
 53
45.00000000000436
 43
1662.819978524104
 44
0.3206117319112991
 45
-0.5612660075669284
 46
0.5612660075668221
 79
     0
 98
        2
 10
2060.042234542995
 20
923.3992186555811
 10
2042.482776698473
 20
923.3050660666023
  0
HATCH
  5
81A8
330
2
100
AcDbEntity
  8
0
100
AcDbHatch
 10
0.0
 20
0.0
 30
0.0
210
0.0
220
0.0
230
1.0
  2
ANSI31
 70
     0
 71
     1
 91
        0
 75
     0
 76
     1
 52
0.0
 41
0.1
 77
     0
 78
     1
 53
45.0
 43
0.0
 44
0.0
 45
-0.2245064030267288
 46
0.2245064030267288
 79
     0
 98
        1
 10
0.0
 20
0.0
  0
HATCH
  5
81BF
330
2
100
AcDbEntity
  8
0
100
AcDbHatch
 10
0.0
 20
0.0
 30
0.0
210
0.0
220
0.0
230
1.0
  2
ANSI31
 70
     0
 71
     1
 91
        0
 75
     0
 76
     1
 52
0.0
 41
0.1
 77
     0
 78
     1
 53
45.0
 43
0.0
 44
0.0
 45
-0.2245064030267288
 46
0.2245064030267288
 79
     0
 98
        1
 10
0.0
 20
0.0
  0
HATCH
  5
81C7
330
2
100
AcDbEntity
  8
0
100
AcDbHatch
 10
0.0
 20
0.0
 30
0.0
210
0.0
220
0.0
230
1.0
  2
ANSI31
 70
     0
 71
     1
 91
        0
 75
     0
 76
     1
 52
0.0
 41
0.25
 77
     0
 78
     1
 53
45.0
 43
0.0
 44
0.0
 45
-0.5612660075668221
 46
0.5612660075668221
 79
     0
 98
        1
 10
0.0
 20
0.0
  0
HATCH
  5
8D7A
330
2
100
AcDbEntity
  8
标注
100
AcDbHatch
 10
0.0
 20
0.0
 30
0.0
210
0.0
220
0.0
230
1.0
  2
ANSI31
 70
     0
 71
     0
 91
        1
 92
       10
 72
     0
 73
     1
 93
        4
 10
2048.785847868912
 20
971.5216843808956
 10
2048.785847868912
 20
966.6558651718558
 10
2053.651667077952
 20
966.6558651718558
 10
2053.651667077952
 20
971.5216843808956
 97
        0
 75
     0
 76
     1
 52
0.0
 41
0.25
 77
     0
 78
     1
 53
45.0
 43
0.0
 44
0.0
 45
-0.5612660075668221
 46
0.5612660075668221
 79
     0
 98
        1
 10
0.0
 20
0.0
  0
HATCH
  5
8ED7
330
2
100
AcDbEntity
  8
标注
100
AcDbHatch
 10
0.0
 20
0.0
 30
0.0
210
0.0
220
0.0
230
1.0
  2
ANSI31
 70
     0
 71
     1
 91
        0
 75
     0
 76
     1
 52
0.0
 41
0.25
 77
     0
 78
     1
 53
45.0
 43
0.0
 44
0.0
 45
-0.5612660075668221
 46
0.5612660075668221
 79
     0
 98
        1
 10
0.0
 20
0.0
  0
MTEXT
  5
47027
330
2
100
AcDbEntity
  8
标注
100
AcDbMText
 10
851.2901663856801
 20
335.199601009439
 30
0.0
 40
6.0
 41
13.70396488517739
 46
0.0
 71
     1
 72
     1
  1

 73
     1
 44
1.0
  0
LINE
  5
62201
330
2
100
AcDbEntity
  8
中心线
100
AcDbLine
 10
3737.952850089275
 20
3442.10490082184
 30
0.0
 11
4654.854516489835
 21
3442.10490082184
 31
0.0
  0
LINE
  5
6220F
330
2
100
AcDbEntity
  8
中心线
100
AcDbLine
 10
4709.854516489835
 20
3497.10490082184
 30
0.0
 11
4709.854516489836
 21
4078.19915423476
 31
0.0
  0
ARC
  5
62210
330
2
100
AcDbEntity
  8
中心线
100
AcDbCircle
 10
4654.854516489835
 20
3497.10490082184
 30
0.0
 40
55.0
100
AcDbArc
 50
270.0
 51
0.0
  0
LINE
  5
62212
330
2
100
AcDbEntity
  8
0
100
AcDbLine
 10
3769.854516489836
 20
3458.00490082184
 30
0.0
 11
4654.854516489835
 21
3458.00490082184
 31
0.0
  0
LINE
  5
62213
330
2
100
AcDbEntity
  8
0
100
AcDbLine
 10
3769.854516489836
 20
3426.20490082184
 30
0.0
 11
4654.854516489835
 21
3426.20490082184
 31
0.0
  0
LINE
  5
62214
330
2
100
AcDbEntity
  8
0
100
AcDbLine
 10
4693.954516489835
 20
3497.10490082184
 30
0.0
 11
4693.954516489838
 21
4042.104900821839
 31
0.0
  0
LINE
  5
62215
330
2
100
AcDbEntity
  8
0
100
AcDbLine
 10
4725.754516489835
 20
3497.10490082184
 30
0.0
 11
4725.754516489836
 21
4042.104900821839
 31
0.0
  0
ARC
  5
62216
330
2
100
AcDbEntity
  8
0
100
AcDbCircle
 10
4654.854516489835
 20
3497.10490082184
 30
0.0
 40
39.1
100
AcDbArc
 50
270.0
 51
0.0
  0
ARC
  5
62217
330
2
100
AcDbEntity
  8
0
100
AcDbCircle
 10
4654.854516489835
 20
3497.10490082184
 30
0.0
 40
70.9
100
AcDbArc
 50
270.0
 51
0.0
  0
ARC
  5
62218
330
2
100
AcDbEntity
  8
0
100
AcDbCircle
 10
4709.854516489836
 20
4042.104900821839
 30
0.0
 40
15.89999999999963
100
AcDbArc
 50
0.0
 51
180.0
  0
ARC
  5
62219
330
2
100
AcDbEntity
  8
0
100
AcDbCircle
 10
4709.854516489836
 20
4042.104900821839
 30
0.0
 40
28.5
100
AcDbArc
 50
303.910329442754
 51
236.0896705572447
  0
LINE
  5
62222
330
2
100
AcDbEntity
  8
中心线
100
AcDbLine
 10
4709.854516489835
 20
4364.391465174613
 30
0.0
 11
4709.854516489835
 21
4237.878057817462
 31
0.0
  0
LINE
  5
62223
330
2
100
AcDbEntity
  8
中心线
100
AcDbLine
 10
3708.688096477295
 20
4260.664362623522
 30
0.0
 11
4735.004528816316
 21
4260.664362623524
 31
0.0
  0
LINE
  5
62227
330
2
100
AcDbEntity
  8
0
100
AcDbLine
 10
3769.854516489838
 20
4276.564362623522
 30
0.0
 11
4599.955542362578
 21
4276.564362623524
 31
0.0
  0
LINE
  5
6222A
330
2
100
AcDbEntity
  8
0
100
AcDbLine
 10
3769.854516489838
 20
4244.764362623523
 30
0.0
 11
4709.854516489833
 21
4244.764362623524
 31
0.0
  0
LINE
  5
6223B
330
2
100
AcDbEntity
  8
0
100
AcDbLine
 10
4681.354516489832
 20
4348.664362623523
 30
0.0
 11
4709.854516489829
 21
4348.664362623522
 31
0.0
  0
LINE
  5
6223C
330
2
100
AcDbEntity
  8
0
100
AcDbLine
 10
4738.354516489829
 20
4348.664362623523
 30
0.0
 11
4709.854516489832
 21
4348.664362623522
 31
0.0
  0
LINE
  5
6223D
330
2
100
AcDbEntity
  8
0
100
AcDbLine
 10
4681.354516489832
 20
4348.664362623523
 30
0.0
 11
4681.354516489832
 21
4335.664362623524
 31
0.0
  0
LINE
  5
6223F
330
2
100
AcDbEntity
  8
0
100
AcDbLine
 10
4738.354516489829
 20
4335.33969718193
 30
0.0
 11
4738.430412251051
 21
4348.664362623522
 31
0.0
  0
LINE
  5
62240
330
2
100
AcDbEntity
  8
0
100
AcDbLine
 10
4681.354516489832
 20
4335.664362623524
 30
0.0
 11
4738.354516489829
 21
4335.33969718193
 31
0.0
  0
ARC
  5
62243
330
2
100
AcDbEntity
  8
0
100
AcDbCircle
 10
4709.854516489835
 20
4260.664362623524
 30
0.0
 40
15.90000000000009
100
AcDbArc
 50
179.3473067228543
 51
0.0
  0
LINE
  5
6224D
330
2
100
AcDbEntity
  8
0
100
AcDbLine
 10
4693.954516489835
 20
4260.664362623524
 30
0.0
 11
4694.381285231524
 21
4335.590163647627
 31
0.0
  0
LINE
  5
6224E
330
2
100
AcDbEntity
  8
0
100
AcDbLine
 10
4725.754516489835
 20
4260.664362623524
 30
0.0
 11
4726.180253574246
 21
4335.409040382729
 31
0.0
  0
LINE
  5
62252
330
2
100
AcDbEntity
  8
中心线
100
AcDbLine
 10
3425.371123121782
 20
4042.104900821839
 30
0.0
 11
3478.757241010931
 21
4042.104900821839
 31
0.0
  0
LINE
  5
62253
330
2
100
AcDbEntity
  8
中心线
100
AcDbLine
 10
3499.56493232337
 20
3442.10490082184
 30
0.0
 11
3562.945737380007
 21
3442.10490082184
 31
0.0
  0
LINE
  5
62255
330
2
100
AcDbEntity
  8
中心线
100
AcDbLine
 10
3533.757241010932
 20
3987.104900821839
 30
0.0
 11
3533.757241010932
 21
3392.627613911391
 31
0.0
  0
ARC
  5
62256
330
2
100
AcDbEntity
  8
中心线
100
AcDbCircle
 10
3478.757241010931
 20
3987.104900821839
 30
0.0
 40
55.0
100
AcDbArc
 50
0.0
 51
90.0
  0
ARC
  5
62258
330
2
100
AcDbEntity
  8
0
100
AcDbCircle
 10
3478.757241010931
 20
3987.104900821839
 30
0.0
 40
39.1
100
AcDbArc
 50
0.0
 51
90.0
  0
LINE
  5
62259
330
2
100
AcDbEntity
  8
0
100
AcDbLine
 10
3517.857241010932
 20
3987.104900821839
 30
0.0
 11
3517.857241010931
 21
3552.104900821841
 31
0.0
  0
ARC
  5
6225B
330
2
100
AcDbEntity
  8
0
100
AcDbCircle
 10
3478.757241010931
 20
3987.104900821839
 30
0.0
 40
70.9
100
AcDbArc
 50
0.0
 51
90.0
  0
LINE
  5
6225C
330
2
100
AcDbEntity
  8
0
100
AcDbLine
 10
3549.657241010931
 20
3987.104900821839
 30
0.0
 11
3549.65724101093
 21
3465.757384835153
 31
0.0
  0
LINE
  5
62260
330
2
100
AcDbEntity
  8
0
100
AcDbLine
 10
3445.75724101093
 20
4070.60490082184
 30
0.0
 11
3458.757241010932
 21
4070.60490082184
 31
0.0
  0
LINE
  5
62262
330
2
100
AcDbEntity
  8
0
100
AcDbLine
 10
3445.757241010932
 20
4042.104900821839
 30
0.0
 11
3445.757241010932
 21
4070.60490082184
 31
0.0
  0
LINE
  5
62263
330
2
100
AcDbEntity
  8
0
100
AcDbLine
 10
3458.757241010932
 20
4042.104900821839
 30
0.0
 11
3458.757241010932
 21
4070.60490082184
 31
0.0
  0
LINE
  5
62264
330
2
100
AcDbEntity
  8
0
100
AcDbLine
 10
3458.757241010932
 20
4058.004900821838
 30
0.0
 11
3478.757241010931
 21
4058.004900821839
 31
0.0
  0
LINE
  5
62265
330
2
100
AcDbEntity
  8
0
100
AcDbLine
 10
3445.757241010932
 20
4042.104900821839
 30
0.0
 11
3445.757241010932
 21
4013.604900821838
 31
0.0
  0
LINE
  5
62266
330
2
100
AcDbEntity
  8
0
100
AcDbLine
 10
3458.757241010932
 20
4042.104900821839
 30
0.0
 11
3458.757241010932
 21
4013.604900821838
 31
0.0
  0
LINE
  5
62267
330
2
100
AcDbEntity
  8
0
100
AcDbLine
 10
3445.75724101093
 20
4013.604900821838
 30
0.0
 11
3458.757241010932
 21
4013.604900821838
 31
0.0
  0
LINE
  5
62268
330
2
100
AcDbEntity
  8
0
100
AcDbLine
 10
3458.757241010932
 20
4026.204900821839
 30
0.0
 11
3478.757241010931
 21
4026.204900821839
 31
0.0
  0
LINE
  5
62269
330
2
100
AcDbEntity
  8
中心线
100
AcDbLine
 10
3445.75724101093
 20
4013.604900821838
 30
0.0
 11
3445.75724101093
 21
3400.0
 31
0.0
  0
LINE
  5
6227F
330
2
100
AcDbEntity
  8
0
100
AcDbLine
 10
3517.857241010931
 20
3532.10490082184
 30
0.0
 11
3517.857241010931
 21
3465.757384835151
 31
0.0
  0
LINE
  5
62289
330
2
100
AcDbEntity
  8
中心线
100
AcDbLine
 10
4676.122280553692
 20
4042.104900821839
 30
0.0
 11
4745.554065342155
 21
4042.104900821839
 31
0.0
  0
DIMENSION
  5
6228A
330
2
100
AcDbEntity
  8
标注
100
AcDbDimension
280
     0
  2
*D1
 10
4853.958106639161
 20
3442.10490082184
 30
0.0
 11
4838.333106639161
 21
3742.10490082184
 31
0.0
 70
    32
 71
     5
 42
600.0
 73
     0
 74
     0
 75
     0
  3
线性标注
100
AcDbAlignedDimension
 13
4738.354516489837
 23
4042.104900821839
 33
0.0
 14
4641.627848297372
 24
3442.10490082184
 34
0.0
 50
90.0
100
AcDbRotatedDimension
  0
DIMENSION
  5
622D6
330
2
100
AcDbEntity
  8
标注
100
AcDbDimension
280
     0
  2
*D2
 10
3445.757241010932
 20
3960.823506029618
 30
0.0
 11
3424.092915168235
 21
3960.823506029618
 31
0.0
 70
   160
 71
     5
 42
13.0
 73
     0
 74
     0
 75
     0
  3
线性标注
100
AcDbAlignedDimension
 13
3458.757241010932
 23
4013.604900821838
 33
0.0
 14
3445.757241010932
 24
4013.604900821838
 34
0.0
100
AcDbRotatedDimension
  0
DIMENSION
  5
622E4
330
2
100
AcDbEntity
  8
标注
100
AcDbDimension
280
     0
  2
*D3
 10
3549.657241010931
 20
4092.308456840119
 30
0.0
 11
3497.707241010932
 21
4107.933456840119
 31
0.0
 70
    32
  1
88
 71
     5
 42
103.8999999999996
 73
     0
 74
     0
 75
     0
  3
线性标注
100
AcDbAlignedDimension
 13
3445.757241010932
 23
4070.60490082184
 33
0.0
 14
3549.657241010931
 24
3987.104900821839
 34
0.0
100
AcDbRotatedDimension
  0
DIMENSION
  5
6230B
330
2
100
AcDbEntity
  8
标注
100
AcDbDimension
280
     0
  2
*D4
 10
4654.854516489836
 20
3497.104900821835
 30
0.0
 11
4768.400282076544
 21
3386.944501011033
 31
0.0
 70
   164
 71
     5
 42
54.99999999999591
 73
     0
 74
     0
 75
     0
  3
线性标注
100
AcDbRadialDimension
 15
4694.329408755243
 25
3458.806952043421
 35
0.0
 40
0.0
1001
ACAD
1000
DSTYLE
1002
{
1070
   288
1070
     1
1002
}
1001
ACAD_DSTYLE_DIMRADIAL_EXTENSION
1070
   387
1070
     1
1070
   388
1040
4.712388980384689
1070
   390
1040
0.0
  0
DIMENSION
  5
6231F
330
2
100
AcDbEntity
  8
标注
100
AcDbDimension
280
     0
  2
*D5
 10
3478.757241010938
 20
3987.104900821838
 30
0.0
 11
3614.073707384803
 21
4051.845607468144
 31
0.0
 70
   164
 71
     5
 42
54.99999999999454
 73
     0
 74
     0
 75
     0
  3
线性标注
100
AcDbRadialDimension
 15
3528.371178216174
 25
4010.842154980529
 35
0.0
 40
0.0
1001
ACAD
1000
DSTYLE
1002
{
1070
   288
1070
     1
1002
}
1001
ACAD_DSTYLE_DIMRADIAL_EXTENSION
1070
   387
1070
     1
1070
   388
1040
0.0
1070
   390
1040
1.570796326794896
  0
LINE
  5
6242C
330
2
100
AcDbEntity
  8
0
100
AcDbLine
 10
3769.854516489836
 20
3470.60490082184
 30
0.0
 11
3769.854516489836
 21
3413.60490082184
 31
0.0
  0
LINE
  5
62430
330
2
100
AcDbEntity
  8
0
100
AcDbLine
 10
3769.854516489836
 20
3470.60490082184
 30
0.0
 11
3756.854516489836
 21
3470.60490082184
 31
0.0
  0
LINE
  5
62431
330
2
100
AcDbEntity
  8
0
100
AcDbLine
 10
3769.854516489836
 20
3413.60490082184
 30
0.0
 11
3756.854516489836
 21
3413.60490082184
 31
0.0
  0
LINE
  5
62432
330
2
100
AcDbEntity
  8
0
100
AcDbLine
 10
3756.854516489836
 20
3470.60490082184
 30
0.0
 11
3756.854516489836
 21
3413.60490082184
 31
0.0
  0
LINE
  5
62435
330
2
100
AcDbEntity
  8
0
100
AcDbLine
 10
3756.854516489838
 20
4289.164362623522
 30
0.0
 11
3756.854516489838
 21
4232.164362623523
 31
0.0
  0
LINE
  5
62437
330
2
100
AcDbEntity
  8
0
100
AcDbLine
 10
3769.854516489838
 20
4289.164362623522
 30
0.0
 11
3769.854516489838
 21
4232.164362623523
 31
0.0
  0
LINE
  5
62438
330
2
100
AcDbEntity
  8
0
100
AcDbLine
 10
3756.854516489838
 20
4289.164362623522
 30
0.0
 11
3769.854516489838
 21
4289.164362623522
 31
0.0
  0
LINE
  5
62439
330
2
100
AcDbEntity
  8
0
100
AcDbLine
 10
3756.854516489838
 20
4232.164362623523
 30
0.0
 11
3769.854516489838
 21
4232.164362623523
 31
0.0
  0
ARC
  5
6243B
330
2
100
AcDbEntity
  8
0
100
AcDbCircle
 10
3533.757241010932
 20
3442.10490082184
 30
0.0
 40
28.5
100
AcDbArc
 50
123.910329442758
 51
56.0896705572453
  0
DIMENSION
  5
6243C
330
2
100
AcDbEntity
  8
标注
100
AcDbDimension
280
     0
  2
*D6
 10
3509.562185485738
 20
3457.166417615735
 30
0.0
 11
3655.964858679435
 21
3366.030180350976
 31
0.0
 70
   163
 71
     5
 42
57.00000000000136
 73
     0
 74
     0
 75
     0
  3
线性标注$3
100
AcDbDiametricDimension
 15
3557.952296536126
 25
3427.043384027944
 35
0.0
 40
0.0
1001
ACAD
1000
DSTYLE
1002
{
1070
   288
1070
     1
1002
}
1001
ACAD_DSTYLE_DIMRADIAL_EXTENSION
1070
   387
1070
     1
1070
   388
1040
2.162643226007038
1070
   390
1040
0.9789494275829406
  0
DIMENSION
  5
62460
330
2
100
AcDbEntity
  8
标注
100
AcDbDimension
280
     0
  2
*D7
 10
4710.170238615461
 20
3011.540731936428
 30
0.0
 11
4233.512377552648
 21
3027.334271262271
 31
0.0
 70
    32
  1
1000
 71
     5
 42
953.3157221256251
 73
     0
 74
     0
 75
     0
  3
线性标注
100
AcDbAlignedDimension
 13
3756.854516489836
 23
3413.60490082184
 33
0.0
 14
4710.170238615461
 24
3542.10490082184
 34
0.0
100
AcDbRotatedDimension
  0
DIMENSION
  5
6246D
330
2
100
AcDbEntity
  8
标注
100
AcDbDimension
280
     0
  2
*D8
 10
3769.854516489836
 20
3372.824936969755
 30
0.0
 11
3791.284601235599
 21
3388.449936969755
 31
0.0
 70
    32
 71
     5
 42
13.00000000000045
 73
     0
 74
     0
 75
     0
  3
线性标注
100
AcDbAlignedDimension
 13
3756.854516489836
 23
3413.60490082184
 33
0.0
 14
3769.854516489836
 24
3413.60490082184
 34
0.0
100
AcDbRotatedDimension
  0
LINE
  5
6265E
330
2
100
AcDbEntity
  8
0
  6
Continuous
 62
     7
100
AcDbLine
 10
5368.075077408135
 20
3489.15514417884
 30
0.0
 11
5361.241648497265
 21
3491.547436397139
 31
0.0
  0
LINE
  5
6265F
330
2
100
AcDbEntity
  8
0
  6
Continuous
 62
     7
100
AcDbLine
 10
5370.752462188257
 20
3496.802921635196
 30
0.0
 11
5886.686067843418
 21
3316.181454812414
 31
0.0
  0
LINE
  5
62660
330
2
100
AcDbEntity
  8
0
  6
Continuous
 62
     7
100
AcDbLine
 10
5377.509671398648
 20
3516.104455228222
 30
0.0
 11
5893.44327707004
 21
3335.482988417211
 31
0.0
  0
LINE
  5
62661
330
2
100
AcDbEntity
  8
0
  6
Continuous
 62
     7
100
AcDbLine
 10
5380.187056167053
 20
3523.752232700962
 30
0.0
 11
5373.353627256277
 21
3526.144524919127
 31
0.0
  0
LINE
  5
6266A
330
2
100
AcDbEntity
  8
0
  6
Continuous
 62
     7
100
AcDbLine
 10
5908.65542881577
 20
3346.310022929456
 30
0.0
 11
5908.469011363731
 21
3406.496712077411
 31
0.0
  0
LINE
  5
6266B
330
2
100
AcDbEntity
  8
0
  6
Continuous
 62
     7
100
AcDbLine
 10
5908.469011363731
 20
3406.496712077411
 30
0.0
 11
5907.738733916469
 21
3625.10234422678
 31
0.0
  0
LINE
  5
6266C
330
2
100
AcDbEntity
  8
0
  6
Continuous
 62
     7
100
AcDbLine
 10
5929.105491492258
 20
3346.373363318797
 30
0.0
 11
5928.283582373554
 21
3611.734725527163
 31
0.0
  0
SPLINE
  5
6266D
330
2
100
AcDbEntity
  8
0
  6
Continuous
 62
     7
100
AcDbSpline
210
0.0
220
0.0
230
1.0
 70
  1064
 71
     3
 72
    11
 73
     7
 74
     5
 42
0.000000001
 43
0.0000000001
 44
0.0000000001
 12
0.946020611972586
 22
-0.3241064666479421
 32
0.0
 13
0.0030973058407274
 23
-0.9999952033367605
 33
0.0
 40
0.0
 40
0.0
 40
0.0
 40
0.0
 40
0.902209359668994
 40
3.72514551988732
 40
7.184117262442098
 40
11.37475950436454
 40
11.37475950436454
 40
11.37475950436454
 40
11.37475950436454
 10
5380.186601759484
 20
3523.74320666059
 30
0.0
 10
5380.471104643005
 20
3523.645736031344
 30
0.0
 10
5381.613058242269
 20
3523.132796817304
 30
0.0
 10
5383.290106853211
 20
3521.266840616585
 30
0.0
 10
5384.457306618095
 20
3517.928379453341
 30
0.0
 10
5384.685267528909
 20
3515.365829839431
 30
0.0
 10
5384.689594095807
 20
3513.968955792491
 30
0.0
 11
5380.186601759484
 21
3523.74320666059
 31
0.0
 11
5381.008277934747
 21
3523.37060769162
 31
0.0
 11
5382.986886470552
 21
3521.357133870904
 31
0.0
 11
5384.248049147937
 21
3518.136271530324
 31
0.0
 11
5384.689594095807
 21
3513.968955792491
 31
0.0
  0
SPLINE
  5
62670
330
2
100
AcDbEntity
  8
0
  6
Continuous
 62
     7
100
AcDbSpline
210
0.0
220
0.0
230
1.0
 70
  1064
 71
     3
 72
    11
 73
     7
 74
     5
 42
0.000000001
 43
0.0000000001
 44
0.0000000001
 12
0.9460206118838142
 22
-0.3241064669070544
 32
0.0
 13
0.6143981392121866
 23
0.7889961511519578
 33
0.0
 40
0.0
 40
0.0
 40
0.0
 40
0.0
 40
1.73527490346757
 40
4.726153411923774
 40
8.414955591852319
 40
11.73388088680741
 40
11.73388088680741
 40
11.73388088680741
 40
11.73388088680741
 10
5368.075531832025
 20
3489.16417023085
 30
0.0
 10
5368.622733774014
 20
3488.976698958158
 30
0.0
 10
5370.219453665971
 20
3488.725825099648
 30
0.0
 10
5372.987988941105
 20
3489.617445292608
 30
0.0
 10
5375.670712885289
 20
3491.647015054218
 30
0.0
 10
5377.234839600935
 20
3493.395763747901
 30
0.0
 10
5377.914553442736
 20
3494.268636842461
 30
0.0
 11
5368.075531832025
 21
3489.16417023085
 31
0.0
 11
5369.789614926061
 21
3488.893803558815
 31
0.0
 11
5372.677092803662
 21
3489.673435368525
 31
0.0
 11
5375.682363023824
 21
3491.812503489565
 31
0.0
 11
5377.914553442736
 21
3494.268636842461
 31
0.0
  0
SPLINE
  5
62671
330
2
100
AcDbEntity
  8
0
  6
Continuous
 62
     7
100
AcDbSpline
210
0.0
220
0.0
230
1.0
 70
  1064
 71
     3
 72
     8
 73
     4
 74
     2
 42
0.000000001
 43
0.0000000001
 44
0.0000000001
 12
0.0118196692263816
 22
0.9999301452698478
 32
0.0
 13
-0.0030972902525284
 23
0.9999952033850421
 33
0.0
 40
0.0
 40
0.0
 40
0.0
 40
0.0
 40
0.3673243810079969
 40
0.3673243810079969
 40
0.3673243810079969
 40
0.3673243810079969
 10
5384.687982216245
 20
3513.601634948095
 30
0.0
 10
5384.689429433806
 20
3513.724067855316
 30
0.0
 10
5384.689973332548
 20
3513.846514919459
 30
0.0
 10
5384.689594095807
 20
3513.968955792491
 30
0.0
 11
5384.687982216245
 21
3513.601634948095
 31
0.0
 11
5384.689594095807
 21
3513.968955792491
 31
0.0
  0
SPLINE
  5
62674
330
2
100
AcDbEntity
  8
0
  6
Continuous
 62
     7
100
AcDbSpline
210
0.0
220
0.0
230
1.0
 70
  1064
 71
     3
 72
    15
 73
    11
 74
     9
 42
0.000000001
 43
0.0000000001
 44
0.0000000001
 12
-0.0030973052320878
 22
0.9999952033386458
 32
0.0
 13
0.9460206118550688
 23
-0.3241064669909585
 33
0.0
 40
0.0
 40
0.0
 40
0.0
 40
0.0
 40
4.794053850258322
 40
9.942608656940402
 40
15.14034082691957
 40
20.07469182831099
 40
24.47345060746676
 40
28.1622527874601
 40
31.15313130281597
 40
32.88840622066321
 40
32.88840622066321
 40
32.88840622066321
 40
32.88840622066321
 10
5356.739110568533
 20
3501.330713305472
 30
0.0
 10
5356.734161019176
 20
3502.928723590406
 30
0.0
 10
5357.049995874413
 20
3506.24687832495
 30
0.0
 10
5358.279061670925
 20
3511.157550762841
 30
0.0
 10
5360.197002115699
 20
3515.895050267187
 30
0.0
 10
5362.653302619385
 20
3520.091020960903
 30
0.0
 10
5365.468046403308
 20
3523.433348175144
 30
0.0
 10
5368.440758973766
 20
3525.682247044959
 30
0.0
 10
5371.209244746754
 20
3526.573840629367
 30
0.0
 10
5372.805970902202
 20
3526.322970153052
 30
0.0
 10
5373.353172848708
 20
3526.135498878757
 30
0.0
 11
5356.739110568533
 21
3501.330713305472
 31
0.0
 11
5357.152954718509
 21
3506.106871315704
 31
0.0
 11
5358.388660750789
 21
3511.104935660948
 31
0.0
 11
5360.346119134279
 21
3515.919992917901
 31
0.0
 11
5362.866748218915
 21
3520.161955768118
 31
0.0
 11
5365.746341628961
 21
3523.487165624656
 31
0.0
 11
5368.751611849101
 21
3525.626233745839
 31
0.0
 11
5371.639089738278
 21
3526.405865539145
 31
0.0
 11
5373.353172848708
 21
3526.135498878757
 31
0.0
  0
SPLINE
  5
62675
330
2
100
AcDbEntity
  8
0
  6
Continuous
 62
     7
100
AcDbSpline
210
0.0
220
0.0
230
1.0
 70
  1064
 71
     3
 72
    11
 73
     7
 74
     5
 42
0.000000001
 43
0.0000000001
 44
0.0000000001
 12
0.0030973058407274
 22
-0.9999952033367605
 32
0.0
 13
0.946020611972586
 23
-0.3241064666479421
 33
0.0
 40
0.0
 40
0.0
 40
0.0
 40
0.0
 40
4.190642241779145
 40
7.649613984507942
 40
10.47255014468305
 40
11.37475948689612
 40
11.37475948689612
 40
11.37475948689612
 40
11.37475948689612
 10
5356.739110568533
 20
3501.330713305472
 30
0.0
 10
5356.74343713543
 20
3499.933839258579
 30
0.0
 10
5356.971398044972
 20
3497.371289641998
 30
0.0
 10
5358.138597814479
 20
3494.032828488419
 30
0.0
 10
5359.815646411229
 20
3492.16687227035
 30
0.0
 10
5360.957600015243
 20
3491.653933081281
 30
0.0
 10
5361.242102893259
 20
3491.55646245392
 30
0.0
 11
5356.739110568533
 21
3501.330713305472
 31
0.0
 11
5357.180655516381
 21
3497.16339756778
 31
0.0
 11
5358.44181819393
 21
3493.942535227077
 31
0.0
 11
5360.420426729661
 21
3491.929061406351
 31
0.0
 11
5361.242102893259
 21
3491.55646245392
 31
0.0
  0
SPLINE
  5
62678
330
2
100
AcDbEntity
  8
0
  6
Continuous
 62
     7
100
AcDbSpline
210
0.0
220
0.0
230
1.0
 70
  1064
 71
     3
 72
    11
 73
     7
 74
     5
 42
0.000000001
 43
0.0000000001
 44
0.0000000001
 12
0.8146154232442942
 22
0.5800014760433975
 32
0.0
 13
-0.0030973055693721
 23
0.9999952033376009
 33
0.0
 40
0.0
 40
0.0
 40
0.0
 40
0.0
 40
7.010717453849711
 40
14.49270570960942
 40
22.46750660069412
 40
31.00059661686909
 40
31.00059661686909
 40
31.00059661686909
 40
31.00059661686909
 10
5916.411174110869
 20
3319.318025212745
 30
0.0
 10
5918.314853632841
 20
3320.67343403653
 30
0.0
 10
5921.910054904985
 20
3323.988619466969
 30
0.0
 10
5926.00266874524
 20
3330.35304079373
 30
0.0
 10
5928.579674507256
 20
3338.001524236621
 30
0.0
 10
5929.114301354668
 20
3343.529013623527
 30
0.0
 10
5929.105491492258
 20
3346.373363318801
 30
0.0
 11
5916.411174110869
 21
3319.318025212745
 31
0.0
 11
5921.56961240601
 21
3324.065727138197
 31
0.0
 11
5925.642224964566
 21
3330.342189135789
 31
0.0
 11
5928.230629125696
 21
3337.885239788614
 31
0.0
 11
5929.105491492258
 21
3346.373363318801
 31
0.0
  0
SPLINE
  5
62679
330
2
100
AcDbEntity
  8
0
  6
Continuous
 62
     7
100
AcDbSpline
210
0.0
220
0.0
230
1.0
 70
  1064
 71
     3
 72
    11
 73
     7
 74
     5
 42
0.000000001
 43
0.0000000001
 44
0.0000000001
 12
0.9438328539517225
 22
-0.3304232797509074
 32
0.0
 13
0.8146347977917972
 23
0.5799742634175395
 33
0.0
 40
0.0
 40
0.0
 40
0.0
 40
0.0
 40
3.824043979655023
 40
7.17957831028885
 40
10.12694532304852
 40
11.51080395647073
 40
11.51080395647073
 40
11.51080395647073
 40
11.51080395647073
 10
5893.44327707004
 20
3335.482988417216
 30
0.0
 10
5894.646363184358
 20
3335.06180403266
 30
0.0
 10
5896.981752721108
 20
3334.46003455532
 30
0.0
 10
5900.385296796083
 20
3334.341612222373
 30
0.0
 10
5902.919863176013
 20
3334.97829732684
 30
0.0
 10
5904.173112780103
 20
3335.713248374224
 30
0.0
 10
5904.54889257944
 20
3335.980782504755
 30
0.0
 11
5893.44327707004
 21
3335.482988417216
 31
0.0
 11
5897.156159487586
 21
3334.567665243792
 31
0.0
 11
5900.511121551812
 21
3334.505695963776
 31
0.0
 11
5903.354413933332
 21
3335.282008234129
 31
0.0
 11
5904.54889257944
 21
3335.980782504755
 31
0.0
  0
SPLINE
  5
6267A
330
2
100
AcDbEntity
  8
0
  6
Continuous
 62
     7
100
AcDbSpline
210
0.0
220
0.0
230
1.0
 70
  1064
 71
     3
 72
    11
 73
     7
 74
     5
 42
0.000000001
 43
0.0000000001
 44
0.0000000001
 12
0.8146347977260528
 22
0.5799742635098847
 32
0.0
 13
-0.00309730512214
 23
0.9999952033389863
 33
0.0
 40
0.0
 40
0.0
 40
0.0
 40
0.0
 40
1.404508310973118
 40
4.351088885365841
 40
7.696598646144122
 40
11.50964188121574
 40
11.50964188121574
 40
11.50964188121574
 40
11.50964188121574
 10
5904.54889257944
 20
3335.980782504755
 30
0.0
 10
5904.930279694045
 20
3336.252308729172
 30
0.0
 10
5906.038931856368
 20
3337.201982738456
 30
0.0
 10
5907.467155430107
 20
3339.394085310631
 30
0.0
 10
5908.46425891028
 20
3342.642428453827
 30
0.0
 10
5908.659365535218
 20
3345.039014614395
 30
0.0
 10
5908.65542881577
 20
3346.31002292946
 30
0.0
 11
5904.54889257944
 21
3335.980782504755
 31
0.0
 11
5905.614625598167
 21
3336.895581241301
 31
0.0
 11
5907.27322646842
 21
3339.331023754395
 31
0.0
 11
5908.306463688886
 21
3342.512981705988
 31
0.0
 11
5908.65542881577
 21
3346.31002292946
 31
0.0
  0
SPLINE
  5
6267C
330
2
100
AcDbEntity
  8
0
  6
Continuous
 62
     7
100
AcDbSpline
210
0.0
220
0.0
230
1.0
 70
  1064
 71
     3
 72
    12
 73
     8
 74
     6
 42
0.000000001
 43
0.0000000001
 44
0.0000000001
 12
0.9438328536774664
 22
-0.3304232805343022
 32
0.0
 13
0.8146154233363011
 23
0.580001475914173
 33
0.0
 40
0.0
 40
0.0
 40
0.0
 40
0.0
 40
8.450902573474332
 40
16.2902967505392
 40
23.68024133516048
 40
30.83123405816112
 40
31.00730891093299
 40
31.00730891093299
 40
31.00730891093299
 40
31.00730891093299
 10
5886.686067843418
 20
3316.181454812419
 30
0.0
 10
5889.344814340775
 20
3315.250663161818
 30
0.0
 10
5894.669279805807
 20
3313.957930575183
 30
0.0
 10
5902.632469737856
 20
3313.854342095303
 30
0.0
 10
5909.970251404287
 20
3315.564143860761
 30
0.0
 10
5914.369385698308
 20
3317.873804513691
 30
0.0
 10
5916.363363013959
 20
3319.283983987919
 30
0.0
 10
5916.411174110869
 20
3319.318025212745
 30
0.0
 11
5886.686067843418
 21
3316.181454812419
 31
0.0
 11
5894.910496952352
 21
3314.238127732775
 31
0.0
 11
5902.749662995546
 21
3314.178321289874
 31
0.0
 11
5909.939859188709
 21
3315.884884991473
 31
0.0
 11
5916.267416218286
 21
3319.216358983846
 31
0.0
 11
5916.411174110869
 21
3319.318025212745
 31
0.0
  0
SPLINE
  5
62683
330
2
100
AcDbEntity
  8
0
  6
Continuous
 62
     7
100
AcDbSpline
210
0.0
220
0.0
230
1.0
 70
  1064
 71
     3
 72
    14
 73
    10
 74
     8
 42
0.000000001
 43
0.0000000001
 44
0.0000000001
 12
-0.0030973057706006
 22
0.9999952033369778
 32
0.0
 13
0.9381319000442019
 23
-0.3462781224961457
 33
0.0
 40
0.0
 40
0.0
 40
0.0
 40
0.0
 40
3.299637510638812
 40
6.839537835953811
 40
10.30345473825831
 40
13.39215936012957
 40
15.90322274012714
 40
17.85470465062398
 40
18.32168419670655
 40
18.32168419670655
 40
18.32168419670655
 40
18.32168419670655
 10
5368.240519975493
 20
3502.260960339048
 30
0.0
 10
5368.237113313391
 20
3503.360834233511
 30
0.0
 10
5368.504002515539
 20
3505.643799100897
 30
0.0
 10
5369.499955090255
 20
3508.945889806238
 30
0.0
 10
5371.004169498291
 20
3511.974786609144
 30
0.0
 10
5372.859666884031
 20
3514.391187893909
 30
0.0
 10
5374.863199720419
 20
3515.965438116779
 30
0.0
 10
5376.573270392327
 20
3516.365778851815
 30
0.0
 10
5377.357472082575
 20
3516.15122454195
 30
0.0
 10
5377.503501552191
 20
3516.097322941796
 30
0.0
 11
5368.240519975493
 21
3502.260960339048
 31
0.0
 11
5368.586382841236
 21
3505.542421382503
 31
0.0
 11
5369.601016426515
 21
3508.933794703267
 31
0.0
 11
5371.162040933789
 21
3512.026030592354
 31
0.0
 11
5373.081173797994
 21
3514.446159781199
 31
0.0
 11
5375.126939233137
 21
3515.902278966822
 31
0.0
 11
5377.052587754064
 21
3516.218758698955
 31
0.0
 11
5377.503501552191
 21
3516.097322941796
 31
0.0
  0
SPLINE
  5
62684
330
2
100
AcDbEntity
  8
0
  6
Continuous
 62
     7
100
AcDbSpline
210
0.0
220
0.0
230
1.0
 70
  1064
 71
     3
 72
    10
 73
     6
 74
     4
 42
0.000000001
 43
0.0000000001
 44
0.0000000001
 12
0.0030973057313902
 22
-0.9999952033370993
 32
0.0
 13
0.9381318998754538
 23
-0.3462781229533157
 33
0.0
 40
0.0
 40
0.0
 40
0.0
 40
0.0
 40
2.799602295631216
 40
4.992418150172101
 40
6.336713376684906
 40
6.336713376684906
 40
6.336713376684906
 40
6.336713376684906
 10
5368.240519975493
 20
3502.260960339048
 30
0.0
 10
5368.24341038357
 20
3501.327764050087
 30
0.0
 10
5368.415013391702
 20
3499.661800827978
 30
0.0
 10
5369.316061214586
 20
3497.651736163286
 30
0.0
 10
5370.338256611402
 20
3496.965220613774
 30
0.0
 10
5370.758632023017
 20
3496.810053937863
 30
0.0
 11
5368.240519975493
 21
3502.260960339048
 31
0.0
 11
5368.605144000791
 21
3499.4852041657
 31
0.0
 11
5369.636275839007
 21
3497.549950046949
 31
0.0
 11
5370.758632023017
 21
3496.810053937863
 31
0.0
  0
SPLINE
  5
62685
330
2
100
AcDbEntity
  8
0
  6
Continuous
 62
     7
100
AcDbSpline
210
0.0
220
0.0
230
1.0
 70
  1064
 71
     3
 72
    11
 73
     7
 74
     5
 42
0.000000001
 43
0.0000000001
 44
0.0000000001
 12
0.0030973058407274
 22
-0.9999952033367605
 32
0.0
 13
0.946020611972586
 23
-0.3241064666479421
 33
0.0
 40
0.0
 40
0.0
 40
0.0
 40
0.0
 40
4.190642241923344
 40
7.649613979594928
 40
10.47255013659815
 40
11.37475950626518
 40
11.37475950626518
 40
11.37475950626518
 40
11.37475950626518
 10
5363.572539479402
 20
3498.938421087171
 30
0.0
 10
5363.576866046299
 20
3497.54154704023
 30
0.0
 10
5363.804826943212
 20
3494.978997417546
 30
0.0
 10
5364.972026756568
 20
3491.640536294553
 30
0.0
 10
5366.649075323721
 20
3489.774580034351
 30
0.0
 10
5367.791028945352
 20
3489.261640861176
 30
0.0
 10
5368.075531832025
 20
3489.16417023085
 30
0.0
 11
5363.572539479402
 21
3498.938421087171
 31
0.0
 11
5364.014084427271
 21
3494.771105349337
 31
0.0
 11
5365.275247120978
 21
3491.550243020392
 31
0.0
 11
5367.253855640512
 21
3489.536769188195
 31
0.0
 11
5368.075531832025
 21
3489.16417023085
 31
0.0
  0
SPLINE
  5
62686
330
2
100
AcDbEntity
  8
0
  6
Continuous
 62
     7
100
AcDbSpline
210
0.0
220
0.0
230
1.0
 70
  1064
 71
     3
 72
    15
 73
    11
 74
     9
 42
0.000000001
 43
0.0000000001
 44
0.0000000001
 12
-0.0030973052320878
 22
0.9999952033386458
 32
0.0
 13
0.9460206118550688
 23
-0.3241064669909585
 33
0.0
 40
0.0
 40
0.0
 40
0.0
 40
0.0
 40
4.794053850102764
 40
9.942608656944742
 40
15.14034082679817
 40
20.07469182825962
 40
24.47345060273898
 40
28.16225278273307
 40
31.15313129117441
 40
32.88840620890634
 40
32.88840620890634
 40
32.88840620890634
 40
32.88840620890634
 10
5363.572539479402
 20
3498.938421087171
 30
0.0
 10
5363.567589930045
 20
3500.536431372055
 30
0.0
 10
5363.88342478537
 20
3503.854586106503
 30
0.0
 10
5365.112490581242
 20
3508.765258544831
 30
0.0
 10
5367.030431028489
 20
3513.502758047435
 30
0.0
 10
5369.486731523294
 20
3517.69872874571
 30
0.0
 10
5372.301475330536
 20
3521.041055940815
 30
0.0
 10
5375.274187895762
 20
3523.289954801103
 30
0.0
 10
5378.042673658952
 20
3524.181548414632
 30
0.0
 10
5379.639399813014
 20
3523.930677934873
 30
0.0
 10
5380.186601759484
 20
3523.74320666059
 30
0.0
 11
5363.572539479402
 21
3498.938421087171
 31
0.0
 11
5363.986383629328
 21
3503.714579097252
 31
0.0
 11
5365.222089661657
 21
3508.712643442648
 31
0.0
 11
5367.179548045168
 21
3513.527700699458
 31
0.0
 11
5369.700177129714
 21
3517.76966354981
 31
0.0
 11
5372.579770551384
 21
3521.094873390095
 31
0.0
 11
5375.585040771525
 21
3523.233941511278
 31
0.0
 11
5378.47251864915
 21
3524.013573320843
 31
0.0
 11
5380.186601759484
 21
3523.74320666059
 31
0.0
  0
SPLINE
  5
6268B
330
2
100
AcDbEntity
  8
0
  6
Continuous
 62
     7
100
AcDbSpline
210
0.0
220
0.0
230
1.0
 70
  1064
 71
     3
 72
    15
 73
    11
 74
     9
 42
0.000000001
 43
0.0000000001
 44
0.0000000001
 12
-0.8147008360736606
 22
-0.579881494532183
 32
0.0
 13
0.0142564488098421
 23
0.9998983716695075
 33
0.0
 40
0.0
 40
0.0
 40
0.0
 40
0.0
 40
2.815204278634117
 40
6.124990032162379
 40
9.667036644711775
 40
13.12463303725856
 40
16.20000455977742
 40
18.694660686082
 40
20.63493796966921
 40
21.05778914428166
 40
21.05778914428166
 40
21.05778914428166
 40
21.05778914428166
 10
5927.238269365548
 20
3343.415735720085
 30
0.0
 10
5926.473752939042
 20
3342.871574098583
 30
0.0
 10
5924.593543173656
 20
3341.996556210015
 30
0.0
 10
5921.433114220061
 20
3341.295253422481
 30
0.0
 10
5917.982040634827
 20
3341.147957163455
 30
0.0
 10
5914.633217170843
 20
3341.57147629579
 30
0.0
 10
5911.753658839607
 20
3342.52831342519
 30
0.0
 10
5909.621954729959
 20
3343.903241477069
 30
0.0
 10
5908.712525650393
 20
3345.377371243059
 30
0.0
 10
5908.660527357195
 20
3346.168985517152
 30
0.0
 10
5908.662536809236
 20
3346.309921584137
 30
0.0
 11
5927.238269365548
 21
3343.415735720085
 31
0.0
 11
5924.719546141464
 21
3342.158195084201
 31
0.0
 11
5921.496542966373
 21
3341.405246037048
 31
0.0
 11
5917.958001579617
 21
3341.247705376604
 31
0.0
 11
5914.53072232025
 21
3341.704574824108
 31
0.0
 11
5911.628085636379
 21
3342.720749161003
 31
0.0
 11
5909.60019235641
 21
3344.173662796966
 31
0.0
 11
5908.691636349053
 21
3345.888072875885
 31
0.0
 11
5908.662536809236
 21
3346.309921584137
 31
0.0
  0
SPLINE
  5
6268C
330
2
100
AcDbEntity
  8
0
  6
Continuous
 62
     7
100
AcDbSpline
210
0.0
220
0.0
230
1.0
 70
  1064
 71
     3
 72
     9
 73
     5
 74
     3
 42
0.000000001
 43
0.0000000001
 44
0.0000000001
 12
-0.0142564476536055
 22
-0.999898371685993
 32
0.0
 13
-0.8147008360736606
 23
-0.579881494532183
 33
0.0
 40
0.0
 40
0.0
 40
0.0
 40
0.0
 40
1.391860438301498
 40
3.599941221156723
 40
3.599941221156723
 40
3.599941221156723
 40
3.599941221156723
 10
5929.098383498788
 20
3346.373464664122
 30
0.0
 10
5929.091769170295
 20
3345.909558335499
 30
0.0
 10
5928.764089144223
 20
3344.698546389226
 30
0.0
 10
5927.837911118851
 20
3343.842544114888
 30
0.0
 10
5927.238269365548
 20
3343.415735720085
 30
0.0
 11
5929.098383498788
 21
3346.373464664122
 31
0.0
 11
5928.748917472407
 21
3345.026190016505
 31
0.0
 11
5927.238269365548
 21
3343.415735720085
 31
0.0
  0
SPLINE
  5
62690
330
2
100
AcDbEntity
  8
0
  6
Continuous
 62
     7
100
AcDbSpline
210
0.0
220
0.0
230
1.0
 70
  1064
 71
     3
 72
    15
 73
    11
 74
     9
 42
0.000000001
 43
0.0000000001
 44
0.0000000001
 12
-0.94942529536983
 22
0.3139930071067043
 32
0.0
 13
0.8147008360736606
 23
0.579881494532183
 33
0.0
 40
0.0
 40
0.0
 40
0.0
 40
0.0
 40
0.4227763737730813
 40
2.362998784673336
 40
4.857610395389496
 40
7.932954920708049
 40
11.39054103772842
 40
14.93259019973194
 40
18.24238503399159
 40
21.05759557642759
 40
21.05759557642759
 40
21.05759557642759
 40
21.05759557642759
 10
5886.68829961828
 20
3316.188203038009
 30
0.0
 10
5886.554501423765
 20
3316.232452646321
 30
0.0
 10
5885.823610547195
 20
3316.540810938506
 30
0.0
 10
5884.728639052855
 20
3317.882811245737
 30
0.0
 10
5884.127683084593
 20
3320.347202446921
 30
0.0
 10
5884.166664751404
 20
3323.381292489049
 30
0.0
 10
5884.863224863045
 20
3326.684125833278
 30
0.0
 10
5886.132595981049
 20
3329.89664792656
 30
0.0
 10
5887.830226942538
 20
3332.653134390762
 30
0.0
 10
5889.272727390167
 20
3334.143117960257
 30
0.0
 10
5890.037245517715
 20
3334.687280792514
 30
0.0
 11
5886.68829961828
 21
3316.188203038009
 31
0.0
 11
5886.299312216877
 21
3316.353819051033
 31
0.0
 11
5884.977022748852
 21
3317.773682976382
 31
0.0
 11
5884.268378939849
 21
3320.165525579959
 31
0.0
 11
5884.258853645265
 21
3323.240855353848
 31
0.0
 11
5884.949595804016
 21
3326.628742162279
 31
0.0
 11
5886.257291699334
 21
3329.920556815539
 31
0.0
 11
5888.024213890919
 21
3332.719257909577
 31
0.0
 11
5890.037245517715
 21
3334.687280792514
 31
0.0
  0
SPLINE
  5
6269A
330
2
100
AcDbEntity
  8
0
  6
Continuous
 62
     7
100
AcDbSpline
210
0.0
220
0.0
230
1.0
 70
  1064
 71
     3
 72
     9
 73
     5
 74
     3
 42
0.000000001
 43
0.0000000001
 44
0.0000000001
 12
0.8147008360736606
 22
0.579881494532183
 32
0.0
 13
0.9494252951513493
 23
-0.3139930077673285
 33
0.0
 40
0.0
 40
0.0
 40
0.0
 40
0.0
 40
2.208070536156916
 40
3.599964664115705
 40
3.599964664115705
 40
3.599964664115705
 40
3.599964664115705
 10
5890.037245517715
 20
3334.687280792514
 30
0.0
 10
5890.636884488355
 20
3335.114087206694
 30
0.0
 10
5891.748987148002
 20
3335.708887678581
 30
0.0
 10
5893.00054546409
 20
3335.621921866201
 30
0.0
 10
5893.441045295175
 20
3335.476240191624
 30
0.0
 11
5890.037245517715
 21
3334.687280792514
 31
0.0
 11
5892.053585221914
 21
3335.587252842035
 31
0.0
 11
5893.441045295175
 21
3335.476240191624
 31
0.0
  0
LINE
  5
62968
330
2
100
AcDbEntity
  8
0
100
AcDbLine
 10
5943.600504622303
 20
3677.244279599528
 30
0.0
 11
5954.858834871501
 21
3683.744279599529
 31
0.0
  0
LINE
  5
62969
330
2
100
AcDbEntity
  8
0
100
AcDbLine
 10
5968.137743068745
 20
3634.744535932858
 30
0.0
 11
5979.396073317944
 21
3641.244535932858
 31
0.0
  0
ELLIPSE
  5
6296A
330
2
100
AcDbEntity
  8
0
100
AcDbEllipse
 10
5955.869123845523
 20
3655.994407766193
 30
0.0
 11
6.078269692176275
 21
-10.52787192895713
 31
0.0
210
0.0
220
0.0
230
1.0
 40
0.5773502691896783
 41
0.0
 42
3.141592653589793
  0
ELLIPSE
  5
62974
330
2
100
AcDbEntity
  8
0
100
AcDbEllipse
 10
5955.869123845523
 20
3655.994407766193
 30
0.0
 11
12.268619223221
 21
-21.24987183333511
 31
0.0
210
0.0
220
0.0
230
0.9999999999999998
 40
0.5773502691896376
 41
5.230721360831676
 42
10.47724190711717
  0
ELLIPSE
  5
62975
330
2
100
AcDbEntity
  8
0
100
AcDbEllipse
 10
5967.127454094722
 20
3662.494407766193
 30
0.0
 11
12.268619223221
 21
-21.24987183333511
 31
0.0
210
0.0
220
0.0
230
1.0
 40
0.5773502691896376
 41
4.194056599937738
 42
4.196703976948741
  0
LINE
  5
629B1
330
2
100
AcDbEntity
  8
0
100
AcDbLine
 10
5949.790854153349
 20
3666.522279695151
 30
0.0
 11
5920.346174200614
 21
3650.331771116444
 31
0.0
  0
LINE
  5
629B2
330
2
100
AcDbEntity
  8
0
100
AcDbLine
 10
5961.9473935377
 20
3645.466535837236
 30
0.0
 11
5937.705625409016
 21
3631.470544482509
 31
0.0
  0
ELLIPSE
  5
629B3
330
2
100
AcDbEntity
  8
0
100
AcDbEllipse
 10
5967.127454094722
 20
3662.494407766193
 30
0.0
 11
12.268619223221
 21
-21.24987183333511
 31
0.0
210
0.0
220
0.0
230
1.0
 40
0.5773502691896376
 41
6.283185307179586
 42
9.424777960769379
  0
ELLIPSE
  5
629B4
330
2
100
AcDbEntity
  8
0
100
AcDbEllipse
 10
5967.127454094722
 20
3662.494407766193
 30
0.0
 11
12.268619223221
 21
-21.24987183333511
 31
0.0
210
0.0
220
0.0
230
1.0
 40
0.5773502691896376
 41
5.22807398382054
 42
5.230721360831616
  0
SPLINE
  5
629B7
330
2
100
AcDbEntity
  8
0
  6
Continuous
 62
     7
100
AcDbSpline
210
0.0
220
0.0
230
1.0
 70
     8
 71
     3
 72
    12
 73
     8
 74
     0
 42
0.000000001
 43
0.0000000001
 40
1.892943626519044
 40
1.892943626519044
 40
1.892943626519044
 40
1.892943626519044
 40
3.4283783625319
 40
9.168425102064686
 40
15.67019058777546
 40
23.25644959119882
 40
31.58258975943196
 40
31.58258975943196
 40
31.58258975943196
 40
31.58258975943196
 10
5920.346174200612
 20
3650.331771116444
 30
0.0
 10
5919.882813808339
 20
3650.112292080211
 30
0.0
 10
5917.730423007691
 20
3648.978133471827
 30
0.0
 10
5914.122096072892
 20
3646.016012009499
 30
0.0
 10
5910.456369226949
 20
3640.403523655332
 30
0.0
 10
5908.199210690433
 20
3633.199765672492
 30
0.0
 10
5907.747330116497
 20
3627.877710970297
 30
0.0
 10
5907.738733916469
 20
3625.10234422678
 30
0.0
  0
SPLINE
  5
629B8
330
2
100
AcDbEntity
  8
0
  6
Continuous
 62
     7
100
AcDbSpline
210
0.0
220
0.0
230
1.0
 70
     8
 71
     3
 72
    12
 73
     8
 74
     0
 42
0.000000001
 43
0.0000000001
 40
1.892943626519044
 40
1.892943626519044
 40
1.892943626519044
 40
1.892943626519044
 40
3.4283783625319
 40
9.168425102064686
 40
15.67019058777546
 40
23.25644959119882
 40
31.58258975943196
 40
31.58258975943196
 40
31.58258975943196
 40
31.58258975943196
 10
5940.23661555969
 20
3632.931812327318
 30
0.0
 10
5939.773255167417
 20
3632.712333291085
 30
0.0
 10
5937.620864366771
 20
3631.578174682701
 30
0.0
 10
5934.012537431971
 20
3628.616053220373
 30
0.0
 10
5930.346810586027
 20
3623.003564866206
 30
0.0
 10
5928.089652049512
 20
3615.799806883366
 30
0.0
 10
5928.287469389735
 20
3610.479764503672
 30
0.0
 10
5928.297010577988
 20
3607.399298970103
 30
0.0
  0
ARC
  5
629B9
330
2
100
AcDbEntity
  8
0
100
AcDbCircle
 10
5918.836270086075
 20
3586.835613628132
 30
0.0
 40
35.41340331324262
100
AcDbArc
 50
72.14666093330243
 51
108.2361440250647
  0
ARC
  5
629BC
330
2
100
AcDbEntity
  8
0
100
AcDbCircle
 10
5887.101413980012
 20
3602.314798585599
 30
0.0
 40
58.40242917170888
100
AcDbArc
 50
29.94850549140291
 51
55.30303903018499
  0
DIMENSION
  5
638ED
330
2
100
AcDbEntity
  8
标注
100
AcDbDimension
280
     0
  2
*D9
 10
5913.31176333816
 20
3130.0
 30
0.0
 11
5619.929558402158
 21
3231.782576133241
 31
0.0
 70
   161
  1
1000
 71
     5
 42
572.9497513862388
 73
     0
 74
     0
 75
     0
  3
线性标注
100
AcDbAlignedDimension
 13
5372.011933819883
 23
3474.391940475222
 33
0.0
 14
5913.31176333816
 24
3286.599735692821
 34
0.0
  0
DIMENSION
  5
638FD
330
2
100
AcDbEntity
  8
标注
100
AcDbDimension
280
     0
  2
*D10
 10
6037.417308641368
 20
3280.474750894733
 30
0.0
 11
6037.430972276823
 21
3448.608199215535
 31
0.0
 70
   161
  1
600
 71
     5
 42
347.1368410075165
 73
     0
 74
     0
 75
     0
  3
线性标注
100
AcDbAlignedDimension
 13
5992.908245085647
 23
3643.107412761886
 33
0.0
 14
5992.880034451296
 24
3295.970572900661
 34
0.0
  0
CIRCLE
  5
6392E
330
2
100
AcDbEntity
  8
0
100
AcDbCircle
 10
3533.757241010933
 20
3442.10490082184
 30
0.0
 40
28.50000000000046
  0
DIMENSION
  5
63974
330
2
100
AcDbEntity
  8
标注
100
AcDbDimension
280
     0
  2
*D11
 10
5907.545913193901
 20
3682.822456090914
 30
0.0
 11
5947.086264760283
 21
3707.36385204377
 31
0.0
 70
   161
  1
88
 71
     5
 42
84.33760381298544
 73
     0
 74
     0
 75
     0
  3
线性标注
100
AcDbAlignedDimension
 13
5979.396073317635
 23
3669.577698377841
 33
0.0
 14
5907.738733916469
 24
3625.10234422678
 34
0.0
  0
LINE
  5
63B6C
330
2
100
AcDbEntity
  8
0
  6
Continuous
 62
     7
100
AcDbLine
 10
5879.981884682507
 20
3308.679311146034
 30
0.0
 11
5863.735317588741
 21
3294.280833439176
 31
0.0
  0
LINE
  5
63B6D
330
2
100
AcDbEntity
  8
0
  6
Continuous
 62
     7
100
AcDbLine
 10
5892.198152060572
 20
3294.592801509408
 30
0.0
 11
5873.794696838728
 21
3278.282787325396
 31
0.0
  0
LINE
  5
63B6E
330
2
100
AcDbEntity
  8
0
  6
Continuous
 62
     7
100
AcDbLine
 10
5900.674367491285
 20
3289.44177464367
 30
0.0
 11
5904.78376157877
 21
3293.08371443414
 31
0.0
  0
SPLINE
  5
63B76
330
2
100
AcDbEntity
  8
0
  6
Continuous
 62
     7
100
AcDbSpline
210
0.0
220
0.0
230
1.0
 70
  1064
 71
     3
 72
    16
 73
    12
 74
    10
 42
0.000000001
 43
0.0000000001
 44
0.0000000001
 12
-0.0083516934319136
 22
0.7359526134316119
 32
0.0
 13
-0.5463231774740495
 23
-0.4931804799002676
 33
0.0
 40
0.0
 40
0.0
 40
0.0
 40
0.0
 40
2.144006954642136
 40
4.700160065718977
 40
7.525338939253641
 40
10.42135995190851
 40
13.17726518300477
 40
15.60797519019344
 40
17.60076173630644
 40
19.18930868194669
 40
19.67420477865319
 40
19.67420477865319
 40
19.67420477865319
 40
19.67420477865319
 10
5893.187536418561
 20
3297.272030370762
 30
0.0
 10
5893.181567722294
 20
3297.797992877923
 30
0.0
 10
5892.860590256862
 20
3299.652527879464
 30
0.0
 10
5891.82323017658
 20
3301.810124176242
 30
0.0
 10
5890.264949288671
 20
3304.146249172743
 30
0.0
 10
5888.331549153953
 20
3306.209415719312
 30
0.0
 10
5886.195706868897
 20
3307.876566949273
 30
0.0
 10
5884.064902971861
 20
3308.994064436812
 30
0.0
 10
5882.056438492018
 20
3309.428218696286
 30
0.0
 10
5880.722467020966
 20
3309.2412349347
 30
0.0
 10
5880.079831037281
 20
3308.752301553827
 30
0.0
 10
5879.991527711847
 20
3308.672587790602
 30
0.0
 11
5893.187536418561
 21
3297.272030370762
 31
0.0
 11
5892.820707971702
 21
3299.384423021793
 31
0.0
 11
5891.799108879331
 21
3301.727552130855
 31
0.0
 11
5890.222740358346
 21
3304.072055906394
 31
0.0
 11
5888.245908367068
 21
3306.188437956969
 31
0.0
 11
5886.062118954886
 21
3307.869532078673
 31
0.0
 11
5883.885136692911
 21
3308.950781064842
 31
0.0
 11
5881.928059749246
 21
3309.326344714499
 31
0.0
 11
5880.382460446032
 21
3308.959460274371
 31
0.0
 11
5879.991527711847
 21
3308.672587790602
 31
0.0
  0
SPLINE
  5
63B77
330
2
100
AcDbEntity
  8
0
  6
Continuous
 62
     7
100
AcDbSpline
210
0.0
220
0.0
230
1.0
 70
  1064
 71
     3
 72
     9
 73
     5
 74
     3
 42
0.000000001
 43
0.0000000001
 44
0.0000000001
 12
0.5938295406089549
 22
0.5360657391590679
 32
0.0
 13
-0.0090779298442213
 23
0.7999484928354722
 33
0.0
 40
0.0
 40
0.0
 40
0.0
 40
0.0
 40
1.069973618826679
 40
2.924215505902547
 40
2.924215505902547
 40
2.924215505902547
 40
2.924215505902547
 10
5892.192161591646
 20
3294.596565832819
 30
0.0
 10
5892.40395557249
 20
3294.787757899104
 30
0.0
 10
5893.106295376872
 20
3295.644036633919
 30
0.0
 10
5893.193147311149
 20
3296.777597703123
 30
0.0
 10
5893.187536418561
 20
3297.272030370762
 30
0.0
 11
5892.192161591646
 21
3294.596565832819
 31
0.0
 11
5892.835525628677
 21
3295.451508088671
 31
0.0
 11
5893.187536418561
 21
3297.272030370762
 31
0.0
  0
LINE
  5
63B78
330
2
100
AcDbEntity
  8
0
  6
Continuous
 62
     7
100
AcDbLine
 10
5863.529552235341
 20
3324.288241751258
 30
0.0
 11
5863.22586553908
 21
3297.852410338509
 31
0.0
  0
LINE
  5
63B79
330
2
100
AcDbEntity
  8
0
  6
Continuous
 62
     7
100
AcDbLine
 10
5846.881671313215
 20
3330.116442586959
 30
0.0
 11
5846.268394966152
 21
3286.039803777316
 31
0.0
  0
ELLIPSE
  5
63B7A
330
2
100
AcDbEntity
  8
0
  6
Continuous
 62
     7
100
AcDbEllipse
 10
5866.836457797252
 20
3294.753605316127
 30
0.0
 11
16.23161231558849
 21
17.55334680127456
 31
0.0
210
0.0
220
0.0
230
0.9999999999999998
 40
0.7162904960709221
 41
2.58250557657622
 42
4.399066609072685
  0
ELLIPSE
  5
63B7C
330
2
100
AcDbEntity
  8
0
  6
Continuous
 62
     7
100
AcDbEllipse
 10
5868.919562477175
 20
3298.400112171499
 30
0.0
 11
4.544851448364777
 21
4.914937104356874
 31
0.0
210
0.0
220
0.0
230
1.0
 40
0.7162904960709221
 41
2.248847230708955
 42
3.617773749082075
  0
ELLIPSE
  5
63B86
330
2
100
AcDbEntity
  8
0
100
AcDbEllipse
 10
5885.953886755215
 20
3302.872210264416
 30
0.0
 11
14.26298565091456
 21
-13.96291233933748
 31
0.0
210
0.0
220
0.0
230
1.0
 40
0.5196627661609142
 41
2.775589971888935
 42
4.245434620995201
  0
ELLIPSE
  5
63B87
330
2
100
AcDbEntity
  8
0
100
AcDbEllipse
 10
5890.578288121174
 20
3307.104492372292
 30
0.0
 11
14.26298565091456
 21
-13.96291233933748
 31
0.0
210
0.0
220
0.0
230
1.0
 40
0.5196627661609142
 41
6.217309779923252
 42
7.816450035696725
  0
ELLIPSE
  5
63B89
330
2
100
AcDbEntity
  8
0
100
AcDbEllipse
 10
5885.953886755215
 20
3302.872210264416
 30
0.0
 11
14.26298565091456
 21
-13.96291233933748
 31
0.0
210
0.0
220
0.0
230
1.0
 40
0.5196627661609142
 41
5.221058242784377
 42
8.116224645356709
  0
MTEXT
  5
63BD4
330
2
100
AcDbEntity
  8
0
100
AcDbMText
 10
4642.275170482249
 20
3111.430807158599
 30
0.0
 40
30.0
 41
201.7942574699391
 46
0.0
 71
     1
 72
     5
  1
A
  7
黑体
210
0.0
220
0.0
230
-1.0
 11
-1.0
 21
0.0
 31
0.0
 73
     1
 44
1.0
  0
LINE
  5
63BD6
330
2
100
AcDbEntity
  8
0
100
AcDbLine
 10
4619.723155024153
 20
3536.779708892223
 30
0.0
 11
4619.723155024153
 21
3565.159870900621
 31
0.0
  0
LWPOLYLINE
  5
63BD7
330
2
100
AcDbEntity
  8
0
100
AcDbPolyline
 90
        2
 70
     0
 10
4619.723155024153
 20
3565.159870900621
 40
2.0
 41
0.0
 10
4550.808793650465
 20
3565.159870900621
 40
0.0
 41
0.0
  0
LINE
  5
63BD8
330
2
100
AcDbEntity
  8
0
100
AcDbLine
 10
4618.161491350945
 20
3122.379723716158
 30
0.0
 11
4617.448116203731
 21
3094.008528966513
 31
0.0
  0
LWPOLYLINE
  5
63BD9
330
2
100
AcDbEntity
  8
0
100
AcDbPolyline
 90
        2
 70
     0
 10
4617.448116203731
 20
3094.008528966513
 40
1.999999999999999
 41
0.0
 10
4548.555529649726
 20
3095.740788023935
 40
0.0
 41
0.0
  0
MTEXT
  5
63BDA
330
2
100
AcDbEntity
  8
0
100
AcDbMText
 10
4646.764154145359
 20
3579.941825565094
 30
0.0
 40
30.0
 41
201.7942574699391
 46
0.0
 71
     1
 72
     5
  1
A
  7
黑体
210
0.0
220
0.0
230
-1.0
 11
-1.0
 21
0.0
 31
0.0
 73
     1
 44
1.0
  0
LINE
  5
63BDB
330
2
100
AcDbEntity
  8
中心线
100
AcDbLine
 10
4609.854516489835
 20
3326.836356660578
 30
0.0
 11
4609.854516489835
 21
3476.646391017506
 31
0.0
  0
DIMENSION
  5
63BDC
330
2
100
AcDbEntity
  8
标注
100
AcDbDimension
280
     0
  2
*D12
 10
4609.854516489835
 20
3216.591682767513
 30
0.0
 11
4681.481856579677
 21
3216.591682767513
 31
0.0
 70
   160
  1
100
 71
     5
 42
100.315722125626
 73
     0
 74
     0
 75
     0
  3
线性标注
100
AcDbAlignedDimension
 13
4710.170238615461
 23
3541.47990082184
 33
0.0
 14
4609.854516489835
 24
3315.694991654654
 34
0.0
100
AcDbRotatedDimension
  0
LINE
  5
63BDD
330
2
100
AcDbEntity
  8
中心线
100
AcDbLine
 10
4546.38314833168
 20
3359.464692011623
 30
0.0
 11
4673.144758444954
 21
3359.464692011623
 31
0.0
  0
MTEXT
  5
63BDE
330
2
100
AcDbEntity
  8
标注
100
AcDbMText
 10
4618.631971253472
 20
3184.40843283343
 30
0.0
 40
21.0
 41
81.096921757764
 46
0.0
 71
     1
 72
     5
  1
{\fSimHei|b0|i0|c134|p2; B}
  7
黑体
 73
     1
 44
1.0
1001
ACAD
1000
ACAD_MTEXT_COLUMN_INFO_BEGIN
1070
    75
1070
     2
1070
    79
1070
     0
1070
    76
1070
     1
1070
    78
1070
     0
1070
    48
1040
81.096921757764
1070
    49
1040
30.0
1070
    50
1070
     1
1040
0.0
1000
ACAD_MTEXT_COLUMN_INFO_END
  0
LWPOLYLINE
  5
63BDF
330
2
100
AcDbEntity
  8
标注
100
AcDbPolyline
 90
        3
 70
     1
 43
0.0
 10
4663.71232053608
 20
3157.702754872257
 10
4640.213720525824
 20
3197.975351767502
 10
4617.085928543301
 20
3157.488668757629
  0
LINE
  5
63BE0
330
2
100
AcDbEntity
  8
中心线
100
AcDbLine
 10
4609.854516489835
 20
3472.779837405638
 30
0.0
 11
4609.854516489835
 21
3325.513870540899
 31
0.0
  0
LINE
  5
63BE1
330
2
100
AcDbEntity
  8
0
100
AcDbLine
 10
4619.854516489835
 20
3424.664692011623
 30
0.0
 11
4619.854516489835
 21
3359.464692011623
 31
0.0
  0
LINE
  5
63BE2
330
2
100
AcDbEntity
  8
0
100
AcDbLine
 10
4599.854516489835
 20
3424.664692011623
 30
0.0
 11
4599.854516489835
 21
3359.464692011623
 31
0.0
  0
ARC
  5
63BE3
330
2
100
AcDbEntity
  8
0
100
AcDbCircle
 10
4609.854516489835
 20
3359.464692011623
 30
0.0
 40
10.00000000000091
100
AcDbArc
 50
180.0
 51
0.0
  0
ARC
  5
63BE4
330
2
100
AcDbEntity
  8
0
100
AcDbCircle
 10
4609.854516489835
 20
3359.464692011623
 30
0.0
 40
28.5
100
AcDbArc
 50
110.5409775375126
 51
69.45902246248735
  0
ARC
  5
63BE5
330
2
100
AcDbEntity
  8
0
100
AcDbCircle
 10
4609.854516489835
 20
3392.971665659195
 30
0.0
 40
33.23323516264469
100
AcDbArc
 50
72.48811667166231
 51
107.5118833283377
  0
DIMENSION
  5
63BE6
330
2
100
AcDbEntity
  8
标注
100
AcDbDimension
280
     0
  2
*D13
 10
4616.982040395369
 20
3366.478849336356
 30
0.0
 11
4535.432114439092
 21
3286.226012859216
 31
0.0
 70
   163
 71
     5
 42
20.00000000000546
 73
     0
 74
     0
 75
     0
  3
线性标注
100
AcDbDiametricDimension
 15
4602.726992584303
 25
3352.45053468689
 35
0.0
 40
0.0
1001
ACAD
1000
DSTYLE
1002
{
1070
   288
1070
     1
1002
}
1001
ACAD_DSTYLE_DIMRADIAL_EXTENSION
1070
   387
1070
     1
1070
   388
1040
3.141592653589793
1070
   390
1040
0.0
  0
ARC
  5
63BE7
330
2
100
AcDbEntity
  8
中心线
100
AcDbCircle
 10
3487.757241010932
 20
3405.50490082184
 30
0.0
 40
46.0
100
AcDbArc
 50
270.0
 51
0.0
  0
ARC
  5
63BE8
330
2
100
AcDbEntity
  8
0
100
AcDbCircle
 10
3487.757241010932
 20
3405.50490082184
 30
0.0
 40
36.0
100
AcDbArc
 50
270.0
 51
0.0
  0
ARC
  5
63BE9
330
2
100
AcDbEntity
  8
0
100
AcDbCircle
 10
3487.757241010932
 20
3405.50490082184
 30
0.0
 40
56.0
100
AcDbArc
 50
270.0
 51
0.0
  0
LINE
  5
63BEA
330
2
100
AcDbEntity
  8
0
100
AcDbLine
 10
3445.75724101093
 20
3331.004900821838
 30
0.0
 11
3445.75724101093
 21
3388.004900821839
 31
0.0
  0
LINE
  5
63BEB
330
2
100
AcDbEntity
  8
0
100
AcDbLine
 10
3458.75724101093
 20
3331.004900821839
 30
0.0
 11
3458.75724101093
 21
3388.004900821839
 31
0.0
  0
LINE
  5
63BEC
330
2
100
AcDbEntity
  8
0
100
AcDbLine
 10
3458.75724101093
 20
3388.004900821839
 30
0.0
 11
3445.75724101093
 21
3388.004900821839
 31
0.0
  0
LINE
  5
63BED
330
2
100
AcDbEntity
  8
0
100
AcDbLine
 10
3458.75724101093
 20
3331.004900821839
 30
0.0
 11
3445.75724101093
 21
3331.004900821838
 31
0.0
  0
LINE
  5
63BEE
330
2
100
AcDbEntity
  8
0
100
AcDbLine
 10
3523.757241010932
 20
3415.416888531674
 30
0.0
 11
3523.757241010932
 21
3405.50490082184
 31
0.0
  0
LINE
  5
63BEF
330
2
100
AcDbEntity
  8
0
100
AcDbLine
 10
3543.757241010932
 20
3415.416888531674
 30
0.0
 11
3543.757241010932
 21
3405.50490082184
 31
0.0
  0
LINE
  5
63BF0
330
2
100
AcDbEntity
  8
中心线
100
AcDbLine
 10
3487.757241010932
 20
3359.50490082184
 30
0.0
 11
3436.359794176239
 21
3359.504900821839
 31
0.0
  0
LINE
  5
63BF1
330
2
100
AcDbEntity
  8
0
100
AcDbLine
 10
3487.757241010932
 20
3369.504900821839
 30
0.0
 11
3458.75724101093
 21
3369.504900821839
 31
0.0
  0
LINE
  5
63BF2
330
2
100
AcDbEntity
  8
0
100
AcDbLine
 10
3487.757241010932
 20
3349.50490082184
 30
0.0
 11
3458.75724101093
 21
3349.50490082184
 31
0.0
  0
LINE
  5
63C1B
330
2
100
AcDbEntity
  8
中心线
100
AcDbLine
 10
4609.854516489835
 20
3497.10490082184
 30
0.0
 11
4609.854516489837
 21
3181.350055847586
 31
0.0
  0
LINE
  5
63C5A
330
2
100
AcDbEntity
  8
中心线
100
AcDbLine
 10
4609.854516489835
 20
4364.391465174613
 30
0.0
 11
4609.854516489835
 21
4237.878057817462
 31
0.0
  0
LINE
  5
63C6A
330
2
100
AcDbEntity
  8
中心线
100
AcDbLine
 10
4609.854516489835
 20
4363.631669562401
 30
0.0
 11
4609.854516489835
 21
4255.912912192403
 31
0.0
  0
LINE
  5
63C6B
330
2
100
AcDbEntity
  8
0
100
AcDbLine
 10
4599.854516489837
 20
4335.664362623524
 30
0.0
 11
4599.854516489835
 21
4276.59377537111
 31
0.0
  0
LINE
  5
63C6C
330
2
100
AcDbEntity
  8
0
100
AcDbLine
 10
4619.854516489835
 20
4335.664362623524
 30
0.0
 11
4619.854516489835
 21
4276.59377537111
 31
0.0
  0
LINE
  5
63C6E
330
2
100
AcDbEntity
  8
0
100
AcDbLine
 10
4581.354516489835
 20
4348.664362623525
 30
0.0
 11
4638.354516489835
 21
4348.664362623523
 31
0.0
  0
LINE
  5
63C6F
330
2
100
AcDbEntity
  8
0
100
AcDbLine
 10
4581.354516489835
 20
4348.664362623525
 30
0.0
 11
4638.354516489835
 21
4348.664362623523
 31
0.0
  0
LINE
  5
63C70
330
2
100
AcDbEntity
  8
0
100
AcDbLine
 10
4581.354516489835
 20
4335.664362623524
 30
0.0
 11
4638.354516489835
 21
4335.664362623524
 31
0.0
  0
LINE
  5
63C71
330
2
100
AcDbEntity
  8
0
100
AcDbLine
 10
4581.354516489835
 20
4348.664362623525
 30
0.0
 11
4581.354516489835
 21
4335.664362623524
 31
0.0
  0
LINE
  5
63C72
330
2
100
AcDbEntity
  8
0
100
AcDbLine
 10
4638.354516489835
 20
4348.664362623523
 30
0.0
 11
4638.354516489835
 21
4335.664362623524
 31
0.0
  0
LINE
  5
63C74
330
2
100
AcDbEntity
  8
0
100
AcDbLine
 10
4619.753490617091
 20
4276.564362623523
 30
0.0
 11
4694.045081060385
 21
4276.564362623524
 31
0.0
  0
CIRCLE
  5
63D93
330
2
100
AcDbEntity
  8
Hidden
100
AcDbCircle
 10
4609.854516489835
 20
4260.664362623524
 30
0.0
 40
9.999999999998181
  0
LINE
  5
63D9A
330
2
100
AcDbEntity
  8
Hidden
100
AcDbLine
 10
4619.854516489835
 20
4276.59377537111
 30
0.0
 11
4619.854516489833
 21
4260.664362623524
 31
0.0
  0
LINE
  5
63D9B
330
2
100
AcDbEntity
  8
Hidden
100
AcDbLine
 10
4599.955542362578
 20
4276.564362623524
 30
0.0
 11
4599.854516489837
 21
4260.664362623524
 31
0.0
  0
MTEXT
  5
63E05
330
2
100
AcDbEntity
  8
标注
100
AcDbMText
 10
5022.583408166365
 20
2977.618858802821
 30
0.0
 40
21.0
 41
81.096921757764
 46
0.0
 71
     1
 72
     5
  1
{\fSimHei|b0|i0|c134|p2; B}
  7
黑体
 73
     1
 44
1.0
1001
ACAD
1000
ACAD_MTEXT_COLUMN_INFO_BEGIN
1070
    75
1070
     2
1070
    79
1070
     0
1070
    76
1070
     1
1070
    78
1070
     0
1070
    48
1040
81.096921757764
1070
    49
1040
30.0
1070
    50
1070
     1
1040
0.0
1000
ACAD_MTEXT_COLUMN_INFO_END
  0
LWPOLYLINE
  5
63E06
330
2
100
AcDbEntity
  8
标注
100
AcDbPolyline
 90
        3
 70
     1
 43
0.0
 10
5067.663757448973
 20
2950.913180841649
 10
5044.165157438718
 20
2991.185777736893
 10
5021.037365456193
 20
2950.69909472702
  0
LINE
  5
63E07
330
2
100
AcDbEntity
  8
中心线
100
AcDbLine
 10
5066.365179527572
 20
3159.561968404045
 30
0.0
 11
4978.365179527573
 21
3159.561968404045
 31
0.0
  0
ARC
  5
63E08
330
2
100
AcDbEntity
  8
0
100
AcDbCircle
 10
4994.265179527572
 20
3159.561968404045
 30
0.0
 40
14.8
100
AcDbArc
 50
90.0
 51
270.0
  0
ARC
  5
63E09
330
2
100
AcDbEntity
  8
0
100
AcDbCircle
 10
4994.265179527572
 20
3159.561968404045
 30
0.0
 40
15.9
100
AcDbArc
 50
90.0
 51
270.0
  0
DIMENSION
  5
63E0A
330
2
100
AcDbEntity
  8
标注
100
AcDbDimension
280
     0
  2
*D14
 10
5066.365179527571
 20
3015.944593882196
 30
0.0
 11
5088.029505370267
 21
3031.569593882196
 31
0.0
 70
    32
 71
     5
 42
12.99999999999909
 73
     0
 74
     0
 75
     0
  3
线性标注
100
AcDbAlignedDimension
 13
5053.365179527571
 23
3039.698651013029
 33
0.0
 14
5066.365179527571
 24
3039.698651013028
 34
0.0
100
AcDbRotatedDimension
  0
DIMENSION
  5
63E0B
330
2
100
AcDbEntity
  8
标注
100
AcDbDimension
280
     0
  2
*D15
 10
5006.406935654506
 20
3149.296114413554
 30
0.0
 11
4869.372893978766
 21
3265.158387454039
 31
0.0
 70
   163
 71
     5
 42
31.80000000000041
 73
     0
 74
     0
 75
     0
  3
线性标注
100
AcDbDiametricDimension
 15
4982.123423400638
 25
3169.827822394534
 35
0.0
 40
0.0
1001
ACAD
1000
DSTYLE
1002
{
1070
   288
1070
     1
1002
}
1001
ACAD_DSTYLE_DIMRADIAL_EXTENSION
1070
   387
1070
     1
1070
   388
1040
0.0
1070
   390
1040
0.0
  0
DIMENSION
  5
63E0C
330
2
100
AcDbEntity
  8
标注
100
AcDbDimension
280
     0
  2
*D16
 10
5008.006119237629
 20
3165.059838526611
 30
0.0
 11
4837.013794352679
 21
3096.644314260446
 31
0.0
 70
   163
 71
     5
 42
29.60000000000127
 73
     0
 74
     0
 75
     0
  3
线性标注
100
AcDbDiametricDimension
 15
4980.524239817516
 25
3154.064098281477
 35
0.0
 40
0.0
1001
ACAD
1000
DSTYLE
1002
{
1070
   288
1070
     1
1002
}
1001
ACAD_DSTYLE_DIMRADIAL_EXTENSION
1070
   387
1070
     1
1070
   388
1040
0.0
1070
   390
1040
0.0
  0
ARC
  5
63E0D
330
2
100
AcDbEntity
  8
中心线
100
AcDbCircle
 10
5040.265179527572
 20
3125.561968404046
 30
0.0
 40
46.0
100
AcDbArc
 50
180.0
 51
270.0
  0
ARC
  5
63E0E
330
2
100
AcDbEntity
  8
0
100
AcDbCircle
 10
5040.265179527572
 20
3125.561968404046
 30
0.0
 40
36.0
100
AcDbArc
 50
180.0
 51
270.0
  0
ARC
  5
63E0F
330
2
100
AcDbEntity
  8
0
100
AcDbCircle
 10
5040.265179527572
 20
3125.561968404046
 30
0.0
 40
56.0
100
AcDbArc
 50
180.0
 51
270.0
  0
LINE
  5
63E10
330
2
100
AcDbEntity
  8
0
100
AcDbLine
 10
5066.365179527572
 20
3051.061968404045
 30
0.0
 11
5066.365179527572
 21
3108.061968404045
 31
0.0
  0
LINE
  5
63E11
330
2
100
AcDbEntity
  8
0
100
AcDbLine
 10
5053.365179527573
 20
3051.061968404046
 30
0.0
 11
5053.365179527573
 21
3108.061968404046
 31
0.0
  0
LINE
  5
63E12
330
2
100
AcDbEntity
  8
0
100
AcDbLine
 10
5053.365179527573
 20
3108.061968404046
 30
0.0
 11
5066.365179527572
 21
3108.061968404045
 31
0.0
  0
LINE
  5
63E13
330
2
100
AcDbEntity
  8
0
100
AcDbLine
 10
5053.365179527573
 20
3051.061968404046
 30
0.0
 11
5066.365179527572
 21
3051.061968404045
 31
0.0
  0
LINE
  5
63E14
330
2
100
AcDbEntity
  8
中心线
100
AcDbLine
 10
4994.265179527571
 20
3180.211826469279
 30
0.0
 11
4994.265179527571
 21
3125.561968404046
 31
0.0
  0
LINE
  5
63E15
330
2
100
AcDbEntity
  8
0
100
AcDbLine
 10
5004.265179527571
 20
3147.200334207871
 30
0.0
 11
5004.265179527571
 21
3125.561968404046
 31
0.0
  0
LINE
  5
63E16
330
2
100
AcDbEntity
  8
0
100
AcDbLine
 10
4984.265179527572
 20
3147.200334207873
 30
0.0
 11
4984.265179527572
 21
3125.561968404046
 31
0.0
  0
LINE
  5
63E17
330
2
100
AcDbEntity
  8
中心线
100
AcDbLine
 10
5040.265179527572
 20
3079.561968404046
 30
0.0
 11
5075.762626362263
 21
3079.561968404045
 31
0.0
  0
LINE
  5
63E18
330
2
100
AcDbEntity
  8
0
100
AcDbLine
 10
5040.265179527572
 20
3089.561968404046
 30
0.0
 11
5053.365179527573
 21
3089.561968404046
 31
0.0
  0
LINE
  5
63E19
330
2
100
AcDbEntity
  8
0
100
AcDbLine
 10
5040.265179527572
 20
3069.561968404046
 30
0.0
 11
5053.365179527573
 21
3069.561968404046
 31
0.0
  0
DIMENSION
  5
63E1A
330
2
100
AcDbEntity
  8
标注
100
AcDbDimension
280
     0
  2
*D17
 10
5040.265179527567
 20
3125.561968404046
 30
0.0
 11
4957.326167728865
 21
3112.142278185873
 31
0.0
 70
    36
 71
     5
 42
45.99999999999454
 73
     0
 74
     0
 75
     0
  3
线性标注
100
AcDbRadialDimension
 15
4997.014322013243
 25
3109.897890892903
 35
0.0
 40
0.0
1001
ACAD
1000
DSTYLE
1002
{
1070
   288
1070
     1
1002
}
1001
ACAD_DSTYLE_DIMRADIAL_EXTENSION
1070
   387
1070
     1
1070
   388
1040
3.141592653589793
1070
   390
1040
4.712388980384689
  0
DIMENSION
  5
63E1B
330
2
100
AcDbEntity
  8
标注
100
AcDbDimension
280
     0
  2
*D18
 10
5105.768579483553
 20
3079.561968404045
 30
0.0
 11
5089.975040157709
 21
3119.561968404046
 31
0.0
 70
    32
 71
     5
 42
80.0
 73
     0
 74
     0
 75
     0
  3
线性标注
100
AcDbAlignedDimension
 13
5066.365179527572
 23
3159.561968404045
 33
0.0
 14
5066.365179527572
 24
3079.561968404045
 34
0.0
 50
90.0
100
AcDbRotatedDimension
  0
MTEXT
  5
63E1C
330
2
100
AcDbEntity
  8
0
100
AcDbMText
 10
4972.801405307135
 20
3007.925472442468
 30
0.0
 40
25.0
 41
173.5631402998115
 46
0.0
 71
     1
 72
     5
  1
A-A
  7
黑体
 73
     1
 44
1.0
  0
ARC
  5
63E1D
330
2
100
AcDbEntity
  8
0
100
AcDbCircle
 10
4994.26517952757
 20
3159.561968404045
 30
0.0
 40
14.8
100
AcDbArc
 50
270.0
 51
90.0
  0
ARC
  5
63E1E
330
2
100
AcDbEntity
  8
0
100
AcDbCircle
 10
4994.26517952757
 20
3159.561968404045
 30
0.0
 40
15.9
100
AcDbArc
 50
270.0
 51
90.0
  0
ARC
  5
63E91
330
2
100
AcDbEntity
  8
0
100
AcDbCircle
 10
4994.26517952757
 20
3159.561968404045
 30
0.0
 40
28.5
100
AcDbArc
 50
290.5409775375512
 51
249.4590224624566
  0
VIEWPORT
  5
99
330
C
100
AcDbEntity
 67
     1
  8
0
100
AcDbViewport
 10
143.6764787904317
 20
100.2046656547372
 30
0.0
 40
390.1005202556985
 41
202.9375384062431
 68
     1
 69
     1
 12
116.7325519153533
 22
100.551332739372
 13
0.0
 23
0.0
 14
10.0
 24
10.0
 15
10.0
 25
10.0
 16
0.0
 26
0.0
 36
1.0
 17
0.0
 27
0.0
 37
0.0
 42
50.0
 43
0.0
 44
0.0
 45
831.2321573119717
 50
0.0
 51
0.0
 72
   100
 90
    38944
  1

281
     0
 71
     1
 74
     0
110
0.0
120
0.0
130
0.0
111
1.0
121
0.0
131
0.0
112
0.0
122
1.0
132
0.0
 79
     0
146
0.0
170
     2
 61
     5
348
984D
292
     1
282
     1
141
0.0
142
0.0
 63
   250
421
  3355443
  0
MTEXT
  5
2C09
102
{ACAD_XDICTIONARY
360
63F25
102
}
330
C
100
AcDbEntity
 67
     1
  8
ASHADE
 62
     5
100
AcDbMText
 10
231.8996211309493
 20
125.8491204523215
 30
0.0
 40
2.5
 41
66.6875
 46
0.0
 71
     1
 72
     5
  3
\pt24;技术要求:\P\ptz;1.注："☆"号为特注受控处.\P2.所注尺寸为电镀后尺寸.{\fSimSun|b0|i0|c134|p0;\P}3.未注公差为%%p0.1.\P4.未注缧纹倒角为{\fArial|b0|i0|c0|p32;C0.5}.\P5.无毛刺.\P6.壁厚为2.5{\fArial|b0|i0|c134|p32;mm.\P\fSimSun|b0|i0|c134|p0;7\fArial|b0|i0|c134|p32;.}未注铸造圆角{\fArial|b0|i0|c134|
  1
p32;R1\fSimSun|b0|i0|c134|p0;～\fArial|b0|i0|c134|p32;R3.}\P8.表面抛光电镀铬.
 73
     1
 44
1.0
  0
ENDSEC
  0
SECTION
  2
OBJECTS
  0
DICTIONARY
  5
7
330
0
100
AcDbDictionary
281
     1
  3
ACAD_CIP_PREVIOUS_PRODUCT_INFO
350
6063F78
  3
ACAD_COLOR
350
29
  3
ACAD_DETAILVIEWSTYLE
350
6063F6D
  3
ACAD_GROUP
350
25
  3
ACAD_IMAGE_DICT
350
2BE1
  3
ACAD_IMAGE_VARS
350
2BE2
  3
ACAD_LAYOUT
350
B
  3
ACAD_MATERIAL
350
28
  3
ACAD_MLEADERSTYLE
350
987B
  3
ACAD_MLINESTYLE
350
26
  3
ACAD_PLOTSETTINGS
350
27
  3
ACAD_PLOTSTYLENAME
350
6
  3
ACAD_SCALELIST
350
9859
  3
ACAD_SECTIONVIEWSTYLE
350
6063F6B
  3
ACAD_TABLESTYLE
350
46A6
  3
ACAD_VISUALSTYLE
350
9847
  3
AcadDim
350
61415
  3
ACDB_RECOMPOSE_DATA
350
6063F88
  3
ACDBHEADERROUNDTRIPXREC
350
63ABA
  3
ACDBVARIABLEDICTIONARY
350
4557
  3
ASE_INDEX_DICTIONARY
350
63993
  0
DICTIONARY
  5
62567
330
1A
100
AcDbDictionary
280
     1
281
     1
  0
DICTIONARY
  5
3FD7
330
10
100
AcDbDictionary
280
     1
281
     1
  3
ACAD_LAYERFILTERS
360
158C4
  3
ACAD_LAYERSTATES
360
3FD8
  3
ACLYDICTIONARY
360
158C3
  0
DICTIONARY
  5
9891
330
4
100
AcDbDictionary
280
     1
281
     1
  3
ADSK_XREC_LAYER_RECONCILED
360
9892
  0
DICTIONARY
  5
9893
330
400
100
AcDbDictionary
280
     1
281
     1
  3
ADSK_XREC_LAYER_RECONCILED
360
9894
  0
DICTIONARY
  5
9897
330
403
100
AcDbDictionary
280
     1
281
     1
  3
ADSK_XREC_LAYER_RECONCILED
360
9898
  0
DICTIONARY
  5
989B
330
405
100
AcDbDictionary
280
     1
281
     1
  3
ADSK_XREC_LAYER_RECONCILED
360
989C
  0
DICTIONARY
  5
989F
330
92F
100
AcDbDictionary
280
     1
281
     1
  3
ADSK_XREC_LAYER_RECONCILED
360
98A0
  0
DICTIONARY
  5
98A9
330
4563
100
AcDbDictionary
280
     1
281
     1
  3
ADSK_XREC_LAYER_RECONCILED
360
98AA
  0
DICTIONARY
  5
98C5
330
2
100
AcDbDictionary
280
     1
281
     1
  3
ACAD_SORTENTS
360
98C6
  0
DICTIONARY
  5
63F5F
330
63B29
100
AcDbDictionary
280
     1
281
     1
  0
DICTIONARY
  5
63F61
330
63D6C
100
AcDbDictionary
280
     1
281
     1
  0
DICTIONARY
  5
63F65
330
63E8A
100
AcDbDictionary
280
     1
281
     1
  0
DICTIONARY
  5
63F63
330
63E82
100
AcDbDictionary
280
     1
281
     1
  0
DICTIONARY
  5
63F25
330
2C09
100
AcDbDictionary
280
     1
281
     1
  0
XRECORD
  5
6063F78
102
{ACAD_REACTORS
330
7
102
}
330
7
100
AcDbXrecord
280
     1
300
ACD
300
2017
300
ACD_F_S
  0
DICTIONARY
  5
29
102
{ACAD_REACTORS
330
7
102
}
330
7
100
AcDbDictionary
281
     1
  0
DICTIONARY
  5
6063F6D
102
{ACAD_REACTORS
330
7
102
}
330
7
100
AcDbDictionary
281
     1
  3
Metric50
350
6063F6E
  0
DICTIONARY
  5
25
102
{ACAD_REACTORS
330
7
102
}
330
7
100
AcDbDictionary
281
     1
  0
DICTIONARY
  5
2BE1
102
{ACAD_REACTORS
330
7
102
}
330
7
100
AcDbDictionary
281
     1
  3
irunin
350
2BE3
  0
ACAD_PROXY_OBJECT
  5
2BE2
102
{ACAD_REACTORS
330
7
102
}
330
7
100
AcDbProxyObject
 90
      499
 91
      508
 95
       27
 70
     0
162
                 0
161
                40
310
409014050100
 94
        0
1001
ACAD
1000
AcRTDxfName
1000
RASTERVARIABLES
1000
AcRTDxfName
1000
RASTERVARIABLES
1000
AcRTDxfName
1000
RASTERVARIABLES
1000
AcRTDxfName
1000
RASTERVARIABLES
1000
AcRTDxfName
1000
RASTERVARIABLES
1000
AcRTDxfName
1000
RASTERVARIABLES
1000
AcRTDxfName
1000
RASTERVARIABLES
1000
AcRTDxfName
1000
RASTERVARIABLES
1000
AcRTDxfName
1000
RASTERVARIABLES
1000
AcRTDxfName
1000
RASTERVARIABLES
  0
DICTIONARY
  5
B
102
{ACAD_REACTORS
330
7
102
}
330
7
100
AcDbDictionary
281
     1
  3
Model
350
A
  3
布局1
350
F
1001
AcadStringInfo
1000
MIFCodePage
1070
     5
  0
DICTIONARY
  5
28
102
{ACAD_REACTORS
330
7
102
}
330
7
100
AcDbDictionary
281
     1
  3
ByBlock
350
9837
  3
ByLayer
350
982F
  3
Global
350
983F
  0
DICTIONARY
  5
987B
102
{ACAD_REACTORS
330
7
102
}
330
7
100
AcDbDictionary
281
     1
  3
Standard
350
987C
  0
DICTIONARY
  5
26
102
{ACAD_REACTORS
330
7
102
}
330
7
100
AcDbDictionary
281
     1
  3
Standard
350
2A
  0
DICTIONARY
  5
27
102
{ACAD_REACTORS
330
7
102
}
330
7
100
AcDbDictionary
281
     1
  3
设置1
350
30A40
1001
AcadStringInfo
1000
MIFCodePage
1070
     5
  0
ACDBDICTIONARYWDFLT
  5
6
102
{ACAD_REACTORS
330
7
102
}
330
7
100
AcDbDictionary
281
     1
  3
Normal
350
5
100
AcDbDictionaryWithDefault
340
5
  0
DICTIONARY
  5
9859
102
{ACAD_REACTORS
330
7
102
}
330
7
100
AcDbDictionary
281
     1
  3
A0
350
985A
  3
A1
350
985B
  3
A2
350
985C
  3
A3
350
985D
  3
A4
350
985E
  3
A5
350
985F
  3
A6
350
9860
  3
A7
350
9861
  3
A8
350
9862
  3
A9
350
9863
  3
B0
350
9864
  3
B1
350
9865
  3
B2
350
9866
  3
B3
350
9867
  3
B4
350
9868
  3
B5
350
9869
  3
B6
350
986A
  3
B7
350
986B
  3
B8
350
986C
  3
B9
350
986D
  3
C0
350
986E
  3
C1
350
986F
  3
C2
350
9870
  3
C3
350
9871
  3
C4
350
9872
  3
C5
350
9873
  3
C6
350
9874
  3
C7
350
9875
  3
C8
350
9876
  3
C9
350
9877
  3
D0
350
9878
  3
D1
350
9879
  3
D2
350
987A
  0
DICTIONARY
  5
6063F6B
102
{ACAD_REACTORS
330
7
102
}
330
7
100
AcDbDictionary
281
     1
  3
Metric50
350
6063F6C
  0
DICTIONARY
  5
46A6
102
{ACAD_REACTORS
330
7
102
}
330
7
100
AcDbDictionary
281
     1
  3
Standard
350
9858
  0
DICTIONARY
  5
9847
102
{ACAD_REACTORS
330
7
102
}
330
7
100
AcDbDictionary
281
     1
  3
2dWireframe
350
984D
  3
3D Hidden
350
984F
  3
3dWireframe
350
984E
  3
Basic
350
984C
  3
Brighten
350
9853
  3
ColorChange
350
9857
  3
Conceptual
350
9850
  3
Dim
350
9852
  3
EdgeColorOff
350
63AD0
  3
Facepattern
350
9856
  3
Flat
350
9848
  3
FlatWithEdges
350
9849
  3
Gouraud
350
984A
  3
GouraudWithEdges
350
984B
  3
Hidden
350
63AC8
  3
JitterOff
350
63ACE
  3
Linepattern
350
9855
  3
OverhangOff
350
63ACF
  3
Realistic
350
9851
  3
Shaded
350
63ACD
  3
Shaded with edges
350
63ACC
  3
Shades of Gray
350
63AC9
  3
Sketchy
350
63ACA
  3
Thicken
350
9854
  3
Wireframe
350
63AC7
  3
X-Ray
350
63ACB
  0
XRECORD
  5
61415
102
{ACAD_REACTORS
330
7
102
}
330
7
100
AcDbXrecord
280
     1
 90
   990106
  3

 60
     0
 61
     0
 62
     1
 63
     3
 64
     0
 65
     0
 66
     0
 67
     3
 68
     1
 69
     0
 70
     0
 71
     0
 72
     0
 40
13.70396488517739
170
     1
340
47027
  0
XRECORD
  5
6063F88
102
{ACAD_REACTORS
330
7
102
}
330
7
100
AcDbXrecord
280
     1
 90
        1
330
9858
330
63BDE
330
63E05
330
6063F6C
330
6063F6E
  0
DICTIONARY
  5
63ABA
102
{ACAD_REACTORS
330
7
102
}
330
7
100
AcDbDictionary
281
     1
  0
DICTIONARY
  5
4557
102
{ACAD_REACTORS
330
7
102
}
330
7
100
AcDbDictionary
281
     1
  3
CANNOSCALE
350
B806
  3
CMLEADERSTYLE
350
B804
  3
CTABLESTYLE
350
B803
  3
CVIEWDETAILSTYLE
350
6063F81
  3
CVIEWSECTIONSTYLE
350
6063F82
  3
DGNFRAME
350
62598
  3
DIMASSOC
350
4558
  3
HIDETEXT
350
62597
  3
INDEXCTL
350
62596
  3
LAYEREVAL
350
63AD9
  3
LAYERNOTIFY
350
63ADA
  3
LIGHTINGUNITS
350
B807
  3
MSLTSCALE
350
B805
  3
PROJECTNAME
350
62BD6
  3
SORTENTS
350
62595
  0
DICTIONARY
  5
63993
102
{ACAD_REACTORS
330
7
102
}
330
7
100
AcDbDictionary
281
     1
  3
ASEBlockHierarchyIndexRecord
350
63994
1001
DCO15
1040
1674709282.218
  0
DICTIONARY
  5
158C4
102
{ACAD_REACTORS
330
3FD7
102
}
330
3FD7
100
AcDbDictionary
281
     1
  0
DICTIONARY
  5
3FD8
102
{ACAD_REACTORS
330
3FD7
102
}
330
3FD7
100
AcDbDictionary
281
     1
  0
DICTIONARY
  5
158C3
102
{ACAD_REACTORS
330
3FD7
102
}
330
3FD7
100
AcDbDictionary
281
     1
1001
ACAD
1000
<All
  0
XRECORD
  5
9892
102
{ACAD_REACTORS
330
9891
102
}
330
9891
100
AcDbXrecord
280
     1
290
     1
  0
XRECORD
  5
9894
102
{ACAD_REACTORS
330
9893
102
}
330
9893
100
AcDbXrecord
280
     1
290
     1
  0
XRECORD
  5
9898
102
{ACAD_REACTORS
330
9897
102
}
330
9897
100
AcDbXrecord
280
     1
290
     1
  0
XRECORD
  5
989C
102
{ACAD_REACTORS
330
989B
102
}
330
989B
100
AcDbXrecord
280
     1
290
     1
  0
XRECORD
  5
98A0
102
{ACAD_REACTORS
330
989F
102
}
330
989F
100
AcDbXrecord
280
     1
290
     1
  0
XRECORD
  5
98AA
102
{ACAD_REACTORS
330
98A9
102
}
330
98A9
100
AcDbXrecord
280
     1
290
     1
  0
SORTENTSTABLE
  5
98C6
102
{ACAD_REACTORS
330
98C5
102
}
330
98C5
100
AcDbSortentsTable
330
2
331
63B7C
  5
63B88
331
6266C
  5
62671
331
63B78
  5
63B7C
331
62214
  5
62212
331
62210
  5
62213
331
62660
  5
6266B
331
6225B
  5
62269
331
80BB
  5
87FB
331
62253
  5
62262
331
807B
  5
87F7
331
62460
  5
6265F
331
63BF0
  5
63C1B
331
63BEC
  5
63BEF
331
63BE8
  5
63BEB
331
62690
  5
62969
331
47C4
  5
47C4
331
62240
  5
62251
331
81BF
  5
88BA
331
62439
  5
62460
331
62435
  5
62439
331
62431
  5
62435
331
63BE4
  5
63BE7
331
63BE0
  5
63BE3
331
63BDC
  5
63BDF
331
6268C
  5
62968
331
63BD8
  5
63BDB
331
6223C
  5
6224E
331
62684
  5
6268B
331
6227F
  5
62267
331
47A0
  5
47A0
331
47027
  5
4724F
331
63B6C
  5
63B76
331
629BC
  5
6392E
331
63B89
  5
63BD5
331
62679
  5
62683
331
629B8
  5
638ED
331
62675
  5
6267A
331
62268
  5
6225C
331
62671
  5
62678
331
62264
  5
6225B
331
62219
  5
62226
331
62260
  5
6226D
331
63C72
  5
63C74
331
6266D
  5
62674
331
62974
  5
629B2
331
63B79
  5
63B86
331
62215
  5
62211
331
6225C
  5
62265
331
62258
  5
6226A
331
62968
  5
62974
331
62661
  5
6266C
331
6246D
  5
62660
331
63C6E
  5
63C6F
331
63C6A
  5
63C6B
331
63C5A
  5
62230
331
8D7A
  5
9332
331
638ED
  5
63974
331
63BF1
  5
63C5A
331
63BED
  5
63BF0
331
6224D
  5
62254
331
63BE9
  5
63BEC
331
62432
  5
62438
331
63BE5
  5
63BE8
331
63BE1
  5
63BE4
331
63BDD
  5
63BE0
331
63974
  5
63A5A
331
63BD9
  5
63BDC
331
6223D
  5
6224F
331
62685
  5
6268C
331
81A8
  5
88B6
331
8184
  5
88B5
331
63B6D
  5
63B77
331
63BD6
  5
63BD9
331
6267A
  5
62684
331
629B9
  5
638FD
331
62222
  5
6222F
331
62269
  5
622D6
331
629B1
  5
629B8
331
62265
  5
6226E
331
8151
  5
8822
331
6231F
  5
62431
331
6230B
  5
62430
331
8ED7
  5
9333
331
63B86
  5
63BD4
331
62975
  5
629B3
331
6266A
  5
6266D
331
62216
  5
62216
331
638FD
  5
63A58
331
63B7A
  5
63B87
331
62212
  5
62217
331
62259
  5
62266
331
62969
  5
62975
331
62255
  5
62264
331
63C6F
  5
63C70
331
63C6B
  5
63C6C
331
81C7
  5
88BB
331
63BF2
  5
63C6A
331
63BEE
  5
63BF1
331
63BEA
  5
63BED
331
6269A
  5
6296A
331
6224E
  5
62256
331
7FDE
  5
86EB
331
6243B
  5
6246D
331
62437
  5
6243B
331
6265E
  5
62661
331
62201
  5
62201
331
63B76
  5
63B79
331
63BE6
  5
63BE9
331
63BE2
  5
63BE5
331
63BDE
  5
63BE1
331
63BDA
  5
63BDD
331
62686
  5
62690
331
62289
  5
622E4
331
6222A
  5
62244
331
63B6E
  5
63B78
331
63BD7
  5
63BDA
331
6392E
  5
63A59
331
62227
  5
62245
331
62223
  5
62235
331
629B2
  5
629B9
331
62266
  5
62289
331
62262
  5
6226B
331
63C74
  5
62246
331
63C70
  5
63C71
331
63B87
  5
63BD7
331
6266B
  5
62670
331
62217
  5
62214
331
62213
  5
62218
331
6296A
  5
629B1
331
6220F
  5
6220F
331
62256
  5
62268
331
62252
  5
62257
331
622E4
  5
62337
331
63C6C
  5
63C6D
331
63BEF
  5
63BF2
331
63BEB
  5
63BEE
331
622D6
  5
6231F
331
62243
  5
62252
331
6243C
  5
6265E
331
62438
  5
6243C
331
62430
  5
62437
331
6265F
  5
6266A
331
63B77
  5
63B7A
331
63BE7
  5
63BEA
331
63BE3
  5
63BE6
331
63BDF
  5
63BE2
331
63BDB
  5
63BDE
331
6268B
  5
6269A
331
6223F
  5
62250
331
6223B
  5
6224D
331
6228A
  5
6230B
331
47AF
  5
47AF
331
62683
  5
62686
331
6242C
  5
62432
331
63BD4
  5
63BD8
331
6267C
  5
62685
331
62678
  5
6267C
331
63C1B
  5
62210
331
62674
  5
62679
331
62670
  5
62675
331
629B7
  5
629BC
331
629B3
  5
629B7
331
62218
  5
62219
331
62267
  5
6228A
331
8127
  5
87FF
331
62263
  5
6226C
331
63C71
  5
63C72
  0
ACDBDETAILVIEWSTYLE
  5
6063F6E
102
{ACAD_XDICTIONARY
360
6063F86
102
}
102
{ACAD_REACTORS
330
6063F6D
102
}
330
6063F6D
100
AcDbModelDocViewStyle
 70
     0
  3
Metric50
290
     0
100
AcDbDetailViewStyle
 70
     0
 71
     0
 90
        3
 71
     1
340
12
 62
   256
 40
5.0
340
0
 62
   256
 40
5.0
300

 40
0.0
280
     1
 71
     2
340
8
 90
       25
 62
   256
 71
     3
340
12
 62
   256
 40
5.0
 90
        0
 40
15.0
 90
        1
300
%<\AcVar ViewDetailId>% (%<\AcVar ViewScale \f "%sn">%)
 71
     4
340
8
 90
       25
 62
   256
340
8
 90
       25
 62
   256
280
     0
  0
IMAGEDEF
  5
2BE3
102
{ACAD_REACTORS
330
2BE1
102
}
330
2BE1
100
AcDbRasterImageDef
 90
        0
  1
C:\boot\irunin.bmp
 10
111.0
 20
63.0
 11
0.009009009009009
 21
0.009009009009009
280
     1
281
     0
  0
LAYOUT
  5
A
102
{ACAD_XDICTIONARY
360
63AFD
102
}
102
{ACAD_REACTORS
330
B
102
}
330
B
100
AcDbPlotSettings
  1
设置1
  2
\\192.168.1.102\HP LaserJet 1020
  4
A4
  6

 40
4.773083209991455
 41
4.942401409149169
 42
4.815414428710936
 43
4.7730712890625
 44
210.0156707763672
 45
297.0106506347656
 46
0.0
 47
8.162242915879204
 48
4678.397198801646
 49
199.7202550513075
140
4813.122570352224
141
299.3717161006835
142
1.0
143
0.4971953627312283
 70
  3764
 72
     1
 73
     1
 74
     4
  7
acad.ctb
 75
     0
147
2.01128183196788
 76
     1
 77
     2
 78
   300
148
-4678.397198801646
149
-199.7202550513075
100
AcDbLayout
  1
Model
 70
     1
 71
     0
 10
0.0
 20
0.0
 11
12.0
 21
9.0
 12
0.0
 22
0.0
 32
0.0
 14
0.2380952380952381
 24
-0.6113291389338498
 34
0.0
 15
2371.078652631803
 25
1364.802114083393
 35
0.0
146
0.0
 13
0.0
 23
0.0
 33
0.0
 16
1.0
 26
0.0
 36
0.0
 17
0.0
 27
1.0
 37
0.0
 76
     0
330
2
331
63AB8
1001
ACAD_PSEXT
1000
\\192.168.1.102\HP LaserJet 1020
1000
HP LaserJet 1020
1000
\\192.168.1.102
1000

1070
     0
1001
AcadStringInfo
1000
MIFCodePage
1070
     5
  0
LAYOUT
  5
F
102
{ACAD_REACTORS
330
B
102
}
330
B
100
AcDbPlotSettings
  1

  2
在 SKF 上自动 HP LaserJet 1020
  4
A4
  6

 40
4.773083209991455
 41
4.942401409149169
 42
4.815414428710936
 43
4.7730712890625
 44
210.0156707763672
 45
297.0106506347656
 46
0.0
 47
0.0
 48
0.0
 49
0.0
140
0.0
141
0.0
142
1.0
143
1.0
 70
   688
 72
     1
 73
     1
 74
     5
  7
acad.ctb
 75
    16
147
1.0
 76
     1
 77
     2
 78
   300
148
0.0
149
0.0
100
AcDbLayout
  1
布局1
 70
     0
 71
     1
 10
-4.7730712890625
 20
-4.773083209991455
 11
292.2375793457031
 21
205.2425875663757
 12
0.0
 22
0.0
 32
0.0
 14
0.0451739414299368
 24
0.0000025706221436
 34
0.0
 15
287.29517394143
 25
200.4000025706222
 35
0.0
146
0.0
 13
0.0
 23
0.0
 33
0.0
 16
1.0
 26
0.0
 36
0.0
 17
0.0
 27
1.0
 37
0.0
 76
     0
330
C
331
99
1001
AcadStringInfo
1000
MIFCodePage
1070
     5
  0
MATERIAL
  5
9837
102
{ACAD_XDICTIONARY
360
9838
102
}
102
{ACAD_REACTORS
330
28
102
}
330
28
100
AcDbMaterial
  1
ByBlock
 72
     0
 43
0.0008202099737533
 43
0.0
 43
0.0
 43
0.0
 43
0.0
 43
0.0008202099737533
 43
0.0
 43
0.0
 43
0.0
 43
0.0
 43
1.0
 43
0.0
 43
0.0
 43
0.0
 43
0.0
 43
1.0
 77
     0
 47
0.0008202099737533
 47
0.0
 47
0.0
 47
0.0
 47
0.0
 47
0.0008202099737533
 47
0.0
 47
0.0
 47
0.0
 47
0.0
 47
1.0
 47
0.0
 47
0.0
 47
0.0
 47
0.0
 47
1.0
171
     0
 49
0.0008202099737533
 49
0.0
 49
0.0
 49
0.0
 49
0.0
 49
0.0008202099737533
 49
0.0
 49
0.0
 49
0.0
 49
0.0
 49
1.0
 49
0.0
 49
0.0
 49
0.0
 49
0.0
 49
1.0
175
     0
142
0.0008202099737533
142
0.0
142
0.0
142
0.0
142
0.0
142
0.0008202099737533
142
0.0
142
0.0
142
0.0
142
0.0
142
1.0
142
0.0
142
0.0
142
0.0
142
0.0
142
1.0
179
     0
144
0.0008202099737533
144
0.0
144
0.0
144
0.0
144
0.0
144
0.0008202099737533
144
0.0
144
0.0
144
0.0
144
0.0
144
1.0
144
0.0
144
0.0
144
0.0
144
0.0
144
1.0
147
0.0008202099737533
147
0.0
147
0.0
147
0.0
147
0.0
147
0.0008202099737533
147
0.0
147
0.0
147
0.0
147
0.0
147
1.0
147
0.0
147
0.0
147
0.0
147
0.0
147
1.0
  0
MATERIAL
  5
982F
102
{ACAD_XDICTIONARY
360
9830
102
}
102
{ACAD_REACTORS
330
28
102
}
330
28
100
AcDbMaterial
  1
ByLayer
 72
     0
 43
0.0008202099737533
 43
0.0
 43
0.0
 43
0.0
 43
0.0
 43
0.0008202099737533
 43
0.0
 43
0.0
 43
0.0
 43
0.0
 43
1.0
 43
0.0
 43
0.0
 43
0.0
 43
0.0
 43
1.0
 77
     0
 47
0.0008202099737533
 47
0.0
 47
0.0
 47
0.0
 47
0.0
 47
0.0008202099737533
 47
0.0
 47
0.0
 47
0.0
 47
0.0
 47
1.0
 47
0.0
 47
0.0
 47
0.0
 47
0.0
 47
1.0
171
     0
 49
0.0008202099737533
 49
0.0
 49
0.0
 49
0.0
 49
0.0
 49
0.0008202099737533
 49
0.0
 49
0.0
 49
0.0
 49
0.0
 49
1.0
 49
0.0
 49
0.0
 49
0.0
 49
0.0
 49
1.0
175
     0
142
0.0008202099737533
142
0.0
142
0.0
142
0.0
142
0.0
142
0.0008202099737533
142
0.0
142
0.0
142
0.0
142
0.0
142
1.0
142
0.0
142
0.0
142
0.0
142
0.0
142
1.0
179
     0
144
0.0008202099737533
144
0.0
144
0.0
144
0.0
144
0.0
144
0.0008202099737533
144
0.0
144
0.0
144
0.0
144
0.0
144
1.0
144
0.0
144
0.0
144
0.0
144
0.0
144
1.0
147
0.0008202099737533
147
0.0
147
0.0
147
0.0
147
0.0
147
0.0008202099737533
147
0.0
147
0.0
147
0.0
147
0.0
147
1.0
147
0.0
147
0.0
147
0.0
147
0.0
147
1.0
  0
MATERIAL
  5
983F
102
{ACAD_XDICTIONARY
360
9840
102
}
102
{ACAD_REACTORS
330
28
102
}
330
28
100
AcDbMaterial
  1
Global
 72
     0
 43
0.0008202099737533
 43
0.0
 43
0.0
 43
0.0
 43
0.0
 43
0.0008202099737533
 43
0.0
 43
0.0
 43
0.0
 43
0.0
 43
1.0
 43
0.0
 43
0.0
 43
0.0
 43
0.0
 43
1.0
 77
     0
 47
0.0008202099737533
 47
0.0
 47
0.0
 47
0.0
 47
0.0
 47
0.0008202099737533
 47
0.0
 47
0.0
 47
0.0
 47
0.0
 47
1.0
 47
0.0
 47
0.0
 47
0.0
 47
0.0
 47
1.0
171
     0
 49
0.0008202099737533
 49
0.0
 49
0.0
 49
0.0
 49
0.0
 49
0.0008202099737533
 49
0.0
 49
0.0
 49
0.0
 49
0.0
 49
1.0
 49
0.0
 49
0.0
 49
0.0
 49
0.0
 49
1.0
175
     0
142
0.0008202099737533
142
0.0
142
0.0
142
0.0
142
0.0
142
0.0008202099737533
142
0.0
142
0.0
142
0.0
142
0.0
142
1.0
142
0.0
142
0.0
142
0.0
142
0.0
142
1.0
179
     0
144
0.0008202099737533
144
0.0
144
0.0
144
0.0
144
0.0
144
0.0008202099737533
144
0.0
144
0.0
144
0.0
144
0.0
144
1.0
144
0.0
144
0.0
144
0.0
144
0.0
144
1.0
147
0.0008202099737533
147
0.0
147
0.0
147
0.0
147
0.0
147
0.0008202099737533
147
0.0
147
0.0
147
0.0
147
0.0
147
1.0
147
0.0
147
0.0
147
0.0
147
0.0
147
1.0
  0
MLEADERSTYLE
  5
987C
102
{ACAD_REACTORS
330
987B
102
}
330
987B
100
AcDbMLeaderStyle
179
     2
170
     2
171
     1
172
     0
 90
        2
 40
0.0
 41
0.0
173
     1
 91
-1056964608
340
16
 92
       -2
290
     1
 42
2.0
291
     1
 43
0.36
  3
Standard
 44
4.0
300

342
12
174
     1
178
     6
175
     1
176
     0
 93
-1056964608
 45
4.0
292
     0
297
     0
 46
4.0
 94
-1056964608
 47
1.0
 49
1.0
140
1.0
293
     1
141
0.0
294
     1
177
     0
142
1.0
295
     0
296
     0
143
0.125
271
     0
272
     9
273
     9
298
     0
1001
ACAD
1000
AcRTDxfName
1000
MLEADERSTYLE
1000
AcRTDxfName
1000
MLEADERSTYLE
1000
AcRTDxfName
1000
MLEADERSTYLE
1000
AcRTDxfName
1000
MLEADERSTYLE
1000
AcRTDxfName
1000
MLEADERSTYLE
1000
AcRTDxfName
1000
MLEADERSTYLE
  0
MLINESTYLE
  5
2A
102
{ACAD_REACTORS
330
26
102
}
330
26
100
AcDbMlineStyle
  2
STANDARD
 70
     0
  3

 62
   256
 51
90.0
 52
90.0
 71
     2
 49
0.5
 62
   256
  6
BYLAYER
 49
-0.5
 62
   256
  6
BYLAYER
  0
PLOTSETTINGS
  5
30A40
102
{ACAD_REACTORS
330
27
102
}
330
27
100
AcDbPlotSettings
  1
设置1
  2
\\192.168.1.102\HP LaserJet 1020
  4
A4
  6

 40
4.773083209991455
 41
4.942401409149169
 42
4.815414428710936
 43
4.7730712890625
 44
210.0156707763672
 45
297.0106506347656
 46
0.0
 47
8.162242915879204
 48
4678.397198801646
 49
199.7202550513075
140
4813.122570352224
141
299.3717161006835
142
1.0
143
0.4971953627312283
 70
  3764
 72
     1
 73
     1
 74
     4
  7
acad.ctb
 75
     0
147
2.01128183196788
 76
     1
 77
     2
 78
   300
148
-4678.397198801646
149
-199.7202550513075
1001
ACAD_PSEXT
1000
\\192.168.1.102\HP LaserJet 1020
1000
HP LaserJet 1020
1000
\\192.168.1.102
1000

1070
     0
1001
AcadStringInfo
1000
MIFCodePage
1070
     5
  0
ACDBPLACEHOLDER
  5
5
102
{ACAD_REACTORS
330
6
102
}
330
6
  0
SCALE
  5
985A
102
{ACAD_REACTORS
330
9859
102
}
330
9859
100
AcDbScale
 70
     0
300
1:1
140
1.0
141
1.0
290
     1
1001
ACAD
1000
AcRTDxfName
1000
SCALE
1000
AcRTDxfName
1000
SCALE
1000
AcRTDxfName
1000
SCALE
1000
AcRTDxfName
1000
SCALE
1000
AcRTDxfName
1000
SCALE
1000
AcRTDxfName
1000
SCALE
  0
SCALE
  5
985B
102
{ACAD_REACTORS
330
9859
102
}
330
9859
100
AcDbScale
 70
     0
300
1:2
140
1.0
141
2.0
290
     0
1001
ACAD
1000
AcRTDxfName
1000
SCALE
1000
AcRTDxfName
1000
SCALE
1000
AcRTDxfName
1000
SCALE
1000
AcRTDxfName
1000
SCALE
1000
AcRTDxfName
1000
SCALE
1000
AcRTDxfName
1000
SCALE
  0
SCALE
  5
985C
102
{ACAD_REACTORS
330
9859
102
}
330
9859
100
AcDbScale
 70
     0
300
1:4
140
1.0
141
4.0
290
     0
1001
ACAD
1000
AcRTDxfName
1000
SCALE
1000
AcRTDxfName
1000
SCALE
1000
AcRTDxfName
1000
SCALE
1000
AcRTDxfName
1000
SCALE
1000
AcRTDxfName
1000
SCALE
1000
AcRTDxfName
1000
SCALE
  0
SCALE
  5
985D
102
{ACAD_REACTORS
330
9859
102
}
330
9859
100
AcDbScale
 70
     0
300
1:5
140
1.0
141
5.0
290
     0
1001
ACAD
1000
AcRTDxfName
1000
SCALE
1000
AcRTDxfName
1000
SCALE
1000
AcRTDxfName
1000
SCALE
1000
AcRTDxfName
1000
SCALE
1000
AcRTDxfName
1000
SCALE
1000
AcRTDxfName
1000
SCALE
  0
SCALE
  5
985E
102
{ACAD_REACTORS
330
9859
102
}
330
9859
100
AcDbScale
 70
     0
300
1:8
140
1.0
141
8.0
290
     0
1001
ACAD
1000
AcRTDxfName
1000
SCALE
1000
AcRTDxfName
1000
SCALE
1000
AcRTDxfName
1000
SCALE
1000
AcRTDxfName
1000
SCALE
1000
AcRTDxfName
1000
SCALE
1000
AcRTDxfName
1000
SCALE
  0
SCALE
  5
985F
102
{ACAD_REACTORS
330
9859
102
}
330
9859
100
AcDbScale
 70
     0
300
1:10
140
1.0
141
10.0
290
     0
1001
ACAD
1000
AcRTDxfName
1000
SCALE
1000
AcRTDxfName
1000
SCALE
1000
AcRTDxfName
1000
SCALE
1000
AcRTDxfName
1000
SCALE
1000
AcRTDxfName
1000
SCALE
1000
AcRTDxfName
1000
SCALE
  0
SCALE
  5
9860
102
{ACAD_REACTORS
330
9859
102
}
330
9859
100
AcDbScale
 70
     0
300
1:16
140
1.0
141
16.0
290
     0
1001
ACAD
1000
AcRTDxfName
1000
SCALE
1000
AcRTDxfName
1000
SCALE
1000
AcRTDxfName
1000
SCALE
1000
AcRTDxfName
1000
SCALE
1000
AcRTDxfName
1000
SCALE
1000
AcRTDxfName
1000
SCALE
  0
SCALE
  5
9861
102
{ACAD_REACTORS
330
9859
102
}
330
9859
100
AcDbScale
 70
     0
300
1:20
140
1.0
141
20.0
290
     0
1001
ACAD
1000
AcRTDxfName
1000
SCALE
1000
AcRTDxfName
1000
SCALE
1000
AcRTDxfName
1000
SCALE
1000
AcRTDxfName
1000
SCALE
1000
AcRTDxfName
1000
SCALE
1000
AcRTDxfName
1000
SCALE
  0
SCALE
  5
9862
102
{ACAD_REACTORS
330
9859
102
}
330
9859
100
AcDbScale
 70
     0
300
1:30
140
1.0
141
30.0
290
     0
1001
ACAD
1000
AcRTDxfName
1000
SCALE
1000
AcRTDxfName
1000
SCALE
1000
AcRTDxfName
1000
SCALE
1000
AcRTDxfName
1000
SCALE
1000
AcRTDxfName
1000
SCALE
1000
AcRTDxfName
1000
SCALE
  0
SCALE
  5
9863
102
{ACAD_REACTORS
330
9859
102
}
330
9859
100
AcDbScale
 70
     0
300
1:40
140
1.0
141
40.0
290
     0
1001
ACAD
1000
AcRTDxfName
1000
SCALE
1000
AcRTDxfName
1000
SCALE
1000
AcRTDxfName
1000
SCALE
1000
AcRTDxfName
1000
SCALE
1000
AcRTDxfName
1000
SCALE
1000
AcRTDxfName
1000
SCALE
  0
SCALE
  5
9864
102
{ACAD_REACTORS
330
9859
102
}
330
9859
100
AcDbScale
 70
     0
300
1:50
140
1.0
141
50.0
290
     0
1001
ACAD
1000
AcRTDxfName
1000
SCALE
1000
AcRTDxfName
1000
SCALE
1000
AcRTDxfName
1000
SCALE
1000
AcRTDxfName
1000
SCALE
1000
AcRTDxfName
1000
SCALE
1000
AcRTDxfName
1000
SCALE
  0
SCALE
  5
9865
102
{ACAD_REACTORS
330
9859
102
}
330
9859
100
AcDbScale
 70
     0
300
1:100
140
1.0
141
100.0
290
     0
1001
ACAD
1000
AcRTDxfName
1000
SCALE
1000
AcRTDxfName
1000
SCALE
1000
AcRTDxfName
1000
SCALE
1000
AcRTDxfName
1000
SCALE
1000
AcRTDxfName
1000
SCALE
1000
AcRTDxfName
1000
SCALE
  0
SCALE
  5
9866
102
{ACAD_REACTORS
330
9859
102
}
330
9859
100
AcDbScale
 70
     0
300
2:1
140
2.0
141
1.0
290
     0
1001
ACAD
1000
AcRTDxfName
1000
SCALE
1000
AcRTDxfName
1000
SCALE
1000
AcRTDxfName
1000
SCALE
1000
AcRTDxfName
1000
SCALE
1000
AcRTDxfName
1000
SCALE
1000
AcRTDxfName
1000
SCALE
  0
SCALE
  5
9867
102
{ACAD_REACTORS
330
9859
102
}
330
9859
100
AcDbScale
 70
     0
300
4:1
140
4.0
141
1.0
290
     0
1001
ACAD
1000
AcRTDxfName
1000
SCALE
1000
AcRTDxfName
1000
SCALE
1000
AcRTDxfName
1000
SCALE
1000
AcRTDxfName
1000
SCALE
1000
AcRTDxfName
1000
SCALE
1000
AcRTDxfName
1000
SCALE
  0
SCALE
  5
9868
102
{ACAD_REACTORS
330
9859
102
}
330
9859
100
AcDbScale
 70
     0
300
8:1
140
8.0
141
1.0
290
     0
1001
ACAD
1000
AcRTDxfName
1000
SCALE
1000
AcRTDxfName
1000
SCALE
1000
AcRTDxfName
1000
SCALE
1000
AcRTDxfName
1000
SCALE
1000
AcRTDxfName
1000
SCALE
1000
AcRTDxfName
1000
SCALE
  0
SCALE
  5
9869
102
{ACAD_REACTORS
330
9859
102
}
330
9859
100
AcDbScale
 70
     0
300
10:1
140
10.0
141
1.0
290
     0
1001
ACAD
1000
AcRTDxfName
1000
SCALE
1000
AcRTDxfName
1000
SCALE
1000
AcRTDxfName
1000
SCALE
1000
AcRTDxfName
1000
SCALE
1000
AcRTDxfName
1000
SCALE
1000
AcRTDxfName
1000
SCALE
  0
SCALE
  5
986A
102
{ACAD_REACTORS
330
9859
102
}
330
9859
100
AcDbScale
 70
     0
300
100:1
140
100.0
141
1.0
290
     0
1001
ACAD
1000
AcRTDxfName
1000
SCALE
1000
AcRTDxfName
1000
SCALE
1000
AcRTDxfName
1000
SCALE
1000
AcRTDxfName
1000
SCALE
1000
AcRTDxfName
1000
SCALE
1000
AcRTDxfName
1000
SCALE
  0
SCALE
  5
986B
102
{ACAD_REACTORS
330
9859
102
}
330
9859
100
AcDbScale
 70
     0
300
1/128" = 1'-0"
140
0.0078125
141
12.0
290
     0
1001
ACAD
1000
AcRTDxfName
1000
SCALE
1000
AcRTDxfName
1000
SCALE
1000
AcRTDxfName
1000
SCALE
1000
AcRTDxfName
1000
SCALE
1000
AcRTDxfName
1000
SCALE
1000
AcRTDxfName
1000
SCALE
  0
SCALE
  5
986C
102
{ACAD_REACTORS
330
9859
102
}
330
9859
100
AcDbScale
 70
     0
300
1/64" = 1'-0"
140
0.015625
141
12.0
290
     0
1001
ACAD
1000
AcRTDxfName
1000
SCALE
1000
AcRTDxfName
1000
SCALE
1000
AcRTDxfName
1000
SCALE
1000
AcRTDxfName
1000
SCALE
1000
AcRTDxfName
1000
SCALE
1000
AcRTDxfName
1000
SCALE
  0
SCALE
  5
986D
102
{ACAD_REACTORS
330
9859
102
}
330
9859
100
AcDbScale
 70
     0
300
1/32" = 1'-0"
140
0.03125
141
12.0
290
     0
1001
ACAD
1000
AcRTDxfName
1000
SCALE
1000
AcRTDxfName
1000
SCALE
1000
AcRTDxfName
1000
SCALE
1000
AcRTDxfName
1000
SCALE
1000
AcRTDxfName
1000
SCALE
1000
AcRTDxfName
1000
SCALE
  0
SCALE
  5
986E
102
{ACAD_REACTORS
330
9859
102
}
330
9859
100
AcDbScale
 70
     0
300
1/16" = 1'-0"
140
0.0625
141
12.0
290
     0
1001
ACAD
1000
AcRTDxfName
1000
SCALE
1000
AcRTDxfName
1000
SCALE
1000
AcRTDxfName
1000
SCALE
1000
AcRTDxfName
1000
SCALE
1000
AcRTDxfName
1000
SCALE
1000
AcRTDxfName
1000
SCALE
  0
SCALE
  5
986F
102
{ACAD_REACTORS
330
9859
102
}
330
9859
100
AcDbScale
 70
     0
300
3/32" = 1'-0"
140
0.09375
141
12.0
290
     0
1001
ACAD
1000
AcRTDxfName
1000
SCALE
1000
AcRTDxfName
1000
SCALE
1000
AcRTDxfName
1000
SCALE
1000
AcRTDxfName
1000
SCALE
1000
AcRTDxfName
1000
SCALE
1000
AcRTDxfName
1000
SCALE
  0
SCALE
  5
9870
102
{ACAD_REACTORS
330
9859
102
}
330
9859
100
AcDbScale
 70
     0
300
1/8" = 1'-0"
140
0.125
141
12.0
290
     0
1001
ACAD
1000
AcRTDxfName
1000
SCALE
1000
AcRTDxfName
1000
SCALE
1000
AcRTDxfName
1000
SCALE
1000
AcRTDxfName
1000
SCALE
1000
AcRTDxfName
1000
SCALE
1000
AcRTDxfName
1000
SCALE
  0
SCALE
  5
9871
102
{ACAD_REACTORS
330
9859
102
}
330
9859
100
AcDbScale
 70
     0
300
3/16" = 1'-0"
140
0.1875
141
12.0
290
     0
1001
ACAD
1000
AcRTDxfName
1000
SCALE
1000
AcRTDxfName
1000
SCALE
1000
AcRTDxfName
1000
SCALE
1000
AcRTDxfName
1000
SCALE
1000
AcRTDxfName
1000
SCALE
1000
AcRTDxfName
1000
SCALE
  0
SCALE
  5
9872
102
{ACAD_REACTORS
330
9859
102
}
330
9859
100
AcDbScale
 70
     0
300
1/4" = 1'-0"
140
0.25
141
12.0
290
     0
1001
ACAD
1000
AcRTDxfName
1000
SCALE
1000
AcRTDxfName
1000
SCALE
1000
AcRTDxfName
1000
SCALE
1000
AcRTDxfName
1000
SCALE
1000
AcRTDxfName
1000
SCALE
1000
AcRTDxfName
1000
SCALE
  0
SCALE
  5
9873
102
{ACAD_REACTORS
330
9859
102
}
330
9859
100
AcDbScale
 70
     0
300
3/8" = 1'-0"
140
0.375
141
12.0
290
     0
1001
ACAD
1000
AcRTDxfName
1000
SCALE
1000
AcRTDxfName
1000
SCALE
1000
AcRTDxfName
1000
SCALE
1000
AcRTDxfName
1000
SCALE
1000
AcRTDxfName
1000
SCALE
1000
AcRTDxfName
1000
SCALE
  0
SCALE
  5
9874
102
{ACAD_REACTORS
330
9859
102
}
330
9859
100
AcDbScale
 70
     0
300
1/2" = 1'-0"
140
0.5
141
12.0
290
     0
1001
ACAD
1000
AcRTDxfName
1000
SCALE
1000
AcRTDxfName
1000
SCALE
1000
AcRTDxfName
1000
SCALE
1000
AcRTDxfName
1000
SCALE
1000
AcRTDxfName
1000
SCALE
1000
AcRTDxfName
1000
SCALE
  0
SCALE
  5
9875
102
{ACAD_REACTORS
330
9859
102
}
330
9859
100
AcDbScale
 70
     0
300
3/4" = 1'-0"
140
0.75
141
12.0
290
     0
1001
ACAD
1000
AcRTDxfName
1000
SCALE
1000
AcRTDxfName
1000
SCALE
1000
AcRTDxfName
1000
SCALE
1000
AcRTDxfName
1000
SCALE
1000
AcRTDxfName
1000
SCALE
1000
AcRTDxfName
1000
SCALE
  0
SCALE
  5
9876
102
{ACAD_REACTORS
330
9859
102
}
330
9859
100
AcDbScale
 70
     0
300
1" = 1'-0"
140
1.0
141
12.0
290
     0
1001
ACAD
1000
AcRTDxfName
1000
SCALE
1000
AcRTDxfName
1000
SCALE
1000
AcRTDxfName
1000
SCALE
1000
AcRTDxfName
1000
SCALE
1000
AcRTDxfName
1000
SCALE
1000
AcRTDxfName
1000
SCALE
  0
SCALE
  5
9877
102
{ACAD_REACTORS
330
9859
102
}
330
9859
100
AcDbScale
 70
     0
300
1-1/2" = 1'-0"
140
1.5
141
12.0
290
     0
1001
ACAD
1000
AcRTDxfName
1000
SCALE
1000
AcRTDxfName
1000
SCALE
1000
AcRTDxfName
1000
SCALE
1000
AcRTDxfName
1000
SCALE
1000
AcRTDxfName
1000
SCALE
1000
AcRTDxfName
1000
SCALE
  0
SCALE
  5
9878
102
{ACAD_REACTORS
330
9859
102
}
330
9859
100
AcDbScale
 70
     0
300
3" = 1'-0"
140
3.0
141
12.0
290
     0
1001
ACAD
1000
AcRTDxfName
1000
SCALE
1000
AcRTDxfName
1000
SCALE
1000
AcRTDxfName
1000
SCALE
1000
AcRTDxfName
1000
SCALE
1000
AcRTDxfName
1000
SCALE
1000
AcRTDxfName
1000
SCALE
  0
SCALE
  5
9879
102
{ACAD_REACTORS
330
9859
102
}
330
9859
100
AcDbScale
 70
     0
300
6" = 1'-0"
140
6.0
141
12.0
290
     0
1001
ACAD
1000
AcRTDxfName
1000
SCALE
1000
AcRTDxfName
1000
SCALE
1000
AcRTDxfName
1000
SCALE
1000
AcRTDxfName
1000
SCALE
1000
AcRTDxfName
1000
SCALE
1000
AcRTDxfName
1000
SCALE
  0
SCALE
  5
987A
102
{ACAD_REACTORS
330
9859
102
}
330
9859
100
AcDbScale
 70
     0
300
1'-0" = 1'-0"
140
12.0
141
12.0
290
     0
1001
ACAD
1000
AcRTDxfName
1000
SCALE
1000
AcRTDxfName
1000
SCALE
1000
AcRTDxfName
1000
SCALE
1000
AcRTDxfName
1000
SCALE
1000
AcRTDxfName
1000
SCALE
1000
AcRTDxfName
1000
SCALE
  0
ACDBSECTIONVIEWSTYLE
  5
6063F6C
102
{ACAD_XDICTIONARY
360
6063F84
102
}
102
{ACAD_REACTORS
330
6063F6B
102
}
330
6063F6B
100
AcDbModelDocViewStyle
 70
     0
  3
Metric50
290
     0
100
AcDbSectionViewStyle
 70
     0
 71
     0
 90
      102
 71
     1
340
12
 62
   256
 40
5.0
340
0
340
0
 62
   256
 40
5.0
300
I, O, Q, S, X, Z
 40
10.0
 90
        0
 40
2.5
 90
        0
 71
     2
340
8
 90
       25
 62
   256
340
8
 90
       50
 62
   256
 40
5.0
 40
2.5
 40
5.0
 71
     3
340
12
 62
   256
 40
5.0
 90
        0
 40
15.0
 90
        1
300
%<\AcVar ViewSectionStartId>%-%<\AcVar ViewSectionEndId>% (%<\AcVar ViewScale \f "%sn">%)
 71
     4
 62
   256
 62
   257
300
ANSI31
 40
1.0
 90
        0
290
     0
290
     0
 90
        6
 40
0.0
 40
1.570796326794896
 40
0.2617993877991494
 40
1.308996938995747
 40
-0.2617993877991494
 40
1.832595714594046
  0
TABLESTYLE
  5
9858
102
{ACAD_XDICTIONARY
360
B800
102
}
102
{ACAD_REACTORS
330
46A6
102
}
330
46A6
100
AcDbTableStyle
280
     0
  3
Standard
 70
     0
 71
     0
 40
1.5
 41
1.5
280
     0
281
     0
  7
Standard
140
4.5
170
     2
 62
     0
 63
     7
283
     0
 90
      512
 91
        0
  1

274
    -2
284
     1
 64
     0
275
    -2
285
     1
 65
     0
276
    -2
286
     1
 66
     0
277
    -2
287
     1
 67
     0
278
    -2
288
     1
 68
     0
279
    -2
289
     1
 69
     0
  7
Standard
140
6.0
170
     5
 62
     0
 63
     7
283
     0
 90
      512
 91
        0
  1

274
    -2
284
     1
 64
     0
275
    -2
285
     1
 65
     0
276
    -2
286
     1
 66
     0
277
    -2
287
     1
 67
     0
278
    -2
288
     1
 68
     0
279
    -2
289
     1
 69
     0
  7
Standard
140
4.5
170
     5
 62
     0
 63
     7
283
     0
 90
      512
 91
        0
  1

274
    -2
284
     1
 64
     0
275
    -2
285
     1
 65
     0
276
    -2
286
     1
 66
     0
277
    -2
287
     1
 67
     0
278
    -2
288
     1
 68
     0
279
    -2
289
     1
 69
     0
  0
VISUALSTYLE
  5
984D
102
{ACAD_REACTORS
330
9847
102
}
330
9847
100
AcDbVisualStyle
  2
2dWireframe
 70
     4
177
     3
291
     0
 70
    58
 90
        0
176
     1
 90
        2
176
     1
 90
        0
176
     1
 90
        0
176
     1
 40
0.6
176
     1
 40
30.0
176
     1
 62
     7
176
     1
 90
        1
176
     1
 90
        4
176
     1
 62
     7
176
     1
 62
   257
176
     1
 90
        1
176
     1
 90
        1
176
     1
 40
1.0
176
     1
 90
        0
176
     1
 62
   257
176
     1
 40
1.0
176
     1
 90
        1
176
     1
 90
        6
176
     1
 90
        2
176
     1
 62
     7
176
     1
 90
        5
176
     1
 90
        0
176
     1
 90
        0
176
     1
290
     0
176
     1
 90
        1
176
     1
 40
0.0
176
     1
 90
        0
176
     1
290
     1
176
     1
290
     1
176
     1
290
     0
176
     1
290
     0
176
     1
290
     0
176
     1
290
     0
176
     1
290
     0
176
     1
290
     0
176
     1
290
     0
176
     1
 90
       50
176
     1
 40
0.0
176
     1
 40
1.0
176
     1
 90
        0
176
     1
 62
    18
420
        0
176
     1
 90
       50
176
     1
 90
        3
176
     1
 62
     5
420
      255
176
     1
290
     0
176
     1
 90
       50
176
     1
 90
       50
176
     1
 90
       50
176
     1
290
     0
176
     1
 90
       50
176
     1
 62
   256
176
     0
 40
1.0
176
     0
 90
        2
176
     1
  1
strokes_ogs.tif
176
     1
290
     0
176
     1
 40
1.0
176
     1
 40
1.0
176
     1
1001
ACAD
1000
AcRTDxfName
1000
VISUALSTYLE
1000
AcRTDxfName
1000
VISUALSTYLE
1000
AcRTDxfName
1000
VISUALSTYLE
1000
AcRTDxfName
1000
VISUALSTYLE
1000
AcRTDxfName
1000
VISUALSTYLE
1000
AcRTDxfName
1000
VISUALSTYLE
  0
VISUALSTYLE
  5
984F
102
{ACAD_REACTORS
330
9847
102
}
330
9847
100
AcDbVisualStyle
  2
3D Hidden
 70
     6
177
     3
291
     0
 70
    58
 90
        1
176
     1
 90
        2
176
     1
 90
        2
176
     1
 90
        0
176
     1
 40
0.6
176
     1
 40
30.0
176
     1
 62
     7
176
     1
 90
        2
176
     1
 90
        2
176
     1
 62
     7
176
     1
 62
   257
176
     1
 90
        2
176
     1
 90
        1
176
     1
 40
40.0
176
     1
 90
        0
176
     1
 62
   257
176
     1
 40
1.0
176
     1
 90
        1
176
     1
 90
        6
176
     1
 90
        2
176
     1
 62
     7
176
     1
 90
        3
176
     1
 90
        0
176
     1
 90
        0
176
     1
290
     0
176
     1
 90
        1
176
     1
 40
0.0
176
     1
 90
        0
176
     1
290
     0
176
     1
290
     1
176
     1
290
     1
176
     1
290
     0
176
     1
290
     0
176
     1
290
     0
176
     1
290
     0
176
     1
290
     0
176
     1
290
     0
176
     1
 90
       50
176
     1
 40
0.0
176
     1
 40
1.0
176
     1
 90
        0
176
     1
 62
    18
420
        0
176
     1
 90
       50
176
     1
 90
        3
176
     1
 62
     5
420
      255
176
     1
290
     0
176
     1
 90
       50
176
     1
 90
       50
176
     1
 90
       50
176
     1
290
     0
176
     1
 90
       50
176
     1
 62
   256
176
     0
 40
1.0
176
     0
 90
        2
176
     1
  1
strokes_ogs.tif
176
     1
290
     0
176
     1
 40
1.0
176
     1
 40
1.0
176
     1
1001
ACAD
1000
AcRTDxfName
1000
VISUALSTYLE
1000
AcRTDxfName
1000
VISUALSTYLE
1000
AcRTDxfName
1000
VISUALSTYLE
1000
AcRTDxfName
1000
VISUALSTYLE
1000
AcRTDxfName
1000
VISUALSTYLE
1000
AcRTDxfName
1000
VISUALSTYLE
  0
VISUALSTYLE
  5
984E
102
{ACAD_REACTORS
330
9847
102
}
330
9847
100
AcDbVisualStyle
  2
3dWireframe
 70
     5
177
     3
291
     0
 70
    58
 90
        0
176
     1
 90
        2
176
     1
 90
        0
176
     1
 90
        0
176
     1
 40
0.6
176
     1
 40
30.0
176
     1
 62
     7
176
     1
 90
        1
176
     1
 90
        4
176
     1
 62
     7
176
     1
 62
   257
176
     1
 90
        1
176
     1
 90
        1
176
     1
 40
1.0
176
     1
 90
        0
176
     1
 62
   257
176
     1
 40
1.0
176
     1
 90
        1
176
     1
 90
        6
176
     1
 90
        2
176
     1
 62
     7
176
     1
 90
        5
176
     1
 90
        0
176
     1
 90
        0
176
     1
290
     0
176
     1
 90
        1
176
     1
 40
0.0
176
     1
 90
        0
176
     1
290
     0
176
     1
290
     1
176
     1
290
     1
176
     1
290
     0
176
     1
290
     0
176
     1
290
     0
176
     1
290
     0
176
     1
290
     0
176
     1
290
     0
176
     1
 90
       50
176
     1
 40
0.0
176
     1
 40
1.0
176
     1
 90
        0
176
     1
 62
    18
420
        0
176
     1
 90
       50
176
     1
 90
        3
176
     1
 62
     5
420
      255
176
     1
290
     0
176
     1
 90
       50
176
     1
 90
       50
176
     1
 90
       50
176
     1
290
     0
176
     1
 90
       50
176
     1
 62
   256
176
     0
 40
1.0
176
     0
 90
        2
176
     1
  1
strokes_ogs.tif
176
     1
290
     0
176
     1
 40
1.0
176
     1
 40
1.0
176
     1
1001
ACAD
1000
AcRTDxfName
1000
VISUALSTYLE
1000
AcRTDxfName
1000
VISUALSTYLE
1000
AcRTDxfName
1000
VISUALSTYLE
1000
AcRTDxfName
1000
VISUALSTYLE
1000
AcRTDxfName
1000
VISUALSTYLE
1000
AcRTDxfName
1000
VISUALSTYLE
  0
VISUALSTYLE
  5
984C
102
{ACAD_REACTORS
330
9847
102
}
330
9847
100
AcDbVisualStyle
  2
Basic
 70
     7
177
     3
291
     1
 70
    58
 90
        1
176
     1
 90
        0
176
     1
 90
        1
176
     1
 90
        0
176
     1
 40
0.6
176
     1
 40
30.0
176
     1
 62
     7
176
     1
 90
        0
176
     1
 90
        4
176
     1
 62
     7
176
     1
 62
   257
176
     1
 90
        1
176
     1
 90
        1
176
     1
 40
1.0
176
     1
 90
        8
176
     1
 62
     7
176
     1
 40
1.0
176
     1
 90
        1
176
     1
 90
        6
176
     1
 90
        2
176
     1
 62
     7
176
     1
 90
        5
176
     1
 90
        0
176
     1
 90
        0
176
     1
290
     0
176
     1
 90
        1
176
     1
 40
0.0
176
     1
 90
        0
176
     1
290
     0
176
     1
290
     1
176
     1
290
     1
176
     1
290
     0
176
     1
290
     0
176
     1
290
     0
176
     1
290
     0
176
     1
290
     0
176
     1
290
     0
176
     1
 90
       50
176
     1
 40
0.0
176
     1
 40
1.0
176
     1
 90
        0
176
     1
 62
    18
420
        0
176
     1
 90
       50
176
     1
 90
        3
176
     1
 62
     5
420
      255
176
     1
290
     0
176
     1
 90
       50
176
     1
 90
       50
176
     1
 90
       50
176
     1
290
     0
176
     1
 90
       50
176
     1
 62
   256
176
     0
 40
1.0
176
     0
 90
        2
176
     1
  1
strokes_ogs.tif
176
     1
290
     0
176
     1
 40
1.0
176
     1
 40
1.0
176
     1
1001
ACAD
1000
AcRTDxfName
1000
VISUALSTYLE
1000
AcRTDxfName
1000
VISUALSTYLE
1000
AcRTDxfName
1000
VISUALSTYLE
1000
AcRTDxfName
1000
VISUALSTYLE
1000
AcRTDxfName
1000
VISUALSTYLE
1000
AcRTDxfName
1000
VISUALSTYLE
  0
VISUALSTYLE
  5
9853
102
{ACAD_REACTORS
330
9847
102
}
330
9847
100
AcDbVisualStyle
  2
Brighten
 70
    12
177
     3
291
     1
 70
    58
 90
        2
176
     1
 90
        2
176
     1
 90
        0
176
     1
 90
        0
176
     1
 40
0.6
176
     1
 40
30.0
176
     1
 62
     7
176
     1
 90
        1
176
     1
 90
        4
176
     1
 62
     7
176
     1
 62
   257
176
     1
 90
        1
176
     1
 90
        1
176
     1
 40
1.0
176
     1
 90
        8
176
     1
 62
     7
176
     1
 40
1.0
176
     1
 90
        1
176
     1
 90
        6
176
     1
 90
        2
176
     1
 62
     7
176
     1
 90
        5
176
     1
 90
        0
176
     1
 90
        0
176
     1
290
     0
176
     1
 90
        1
176
     1
 40
50.0
176
     1
 90
        0
176
     1
290
     0
176
     1
290
     1
176
     1
290
     1
176
     1
290
     0
176
     1
290
     0
176
     1
290
     0
176
     1
290
     0
176
     1
290
     0
176
     1
290
     0
176
     1
 90
       50
176
     1
 40
0.0
176
     1
 40
1.0
176
     1
 90
        0
176
     1
 62
    18
420
        0
176
     1
 90
       50
176
     1
 90
        3
176
     1
 62
     5
420
      255
176
     1
290
     0
176
     1
 90
       50
176
     1
 90
       50
176
     1
 90
       50
176
     1
290
     0
176
     1
 90
       50
176
     1
 62
   256
176
     0
 40
1.0
176
     0
 90
        2
176
     1
  1
strokes_ogs.tif
176
     1
290
     0
176
     1
 40
1.0
176
     1
 40
1.0
176
     1
1001
ACAD
1000
AcRTDxfName
1000
VISUALSTYLE
1000
AcRTDxfName
1000
VISUALSTYLE
1000
AcRTDxfName
1000
VISUALSTYLE
1000
AcRTDxfName
1000
VISUALSTYLE
1000
AcRTDxfName
1000
VISUALSTYLE
1000
AcRTDxfName
1000
VISUALSTYLE
  0
VISUALSTYLE
  5
9857
102
{ACAD_REACTORS
330
9847
102
}
330
9847
100
AcDbVisualStyle
  2
ColorChange
 70
    16
177
     3
291
     1
 70
    58
 90
        2
176
     1
 90
        2
176
     1
 90
        3
176
     1
 90
        0
176
     1
 40
0.6
176
     1
 40
30.0
176
     1
 62
     8
176
     1
 90
        1
176
     1
 90
        4
176
     1
 62
     7
176
     1
 62
   257
176
     1
 90
        1
176
     1
 90
        1
176
     1
 40
1.0
176
     1
 90
        8
176
     1
 62
     8
176
     1
 40
1.0
176
     1
 90
        1
176
     1
 90
        6
176
     1
 90
        2
176
     1
 62
     7
176
     1
 90
        5
176
     1
 90
        0
176
     1
 90
        0
176
     1
290
     0
176
     1
 90
        1
176
     1
 40
0.0
176
     1
 90
        0
176
     1
290
     0
176
     1
290
     1
176
     1
290
     1
176
     1
290
     0
176
     1
290
     0
176
     1
290
     0
176
     1
290
     0
176
     1
290
     0
176
     1
290
     0
176
     1
 90
       50
176
     1
 40
0.0
176
     1
 40
1.0
176
     1
 90
        0
176
     1
 62
    18
420
        0
176
     1
 90
       50
176
     1
 90
        3
176
     1
 62
     5
420
      255
176
     1
290
     0
176
     1
 90
       50
176
     1
 90
       50
176
     1
 90
       50
176
     1
290
     0
176
     1
 90
       50
176
     1
 62
   256
176
     0
 40
1.0
176
     0
 90
        2
176
     1
  1
strokes_ogs.tif
176
     1
290
     0
176
     1
 40
1.0
176
     1
 40
1.0
176
     1
1001
ACAD
1000
AcRTDxfName
1000
VISUALSTYLE
1000
AcRTDxfName
1000
VISUALSTYLE
1000
AcRTDxfName
1000
VISUALSTYLE
1000
AcRTDxfName
1000
VISUALSTYLE
1000
AcRTDxfName
1000
VISUALSTYLE
1000
AcRTDxfName
1000
VISUALSTYLE
  0
VISUALSTYLE
  5
9850
102
{ACAD_REACTORS
330
9847
102
}
330
9847
100
AcDbVisualStyle
  2
Conceptual
 70
     9
177
     3
291
     0
 70
    58
 90
        3
176
     1
 90
        2
176
     1
 90
        0
176
     1
 90
        0
176
     1
 40
0.6
176
     1
 40
30.0
176
     1
 62
     7
176
     1
 90
        2
176
     1
 90
        2
176
     1
 62
     7
176
     1
 62
   257
176
     1
 90
        1
176
     1
 90
        1
176
     1
 40
40.0
176
     1
 90
        8
176
     1
 62
     7
176
     1
 40
1.0
176
     1
 90
        1
176
     1
 90
        6
176
     1
 90
        2
176
     1
 62
     7
176
     1
 90
        3
176
     1
 90
        0
176
     1
 90
        0
176
     1
290
     0
176
     1
 90
        1
176
     1
 40
0.0
176
     1
 90
        0
176
     1
290
     0
176
     1
290
     1
176
     1
290
     1
176
     1
290
     0
176
     1
290
     0
176
     1
290
     0
176
     1
290
     0
176
     1
290
     0
176
     1
290
     0
176
     1
 90
       50
176
     1
 40
0.0
176
     1
 40
1.0
176
     1
 90
        0
176
     1
 62
    18
420
        0
176
     1
 90
       50
176
     1
 90
        3
176
     1
 62
     5
420
      255
176
     1
290
     0
176
     1
 90
       50
176
     1
 90
       50
176
     1
 90
       50
176
     1
290
     0
176
     1
 90
       50
176
     1
 62
   256
176
     0
 40
1.0
176
     0
 90
        2
176
     1
  1
strokes_ogs.tif
176
     1
290
     0
176
     1
 40
1.0
176
     1
 40
1.0
176
     1
1001
ACAD
1000
AcRTDxfName
1000
VISUALSTYLE
1000
AcRTDxfName
1000
VISUALSTYLE
1000
AcRTDxfName
1000
VISUALSTYLE
1000
AcRTDxfName
1000
VISUALSTYLE
1000
AcRTDxfName
1000
VISUALSTYLE
1000
AcRTDxfName
1000
VISUALSTYLE
  0
VISUALSTYLE
  5
9852
102
{ACAD_REACTORS
330
9847
102
}
330
9847
100
AcDbVisualStyle
  2
Dim
 70
    11
177
     3
291
     1
 70
    58
 90
        2
176
     1
 90
        2
176
     1
 90
        0
176
     1
 90
        0
176
     1
 40
0.6
176
     1
 40
30.0
176
     1
 62
     7
176
     1
 90
        1
176
     1
 90
        4
176
     1
 62
     7
176
     1
 62
   257
176
     1
 90
        1
176
     1
 90
        1
176
     1
 40
1.0
176
     1
 90
        8
176
     1
 62
     7
176
     1
 40
1.0
176
     1
 90
        1
176
     1
 90
        6
176
     1
 90
        2
176
     1
 62
     7
176
     1
 90
        5
176
     1
 90
        0
176
     1
 90
        0
176
     1
290
     0
176
     1
 90
        1
176
     1
 40
-50.0
176
     1
 90
        0
176
     1
290
     0
176
     1
290
     1
176
     1
290
     1
176
     1
290
     0
176
     1
290
     0
176
     1
290
     0
176
     1
290
     0
176
     1
290
     0
176
     1
290
     0
176
     1
 90
       50
176
     1
 40
0.0
176
     1
 40
1.0
176
     1
 90
        0
176
     1
 62
    18
420
        0
176
     1
 90
       50
176
     1
 90
        3
176
     1
 62
     5
420
      255
176
     1
290
     0
176
     1
 90
       50
176
     1
 90
       50
176
     1
 90
       50
176
     1
290
     0
176
     1
 90
       50
176
     1
 62
   256
176
     0
 40
1.0
176
     0
 90
        2
176
     1
  1
strokes_ogs.tif
176
     1
290
     0
176
     1
 40
1.0
176
     1
 40
1.0
176
     1
1001
ACAD
1000
AcRTDxfName
1000
VISUALSTYLE
1000
AcRTDxfName
1000
VISUALSTYLE
1000
AcRTDxfName
1000
VISUALSTYLE
1000
AcRTDxfName
1000
VISUALSTYLE
1000
AcRTDxfName
1000
VISUALSTYLE
1000
AcRTDxfName
1000
VISUALSTYLE
  0
VISUALSTYLE
  5
63AD0
102
{ACAD_REACTORS
330
9847
102
}
330
9847
100
AcDbVisualStyle
  2
EdgeColorOff
 70
    22
177
     3
291
     1
 70
    58
 90
        2
176
     0
 90
        2
176
     0
 90
        0
176
     0
 90
        0
176
     0
 40
0.6
176
     0
 40
30.0
176
     0
 62
     7
420
 16777215
176
     0
 90
        1
176
     0
 90
        4
176
     0
 62
     7
176
     0
 62
   257
176
     0
 90
        1
176
     0
 90
        1
176
     0
 40
1.0
176
     0
 90
        8
176
     2
 62
     7
176
     0
 40
1.0
176
     0
 90
        1
176
     0
 90
        6
176
     0
 90
        2
176
     0
 62
     7
176
     0
 90
        5
176
     0
 90
        0
176
     0
 90
        0
176
     0
290
     0
176
     0
 90
        1
176
     0
 40
0.0
176
     0
 90
        0
176
     0
290
     0
176
     1
290
     1
176
     1
290
     1
176
     1
290
     0
176
     1
290
     0
176
     1
290
     0
176
     1
290
     0
176
     1
290
     0
176
     1
290
     0
176
     1
 90
       50
176
     1
 40
0.0
176
     1
 40
1.0
176
     1
 90
        0
176
     1
 62
    18
420
        0
176
     1
 90
       50
176
     1
 90
        3
176
     1
 62
     5
420
      255
176
     1
290
     0
176
     1
 90
       50
176
     1
 90
       50
176
     1
 90
       50
176
     1
290
     0
176
     1
 90
       50
176
     1
 62
   256
176
     0
 40
1.0
176
     0
 90
        2
176
     1
  1
strokes_ogs.tif
176
     1
290
     0
176
     1
 40
1.0
176
     1
 40
1.0
176
     1
  0
VISUALSTYLE
  5
9856
102
{ACAD_REACTORS
330
9847
102
}
330
9847
100
AcDbVisualStyle
  2
Facepattern
 70
    15
177
     3
291
     1
 70
    58
 90
        2
176
     1
 90
        2
176
     1
 90
        0
176
     1
 90
        0
176
     1
 40
0.6
176
     1
 40
30.0
176
     1
 62
     7
176
     1
 90
        1
176
     1
 90
        4
176
     1
 62
     7
176
     1
 62
   257
176
     1
 90
        1
176
     1
 90
        1
176
     1
 40
1.0
176
     1
 90
        8
176
     1
 62
     7
176
     1
 40
1.0
176
     1
 90
        1
176
     1
 90
        6
176
     1
 90
        2
176
     1
 62
     7
176
     1
 90
        5
176
     1
 90
        0
176
     1
 90
        0
176
     1
290
     0
176
     1
 90
        1
176
     1
 40
0.0
176
     1
 90
        0
176
     1
290
     0
176
     1
290
     1
176
     1
290
     1
176
     1
290
     0
176
     1
290
     0
176
     1
290
     0
176
     1
290
     0
176
     1
290
     0
176
     1
290
     0
176
     1
 90
       50
176
     1
 40
0.0
176
     1
 40
1.0
176
     1
 90
        0
176
     1
 62
    18
420
        0
176
     1
 90
       50
176
     1
 90
        3
176
     1
 62
     5
420
      255
176
     1
290
     0
176
     1
 90
       50
176
     1
 90
       50
176
     1
 90
       50
176
     1
290
     0
176
     1
 90
       50
176
     1
 62
   256
176
     0
 40
1.0
176
     0
 90
        2
176
     1
  1
strokes_ogs.tif
176
     1
290
     0
176
     1
 40
1.0
176
     1
 40
1.0
176
     1
1001
ACAD
1000
AcRTDxfName
1000
VISUALSTYLE
1000
AcRTDxfName
1000
VISUALSTYLE
1000
AcRTDxfName
1000
VISUALSTYLE
1000
AcRTDxfName
1000
VISUALSTYLE
1000
AcRTDxfName
1000
VISUALSTYLE
1000
AcRTDxfName
1000
VISUALSTYLE
  0
VISUALSTYLE
  5
9848
102
{ACAD_REACTORS
330
9847
102
}
330
9847
100
AcDbVisualStyle
  2
Flat
 70
     0
177
     3
291
     1
 70
    58
 90
        2
176
     1
 90
        1
176
     1
 90
        1
176
     1
 90
        2
176
     1
 40
0.6
176
     1
 40
30.0
176
     1
 62
     7
176
     1
 90
        0
176
     1
 90
        4
176
     1
 62
     7
176
     1
 62
   257
176
     1
 90
        1
176
     1
 90
        1
176
     1
 40
1.0
176
     1
 90
        8
176
     1
 62
     7
176
     1
 40
1.0
176
     1
 90
        1
176
     1
 90
        6
176
     1
 90
        2
176
     1
 62
     7
176
     1
 90
        5
176
     1
 90
        0
176
     1
 90
        0
176
     1
290
     0
176
     1
 90
       13
176
     1
 40
0.0
176
     1
 90
        0
176
     1
290
     0
176
     1
290
     1
176
     1
290
     1
176
     1
290
     0
176
     1
290
     0
176
     1
290
     0
176
     1
290
     0
176
     1
290
     0
176
     1
290
     0
176
     1
 90
       50
176
     1
 40
0.0
176
     1
 40
1.0
176
     1
 90
        0
176
     1
 62
    18
420
        0
176
     1
 90
       50
176
     1
 90
        3
176
     1
 62
     5
420
      255
176
     1
290
     0
176
     1
 90
       50
176
     1
 90
       50
176
     1
 90
       50
176
     1
290
     0
176
     1
 90
       50
176
     1
 62
   256
176
     0
 40
1.0
176
     0
 90
        2
176
     1
  1
strokes_ogs.tif
176
     1
290
     0
176
     1
 40
1.0
176
     1
 40
1.0
176
     1
1001
ACAD
1000
AcRTDxfName
1000
VISUALSTYLE
1000
AcRTDxfName
1000
VISUALSTYLE
1000
AcRTDxfName
1000
VISUALSTYLE
1000
AcRTDxfName
1000
VISUALSTYLE
1000
AcRTDxfName
1000
VISUALSTYLE
1000
AcRTDxfName
1000
VISUALSTYLE
  0
VISUALSTYLE
  5
9849
102
{ACAD_REACTORS
330
9847
102
}
330
9847
100
AcDbVisualStyle
  2
FlatWithEdges
 70
     1
177
     3
291
     1
 70
    58
 90
        2
176
     1
 90
        1
176
     1
 90
        1
176
     1
 90
        2
176
     1
 40
0.6
176
     1
 40
30.0
176
     1
 62
     7
176
     1
 90
        1
176
     1
 90
        4
176
     1
 62
     7
176
     1
 62
   257
176
     1
 90
        1
176
     1
 90
        1
176
     1
 40
1.0
176
     1
 90
        0
176
     1
 62
   257
176
     1
 40
1.0
176
     1
 90
        1
176
     1
 90
        6
176
     1
 90
        2
176
     1
 62
     7
176
     1
 90
        5
176
     1
 90
        0
176
     1
 90
        0
176
     1
290
     0
176
     1
 90
       13
176
     1
 40
0.0
176
     1
 90
        0
176
     1
290
     0
176
     1
290
     1
176
     1
290
     1
176
     1
290
     0
176
     1
290
     0
176
     1
290
     0
176
     1
290
     0
176
     1
290
     0
176
     1
290
     0
176
     1
 90
       50
176
     1
 40
0.0
176
     1
 40
1.0
176
     1
 90
        0
176
     1
 62
    18
420
        0
176
     1
 90
       50
176
     1
 90
        3
176
     1
 62
     5
420
      255
176
     1
290
     0
176
     1
 90
       50
176
     1
 90
       50
176
     1
 90
       50
176
     1
290
     0
176
     1
 90
       50
176
     1
 62
   256
176
     0
 40
1.0
176
     0
 90
        2
176
     1
  1
strokes_ogs.tif
176
     1
290
     0
176
     1
 40
1.0
176
     1
 40
1.0
176
     1
1001
ACAD
1000
AcRTDxfName
1000
VISUALSTYLE
1000
AcRTDxfName
1000
VISUALSTYLE
1000
AcRTDxfName
1000
VISUALSTYLE
1000
AcRTDxfName
1000
VISUALSTYLE
1000
AcRTDxfName
1000
VISUALSTYLE
1000
AcRTDxfName
1000
VISUALSTYLE
  0
VISUALSTYLE
  5
984A
102
{ACAD_REACTORS
330
9847
102
}
330
9847
100
AcDbVisualStyle
  2
Gouraud
 70
     2
177
     3
291
     1
 70
    58
 90
        2
176
     1
 90
        2
176
     1
 90
        1
176
     1
 90
        2
176
     1
 40
0.6
176
     1
 40
30.0
176
     1
 62
     7
176
     1
 90
        0
176
     1
 90
        4
176
     1
 62
     7
176
     1
 62
   257
176
     1
 90
        1
176
     1
 90
        1
176
     1
 40
1.0
176
     1
 90
        0
176
     1
 62
     7
176
     1
 40
1.0
176
     1
 90
        1
176
     1
 90
        6
176
     1
 90
        2
176
     1
 62
     7
176
     1
 90
        5
176
     1
 90
        0
176
     1
 90
        0
176
     1
290
     0
176
     1
 90
       13
176
     1
 40
0.0
176
     1
 90
        0
176
     1
290
     0
176
     1
290
     1
176
     1
290
     1
176
     1
290
     0
176
     1
290
     0
176
     1
290
     0
176
     1
290
     0
176
     1
290
     0
176
     1
290
     0
176
     1
 90
       50
176
     1
 40
0.0
176
     1
 40
1.0
176
     1
 90
        0
176
     1
 62
    18
420
        0
176
     1
 90
       50
176
     1
 90
        3
176
     1
 62
     5
420
      255
176
     1
290
     0
176
     1
 90
       50
176
     1
 90
       50
176
     1
 90
       50
176
     1
290
     0
176
     1
 90
       50
176
     1
 62
   256
176
     0
 40
1.0
176
     0
 90
        2
176
     1
  1
strokes_ogs.tif
176
     1
290
     0
176
     1
 40
1.0
176
     1
 40
1.0
176
     1
1001
ACAD
1000
AcRTDxfName
1000
VISUALSTYLE
1000
AcRTDxfName
1000
VISUALSTYLE
1000
AcRTDxfName
1000
VISUALSTYLE
1000
AcRTDxfName
1000
VISUALSTYLE
1000
AcRTDxfName
1000
VISUALSTYLE
1000
AcRTDxfName
1000
VISUALSTYLE
  0
VISUALSTYLE
  5
984B
102
{ACAD_REACTORS
330
9847
102
}
330
9847
100
AcDbVisualStyle
  2
GouraudWithEdges
 70
     3
177
     3
291
     1
 70
    58
 90
        2
176
     1
 90
        2
176
     1
 90
        1
176
     1
 90
        2
176
     1
 40
0.6
176
     1
 40
30.0
176
     1
 62
     7
176
     1
 90
        1
176
     1
 90
        4
176
     1
 62
     7
176
     1
 62
   257
176
     1
 90
        1
176
     1
 90
        1
176
     1
 40
1.0
176
     1
 90
        0
176
     1
 62
   257
176
     1
 40
1.0
176
     1
 90
        1
176
     1
 90
        6
176
     1
 90
        2
176
     1
 62
     7
176
     1
 90
        5
176
     1
 90
        0
176
     1
 90
        0
176
     1
290
     0
176
     1
 90
       13
176
     1
 40
0.0
176
     1
 90
        0
176
     1
290
     0
176
     1
290
     1
176
     1
290
     1
176
     1
290
     0
176
     1
290
     0
176
     1
290
     0
176
     1
290
     0
176
     1
290
     0
176
     1
290
     0
176
     1
 90
       50
176
     1
 40
0.0
176
     1
 40
1.0
176
     1
 90
        0
176
     1
 62
    18
420
        0
176
     1
 90
       50
176
     1
 90
        3
176
     1
 62
     5
420
      255
176
     1
290
     0
176
     1
 90
       50
176
     1
 90
       50
176
     1
 90
       50
176
     1
290
     0
176
     1
 90
       50
176
     1
 62
   256
176
     0
 40
1.0
176
     0
 90
        2
176
     1
  1
strokes_ogs.tif
176
     1
290
     0
176
     1
 40
1.0
176
     1
 40
1.0
176
     1
1001
ACAD
1000
AcRTDxfName
1000
VISUALSTYLE
1000
AcRTDxfName
1000
VISUALSTYLE
1000
AcRTDxfName
1000
VISUALSTYLE
1000
AcRTDxfName
1000
VISUALSTYLE
1000
AcRTDxfName
1000
VISUALSTYLE
1000
AcRTDxfName
1000
VISUALSTYLE
  0
VISUALSTYLE
  5
63AC8
102
{ACAD_REACTORS
330
9847
102
}
330
9847
100
AcDbVisualStyle
  2
Hidden
 70
     6
177
     3
291
     0
 70
    58
 90
        1
176
     1
 90
        2
176
     1
 90
        2
176
     1
 90
        0
176
     1
 40
0.6
176
     1
 40
30.0
176
     1
 62
     7
420
 16777215
176
     1
 90
        2
176
     1
 90
        2
176
     1
 62
     7
176
     1
 62
   257
176
     1
 90
        2
176
     1
 90
        1
176
     1
 40
40.0
176
     1
 90
        0
176
     1
 62
   257
176
     1
 40
1.0
176
     1
 90
        1
176
     1
 90
        6
176
     1
 90
        2
176
     1
 62
     7
176
     1
 90
        3
176
     1
 90
        0
176
     1
 90
        0
176
     1
290
     0
176
     1
 90
        1
176
     1
 40
0.0
176
     1
 90
        0
176
     1
290
     0
176
     1
290
     1
176
     1
290
     1
176
     1
290
     0
176
     1
290
     0
176
     1
290
     0
176
     1
290
     0
176
     1
290
     0
176
     1
290
     0
176
     1
 90
       50
176
     1
 40
0.0
176
     1
 40
1.0
176
     1
 90
        0
176
     1
 62
    18
420
        0
176
     1
 90
       50
176
     1
 90
        3
176
     1
 62
     5
420
      255
176
     1
290
     0
176
     1
 90
       50
176
     1
 90
       50
176
     1
 90
       50
176
     1
290
     0
176
     1
 90
       50
176
     1
 62
   256
176
     0
 40
1.0
176
     0
 90
        2
176
     1
  1
strokes_ogs.tif
176
     1
290
     0
176
     1
 40
1.0
176
     1
 40
1.0
176
     1
  0
VISUALSTYLE
  5
63ACE
102
{ACAD_REACTORS
330
9847
102
}
330
9847
100
AcDbVisualStyle
  2
JitterOff
 70
    20
177
     3
291
     1
 70
    58
 90
        2
176
     0
 90
        2
176
     0
 90
        0
176
     0
 90
        0
176
     0
 40
0.6
176
     0
 40
30.0
176
     0
 62
     7
420
 16777215
176
     0
 90
        1
176
     0
 90
        4
176
     0
 62
     7
176
     0
 62
   257
176
     0
 90
        1
176
     0
 90
        1
176
     0
 40
1.0
176
     0
 90
       10
176
     2
 62
     7
176
     0
 40
1.0
176
     0
 90
        1
176
     0
 90
        6
176
     0
 90
        2
176
     0
 62
     7
176
     0
 90
        5
176
     0
 90
        0
176
     0
 90
        0
176
     0
290
     0
176
     0
 90
        1
176
     0
 40
0.0
176
     0
 90
        0
176
     0
290
     0
176
     1
290
     1
176
     1
290
     1
176
     1
290
     0
176
     1
290
     0
176
     1
290
     0
176
     1
290
     0
176
     1
290
     0
176
     1
290
     0
176
     1
 90
       50
176
     1
 40
0.0
176
     1
 40
1.0
176
     1
 90
        0
176
     1
 62
    18
420
        0
176
     1
 90
       50
176
     1
 90
        3
176
     1
 62
     5
420
      255
176
     1
290
     0
176
     1
 90
       50
176
     1
 90
       50
176
     1
 90
       50
176
     1
290
     0
176
     1
 90
       50
176
     1
 62
   256
176
     0
 40
1.0
176
     0
 90
        2
176
     1
  1
strokes_ogs.tif
176
     1
290
     0
176
     1
 40
1.0
176
     1
 40
1.0
176
     1
  0
VISUALSTYLE
  5
9855
102
{ACAD_REACTORS
330
9847
102
}
330
9847
100
AcDbVisualStyle
  2
Linepattern
 70
    14
177
     3
291
     1
 70
    58
 90
        2
176
     1
 90
        2
176
     1
 90
        0
176
     1
 90
        0
176
     1
 40
0.6
176
     1
 40
30.0
176
     1
 62
     7
176
     1
 90
        1
176
     1
 90
        4
176
     1
 62
     7
176
     1
 62
   257
176
     1
 90
        7
176
     1
 90
        7
176
     1
 40
1.0
176
     1
 90
        8
176
     1
 62
     7
176
     1
 40
1.0
176
     1
 90
        1
176
     1
 90
        6
176
     1
 90
        2
176
     1
 62
     7
176
     1
 90
        5
176
     1
 90
        0
176
     1
 90
        0
176
     1
290
     0
176
     1
 90
        1
176
     1
 40
0.0
176
     1
 90
        0
176
     1
290
     0
176
     1
290
     1
176
     1
290
     1
176
     1
290
     0
176
     1
290
     0
176
     1
290
     0
176
     1
290
     0
176
     1
290
     0
176
     1
290
     0
176
     1
 90
       50
176
     1
 40
0.0
176
     1
 40
1.0
176
     1
 90
        0
176
     1
 62
    18
420
        0
176
     1
 90
       50
176
     1
 90
        3
176
     1
 62
     5
420
      255
176
     1
290
     0
176
     1
 90
       50
176
     1
 90
       50
176
     1
 90
       50
176
     1
290
     0
176
     1
 90
       50
176
     1
 62
   256
176
     0
 40
1.0
176
     0
 90
        2
176
     1
  1
strokes_ogs.tif
176
     1
290
     0
176
     1
 40
1.0
176
     1
 40
1.0
176
     1
1001
ACAD
1000
AcRTDxfName
1000
VISUALSTYLE
1000
AcRTDxfName
1000
VISUALSTYLE
1000
AcRTDxfName
1000
VISUALSTYLE
1000
AcRTDxfName
1000
VISUALSTYLE
1000
AcRTDxfName
1000
VISUALSTYLE
1000
AcRTDxfName
1000
VISUALSTYLE
  0
VISUALSTYLE
  5
63ACF
102
{ACAD_REACTORS
330
9847
102
}
330
9847
100
AcDbVisualStyle
  2
OverhangOff
 70
    21
177
     3
291
     1
 70
    58
 90
        2
176
     0
 90
        2
176
     0
 90
        0
176
     0
 90
        0
176
     0
 40
0.6
176
     0
 40
30.0
176
     0
 62
     7
420
 16777215
176
     0
 90
        1
176
     0
 90
        4
176
     0
 62
     7
176
     0
 62
   257
176
     0
 90
        1
176
     0
 90
        1
176
     0
 40
1.0
176
     0
 90
        9
176
     2
 62
     7
176
     0
 40
1.0
176
     0
 90
        1
176
     0
 90
        6
176
     0
 90
        2
176
     0
 62
     7
176
     0
 90
        5
176
     0
 90
        0
176
     0
 90
        0
176
     0
290
     0
176
     0
 90
        1
176
     0
 40
0.0
176
     0
 90
        0
176
     0
290
     0
176
     1
290
     1
176
     1
290
     1
176
     1
290
     0
176
     1
290
     0
176
     1
290
     0
176
     1
290
     0
176
     1
290
     0
176
     1
290
     0
176
     1
 90
       50
176
     1
 40
0.0
176
     1
 40
1.0
176
     1
 90
        0
176
     1
 62
    18
420
        0
176
     1
 90
       50
176
     1
 90
        3
176
     1
 62
     5
420
      255
176
     1
290
     0
176
     1
 90
       50
176
     1
 90
       50
176
     1
 90
       50
176
     1
290
     0
176
     1
 90
       50
176
     1
 62
   256
176
     0
 40
1.0
176
     0
 90
        2
176
     1
  1
strokes_ogs.tif
176
     1
290
     0
176
     1
 40
1.0
176
     1
 40
1.0
176
     1
  0
VISUALSTYLE
  5
9851
102
{ACAD_REACTORS
330
9847
102
}
330
9847
100
AcDbVisualStyle
  2
Realistic
 70
     8
177
     3
291
     0
 70
    58
 90
        2
176
     1
 90
        2
176
     1
 90
        0
176
     1
 90
        0
176
     1
 40
0.6
176
     1
 40
30.0
176
     1
 62
     7
176
     1
 90
        1
176
     1
 90
        0
176
     1
 62
     7
176
     1
 62
   257
176
     1
 90
        1
176
     1
 90
        1
176
     1
 40
1.0
176
     1
 90
        8
176
     1
 62
     8
176
     1
 40
1.0
176
     1
 90
        1
176
     1
 90
        6
176
     1
 90
        2
176
     1
 62
     7
176
     1
 90
        5
176
     1
 90
        0
176
     1
 90
        0
176
     1
290
     0
176
     1
 90
       13
176
     1
 40
0.0
176
     1
 90
        0
176
     1
290
     0
176
     1
290
     1
176
     1
290
     1
176
     1
290
     0
176
     1
290
     0
176
     1
290
     0
176
     1
290
     0
176
     1
290
     0
176
     1
290
     0
176
     1
 90
       50
176
     1
 40
0.0
176
     1
 40
1.0
176
     1
 90
        0
176
     1
 62
    18
420
        0
176
     1
 90
       50
176
     1
 90
        3
176
     1
 62
     5
420
      255
176
     1
290
     0
176
     1
 90
       50
176
     1
 90
       50
176
     1
 90
       50
176
     1
290
     0
176
     1
 90
       50
176
     1
 62
   256
176
     0
 40
1.0
176
     0
 90
        2
176
     1
  1
strokes_ogs.tif
176
     1
290
     0
176
     1
 40
1.0
176
     1
 40
1.0
176
     1
1001
ACAD
1000
AcRTDxfName
1000
VISUALSTYLE
1000
AcRTDxfName
1000
VISUALSTYLE
1000
AcRTDxfName
1000
VISUALSTYLE
1000
AcRTDxfName
1000
VISUALSTYLE
1000
AcRTDxfName
1000
VISUALSTYLE
1000
AcRTDxfName
1000
VISUALSTYLE
  0
VISUALSTYLE
  5
63ACD
102
{ACAD_REACTORS
330
9847
102
}
330
9847
100
AcDbVisualStyle
  2
Shaded
 70
    27
177
     3
291
     0
 70
    58
 90
        2
176
     1
 90
        2
176
     1
 90
        1
176
     1
 90
        2
176
     1
 40
0.6
176
     1
 40
30.0
176
     1
 62
     7
420
 16777215
176
     1
 90
        0
176
     1
 90
        4
176
     1
 62
     7
176
     1
 62
   257
176
     1
 90
        1
176
     1
 90
        1
176
     1
 40
1.0
176
     1
 90
        8
176
     1
 62
   257
176
     1
 40
1.0
176
     1
 90
        1
176
     1
 90
        6
176
     1
 90
        2
176
     1
 62
     8
420
  7895160
176
     1
 90
        3
176
     1
 90
        0
176
     1
 90
        0
176
     1
290
     0
176
     1
 90
        5
176
     1
 40
0.0
176
     1
 90
        0
176
     1
290
     0
176
     1
290
     1
176
     1
290
     1
176
     1
290
     0
176
     1
290
     0
176
     1
290
     0
176
     1
290
     0
176
     1
290
     0
176
     1
290
     0
176
     1
 90
       50
176
     1
 40
0.0
176
     1
 40
1.0
176
     1
 90
        0
176
     1
 62
    18
420
        0
176
     1
 90
       50
176
     1
 90
        3
176
     1
 62
     5
420
      255
176
     1
290
     0
176
     1
 90
       50
176
     1
 90
       50
176
     1
 90
       50
176
     1
290
     0
176
     1
 90
       50
176
     1
 62
   256
176
     0
 40
1.0
176
     0
 90
        2
176
     1
  1
strokes_ogs.tif
176
     1
290
     0
176
     1
 40
1.0
176
     1
 40
1.0
176
     1
  0
VISUALSTYLE
  5
63ACC
102
{ACAD_REACTORS
330
9847
102
}
330
9847
100
AcDbVisualStyle
  2
Shaded with edges
 70
    26
177
     3
291
     0
 70
    58
 90
        2
176
     1
 90
        2
176
     1
 90
        1
176
     1
 90
        2
176
     1
 40
0.6
176
     1
 40
30.0
176
     1
 62
     7
420
 16777215
176
     1
 90
        1
176
     1
 90
        2
176
     1
 62
     7
176
     1
 62
   257
176
     1
 90
        2
176
     1
 90
        1
176
     1
 40
1.0
176
     1
 90
        8
176
     1
 62
   257
176
     1
 40
1.0
176
     1
 90
        1
176
     1
 90
        6
176
     1
 90
        2
176
     1
 62
     7
176
     1
 90
        3
176
     1
 90
        0
176
     1
 90
        0
176
     1
290
     0
176
     1
 90
        5
176
     1
 40
0.0
176
     1
 90
        0
176
     1
290
     0
176
     1
290
     1
176
     1
290
     1
176
     1
290
     0
176
     1
290
     0
176
     1
290
     0
176
     1
290
     0
176
     1
290
     0
176
     1
290
     0
176
     1
 90
       50
176
     1
 40
0.0
176
     1
 40
1.0
176
     1
 90
        0
176
     1
 62
    18
420
        0
176
     1
 90
       50
176
     1
 90
        3
176
     1
 62
     5
420
      255
176
     1
290
     0
176
     1
 90
       50
176
     1
 90
       50
176
     1
 90
       50
176
     1
290
     0
176
     1
 90
       50
176
     1
 62
   256
176
     0
 40
1.0
176
     0
 90
        2
176
     1
  1
strokes_ogs.tif
176
     1
290
     0
176
     1
 40
1.0
176
     1
 40
1.0
176
     1
  0
VISUALSTYLE
  5
63AC9
102
{ACAD_REACTORS
330
9847
102
}
330
9847
100
AcDbVisualStyle
  2
Shades of Gray
 70
    23
177
     3
291
     0
 70
    58
 90
        2
176
     1
 90
        2
176
     1
 90
        3
176
     1
 90
        0
176
     1
 40
0.6
176
     1
 40
30.0
176
     1
 62
     7
420
 16777215
176
     1
 90
        2
176
     1
 90
        2
176
     1
 62
     7
176
     1
 62
     7
176
     1
 90
        1
176
     1
 90
        1
176
     1
 40
40.0
176
     1
 90
        8
176
     1
 62
     7
176
     1
 40
1.0
176
     1
 90
        1
176
     1
 90
        6
176
     1
 90
        2
176
     1
 62
     7
176
     1
 90
        3
176
     1
 90
        0
176
     1
 90
        0
176
     1
290
     0
176
     1
 90
        1
176
     1
 40
0.0
176
     1
 90
        0
176
     1
290
     0
176
     1
290
     1
176
     1
290
     1
176
     1
290
     0
176
     1
290
     0
176
     1
290
     0
176
     1
290
     0
176
     1
290
     0
176
     1
290
     0
176
     1
 90
       50
176
     1
 40
0.0
176
     1
 40
1.0
176
     1
 90
        0
176
     1
 62
    18
420
        0
176
     1
 90
       50
176
     1
 90
        3
176
     1
 62
     5
420
      255
176
     1
290
     0
176
     1
 90
       50
176
     1
 90
       50
176
     1
 90
       50
176
     1
290
     0
176
     1
 90
       50
176
     1
 62
   256
176
     0
 40
1.0
176
     0
 90
        2
176
     1
  1
strokes_ogs.tif
176
     1
290
     0
176
     1
 40
1.0
176
     1
 40
1.0
176
     1
  0
VISUALSTYLE
  5
63ACA
102
{ACAD_REACTORS
330
9847
102
}
330
9847
100
AcDbVisualStyle
  2
Sketchy
 70
    24
177
     3
291
     0
 70
    58
 90
        1
176
     1
 90
        2
176
     1
 90
        2
176
     1
 90
        0
176
     1
 40
0.6
176
     1
 40
30.0
176
     1
 62
     7
420
 16777215
176
     1
 90
        2
176
     1
 90
        2
176
     1
 62
     7
176
     1
 62
     7
176
     1
 90
        1
176
     1
 90
        1
176
     1
 40
40.0
176
     1
 90
       11
176
     1
 62
     7
176
     1
 40
1.0
176
     1
 90
        1
176
     1
 90
        6
176
     1
 90
        2
176
     1
 62
     7
176
     1
 90
        6
176
     1
 90
        0
176
     1
 90
        0
176
     1
290
     0
176
     1
 90
        1
176
     1
 40
0.0
176
     1
 90
        0
176
     1
290
     0
176
     1
290
     1
176
     1
290
     1
176
     1
290
     0
176
     1
290
     0
176
     1
290
     0
176
     1
290
     0
176
     1
290
     0
176
     1
290
     0
176
     1
 90
       50
176
     1
 40
0.0
176
     1
 40
1.0
176
     1
 90
        0
176
     1
 62
    18
420
        0
176
     1
 90
       50
176
     1
 90
        3
176
     1
 62
     5
420
      255
176
     1
290
     0
176
     1
 90
       50
176
     1
 90
       50
176
     1
 90
       50
176
     1
290
     0
176
     1
 90
       50
176
     1
 62
   256
176
     0
 40
1.0
176
     0
 90
        2
176
     1
  1
strokes_ogs.tif
176
     1
290
     0
176
     1
 40
1.0
176
     1
 40
1.0
176
     1
  0
VISUALSTYLE
  5
9854
102
{ACAD_REACTORS
330
9847
102
}
330
9847
100
AcDbVisualStyle
  2
Thicken
 70
    13
177
     3
291
     1
 70
    58
 90
        2
176
     1
 90
        2
176
     1
 90
        0
176
     1
 90
        0
176
     1
 40
0.6
176
     1
 40
30.0
176
     1
 62
     7
176
     1
 90
        1
176
     1
 90
        4
176
     1
 62
     7
176
     1
 62
   257
176
     1
 90
        1
176
     1
 90
        1
176
     1
 40
1.0
176
     1
 90
       12
176
     1
 62
     7
176
     1
 40
1.0
176
     1
 90
        1
176
     1
 90
        6
176
     1
 90
        2
176
     1
 62
     7
176
     1
 90
        5
176
     1
 90
        0
176
     1
 90
        0
176
     1
290
     0
176
     1
 90
        1
176
     1
 40
0.0
176
     1
 90
        0
176
     1
290
     0
176
     1
290
     1
176
     1
290
     1
176
     1
290
     0
176
     1
290
     0
176
     1
290
     0
176
     1
290
     0
176
     1
290
     0
176
     1
290
     0
176
     1
 90
       50
176
     1
 40
0.0
176
     1
 40
1.0
176
     1
 90
        0
176
     1
 62
    18
420
        0
176
     1
 90
       50
176
     1
 90
        3
176
     1
 62
     5
420
      255
176
     1
290
     0
176
     1
 90
       50
176
     1
 90
       50
176
     1
 90
       50
176
     1
290
     0
176
     1
 90
       50
176
     1
 62
   256
176
     0
 40
1.0
176
     0
 90
        2
176
     1
  1
strokes_ogs.tif
176
     1
290
     0
176
     1
 40
1.0
176
     1
 40
1.0
176
     1
1001
ACAD
1000
AcRTDxfName
1000
VISUALSTYLE
1000
AcRTDxfName
1000
VISUALSTYLE
1000
AcRTDxfName
1000
VISUALSTYLE
1000
AcRTDxfName
1000
VISUALSTYLE
1000
AcRTDxfName
1000
VISUALSTYLE
1000
AcRTDxfName
1000
VISUALSTYLE
  0
VISUALSTYLE
  5
63AC7
102
{ACAD_REACTORS
330
9847
102
}
330
9847
100
AcDbVisualStyle
  2
Wireframe
 70
     5
177
     3
291
     0
 70
    58
 90
        0
176
     1
 90
        2
176
     1
 90
        0
176
     1
 90
        0
176
     1
 40
0.6
176
     1
 40
30.0
176
     1
 62
     7
420
 16777215
176
     1
 90
        1
176
     1
 90
        4
176
     1
 62
     7
176
     1
 62
   257
176
     1
 90
        1
176
     1
 90
        1
176
     1
 40
1.0
176
     1
 90
        0
176
     1
 62
   257
176
     1
 40
1.0
176
     1
 90
        1
176
     1
 90
        6
176
     1
 90
        2
176
     1
 62
     7
176
     1
 90
        3
176
     1
 90
        0
176
     1
 90
        0
176
     1
290
     0
176
     1
 90
        1
176
     1
 40
0.0
176
     1
 90
        0
176
     1
290
     0
176
     1
290
     1
176
     1
290
     1
176
     1
290
     0
176
     1
290
     0
176
     1
290
     0
176
     1
290
     0
176
     1
290
     0
176
     1
290
     0
176
     1
 90
       50
176
     1
 40
0.0
176
     1
 40
1.0
176
     1
 90
        0
176
     1
 62
    18
420
        0
176
     1
 90
       50
176
     1
 90
        3
176
     1
 62
     5
420
      255
176
     1
290
     0
176
     1
 90
       50
176
     1
 90
       50
176
     1
 90
       50
176
     1
290
     0
176
     1
 90
       50
176
     1
 62
   256
176
     0
 40
1.0
176
     0
 90
        2
176
     1
  1
strokes_ogs.tif
176
     1
290
     0
176
     1
 40
1.0
176
     1
 40
1.0
176
     1
  0
VISUALSTYLE
  5
63ACB
102
{ACAD_REACTORS
330
9847
102
}
330
9847
100
AcDbVisualStyle
  2
X-Ray
 70
    25
177
     3
291
     0
 70
    58
 90
        2
176
     1
 90
        2
176
     1
 90
        1
176
     1
 90
        1
176
     1
 40
0.5
176
     1
 40
30.0
176
     1
 62
     7
420
 16777215
176
     1
 90
        1
176
     1
 90
        0
176
     1
 62
     7
176
     1
 62
   257
176
     1
 90
        1
176
     1
 90
        1
176
     1
 40
1.0
176
     1
 90
        8
176
     1
 62
     7
176
     1
 40
1.0
176
     1
 90
        1
176
     1
 90
        6
176
     1
 90
        2
176
     1
 62
     7
176
     1
 90
        3
176
     1
 90
        0
176
     1
 90
        0
176
     1
290
     0
176
     1
 90
       13
176
     1
 40
0.0
176
     1
 90
        0
176
     1
290
     0
176
     1
290
     1
176
     1
290
     1
176
     1
290
     0
176
     1
290
     0
176
     1
290
     0
176
     1
290
     0
176
     1
290
     0
176
     1
290
     0
176
     1
 90
       50
176
     1
 40
0.0
176
     1
 40
1.0
176
     1
 90
        0
176
     1
 62
    18
420
        0
176
     1
 90
       50
176
     1
 90
        3
176
     1
 62
     5
420
      255
176
     1
290
     0
176
     1
 90
       50
176
     1
 90
       50
176
     1
 90
       50
176
     1
290
     0
176
     1
 90
       50
176
     1
 62
   256
176
     0
 40
1.0
176
     0
 90
        2
176
     1
  1
strokes_ogs.tif
176
     1
290
     0
176
     1
 40
1.0
176
     1
 40
1.0
176
     1
  0
DICTIONARYVAR
  5
B806
102
{ACAD_REACTORS
330
4557
102
}
330
4557
100
DictionaryVariables
280
     0
  1
1:1
  0
DICTIONARYVAR
  5
B804
102
{ACAD_REACTORS
330
4557
102
}
330
4557
100
DictionaryVariables
280
     0
  1
STANDARD
  0
DICTIONARYVAR
  5
B803
102
{ACAD_REACTORS
330
4557
102
}
330
4557
100
DictionaryVariables
280
     0
  1
STANDARD
  0
DICTIONARYVAR
  5
6063F81
102
{ACAD_REACTORS
330
4557
102
}
330
4557
100
DictionaryVariables
280
     0
  1
Metric50
  0
DICTIONARYVAR
  5
6063F82
102
{ACAD_REACTORS
330
4557
102
}
330
4557
100
DictionaryVariables
280
     0
  1
Metric50
  0
DICTIONARYVAR
  5
62598
102
{ACAD_REACTORS
330
4557
102
}
330
4557
100
DictionaryVariables
280
     0
  1
2
  0
DICTIONARYVAR
  5
4558
102
{ACAD_REACTORS
330
4557
102
}
330
4557
100
DictionaryVariables
280
     0
  1
1
  0
DICTIONARYVAR
  5
62597
102
{ACAD_REACTORS
330
4557
102
}
330
4557
100
DictionaryVariables
280
     0
  1
1
  0
DICTIONARYVAR
  5
62596
102
{ACAD_REACTORS
330
4557
102
}
330
4557
100
DictionaryVariables
280
     0
  1
0
  0
DICTIONARYVAR
  5
63AD9
102
{ACAD_REACTORS
330
4557
102
}
330
4557
100
DictionaryVariables
280
     0
  1
1
  0
DICTIONARYVAR
  5
63ADA
102
{ACAD_REACTORS
330
4557
102
}
330
4557
100
DictionaryVariables
280
     0
  1
15
  0
DICTIONARYVAR
  5
B807
102
{ACAD_REACTORS
330
4557
102
}
330
4557
100
DictionaryVariables
280
     0
  1
0
  0
DICTIONARYVAR
  5
B805
102
{ACAD_REACTORS
330
4557
102
}
330
4557
100
DictionaryVariables
280
     0
  1
0
  0
DICTIONARYVAR
  5
62BD6
102
{ACAD_REACTORS
330
4557
102
}
330
4557
100
DictionaryVariables
280
     0
  1

  0
DICTIONARYVAR
  5
62595
102
{ACAD_REACTORS
330
4557
102
}
330
4557
100
DictionaryVariables
280
     0
  1
127
  0
XRECORD
  5
63994
102
{ACAD_REACTORS
330
63993
102
}
330
63993
100
AcDbXrecord
280
     1
330
630FA
330
630FB
330
0
330
0
330
0
330
0
330
0
330
0
330
63103
330
0
330
0
330
0
330
0
330
0
330
0
330
0
330
63137
330
63138
330
0
330
0
330
63928
330
63929
330
6398D
330
6398E
  0
DICTIONARY
  5
6063F86
330
6063F6E
100
AcDbDictionary
280
     1
281
     1
  3
ACAD_XREC_ROUNDTRIP
360
6063F87
  0
DICTIONARY
  5
63AFD
330
A
100
AcDbDictionary
280
     1
281
     1
  0
DICTIONARY
  5
9838
330
9837
100
AcDbDictionary
280
     1
281
     1
  3
BUMPTILE
360
983A
  3
DIFFUSETILE
360
9839
  3
OPACITYTILE
360
983D
  3
REFLECTIONTILE
360
983C
  3
REFRACTIONTILE
360
983E
  3
SPECULARTILE
360
983B
  0
DICTIONARY
  5
9830
330
982F
100
AcDbDictionary
280
     1
281
     1
  3
BUMPTILE
360
9832
  3
DIFFUSETILE
360
9831
  3
OPACITYTILE
360
9835
  3
REFLECTIONTILE
360
9834
  3
REFRACTIONTILE
360
9836
  3
SPECULARTILE
360
9833
  0
DICTIONARY
  5
9840
330
983F
100
AcDbDictionary
280
     1
281
     1
  3
BUMPTILE
360
9842
  3
DIFFUSETILE
360
9841
  3
OPACITYTILE
360
9845
  3
REFLECTIONTILE
360
9844
  3
REFRACTIONTILE
360
9846
  3
SPECULARTILE
360
9843
  0
DICTIONARY
  5
6063F84
330
6063F6C
100
AcDbDictionary
280
     1
281
     1
  3
ACAD_XREC_ROUNDTRIP
360
6063F85
  0
DICTIONARY
  5
B800
330
9858
100
AcDbDictionary
280
     1
281
     1
  3
ACAD_ROUNDTRIP_2008_TABLESTYLE_CELLSTYLEMAP
360
6063F83
  0
XRECORD
  5
6063F87
102
{ACAD_REACTORS
330
6063F86
102
}
330
6063F86
100
AcDbXrecord
280
     1
102
DISPLAYNAME
  1
Metric50
102
FLAGS
 90
        0
  0
XRECORD
  5
983A
102
{ACAD_REACTORS
330
9838
102
}
330
9838
100
AcDbXrecord
280
     1
270
     1
271
     1
  0
XRECORD
  5
9839
102
{ACAD_REACTORS
330
9838
102
}
330
9838
100
AcDbXrecord
280
     1
270
     1
271
     1
  0
XRECORD
  5
983D
102
{ACAD_REACTORS
330
9838
102
}
330
9838
100
AcDbXrecord
280
     1
270
     1
271
     1
  0
XRECORD
  5
983C
102
{ACAD_REACTORS
330
9838
102
}
330
9838
100
AcDbXrecord
280
     1
270
     1
271
     1
  0
XRECORD
  5
983E
102
{ACAD_REACTORS
330
9838
102
}
330
9838
100
AcDbXrecord
280
     1
270
     1
271
     1
  0
XRECORD
  5
983B
102
{ACAD_REACTORS
330
9838
102
}
330
9838
100
AcDbXrecord
280
     1
270
     1
271
     1
  0
XRECORD
  5
9832
102
{ACAD_REACTORS
330
9830
102
}
330
9830
100
AcDbXrecord
280
     1
270
     1
271
     1
  0
XRECORD
  5
9831
102
{ACAD_REACTORS
330
9830
102
}
330
9830
100
AcDbXrecord
280
     1
270
     1
271
     1
  0
XRECORD
  5
9835
102
{ACAD_REACTORS
330
9830
102
}
330
9830
100
AcDbXrecord
280
     1
270
     1
271
     1
  0
XRECORD
  5
9834
102
{ACAD_REACTORS
330
9830
102
}
330
9830
100
AcDbXrecord
280
     1
270
     1
271
     1
  0
XRECORD
  5
9836
102
{ACAD_REACTORS
330
9830
102
}
330
9830
100
AcDbXrecord
280
     1
270
     1
271
     1
  0
XRECORD
  5
9833
102
{ACAD_REACTORS
330
9830
102
}
330
9830
100
AcDbXrecord
280
     1
270
     1
271
     1
  0
XRECORD
  5
9842
102
{ACAD_REACTORS
330
9840
102
}
330
9840
100
AcDbXrecord
280
     1
270
     1
271
     1
  0
XRECORD
  5
9841
102
{ACAD_REACTORS
330
9840
102
}
330
9840
100
AcDbXrecord
280
     1
270
     1
271
     1
  0
XRECORD
  5
9845
102
{ACAD_REACTORS
330
9840
102
}
330
9840
100
AcDbXrecord
280
     1
270
     1
271
     1
  0
XRECORD
  5
9844
102
{ACAD_REACTORS
330
9840
102
}
330
9840
100
AcDbXrecord
280
     1
270
     1
271
     1
  0
XRECORD
  5
9846
102
{ACAD_REACTORS
330
9840
102
}
330
9840
100
AcDbXrecord
280
     1
270
     1
271
     1
  0
XRECORD
  5
9843
102
{ACAD_REACTORS
330
9840
102
}
330
9840
100
AcDbXrecord
280
     1
270
     1
271
     1
  0
XRECORD
  5
6063F85
102
{ACAD_REACTORS
330
6063F84
102
}
330
6063F84
100
AcDbXrecord
280
     1
102
DISPLAYNAME
  1
Metric50
102
FLAGS
 90
        0
  0
CELLSTYLEMAP
  5
6063F83
102
{ACAD_REACTORS
330
B800
102
}
330
B800
100
AcDbCellStyleMap
 90
        3
300
CELLSTYLE
  1
TABLEFORMAT_BEGIN
 90
        5
170
     1
 91
        0
 92
    32768
 62
   257
 93
        1
300
CONTENTFORMAT
  1
CONTENTFORMAT_BEGIN
 90
        0
 91
        0
 92
      512
 93
        0
300

 40
0.0
140
1.0
 94
        5
 62
     0
340
12
144
6.0
309
CONTENTFORMAT_END
171
     1
301
MARGIN
  1
CELLMARGIN_BEGIN
 40
1.5
 40
1.5
 40
1.5
 40
1.5
 40
0.18
 40
0.18
309
CELLMARGIN_END
 94
        6
 95
        1
302
GRIDFORMAT
  1
GRIDFORMAT_BEGIN
 90
        0
 91
        1
 62
     0
 92
       -2
340
0
 93
        0
 40
1.125
309
GRIDFORMAT_END
 95
        2
302
GRIDFORMAT
  1
GRIDFORMAT_BEGIN
 90
        0
 91
        1
 62
     0
 92
       -2
340
0
 93
        0
 40
1.125
309
GRIDFORMAT_END
 95
        4
302
GRIDFORMAT
  1
GRIDFORMAT_BEGIN
 90
        0
 91
        1
 62
     0
 92
       -2
340
0
 93
        0
 40
1.125
309
GRIDFORMAT_END
 95
        8
302
GRIDFORMAT
  1
GRIDFORMAT_BEGIN
 90
        0
 91
        1
 62
     0
 92
       -2
340
0
 93
        0
 40
1.125
309
GRIDFORMAT_END
 95
       16
302
GRIDFORMAT
  1
GRIDFORMAT_BEGIN
 90
        0
 91
        1
 62
     0
 92
       -2
340
0
 93
        0
 40
1.125
309
GRIDFORMAT_END
 95
       32
302
GRIDFORMAT
  1
GRIDFORMAT_BEGIN
 90
        0
 91
        1
 62
     0
 92
       -2
340
0
 93
        0
 40
1.125
309
GRIDFORMAT_END
309
TABLEFORMAT_END
  1
CELLSTYLE_BEGIN
 90
        1
 91
        1
300
_TITLE
309
CELLSTYLE_END
300
CELLSTYLE
  1
TABLEFORMAT_BEGIN
 90
        5
170
     1
 91
        0
 92
        0
 62
   257
 93
        1
300
CONTENTFORMAT
  1
CONTENTFORMAT_BEGIN
 90
        0
 91
        0
 92
      512
 93
        0
300

 40
0.0
140
1.0
 94
        5
 62
     0
340
12
144
4.5
309
CONTENTFORMAT_END
171
     1
301
MARGIN
  1
CELLMARGIN_BEGIN
 40
1.5
 40
1.5
 40
1.5
 40
1.5
 40
0.18
 40
0.18
309
CELLMARGIN_END
 94
        6
 95
        1
302
GRIDFORMAT
  1
GRIDFORMAT_BEGIN
 90
        0
 91
        1
 62
     0
 92
       -2
340
0
 93
        0
 40
1.125
309
GRIDFORMAT_END
 95
        2
302
GRIDFORMAT
  1
GRIDFORMAT_BEGIN
 90
        0
 91
        1
 62
     0
 92
       -2
340
0
 93
        0
 40
1.125
309
GRIDFORMAT_END
 95
        4
302
GRIDFORMAT
  1
GRIDFORMAT_BEGIN
 90
        0
 91
        1
 62
     0
 92
       -2
340
0
 93
        0
 40
1.125
309
GRIDFORMAT_END
 95
        8
302
GRIDFORMAT
  1
GRIDFORMAT_BEGIN
 90
        0
 91
        1
 62
     0
 92
       -2
340
0
 93
        0
 40
1.125
309
GRIDFORMAT_END
 95
       16
302
GRIDFORMAT
  1
GRIDFORMAT_BEGIN
 90
        0
 91
        1
 62
     0
 92
       -2
340
0
 93
        0
 40
1.125
309
GRIDFORMAT_END
 95
       32
302
GRIDFORMAT
  1
GRIDFORMAT_BEGIN
 90
        0
 91
        1
 62
     0
 92
       -2
340
0
 93
        0
 40
1.125
309
GRIDFORMAT_END
309
TABLEFORMAT_END
  1
CELLSTYLE_BEGIN
 90
        2
 91
        1
300
_HEADER
309
CELLSTYLE_END
300
CELLSTYLE
  1
TABLEFORMAT_BEGIN
 90
        5
170
     1
 91
        0
 92
        0
 62
   257
 93
        1
300
CONTENTFORMAT
  1
CONTENTFORMAT_BEGIN
 90
        0
 91
        0
 92
      512
 93
        0
300

 40
0.0
140
1.0
 94
        2
 62
     0
340
12
144
4.5
309
CONTENTFORMAT_END
171
     1
301
MARGIN
  1
CELLMARGIN_BEGIN
 40
1.5
 40
1.5
 40
1.5
 40
1.5
 40
0.18
 40
0.18
309
CELLMARGIN_END
 94
        6
 95
        1
302
GRIDFORMAT
  1
GRIDFORMAT_BEGIN
 90
        0
 91
        1
 62
     0
 92
       -2
340
0
 93
        0
 40
1.125
309
GRIDFORMAT_END
 95
        2
302
GRIDFORMAT
  1
GRIDFORMAT_BEGIN
 90
        0
 91
        1
 62
     0
 92
       -2
340
0
 93
        0
 40
1.125
309
GRIDFORMAT_END
 95
        4
302
GRIDFORMAT
  1
GRIDFORMAT_BEGIN
 90
        0
 91
        1
 62
     0
 92
       -2
340
0
 93
        0
 40
1.125
309
GRIDFORMAT_END
 95
        8
302
GRIDFORMAT
  1
GRIDFORMAT_BEGIN
 90
        0
 91
        1
 62
     0
 92
       -2
340
0
 93
        0
 40
1.125
309
GRIDFORMAT_END
 95
       16
302
GRIDFORMAT
  1
GRIDFORMAT_BEGIN
 90
        0
 91
        1
 62
     0
 92
       -2
340
0
 93
        0
 40
1.125
309
GRIDFORMAT_END
 95
       32
302
GRIDFORMAT
  1
GRIDFORMAT_BEGIN
 90
        0
 91
        1
 62
     0
 92
       -2
340
0
 93
        0
 40
1.125
309
GRIDFORMAT_END
309
TABLEFORMAT_END
  1
CELLSTYLE_BEGIN
 90
        3
 91
        2
300
_DATA
309
CELLSTYLE_END
  0
ENDSEC
  0
SECTION
  2
ACDSDATA
 70
     2
 71
     8
  0
ACDSSCHEMA
 90
        0
  1
AcDb_Thumbnail_Schema
  2
AcDbDs::ID
280
    10
 91
        8
  2
Thumbnail_Data
280
    15
 91
        0
101
ACDSRECORD
 95
        0
 90
        1
  2
AcDbDs::TreatedAsObjectData
280
     1
291
     1
101
ACDSRECORD
 95
        0
 90
        2
  2
AcDbDs::Legacy
280
     1
291
     1
101
ACDSRECORD
  1
AcDbDs::ID
 90
        3
  2
AcDs:Indexable
280
     1
291
     1
101
ACDSRECORD
  1
AcDbDs::ID
 90
        4
  2
AcDbDs::HandleAttribute
280
     7
282
     1
  0
ACDSSCHEMA
 90
        1
  1
AcDbDs::TreatedAsObjectDataSchema
  2
AcDbDs::TreatedAsObjectData
280
     1
 91
        0
  0
ACDSSCHEMA
 90
        2
  1
AcDbDs::LegacySchema
  2
AcDbDs::Legacy
280
     1
 91
        0
  0
ACDSSCHEMA
 90
        3
  1
AcDbDs::IndexedPropertySchema
  2
AcDs:Indexable
280
     1
 91
        0
  0
ACDSSCHEMA
 90
        4
  1
AcDbDs::HandleAttributeSchema
  2
AcDbDs::HandleAttribute
280
     7
 91
        1
284
     1
  0
ACDSRECORD
 90
        0
  2
AcDbDs::ID
280
    10
320
A
  2
Thumbnail_Data
280
    15
 94
     2434
310
89504E470D0A1A0A0000000D4948445200000100000000C10803000000176F9EF100000300504C5445212830000000FFFFFF0000000000000000000000000000000000000000000000000000330000660000990000CC0000FF0033000033330033660033990033CC0033FF0066000066330066660066990066CC0066FF0099
310
000099330099660099990099CC0099FF00CC0000CC3300CC6600CC9900CCCC00CCFF00FF0000FF3300FF6600FF9900FFCC00FFFF3300003300333300663300993300CC3300FF3333003333333333663333993333CC3333FF3366003366333366663366993366CC3366FF3399003399333399663399993399CC3399FF33CC00
310
33CC3333CC6633CC9933CCCC33CCFF33FF0033FF3333FF6633FF9933FFCC33FFFF6600006600336600666600996600CC6600FF6633006633336633666633996633CC6633FF6666006666336666666666996666CC6666FF6699006699336699666699996699CC6699FF66CC0066CC3366CC6666CC9966CCCC66CCFF66FF0066
310
FF3366FF6666FF9966FFCC66FFFF9900009900339900669900999900CC9900FF9933009933339933669933999933CC9933FF9966009966339966669966999966CC9966FF9999009999339999669999999999CC9999FF99CC0099CC3399CC6699CC9999CCCC99CCFF99FF0099FF3399FF6699FF9999FFCC99FFFFCC0000CC00
310
33CC0066CC0099CC00CCCC00FFCC3300CC3333CC3366CC3399CC33CCCC33FFCC6600CC6633CC6666CC6699CC66CCCC66FFCC9900CC9933CC9966CC9999CC99CCCC99FFCCCC00CCCC33CCCC66CCCC99CCCCCCCCCCFFCCFF00CCFF33CCFF66CCFF99CCFFCCCCFFFFFF0000FF0033FF0066FF0099FF00CCFF00FFFF3300FF3333
310
FF3366FF3399FF33CCFF33FFFF6600FF6633FF6666FF6699FF66CCFF66FFFF9900FF9933FF9966FF9999FF99CCFF99FFFFCC00FFCC33FFCC66FFCC99FFCCCCFFCCFFFFFF00FFFF33FFFF66FFFF99FFFFCCFFFFFF0000000D0D0D1A1A1A2828283535354343435050505D5D5D6B6B6B787878868686939393A1A1A1AEAEAEBB
310
BBBBC9C9C9D6D6D6E4E4E4F1F1F1FFFFFF0000000000000000000000000000000000000000000000000000000000007BFF0FCC0000063D4944415478DAED9D5B92AC200C86B39CEC7F01AEC46DE4BD5B410504B9AA4142D5A9E99E3363E36712929FCB00480398076D0780F7D813BDF8DC05C0FB00885E24C0C402F8007827
310
10D17BF1EF0460A4714F00080001200004800010000F03989CAF83012052993FBD5A000880375D40DF374D0402A04B00B596FB010075ED5FFCAE6D580BD032649F00A67FFB3FBBAA36CFEB973F80694C1738DAA02E20B5001F008B150A00012000440F1000022000001105C0B800706BC302D016802B8CF61FCF5E1445DA40
310
DC6208FC8BA1AD62D300DADF3F735154D5FDFF4EE21DB1709504F0E5309362017F04F7746F91C4C808372C4781A59B773D9E4E0020D27453EF4C4D902100E5998B0D0C0D006E146F05007B00138C0C604F55058000100002E0AB00D464B5588000100002400008000120005E03C0561415003D03C0B1016C82E6B8169036DB
310
F2E151609BD41D15809AD2191A00098084C9E70F0358EF3F1A07BF6E01105BD9F2690B48B97264A568C7001227DE67FAAA05240318DD02E07100C656191600DE7101D5BD5E00C01D00964B120E6B01BA93F9009217167E1440FAD24ADE00265DAE9500485C60CB1FC092AC1659C0CAE03900E85BD35CBBC477D2D96A7E0C40
310
FDF15133D0FF1F9385122C00AD059DE683286F13E95AAD0C408A2BB40330114EB60FD46F9EB65649672D96C6D470D00E0010984FAA9D0BAC2650A074A585C49600168BC5A62E60EC43C8DC8982DE61E15E00EB2880D6AE995A119BEC9D2815008221B1E930A89595A3B3B53AFE01209700A666076D00A88C9DCCE90B6C0060
310
CFE79459555A809F412B00D6390F2B0004A8DC41B4443F754DCCF6274CCD129B009826F79C8BCD056A468089265C77E2945C071332E5D62EE0E9415D0CFC27164085203121BCE873BA6E02506901EB8C9D1503F286154CF230AB6AAC0150D18DD0FDA3396989E6F79301A6554CA5002C8DB031807D2075016425C3D11F7402
310
574C15B600241EEE8375F7EFB780F4D120F2A3C64D4457499C174BDF6D01E005908BE09281CEB2939C66067A3006ECBDF600C8DF9E8D789547255EE9E92008610025E9E5452DCD1E80AFE305D965AF00020712609563750520F0E46A834B2F00A6604A5D5C63B90CB80350C3335ED5CA750C7803000C02584B65826A3B600F
310
00030B191500A51AD730600EE0749DADDBE6EAB69A92AB2F00C6E400AA5A196B5537640EE01045CDBB57AFD574C1435B081801304C611174BE0BC0ACB8D10888BBF71AD3264358C0D95DEB46814E0018B278D364A81700D1EBF40E2051DDC0B87824006E065076AC2EB66AB15C992B803BDBB3870C7205F0D83E5286E70A27
310
ED74F932009FBC3322001C1AC0834150000800012000048000E000C0F903E4D7AFBEF8B7C7D74F3DCAA0EB5775C936530B181D00BDD3C4020480B8805880001017E061016450D06F5C0BD8B7CE6E5F1C6E499AB258C0E9CF2033B2801E6380B63BB55BA77C56635DB9DF27007DFBEB85A9B89FFD06410B008C6801EADE69DF
310
B446853160F444687841E418FD09AC8CC0CC0D520349CC022CF76F10031AC4A200001807C0632E408D5DA015801603E72BAAF0F0005A8E02CF376E7A807D50D29C3B8C9C4B4332B612CFBC2DA01A008401405F00A8104001636E00B2EFA9140071056057D47531E0908EEC72C33C61821F002BE3BB0300EF1810EF31B867A4
310
780040203B98033A543F31C08AEE171600EE8B2E0084D29486007C85019BB5C269169017035C028122BC8D22A454D12D8651B67CE3EB7D4510844400AD54E1ED9E377D8CB2E5D1A064D92E0F7804008101A0241304231328B400F0F8C029303497C58DF901E3758905809DA7350010AE9C59E501B449CAB500CEA340283870
310
2C86CC68DF0780BC5998378BA1D725B18F2A42F758C05CED4E6688F67460E6E702A69BDE0380DC1C90DD2810128949A799C71BF3E4CC13DA39F4784E3FC30B008401809D5678CE4ECDF51F86002EDEDA02E79E7586F2AD39D1E23A02B0C70637BBF32E8B4A73818E00EC4BC2B63AE3984005DFD9E2F3D97B7A07B0FD733DC0
310
5F76751A046FC9033A0A828FB7658520F389114F96657F0FCE6B458F804197BA94AA3E3B04E0D678CE1B7097954412D83E0098E5ED29AE99A3E2214F4501CC47C6CD19C08D9F7701A0D1F29BE7A259C5EFF9004424D08AFFA5CB9AB2F457ABFAC40500F5022061095ED9EF52B9F17CC20280CAD9B504F056387AF953411AC0
310
0FCD235A77A5D8E3B80000000049454E44AE426082
  0
ENDSEC
  0
EOF
