  0
SECTION
  2
HEADER
  9
$ACADVER
  1
AC1032
  9
$ACADMAINTVER
 90
      174
  9
$DWGCODEPAGE
  3
ANSI_1252
  9
$LASTSAVEDBY
  1
pengb
  9
$REQUIREDVERSIONS
160
                 0
  9
$INSBASE
 10
0.0
 20
0.0
 30
0.0
  9
$EXTMIN
 10
-314.2460622673311
 20
-831.1831728982824
 30
-0.0015258207003583
  9
$EXTMAX
 10
342.4865394999861
 20
370.3015095777928
 30
0.0000000349246037
  9
$LIMMIN
 10
0.0
 20
0.0
  9
$LIMMAX
 10
420.0
 20
297.0
  9
$ORTHOMODE
 70
     0
  9
$REGENMODE
 70
     1
  9
$FILLMODE
 70
     1
  9
$QTEXTMODE
 70
     0
  9
$MIRRTEXT
 70
     1
  9
$LTSCALE
 40
1.0
  9
$ATTMODE
 70
     1
  9
$TEXTSIZE
 40
3.5
  9
$TRACEWID
 40
1.0
  9
$TEXTSTYLE
  7
Standard
  9
$CLAYER
  8
0
  9
$CELTYPE
  6
ByLayer
  9
$CECOLOR
 62
   256
  9
$CELTSCALE
 40
1.0
  9
$DISPSILH
 70
     0
  9
$DIMSCALE
 40
1.0
  9
$DIMASZ
 40
3.302
  9
$DIMEXO
 40
1.0
  9
$DIMDLI
 40
3.75
  9
$DIMRND
 40
0.0
  9
$DIMDLE
 40
0.0
  9
$DIMEXE
 40
1.0
  9
$DIMTP
 40
0.0
  9
$DIMTM
 40
0.0
  9
$DIMTXT
 40
3.5
  9
$DIMCEN
 40
2.5
  9
$DIMTSZ
 40
0.0
  9
$DIMTOL
 70
     0
  9
$DIMLIM
 70
     0
  9
$DIMTIH
 70
     1
  9
$DIMTOH
 70
     1
  9
$DIMSE1
 70
     0
  9
$DIMSE2
 70
     0
  9
$DIMTAD
 70
     1
  9
$DIMZIN
 70
     1
  9
$DIMBLK
  1

  9
$DIMASO
 70
     1
  9
$DIMSHO
 70
     1
  9
$DIMPOST
  1

  9
$DIMAPOST
  1

  9
$DIMALT
 70
     0
  9
$DIMALTD
 70
     3
  9
$DIMALTF
 40
0.0393700787
  9
$DIMLFAC
 40
10.0
  9
$DIMTOFL
 70
     1
  9
$DIMTVP
 40
0.0
  9
$DIMTIX
 70
     0
  9
$DIMSOXD
 70
     0
  9
$DIMSAH
 70
     0
  9
$DIMBLK1
  1

  9
$DIMBLK2
  1

  9
$DIMSTYLE
  2
ISO-25
  9
$DIMCLRD
 70
     0
  9
$DIMCLRE
 70
     0
  9
$DIMCLRT
 70
     0
  9
$DIMTFAC
 40
1.0
  9
$DIMGAP
 40
1.524
  9
$DIMJUST
 70
     0
  9
$DIMSD1
 70
     0
  9
$DIMSD2
 70
     0
  9
$DIMTOLJ
 70
     0
  9
$DIMTZIN
 70
     1
  9
$DIMALTZ
 70
     0
  9
$DIMALTTZ
 70
     0
  9
$DIMUPT
 70
     0
  9
$DIMDEC
 70
     2
  9
$DIMTDEC
 70
     2
  9
$DIMALTU
 70
     2
  9
$DIMALTTD
 70
     3
  9
$DIMTXSTY
  7
Standard
  9
$DIMAUNIT
 70
     0
  9
$DIMADEC
 70
     2
  9
$DIMALTRND
 40
0.0
  9
$DIMAZIN
 70
     0
  9
$DIMDSEP
 70
    44
  9
$DIMATFIT
 70
     3
  9
$DIMFRAC
 70
     0
  9
$DIMLDRBLK
  1

  9
$DIMLUNIT
 70
     2
  9
$DIMLWD
 70
    -2
  9
$DIMLWE
 70
    -2
  9
$DIMTMOVE
 70
     0
  9
$DIMFXL
 40
1.0
  9
$DIMFXLON
 70
     0
  9
$DIMJOGANG
 40
0.7853981633974483
  9
$DIMTFILL
 70
     0
  9
$DIMTFILLCLR
 70
     0
  9
$DIMARCSYM
 70
     0
  9
$DIMLTYPE
  6

  9
$DIMLTEX1
  6

  9
$DIMLTEX2
  6

  9
$DIMTXTDIRECTION
 70
     0
  9
$LUNITS
 70
     2
  9
$LUPREC
 70
     2
  9
$SKETCHINC
 40
1.0
  9
$FILLETRAD
 40
10.0
  9
$AUNITS
 70
     0
  9
$AUPREC
 70
     2
  9
$MENU
  1
.
  9
$ELEVATION
 40
0.0
  9
$PELEVATION
 40
0.0
  9
$THICKNESS
 40
0.0
  9
$LIMCHECK
 70
     0
  9
$CHAMFERA
 40
0.0
  9
$CHAMFERB
 40
0.0
  9
$CHAMFERC
 40
0.0
  9
$CHAMFERD
 40
0.0
  9
$SKPOLY
 70
     0
  9
$TDCREATE
 40
2459986.657673611
  9
$TDUCREATE
 40
2459986.199342940
  9
$TDUPDATE
 40
2460007.639652778
  9
$TDUUPDATE
 40
2460007.181319445
  9
$TDINDWG
 40
0.0014004745
  9
$TDUSRTIMER
 40
0.0014004745
  9
$USRTIMER
 70
     1
  9
$ANGBASE
 50
0.0
  9
$ANGDIR
 70
     0
  9
$PDMODE
 70
     0
  9
$PDSIZE
 40
-1.0
  9
$PLINEWID
 40
0.0
  9
$SPLFRAME
 70
     0
  9
$SPLINETYPE
 70
     6
  9
$SPLINESEGS
 70
     8
  9
$HANDSEED
  5
2ED
  9
$SURFTAB1
 70
     6
  9
$SURFTAB2
 70
     6
  9
$SURFTYPE
 70
     6
  9
$SURFU
 70
     6
  9
$SURFV
 70
     6
  9
$UCSBASE
  2

  9
$UCSNAME
  2

  9
$UCSORG
 10
0.0
 20
0.0
 30
0.0
  9
$UCSXDIR
 10
1.0
 20
0.0
 30
0.0
  9
$UCSYDIR
 10
0.0
 20
1.0
 30
0.0
  9
$UCSORTHOREF
  2

  9
$UCSORTHOVIEW
 70
     0
  9
$UCSORGTOP
 10
0.0
 20
0.0
 30
0.0
  9
$UCSORGBOTTOM
 10
0.0
 20
0.0
 30
0.0
  9
$UCSORGLEFT
 10
0.0
 20
0.0
 30
0.0
  9
$UCSORGRIGHT
 10
0.0
 20
0.0
 30
0.0
  9
$UCSORGFRONT
 10
0.0
 20
0.0
 30
0.0
  9
$UCSORGBACK
 10
0.0
 20
0.0
 30
0.0
  9
$PUCSBASE
  2

  9
$PUCSNAME
  2

  9
$PUCSORG
 10
0.0
 20
0.0
 30
0.0
  9
$PUCSXDIR
 10
1.0
 20
0.0
 30
0.0
  9
$PUCSYDIR
 10
0.0
 20
1.0
 30
0.0
  9
$PUCSORTHOREF
  2

  9
$PUCSORTHOVIEW
 70
     0
  9
$PUCSORGTOP
 10
0.0
 20
0.0
 30
0.0
  9
$PUCSORGBOTTOM
 10
0.0
 20
0.0
 30
0.0
  9
$PUCSORGLEFT
 10
0.0
 20
0.0
 30
0.0
  9
$PUCSORGRIGHT
 10
0.0
 20
0.0
 30
0.0
  9
$PUCSORGFRONT
 10
0.0
 20
0.0
 30
0.0
  9
$PUCSORGBACK
 10
0.0
 20
0.0
 30
0.0
  9
$USERI1
 70
     0
  9
$USERI2
 70
     0
  9
$USERI3
 70
     0
  9
$USERI4
 70
     0
  9
$USERI5
 70
     0
  9
$USERR1
 40
0.0
  9
$USERR2
 40
0.0
  9
$USERR3
 40
0.0
  9
$USERR4
 40
0.0
  9
$USERR5
 40
0.0
  9
$WORLDVIEW
 70
     1
  9
$SHADEDGE
 70
     3
  9
$SHADEDIF
 70
    70
  9
$TILEMODE
 70
     1
  9
$MAXACTVP
 70
    64
  9
$PINSBASE
 10
0.0
 20
0.0
 30
0.0
  9
$PLIMCHECK
 70
     0
  9
$PEXTMIN
 10
1.000000000000000E+20
 20
1.000000000000000E+20
 30
1.000000000000000E+20
  9
$PEXTMAX
 10
-1.000000000000000E+20
 20
-1.000000000000000E+20
 30
-1.000000000000000E+20
  9
$PLIMMIN
 10
0.0
 20
0.0
  9
$PLIMMAX
 10
420.0
 20
297.0
  9
$UNITMODE
 70
     0
  9
$VISRETAIN
 70
     1
  9
$PLINEGEN
 70
     0
  9
$PSLTSCALE
 70
     1
  9
$TREEDEPTH
 70
  3020
  9
$CMLSTYLE
  2
Standard
  9
$CMLJUST
 70
     0
  9
$CMLSCALE
 40
20.0
  9
$PROXYGRAPHICS
 70
     1
  9
$MEASUREMENT
 70
     1
  9
$CELWEIGHT
370
    -1
  9
$ENDCAPS
280
     0
  9
$JOINSTYLE
280
     0
  9
$LWDISPLAY
290
     1
  9
$INSUNITS
 70
     4
  9
$HYPERLINKBASE
  1

  9
$STYLESHEET
  1

  9
$XEDIT
290
     1
  9
$CEPSNTYPE
380
     0
  9
$PSTYLEMODE
290
     1
  9
$FINGERPRINTGUID
  2
{8083B73B-9CB8-4D99-BED0-4DC9EAFCC828}
  9
$VERSIONGUID
  2
{E08C20AB-EE5C-5941-838C-B30AEEC0A563}
  9
$EXTNAMES
290
     1
  9
$PSVPSCALE
 40
0.0
  9
$OLESTARTUP
290
     0
  9
$SORTENTS
280
   127
  9
$INDEXCTL
280
     0
  9
$HIDETEXT
280
     0
  9
$XCLIPFRAME
280
     2
  9
$HALOGAP
280
     0
  9
$OBSCOLOR
 70
   257
  9
$OBSLTYPE
280
     0
  9
$INTERSECTIONDISPLAY
280
     0
  9
$INTERSECTIONCOLOR
 70
   257
  9
$DIMASSOC
280
     1
  9
$PROJECTNAME
  1

  9
$CAMERADISPLAY
290
     0
  9
$LENSLENGTH
 40
50.0
  9
$CAMERAHEIGHT
 40
0.0
  9
$STEPSPERSEC
 40
2.0
  9
$STEPSIZE
 40
6.0
  9
$3DDWFPREC
 40
2.0
  9
$PSOLWIDTH
 40
0.25
  9
$PSOLHEIGHT
 40
4.0
  9
$LOFTANG1
 40
1.570796326794896
  9
$LOFTANG2
 40
1.570796326794896
  9
$LOFTMAG1
 40
0.0
  9
$LOFTMAG2
 40
0.0
  9
$LOFTPARAM
 70
     7
  9
$LOFTNORMALS
280
     1
  9
$LATITUDE
 40
37.795
  9
$LONGITUDE
 40
-122.394
  9
$NORTHDIRECTION
 40
0.0
  9
$TIMEZONE
 70
 -8000
  9
$LIGHTGLYPHDISPLAY
280
     1
  9
$TILEMODELIGHTSYNCH
280
     1
  9
$CMATERIAL
347
185
  9
$SOLIDHIST
280
     0
  9
$SHOWHIST
280
     1
  9
$DWFFRAME
280
     2
  9
$DGNFRAME
280
     0
  9
$REALWORLDSCALE
290
     1
  9
$INTERFERECOLOR
 62
     1
  9
$INTERFEREOBJVS
345
1A7
  9
$INTERFEREVPVS
346
1A4
  9
$CSHADOW
280
     0
  9
$SHADOWPLANELOCATION
 40
0.0
  0
ENDSEC
  0
SECTION
  2
CLASSES
  0
CLASS
  1
ACDBDICTIONARYWDFLT
  2
AcDbDictionaryWithDefault
  3
ObjectDBX Classes
 90
        0
 91
        1
280
     0
281
     0
  0
CLASS
  1
VISUALSTYLE
  2
AcDbVisualStyle
  3
ObjectDBX Classes
 90
     4095
 91
       24
280
     0
281
     0
  0
CLASS
  1
MATERIAL
  2
AcDbMaterial
  3
ObjectDBX Classes
 90
     1153
 91
        3
280
     0
281
     0
  0
CLASS
  1
SCALE
  2
AcDbScale
  3
ObjectDBX Classes
 90
     1153
 91
       33
280
     0
281
     0
  0
CLASS
  1
TABLESTYLE
  2
AcDbTableStyle
  3
ObjectDBX Classes
 90
     4095
 91
        1
280
     0
281
     0
  0
CLASS
  1
MLEADERSTYLE
  2
AcDbMLeaderStyle
  3
ACDB_MLEADERSTYLE_CLASS
 90
     4095
 91
        1
280
     0
281
     0
  0
CLASS
  1
SUN
  2
AcDbSun
  3
SCENEOE
 90
     1153
 91
        0
280
     0
281
     0
  0
CLASS
  1
ACDBSECTIONVIEWSTYLE
  2
AcDbSectionViewStyle
  3
ObjectDBX Classes
 90
     1025
 91
        1
280
     0
281
     0
  0
CLASS
  1
ACDBDETAILVIEWSTYLE
  2
AcDbDetailViewStyle
  3
ObjectDBX Classes
 90
     1025
 91
        1
280
     0
281
     0
  0
CLASS
  1
ACDB_ALDIMOBJECTCONTEXTDATA_CLASS
  2
AcDbAlignedDimensionObjectContextData
  3
ObjectDBX Classes
 90
     1153
 91
       11
280
     0
281
     0
  0
CLASS
  1
DICTIONARYVAR
  2
AcDbDictionaryVar
  3
ObjectDBX Classes
 90
        0
 91
       18
280
     0
281
     0
  0
CLASS
  1
CELLSTYLEMAP
  2
AcDbCellStyleMap
  3
ObjectDBX Classes
 90
     1152
 91
        1
280
     0
281
     0
  0
ENDSEC
  0
SECTION
  2
TABLES
  0
TABLE
  2
VPORT
  5
8
330
0
100
AcDbSymbolTable
 70
     1
  0
VPORT
  5
29
330
8
100
AcDbSymbolTableRecord
100
AcDbViewportTableRecord
  2
*Active
 70
     0
 10
0.0
 20
0.0
 11
1.0
 21
1.0
 12
14.12023861632735
 22
-230.4408316602448
 13
0.0
 23
0.0
 14
10.0
 24
10.0
 15
10.0
 25
10.0
 16
0.0
 26
0.0
 36
1.0
 17
0.0
 27
0.0
 37
0.0
 40
1205.965047979404
 41
1.907960199004974
 42
50.0
 43
0.0
 44
0.0
 50
0.0
 51
0.0
 71
     0
 72
  2000
 73
     1
 74
     3
 75
     0
 76
     0
 77
     0
 78
     0
281
     0
 65
     1
110
0.0
120
0.0
130
0.0
111
1.0
121
0.0
131
0.0
112
0.0
122
1.0
132
0.0
 79
     0
146
0.0
348
1A3
 60
     3
 61
     5
292
     1
282
     1
141
0.0
142
0.0
 63
   250
421
  3355443
1001
ACAD_NAV_VCDISPLAY
1070
     3
  0
ENDTAB
  0
TABLE
  2
LTYPE
  5
5
330
0
100
AcDbSymbolTable
 70
     6
  0
LTYPE
  5
14
330
5
100
AcDbSymbolTableRecord
100
AcDbLinetypeTableRecord
  2
ByBlock
 70
     0
  3

 72
    65
 73
     0
 40
0.0
  0
LTYPE
  5
15
330
5
100
AcDbSymbolTableRecord
100
AcDbLinetypeTableRecord
  2
ByLayer
 70
     0
  3

 72
    65
 73
     0
 40
0.0
  0
LTYPE
  5
16
330
5
100
AcDbSymbolTableRecord
100
AcDbLinetypeTableRecord
  2
Continuous
 70
     0
  3
Solid line
 72
    65
 73
     0
 40
0.0
  0
LTYPE
  5
6E
330
5
100
AcDbSymbolTableRecord
100
AcDbLinetypeTableRecord
  2
HIDDEN
 70
     0
  3
Hidden __ __ __ __ __ __ __ __ __ __ __ __ __ __
 72
    65
 73
     2
 40
1.905
 49
1.27
 74
     0
 49
-0.635
 74
     0
  0
LTYPE
  5
6F
330
5
100
AcDbSymbolTableRecord
100
AcDbLinetypeTableRecord
  2
PHANTOM
 70
     0
  3
Phantom ______  __  __  ______  __  __  ______
 72
    65
 73
     6
 40
12.7
 49
6.349999999999999
 74
     0
 49
-1.27
 74
     0
 49
1.27
 74
     0
 49
-1.27
 74
     0
 49
1.27
 74
     0
 49
-1.27
 74
     0
  0
LTYPE
  5
70
330
5
100
AcDbSymbolTableRecord
100
AcDbLinetypeTableRecord
  2
CENTER
 70
     0
  3
Center ____ _ ____ _ ____ _ ____ _ ____ _ ____
 72
    65
 73
     4
 40
10.16
 49
6.349999999999999
 74
     0
 49
-1.27
 74
     0
 49
1.27
 74
     0
 49
-1.27
 74
     0
  0
LTYPE
  5
71
330
5
100
AcDbSymbolTableRecord
100
AcDbLinetypeTableRecord
  2
CENTERX2
 70
     0
  3
Center (2x) ________  __  ________  __  _____
 72
    65
 73
     4
 40
20.32
 49
12.7
 74
     0
 49
-2.54
 74
     0
 49
2.54
 74
     0
 49
-2.54
 74
     0
  0
LTYPE
  5
72
330
5
100
AcDbSymbolTableRecord
100
AcDbLinetypeTableRecord
  2
DOT2
 70
     0
  3
Dot (.5x) ........................................
 72
    65
 73
     2
 40
0.635
 49
0.0
 74
     0
 49
-0.635
 74
     0
  0
ENDTAB
  0
TABLE
  2
LAYER
  5
2
102
{ACAD_XDICTIONARY
360
1D5
102
}
330
0
100
AcDbSymbolTable
 70
     4
  0
LAYER
  5
10
102
{ACAD_XDICTIONARY
360
2D0
102
}
330
2
100
AcDbSymbolTableRecord
100
AcDbLayerTableRecord
  2
0
 70
     0
 62
     7
  6
Continuous
370
    -3
390
F
347
195
348
0
  0
LAYER
  5
73
102
{ACAD_XDICTIONARY
360
2D2
102
}
330
2
100
AcDbSymbolTableRecord
100
AcDbLayerTableRecord
  2
FORMAT
 70
     0
 62
     7
  6
Continuous
370
    -3
390
F
347
195
348
0
  0
LAYER
  5
1CC
330
2
100
AcDbSymbolTableRecord
100
AcDbLayerTableRecord
  2
Defpoints
 70
     0
 62
     7
  6
Continuous
290
     0
370
    -3
390
F
347
195
348
0
  0
LAYER
  5
1CD
102
{ACAD_XDICTIONARY
360
2D4
102
}
330
2
100
AcDbSymbolTableRecord
100
AcDbLayerTableRecord
  2
DIMENSION
 70
     0
 62
   255
  6
Continuous
370
    -3
390
F
347
195
348
0
  0
ENDTAB
  0
TABLE
  2
STYLE
  5
3
330
0
100
AcDbSymbolTable
 70
     2
  0
STYLE
  5
11
330
3
100
AcDbSymbolTableRecord
100
AcDbTextStyleTableRecord
  2
Standard
 70
     0
 40
0.0
 41
1.0
 50
0.0
 71
     0
 42
3.5
  3
txt
  4

  0
STYLE
  5
AF
330
3
100
AcDbSymbolTableRecord
100
AcDbTextStyleTableRecord
  2
SLDTEXTSTYLE0
 70
     0
 40
0.0
 41
0.75
 50
0.0
 71
     0
 42
3.5
  3
TXT
  4

  0
ENDTAB
  0
TABLE
  2
VIEW
  5
6
330
0
100
AcDbSymbolTable
 70
     0
  0
ENDTAB
  0
TABLE
  2
UCS
  5
7
330
0
100
AcDbSymbolTable
 70
     0
  0
ENDTAB
  0
TABLE
  2
APPID
  5
9
330
0
100
AcDbSymbolTable
 70
     7
  0
APPID
  5
12
330
9
100
AcDbSymbolTableRecord
100
AcDbRegAppTableRecord
  2
ACAD
 70
     0
  0
APPID
  5
1CF
330
9
100
AcDbSymbolTableRecord
100
AcDbRegAppTableRecord
  2
ACAD_PSEXT
 70
     0
  0
APPID
  5
1D0
330
9
100
AcDbSymbolTableRecord
100
AcDbRegAppTableRecord
  2
AcadAnnotative
 70
     0
  0
APPID
  5
1D1
330
9
100
AcDbSymbolTableRecord
100
AcDbRegAppTableRecord
  2
ACAD_DSTYLE_DIMJAG
 70
     0
  0
APPID
  5
1D2
330
9
100
AcDbSymbolTableRecord
100
AcDbRegAppTableRecord
  2
ACAD_DSTYLE_DIMTALN
 70
     0
  0
APPID
  5
1D3
330
9
100
AcDbSymbolTableRecord
100
AcDbRegAppTableRecord
  2
ACAD_NAV_VCDISPLAY
 70
     0
  0
APPID
  5
1D4
330
9
100
AcDbSymbolTableRecord
100
AcDbRegAppTableRecord
  2
ACAD_DSTYLE_DIMBREAK
 70
     0
  0
ENDTAB
  0
TABLE
  2
DIMSTYLE
  5
A
330
0
100
AcDbSymbolTable
 70
     3
100
AcDbDimStyleTable
 71
     2
340
1CE
340
27
  0
DIMSTYLE
105
27
330
A
100
AcDbSymbolTableRecord
100
AcDbDimStyleTableRecord
  2
ISO-25
 70
     0
 41
2.5
 42
0.625
 43
3.75
 44
1.25
 73
     0
 74
     0
 77
     1
 78
     8
140
2.5
141
2.5
143
0.0393700787
147
0.625
171
     3
172
     1
271
     2
272
     2
274
     3
278
    44
283
     0
284
     8
340
11
  0
DIMSTYLE
105
B0
330
A
100
AcDbSymbolTableRecord
100
AcDbDimStyleTableRecord
  2
SLDDIMSTYLE0
 70
     0
 41
3.302
 44
0.0
 45
0.000000001
 73
     0
 74
     0
 77
     1
 78
     4
 79
     1
140
15.875
147
3.96875
173
     1
271
     2
272
     2
276
     2
284
    12
340
AF
341
B1
343
B1
344
B1
  0
DIMSTYLE
105
1CE
102
{ACAD_REACTORS
330
1D8
330
179
330
CB
330
C3
330
BB
330
AE
330
10D
330
116
330
104
330
1F0
102
}
330
A
100
AcDbSymbolTableRecord
100
AcDbDimStyleTableRecord
  2
RG Dimension Lines
 70
     0
 40
12.0
 41
3.5
 42
1.0
 43
10.0
 44
5.0
 49
5.0
 77
     2
140
8.0
141
0.0
147
4.0
172
     1
176
   256
177
   256
178
     7
271
     0
272
     0
290
     1
340
11
341
B1
342
B1
371
     0
372
     0
1001
ACAD_DSTYLE_DIMBREAK
1070
   391
1040
0.125
1001
AcadAnnotative
1000
AnnotativeData
1002
{
1070
     1
1070
     1
1002
}
1001
ACAD_DSTYLE_DIMJAG
1070
   388
1040
1.5
1001
ACAD_DSTYLE_DIMTALN
1070
   392
1070
     0
  0
ENDTAB
  0
TABLE
  2
BLOCK_RECORD
  5
1
330
0
100
AcDbSymbolTable
 70
    23
  0
BLOCK_RECORD
  5
1F
330
1
100
AcDbSymbolTableRecord
100
AcDbBlockTableRecord
  2
*Model_Space
340
22
 70
     0
280
     1
281
     0
  0
BLOCK_RECORD
  5
1B
330
1
100
AcDbSymbolTableRecord
100
AcDbBlockTableRecord
  2
*Paper_Space
340
1E
 70
     0
280
     1
281
     0
  0
BLOCK_RECORD
  5
23
330
1
100
AcDbSymbolTableRecord
100
AcDbBlockTableRecord
  2
*Paper_Space0
340
26
 70
     0
280
     1
281
     0
  0
BLOCK_RECORD
  5
B1
330
1
100
AcDbSymbolTableRecord
100
AcDbBlockTableRecord
  2
_None
340
0
 70
     0
280
     1
281
     0
  0
BLOCK_RECORD
  5
B4
330
1
100
AcDbSymbolTableRecord
100
AcDbBlockTableRecord
  2
_D
340
0
 70
     0
280
     1
281
     0
  0
BLOCK_RECORD
  5
BC
330
1
100
AcDbSymbolTableRecord
100
AcDbBlockTableRecord
  2
_D_1
340
0
 70
     0
280
     1
281
     0
  0
BLOCK_RECORD
  5
C4
330
1
100
AcDbSymbolTableRecord
100
AcDbBlockTableRecord
  2
_D_2
340
0
 70
     0
280
     1
281
     0
  0
BLOCK_RECORD
  5
CC
330
1
100
AcDbSymbolTableRecord
100
AcDbBlockTableRecord
  2
_D_3
340
0
 70
     0
280
     1
281
     0
  0
BLOCK_RECORD
  5
105
330
1
100
AcDbSymbolTableRecord
100
AcDbBlockTableRecord
  2
_D_4
340
0
 70
     0
280
     1
281
     0
  0
BLOCK_RECORD
  5
10E
330
1
100
AcDbSymbolTableRecord
100
AcDbBlockTableRecord
  2
_D_5
340
0
 70
     0
280
     1
281
     0
  0
BLOCK_RECORD
  5
117
330
1
100
AcDbSymbolTableRecord
100
AcDbBlockTableRecord
  2
_D_6
340
0
 70
     0
280
     1
281
     0
  0
BLOCK_RECORD
  5
17A
330
1
100
AcDbSymbolTableRecord
100
AcDbBlockTableRecord
  2
_D_7
340
0
 70
     0
280
     1
281
     0
  0
BLOCK_RECORD
  5
1C2
330
1
100
AcDbSymbolTableRecord
100
AcDbBlockTableRecord
  2
*D10
340
0
 70
     0
280
     1
281
     0
  0
BLOCK_RECORD
  5
1E6
330
1
100
AcDbSymbolTableRecord
100
AcDbBlockTableRecord
  2
*D12
340
0
 70
     0
280
     1
281
     0
  0
BLOCK_RECORD
  5
1F1
330
1
100
AcDbSymbolTableRecord
100
AcDbBlockTableRecord
  2
*D13
340
0
 70
     0
280
     1
281
     0
  0
BLOCK_RECORD
  5
1FE
330
1
100
AcDbSymbolTableRecord
100
AcDbBlockTableRecord
  2
*D14
340
0
 70
     0
280
     1
281
     0
  0
BLOCK_RECORD
  5
20C
330
1
100
AcDbSymbolTableRecord
100
AcDbBlockTableRecord
  2
*D15
340
0
 70
     0
280
     1
281
     0
  0
BLOCK_RECORD
  5
21A
330
1
100
AcDbSymbolTableRecord
100
AcDbBlockTableRecord
  2
*D16
340
0
 70
     0
280
     1
281
     0
  0
BLOCK_RECORD
  5
228
330
1
100
AcDbSymbolTableRecord
100
AcDbBlockTableRecord
  2
*D17
340
0
 70
     0
280
     1
281
     0
  0
BLOCK_RECORD
  5
236
330
1
100
AcDbSymbolTableRecord
100
AcDbBlockTableRecord
  2
*D18
340
0
 70
     0
280
     1
281
     0
  0
BLOCK_RECORD
  5
244
330
1
100
AcDbSymbolTableRecord
100
AcDbBlockTableRecord
  2
*D19
340
0
 70
     0
280
     1
281
     0
  0
BLOCK_RECORD
  5
26E
330
1
100
AcDbSymbolTableRecord
100
AcDbBlockTableRecord
  2
*D20
340
0
 70
     0
280
     1
281
     0
  0
BLOCK_RECORD
  5
27C
330
1
100
AcDbSymbolTableRecord
100
AcDbBlockTableRecord
  2
*D21
340
0
 70
     0
280
     1
281
     0
  0
BLOCK_RECORD
  5
291
330
1
100
AcDbSymbolTableRecord
100
AcDbBlockTableRecord
  2
*D22
340
0
 70
     0
280
     1
281
     0
  0
ENDTAB
  0
ENDSEC
  0
SECTION
  2
BLOCKS
  0
BLOCK
  5
20
330
1F
100
AcDbEntity
  8
0
100
AcDbBlockBegin
  2
*Model_Space
 70
     0
 10
0.0
 20
0.0
 30
0.0
  3
*Model_Space
  1

  0
ENDBLK
  5
21
330
1F
100
AcDbEntity
  8
0
100
AcDbBlockEnd
  0
BLOCK
  5
1C
330
1B
100
AcDbEntity
 67
     1
  8
0
100
AcDbBlockBegin
  2
*Paper_Space
 70
     0
 10
0.0
 20
0.0
 30
0.0
  3
*Paper_Space
  1

  0
ENDBLK
  5
1D
330
1B
100
AcDbEntity
 67
     1
  8
0
100
AcDbBlockEnd
  0
BLOCK
  5
24
330
23
100
AcDbEntity
 67
     1
  8
0
100
AcDbBlockBegin
  2
*Paper_Space0
 70
     0
 10
0.0
 20
0.0
 30
0.0
  3
*Paper_Space0
  1

  0
ENDBLK
  5
25
330
23
100
AcDbEntity
 67
     1
  8
0
100
AcDbBlockEnd
  0
BLOCK
  5
B2
330
B1
100
AcDbEntity
  8
0
100
AcDbBlockBegin
  2
_None
 70
     0
 10
0.0
 20
0.0
 30
0.0
  3
_None
  1

  0
ENDBLK
  5
B3
330
B1
100
AcDbEntity
  8
0
100
AcDbBlockEnd
  0
BLOCK
  5
B5
330
B4
100
AcDbEntity
  8
0
100
AcDbBlockBegin
  2
_D
 70
     0
 10
0.0
 20
0.0
 30
0.0
  3
_D
  1

  0
LINE
  5
B7
330
B4
100
AcDbEntity
  8
0
  6
Continuous
 62
     7
440
 16777216
370
     0
100
AcDbLine
 10
-238.5604678035
 20
-804.5566837916
 30
0.0
 11
-238.5604678035
 21
-859.3900573455
 31
0.0
  0
LINE
  5
B8
330
B4
100
AcDbEntity
  8
0
  6
Continuous
 62
     7
440
 16777216
370
     0
100
AcDbLine
 10
-27.0996062637
 20
-73.398285745
 30
0.0
 11
-27.0996062637
 21
-859.3900573455
 31
0.0
  0
LINE
  5
B9
330
B4
100
AcDbEntity
  8
0
  6
Continuous
 62
     7
440
 16777216
370
     0
100
AcDbLine
 10
-238.5604678035
 20
-858.3900573455
 30
0.0
 11
-27.0996062637
 21
-858.3900573455
 31
0.0
  0
MTEXT
  5
BA
330
B4
100
AcDbEntity
  8
0
  6
Continuous
 62
     7
440
 16777216
370
    18
100
AcDbMText
 10
-170.1191772387
 20
-837.9261065109
 30
0.0
 40
15.875
 41
0.0
 46
0.0
 71
     1
 72
     1
  1
212.00
  7
SLDTEXTSTYLE0
 73
     1
 44
1.0
  0
ENDBLK
  5
B6
330
B4
100
AcDbEntity
  8
0
100
AcDbBlockEnd
  0
BLOCK
  5
BD
330
BC
100
AcDbEntity
  8
0
100
AcDbBlockBegin
  2
_D_1
 70
     0
 10
0.0
 20
0.0
 30
0.0
  3
_D_1
  1

  0
LINE
  5
BF
330
BC
100
AcDbEntity
  8
0
  6
Continuous
 62
     7
440
 16777216
370
     0
100
AcDbLine
 10
-13.8674829943
 20
-64.01182139159999
 30
0.0
 11
47.68950780619999
 21
-64.01182139159999
 31
0.0
  0
LINE
  5
C0
330
BC
100
AcDbEntity
  8
0
  6
Continuous
 62
     7
440
 16777216
370
     0
100
AcDbLine
 10
-173.8296516398
 20
-794.3900573455001
 30
0.0
 11
47.68950780619999
 21
-794.3900573455001
 31
0.0
  0
LINE
  5
C1
330
BC
100
AcDbEntity
  8
0
  6
Continuous
 62
     7
440
 16777216
370
     0
100
AcDbLine
 10
46.6895078062
 20
-64.01182139159999
 30
0.0
 11
46.6895078062
 21
-794.3900573455001
 31
0.0
  0
MTEXT
  5
C2
330
BC
100
AcDbEntity
  8
0
  6
Continuous
 62
     7
440
 16777216
370
    18
100
AcDbMText
 10
26.2255569717
 20
-451.835840121
 30
0.0
 40
15.875
 41
0.0
 46
0.0
 71
     1
 72
     1
  1
730.00
  7
SLDTEXTSTYLE0
 11
-0.000000000000007
 21
1.0
 31
0.0
 73
     1
 44
1.0
  0
ENDBLK
  5
BE
330
BC
100
AcDbEntity
  8
0
100
AcDbBlockEnd
  0
BLOCK
  5
C5
330
C4
100
AcDbEntity
  8
0
100
AcDbBlockBegin
  2
_D_2
 70
     0
 10
0.0
 20
0.0
 30
0.0
  3
_D_2
  1

  0
LINE
  5
C7
330
C4
100
AcDbEntity
  8
0
  6
Continuous
 62
     7
440
 16777216
370
     0
100
AcDbLine
 10
-270.5400388971
 20
56.7099426545
 30
0.0
 11
-334.5604678035
 21
56.7099426545
 31
0.0
  0
LINE
  5
C8
330
C4
100
AcDbEntity
  8
0
  6
Continuous
 62
     7
440
 16777216
370
     0
100
AcDbLine
 10
-298.532237783
 20
-794.3900573455001
 30
0.0
 11
-334.5604678035
 21
-794.3900573455001
 31
0.0
  0
LINE
  5
C9
330
C4
100
AcDbEntity
  8
0
  6
Continuous
 62
     7
440
 16777216
370
     0
100
AcDbLine
 10
-333.5604678035
 20
56.7099426545
 30
0.0
 11
-333.5604678035
 21
-794.3900573455001
 31
0.0
  0
MTEXT
  5
CA
330
C4
100
AcDbEntity
  8
0
  6
Continuous
 62
     7
440
 16777216
370
    18
100
AcDbMText
 10
-354.0244186381
 20
-350.6294020105
 30
0.0
 40
15.875
 41
0.0
 46
0.0
 71
     1
 72
     1
  1
850.00
  7
SLDTEXTSTYLE0
 11
-0.000000000000007
 21
1.0
 31
0.0
 73
     1
 44
1.0
  0
ENDBLK
  5
C6
330
C4
100
AcDbEntity
  8
0
100
AcDbBlockEnd
  0
BLOCK
  5
CD
330
CC
100
AcDbEntity
  8
0
100
AcDbBlockBegin
  2
_D_3
 70
     0
 10
0.0
 20
0.0
 30
0.0
  3
_D_3
  1

  0
LINE
  5
CF
330
CC
100
AcDbEntity
  8
0
  6
Continuous
 62
     7
440
 16777216
370
     0
100
AcDbLine
 10
-261.0604678035
 20
63.8910487759
 30
0.0
 11
-261.0604678035
 21
91.70994265450001
 31
0.0
  0
LINE
  5
D0
330
CC
100
AcDbEntity
  8
0
  6
Continuous
 62
     7
440
 16777216
370
     0
100
AcDbLine
 10
-177.0604678035
 20
57.5229924654
 30
0.0
 11
-177.0604678035
 21
91.70994265450001
 31
0.0
  0
LINE
  5
D1
330
CC
100
AcDbEntity
  8
0
  6
Continuous
 62
     7
440
 16777216
370
     0
100
AcDbLine
 10
-261.0604678035
 20
90.70994265450002
 30
0.0
 11
-177.0604678035
 21
90.70994265450002
 31
0.0
  0
MTEXT
  5
D2
330
CC
100
AcDbEntity
  8
0
  6
Continuous
 62
     7
440
 16777216
370
    18
100
AcDbMText
 10
-246.3470404303
 20
111.1738934891
 30
0.0
 40
15.875
 41
0.0
 46
0.0
 71
     1
 72
     1
  1
85.00
  7
SLDTEXTSTYLE0
 73
     1
 44
1.0
  0
ENDBLK
  5
CE
330
CC
100
AcDbEntity
  8
0
100
AcDbBlockEnd
  0
BLOCK
  5
106
330
105
100
AcDbEntity
  8
0
100
AcDbBlockBegin
  2
_D_4
 70
     0
 10
0.0
 20
0.0
 30
0.0
  3
_D_4
  1

  0
LINE
  5
108
330
105
100
AcDbEntity
  8
0
  6
Continuous
 62
     7
440
 16777216
370
     0
100
AcDbLine
 10
271.0231310081
 20
62.6323354642
 30
0.0
 11
271.0231310081
 21
91.70994265450001
 31
0.0
  0
LINE
  5
109
330
105
100
AcDbEntity
  8
0
  6
Continuous
 62
     7
440
 16777216
370
     0
100
AcDbLine
 10
316.0231310081
 20
61.9898368922
 30
0.0
 11
316.0231310081
 21
91.70994265450001
 31
0.0
  0
LINE
  5
10A
330
105
100
AcDbEntity
  8
0
  6
Continuous
 62
     7
440
 16777216
370
     0
100
AcDbLine
 10
271.0231310081
 20
90.70994265450002
 30
0.0
 11
316.0231310081
 21
90.70994265450002
 31
0.0
  0
MTEXT
  5
10B
330
105
100
AcDbEntity
  8
0
  6
Continuous
 62
     7
440
 16777216
370
    18
100
AcDbMText
 10
249.2811163543
 20
111.1738934891
 30
0.0
 40
15.875
 41
0.0
 46
0.0
 71
     1
 72
     1
  1
%%c
  7
SLDTEXTSTYLE0
 73
     1
 44
1.0
  0
MTEXT
  5
10C
330
105
100
AcDbEntity
  8
0
  6
Continuous
 62
     7
440
 16777216
370
    18
100
AcDbMText
 10
273.2435470103
 20
111.1738934891
 30
0.0
 40
15.875
 41
0.0
 46
0.0
 71
     1
 72
     1
  1
45.00
  7
SLDTEXTSTYLE0
 73
     1
 44
1.0
  0
ENDBLK
  5
107
330
105
100
AcDbEntity
  8
0
100
AcDbBlockEnd
  0
BLOCK
  5
10F
330
10E
100
AcDbEntity
  8
0
100
AcDbBlockBegin
  2
_D_5
 70
     0
 10
0.0
 20
0.0
 30
0.0
  3
_D_5
  1

  0
LINE
  5
111
330
10E
100
AcDbEntity
  8
0
  6
Continuous
 62
     7
440
 16777216
370
     0
100
AcDbLine
 10
342.4331310081
 20
-803.6064062871
 30
0.0
 11
342.4331310081
 21
-859.3900573455
 31
0.0
  0
LINE
  5
112
330
10E
100
AcDbEntity
  8
0
  6
Continuous
 62
     7
440
 16777216
370
     0
100
AcDbLine
 10
244.4331310081
 20
-806.9901407220999
 30
0.0
 11
244.4331310081
 21
-859.3900573455
 31
0.0
  0
LINE
  5
113
330
10E
100
AcDbEntity
  8
0
  6
Continuous
 62
     7
440
 16777216
370
     0
100
AcDbLine
 10
342.4331310081
 20
-858.3900573455
 30
0.0
 11
244.4331310081
 21
-858.3900573455
 31
0.0
  0
MTEXT
  5
114
330
10E
100
AcDbEntity
  8
0
  6
Continuous
 62
     7
440
 16777216
370
    18
100
AcDbMText
 10
244.841311837
 20
-837.9261065109
 30
0.0
 40
15.875
 41
0.0
 46
0.0
 71
     1
 72
     1
  1
%%c
  7
SLDTEXTSTYLE0
 73
     1
 44
1.0
  0
MTEXT
  5
115
330
10E
100
AcDbEntity
  8
0
  6
Continuous
 62
     7
440
 16777216
370
    18
100
AcDbMText
 10
268.8037424929
 20
-837.9261065109
 30
0.0
 40
15.875
 41
0.0
 46
0.0
 71
     1
 72
     1
  1
100.00
  7
SLDTEXTSTYLE0
 73
     1
 44
1.0
  0
ENDBLK
  5
110
330
10E
100
AcDbEntity
  8
0
100
AcDbBlockEnd
  0
BLOCK
  5
118
330
117
100
AcDbEntity
  8
0
100
AcDbBlockBegin
  2
_D_6
 70
     0
 10
0.0
 20
0.0
 30
0.0
  3
_D_6
  1

  0
LINE
  5
11A
330
117
100
AcDbEntity
  8
0
  6
Continuous
 62
     7
440
 16777216
370
     0
100
AcDbLine
 10
284.540558279
 20
-29.7900573455
 30
0.0
 11
221.4331310081
 21
-29.7900573455
 31
0.0
  0
LINE
  5
11B
330
117
100
AcDbEntity
  8
0
  6
Continuous
 62
     7
440
 16777216
370
     0
100
AcDbLine
 10
286.8109619348
 20
-55.1900573455
 30
0.0
 11
221.4331310081
 21
-55.1900573455
 31
0.0
  0
LINE
  5
11C
330
117
100
AcDbEntity
  8
0
  6
Continuous
 62
     7
440
 16777216
370
     0
100
AcDbLine
 10
222.4331310081
 20
-29.7900573455
 30
0.0
 11
222.4331310081
 21
-55.1900573455
 31
0.0
  0
MTEXT
  5
11D
330
117
100
AcDbEntity
  8
0
  6
Continuous
 62
     7
440
 16777216
370
    18
100
AcDbMText
 10
201.9691801735
 20
-87.20186252379999
 30
0.0
 40
15.875
 41
0.0
 46
0.0
 71
     1
 72
     1
  1
%%c
  7
SLDTEXTSTYLE0
 11
-0.000000000000007
 21
1.0
 31
0.0
 73
     1
 44
1.0
  0
MTEXT
  5
11E
330
117
100
AcDbEntity
  8
0
  6
Continuous
 62
     7
440
 16777216
370
    18
100
AcDbMText
 10
201.9691801735
 20
-63.2394318678
 30
0.0
 40
15.875
 41
0.0
 46
0.0
 71
     1
 72
     1
  1
25.00
  7
SLDTEXTSTYLE0
 11
-0.000000000000007
 21
1.0
 31
0.0
 73
     1
 44
1.0
  0
ENDBLK
  5
119
330
117
100
AcDbEntity
  8
0
100
AcDbBlockEnd
  0
BLOCK
  5
17B
330
17A
100
AcDbEntity
  8
0
100
AcDbBlockBegin
  2
_D_7
 70
     0
 10
0.0
 20
0.0
 30
0.0
  3
_D_7
  1

  0
LINE
  5
17D
330
17A
100
AcDbEntity
  8
0
  6
Continuous
 62
     7
440
 16777216
370
     0
100
AcDbLine
 10
-260.8604678035
 20
286.925223942
 30
0.0
 11
-260.8604678035
 21
359.3015096051
 31
0.0
  0
LINE
  5
17E
330
17A
100
AcDbEntity
  8
0
  6
Continuous
 62
     7
440
 16777216
370
     0
100
AcDbLine
 10
-17.3104921938
 20
292.7526477957
 30
0.0
 11
-17.3104921938
 21
359.3015096051
 31
0.0
  0
LINE
  5
17F
330
17A
100
AcDbEntity
  8
0
  6
Continuous
 62
     7
440
 16777216
370
     0
100
AcDbLine
 10
-260.8604678035
 20
358.3015096051
 30
0.0
 11
-17.3104921938
 21
358.3015096051
 31
0.0
  0
MTEXT
  5
180
330
17A
100
AcDbEntity
  8
0
  6
Continuous
 62
     7
440
 16777216
370
    18
100
AcDbMText
 10
-169.8278589194
 20
378.7654604397
 30
0.0
 40
15.875
 41
0.0
 46
0.0
 71
     1
 72
     1
  1
245.00
  7
SLDTEXTSTYLE0
 73
     1
 44
1.0
  0
ENDBLK
  5
17C
330
17A
100
AcDbEntity
  8
0
100
AcDbBlockEnd
  0
BLOCK
  5
1C3
330
1C2
100
AcDbEntity
  8
0
100
AcDbBlockBegin
  2
*D10
 70
     1
 10
0.0
 20
0.0
 30
0.0
  3
*D10
  1

  0
LINE
  5
1C4
330
1C2
100
AcDbEntity
  8
DIMENSION
440
 16777216
370
     0
100
AcDbLine
 10
1092.625159377854
 20
969.7937323929265
 30
0.0
 11
1092.569709633547
 21
979.7935786580374
 31
0.0
  0
LINE
  5
1C5
330
1C2
100
AcDbEntity
  8
DIMENSION
440
 16777216
370
     0
100
AcDbLine
 10
1454.657182624691
 20
971.8012215670347
 30
0.0
 11
1454.601732880384
 21
981.8010678321458
 31
0.0
  0
LINE
  5
1C6
330
1C2
100
AcDbEntity
  8
DIMENSION
440
 16777216
370
     0
100
AcDbLine
 10
1092.597434505701
 20
974.793655525482
 30
0.0
 11
1454.629457752537
 21
976.8011446995902
 31
0.0
  0
MTEXT
  5
1C7
330
1C2
100
AcDbEntity
  8
DIMENSION
 62
     7
440
 16777216
100
AcDbMText
 10
1273.568105608173
 20
983.9741418578535
 30
0.0
 40
8.0
 41
0.0
 46
0.0
 71
     5
 72
     1
  1
\A1;362
 73
     1
 44
1.0
  0
POINT
  5
1C8
330
1C2
100
AcDbEntity
  8
Defpoints
 62
     0
440
 16777216
100
AcDbPoint
 10
1092.771920384362
 20
943.3267482592359
 30
0.0
  0
POINT
  5
1C9
330
1C2
100
AcDbEntity
  8
Defpoints
 62
     0
440
 16777216
100
AcDbPoint
 10
1454.803943631198
 20
945.3342374333443
 30
0.0
  0
POINT
  5
1CA
330
1C2
100
AcDbEntity
  8
Defpoints
 62
     0
440
 16777216
100
AcDbPoint
 10
1454.629457752537
 20
976.8011446995902
 30
0.0
  0
ENDBLK
  5
1CB
330
1C2
100
AcDbEntity
  8
0
100
AcDbBlockEnd
  0
BLOCK
  5
1E7
330
1E6
100
AcDbEntity
  8
0
100
AcDbBlockBegin
  2
*D12
 70
     1
 10
0.0
 20
0.0
 30
0.0
  3
*D12
  1

  0
LINE
  5
1E9
330
1E6
100
AcDbEntity
  8
DIMENSION
440
 16777216
370
     0
100
AcDbLine
 10
243.0872125266235
 20
262.7676850549825
 30
0.0
 11
243.0317627823166
 21
272.7675313200936
 31
0.0
  0
LINE
  5
1EA
330
1E6
100
AcDbEntity
  8
DIMENSION
440
 16777216
370
     0
100
AcDbLine
 10
605.1192357734601
 20
264.7751742290908
 30
0.0
 11
605.0637860291531
 21
274.7750204942019
 31
0.0
  0
LINE
  5
1EB
330
1E6
100
AcDbEntity
  8
DIMENSION
440
 16777216
370
     0
100
AcDbLine
 10
243.0594876544701
 20
267.767608187538
 30
0.0
 11
605.0915109013065
 21
269.7750973616463
 31
0.0
  0
MTEXT
  5
1EC
330
1E6
100
AcDbEntity
  8
DIMENSION
 62
     7
440
 16777216
100
AcDbMText
 10
424.0306892121998
 20
276.852431842042
 30
0.0
 40
8.0
 41
0.0
 46
0.0
 71
     5
 72
     1
  1
\A1;362
 73
     1
 44
1.0
  0
POINT
  5
1ED
330
1E6
100
AcDbEntity
  8
Defpoints
 62
     0
440
 16777216
100
AcDbPoint
 10
243.2339735331311
 20
236.300700921292
 30
0.0
  0
POINT
  5
1EE
330
1E6
100
AcDbEntity
  8
Defpoints
 62
     0
440
 16777216
100
AcDbPoint
 10
605.2659967799676
 20
238.3081900954003
 30
0.0
  0
POINT
  5
1EF
330
1E6
100
AcDbEntity
  8
Defpoints
 62
     0
440
 16777216
100
AcDbPoint
 10
605.0915109013065
 20
269.7750973616463
 30
0.0
  0
ENDBLK
  5
1E8
330
1E6
100
AcDbEntity
  8
0
100
AcDbBlockEnd
  0
BLOCK
  5
1F2
330
1F1
100
AcDbEntity
  8
0
100
AcDbBlockBegin
  2
*D13
 70
     1
 10
0.0
 20
0.0
 30
0.0
  3
*D13
  1

  0
LINE
  5
1F4
330
1F1
100
AcDbEntity
  8
0
 62
     0
440
 16777216
370
    -2
100
AcDbLine
 10
-188.5604678035
 20
-794.3900573455005
 30
0.0
 11
-171.0586828860451
 21
-794.3900573455005
 31
0.0
  0
LINE
  5
1F5
330
1F1
100
AcDbEntity
  8
0
 62
     0
440
 16777216
370
    -2
100
AcDbLine
 10
-189.0604678035
 20
-769.3900573455004
 30
0.0
 11
-171.0586828860451
 21
-769.3900573455004
 31
0.0
  0
LINE
  5
1F6
330
1F1
100
AcDbEntity
  8
0
 62
     0
440
 16777216
370
    -2
100
AcDbLine
 10
-172.0586828860451
 20
-791.0880573455004
 30
0.0
 11
-172.0586828860451
 21
-785.4557240121671
 31
0.0
  0
LINE
  5
1F7
330
1F1
100
AcDbEntity
  8
0
 62
     0
440
 16777216
370
    -2
100
AcDbLine
 10
-172.0586828860451
 20
-772.6920573455004
 30
0.0
 11
-172.0586828860451
 21
-778.3243906788339
 31
0.0
  0
SOLID
  5
1F8
330
1F1
100
AcDbEntity
  8
0
 62
     0
440
 16777216
100
AcDbTrace
 10
-172.6090162193784
 20
-791.0880573455004
 30
0.0
 11
-171.5083495527118
 21
-791.0880573455004
 31
0.0
 12
-172.0586828860451
 22
-794.3900573455005
 32
0.0
 13
-172.0586828860451
 23
-794.3900573455005
 33
0.0
  0
SOLID
  5
1F9
330
1F1
100
AcDbEntity
  8
0
 62
     0
440
 16777216
100
AcDbTrace
 10
-172.6090162193784
 20
-772.6920573455004
 30
0.0
 11
-171.5083495527118
 21
-772.6920573455004
 31
0.0
 12
-172.0586828860451
 22
-769.3900573455004
 32
0.0
 13
-172.0586828860451
 23
-769.3900573455004
 33
0.0
  0
MTEXT
  5
1FA
330
1F1
100
AcDbEntity
  8
0
 62
     0
440
 16777216
100
AcDbMText
 10
-172.0586828860453
 20
-781.8900573455002
 30
0.0
 40
3.5
 41
0.0
 46
0.0
 71
     5
 72
     1
  1
250,00
 73
     1
 44
1.0
  0
POINT
  5
1FB
330
1F1
100
AcDbEntity
  8
Defpoints
 62
     0
440
 16777216
100
AcDbPoint
 10
-189.5604678035
 20
-794.3900573455005
 30
0.0
  0
POINT
  5
1FC
330
1F1
100
AcDbEntity
  8
Defpoints
 62
     0
440
 16777216
100
AcDbPoint
 10
-190.0604678035
 20
-769.3900573455004
 30
0.0
  0
POINT
  5
1FD
330
1F1
100
AcDbEntity
  8
Defpoints
 62
     0
440
 16777216
100
AcDbPoint
 10
-172.0586828860451
 20
-769.3900573455004
 30
0.0
  0
ENDBLK
  5
1F3
330
1F1
100
AcDbEntity
  8
0
100
AcDbBlockEnd
  0
BLOCK
  5
1FF
330
1FE
100
AcDbEntity
  8
0
100
AcDbBlockBegin
  2
*D14
 70
     1
 10
0.0
 20
0.0
 30
0.0
  3
*D14
  1

  0
LINE
  5
267
330
1FE
100
AcDbEntity
  8
DIMENSION
440
 16777216
370
     0
100
AcDbLine
 10
-260.8604678035
 20
353.3015096051
 30
0.0
 11
-260.8604678035
 21
363.3015096051
 31
0.0
  0
LINE
  5
268
330
1FE
100
AcDbEntity
  8
DIMENSION
440
 16777216
370
     0
100
AcDbLine
 10
-17.3104921938
 20
353.3015096051
 30
0.0
 11
-17.3104921938
 21
363.3015096051
 31
0.0
  0
LINE
  5
269
330
1FE
100
AcDbEntity
  8
DIMENSION
440
 16777216
370
     0
100
AcDbLine
 10
-260.8604678035
 20
358.3015096051
 30
0.0
 11
-17.3104921938
 21
358.3015096051
 31
0.0
  0
MTEXT
  5
26A
330
1FE
100
AcDbEntity
  8
DIMENSION
 62
     7
440
 16777216
100
AcDbMText
 10
-137.5780915862
 20
370.3015096051
 30
0.0
 40
8.0
 41
0.0
 46
0.0
 71
     2
 72
     1
  1
\A1;245
 73
     1
 44
1.0
  0
POINT
  5
26B
330
1FE
100
AcDbEntity
  8
Defpoints
 62
     0
440
 16777216
100
AcDbPoint
 10
-260.8604678035
 20
269.3915096051
 30
0.0
  0
POINT
  5
26C
330
1FE
100
AcDbEntity
  8
Defpoints
 62
     0
440
 16777216
100
AcDbPoint
 10
-17.3104921938
 20
282.0015096051
 30
0.0
  0
POINT
  5
26D
330
1FE
100
AcDbEntity
  8
Defpoints
 62
     0
440
 16777216
100
AcDbPoint
 10
-17.3104921938
 20
358.3015096051
 30
0.0
  0
ENDBLK
  5
200
330
1FE
100
AcDbEntity
  8
0
100
AcDbBlockEnd
  0
BLOCK
  5
20D
330
20C
100
AcDbEntity
  8
0
100
AcDbBlockBegin
  2
*D15
 70
     1
 10
0.0
 20
0.0
 30
0.0
  3
*D15
  1

  0
LINE
  5
260
330
20C
100
AcDbEntity
  8
DIMENSION
440
 16777216
370
     0
100
AcDbLine
 10
-261.0604678035
 20
85.70994265450002
 30
0.0
 11
-261.0604678035
 21
95.70994265450002
 31
0.0
  0
LINE
  5
261
330
20C
100
AcDbEntity
  8
DIMENSION
440
 16777216
370
     0
100
AcDbLine
 10
-177.0604678035
 20
85.70994265450002
 30
0.0
 11
-177.0604678035
 21
95.70994265450002
 31
0.0
  0
LINE
  5
262
330
20C
100
AcDbEntity
  8
DIMENSION
440
 16777216
370
     0
100
AcDbLine
 10
-261.0604678035
 20
90.70994265450002
 30
0.0
 11
-177.0604678035
 21
90.70994265450002
 31
0.0
  0
MTEXT
  5
263
330
20C
100
AcDbEntity
  8
DIMENSION
 62
     7
440
 16777216
100
AcDbMText
 10
-219.9622025049
 20
102.7099426545
 30
0.0
 40
8.0
 41
0.0
 46
0.0
 71
     2
 72
     1
  1
\A1;85
 73
     1
 44
1.0
  0
POINT
  5
264
330
20C
100
AcDbEntity
  8
Defpoints
 62
     0
440
 16777216
100
AcDbPoint
 10
-261.0604678035
 20
56.5099426545
 30
0.0
  0
POINT
  5
265
330
20C
100
AcDbEntity
  8
Defpoints
 62
     0
440
 16777216
100
AcDbPoint
 10
-177.0604678035
 20
50.3099426545
 30
0.0
  0
POINT
  5
266
330
20C
100
AcDbEntity
  8
Defpoints
 62
     0
440
 16777216
100
AcDbPoint
 10
-177.0604678035
 20
90.70994265450002
 30
0.0
  0
ENDBLK
  5
20E
330
20C
100
AcDbEntity
  8
0
100
AcDbBlockEnd
  0
BLOCK
  5
21B
330
21A
100
AcDbEntity
  8
0
100
AcDbBlockBegin
  2
*D16
 70
     1
 10
0.0
 20
0.0
 30
0.0
  3
*D16
  1

  0
LINE
  5
2B4
330
21A
100
AcDbEntity
  8
DIMENSION
440
 16777216
370
     0
100
AcDbLine
 10
-285.2145652271648
 20
56.70994265450001
 30
0.0
 11
-295.2145652271648
 21
56.70994265450001
 31
0.0
  0
LINE
  5
2B5
330
21A
100
AcDbEntity
  8
DIMENSION
440
 16777216
370
     0
100
AcDbLine
 10
-288.5604678035001
 20
-794.3900573455005
 30
0.0
 11
-295.2145652271646
 21
-794.3900573455005
 31
0.0
  0
LINE
  5
2B6
330
21A
100
AcDbEntity
  8
DIMENSION
440
 16777216
370
     0
100
AcDbLine
 10
-290.2145652271648
 20
56.70994265450001
 30
0.0
 11
-290.2145652271646
 21
-794.3900573455005
 31
0.0
  0
MTEXT
  5
2B7
330
21A
100
AcDbEntity
  8
DIMENSION
 62
     7
440
 16777216
100
AcDbMText
 10
-304.2145652271647
 20
-314.3796346773
 30
0.0
 40
8.0
 41
0.0
 46
0.0
 71
     2
 72
     1
  1
\A1;850
 73
     1
 44
1.0
  0
POINT
  5
2B8
330
21A
100
AcDbEntity
  8
Defpoints
 62
     0
440
 16777216
100
AcDbPoint
 10
-260.8604678035001
 20
56.70994265450002
 30
0.0
  0
POINT
  5
2B9
330
21A
100
AcDbEntity
  8
Defpoints
 62
     0
440
 16777216
100
AcDbPoint
 10
-287.5604678035001
 20
-794.3900573455005
 30
0.0
  0
POINT
  5
2BA
330
21A
100
AcDbEntity
  8
Defpoints
 62
     0
440
 16777216
100
AcDbPoint
 10
-290.2145652271646
 20
-794.3900573455005
 30
0.0
  0
ENDBLK
  5
21C
330
21A
100
AcDbEntity
  8
0
100
AcDbBlockEnd
  0
BLOCK
  5
229
330
228
100
AcDbEntity
  8
0
100
AcDbBlockBegin
  2
*D17
 70
     1
 10
0.0
 20
0.0
 30
0.0
  3
*D17
  1

  0
LINE
  5
2AD
330
228
100
AcDbEntity
  8
DIMENSION
440
 16777216
370
     0
100
AcDbLine
 10
-0.8203486803458483
 20
-64.01182139160003
 30
0.0
 11
9.179651319654153
 21
-64.01182139160003
 31
0.0
  0
LINE
  5
2AE
330
228
100
AcDbEntity
  8
DIMENSION
440
 16777216
370
     0
100
AcDbLine
 10
-0.8203486803456826
 20
-794.3900573455005
 30
0.0
 11
9.179651319654318
 21
-794.3900573455005
 31
0.0
  0
LINE
  5
2AF
330
228
100
AcDbEntity
  8
DIMENSION
440
 16777216
370
     0
100
AcDbLine
 10
4.179651319654153
 20
-64.01182139160003
 30
0.0
 11
4.179651319654316
 21
-794.3900573455005
 31
0.0
  0
MTEXT
  5
2B0
330
228
100
AcDbEntity
  8
DIMENSION
 62
     7
440
 16777216
100
AcDbMText
 10
18.17965131965411
 20
-415.5860727876999
 30
0.0
 40
8.0
 41
0.0
 46
0.0
 71
     2
 72
     1
  1
\A1;730
 73
     1
 44
1.0
  0
POINT
  5
2B1
330
228
100
AcDbEntity
  8
Defpoints
 62
     0
440
 16777216
100
AcDbPoint
 10
-27.09960626370002
 20
-64.01182139160003
 30
0.0
  0
POINT
  5
2B2
330
228
100
AcDbEntity
  8
Defpoints
 62
     0
440
 16777216
100
AcDbPoint
 10
-189.5604678035
 20
-794.3900573455005
 30
0.0
  0
POINT
  5
2B3
330
228
100
AcDbEntity
  8
Defpoints
 62
     0
440
 16777216
100
AcDbPoint
 10
4.179651319654316
 20
-794.3900573455005
 30
0.0
  0
ENDBLK
  5
22A
330
228
100
AcDbEntity
  8
0
100
AcDbBlockEnd
  0
BLOCK
  5
237
330
236
100
AcDbEntity
  8
0
100
AcDbBlockBegin
  2
*D18
 70
     1
 10
0.0
 20
0.0
 30
0.0
  3
*D18
  1

  0
LINE
  5
2C9
330
236
100
AcDbEntity
  8
DIMENSION
440
 16777216
370
     0
100
AcDbLine
 10
-238.5604678035
 20
-814.0997813173239
 30
0.0
 11
-238.5604678035
 21
-824.0997813173239
 31
0.0
  0
LINE
  5
2CA
330
236
100
AcDbEntity
  8
DIMENSION
440
 16777216
370
     0
100
AcDbLine
 10
-27.09960626370005
 20
-814.0997813173239
 30
0.0
 11
-27.09960626370005
 21
-824.0997813173239
 31
0.0
  0
LINE
  5
2CB
330
236
100
AcDbEntity
  8
DIMENSION
440
 16777216
370
     0
100
AcDbLine
 10
-238.5604678035
 20
-819.099781317324
 30
0.0
 11
-27.09960626370005
 21
-819.099781317324
 31
0.0
  0
MTEXT
  5
2CC
330
236
100
AcDbEntity
  8
DIMENSION
 62
     7
440
 16777216
100
AcDbMText
 10
-137.8694099055
 20
-823.0997813173239
 30
0.0
 40
8.0
 41
0.0
 46
0.0
 71
     2
 72
     1
  1
\A1;212
 73
     1
 44
1.0
  0
POINT
  5
2CD
330
236
100
AcDbEntity
  8
Defpoints
 62
     0
440
 16777216
100
AcDbPoint
 10
-238.5604678035
 20
-794.3900573455001
 30
0.0
  0
POINT
  5
2CE
330
236
100
AcDbEntity
  8
Defpoints
 62
     0
440
 16777216
100
AcDbPoint
 10
-27.0996062637
 20
-64.01182139159999
 30
0.0
  0
POINT
  5
2CF
330
236
100
AcDbEntity
  8
Defpoints
 62
     0
440
 16777216
100
AcDbPoint
 10
-27.09960626370005
 20
-819.099781317324
 30
0.0
  0
ENDBLK
  5
238
330
236
100
AcDbEntity
  8
0
100
AcDbBlockEnd
  0
BLOCK
  5
245
330
244
100
AcDbEntity
  8
0
100
AcDbBlockBegin
  2
*D19
 70
     1
 10
0.0
 20
0.0
 30
0.0
  3
*D19
  1

  0
LINE
  5
2C2
330
244
100
AcDbEntity
  8
DIMENSION
440
 16777216
370
     0
100
AcDbLine
 10
342.4331310081
 20
-810.0702216933669
 30
0.0
 11
342.4331310081
 21
-820.0702216933668
 31
0.0
  0
LINE
  5
2C3
330
244
100
AcDbEntity
  8
DIMENSION
440
 16777216
370
     0
100
AcDbLine
 10
244.4331310081
 20
-810.0702216933669
 30
0.0
 11
244.4331310081
 21
-820.0702216933668
 31
0.0
  0
LINE
  5
2C4
330
244
100
AcDbEntity
  8
DIMENSION
440
 16777216
370
     0
100
AcDbLine
 10
342.4331310081
 20
-815.0702216933668
 30
0.0
 11
244.4331310081
 21
-815.0702216933668
 31
0.0
  0
MTEXT
  5
2C5
330
244
100
AcDbEntity
  8
DIMENSION
 62
     7
440
 16777216
100
AcDbMText
 10
293.4331310081
 20
-819.0702216933669
 30
0.0
 40
8.0
 41
0.0
 46
0.0
 71
     2
 72
     1
  1
\A1;%%c100
 73
     1
 44
1.0
  0
POINT
  5
2C6
330
244
100
AcDbEntity
  8
Defpoints
 62
     0
440
 16777216
100
AcDbPoint
 10
342.4331310081
 20
-794.3900573455001
 30
0.0
  0
POINT
  5
2C7
330
244
100
AcDbEntity
  8
Defpoints
 62
     0
440
 16777216
100
AcDbPoint
 10
244.4331310081
 20
-794.3900573455001
 30
0.0
  0
POINT
  5
2C8
330
244
100
AcDbEntity
  8
Defpoints
 62
     0
440
 16777216
100
AcDbPoint
 10
244.4331310081
 20
-815.0702216933668
 30
0.0
  0
ENDBLK
  5
246
330
244
100
AcDbEntity
  8
0
100
AcDbBlockEnd
  0
BLOCK
  5
26F
330
26E
100
AcDbEntity
  8
0
100
AcDbBlockBegin
  2
*D20
 70
     1
 10
0.0
 20
0.0
 30
0.0
  3
*D20
  1

  0
LINE
  5
2A6
330
26E
100
AcDbEntity
  8
DIMENSION
440
 16777216
370
     0
100
AcDbLine
 10
257.769153327442
 20
-29.79005734550002
 30
0.0
 11
247.769153327442
 21
-29.79005734550002
 31
0.0
  0
LINE
  5
2A7
330
26E
100
AcDbEntity
  8
DIMENSION
440
 16777216
370
     0
100
AcDbLine
 10
257.769153327442
 20
-55.19005734550003
 30
0.0
 11
247.769153327442
 21
-55.19005734550003
 31
0.0
  0
LINE
  5
2A8
330
26E
100
AcDbEntity
  8
DIMENSION
440
 16777216
370
     0
100
AcDbLine
 10
252.769153327442
 20
-29.79005734550002
 30
0.0
 11
252.769153327442
 21
-55.19005734550003
 31
0.0
  0
MTEXT
  5
2A9
330
26E
100
AcDbEntity
  8
DIMENSION
 62
     7
440
 16777216
100
AcDbMText
 10
238.1024866607753
 20
-38.49005734550009
 30
0.0
 40
8.0
 41
0.0
 46
0.0
 71
     2
 72
     1
  1
\A1;%%c25
 73
     1
 44
1.0
  0
POINT
  5
2AA
330
26E
100
AcDbEntity
  8
Defpoints
 62
     0
440
 16777216
100
AcDbPoint
 10
293.4331310081002
 20
-29.79005734550002
 30
0.0
  0
POINT
  5
2AB
330
26E
100
AcDbEntity
  8
Defpoints
 62
     0
440
 16777216
100
AcDbPoint
 10
293.4331310081002
 20
-55.19005734550002
 30
0.0
  0
POINT
  5
2AC
330
26E
100
AcDbEntity
  8
Defpoints
 62
     0
440
 16777216
100
AcDbPoint
 10
252.769153327442
 20
-55.19005734550003
 30
0.0
  0
ENDBLK
  5
270
330
26E
100
AcDbEntity
  8
0
100
AcDbBlockEnd
  0
BLOCK
  5
27D
330
27C
100
AcDbEntity
  8
0
100
AcDbBlockBegin
  2
*D21
 70
     1
 10
0.0
 20
0.0
 30
0.0
  3
*D21
  1

  0
LINE
  5
27F
330
27C
100
AcDbEntity
  8
DIMENSION
440
 16777216
370
     0
100
AcDbLine
 10
271.0231310081
 20
85.70994265450002
 30
0.0
 11
271.0231310081
 21
95.70994265450002
 31
0.0
  0
LINE
  5
280
330
27C
100
AcDbEntity
  8
DIMENSION
440
 16777216
370
     0
100
AcDbLine
 10
316.0231310081
 20
85.70994265450002
 30
0.0
 11
316.0231310081
 21
95.70994265450002
 31
0.0
  0
LINE
  5
281
330
27C
100
AcDbEntity
  8
DIMENSION
440
 16777216
370
     0
100
AcDbLine
 10
271.0231310081
 20
90.70994265450002
 30
0.0
 11
316.0231310081
 21
90.70994265450002
 31
0.0
  0
MTEXT
  5
282
330
27C
100
AcDbEntity
  8
DIMENSION
 62
     7
440
 16777216
100
AcDbMText
 10
287.6471658824
 20
102.7099426545
 30
0.0
 40
8.0
 41
0.0
 46
0.0
 71
     2
 72
     1
  1
\A1;%%c45
 73
     1
 44
1.0
  0
POINT
  5
283
330
27C
100
AcDbEntity
  8
Defpoints
 62
     0
440
 16777216
100
AcDbPoint
 10
271.0231310081
 20
56.5099426545
 30
0.0
  0
POINT
  5
284
330
27C
100
AcDbEntity
  8
Defpoints
 62
     0
440
 16777216
100
AcDbPoint
 10
316.0231310081
 20
56.5099426545
 30
0.0
  0
POINT
  5
285
330
27C
100
AcDbEntity
  8
Defpoints
 62
     0
440
 16777216
100
AcDbPoint
 10
316.0231310081
 20
90.70994265450002
 30
0.0
  0
ENDBLK
  5
27E
330
27C
100
AcDbEntity
  8
0
100
AcDbBlockEnd
  0
BLOCK
  5
292
330
291
100
AcDbEntity
  8
0
100
AcDbBlockBegin
  2
*D22
 70
     1
 10
0.0
 20
0.0
 30
0.0
  3
*D22
  1

  0
LINE
  5
294
330
291
100
AcDbEntity
  8
DIMENSION
440
 16777216
370
     0
100
AcDbLine
 10
-177.0586828860452
 20
-794.3900573455005
 30
0.0
 11
-167.0586828860451
 21
-794.3900573455005
 31
0.0
  0
LINE
  5
295
330
291
100
AcDbEntity
  8
DIMENSION
440
 16777216
370
     0
100
AcDbLine
 10
-177.0586828860452
 20
-769.3900573455004
 30
0.0
 11
-167.0586828860451
 21
-769.3900573455004
 31
0.0
  0
LINE
  5
296
330
291
100
AcDbEntity
  8
DIMENSION
440
 16777216
370
     0
100
AcDbLine
 10
-172.0586828860452
 20
-794.3900573455005
 30
0.0
 11
-172.0586828860452
 21
-769.3900573455004
 31
0.0
  0
MTEXT
  5
297
330
291
100
AcDbEntity
  8
DIMENSION
 62
     7
440
 16777216
100
AcDbMText
 10
-161.3920162193787
 20
-781.8900573455002
 30
0.0
 40
8.0
 41
0.0
 46
0.0
 71
     5
 72
     1
  1
\A1;25
 73
     1
 44
1.0
  0
POINT
  5
298
330
291
100
AcDbEntity
  8
Defpoints
 62
     0
440
 16777216
100
AcDbPoint
 10
-189.5604678035
 20
-794.3900573455005
 30
0.0
  0
POINT
  5
299
330
291
100
AcDbEntity
  8
Defpoints
 62
     0
440
 16777216
100
AcDbPoint
 10
-190.0604678035
 20
-769.3900573455004
 30
0.0
  0
POINT
  5
29A
330
291
100
AcDbEntity
  8
Defpoints
 62
     0
440
 16777216
100
AcDbPoint
 10
-172.0586828860452
 20
-769.3900573455004
 30
0.0
  0
ENDBLK
  5
293
330
291
100
AcDbEntity
  8
0
100
AcDbBlockEnd
  0
ENDSEC
  0
SECTION
  2
ENTITIES
  0
LINE
  5
74
330
1F
100
AcDbEntity
  8
0
  6
Continuous
 62
     7
370
    25
100
AcDbLine
 10
-40.95691798199999
 20
-55.03102731590001
 30
0.0
 11
-36.6183800643
 21
-66.95105921439999
 31
0.0
  0
LINE
  5
75
330
1F
100
AcDbEntity
  8
0
  6
Continuous
 62
     7
370
    25
100
AcDbLine
 10
-17.9184974729
 20
-60.1448568175
 30
0.0
 11
-19.7802628712
 21
-55.02969974009999
 31
0.0
  0
LINE
  5
76
330
1F
100
AcDbEntity
  8
0
  6
Continuous
 62
     7
370
    25
100
AcDbLine
 10
-36.6183763975
 20
-66.9510626861
 30
0.0
 11
-35.9775202139
 21
-67.2498985908
 31
0.0
  0
LINE
  5
77
330
1F
100
AcDbEntity
  8
0
  6
Continuous
 62
     7
370
    25
100
AcDbLine
 10
-18.2173342458
 20
-60.785717882
 30
0.0
 11
-17.9184980502
 21
-60.1448618339
 31
0.0
  0
LINE
  5
78
330
1F
100
AcDbEntity
  8
0
  6
Continuous
 62
     7
370
    25
100
AcDbLine
 10
-17.3104921938
 20
-29.7900573455
 30
0.0
 11
-216.3954961831
 21
-29.7900573455
 31
0.0
  0
LINE
  5
79
330
1F
100
AcDbEntity
  8
0
  6
Continuous
 62
     7
370
    25
100
AcDbLine
 10
-19.5075182608
 20
-55.1900573455
 30
0.0
 11
-17.3104921938
 21
-55.1900573455
 31
0.0
  0
LINE
  5
7A
330
1F
100
AcDbEntity
  8
0
  6
Continuous
 62
     7
370
    25
100
AcDbLine
 10
-203.1813789643
 20
-55.1900573455
 30
0.0
 11
-41.07880151739999
 21
-55.1900573455
 31
0.0
  0
LINE
  5
7B
330
1F
100
AcDbEntity
  8
0
  6
Continuous
 62
     7
370
    25
100
AcDbLine
 10
-216.395534649
 20
-55.1900573455
 30
0.0
 11
-206.4392417622
 21
-55.1900573455
 31
0.0
  0
LINE
  5
7C
330
1F
100
AcDbEntity
  8
DIMENSION
100
AcDbLine
 10
-216.3104678035
 20
-29.6826910835
 30
0.0
 11
-216.3104678035
 21
26.6099426545
 31
0.0
  0
LINE
  5
7D
330
1F
100
AcDbEntity
  8
0
  6
Continuous
 62
     7
370
    25
100
AcDbLine
 10
-216.3104678035
 20
-92.1900573455
 30
0.0
 11
-216.3104678035
 21
-55.3049148579
 31
0.0
  0
LINE
  5
7E
330
1F
100
AcDbEntity
  8
DIMENSION
100
AcDbLine
 10
-260.8104678035
 20
26.6099426545
 30
0.0
 11
-260.8104678035
 21
-92.1900573455
 31
0.0
  0
LINE
  5
7F
330
1F
100
AcDbEntity
  8
0
  6
Continuous
 62
     7
370
    25
100
AcDbLine
 10
-258.6773968219
 20
-92.1900573455
 30
0.0
 11
-258.6773968219
 21
-92.3900573455
 31
0.0
  0
LINE
  5
80
330
1F
100
AcDbEntity
  8
0
  6
Continuous
 62
     7
370
    25
100
AcDbLine
 10
-218.4435387851
 20
-92.3900573455
 30
0.0
 11
-218.4435387851
 21
-92.1900573455
 31
0.0
  0
LINE
  5
81
330
1F
100
AcDbEntity
  8
0
  6
Continuous
 62
     7
370
    25
100
AcDbLine
 10
-189.5604678035
 20
-794.3900573455001
 30
0.0
 11
-189.5604678035
 21
-769.8900573455
 31
0.0
  0
LINE
  5
82
330
1F
100
AcDbEntity
  8
0
  6
Continuous
 62
     7
370
    25
100
AcDbLine
 10
-287.5604678035
 20
-769.8900573455
 30
0.0
 11
-287.5604678035
 21
-794.3900573455001
 31
0.0
  0
ARC
  5
83
330
1F
100
AcDbEntity
  8
0
  6
Continuous
 62
     7
370
    25
100
AcDbCircle
 10
-287.0604678035
 20
-769.8900573455
 30
0.0
 40
0.5
100
AcDbArc
 50
90.0
 51
180.0
  0
ARC
  5
84
330
1F
100
AcDbEntity
  8
0
  6
Continuous
 62
     7
370
    25
100
AcDbCircle
 10
-190.0604678035
 20
-769.8900573455
 30
0.0
 40
0.5
100
AcDbArc
 50
0.0
 51
90.0
  0
LINE
  5
85
330
1F
100
AcDbEntity
  8
0
  6
Continuous
 62
     7
370
    25
100
AcDbLine
 10
-216.3104678035
 20
-769.3900573455001
 30
0.0
 11
-216.3104678035
 21
-92.3900573455
 31
0.0
  0
LINE
  5
86
330
1F
100
AcDbEntity
  8
0
  6
Continuous
 62
     7
370
    25
100
AcDbLine
 10
-260.8104678035
 20
-92.3900573455
 30
0.0
 11
-260.8104678035
 21
-769.3900573455001
 31
0.0
  0
LINE
  5
87
330
1F
100
AcDbEntity
  8
DIMENSION
100
AcDbLine
 10
-216.0604678035
 20
50.399942164
 30
0.0
 11
-216.0604678035
 21
56.5099426545
 31
0.0
  0
LINE
  5
88
330
1F
100
AcDbEntity
  8
DIMENSION
100
AcDbLine
 10
-216.0604678035
 20
29.7099426545
 30
0.0
 11
-216.0604678035
 21
42.26043281289999
 31
0.0
  0
LINE
  5
89
330
1F
100
AcDbEntity
  8
DIMENSION
100
AcDbLine
 10
-261.0604678035
 20
56.5099426545
 30
0.0
 11
-261.0604678035
 21
38.7099426545
 31
0.0
  0
ARC
  5
8A
330
1F
100
AcDbEntity
  8
DIMENSION
100
AcDbCircle
 10
-260.8604678035
 20
56.5099426545
 30
0.0
 40
0.2000000000000455
100
AcDbArc
 50
90.0
 51
180.0
  0
ARC
  5
8B
330
1F
100
AcDbEntity
  8
DIMENSION
100
AcDbCircle
 10
-216.2604678035
 20
56.5099426545
 30
0.0
 40
0.2000000000000171
100
AcDbArc
 50
0.0
 51
90.0
  0
ARC
  5
8C
330
1F
100
AcDbEntity
  8
DIMENSION
100
AcDbCircle
 10
-238.0426057198
 20
25.2608602359
 30
0.0
 40
20.0
100
AcDbArc
 50
3.867773329499999
 51
12.8532163368
  0
ARC
  5
8D
330
1F
100
AcDbEntity
  8
DIMENSION
100
AcDbCircle
 10
-239.0783298872
 20
25.2608602359
 30
0.0
 40
20.00000000000003
100
AcDbArc
 50
145.4728960473
 51
176.1322266705
  0
LINE
  5
8E
330
1F
100
AcDbEntity
  8
DIMENSION
100
AcDbLine
 10
-177.0604678035
 20
50.3099426545
 30
0.0
 11
-216.0782492656
 21
50.3099426545
 31
0.0
  0
LINE
  5
8F
330
1F
100
AcDbEntity
  8
DIMENSION
100
AcDbLine
 10
-216.0779984028
 20
42.30994265449999
 30
0.0
 11
-177.0604678035
 21
42.30994265449999
 31
0.0
  0
LWPOLYLINE
  5
90
330
1F
100
AcDbEntity
  8
0
  6
Continuous
 62
     7
370
    25
100
AcDbPolyline
 90
        7
 70
   128
 43
0.0
 10
-23.1821363307
 20
-62.05424944189999
 10
-21.6644294834
 20
-61.5025554671
 10
-20.3492661328
 20
-61.0247876697
 10
-19.2841797089
 20
-60.6382138227
 10
-18.5076652103
 20
-60.3568057121
 10
-18.047787894
 20
-60.1907341602
 10
-17.9184974729
 20
-60.1448568175
  0
LWPOLYLINE
  5
91
330
1F
100
AcDbEntity
  8
0
  6
Continuous
 62
     7
370
    25
100
AcDbPolyline
 90
       12
 70
   128
 43
0.0
 10
-36.6183800643
 20
-66.95105921439999
 10
-36.5521380635
 20
-66.9260996731
 10
-36.1741102074
 20
-66.78718361129999
 10
-35.474208182
 20
-66.53119349669999
 10
-34.4777282701
 20
-66.1673814792
 10
-33.220685852
 20
-65.70889667279999
 10
-31.7485137158
 20
-65.1723099131
 10
-30.1144199983
 20
-64.5770148436
 10
-28.3774651041
 20
-63.9445269792
 10
-26.6004271085
 20
-63.29770607930001
 10
-24.8475327949
 20
-62.6599299363
 10
-23.1821363307
 20
-62.05424944189999
  0
LWPOLYLINE
  5
92
330
1F
100
AcDbEntity
  8
0
  6
Continuous
 62
     7
370
    25
100
AcDbPolyline
 90
       33
 70
   128
 43
0.0
 10
-23.2164680901
 20
-62.5991563639
 10
-21.7328280053
 20
-62.05985045430001
 10
-20.4553465165
 20
-61.5957876094
 10
-19.433116521
 20
-61.2248015039
 10
-18.7054217443
 20
-60.96114892600001
 10
-18.3002270884
 20
-60.8149618963
 10
-18.2331039569
 20
-60.7918583003
 10
-18.5066318539
 20
-60.89272599640001
 10
-19.1102992558
 20
-61.1136886954
 10
-20.0209075629
 20
-61.4462549249
 10
-21.2034626087
 20
-61.8776443511
 10
-22.6125194658
 20
-62.39127892029999
 10
-24.1939288695
 20
-62.967419944
 10
-25.8869181433
 20
-63.5839266458
 10
-27.6264266588
 20
-64.217107019
 10
-29.3456060793
 20
-64.8426282967
 10
-30.9783893038
 20
-65.43645204729999
 10
-32.4620293886
 20
-65.9757579568
 10
-33.7395108773
 20
-66.43982080179999
 10
-34.7617408728
 20
-66.8108069072
 10
-35.4894356496
 20
-67.07445948510001
 10
-35.8946303054
 20
-67.2206465149
 10
-35.961753437
 20
-67.24375011079999
 10
-35.68822554
 20
-67.1428824148
 10
-35.084558138
 20
-66.9219197157
 10
-34.1739498309
 20
-66.5893534862
 10
-32.9913947852
 20
-66.15796406
 10
-31.5823379281
 20
-65.64432949090001
 10
-30.0009285243
 20
-65.0681884671
 10
-28.3079392506
 20
-64.4516817653
 10
-26.5684307351
 20
-63.8185013922
 10
-24.8492513146
 20
-63.19298011439999
 10
-23.2164680901
 20
-62.5991563639
  0
LWPOLYLINE
  5
93
330
1F
100
AcDbEntity
  8
0
  6
Continuous
 62
     7
370
    25
100
AcDbPolyline
 90
       29
 70
   128
 43
0.0
 10
-24.0378354143
 20
-62.8993992933
 10
-22.7133911924
 20
-62.4179810562
 10
-21.6087809171
 20
-62.016784632
 10
-20.7793943601
 20
-61.7159276848
 10
-20.2668204266
 20
-61.5304964381
 10
-20.0967617138
 20
-61.469789189
 10
-20.2777456759
 20
-61.53685005239999
 10
-20.8006970211
 20
-61.7283163166
 10
-21.6393927854
 20
-62.0345870636
 10
-22.7517772611
 20
-62.44030459939999
 10
-24.0820708457
 20
-62.9251245524
 10
-25.5635670639
 20
-63.4647360259
 10
-27.1219775093
 20
-64.03208064729999
 10
-28.6791569747
 20
-64.59870938829999
 10
-30.1570219796
 20
-65.13620911779999
 10
-31.4814662015
 20
-65.617627355
 10
-32.5860764767
 20
-66.0188237791
 10
-33.4154630337
 20
-66.31968072630001
 10
-33.92803696730001
 20
-66.505111973
 10
-34.09809568
 20
-66.5658192221
 10
-33.917111718
 20
-66.4987583587
 10
-33.3941603727
 20
-66.3072920945
 10
-32.5554646084
 20
-66.0010213475
 10
-31.4430801327
 20
-65.5953038118
 10
-30.1127865482
 20
-65.11048385869999
 10
-28.6312903299
 20
-64.57087238529999
 10
-27.0728798845
 20
-64.0035277638
 10
-25.5157004191
 20
-63.4368990228
 10
-24.0378354143
 20
-62.8993992933
  0
LINE
  5
94
330
1F
100
AcDbEntity
  8
0
  6
Continuous
 62
     7
370
    25
100
AcDbLine
 10
-217.3104678035
 20
-31.3201109359
 30
0.0
 11
-217.3104678035
 21
-53.51890233209999
 31
0.0
  0
LINE
  5
95
330
1F
100
AcDbEntity
  8
0
  6
Continuous
 62
     7
370
    25
100
AcDbLine
 10
-206.4498524413
 20
-55.18854530649999
 30
0.0
 11
-206.4392417622
 21
-55.1873281971
 31
0.0
  0
SPLINE
  5
96
330
1F
100
AcDbEntity
  8
0
  6
Continuous
 62
     7
370
    25
100
AcDbSpline
210
0.0
220
0.0
230
1.0
 70
     8
 71
     3
 72
    17
 73
    13
 74
     0
 42
0.00000001
 43
0.0000000001
 40
0.0
 40
0.0
 40
0.0
 40
0.0
 40
0.037522427818073
 40
0.1477079728918278
 40
0.2582076198806008
 40
0.3695224330243294
 40
0.4808952608893409
 40
0.5914596825050592
 40
0.701615540577551
 40
0.8123944632350653
 40
0.9238589765600394
 40
1.0
 40
1.0
 40
1.0
 40
1.0
 10
-203.1813789642543
 20
-55.1873703975691
 30
0.0
 10
-203.1752673219135
 20
-55.18811121396471
 30
0.0
 10
-203.1512086894184
 20
-55.19102745618159
 30
0.0
 10
-203.2995389429219
 20
-55.17146155320363
 30
0.0
 10
-203.6110885496122
 20
-55.13661837252404
 30
0.0
 10
-204.0709174393357
 20
-55.09957675231192
 30
0.0
 10
-204.6117822429138
 20
-55.07860905109679
 30
0.0
 10
-205.1740496703568
 20
-55.08246737779638
 30
0.0
 10
-205.6944620614078
 20
-55.1094113858322
 30
0.0
 10
-206.1143735081158
 20
-55.14732533928435
 30
0.0
 10
-206.3702259279438
 20
-55.17796473249005
 30
0.0
 10
-206.4268650543769
 20
-55.18549079941966
 30
0.0
 10
-206.4498524412511
 20
-55.1885453064901
 30
0.0
  0
SPLINE
  5
97
330
1F
100
AcDbEntity
  8
0
  6
Continuous
 62
     7
370
    25
100
AcDbSpline
210
0.0
220
0.0
230
1.0
 70
     8
 71
     3
 72
    21
 73
    17
 74
     0
 42
0.00000001
 43
0.0000000001
 40
0.0
 40
0.0
 40
0.0
 40
0.0
 40
0.0741955789116139
 40
0.147875534629631
 40
0.204872783812148
 40
0.2634378085889089
 40
0.343195328731713
 40
0.4252619156680579
 40
0.5047942422156951
 40
0.5704458226560786
 40
0.6363174695091374
 40
0.7196350313959867
 40
0.8056110572161742
 40
0.8569152201659699
 40
0.9098686755763798
 40
1.0
 40
1.0
 40
1.0
 40
1.0
 10
-19.50906341290337
 20
-55.1900540812766
 30
0.0
 10
-19.59889282295912
 20
-55.13622442435284
 30
0.0
 10
-19.77792737235298
 20
-55.02893920044478
 30
0.0
 10
-20.9301843060401
 20
-54.35747166206967
 30
0.0
 10
-22.27074478724969
 20
-53.60531312632133
 30
0.0
 10
-23.88522681724204
 20
-52.7405147914805
 30
0.0
 10
-25.92197988367986
 20
-51.73798539278602
 30
0.0
 10
-28.37879859466808
 20
-50.73889251808017
 30
0.0
 10
-30.91559063003271
 20
-50.09315744362679
 30
0.0
 10
-33.41172560332373
 20
-50.09343082619882
 30
0.0
 10
-35.77583552894542
 20
-50.84181948541994
 30
0.0
 10
-37.84804571995409
 20
-52.17109055599067
 30
0.0
 10
-39.30802980828003
 20
-53.42326175539757
 30
0.0
 10
-40.22800169171825
 20
-54.29429496061249
 30
0.0
 10
-40.93348472707134
 20
-55.00122933882007
 30
0.0
 10
-41.02264075259732
 20
-55.09634578810389
 30
0.0
 10
-41.07880151735738
 20
-55.15626111633354
 30
0.0
  0
LINE
  5
98
330
1F
100
AcDbEntity
  8
0
  6
Continuous
 62
     7
370
    25
100
AcDbLine
 10
-17.3104921938
 20
-29.7900573455
 30
0.0
 11
-17.3104921938
 21
-55.1900573455
 31
0.0
  0
LINE
  5
99
330
1F
100
AcDbEntity
  8
0
  6
Continuous
 62
     7
370
    25
100
AcDbLine
 10
-216.3104678035
 20
-92.1900573455
 30
0.0
 11
-260.8104678035
 21
-92.1900573455
 31
0.0
  0
LINE
  5
9A
330
1F
100
AcDbEntity
  8
DIMENSION
100
AcDbLine
 10
-260.8104678035
 20
26.6099426545
 30
0.0
 11
-216.3104678035
 21
26.6099426545
 31
0.0
  0
SPLINE
  5
9B
330
1F
100
AcDbEntity
  8
0
  6
Continuous
 62
     7
370
    25
100
AcDbSpline
210
0.0
220
0.0
230
1.0
 70
     8
 71
     3
 72
    16
 73
    12
 74
     0
 42
0.00000001
 43
0.0000000001
 40
0.0
 40
0.0
 40
0.0
 40
0.0
 40
0.094739495255679
 40
0.1926709390809703
 40
0.3836311420557013
 40
0.4892306330392835
 40
0.5974157575804222
 40
0.7114083553258889
 40
0.829419703207874
 40
0.9320973964165983
 40
1.0
 40
1.0
 40
1.0
 40
1.0
 10
-220.3951088082435
 20
-42.28938988978852
 30
0.0
 10
-220.3676317764323
 20
-41.64352146426248
 30
0.0
 10
-220.311751960861
 20
-40.33002411309954
 30
0.0
 10
-219.8673622622723
 20
-37.8159026758126
 30
0.0
 10
-219.1284976182981
 20
-35.46914450073635
 30
0.0
 10
-218.2836916761784
 20
-33.44644804227054
 30
0.0
 10
-217.6169393012362
 20
-32.04434854192828
 30
0.0
 10
-217.0059308623315
 20
-30.87564742577081
 30
0.0
 10
-216.5665605112605
 20
-30.08552157566391
 30
0.0
 10
-216.3304828677151
 20
-29.67462077006228
 30
0.0
 10
-216.3337522719133
 20
-29.68039324453276
 30
0.0
 10
-216.3350537179854
 20
-29.68269108345695
 30
0.0
  0
SPLINE
  5
9C
330
1F
100
AcDbEntity
  8
0
  6
Continuous
 62
     7
370
    25
100
AcDbSpline
210
0.0
220
0.0
230
1.0
 70
     8
 71
     3
 72
    14
 73
    10
 74
     0
 42
0.00000001
 43
0.0000000001
 40
0.0
 40
0.0
 40
0.0
 40
0.0
 40
0.0262831795329254
 40
0.209087644211076
 40
0.3936563823843929
 40
0.5995352667042035
 40
0.7114614492403307
 40
0.8271486658721277
 40
1.0
 40
1.0
 40
1.0
 40
1.0
 10
-216.3307200220146
 20
-55.30491485791706
 30
0.0
 10
-216.3249033854262
 20
-55.31499756618346
 30
0.0
 10
-216.2786309456716
 20
-55.39520740974718
 30
0.0
 10
-216.658502381104
 20
-54.74221878767682
 30
0.0
 10
-217.625234827624
 20
-52.95710578465701
 30
0.0
 10
-218.7411177197965
 20
-50.55115209592504
 30
0.0
 10
-219.590181020587
 20
-48.06237642119043
 30
0.0
 10
-220.2418429181576
 20
-45.51015201587527
 30
0.0
 10
-220.3376905282912
 20
-43.49598987959607
 30
0.0
 10
-220.3951088082435
 20
-42.28938988978852
 30
0.0
  0
LINE
  5
9D
330
1F
100
AcDbEntity
  8
0
  6
Continuous
 62
     7
370
    25
100
AcDbLine
 10
-190.5673283958
 20
-794.3900573455001
 30
0.0
 11
-189.5604678035
 21
-794.3900573455001
 31
0.0
  0
LINE
  5
9E
330
1F
100
AcDbEntity
  8
0
  6
Continuous
 62
     7
370
    25
100
AcDbLine
 10
-287.5604678035
 20
-794.3900573455001
 30
0.0
 11
-190.5673283958
 21
-794.3900573455001
 31
0.0
  0
LINE
  5
9F
330
1F
100
AcDbEntity
  8
0
  6
Continuous
 62
     7
370
    25
100
AcDbLine
 10
-191.0570543081
 20
-769.3900573455001
 30
0.0
 11
-190.0604678035
 21
-769.3900573455001
 31
0.0
  0
LINE
  5
A0
330
1F
100
AcDbEntity
  8
0
  6
Continuous
 62
     7
370
    25
100
AcDbLine
 10
-287.0604678035
 20
-769.3900573455001
 30
0.0
 11
-191.0570543081
 21
-769.3900573455001
 31
0.0
  0
LINE
  5
A1
330
1F
100
AcDbEntity
  8
0
  6
Continuous
 62
     7
370
    25
100
AcDbLine
 10
-217.1884427261
 20
-92.3900573455
 30
0.0
 11
-260.8104678035
 21
-92.3900573455
 31
0.0
  0
LINE
  5
A2
330
1F
100
AcDbEntity
  8
0
  6
Continuous
 62
     7
370
    25
100
AcDbLine
 10
-216.3104678035
 20
-92.3900573455
 30
0.0
 11
-217.1884427261
 21
-92.3900573455
 31
0.0
  0
LINE
  5
A3
330
1F
100
AcDbEntity
  8
DIMENSION
100
AcDbLine
 10
-261.0604678035
 20
38.7099426545
 30
0.0
 11
-237.6146662213
 21
29.7099426545
 31
0.0
  0
LINE
  5
A4
330
1F
100
AcDbEntity
  8
DIMENSION
100
AcDbLine
 10
-237.6146662213
 20
29.7099426545
 30
0.0
 11
-216.0604678035
 21
29.7099426545
 31
0.0
  0
SPLINE
  5
A5
330
1F
100
AcDbEntity
  8
DIMENSION
100
AcDbSpline
210
0.0
220
0.0
230
1.0
 70
     8
 71
     3
 72
    18
 73
    14
 74
     0
 42
0.00000001
 43
0.0000000001
 40
0.0
 40
0.0
 40
0.0
 40
0.0
 40
0.0344733058524001
 40
0.1399939259010346
 40
0.2460943948043623
 40
0.3537277743391574
 40
0.4615084424376131
 40
0.5677510124970638
 40
0.6731871458309893
 40
0.7797855234601393
 40
0.8877125334025748
 40
0.9950801133475176
 40
1.0
 40
1.0
 40
1.0
 40
1.0
 10
-216.0695815859135
 20
42.26043281288379
 30
0.0
 10
-216.0670188705097
 20
42.24621781118449
 30
0.0
 10
-216.0566118445085
 20
42.18849158373489
 30
0.0
 10
-216.1229937267619
 20
42.55303381604375
 30
0.0
 10
-216.2423980067891
 20
43.31824118361754
 30
0.0
 10
-216.3715615683533
 20
44.45489749257247
 30
0.0
 10
-216.4459256317484
 20
45.79673171085302
 30
0.0
 10
-216.4334448812119
 20
47.1915428928214
 30
0.0
 10
-216.3420091076221
 20
48.47564533017884
 30
0.0
 10
-216.2081949229588
 20
49.53892016518729
 30
0.0
 10
-216.0998827583185
 20
50.19716478679214
 30
0.0
 10
-216.0481945864252
 20
50.47891445654435
 30
0.0
 10
-216.0616580305498
 20
50.40325709876154
 30
0.0
 10
-216.0622479327094
 20
50.39994216401415
 30
0.0
  0
LINE
  5
A6
330
1F
100
AcDbEntity
  8
DIMENSION
100
AcDbLine
 10
-260.8604677992
 20
56.7099426545
 30
0.0
 11
-216.2604678035
 21
56.7099426545
 31
0.0
  0
LINE
  5
A7
330
1F
100
AcDbEntity
  8
DIMENSION
100
AcDbLine
 10
-177.0604678035
 20
42.30994265449999
 30
0.0
 11
-177.0604678035
 21
50.3099426545
 31
0.0
  0
LINE
  5
A8
330
1F
100
AcDbEntity
  8
0
  6
Continuous
 62
     8
370
    25
100
AcDbLine
 10
-190.5673283958
 20
-769.8900573455
 30
0.0
 11
-287.5604678035
 21
-769.8900573455
 31
0.0
  0
LINE
  5
A9
330
1F
100
AcDbEntity
  8
0
  6
Continuous
 62
     8
370
    25
100
AcDbLine
 10
-189.5604678035
 20
-769.8900573455
 30
0.0
 11
-190.5673283958
 21
-769.8900573455
 31
0.0
  0
LINE
  5
AA
330
1F
100
AcDbEntity
  8
DIMENSION
100
AcDbLine
 10
-216.0604678035
 20
56.5099426545
 30
0.0
 11
-261.0604678035
 21
56.5099426545
 31
0.0
  0
LINE
  5
AB
330
1F
100
AcDbEntity
  8
0
  6
CENTERX2
 62
     7
370
    18
100
AcDbLine
 10
-35.9775202139
 20
-67.2498985908
 30
0.0
 11
-27.0996062637
 21
-64.01182139159999
 31
0.0
  0
LINE
  5
AC
330
1F
100
AcDbEntity
  8
0
  6
CENTERX2
 62
     7
370
    18
100
AcDbLine
 10
-27.0996062637
 20
-64.01182139159999
 30
0.0
 11
-18.2173342458
 21
-60.785717882
 31
0.0
  0
POINT
  5
AD
330
1F
100
AcDbEntity
  8
0
  6
Continuous
 62
     7
370
     0
100
AcDbPoint
 10
-238.5604678035
 20
-794.3900573455001
 30
0.0
  0
DIMENSION
  5
AE
102
{ACAD_XDICTIONARY
360
240
102
}
330
1F
100
AcDbEntity
  8
DIMENSION
100
AcDbDimension
280
     0
  2
*D18
 10
-27.09960626370005
 20
-819.099781317324
 30
0.0
 11
-137.8694099055
 21
-819.099781317324
 31
0.0
 70
   160
  1
<>
 71
     2
 42
211.4608615398
 73
     0
 74
     0
 75
     0
  3
RG Dimension Lines
100
AcDbAlignedDimension
 13
-238.5604678035
 23
-794.3900573455001
 33
0.0
 14
-27.0996062637
 24
-64.01182139159999
 34
0.0
100
AcDbRotatedDimension
1001
AcadAnnotative
1000
AnnotativeData
1002
{
1070
     1
1070
     1
1002
}
1001
ACAD
1000
DSTYLE
1002
{
1070
    45
1040
2.0
1002
}
  0
DIMENSION
  5
BB
102
{ACAD_XDICTIONARY
360
232
102
}
330
1F
100
AcDbEntity
  8
DIMENSION
100
AcDbDimension
280
     0
  2
*D17
 10
4.179651319654316
 20
-794.3900573455005
 30
0.0
 11
4.179651319654112
 21
-419.5860727876999
 31
0.0
 70
   160
  1
<>
 71
     2
 42
730.3782359539002
 73
     0
 74
     0
 75
     0
  3
RG Dimension Lines
100
AcDbAlignedDimension
 13
-27.0996062637
 23
-64.01182139159999
 33
0.0
 14
-189.5604678035
 24
-794.3900573455001
 34
0.0
 50
90.0
100
AcDbRotatedDimension
1001
AcadAnnotative
1000
AnnotativeData
1002
{
1070
     1
1070
     1
1002
}
  0
DIMENSION
  5
C3
102
{ACAD_XDICTIONARY
360
224
102
}
330
1F
100
AcDbEntity
  8
DIMENSION
100
AcDbDimension
280
     0
  2
*D16
 10
-290.2145652271646
 20
-794.3900573455005
 30
0.0
 11
-290.2145652271647
 21
-318.3796346773
 31
0.0
 70
   160
  1
<>
 71
     2
 42
851.1000000000002
 73
     0
 74
     0
 75
     0
  3
RG Dimension Lines
100
AcDbAlignedDimension
 13
-260.8604678035
 23
56.7099426545
 33
0.0
 14
-287.5604678035
 24
-794.3900573455001
 34
0.0
 50
90.0
100
AcDbRotatedDimension
1001
AcadAnnotative
1000
AnnotativeData
1002
{
1070
     1
1070
     1
1002
}
1001
ACAD
1000
DSTYLE
1002
{
1070
    45
1040
5.0
1002
}
  0
DIMENSION
  5
CB
102
{ACAD_XDICTIONARY
360
216
102
}
330
1F
100
AcDbEntity
  8
DIMENSION
100
AcDbDimension
280
     0
  2
*D15
 10
-177.0604678035
 20
90.70994265450002
 30
0.0
 11
-219.9622025049
 21
90.70994265450002
 31
0.0
 70
   160
  1
<>
 71
     2
 42
84.0
 73
     0
 74
     0
 75
     0
  3
RG Dimension Lines
100
AcDbAlignedDimension
 13
-261.0604678035
 23
56.5099426545
 33
0.0
 14
-177.0604678035
 24
50.3099426545
 34
0.0
100
AcDbRotatedDimension
1001
AcadAnnotative
1000
AnnotativeData
1002
{
1070
     1
1070
     1
1002
}
1001
ACAD
1000
DSTYLE
1002
{
1070
    45
1040
5.0
1002
}
  0
LINE
  5
D3
330
1F
100
AcDbEntity
  8
DIMENSION
100
AcDbLine
 10
284.1496121334
 20
-64.77994039550001
 30
0.0
 11
284.6150250633
 21
-65.1878779228
 31
0.0
  0
LINE
  5
D4
330
1F
100
AcDbEntity
  8
DIMENSION
100
AcDbLine
 10
302.2186805011
 20
-65.2004992505
 30
0.0
 11
302.6846779117
 21
-64.79322951829999
 31
0.0
  0
LINE
  5
D5
330
1F
100
AcDbEntity
  8
DIMENSION
100
AcDbLine
 10
283.4774750498
 20
-50.37516447479999
 30
0.0
 11
283.4680356408
 21
-63.54082414659999
 31
0.0
  0
LINE
  5
D6
330
1F
100
AcDbEntity
  8
DIMENSION
100
AcDbLine
 10
303.368030526
 20
-63.5550918853
 30
0.0
 11
303.377469935
 21
-50.3894322135
 31
0.0
  0
LINE
  5
D7
330
1F
100
AcDbEntity
  8
DIMENSION
100
AcDbLine
 10
315.6831310081
 20
-92.1900573455
 30
0.0
 11
315.6831310081
 21
26.6099426545
 31
0.0
  0
LINE
  5
D8
330
1F
100
AcDbEntity
  8
DIMENSION
100
AcDbLine
 10
271.1831310081
 20
26.6099426545
 30
0.0
 11
271.1831310081
 21
-92.1900573455
 31
0.0
  0
LINE
  5
D9
330
1F
100
AcDbEntity
  8
DIMENSION
100
AcDbLine
 10
273.3162019897
 20
-92.1900573455
 30
0.0
 11
273.3162019897
 21
-92.3900573455
 31
0.0
  0
LINE
  5
DA
330
1F
100
AcDbEntity
  8
DIMENSION
100
AcDbLine
 10
313.5500600265
 20
-92.3900573455
 30
0.0
 11
313.5500600265
 21
-92.1900573455
 31
0.0
  0
ARC
  5
DB
330
1F
100
AcDbEntity
  8
0
  6
Continuous
 62
     7
370
    25
100
AcDbCircle
 10
244.9331310081
 20
-769.8900573455
 30
0.0
 40
0.5
100
AcDbArc
 50
90.0
 51
180.0
  0
ARC
  5
DC
330
1F
100
AcDbEntity
  8
0
  6
Continuous
 62
     7
370
    25
100
AcDbCircle
 10
341.9331310081
 20
-769.8900573455
 30
0.0
 40
0.5
100
AcDbArc
 50
0.0
 51
90.0
  0
LINE
  5
DD
330
1F
100
AcDbEntity
  8
DIMENSION
100
AcDbLine
 10
342.4331310081
 20
-794.3900573455001
 30
0.0
 11
342.4331310081
 21
-769.8900573455
 31
0.0
  0
LINE
  5
DE
330
1F
100
AcDbEntity
  8
0
  6
Continuous
 62
     7
370
    25
100
AcDbLine
 10
244.4331310081
 20
-769.8900573455
 30
0.0
 11
244.4331310081
 21
-794.3900573455001
 31
0.0
  0
LINE
  5
DF
330
1F
100
AcDbEntity
  8
DIMENSION
100
AcDbLine
 10
315.6831310081
 20
-769.3900573455001
 30
0.0
 11
315.6831310081
 21
-92.3900573455
 31
0.0
  0
LINE
  5
E0
330
1F
100
AcDbEntity
  8
DIMENSION
100
AcDbLine
 10
271.1831310081
 20
-92.3900573455
 30
0.0
 11
271.1831310081
 21
-769.3900573455001
 31
0.0
  0
ARC
  5
E1
330
1F
100
AcDbEntity
  8
DIMENSION
100
AcDbCircle
 10
271.2231310081
 20
56.5099426545
 30
0.0
 40
0.1999999999999886
100
AcDbArc
 50
90.0
 51
180.0
  0
ARC
  5
E2
330
1F
100
AcDbEntity
  8
DIMENSION
100
AcDbCircle
 10
315.8231310081
 20
56.5099426545
 30
0.0
 40
0.1999999999999886
100
AcDbArc
 50
0.0
 51
90.0
  0
LINE
  5
E3
330
1F
100
AcDbEntity
  8
DIMENSION
100
AcDbLine
 10
316.0231310081
 20
30.0730018662
 30
0.0
 11
316.0231310081
 21
56.5099426545
 31
0.0
  0
LINE
  5
E4
330
1F
100
AcDbEntity
  8
DIMENSION
100
AcDbLine
 10
271.0231310081
 20
56.5099426545
 30
0.0
 11
271.0231310081
 21
30.0730018662
 31
0.0
  0
ARC
  5
E5
330
1F
100
AcDbEntity
  8
DIMENSION
100
AcDbCircle
 10
293.9509930918
 20
25.2608602359
 30
0.0
 40
20.0
100
AcDbArc
 50
3.867773329499999
 51
12.8532163368
  0
ARC
  5
E6
330
1F
100
AcDbEntity
  8
DIMENSION
100
AcDbCircle
 10
292.9152689244
 20
25.2608602359
 30
0.0
 40
20.00000000000005
100
AcDbArc
 50
167.1467836632
 51
176.1322266705
  0
LWPOLYLINE
  5
E7
330
1F
100
AcDbEntity
  8
DIMENSION
100
AcDbPolyline
 90
       18
 70
   128
 43
0.0
 10
284.4696551811
 20
-62.05424944189999
 10
285.4547480612
 20
-61.5025554671
 10
286.7276548100999
 20
-61.0247876697
 10
288.2423692614
 20
-60.6382138227
 10
289.9441456883
 20
-60.3568057121
 10
291.7714774568
 20
-60.1907341602
 10
293.6583200357
 20
-60.1460014256
 10
295.536478018
 20
-60.2242242659
 10
297.3380698809
 20
-60.42257550390001
 10
298.9979814004
 20
-60.7338862089
 10
300.4562190493
 20
-61.14690480100001
 10
301.6600783195
 20
-61.6467037122
 10
302.5660486005
 20
-62.2152189076
 10
303.1413857657
 20
-62.8319027668
 10
303.3652956311
 20
-63.4744667284
 10
303.2296855107
 20
-64.11968685649999
 10
302.7394567075
 20
-64.74424321479999
 10
302.6846779117
 20
-64.79322951829999
  0
LWPOLYLINE
  5
E8
330
1F
100
AcDbEntity
  8
DIMENSION
100
AcDbPolyline
 90
        6
 70
   128
 43
0.0
 10
284.1496121334
 20
-64.77994039550001
 10
283.939429131
 20
-64.5770148436
 10
283.5379878585
 20
-63.9445269792
 10
283.4936371627
 20
-63.29770607930001
 10
283.8079799932
 20
-62.6599299363
 10
284.4696551811
 20
-62.05424944189999
  0
LWPOLYLINE
  5
E9
330
1F
100
AcDbEntity
  8
DIMENSION
100
AcDbPolyline
 90
       33
 70
   128
 43
0.0
 10
284.9189855458
 20
-62.5991563639
 10
285.888421582
 20
-62.05985045430001
 10
287.1472034199
 20
-61.5957876094
 10
288.6469567794
 20
-61.2248015039
 10
290.3300469801
 20
-60.96114892600001
 10
292.1317938094
 20
-60.8149618963
 10
293.982957147
 20
-60.7918583003
 10
295.8123978241
 20
-60.89272599640001
 10
297.5498114614
 20
-61.1136886954
 10
299.1284302272
 20
-61.4462549249
 10
300.4875886875
 20
-61.8776443511
 10
301.5750551451
 20
-62.39127892029999
 10
302.3490388737
 20
-62.967419944
 10
302.7797961128
 20
-63.5839266458
 10
302.8507731032
 20
-64.217107019
 10
302.559242239
 20
-64.8426282967
 10
301.9164068878
 20
-65.43645204729999
 10
300.9469708517
 20
-65.9757579568
 10
299.6881890138
 20
-66.43982080179999
 10
298.1884356542
 20
-66.8108069072
 10
296.5053454535
 20
-67.07445948510001
 10
294.7035986242
 20
-67.2206465149
 10
292.8524352866
 20
-67.24375011079999
 10
291.0229946095
 20
-67.1428824148
 10
289.2855809722
 20
-66.9219197157
 10
287.7069622064
 20
-66.5893534862
 10
286.3478037461
 20
-66.15796406
 10
285.2603372885
 20
-65.64432949090001
 10
284.4863535599
 20
-65.0681884671
 10
284.0555963208
 20
-64.4516817653
 10
283.9846193304
 20
-63.8185013922
 10
284.2761501946
 20
-63.19298011439999
 10
284.9189855458
 20
-62.5991563639
  0
LWPOLYLINE
  5
EA
330
1F
100
AcDbEntity
  8
DIMENSION
100
AcDbPolyline
 90
       29
 70
   128
 43
0.0
 10
286.7176544709
 20
-62.8993992933
 10
287.6105212539
 20
-62.4179810562
 10
288.7945840383
 20
-62.016784632
 10
290.2104689717
 20
-61.7159276848
 10
291.7871776714
 20
-61.5304964381
 10
293.4456473794
 20
-61.469789189
 10
295.1027154994
 20
-61.53685005239999
 10
296.6752897165
 20
-61.7283163166
 10
298.0845145931001
 20
-62.0345870636
 10
299.2597257093
 20
-62.44030459939999
 10
300.1419930726
 20
-62.9251245524
 10
300.6870761133
 20
-63.4647360259
 10
300.8676420917
 20
-64.03208064729999
 10
300.6746366757
 20
-64.59870938829999
 10
300.1177379627
 20
-65.13620911779999
 10
299.2248711797
 20
-65.617627355
 10
298.0408083954
 20
-66.0188237791
 10
296.624923462
 20
-66.31968072630001
 10
295.0482147623
 20
-66.505111973
 10
293.3897450543
 20
-66.5658192221
 10
291.7326769341999
 20
-66.4987583587
 10
290.1601027171
 20
-66.3072920945
 10
288.7508778405
 20
-66.0010213475
 10
287.5756667243
 20
-65.5953038118
 10
286.693399361
 20
-65.11048385869999
 10
286.1483163203
 20
-64.57087238529999
 10
285.9677503419
 20
-64.0035277638
 10
286.1607557579
 20
-63.4368990228
 10
286.7176544709
 20
-62.8993992933
  0
LWPOLYLINE
  5
EB
330
1F
100
AcDbEntity
  8
DIMENSION
100
AcDbPolyline
 90
       19
 70
   128
 43
0.0
 10
300.2595010189
 20
-63.0137742016
 10
300.4920597218
 20
-63.2916450179
 10
300.6677782914
 20
-63.8437589113
 10
300.4799542288
 20
-64.3951761424
 10
299.9380058168
 20
-64.918246349
 10
299.0691086119
 20
-65.3867406066
 10
297.9168327479
 20
-65.77716665699999
 10
296.5389581483
 20
-66.0699469077
 10
295.0045771989
 20
-66.25040013430001
 10
293.3906301677
 20
-66.3094776586
 10
291.7780470978
 20
-66.2442170868
 10
290.2476896382
 20
-66.05789085649999
 10
288.876296302
 20
-65.759842143
 10
287.7326344775
 20
-65.36501635319999
 10
286.8740521441
 20
-64.8932117009
 10
286.3436022051
 20
-64.3680864415
 10
286.1678836355
 20
-63.81597254819999
 10
286.3557076981
 20
-63.26455531699999
 10
286.5773381708
 20
-63.0039644742
  0
ARC
  5
EC
330
1F
100
AcDbEntity
  8
DIMENSION
100
AcDbCircle
 10
293.4343138095
 20
-40.84033956579999
 30
0.0
 40
20.77125471713774
100
AcDbArc
 50
265.1811169389
 51
274.7367241384
  0
CIRCLE
  5
ED
330
1F
100
AcDbEntity
  8
DIMENSION
100
AcDbCircle
 10
293.4331310081
 20
-42.49005734549999
 30
0.0
 40
12.70000000000001
  0
LINE
  5
EE
330
1F
100
AcDbEntity
  8
DIMENSION
100
AcDbLine
 10
315.6831310081
 20
-92.1900573455
 30
0.0
 11
271.1831310081
 21
-92.1900573455
 31
0.0
  0
LINE
  5
EF
330
1F
100
AcDbEntity
  8
DIMENSION
100
AcDbLine
 10
293.4331310081
 20
26.6099426545
 30
0.0
 11
315.6831310081
 21
26.6099426545
 31
0.0
  0
LINE
  5
F0
330
1F
100
AcDbEntity
  8
DIMENSION
100
AcDbLine
 10
271.1831310081
 20
26.6099426545
 30
0.0
 11
293.4331310081
 21
26.6099426545
 31
0.0
  0
SPLINE
  5
F1
330
1F
100
AcDbEntity
  8
DIMENSION
100
AcDbSpline
210
0.0
220
0.0
230
1.0
 70
     8
 71
     3
 72
    25
 73
    21
 74
     0
 42
0.00000001
 43
0.0000000001
 40
0.0
 40
0.0
 40
0.0
 40
0.0
 40
0.0394631945871007
 40
0.0789539061192809
 40
0.1572143382712697
 40
0.2010231004622924
 40
0.2448271359647886
 40
0.2923856816623416
 40
0.3399014650528824
 40
0.3827539465422862
 40
0.4255938491138355
 40
0.501578578812104
 40
0.5789345861101013
 40
0.6654789712879865
 40
0.7130654401182498
 40
0.7605940309941258
 40
0.8326889353756195
 40
0.9047981845001549
 40
0.9787822857915605
 40
1.0
 40
1.0
 40
1.0
 40
1.0
 10
280.5846979295936
 20
-42.28938988978852
 30
0.0
 10
280.6251112211594
 20
-41.63306340327793
 30
0.0
 10
280.705965983721
 20
-40.31995278611328
 30
0.0
 10
281.3530180986092
 20
-37.80622295052799
 30
0.0
 10
282.5393894354476
 20
-35.46112083589515
 30
0.0
 10
284.2323997120385
 20
-33.44116162269844
 30
0.0
 10
285.861118272013
 20
-32.02964756998028
 30
0.0
 10
287.7833323187053
 20
-30.87501073771631
 30
0.0
 10
289.8984868314968
 20
-30.06632668015641
 30
0.0
 10
292.0764276207917
 20
-29.65569068851942
 30
0.0
 10
294.7789298583554
 20
-29.58981033737029
 30
0.0
 10
298.0105907392792
 20
-30.28374765639868
 30
0.0
 10
301.4345730580906
 20
-32.17999241837338
 30
0.0
 10
303.7798785034932
 20
-34.6388809735923
 30
0.0
 10
305.208092427231
 20
-37.18145394690081
 30
0.0
 10
306.1073644830703
 20
-39.75901883425859
 30
0.0
 10
306.4570333424084
 20
-42.99891762303803
 30
0.0
 10
305.7463532126774
 20
-46.55947923779397
 30
0.0
 10
304.689092966488
 20
-49.12482556318392
 30
0.0
 10
303.6164910437552
 20
-50.193908509842
 30
0.0
 10
303.377439288949
 20
-50.43217598728672
 30
0.0
  0
SPLINE
  5
F2
330
1F
100
AcDbEntity
  8
DIMENSION
100
AcDbSpline
210
0.0
220
0.0
230
1.0
 70
     8
 71
     3
 72
    11
 73
     7
 74
     0
 42
0.00000001
 43
0.0000000001
 40
0.0
 40
0.0
 40
0.0
 40
0.0
 40
0.0803936787767963
 40
0.3418768812883147
 40
0.603062186815323
 40
1.0
 40
1.0
 40
1.0
 40
1.0
 10
283.4774085808747
 20
-50.46787234629413
 30
0.0
 10
283.3091472332416
 20
-50.30747398356389
 30
0.0
 10
282.5936100710487
 20
-49.62537443483932
 30
0.0
 10
281.8080801688142
 20
-48.02478518396526
 30
0.0
 10
280.7811119199062
 20
-45.50690202064139
 30
0.0
 10
280.6585933203114
 20
-43.49989081016702
 30
0.0
 10
280.5846979295936
 20
-42.28938988978852
 30
0.0
  0
LINE
  5
F3
330
1F
100
AcDbEntity
  8
0
  6
Continuous
 62
     7
370
    25
100
AcDbLine
 10
283.6517350809
 20
-769.3900573455001
 30
0.0
 11
341.9331310081
 21
-769.3900573455001
 31
0.0
  0
LINE
  5
F4
330
1F
100
AcDbEntity
  8
0
  6
Continuous
 62
     7
370
    25
100
AcDbLine
 10
244.9331310081
 20
-769.3900573455001
 30
0.0
 11
283.6517350809
 21
-769.3900573455001
 31
0.0
  0
LINE
  5
F5
330
1F
100
AcDbEntity
  8
DIMENSION
100
AcDbLine
 10
283.5508959476
 20
-794.3900573455001
 30
0.0
 11
342.4331310081
 21
-794.3900573455001
 31
0.0
  0
LINE
  5
F6
330
1F
100
AcDbEntity
  8
DIMENSION
100
AcDbLine
 10
244.4331310081
 20
-794.3900573455001
 30
0.0
 11
283.5508959476
 21
-794.3900573455001
 31
0.0
  0
LINE
  5
F7
330
1F
100
AcDbEntity
  8
DIMENSION
100
AcDbLine
 10
287.2445088601
 20
-92.3900573455
 30
0.0
 11
271.1831310081
 21
-92.3900573455
 31
0.0
  0
LINE
  5
F8
330
1F
100
AcDbEntity
  8
DIMENSION
100
AcDbLine
 10
315.6831310081
 20
-92.3900573455
 30
0.0
 11
287.2445088601
 21
-92.3900573455
 31
0.0
  0
LINE
  5
F9
330
1F
100
AcDbEntity
  8
DIMENSION
100
AcDbLine
 10
293.5231310081
 20
56.7099426545
 30
0.0
 11
315.8231310081
 21
56.7099426545
 31
0.0
  0
LINE
  5
FA
330
1F
100
AcDbEntity
  8
DIMENSION
100
AcDbLine
 10
271.2231310081
 20
56.7099426545
 30
0.0
 11
293.5231310081
 21
56.7099426545
 31
0.0
  0
ELLIPSE
  5
FB
330
1F
100
AcDbEntity
  8
DIMENSION
100
AcDbEllipse
 10
293.5231310081
 20
30.0730018662
 30
0.0
 11
22.5
 21
0.0
 31
0.0
210
0.0
220
0.0
230
1.0
 40
0.383864035
 41
6.241137291999571
 42
6.283185307179585
  0
ELLIPSE
  5
FC
330
1F
100
AcDbEntity
  8
DIMENSION
100
AcDbEllipse
 10
293.5231310081
 20
30.0730018662
 30
0.0
 11
22.5
 21
0.0
 31
0.0
210
0.0
220
0.0
230
1.0
 40
0.383864035
 41
3.141592653589792
 42
3.183640668769884
  0
LINE
  5
FD
330
1F
100
AcDbEntity
  8
DIMENSION
100
AcDbLine
 10
271.043018478
 20
29.7099426545
 30
0.0
 11
316.0032435382
 21
29.7099426545
 31
0.0
  0
SPLINE
  5
FE
330
1F
100
AcDbEntity
  8
DIMENSION
100
AcDbSpline
210
0.0
220
0.0
230
1.0
 70
    11
 71
     3
 72
    70
 73
    66
 74
     0
 42
0.00000001
 43
0.0000000001
 40
0.0
 40
0.0
 40
0.0
 40
0.0
 40
0.03125
 40
0.03125
 40
0.0625
 40
0.0625
 40
0.09375
 40
0.09375
 40
0.125
 40
0.125
 40
0.15625
 40
0.15625
 40
0.1875
 40
0.1875
 40
0.21875
 40
0.21875
 40
0.25
 40
0.25
 40
0.2812500000000001
 40
0.2812500000000001
 40
0.3125000000000001
 40
0.3125000000000001
 40
0.3437500000000001
 40
0.3437500000000001
 40
0.3750000000000001
 40
0.3750000000000001
 40
0.4062500000000002
 40
0.4062500000000002
 40
0.4375000000000002
 40
0.4375000000000002
 40
0.4687500000000002
 40
0.4687500000000002
 40
0.5000000000000002
 40
0.5000000000000002
 40
0.5312500000000002
 40
0.5312500000000002
 40
0.5625000000000002
 40
0.5625000000000002
 40
0.5937500000000001
 40
0.5937500000000001
 40
0.6250000000000001
 40
0.6250000000000001
 40
0.6562500000000001
 40
0.6562500000000001
 40
0.6875000000000001
 40
0.6875000000000001
 40
0.7187500000000001
 40
0.7187500000000001
 40
0.75
 40
0.75
 40
0.78125
 40
0.78125
 40
0.8125
 40
0.8125
 40
0.84375
 40
0.84375
 40
0.875
 40
0.875
 40
0.90625
 40
0.90625
 40
0.9375
 40
0.9375
 40
0.96875
 40
0.96875
 40
1.0
 40
1.0
 40
1.0
 40
1.0
 10
297.6231310080753
 20
46.30994265451471
 30
0.0
 10
297.6231310080753
 20
46.03846834909881
 30
0.0
 10
297.5964354269362
 20
45.77164649330888
 30
0.0
 10
297.4919459939224
 20
45.24689079595117
 30
0.0
 10
297.4128434872641
 20
44.98619709269869
 30
0.0
 10
297.2068641950993
 20
44.48997691582573
 30
0.0
 10
297.080901366191
 20
44.25471608734782
 30
0.0
 10
296.7834005272926
 20
43.80947693278653
 30
0.0
 10
296.6106251485777
 20
43.59911758177648
 30
0.0
 10
296.2332417570358
 20
43.2218214828326
 30
0.0
 10
296.0272161847556
 20
43.05230713459635
 30
0.0
 10
295.5792483850776
 20
42.75255413416829
 30
0.0
 10
295.3414888173443
 20
42.62553866452028
 30
0.0
 10
294.8483965269575
 20
42.42086446187331
 30
0.0
 10
294.5894152413525
 20
42.34183052135049
 30
0.0
 10
294.0599222191785
 20
42.23627954090509
 30
0.0
 10
293.7935276744322
 20
42.21009935876391
 30
0.0
 10
293.2575075906612
 20
42.20978733952835
 30
0.0
 10
292.9852011516662
 20
42.23653889558382
 30
0.0
 10
292.4589361605565
 20
42.34138170119632
 30
0.0
 10
292.2030835081296
 20
42.41894742100082
 30
0.0
 10
291.7059857339365
 20
42.62478969133725
 30
0.0
 10
291.4667524147778
 20
42.75291136121467
 30
0.0
 10
291.0231644894521
 20
43.04937032036066
 30
0.0
 10
290.8154729448678
 20
43.21941826060721
 30
0.0
 10
290.433926924808
 20
43.60077832791614
 30
0.0
 10
290.2647019183792
 20
43.80717835840881
 30
0.0
 10
289.9678160153797
 20
44.25059213623145
 30
0.0
 10
289.83913673184
 20
44.490547599904
 30
0.0
 10
289.6334176361198
 20
44.98625761791951
 30
0.0
 10
289.5556168766077
 20
45.24180039114073
 30
0.0
 10
289.4501969993578
 20
45.76836640057226
 30
0.0
 10
289.4232381505652
 20
46.04045084222296
 30
0.0
 10
289.4230245175966
 20
46.57616445431545
 30
0.0
 10
289.4489116821728
 20
46.8427858317828
 30
0.0
 10
289.5542449782677
 20
47.37348797537172
 30
0.0
 10
289.6327591176802
 20
47.63144505961853
 30
0.0
 10
289.8371282467919
 20
48.12508609129402
 30
0.0
 10
289.9648109793673
 20
48.36434244328697
 30
0.0
 10
290.2633721421206
 20
48.8111767608393
 30
0.0
 10
290.4325319498175
 20
49.01726900839504
 30
0.0
 10
290.8101219431616
 20
49.39555448023347
 30
0.0
 10
291.0205900822998
 20
49.56857399149433
 30
0.0
 10
291.464675128194
 20
49.86580382532962
 30
0.0
 10
291.6997844506554
 20
49.99204499422853
 30
0.0
 10
292.1968912355893
 20
50.19884460422457
 30
0.0
 10
292.4566057370469
 20
50.27781406758064
 30
0.0
 10
292.9809282181949
 20
50.38271761012108
 30
0.0
 10
293.2491985522351
 20
50.40973638742069
 30
0.0
 10
293.7908537956337
 20
50.41014657039004
 30
0.0
 10
294.0574977823672
 20
50.38377675060573
 30
0.0
 10
294.5827174955919
 20
50.27969687454053
 30
0.0
 10
294.8440015363105
 20
50.2006059894881
 30
0.0
 10
295.3396857419501
 20
49.99533124153033
 30
0.0
 10
295.5751294693258
 20
49.8696109524332
 30
0.0
 10
296.021381759599
 20
49.57194805896929
 30
0.0
 10
296.2314456039338
 20
49.39962457960028
 30
0.0
 10
296.6088233966198
 20
49.02280181628853
 30
0.0
 10
296.7787195014289
 20
48.8167653322738
 30
0.0
 10
297.0795609511901
 20
48.36781107487126
 30
0.0
 10
297.2059246624994
 20
48.13156770152993
 30
0.0
 10
297.4110711975122
 20
47.63855395822274
 30
0.0
 10
297.4905226742846
 20
47.37890476153555
 30
0.0
 10
297.5964313062397
 20
46.84948069796297
 30
0.0
 10
297.6231310080753
 20
46.58141695993061
 30
0.0
 10
297.6231310080753
 20
46.30994265451471
 30
0.0
  0
CIRCLE
  5
FF
330
1F
100
AcDbEntity
  8
DIMENSION
100
AcDbCircle
 10
293.5231310081
 20
46.3099426545
 30
0.0
 40
4.0
  0
LINE
  5
100
330
1F
100
AcDbEntity
  8
0
  6
Continuous
 62
     8
370
    25
100
AcDbLine
 10
283.5508959476
 20
-769.8900573455
 30
0.0
 11
244.4331310081
 21
-769.8900573455
 31
0.0
  0
LINE
  5
101
330
1F
100
AcDbEntity
  8
0
  6
Continuous
 62
     8
370
    25
100
AcDbLine
 10
342.4331310081
 20
-769.8900573455
 30
0.0
 11
283.5508959476
 21
-769.8900573455
 31
0.0
  0
LINE
  5
102
330
1F
100
AcDbEntity
  8
DIMENSION
100
AcDbLine
 10
293.5231310081
 20
56.5099426545
 30
0.0
 11
271.0231310081
 21
56.5099426545
 31
0.0
  0
LINE
  5
103
330
1F
100
AcDbEntity
  8
DIMENSION
100
AcDbLine
 10
316.0231310081
 20
56.5099426545
 30
0.0
 11
293.5231310081
 21
56.5099426545
 31
0.0
  0
DIMENSION
  5
104
102
{ACAD_XDICTIONARY
360
286
102
}
330
1F
100
AcDbEntity
  8
DIMENSION
100
AcDbDimension
280
     0
  2
*D21
 10
316.0231310081
 20
90.70994265450002
 30
0.0
 11
287.6471658824
 21
90.70994265450002
 31
0.0
 70
   160
  1
%%c<>
 71
     2
 42
45.0
 73
     0
 74
     0
 75
     0
  3
RG Dimension Lines
100
AcDbAlignedDimension
 13
271.0231310081
 23
56.5099426545
 33
0.0
 14
316.0231310081
 24
56.5099426545
 34
0.0
100
AcDbRotatedDimension
1001
AcadAnnotative
1000
AnnotativeData
1002
{
1070
     1
1070
     1
1002
}
  0
DIMENSION
  5
10D
102
{ACAD_XDICTIONARY
360
24E
102
}
330
1F
100
AcDbEntity
  8
DIMENSION
100
AcDbDimension
280
     0
  2
*D19
 10
244.4331310081
 20
-815.0702216933668
 30
0.0
 11
293.4331310081
 21
-823.0702216933668
 31
0.0
 70
    32
  1
%%c<>
 71
     2
 42
98.0
 73
     0
 74
     0
 75
     0
  3
RG Dimension Lines
100
AcDbAlignedDimension
 13
342.4331310081
 23
-794.3900573455001
 33
0.0
 14
244.4331310081
 24
-794.3900573455001
 34
0.0
100
AcDbRotatedDimension
1001
AcadAnnotative
1000
AnnotativeData
1002
{
1070
     1
1070
     1
1002
}
1001
ACAD
1000
DSTYLE
1002
{
1070
    45
1040
5.0
1002
}
  0
DIMENSION
  5
116
102
{ACAD_XDICTIONARY
360
278
102
}
330
1F
100
AcDbEntity
  8
DIMENSION
100
AcDbDimension
280
     0
  2
*D20
 10
252.769153327442
 20
-55.19005734550003
 30
0.0
 11
238.1024866607753
 21
-42.49005734550009
 31
0.0
 70
    32
  1
%%c<>
 71
     2
 42
25.40000000000001
 73
     0
 74
     0
 75
     0
  3
RG Dimension Lines
100
AcDbAlignedDimension
 13
293.4331310081
 23
-29.7900573455
 33
0.0
 14
293.4331310081
 24
-55.1900573455
 34
0.0
 50
90.0
100
AcDbRotatedDimension
1001
AcadAnnotative
1000
AnnotativeData
1002
{
1070
     1
1070
     1
1002
}
  0
LINE
  5
11F
330
1F
100
AcDbEntity
  8
DIMENSION
100
AcDbLine
 10
-17.3104921938
 20
282.0015096051
 30
0.0
 11
-217.3104678035
 21
282.0015096051
 31
0.0
  0
LINE
  5
120
330
1F
100
AcDbEntity
  8
DIMENSION
100
AcDbLine
 10
-217.3104678035
 20
256.6015096051
 30
0.0
 11
-17.3104921938
 21
256.6015096051
 31
0.0
  0
LINE
  5
121
330
1F
100
AcDbEntity
  8
DIMENSION
100
AcDbLine
 10
-217.3104678035
 20
282.0015096051
 30
0.0
 11
-219.8827909087
 21
281.9372015275
 31
0.0
  0
LINE
  5
122
330
1F
100
AcDbEntity
  8
DIMENSION
100
AcDbLine
 10
-220.0029037916
 20
256.6688205048
 30
0.0
 11
-217.3104678035
 21
256.6015096051
 31
0.0
  0
LINE
  5
123
330
1F
100
AcDbEntity
  8
DIMENSION
100
AcDbLine
 10
-177.0604678035
 20
273.3915096051
 30
0.0
 11
-216.418877978
 21
273.3915096051
 31
0.0
  0
LINE
  5
124
330
1F
100
AcDbEntity
  8
DIMENSION
100
AcDbLine
 10
-216.418877978
 20
265.3915096051
 30
0.0
 11
-177.0604678035
 21
265.3915096051
 31
0.0
  0
LINE
  5
125
330
1F
100
AcDbEntity
  8
DIMENSION
100
AcDbLine
 10
-217.3104678035
 20
282.0015096051
 30
0.0
 11
-217.3104678035
 21
276.786609334
 31
0.0
  0
LINE
  5
126
330
1F
100
AcDbEntity
  8
DIMENSION
100
AcDbLine
 10
-217.3104678035
 20
261.9964098762
 30
0.0
 11
-217.3104678035
 21
256.6015096051
 31
0.0
  0
LINE
  5
127
330
1F
100
AcDbEntity
  8
0
  6
Continuous
 62
     7
370
    25
100
AcDbLine
 10
-17.3104921938
 20
282.0015063409
 30
0.0
 11
-17.3104921938
 21
256.6015096051
 31
0.0
  0
ARC
  5
128
330
1F
100
AcDbEntity
  8
DIMENSION
100
AcDbCircle
 10
-238.5604678035
 20
269.3015096050999
 30
0.0
 40
49.0
100
AcDbArc
 50
15.0216297392
 51
344.9783702608
  0
ARC
  5
129
330
1F
100
AcDbEntity
  8
DIMENSION
100
AcDbCircle
 10
-238.5604678035
 20
269.3015096050999
 30
0.0
 40
22.50000000000002
100
AcDbArc
 50
179.885408554
 51
325.83902478
  0
LINE
  5
12A
330
1F
100
AcDbEntity
  8
DIMENSION
100
AcDbLine
 10
-236.1543938599
 20
288.157574746
 30
0.0
 11
-236.1543938599
 21
288.1432701685
 31
0.0
  0
LINE
  5
12B
330
1F
100
AcDbEntity
  8
DIMENSION
100
AcDbLine
 10
-235.7604678035
 20
288.2885166474
 30
0.0
 11
-236.1543938599
 21
288.157574746
 31
0.0
  0
LINE
  5
12C
330
1F
100
AcDbEntity
  8
DIMENSION
100
AcDbLine
 10
-235.7604678035
 20
288.7682701685
 30
0.0
 11
-235.7604678035
 21
288.2885166474
 31
0.0
  0
LINE
  5
12D
330
1F
100
AcDbEntity
  8
DIMENSION
100
AcDbLine
 10
-241.1125804796
 20
288.7682701685
 30
0.0
 11
-235.7604678035
 21
288.7682701685
 31
0.0
  0
LINE
  5
12E
330
1F
100
AcDbEntity
  8
DIMENSION
100
AcDbLine
 10
-241.1125804796
 20
288.1355677036999
 30
0.0
 11
-241.1125804796
 21
288.7682701685
 31
0.0
  0
LINE
  5
12F
330
1F
100
AcDbEntity
  8
DIMENSION
100
AcDbLine
 10
-238.9283815359
 20
288.1355677036999
 30
0.0
 11
-241.1125804796
 21
288.1355677036999
 31
0.0
  0
LINE
  5
130
330
1F
100
AcDbEntity
  8
DIMENSION
100
AcDbLine
 10
-238.9283815359
 20
288.1234638305
 30
0.0
 11
-238.9283815359
 21
288.1355677036999
 31
0.0
  0
SPLINE
  5
131
330
1F
100
AcDbEntity
  8
DIMENSION
100
AcDbSpline
210
0.0
220
0.0
230
1.0
 70
     8
 71
     3
 72
    15
 73
    11
 74
     0
 42
0.00000001
 43
0.0000000001
 40
0.0
 40
0.0
 40
0.0
 40
0.0
 40
0.1406472745596582
 40
0.2734154751309938
 40
0.3978983174444512
 40
0.517460826952199
 40
0.6355900972667148
 40
0.7541683304981532
 40
0.8752660835230592
 40
1.0
 40
1.0
 40
1.0
 40
1.0
 10
-239.3520170993085
 20
287.1419497459643
 30
0.0
 10
-239.3507858985206
 20
287.1937243779666
 30
0.0
 10
-239.3483924689326
 20
287.2943732220554
 30
0.0
 10
-239.3289136423773
 20
287.4398880000701
 30
0.0
 10
-239.2945228265124
 20
287.5745455470297
 30
0.0
 10
-239.246774746655
 20
287.6993208593552
 30
0.0
 10
-239.1855689381944
 20
287.8156243792392
 30
0.0
 10
-239.1120647754197
 20
287.9250673562842
 30
0.0
 10
-239.0276231693992
 20
288.0297166374741
 30
0.0
 10
-238.9617866822472
 20
288.0919081356531
 30
0.0
 10
-238.9283815359282
 20
288.1234638304713
 30
0.0
  0
SPLINE
  5
132
330
1F
100
AcDbEntity
  8
DIMENSION
100
AcDbSpline
210
0.0
220
0.0
230
1.0
 70
     8
 71
     3
 72
    25
 73
    21
 74
     0
 42
0.00000001
 43
0.0000000001
 40
0.0
 40
0.0
 40
0.0
 40
0.0
 40
0.0646324478168551
 40
0.1258025178817734
 40
0.1833701240320646
 40
0.2378612860502682
 40
0.2896157287084938
 40
0.3391664236713932
 40
0.3858289350422325
 40
0.4308007909440733
 40
0.4739498120353411
 40
0.5156359875597428
 40
0.5557146355061479
 40
0.5951244726584099
 40
0.6707436360997845
 40
0.7424930703348896
 40
0.8110080617201958
 40
0.8774617786122831
 40
0.9409293988966771
 40
1.0
 40
1.0
 40
1.0
 40
1.0
 10
-237.4770170993085
 20
285.5992560839924
 30
0.0
 10
-237.535721490849
 20
285.6000986343539
 30
0.0
 10
-237.6499854637599
 20
285.6017385994257
 30
0.0
 10
-237.8162231040025
 20
285.6144763892494
 30
0.0
 10
-237.971824655477
 20
285.6382464069795
 30
0.0
 10
-238.117795536478
 20
285.6679283741792
 30
0.0
 10
-238.2532141321017
 20
285.7092844162346
 30
0.0
 10
-238.3809125220625
 20
285.751485014458
 30
0.0
 10
-238.498341468938
 20
285.8033529453323
 30
0.0
 10
-238.6075902495541
 20
285.8588129296014
 30
0.0
 10
-238.7077792522751
 20
285.9211439731238
 30
0.0
 10
-238.8007923832477
 20
285.9863230755574
 30
0.0
 10
-238.8839017784783
 20
286.0587811414165
 30
0.0
 10
-238.9818921792352
 20
286.1601461555246
 30
0.0
 10
-239.0870863811315
 20
286.2939032801465
 30
0.0
 10
-239.1890110630557
 20
286.4618869521194
 30
0.0
 10
-239.2664793197065
 20
286.6336081294429
 30
0.0
 10
-239.3159502544655
 20
286.8073938342076
 30
0.0
 10
-239.3453302616712
 20
286.9769938196928
 30
0.0
 10
-239.3498421195179
 20
287.0882957131549
 30
0.0
 10
-239.3520170993085
 20
287.1419497459643
 30
0.0
  0
SPLINE
  5
133
330
1F
100
AcDbEntity
  8
DIMENSION
100
AcDbSpline
210
0.0
220
0.0
230
1.0
 70
     8
 71
     3
 72
    23
 73
    19
 74
     0
 42
0.00000001
 43
0.0000000001
 40
0.0
 40
0.0
 40
0.0
 40
0.0
 40
0.0537901776980547
 40
0.1075183860400281
 40
0.1616757364489951
 40
0.2164681600818858
 40
0.2711232200071438
 40
0.3255213583702188
 40
0.3806820262868977
 40
0.4368737092320484
 40
0.4948491274257227
 40
0.5547178922881577
 40
0.6178290217506674
 40
0.6838856656579829
 40
0.7543376205785842
 40
0.8303769712625777
 40
0.9118985078730551
 40
1.0
 40
1.0
 40
1.0
 40
1.0
 10
-235.6900452683226
 20
287.1386486896262
 30
0.0
 10
-235.6915228895242
 20
287.090924995611
 30
0.0
 10
-235.6944764296233
 20
286.9955325880011
 30
0.0
 10
-235.7119502766126
 20
286.8528435560525
 30
0.0
 10
-235.7438145607421
 20
286.7119158442061
 30
0.0
 10
-235.7842026853851
 20
286.5722904538321
 30
0.0
 10
-235.8404171905992
 20
286.4378023855312
 30
0.0
 10
-235.9116787737479
 20
286.3104053426355
 30
0.0
 10
-235.9963032401939
 20
286.1897161938647
 30
0.0
 10
-236.0974220090062
 20
286.0780658498222
 30
0.0
 10
-236.2134286309993
 20
285.9756970582598
 30
0.0
 10
-236.3444922544532
 20
285.8823710332511
 30
0.0
 10
-236.4912066297528
 20
285.8004743707241
 30
0.0
 10
-236.6531307255335
 20
285.7280476604428
 30
0.0
 10
-236.8327712970967
 20
285.6692581412741
 30
0.0
 10
-237.0312748455854
 20
285.6282400775335
 30
0.0
 10
-237.2482962826592
 20
285.6044002908424
 30
0.0
 10
-237.3988303394313
 20
285.6010145984626
 30
0.0
 10
-237.4770170993085
 20
285.5992560839924
 30
0.0
  0
SPLINE
  5
134
330
1F
100
AcDbEntity
  8
DIMENSION
100
AcDbSpline
210
0.0
220
0.0
230
1.0
 70
     8
 71
     3
 72
    15
 73
    11
 74
     0
 42
0.00000001
 43
0.0000000001
 40
0.0
 40
0.0
 40
0.0
 40
0.0
 40
0.0972651019500251
 40
0.2016180751984257
 40
0.3109620952802272
 40
0.4276584769072949
 40
0.5507270020200216
 40
0.6842321268473932
 40
0.8313759847895392
 40
1.0
 40
1.0
 40
1.0
 40
1.0
 10
-236.1543938598718
 20
288.1432701684994
 30
0.0
 10
-236.1254940402887
 20
288.1193977699149
 30
0.0
 10
-236.065588422743
 20
288.0699133509767
 30
0.0
 10
-235.9789728281193
 20
287.9869247856375
 30
0.0
 10
-235.8952149994861
 20
287.8907326957326
 30
0.0
 10
-235.8201326355901
 20
287.778638567457
 30
0.0
 10
-235.7581577825677
 20
287.6480680772653
 30
0.0
 10
-235.7176513105205
 20
287.4972286018602
 30
0.0
 10
-235.6933421589944
 20
287.3254103467896
 30
0.0
 10
-235.6911929649627
 20
287.2036631980744
 30
0.0
 10
-235.6900452683226
 20
287.1386486896262
 30
0.0
  0
SPLINE
  5
135
330
1F
100
AcDbEntity
  8
DIMENSION
100
AcDbSpline
210
0.0
220
0.0
230
1.0
 70
     8
 71
     3
 72
    15
 73
    11
 74
     0
 42
0.00000001
 43
0.0000000001
 40
0.0
 40
0.0
 40
0.0
 40
0.0
 40
0.1423381806537949
 40
0.2839195815943176
 40
0.4228707121492914
 40
0.5553500227214939
 40
0.6816403252870679
 40
0.7998322963787287
 40
0.9070164473836253
 40
1.0
 40
1.0
 40
1.0
 40
1.0
 10
-240.8308903387451
 20
279.8514567882179
 30
0.0
 10
-240.8302790225461
 20
279.902457619317
 30
0.0
 10
-240.829059640377
 20
280.0041881217034
 30
0.0
 10
-240.818549438611
 20
280.1553885158564
 30
0.0
 10
-240.8036720558794
 20
280.3026322378903
 30
0.0
 10
-240.7828721804813
 20
280.4436547921799
 30
0.0
 10
-240.7566328446879
 20
280.5761920248925
 30
0.0
 10
-240.7262078672178
 20
280.698489011485
 30
0.0
 10
-240.693018020851
 20
280.8077229991245
 30
0.0
 10
-240.6669454475202
 20
280.8745507391754
 30
0.0
 10
-240.654834000717
 20
280.9055941121615
 30
0.0
  0
SPLINE
  5
136
330
1F
100
AcDbEntity
  8
DIMENSION
100
AcDbSpline
210
0.0
220
0.0
230
1.0
 70
     8
 71
     3
 72
    23
 73
    19
 74
     0
 42
0.00000001
 43
0.0000000001
 40
0.0
 40
0.0
 40
0.0
 40
0.0
 40
0.0687175099515708
 40
0.1351962327228796
 40
0.1995957520606878
 40
0.2628087958797281
 40
0.3243840465741679
 40
0.3841544406496398
 40
0.4427743689270555
 40
0.50096651585568
 40
0.5591752212140122
 40
0.6175284594891636
 40
0.6765004844499737
 40
0.7373362828198735
 40
0.7998646579048918
 40
0.8638906437617098
 40
0.9304707645833032
 40
1.0
 40
1.0
 40
1.0
 40
1.0
 10
-238.1977477331113
 20
277.3140448163868
 30
0.0
 10
-238.2921179966143
 20
277.3160510676097
 30
0.0
 10
-238.4777839806649
 20
277.3199982072459
 30
0.0
 10
-238.7500599476079
 20
277.3543111701767
 30
0.0
 10
-239.0115446331057
 20
277.4071648491617
 30
0.0
 10
-239.2598172842776
 20
277.4848105563134
 30
0.0
 10
-239.4946451693021
 20
277.5808331932357
 30
0.0
 10
-239.7128078173278
 20
277.6978480345343
 30
0.0
 10
-239.9129991582153
 20
277.8353275045465
 30
0.0
 10
-240.096616485742
 20
277.9909404611813
 30
0.0
 10
-240.2622653841912
 20
278.1651582312244
 30
0.0
 10
-240.4079943441403
 20
278.3576892951675
 30
0.0
 10
-240.5342538081316
 20
278.5676427070995
 30
0.0
 10
-240.6412409579276
 20
278.7944482313556
 30
0.0
 10
-240.7254603046645
 20
279.0380061649179
 30
0.0
 10
-240.7876798989356
 20
279.2961353869099
 30
0.0
 10
-240.8242121270552
 20
279.5690831186382
 30
0.0
 10
-240.8286323435458
 20
279.7559823678297
 30
0.0
 10
-240.8308903387451
 20
279.8514567882179
 30
0.0
  0
SPLINE
  5
137
330
1F
100
AcDbEntity
  8
DIMENSION
100
AcDbSpline
210
0.0
220
0.0
230
1.0
 70
     8
 71
     3
 72
    23
 73
    19
 74
     0
 42
0.00000001
 43
0.0000000001
 40
0.0
 40
0.0
 40
0.0
 40
0.0
 40
0.0740273851999159
 40
0.144124292806962
 40
0.2105239556980198
 40
0.2742446354601429
 40
0.3351177710738098
 40
0.3938355473564689
 40
0.4510569070899801
 40
0.5074932332811351
 40
0.5637050104357591
 40
0.6198869529098023
 40
0.6775278106179885
 40
0.736947170826001
 40
0.7987024684000741
 40
0.8626133399630486
 40
0.9297597277879901
 40
1.0
 40
1.0
 40
1.0
 40
1.0
 10
-235.6900452683226
 20
279.8745641825839
 30
0.0
 10
-235.6921568610295
 20
279.7739839257904
 30
0.0
 10
-235.6962679316119
 20
279.5781637122088
 30
0.0
 10
-235.728122620077
 20
279.2934795285246
 30
0.0
 10
-235.7822058549528
 20
279.0266093231599
 30
0.0
 10
-235.8560445185714
 20
278.7774082014174
 30
0.0
 10
-235.9525343298623
 20
278.5473403717132
 30
0.0
 10
-236.0670703310619
 20
278.3357234555469
 30
0.0
 10
-236.2009199172495
 20
278.142977364027
 30
0.0
 10
-236.3533468870837
 20
277.9690195673045
 30
0.0
 10
-236.5246072017572
 20
277.8156264995612
 30
0.0
 10
-236.7138776821344
 20
277.6823502633514
 30
0.0
 10
-236.9205835570633
 20
277.5688650360433
 30
0.0
 10
-237.1451373904504
 20
277.4750259864462
 30
0.0
 10
-237.3864991737297
 20
277.4029634774225
 30
0.0
 10
-237.6436512580005
 20
277.3518574588742
 30
0.0
 10
-237.9155630173854
 20
277.3188033232695
 30
0.0
 10
-238.1022845336508
 20
277.3156546211223
 30
0.0
 10
-238.1977477331113
 20
277.3140448163868
 30
0.0
  0
SPLINE
  5
138
330
1F
100
AcDbEntity
  8
DIMENSION
100
AcDbSpline
210
0.0
220
0.0
230
1.0
 70
     8
 71
     3
 72
    13
 73
     9
 74
     0
 42
0.00000001
 43
0.0000000001
 40
0.0
 40
0.0
 40
0.0
 40
0.0
 40
0.1070887450580682
 40
0.2214126491190453
 40
0.3413976859186
 40
0.4690384671911494
 40
0.7318776973432211
 40
1.0
 40
1.0
 40
1.0
 40
1.0
 10
-235.8661016063508
 20
280.9760166473727
 30
0.0
 10
-235.8524172468223
 20
280.938394038679
 30
0.0
 10
-235.8241239813345
 20
280.8606069523412
 30
0.0
 10
-235.7899926191617
 20
280.7375788401848
 30
0.0
 10
-235.7584724438214
 20
280.6059896218139
 30
0.0
 10
-235.7256849236558
 20
280.4180019626254
 30
0.0
 10
-235.6958666372143
 20
280.1732948127316
 30
0.0
 10
-235.691998553776
 20
279.9747994030632
 30
0.0
 10
-235.6900452683226
 20
279.8745641825839
 30
0.0
  0
LINE
  5
139
330
1F
100
AcDbEntity
  8
DIMENSION
100
AcDbLine
 10
-236.3942706204
 20
280.9760166474
 30
0.0
 11
-235.8661016064
 21
280.9760166474
 31
0.0
  0
SPLINE
  5
13A
330
1F
100
AcDbEntity
  8
DIMENSION
100
AcDbSpline
210
0.0
220
0.0
230
1.0
 70
     8
 71
     3
 72
    15
 73
    11
 74
     0
 42
0.00000001
 43
0.0000000001
 40
0.0
 40
0.0
 40
0.0
 40
0.0
 40
0.1197971844685626
 40
0.2460363167897535
 40
0.3778663491913871
 40
0.5100292395479094
 40
0.6417193031032288
 40
0.7698138950645542
 40
0.8913730296111495
 40
1.0
 40
1.0
 40
1.0
 40
1.0
 10
-236.2534255500127
 20
279.9317824924431
 30
0.0
 10
-236.2538090678618
 20
279.9739724075592
 30
0.0
 10
-236.2545967267658
 20
280.0606209491496
 30
0.0
 10
-236.2626093526836
 20
280.1935076099837
 30
0.0
 10
-236.2761792915652
 20
280.3302637924023
 30
0.0
 10
-236.2921339836245
 20
280.468706740206
 30
0.0
 10
-236.3131788974876
 20
280.6051449617293
 30
0.0
 10
-236.3369275168751
 20
280.7373309042389
 30
0.0
 10
-236.3636997952657
 20
280.8606755311421
 30
0.0
 10
-236.3844692982245
 20
280.9390370945458
 30
0.0
 10
-236.3942706204353
 20
280.9760166473727
 30
0.0
  0
SPLINE
  5
13B
330
1F
100
AcDbEntity
  8
DIMENSION
100
AcDbSpline
210
0.0
220
0.0
230
1.0
 70
     8
 71
     3
 72
    23
 73
    19
 74
     0
 42
0.00000001
 43
0.0000000001
 40
0.0
 40
0.0
 40
0.0
 40
0.0
 40
0.0764003204813077
 40
0.1483930206001373
 40
0.2158105325655121
 40
0.279618092962211
 40
0.3404082201272714
 40
0.3990721287861638
 40
0.4558691427575515
 40
0.5118374068761979
 40
0.5675277519994794
 40
0.6236791142454714
 40
0.6813084931608123
 40
0.7404657377980357
 40
0.8016424033140994
 40
0.8652044517959456
 40
0.9312076501569956
 40
1.0
 40
1.0
 40
1.0
 40
1.0
 10
-238.2197547753648
 20
277.9478476332882
 30
0.0
 10
-238.1386205569007
 20
277.9494396143911
 30
0.0
 10
-237.9810328442304
 20
277.9525317334179
 30
0.0
 10
-237.7530838896222
 20
277.9791221161749
 30
0.0
 10
-237.5414571345312
 20
278.0225985260226
 30
0.0
 10
-237.3467021904518
 20
278.0842021895519
 30
0.0
 10
-237.1683025141415
 20
278.1627526309654
 30
0.0
 10
-237.0057601328141
 20
278.2562657757407
 30
0.0
 10
-236.8593282466443
 20
278.365000319102
 30
0.0
 10
-236.7283886722552
 20
278.4874897671031
 30
0.0
 10
-236.6147339961087
 20
278.6252379281942
 30
0.0
 10
-236.5158186024884
 20
278.7759941880318
 30
0.0
 10
-236.4337860028905
 20
278.9406521567124
 30
0.0
 10
-236.3661011307294
 20
279.1174028931418
 30
0.0
 10
-236.3163546056008
 20
279.3065231281834
 30
0.0
 10
-236.2803112422033
 20
279.5059375494517
 30
0.0
 10
-236.2578573722176
 20
279.7156046859621
 30
0.0
 10
-236.254923062716
 20
279.8587360125964
 30
0.0
 10
-236.2534255500127
 20
279.9317824924431
 30
0.0
  0
SPLINE
  5
13C
330
1F
100
AcDbEntity
  8
DIMENSION
100
AcDbSpline
210
0.0
220
0.0
230
1.0
 70
     8
 71
     3
 72
    23
 73
    19
 74
     0
 42
0.00000001
 43
0.0000000001
 40
0.0
 40
0.0
 40
0.0
 40
0.0
 40
0.0631618395901328
 40
0.1246778983216908
 40
0.1850196418966142
 40
0.244686379596955
 40
0.3031070587244198
 40
0.3606920370491736
 40
0.417625741619909
 40
0.4747950507574304
 40
0.5326561681943157
 40
0.5914341140127492
 40
0.65230871501874
 40
0.7154479510630253
 40
0.7812143555944063
 40
0.8500845156710237
 40
0.9226813129834642
 40
1.0
 40
1.0
 40
1.0
 40
1.0
 10
-240.267510057055
 20
279.8954708727248
 30
0.0
 10
-240.266153605945
 20
279.8282743541072
 30
0.0
 10
-240.2634760481878
 20
279.6956322276247
 30
0.0
 10
-240.238495000711
 20
279.5000955202337
 30
0.0
 10
-240.1979894237786
 20
279.3111148204884
 30
0.0
 10
-240.1408142959173
 20
279.1298955765325
 30
0.0
 10
-240.0685187343637
 20
278.9572785174946
 30
0.0
 10
-239.9789520167529
 20
278.7962436461032
 30
0.0
 10
-239.8740365285653
 20
278.646348505517
 30
0.0
 10
-239.7520198184472
 20
278.5096369519204
 30
0.0
 10
-239.6154437626857
 20
278.3845582995472
 30
0.0
 10
-239.4619588992227
 20
278.2739466110727
 30
0.0
 10
-239.2930252066388
 20
278.1771400926151
 30
0.0
 10
-239.1086161285396
 20
278.0943065663014
 30
0.0
 10
-238.9085762485612
 20
278.0280805659981
 30
0.0
 10
-238.6929091434405
 20
277.9809744209027
 30
0.0
 10
-238.4614335191823
 20
277.9536774340247
 30
0.0
 10
-238.3019883718399
 20
277.9498312809757
 30
0.0
 10
-238.2197547753648
 20
277.9478476332882
 30
0.0
  0
SPLINE
  5
13D
330
1F
100
AcDbEntity
  8
DIMENSION
100
AcDbSpline
210
0.0
220
0.0
230
1.0
 70
     8
 71
     3
 72
    11
 73
     7
 74
     0
 42
0.00000001
 43
0.0000000001
 40
0.0
 40
0.0
 40
0.0
 40
0.0
 40
0.2322897423956944
 40
0.4826261366221049
 40
0.7415637298405828
 40
1.0
 40
1.0
 40
1.0
 40
1.0
 10
-240.1266649866324
 20
280.9055941121615
 30
0.0
 10
-240.1459211649556
 20
280.8287660781425
 30
0.0
 10
-240.1859295392142
 20
280.6691412197207
 30
0.0
 10
-240.2291566621977
 20
280.4199624343382
 30
0.0
 10
-240.2623146484287
 20
280.1600448413192
 30
0.0
 10
-240.2657793732584
 20
279.9836052069762
 30
0.0
 10
-240.267510057055
 20
279.8954708727248
 30
0.0
  0
LINE
  5
13E
330
1F
100
AcDbEntity
  8
DIMENSION
100
AcDbLine
 10
-240.6548340007
 20
280.9055941122
 30
0.0
 11
-240.1266649866
 21
280.9055941122
 31
0.0
  0
SPLINE
  5
13F
330
1F
100
AcDbEntity
  8
DIMENSION
100
AcDbSpline
210
0.0
220
0.0
230
1.0
 70
     8
 71
     3
 72
    15
 73
    11
 74
     0
 42
0.00000001
 43
0.0000000001
 40
0.0
 40
0.0
 40
0.0
 40
0.0
 40
0.1218458219985205
 40
0.2374957347333111
 40
0.3492633557234998
 40
0.459355063280418
 40
0.5737599799471851
 40
0.6978495346933196
 40
0.8379757460831918
 40
1.0
 40
1.0
 40
1.0
 40
1.0
 10
-236.7463832964916
 20
257.0534814361051
 30
0.0
 10
-236.707359502073
 20
257.0551131469322
 30
0.0
 10
-236.6312962889443
 20
257.0582935954319
 30
0.0
 10
-236.5218621850755
 20
257.0848034708141
 30
0.0
 10
-236.4233746136472
 20
257.1310495336048
 30
0.0
 10
-236.3383585374074
 20
257.1987936747261
 30
0.0
 10
-236.2702755218774
 20
257.2884154160529
 30
0.0
 10
-236.2188557809842
 20
257.3990808706756
 30
0.0
 10
-236.1886348746356
 20
257.5331533989096
 30
0.0
 10
-236.1849688648359
 20
257.6299022047136
 30
0.0
 10
-236.1830030148014
 20
257.6817824924431
 30
0.0
  0
LINE
  5
140
330
1F
100
AcDbEntity
  8
DIMENSION
100
AcDbLine
 10
-238.7886368176
 20
257.0534814361
 30
0.0
 11
-236.7463832965
 21
257.0534814361
 31
0.0
  0
LINE
  5
141
330
1F
100
AcDbEntity
  8
DIMENSION
100
AcDbLine
 10
-238.7886368176
 20
258.1087191122
 30
0.0
 11
-238.7886368176
 21
257.0534814361
 31
0.0
  0
LINE
  5
142
330
1F
100
AcDbEntity
  8
DIMENSION
100
AcDbLine
 10
-239.2815945641
 20
258.1087191122
 30
0.0
 11
-238.7886368176
 21
258.1087191122
 31
0.0
  0
LINE
  5
143
330
1F
100
AcDbEntity
  8
DIMENSION
100
AcDbLine
 10
-239.2815945641
 20
257.0534814361
 30
0.0
 11
-239.2815945641
 21
258.1087191122
 31
0.0
  0
LINE
  5
144
330
1F
100
AcDbEntity
  8
DIMENSION
100
AcDbLine
 10
-240.2675100571
 20
257.0534814361
 30
0.0
 11
-239.2815945641
 21
257.0534814361
 31
0.0
  0
LINE
  5
145
330
1F
100
AcDbEntity
  8
DIMENSION
100
AcDbLine
 10
-240.2675100571
 20
256.4196786192
 30
0.0
 11
-240.2675100571
 21
257.0534814361
 31
0.0
  0
LINE
  5
146
330
1F
100
AcDbEntity
  8
DIMENSION
100
AcDbLine
 10
-239.2815945641
 20
256.4196786192
 30
0.0
 11
-240.2675100571
 21
256.4196786192
 31
0.0
  0
LINE
  5
147
330
1F
100
AcDbEntity
  8
DIMENSION
100
AcDbLine
 10
-239.2815945641
 20
255.7407613657
 30
0.0
 11
-239.2815945641
 21
256.4196786192
 31
0.0
  0
LINE
  5
148
330
1F
100
AcDbEntity
  8
DIMENSION
100
AcDbLine
 10
-238.7886368176
 20
255.7407613657
 30
0.0
 11
-239.2815945641
 21
255.7407613657
 31
0.0
  0
LINE
  5
149
330
1F
100
AcDbEntity
  8
DIMENSION
100
AcDbLine
 10
-238.7886368176
 20
256.4196786192
 30
0.0
 11
-238.7886368176
 21
255.7407613657
 31
0.0
  0
LINE
  5
14A
330
1F
100
AcDbEntity
  8
DIMENSION
100
AcDbLine
 10
-236.6616561838
 20
256.4196786192
 30
0.0
 11
-238.7886368176
 21
256.4196786192
 31
0.0
  0
SPLINE
  5
14B
330
1F
100
AcDbEntity
  8
DIMENSION
100
AcDbSpline
210
0.0
220
0.0
230
1.0
 70
     8
 71
     3
 72
    23
 73
    19
 74
     0
 42
0.00000001
 43
0.0000000001
 40
0.0
 40
0.0
 40
0.0
 40
0.0
 40
0.0793694329804845
 40
0.1545815984856111
 40
0.2253046809901545
 40
0.2927308864859742
 40
0.3565928750772456
 40
0.4180383360313999
 40
0.4771057353567816
 40
0.5351502452201319
 40
0.5917066519080917
 40
0.6476121130597873
 40
0.7027157252450739
 40
0.7592537425953055
 40
0.8165662894239776
 40
0.8755420730894647
 40
0.9367433519766056
 40
1.0
 40
1.0
 40
1.0
 40
1.0
 10
-235.6900452683226
 20
257.5706469290628
 30
0.0
 10
-235.6908166511639
 20
257.5254942683381
 30
0.0
 10
-235.6923190128186
 20
257.4375539844202
 30
0.0
 10
-235.7060485165815
 20
257.3100138686784
 30
0.0
 10
-235.7263644844906
 20
257.1902807997387
 30
0.0
 10
-235.7560847715887
 20
257.0791159137591
 30
0.0
 10
-235.7936679152224
 20
256.9760320099883
 30
0.0
 10
-235.8383446780207
 20
256.8809135709637
 30
0.0
 10
-235.892284478978
 20
256.7947204463493
 30
0.0
 10
-235.9506754759061
 20
256.7148048090559
 30
0.0
 10
-236.0187537963157
 20
256.6453528559199
 30
0.0
 10
-236.0923577305871
 20
256.5845424130328
 30
0.0
 10
-236.1728837584576
 20
256.5331433632796
 30
0.0
 10
-236.2597109883052
 20
256.4914519022585
 30
0.0
 10
-236.3529275866807
 20
256.4596336106873
 30
0.0
 10
-236.4513408983238
 20
256.4367100754193
 30
0.0
 10
-236.5548352122301
 20
256.4218102800831
 30
0.0
 10
-236.625659316745
 20
256.4203969529932
 30
0.0
 10
-236.6616561838156
 20
256.4196786192037
 30
0.0
  0
SPLINE
  5
14C
330
1F
100
AcDbEntity
  8
DIMENSION
100
AcDbSpline
210
0.0
220
0.0
230
1.0
 70
     8
 71
     3
 72
    13
 73
     9
 74
     0
 42
0.00000001
 43
0.0000000001
 40
0.0
 40
0.0
 40
0.0
 40
0.0
 40
0.0738947338592704
 40
0.1631445374822299
 40
0.2689192947846726
 40
0.3905343462617374
 40
0.6703275597809433
 40
1.0
 40
1.0
 40
1.0
 40
1.0
 10
-235.773672028886
 20
258.1604356614572
 30
0.0
 10
-235.7686417339226
 20
258.1465763824411
 30
0.0
 10
-235.7575358661248
 20
258.1159779142305
 30
0.0
 10
-235.7455472222701
 20
258.0636484199503
 30
0.0
 10
-235.7304955043683
 20
258.0023561517673
 30
0.0
 10
-235.7126756741393
 20
257.9027745932376
 30
0.0
 10
-235.6953459805245
 20
257.75787216718
 30
0.0
 10
-235.6919060156799
 20
257.63636995906
 30
0.0
 10
-235.6900452683226
 20
257.5706469290628
 30
0.0
  0
LINE
  5
14D
330
1F
100
AcDbEntity
  8
DIMENSION
100
AcDbLine
 10
-236.2501244937
 20
258.1604356615
 30
0.0
 11
-235.7736720289
 21
258.1604356615
 31
0.0
  0
SPLINE
  5
14E
330
1F
100
AcDbEntity
  8
DIMENSION
100
AcDbSpline
210
0.0
220
0.0
230
1.0
 70
     8
 71
     3
 72
    11
 73
     7
 74
     0
 42
0.00000001
 43
0.0000000001
 40
0.0
 40
0.0
 40
0.0
 40
0.0
 40
0.2431577467279162
 40
0.5014638418451626
 40
0.7598298247707293
 40
1.0
 40
1.0
 40
1.0
 40
1.0
 10
-236.1830030148014
 20
257.6817824924431
 30
0.0
 10
-236.1838153290347
 20
257.7210710470291
 30
0.0
 10
-236.185490563411
 20
257.802095771877
 30
0.0
 10
-236.2006886409358
 20
257.92404154472
 30
0.0
 10
-236.2218140256941
 20
258.044499935919
 30
0.0
 10
-236.2409201187446
 20
258.1227423288575
 30
0.0
 10
-236.2501244936747
 20
258.1604356614572
 30
0.0
  0
SPLINE
  5
14F
330
1F
100
AcDbEntity
  8
DIMENSION
100
AcDbSpline
210
0.0
220
0.0
230
1.0
 70
     8
 71
     3
 72
    23
 73
    19
 74
     0
 42
0.00000001
 43
0.0000000001
 40
0.0
 40
0.0
 40
0.0
 40
0.0
 40
0.0689529480650632
 40
0.1344891075364706
 40
0.1973287114948719
 40
0.2583541990446047
 40
0.3178700782251759
 40
0.3760743810687474
 40
0.4335357634991927
 40
0.4911010135453921
 40
0.5492315833602408
 40
0.6077403617483153
 40
0.6679522071099166
 40
0.7299451585678875
 40
0.7939739945529825
 40
0.8602133954867399
 40
0.9287172645711535
 40
1.0
 40
1.0
 40
1.0
 40
1.0
 10
-235.6900452683226
 20
254.3419937600487
 30
0.0
 10
-235.6918651137123
 20
254.2773728539223
 30
0.0
 10
-235.6954146266656
 20
254.1513331669036
 30
0.0
 10
-235.7192840526424
 20
253.9675223610352
 30
0.0
 10
-235.7617005544586
 20
253.7948481854148
 30
0.0
 10
-235.8186586897587
 20
253.6324031587367
 30
0.0
 10
-235.891302202073
 20
253.4810113109615
 30
0.0
 10
-235.9792385993377
 20
253.3420579400669
 30
0.0
 10
-236.0781848869651
 20
253.212963974949
 30
0.0
 10
-236.1924396430109
 20
253.0971467801744
 30
0.0
 10
-236.3191843070451
 20
252.9938353474088
 30
0.0
 10
-236.4578529034004
 20
252.9024053344547
 30
0.0
 10
-236.6094115179131
 20
252.8262036707094
 30
0.0
 10
-236.7713844137624
 20
252.7605738288192
 30
0.0
 10
-236.9447610572778
 20
252.7104570358808
 30
0.0
 10
-237.1276641885771
 20
252.6740501147988
 30
0.0
 10
-237.3199264579834
 20
252.6533729999186
 30
0.0
 10
-237.450927499283
 20
252.6501800635624
 30
0.0
 10
-237.5177301274775
 20
252.6485518586403
 30
0.0
  0
SPLINE
  5
150
330
1F
100
AcDbEntity
  8
DIMENSION
100
AcDbSpline
210
0.0
220
0.0
230
1.0
 70
     8
 71
     3
 72
    23
 73
    19
 74
     0
 42
0.00000001
 43
0.0000000001
 40
0.0
 40
0.0
 40
0.0
 40
0.0
 40
0.0715705697985667
 40
0.1403948162403408
 40
0.2069794205324086
 40
0.271492185540423
 40
0.3338828929097227
 40
0.3945176717897665
 40
0.4534791592632006
 40
0.5118444559838497
 40
0.5696421502167813
 40
0.6270255956019253
 40
0.6854649230797682
 40
0.7448673526593842
 40
0.8057689385601749
 40
0.868098980459046
 40
0.9327313110767356
 40
1.0
 40
1.0
 40
1.0
 40
1.0
 10
-237.5177301274775
 20
256.0288335487812
 30
0.0
 10
-237.450915117506
 20
256.0273173561174
 30
0.0
 10
-237.3198489394185
 20
256.0243431505044
 30
0.0
 10
-237.1276489157122
 20
256.0020665219564
 30
0.0
 10
-236.9444921156205
 20
255.9651105406288
 30
0.0
 10
-236.7715336077627
 20
255.91209108098
 30
0.0
 10
-236.6093508848383
 20
255.8457517292813
 30
0.0
 10
-236.4577603960609
 20
255.7683970979748
 30
0.0
 10
-236.3195057697629
 20
255.6757524050829
 30
0.0
 10
-236.1923467834748
 20
255.5726328102884
 30
0.0
 10
-236.0785950569033
 20
255.4567608177003
 30
0.0
 10
-235.9788431417051
 20
255.3286602534624
 30
0.0
 10
-235.8916595342063
 20
255.1899454354383
 30
0.0
 10
-235.8185888362836
 20
255.0395457750973
 30
0.0
 10
-235.7618965989341
 20
254.8784613680476
 30
0.0
 10
-235.7193676333907
 20
254.7080473394867
 30
0.0
 10
-235.6954996413554
 20
254.5278942014132
 30
0.0
 10
-235.6918874587121
 20
254.4047808126446
 30
0.0
 10
-235.6900452683226
 20
254.3419937600487
 30
0.0
  0
SPLINE
  5
151
330
1F
100
AcDbEntity
  8
DIMENSION
100
AcDbSpline
210
0.0
220
0.0
230
1.0
 70
     8
 71
     3
 72
    23
 73
    19
 74
     0
 42
0.00000001
 43
0.0000000001
 40
0.0
 40
0.0
 40
0.0
 40
0.0
 40
0.0684670660128045
 40
0.1335938005298813
 40
0.1966508238765951
 40
0.2577382118685541
 40
0.3171862301338388
 40
0.3756557467039726
 40
0.4329850061466374
 40
0.4904819615177767
 40
0.5482996353660732
 40
0.6070689641529487
 40
0.6668643010851855
 40
0.7290058315474392
 40
0.7929616608749072
 40
0.8592028673315493
 40
0.9280172580985032
 40
1.0
 40
1.0
 40
1.0
 40
1.0
 10
-239.3520170993085
 20
254.3386927037107
 30
0.0
 10
-239.3508576020712
 20
254.4029848128668
 30
0.0
 10
-239.3485951764753
 20
254.5284323850561
 30
0.0
 10
-239.321592610079
 20
254.7113282095788
 30
0.0
 10
-239.2824365406181
 20
254.8848395452034
 30
0.0
 10
-239.2230426181736
 20
255.046968802997
 30
0.0
 10
-239.1504614869763
 20
255.1987037136235
 30
0.0
 10
-239.0635397546088
 20
255.3386841569252
 30
0.0
 10
-238.9626150637317
 20
255.4666428491336
 30
0.0
 10
-238.8474673753702
 20
255.5810549083614
 30
0.0
 10
-238.7202702334777
 20
255.6839558922385
 30
0.0
 10
-238.5812379140488
 20
255.7742447548409
 30
0.0
 10
-238.4302590973412
 20
255.8520549712788
 30
0.0
 10
-238.2673588243896
 20
255.9151785071563
 30
0.0
 10
-238.0939207297512
 20
255.9656294500828
 30
0.0
 10
-237.9108766689904
 20
256.0037833128662
 30
0.0
 10
-237.7173472151115
 20
256.0239406930728
 30
0.0
 10
-237.585259941222
 20
256.0271783115538
 30
0.0
 10
-237.5177301274775
 20
256.0288335487812
 30
0.0
  0
SPLINE
  5
152
330
1F
100
AcDbEntity
  8
DIMENSION
100
AcDbSpline
210
0.0
220
0.0
230
1.0
 70
     8
 71
     3
 72
    23
 73
    19
 74
     0
 42
0.00000001
 43
0.0000000001
 40
0.0
 40
0.0
 40
0.0
 40
0.0
 40
0.0721260180556316
 40
0.1411207571969745
 40
0.207493811719634
 40
0.2718016095177891
 40
0.3343569268820876
 40
0.3946338299600877
 40
0.453520134610722
 40
0.5116999955959782
 40
0.5695890347696429
 40
0.6270324037279409
 40
0.6852860602630228
 40
0.7448524052716765
 40
0.8060613830473311
 40
0.8684816525648624
 40
0.9329621977991223
 40
1.0
 40
1.0
 40
1.0
 40
1.0
 10
-237.5177301274775
 20
252.6485518586403
 30
0.0
 10
-237.5852791260182
 20
252.6500596998004
 30
0.0
 10
-237.7174445509084
 20
252.653009920705
 30
0.0
 10
-237.9107454886458
 20
252.6752411864155
 30
0.0
 10
-238.0943139301713
 20
252.7121889315625
 30
0.0
 10
-238.2673904240757
 20
252.7657276821946
 30
0.0
 10
-238.4304726155645
 20
252.8306493269154
 30
0.0
 10
-238.5806407089606
 20
252.911210855725
 30
0.0
 10
-238.7206809791861
 20
253.0009382514826
 30
0.0
 10
-238.8474704225303
 20
253.1052273120023
 30
0.0
 10
-238.9623495690275
 20
253.2205440363364
 30
0.0
 10
-239.0632211309295
 20
253.3484281528237
 30
0.0
 10
-239.1507707779311
 20
253.4876564960957
 30
0.0
 10
-239.2230245069022
 20
253.6392422746323
 30
0.0
 10
-239.2820767699251
 20
253.8006997635995
 30
0.0
 10
-239.3216529445085
 20
253.9726231003067
 30
0.0
 10
-239.3484773103669
 20
254.1526213300774
 30
0.0
 10
-239.3508219730365
 20
254.2758700917506
 30
0.0
 10
-239.3520170993085
 20
254.3386927037107
 30
0.0
  0
CIRCLE
  5
153
330
1F
100
AcDbEntity
  8
DIMENSION
100
AcDbCircle
 10
-238.5604678035
 20
269.3915096051
 30
0.0
 40
22.29999999999998
  0
LINE
  5
154
330
1F
100
AcDbEntity
  8
DIMENSION
100
AcDbLine
 10
-235.7604678035
 20
248.525312422
 30
0.0
 11
-240.7604678035
 21
248.525312422
 31
0.0
  0
LINE
  5
155
330
1F
100
AcDbEntity
  8
DIMENSION
100
AcDbLine
 10
-235.7604678035
 20
249.1591152389
 30
0.0
 11
-235.7604678035
 21
248.525312422
 31
0.0
  0
LINE
  5
156
330
1F
100
AcDbEntity
  8
DIMENSION
100
AcDbLine
 10
-238.0139889303
 20
249.1591152389
 30
0.0
 11
-235.7604678035
 21
249.1591152389
 31
0.0
  0
LINE
  5
157
330
1F
100
AcDbEntity
  8
DIMENSION
100
AcDbLine
 10
-238.0139889303
 20
251.6943265065
 30
0.0
 11
-238.0139889303
 21
249.1591152389
 31
0.0
  0
LINE
  5
158
330
1F
100
AcDbEntity
  8
DIMENSION
100
AcDbLine
 10
-235.7604678035
 20
251.6943265065
 30
0.0
 11
-238.0139889303
 21
251.6943265065
 31
0.0
  0
LINE
  5
159
330
1F
100
AcDbEntity
  8
DIMENSION
100
AcDbLine
 10
-235.7604678035
 20
252.3281293234
 30
0.0
 11
-235.7604678035
 21
251.6943265065
 31
0.0
  0
LINE
  5
15A
330
1F
100
AcDbEntity
  8
DIMENSION
100
AcDbLine
 10
-240.7604678035
 20
252.3281293234
 30
0.0
 11
-235.7604678035
 21
252.3281293234
 31
0.0
  0
LINE
  5
15B
330
1F
100
AcDbEntity
  8
DIMENSION
100
AcDbLine
 10
-240.7604678035
 20
251.6943265065
 30
0.0
 11
-240.7604678035
 21
252.3281293234
 31
0.0
  0
LINE
  5
15C
330
1F
100
AcDbEntity
  8
DIMENSION
100
AcDbLine
 10
-238.577369212
 20
251.6943265065
 30
0.0
 11
-240.7604678035
 21
251.6943265065
 31
0.0
  0
LINE
  5
15D
330
1F
100
AcDbEntity
  8
DIMENSION
100
AcDbLine
 10
-238.577369212
 20
249.1591152389
 30
0.0
 11
-238.577369212
 21
251.6943265065
 31
0.0
  0
LINE
  5
15E
330
1F
100
AcDbEntity
  8
DIMENSION
100
AcDbLine
 10
-240.7604678035
 20
249.1591152389
 30
0.0
 11
-238.577369212
 21
249.1591152389
 31
0.0
  0
LINE
  5
15F
330
1F
100
AcDbEntity
  8
DIMENSION
100
AcDbLine
 10
-240.7604678035
 20
248.525312422
 30
0.0
 11
-240.7604678035
 21
249.1591152389
 31
0.0
  0
SPLINE
  5
160
330
1F
100
AcDbEntity
  8
DIMENSION
100
AcDbSpline
210
0.0
220
0.0
230
1.0
 70
     8
 71
     3
 72
    23
 73
    19
 74
     0
 42
0.00000001
 43
0.0000000001
 40
0.0
 40
0.0
 40
0.0
 40
0.0
 40
0.0689529480650626
 40
0.1344891075364707
 40
0.1973287114948713
 40
0.2583541990446042
 40
0.3178700782251754
 40
0.3760743810687479
 40
0.4335357634991924
 40
0.4911010135453918
 40
0.5492315833602405
 40
0.607740361748315
 40
0.6679522071099166
 40
0.7299451585678877
 40
0.7939739945529824
 40
0.8602133954867399
 40
0.9287172645711535
 40
1.0
 40
1.0
 40
1.0
 40
1.0
 10
-235.6900452683226
 20
282.7786134783586
 30
0.0
 10
-235.6918651137123
 20
282.7139925722323
 30
0.0
 10
-235.6954146266655
 20
282.5879528852135
 30
0.0
 10
-235.7192840526424
 20
282.404142079345
 30
0.0
 10
-235.7617005544586
 20
282.2314679037246
 30
0.0
 10
-235.8186586897587
 20
282.0690228770465
 30
0.0
 10
-235.891302202073
 20
281.9176310292713
 30
0.0
 10
-235.9792385993377
 20
281.7786776583768
 30
0.0
 10
-236.0781848869651
 20
281.6495836932589
 30
0.0
 10
-236.1924396430109
 20
281.5337664984843
 30
0.0
 10
-236.3191843070451
 20
281.4304550657187
 30
0.0
 10
-236.4578529034004
 20
281.3390250527646
 30
0.0
 10
-236.6094115179131
 20
281.2628233890194
 30
0.0
 10
-236.7713844137624
 20
281.1971935471291
 30
0.0
 10
-236.9447610572778
 20
281.1470767541906
 30
0.0
 10
-237.1276641885771
 20
281.1106698331087
 30
0.0
 10
-237.3199264579834
 20
281.0899927182285
 30
0.0
 10
-237.450927499283
 20
281.0867997818724
 30
0.0
 10
-237.5177301274775
 20
281.0851715769502
 30
0.0
  0
SPLINE
  5
161
330
1F
100
AcDbEntity
  8
DIMENSION
100
AcDbSpline
210
0.0
220
0.0
230
1.0
 70
     8
 71
     3
 72
    23
 73
    19
 74
     0
 42
0.00000001
 43
0.0000000001
 40
0.0
 40
0.0
 40
0.0
 40
0.0
 40
0.0715705697985667
 40
0.1403948162403408
 40
0.2069794205324086
 40
0.2714921855404227
 40
0.3338828929097224
 40
0.3945176717897664
 40
0.4534791592632008
 40
0.5118444559838493
 40
0.5696421502167812
 40
0.6270255956019247
 40
0.6854649230797679
 40
0.7448673526593836
 40
0.8057689385601747
 40
0.8680989804590453
 40
0.9327313110767352
 40
1.0
 40
1.0
 40
1.0
 40
1.0
 10
-237.5177301274775
 20
284.465453267091
 30
0.0
 10
-237.450915117506
 20
284.4639370744272
 30
0.0
 10
-237.3198489394185
 20
284.4609628688143
 30
0.0
 10
-237.1276489157122
 20
284.4386862402662
 30
0.0
 10
-236.9444921156205
 20
284.4017302589386
 30
0.0
 10
-236.7715336077627
 20
284.3487107992898
 30
0.0
 10
-236.6093508848383
 20
284.2823714475912
 30
0.0
 10
-236.4577603960609
 20
284.2050168162847
 30
0.0
 10
-236.3195057697629
 20
284.1123721233927
 30
0.0
 10
-236.1923467834748
 20
284.0092525285983
 30
0.0
 10
-236.0785950569033
 20
283.8933805360101
 30
0.0
 10
-235.9788431417051
 20
283.7652799717723
 30
0.0
 10
-235.8916595342063
 20
283.6265651537481
 30
0.0
 10
-235.8185888362836
 20
283.4761654934071
 30
0.0
 10
-235.7618965989341
 20
283.3150810863575
 30
0.0
 10
-235.7193676333907
 20
283.1446670577965
 30
0.0
 10
-235.6954996413554
 20
282.9645139197231
 30
0.0
 10
-235.6918874587121
 20
282.8414005309544
 30
0.0
 10
-235.6900452683226
 20
282.7786134783586
 30
0.0
  0
SPLINE
  5
162
330
1F
100
AcDbEntity
  8
DIMENSION
100
AcDbSpline
210
0.0
220
0.0
230
1.0
 70
     8
 71
     3
 72
    23
 73
    19
 74
     0
 42
0.00000001
 43
0.0000000001
 40
0.0
 40
0.0
 40
0.0
 40
0.0
 40
0.0684670660128052
 40
0.1335938005298813
 40
0.1966508238765957
 40
0.2577382118685541
 40
0.3171862301338395
 40
0.3756557467039727
 40
0.4329850061466379
 40
0.4904819615177768
 40
0.5482996353660737
 40
0.6070689641529493
 40
0.6668643010851856
 40
0.7290058315474392
 40
0.7929616608749073
 40
0.8592028673315493
 40
0.9280172580985032
 40
1.0
 40
1.0
 40
1.0
 40
1.0
 10
-239.3520170993085
 20
282.7753124220206
 30
0.0
 10
-239.3508576020712
 20
282.8396045311766
 30
0.0
 10
-239.3485951764753
 20
282.965052103366
 30
0.0
 10
-239.321592610079
 20
283.1479479278887
 30
0.0
 10
-239.2824365406181
 20
283.3214592635132
 30
0.0
 10
-239.2230426181736
 20
283.4835885213068
 30
0.0
 10
-239.1504614869763
 20
283.6353234319333
 30
0.0
 10
-239.0635397546088
 20
283.775303875235
 30
0.0
 10
-238.9626150637317
 20
283.9032625674434
 30
0.0
 10
-238.8474673753702
 20
284.0176746266713
 30
0.0
 10
-238.7202702334777
 20
284.1205756105484
 30
0.0
 10
-238.5812379140488
 20
284.2108644731508
 30
0.0
 10
-238.4302590973412
 20
284.2886746895887
 30
0.0
 10
-238.2673588243896
 20
284.3517982254662
 30
0.0
 10
-238.0939207297511
 20
284.4022491683928
 30
0.0
 10
-237.9108766689904
 20
284.4404030311761
 30
0.0
 10
-237.7173472151115
 20
284.4605604113827
 30
0.0
 10
-237.585259941222
 20
284.4637980298637
 30
0.0
 10
-237.5177301274775
 20
284.465453267091
 30
0.0
  0
SPLINE
  5
163
330
1F
100
AcDbEntity
  8
DIMENSION
100
AcDbSpline
210
0.0
220
0.0
230
1.0
 70
     8
 71
     3
 72
    23
 73
    19
 74
     0
 42
0.00000001
 43
0.0000000001
 40
0.0
 40
0.0
 40
0.0
 40
0.0
 40
0.0721260180556316
 40
0.1411207571969745
 40
0.2074938117196341
 40
0.2718016095177889
 40
0.334356926882088
 40
0.3946338299600877
 40
0.4535201346107222
 40
0.5116999955959787
 40
0.5695890347696434
 40
0.6270324037279415
 40
0.6852860602630234
 40
0.7448524052716771
 40
0.8060613830473311
 40
0.8684816525648631
 40
0.9329621977991228
 40
1.0
 40
1.0
 40
1.0
 40
1.0
 10
-237.5177301274775
 20
281.0851715769502
 30
0.0
 10
-237.5852791260182
 20
281.0866794181102
 30
0.0
 10
-237.7174445509084
 20
281.0896296390149
 30
0.0
 10
-237.9107454886458
 20
281.1118609047254
 30
0.0
 10
-238.0943139301713
 20
281.1488086498723
 30
0.0
 10
-238.2673904240757
 20
281.2023474005044
 30
0.0
 10
-238.4304726155645
 20
281.2672690452253
 30
0.0
 10
-238.5806407089606
 20
281.3478305740349
 30
0.0
 10
-238.7206809791861
 20
281.4375579697925
 30
0.0
 10
-238.8474704225303
 20
281.5418470303121
 30
0.0
 10
-238.9623495690275
 20
281.6571637546463
 30
0.0
 10
-239.0632211309295
 20
281.7850478711335
 30
0.0
 10
-239.1507707779311
 20
281.9242762144055
 30
0.0
 10
-239.2230245069022
 20
282.0758619929422
 30
0.0
 10
-239.2820767699251
 20
282.2373194819093
 30
0.0
 10
-239.3216529445085
 20
282.4092428186166
 30
0.0
 10
-239.3484773103669
 20
282.5892410483873
 30
0.0
 10
-239.3508219730365
 20
282.7124898100604
 30
0.0
 10
-239.3520170993085
 20
282.7753124220206
 30
0.0
  0
LINE
  5
164
330
1F
100
AcDbEntity
  8
DIMENSION
100
AcDbLine
 10
-241.1125804796
 20
284.7154532671
 30
0.0
 11
-241.1125804796
 21
285.349256084
 31
0.0
  0
LINE
  5
165
330
1F
100
AcDbEntity
  8
DIMENSION
100
AcDbLine
 10
-235.7604678035
 20
284.7154532671
 30
0.0
 11
-241.1125804796
 21
284.7154532671
 31
0.0
  0
LINE
  5
166
330
1F
100
AcDbEntity
  8
DIMENSION
100
AcDbLine
 10
-235.7604678035
 20
285.349256084
 30
0.0
 11
-235.7604678035
 21
284.7154532671
 31
0.0
  0
LINE
  5
167
330
1F
100
AcDbEntity
  8
DIMENSION
100
AcDbLine
 10
-241.1125804796
 20
285.349256084
 30
0.0
 11
-235.7604678035
 21
285.349256084
 31
0.0
  0
CIRCLE
  5
168
330
1F
100
AcDbEntity
  8
DIMENSION
100
AcDbCircle
 10
-238.5604678035
 20
269.3915096051
 30
0.0
 40
22.5
  0
SPLINE
  5
169
330
1F
100
AcDbEntity
  8
DIMENSION
100
AcDbSpline
210
0.0
220
0.0
230
1.0
 70
     8
 71
     3
 72
    23
 73
    19
 74
     0
 42
0.00000001
 43
0.0000000001
 40
0.0
 40
0.0
 40
0.0
 40
0.0
 40
0.0808958638074065
 40
0.1575926187155473
 40
0.2303817954733441
 40
0.2999455692825423
 40
0.3663378096029008
 40
0.4299858427342925
 40
0.4906711221476965
 40
0.5494064719418946
 40
0.6066559021143411
 40
0.6623325649151549
 40
0.7175375967595528
 40
0.7726949455617182
 40
0.8280754538004227
 40
0.8840084955295493
 40
0.9414328824105899
 40
1.0
 40
1.0
 40
1.0
 40
1.0
 10
-237.5177301274775
 20
283.8316504501896
 30
0.0
 10
-237.5694980493693
 20
283.8310809575464
 30
0.0
 10
-237.6703467453645
 20
283.8299715332478
 30
0.0
 10
-237.8169205922473
 20
283.813409481325
 30
0.0
 10
-237.9552823388513
 20
283.790512057946
 30
0.0
 10
-238.0840560355651
 20
283.7544542936583
 30
0.0
 10
-238.2043826262806
 20
283.7116681993485
 30
0.0
 10
-238.3160558034654
 20
283.6619592477051
 30
0.0
 10
-238.4164764677942
 20
283.601368578344
 30
0.0
 10
-238.5086420519718
 20
283.5357513670735
 30
0.0
 10
-238.5902868746366
 20
283.461926629845
 30
0.0
 10
-238.6612050620355
 20
283.3808217493122
 30
0.0
 10
-238.7222823395602
 20
283.2936673573515
 30
0.0
 10
-238.7719374798093
 20
283.199679566028
 30
0.0
 10
-238.810078034282
 20
283.1000886182018
 30
0.0
 10
-238.8395010007642
 20
282.9960617276184
 30
0.0
 10
-238.8558455350746
 20
282.8869683616957
 30
0.0
 10
-238.8579810672649
 20
282.8127747167576
 30
0.0
 10
-238.8590593528296
 20
282.7753124220206
 30
0.0
  0
SPLINE
  5
16A
330
1F
100
AcDbEntity
  8
DIMENSION
100
AcDbSpline
210
0.0
220
0.0
230
1.0
 70
     8
 71
     3
 72
    23
 73
    19
 74
     0
 42
0.00000001
 43
0.0000000001
 40
0.0
 40
0.0
 40
0.0
 40
0.0
 40
0.0594026782440204
 40
0.1165127052690337
 40
0.1726942426059019
 40
0.227784309112108
 40
0.282678265884343
 40
0.3381285589824558
 40
0.3932397033755551
 40
0.4503177644752923
 40
0.5088481919635442
 40
0.5702991742146978
 40
0.6331833202830372
 40
0.6998705236448771
 40
0.7697433507741727
 40
0.8428559104583447
 40
0.9193205508097472
 40
1.0
 40
1.0
 40
1.0
 40
1.0
 10
-236.1830030148014
 20
282.7786134783586
 30
0.0
 10
-236.1840391411228
 20
282.8164477238263
 30
0.0
 10
-236.1860714043855
 20
282.8906559989674
 30
0.0
 10
-236.2027310446772
 20
282.9996977070276
 30
0.0
 10
-236.2317802825696
 20
283.1030936226936
 30
0.0
 10
-236.2701163356805
 20
283.201927452032
 30
0.0
 10
-236.3200940964991
 20
283.2949581400076
 30
0.0
 10
-236.3805074425684
 20
283.3815358859622
 30
0.0
 10
-236.4509740726243
 20
283.4619791098977
 30
0.0
 10
-236.5311958640001
 20
283.5356783635156
 30
0.0
 10
-236.6225725419436
 20
283.6020845466631
 30
0.0
 10
-236.7232104789914
 20
283.6609781142776
 30
0.0
 10
-236.8337096202598
 20
283.7123008676143
 30
0.0
 10
-236.9536619617082
 20
283.7543342451253
 30
0.0
 10
-237.0823614694239
 20
283.7905539959121
 30
0.0
 10
-237.2203881869025
 20
283.8133078927087
 30
0.0
 10
-237.3662074436795
 20
283.8299904102478
 30
0.0
 10
-237.4663274499552
 20
283.8310872969002
 30
0.0
 10
-237.5177301274775
 20
283.8316504501896
 30
0.0
  0
SPLINE
  5
16B
330
1F
100
AcDbEntity
  8
DIMENSION
100
AcDbSpline
210
0.0
220
0.0
230
1.0
 70
     8
 71
     3
 72
    23
 73
    19
 74
     0
 42
0.00000001
 43
0.0000000001
 40
0.0
 40
0.0
 40
0.0
 40
0.0
 40
0.0804629393412085
 40
0.1567223806251172
 40
0.2296387368222879
 40
0.2991747007569489
 40
0.3658786767369283
 40
0.4285940680962407
 40
0.4898801416497722
 40
0.5485945770709168
 40
0.6059094942364871
 40
0.6617425822144049
 40
0.7170440699511939
 40
0.7722977913325037
 40
0.8277750620612362
 40
0.8838058316835246
 40
0.941330552180841
 40
1.0
 40
1.0
 40
1.0
 40
1.0
 10
-237.5177301274775
 20
281.7189743938516
 30
0.0
 10
-237.4663312192762
 20
281.7195506368375
 30
0.0
 10
-237.3662185547279
 20
281.7206730190586
 30
0.0
 10
-237.2203471962888
 20
281.7371746034958
 30
0.0
 10
-237.0825992711391
 20
281.7605540354996
 30
0.0
 10
-236.9532236581077
 20
281.7945294314394
 30
0.0
 10
-236.8339544313896
 20
281.8386757408136
 30
0.0
 10
-236.7232219408771
 20
281.8896043650665
 30
0.0
 10
-236.6222201369642
 20
281.94844326945
 30
0.0
 10
-236.5312561950826
 20
282.0161780943242
 30
0.0
 10
-236.4504728973589
 20
282.0908388300708
 30
0.0
 10
-236.3812302041988
 20
282.1733671607228
 30
0.0
 10
-236.3196864159931
 20
282.2601801728385
 30
0.0
 10
-236.2701500643126
 20
282.3542674116139
 30
0.0
 10
-236.2319775093357
 20
282.4538315692477
 30
0.0
 10
-236.2025632474793
 20
282.5578657471725
 30
0.0
 10
-236.1862163462204
 20
282.6669571315326
 30
0.0
 10
-236.1840811371929
 20
282.7411510470162
 30
0.0
 10
-236.1830030148014
 20
282.7786134783586
 30
0.0
  0
SPLINE
  5
16C
330
1F
100
AcDbEntity
  8
DIMENSION
100
AcDbSpline
210
0.0
220
0.0
230
1.0
 70
     8
 71
     3
 72
    23
 73
    19
 74
     0
 42
0.00000001
 43
0.0000000001
 40
0.0
 40
0.0
 40
0.0
 40
0.0
 40
0.0585644061479977
 40
0.1159861344918397
 40
0.1719165867275437
 40
0.2272945310530892
 40
0.2824493262735522
 40
0.3376518023287003
 40
0.393325887505491
 40
0.4505726672405889
 40
0.5093052978048433
 40
0.5699877677137579
 40
0.6336328541760969
 40
0.7002174034805158
 40
0.7696288703536054
 40
0.8424146772411331
 40
0.9191078813725567
 40
1.0
 40
1.0
 40
1.0
 40
1.0
 10
-238.8590593528296
 20
282.7753124220206
 30
0.0
 10
-238.8579810671896
 20
282.7378501275028
 30
0.0
 10
-238.8558455348503
 20
282.6636564829995
 30
0.0
 10
-238.8395010016316
 20
282.5545631138938
 30
0.0
 10
-238.8100780311344
 20
282.4505362350164
 30
0.0
 10
-238.771937491422
 20
282.3509452441562
 30
0.0
 10
-238.7222822963816
 20
282.2569576125779
 30
0.0
 10
-238.6612052239444
 20
282.1698026226791
 30
0.0
 10
-238.5902862573562
 20
282.0887000138944
 30
0.0
 10
-238.5086444537015
 20
282.0148664746579
 30
0.0
 10
-238.4164671242987
 20
281.9492835069187
 30
0.0
 10
-238.3160926790185
 20
281.8885580846339
 30
0.0
 10
-238.2041204283669
 20
281.8393366130239
 30
0.0
 10
-238.0844979730746
 20
281.7944050393996
 30
0.0
 10
-237.9550435268615
 20
281.7605970878418
 30
0.0
 10
-237.8169622218024
 20
281.737071485787
 30
0.0
 10
-237.6703354317889
 20
281.7206924119199
 30
0.0
 10
-237.5694942117774
 20
281.7195571496903
 30
0.0
 10
-237.5177301274775
 20
281.7189743938516
 30
0.0
  0
SPLINE
  5
16D
330
1F
100
AcDbEntity
  8
DIMENSION
100
AcDbSpline
210
0.0
220
0.0
230
1.0
 70
     8
 71
     3
 72
    23
 73
    19
 74
     0
 42
0.00000001
 43
0.0000000001
 40
0.0
 40
0.0
 40
0.0
 40
0.0
 40
0.0791071815357346
 40
0.1543018793582743
 40
0.226533246697826
 40
0.2956053463555856
 40
0.3617871575631809
 40
0.4243957181373353
 40
0.484759468699443
 40
0.5426361188143908
 40
0.5991938833657942
 40
0.6538705193441055
 40
0.7086859656031902
 40
0.7640659392491917
 40
0.8200426423558727
 40
0.8772960699593872
 40
0.9375044513601743
 40
1.0
 40
1.0
 40
1.0
 40
1.0
 10
-237.4869202683226
 20
286.2330589008938
 30
0.0
 10
-237.4381130658818
 20
286.2339561437599
 30
0.0
 10
-237.3429125680683
 20
286.2357062536461
 30
0.0
 10
-237.2035647497035
 20
286.2478252411105
 30
0.0
 10
-237.0714463265911
 20
286.2683285890727
 30
0.0
 10
-236.9468984407494
 20
286.2983353821965
 30
0.0
 10
-236.8302783202542
 20
286.3349549716393
 30
0.0
 10
-236.7228925569007
 20
286.3809534549712
 30
0.0
 10
-236.6233842476853
 20
286.4317827804425
 30
0.0
 10
-236.5336039753478
 20
286.4919242092744
 30
0.0
 10
-236.4530348554493
 20
286.5585689265848
 30
0.0
 10
-236.3828799880691
 20
286.6335553473442
 30
0.0
 10
-236.3218505832556
 20
286.715224400135
 30
0.0
 10
-236.2712396117658
 20
286.8046598115571
 30
0.0
 10
-236.2309702005924
 20
286.9009377103274
 30
0.0
 10
-236.2042391448493
 20
287.0047606784321
 30
0.0
 10
-236.1856334847598
 20
287.1145080845808
 30
0.0
 10
-236.1838906666696
 20
287.1902835919539
 30
0.0
 10
-236.1830030148014
 20
287.2288775628657
 30
0.0
  0
LINE
  5
16E
330
1F
100
AcDbEntity
  8
DIMENSION
100
AcDbLine
 10
-236.6561544233
 20
288.1344673516
 30
0.0
 11
-238.4662336486
 21
288.1344673516
 31
0.0
  0
SPLINE
  5
16F
330
1F
100
AcDbEntity
  8
DIMENSION
100
AcDbSpline
210
0.0
220
0.0
230
1.0
 70
     8
 71
     3
 72
    15
 73
    11
 74
     0
 42
0.00000001
 43
0.0000000001
 40
0.0
 40
0.0
 40
0.0
 40
0.0
 40
0.1233379760888705
 40
0.2459524987086327
 40
0.3691539310528704
 40
0.4942197732102671
 40
0.6196455868753141
 40
0.74390130863644
 40
0.8704484024727118
 40
1.0
 40
1.0
 40
1.0
 40
1.0
 10
-238.4662336486043
 20
288.1344673515981
 30
0.0
 10
-238.4950185514391
 20
288.1048844703106
 30
0.0
 10
-238.5524195158605
 20
288.0458922296207
 30
0.0
 10
-238.6288592126866
 20
287.9485151108897
 30
0.0
 10
-238.6944223044492
 20
287.8430267493555
 30
0.0
 10
-238.7532299212455
 20
287.7325641360263
 30
0.0
 10
-238.8005101090187
 20
287.6161961634668
 30
0.0
 10
-238.835331603744
 20
287.4949992648105
 30
0.0
 10
-238.8552823757664
 20
287.368922941012
 30
0.0
 10
-238.8577905519849
 20
287.2832301471367
 30
0.0
 10
-238.8590593528296
 20
287.2398810839924
 30
0.0
  0
SPLINE
  5
170
330
1F
100
AcDbEntity
  8
DIMENSION
100
AcDbSpline
210
0.0
220
0.0
230
1.0
 70
     8
 71
     3
 72
    21
 73
    17
 74
     0
 42
0.00000001
 43
0.0000000001
 40
0.0
 40
0.0
 40
0.0
 40
0.0
 40
0.086090793916762
 40
0.1788784910642852
 40
0.2275990434098115
 40
0.277331319340996
 40
0.3299099199766911
 40
0.3852542915939413
 40
0.4432212305583342
 40
0.5046472405658752
 40
0.5710389575484398
 40
0.641973047295597
 40
0.7189479148849485
 40
0.8039010995592617
 40
0.8975461277670923
 40
1.0
 40
1.0
 40
1.0
 40
1.0
 10
-238.8590593528296
 20
287.2398810839924
 30
0.0
 10
-238.855691470082
 20
287.1849958966297
 30
0.0
 10
-238.8486937208854
 20
287.070956066695
 30
0.0
 10
-238.8106697083232
 20
286.9297177421373
 30
0.0
 10
-238.7637341031863
 20
286.8170209360062
 30
0.0
 10
-238.7156790987719
 20
286.7332127211747
 30
0.0
 10
-238.6546156109322
 20
286.6530830034316
 30
0.0
 10
-238.5819890244975
 20
286.5759265347054
 30
0.0
 10
-238.4966553579045
 20
286.5038545887042
 30
0.0
 10
-238.3973377492081
 20
286.43887906022
 30
0.0
 10
-238.2851620707558
 20
286.3795354127011
 30
0.0
 10
-238.1585386958153
 20
286.3276676920492
 30
0.0
 10
-238.0163487975863
 20
286.2840427870487
 30
0.0
 10
-237.8558946695325
 20
286.2538972804446
 30
0.0
 10
-237.6772770450642
 20
286.2370502432225
 30
0.0
 10
-237.5522446955865
 20
286.2344286033867
 30
0.0
 10
-237.4869202683226
 20
286.2330589008938
 30
0.0
  0
SPLINE
  5
171
330
1F
100
AcDbEntity
  8
DIMENSION
100
AcDbSpline
210
0.0
220
0.0
230
1.0
 70
     8
 71
     3
 72
    15
 73
    11
 74
     0
 42
0.00000001
 43
0.0000000001
 40
0.0
 40
0.0
 40
0.0
 40
0.0
 40
0.1600740729339318
 40
0.3079590451752296
 40
0.447160854568503
 40
0.577071584591111
 40
0.6998919710751692
 40
0.8122545523604266
 40
0.9135218881488203
 40
1.0
 40
1.0
 40
1.0
 40
1.0
 10
-236.1830030148014
 20
287.2288775628657
 30
0.0
 10
-236.1851237947967
 20
287.285584437227
 30
0.0
 10
-236.1892038645444
 20
287.3946801487506
 30
0.0
 10
-236.2259843969188
 20
287.5495072902714
 30
0.0
 10
-236.2800969592629
 20
287.6871408626763
 30
0.0
 10
-236.3469206947375
 20
287.8089752252916
 30
0.0
 10
-236.4207970892134
 20
287.9152725100917
 30
0.0
 10
-236.5002458664838
 20
288.0042097214612
 30
0.0
 10
-236.5784249883648
 20
288.0763472668199
 30
0.0
 10
-236.6316419605856
 20
288.1161388199373
 30
0.0
 10
-236.6561544232522
 20
288.1344673515981
 30
0.0
  0
SPLINE
  5
172
330
1F
100
AcDbEntity
  8
DIMENSION
100
AcDbSpline
210
0.0
220
0.0
230
1.0
 70
     8
 71
     3
 72
    23
 73
    19
 74
     0
 42
0.00000001
 43
0.0000000001
 40
0.0
 40
0.0
 40
0.0
 40
0.0
 40
0.0585644061479977
 40
0.1159861344918387
 40
0.1719165867275436
 40
0.2272945310530891
 40
0.2824493262735529
 40
0.3376518023287003
 40
0.3933258875054902
 40
0.4505726672405886
 40
0.509305297804843
 40
0.5699877677137583
 40
0.6336328541760967
 40
0.7002174034805157
 40
0.7696288703536056
 40
0.8424146772411329
 40
0.9191078813725567
 40
1.0
 40
1.0
 40
1.0
 40
1.0
 10
-238.8590593528296
 20
254.3386927037107
 30
0.0
 10
-238.8579810671896
 20
254.3012304091931
 30
0.0
 10
-238.8558455348503
 20
254.2270367646897
 30
0.0
 10
-238.8395010016316
 20
254.1179433955839
 30
0.0
 10
-238.8100780311344
 20
254.0139165167064
 30
0.0
 10
-238.771937491422
 20
253.9143255258463
 30
0.0
 10
-238.7222822963816
 20
253.8203378942681
 30
0.0
 10
-238.6612052239444
 20
253.7331829043692
 30
0.0
 10
-238.5902862573562
 20
253.6520802955845
 30
0.0
 10
-238.5086444537015
 20
253.5782467563481
 30
0.0
 10
-238.4164671242987
 20
253.5126637886088
 30
0.0
 10
-238.3160926790185
 20
253.451938366324
 30
0.0
 10
-238.2041204283669
 20
253.402716894714
 30
0.0
 10
-238.0844979730746
 20
253.3577853210898
 30
0.0
 10
-237.9550435268615
 20
253.3239773695319
 30
0.0
 10
-237.8169622218024
 20
253.3004517674771
 30
0.0
 10
-237.6703354317889
 20
253.28407269361
 30
0.0
 10
-237.5694942117774
 20
253.2829374313805
 30
0.0
 10
-237.5177301274775
 20
253.2823546755417
 30
0.0
  0
SPLINE
  5
173
330
1F
100
AcDbEntity
  8
DIMENSION
100
AcDbSpline
210
0.0
220
0.0
230
1.0
 70
     8
 71
     3
 72
    23
 73
    19
 74
     0
 42
0.00000001
 43
0.0000000001
 40
0.0
 40
0.0
 40
0.0
 40
0.0
 40
0.0594026782440204
 40
0.1165127052690346
 40
0.172694242605902
 40
0.2277843091121079
 40
0.282678265884343
 40
0.3381285589824558
 40
0.3932397033755551
 40
0.4503177644752923
 40
0.5088481919635446
 40
0.5702991742146978
 40
0.6331833202830376
 40
0.6998705236448776
 40
0.7697433507741727
 40
0.8428559104583447
 40
0.9193205508097472
 40
1.0
 40
1.0
 40
1.0
 40
1.0
 10
-236.1830030148014
 20
254.3419937600487
 30
0.0
 10
-236.1840391411228
 20
254.3798280055164
 30
0.0
 10
-236.1860714043855
 20
254.4540362806575
 30
0.0
 10
-236.2027310446772
 20
254.5630779887177
 30
0.0
 10
-236.2317802825696
 20
254.6664739043837
 30
0.0
 10
-236.2701163356805
 20
254.7653077337221
 30
0.0
 10
-236.3200940964991
 20
254.8583384216977
 30
0.0
 10
-236.3805074425684
 20
254.9449161676523
 30
0.0
 10
-236.4509740726243
 20
255.0253593915878
 30
0.0
 10
-236.5311958640001
 20
255.0990586452057
 30
0.0
 10
-236.6225725419437
 20
255.1654648283531
 30
0.0
 10
-236.7232104789914
 20
255.2243583959679
 30
0.0
 10
-236.8337096202598
 20
255.2756811493044
 30
0.0
 10
-236.9536619617082
 20
255.3177145268155
 30
0.0
 10
-237.0823614694239
 20
255.3539342776023
 30
0.0
 10
-237.2203881869025
 20
255.3766881743989
 30
0.0
 10
-237.3662074436795
 20
255.3933706919379
 30
0.0
 10
-237.4663274499552
 20
255.3944675785903
 30
0.0
 10
-237.5177301274775
 20
255.3950307318798
 30
0.0
  0
SPLINE
  5
174
330
1F
100
AcDbEntity
  8
DIMENSION
100
AcDbSpline
210
0.0
220
0.0
230
1.0
 70
     8
 71
     3
 72
    23
 73
    19
 74
     0
 42
0.00000001
 43
0.0000000001
 40
0.0
 40
0.0
 40
0.0
 40
0.0
 40
0.0808958638074065
 40
0.1575926187155473
 40
0.2303817954733442
 40
0.2999455692825418
 40
0.3663378096029004
 40
0.4299858427342925
 40
0.4906711221476959
 40
0.5494064719418946
 40
0.6066559021143411
 40
0.6623325649151549
 40
0.7175375967595528
 40
0.7726949455617174
 40
0.8280754538004236
 40
0.8840084955295493
 40
0.9414328824105886
 40
1.0
 40
1.0
 40
1.0
 40
1.0
 10
-237.5177301274775
 20
255.3950307318798
 30
0.0
 10
-237.5694980493693
 20
255.3944612392366
 30
0.0
 10
-237.6703467453645
 20
255.3933518149379
 30
0.0
 10
-237.8169205922473
 20
255.3767897630152
 30
0.0
 10
-237.9552823388513
 20
255.3538923396361
 30
0.0
 10
-238.0840560355651
 20
255.3178345753484
 30
0.0
 10
-238.2043826262806
 20
255.2750484810387
 30
0.0
 10
-238.3160558034654
 20
255.2253395293951
 30
0.0
 10
-238.4164764677942
 20
255.1647488600341
 30
0.0
 10
-238.5086420519718
 20
255.0991316487637
 30
0.0
 10
-238.5902868746366
 20
255.0253069115351
 30
0.0
 10
-238.6612050620355
 20
254.9442020310023
 30
0.0
 10
-238.7222823395602
 20
254.8570476390417
 30
0.0
 10
-238.7719374798093
 20
254.7630598477181
 30
0.0
 10
-238.810078034282
 20
254.6634688998919
 30
0.0
 10
-238.8395010007642
 20
254.5594420093085
 30
0.0
 10
-238.8558455350746
 20
254.4503486433858
 30
0.0
 10
-238.8579810672649
 20
254.3761549984478
 30
0.0
 10
-238.8590593528296
 20
254.3386927037107
 30
0.0
  0
SPLINE
  5
175
330
1F
100
AcDbEntity
  8
DIMENSION
100
AcDbSpline
210
0.0
220
0.0
230
1.0
 70
     8
 71
     3
 72
    23
 73
    19
 74
     0
 42
0.00000001
 43
0.0000000001
 40
0.0
 40
0.0
 40
0.0
 40
0.0
 40
0.0804629393412085
 40
0.1567223806251174
 40
0.2296387368222878
 40
0.299174700756949
 40
0.3658786767369284
 40
0.4285940680962405
 40
0.4898801416497724
 40
0.5485945770709171
 40
0.6059094942364879
 40
0.6617425822144051
 40
0.7170440699511941
 40
0.7722977913325046
 40
0.8277750620612355
 40
0.8838058316835248
 40
0.9413305521808423
 40
1.0
 40
1.0
 40
1.0
 40
1.0
 10
-237.5177301274775
 20
253.2823546755417
 30
0.0
 10
-237.4663312192762
 20
253.2829309185276
 30
0.0
 10
-237.3662185547279
 20
253.2840533007487
 30
0.0
 10
-237.2203471962888
 20
253.3005548851858
 30
0.0
 10
-237.0825992711391
 20
253.3239343171898
 30
0.0
 10
-236.9532236581077
 20
253.3579097131294
 30
0.0
 10
-236.8339544313896
 20
253.4020560225038
 30
0.0
 10
-236.7232219408771
 20
253.4529846467567
 30
0.0
 10
-236.6222201369642
 20
253.5118235511401
 30
0.0
 10
-236.5312561950826
 20
253.5795583760143
 30
0.0
 10
-236.4504728973589
 20
253.6542191117609
 30
0.0
 10
-236.3812302041988
 20
253.7367474424129
 30
0.0
 10
-236.3196864159931
 20
253.8235604545286
 30
0.0
 10
-236.2701500643126
 20
253.917647693304
 30
0.0
 10
-236.2319775093357
 20
254.0172118509378
 30
0.0
 10
-236.2025632474793
 20
254.1212460288626
 30
0.0
 10
-236.1862163462205
 20
254.2303374132227
 30
0.0
 10
-236.184081137193
 20
254.3045313287062
 30
0.0
 10
-236.1830030148014
 20
254.3419937600487
 30
0.0
  0
LINE
  5
176
330
1F
100
AcDbEntity
  8
DIMENSION
100
AcDbLine
 10
-177.0604678035
 20
269.3915096051
 30
0.0
 11
-177.0604678035
 21
273.3915096051
 31
0.0
  0
LINE
  5
177
330
1F
100
AcDbEntity
  8
DIMENSION
100
AcDbLine
 10
-177.0604678035
 20
265.3915096051
 30
0.0
 11
-177.0604678035
 21
269.3915096051
 31
0.0
  0
ARC
  5
178
330
1F
100
AcDbEntity
  8
DIMENSION
100
AcDbCircle
 10
-238.5604678035
 20
269.3015096050999
 30
0.0
 40
48.49999999999999
100
AcDbArc
 50
15.1801995768
 51
344.8198004232
  0
DIMENSION
  5
179
102
{ACAD_XDICTIONARY
360
208
102
}
330
1F
100
AcDbEntity
  8
DIMENSION
100
AcDbDimension
280
     0
  2
*D14
 10
-17.3104921938
 20
358.3015096051
 30
0.0
 11
-137.5780915862
 21
358.3015096051
 31
0.0
 70
   160
  1
<>
 71
     2
 42
243.5499756097
 73
     0
 74
     0
 75
     0
  3
RG Dimension Lines
100
AcDbAlignedDimension
 13
-260.8604678035
 23
269.3915096051
 33
0.0
 14
-17.3104921938
 24
282.0015096051
 34
0.0
100
AcDbRotatedDimension
1001
AcadAnnotative
1000
AnnotativeData
1002
{
1070
     1
1070
     1
1002
}
1001
ACAD
1000
DSTYLE
1002
{
1070
    45
1040
5.0
1002
}
  0
DIMENSION
  5
1F0
102
{ACAD_XDICTIONARY
360
29B
102
}
330
1F
100
AcDbEntity
  8
DIMENSION
100
AcDbDimension
280
     0
  2
*D22
 10
-172.0586828860452
 20
-769.3900573455004
 30
0.0
 11
-161.3920162193787
 21
-781.8900573455002
 31
0.0
 70
    32
 71
     5
 42
25.00000000000011
 73
     0
 74
     0
 75
     0
  3
RG Dimension Lines
100
AcDbAlignedDimension
 13
-189.5604678035
 23
-794.3900573455001
 33
0.0
 14
-190.0604678035
 24
-769.3900573454999
 34
0.0
 50
90.0
100
AcDbRotatedDimension
1001
AcadAnnotative
1000
AnnotativeData
1002
{
1070
     1
1070
     1
1002
}
  0
ENDSEC
  0
SECTION
  2
OBJECTS
  0
DICTIONARY
  5
C
330
0
100
AcDbDictionary
281
     1
  3
ACAD_CIP_PREVIOUS_PRODUCT_INFO
350
1C1
  3
ACAD_COLOR
350
1B6
  3
ACAD_DETAILVIEWSTYLE
350
1BD
  3
ACAD_GROUP
350
D
  3
ACAD_LAYOUT
350
1A
  3
ACAD_MATERIAL
350
184
  3
ACAD_MLEADERSTYLE
350
1B9
  3
ACAD_MLINESTYLE
350
17
  3
ACAD_PLOTSETTINGS
350
19
  3
ACAD_PLOTSTYLENAME
350
E
  3
ACAD_SCALELIST
350
47
  3
ACAD_SECTIONVIEWSTYLE
350
1BB
  3
ACAD_TABLESTYLE
350
1B7
  3
ACAD_VISUALSTYLE
350
19D
  3
ACDB_RECOMPOSE_DATA
350
2EC
  3
AcDbVariableDictionary
350
2E0
  0
DICTIONARY
  5
1D5
330
2
100
AcDbDictionary
280
     1
281
     1
  3
ACAD_LAYERSTATES
360
1D6
  0
DICTIONARY
  5
2D0
330
10
100
AcDbDictionary
280
     1
281
     1
  3
ADSK_XREC_LAYER_RECONCILED
360
2D1
  0
DICTIONARY
  5
2D2
330
73
100
AcDbDictionary
280
     1
281
     1
  3
ADSK_XREC_LAYER_RECONCILED
360
2D3
  0
DICTIONARY
  5
2D4
330
1CD
100
AcDbDictionary
280
     1
281
     1
  3
ADSK_XREC_LAYER_RECONCILED
360
2D5
  0
DICTIONARY
  5
240
330
AE
100
AcDbDictionary
280
     1
281
     1
  3
AcDbContextDataManager
360
241
  0
DICTIONARY
  5
232
330
BB
100
AcDbDictionary
280
     1
281
     1
  3
AcDbContextDataManager
360
233
  0
DICTIONARY
  5
224
330
C3
100
AcDbDictionary
280
     1
281
     1
  3
AcDbContextDataManager
360
225
  0
DICTIONARY
  5
216
330
CB
100
AcDbDictionary
280
     1
281
     1
  3
AcDbContextDataManager
360
217
  0
DICTIONARY
  5
286
330
104
100
AcDbDictionary
280
     1
281
     1
  3
AcDbContextDataManager
360
287
  0
DICTIONARY
  5
24E
330
10D
100
AcDbDictionary
280
     1
281
     1
  3
AcDbContextDataManager
360
24F
  0
DICTIONARY
  5
278
330
116
100
AcDbDictionary
280
     1
281
     1
  3
AcDbContextDataManager
360
279
  0
DICTIONARY
  5
208
330
179
100
AcDbDictionary
280
     1
281
     1
  3
AcDbContextDataManager
360
209
  0
DICTIONARY
  5
29B
330
1F0
100
AcDbDictionary
280
     1
281
     1
  3
AcDbContextDataManager
360
29C
  0
XRECORD
  5
1C1
102
{ACAD_REACTORS
330
C
102
}
330
C
100
AcDbXrecord
280
     1
300
ACD
300
2021
300

  0
DICTIONARY
  5
1B6
102
{ACAD_REACTORS
330
C
102
}
330
C
100
AcDbDictionary
281
     1
  0
DICTIONARY
  5
1BD
102
{ACAD_REACTORS
330
C
102
}
330
C
100
AcDbDictionary
281
     1
  3
Metric50
350
1BE
  0
DICTIONARY
  5
D
102
{ACAD_REACTORS
330
C
102
}
330
C
100
AcDbDictionary
281
     1
  0
DICTIONARY
  5
1A
102
{ACAD_REACTORS
330
C
102
}
330
C
100
AcDbDictionary
281
     1
  3
Layout1
350
1E
  3
Layout2
350
26
  3
Model
350
22
  0
DICTIONARY
  5
184
102
{ACAD_REACTORS
330
C
102
}
330
C
100
AcDbDictionary
281
     1
  3
ByBlock
350
18D
  3
ByLayer
350
185
  3
Global
350
195
  0
DICTIONARY
  5
1B9
102
{ACAD_REACTORS
330
C
102
}
330
C
100
AcDbDictionary
281
     1
  3
Standard
350
1BA
  0
DICTIONARY
  5
17
102
{ACAD_REACTORS
330
C
102
}
330
C
100
AcDbDictionary
281
     1
  3
Standard
350
18
  0
DICTIONARY
  5
19
102
{ACAD_REACTORS
330
C
102
}
330
C
100
AcDbDictionary
281
     1
  0
ACDBDICTIONARYWDFLT
  5
E
102
{ACAD_REACTORS
330
C
102
}
330
C
100
AcDbDictionary
281
     1
  3
Normal
350
F
100
AcDbDictionaryWithDefault
340
F
  0
DICTIONARY
  5
47
102
{ACAD_REACTORS
330
C
102
}
330
C
100
AcDbDictionary
281
     1
  3
A0
350
48
  3
A1
350
49
  3
A2
350
4A
  3
A3
350
4B
  3
A4
350
4C
  3
A5
350
4D
  3
A6
350
4E
  3
A7
350
4F
  3
A8
350
50
  3
A9
350
51
  3
B0
350
52
  3
B1
350
53
  3
B2
350
54
  3
B3
350
55
  3
B4
350
56
  3
B5
350
57
  3
B6
350
58
  3
B7
350
59
  3
B8
350
5A
  3
B9
350
5B
  3
C0
350
5C
  3
C1
350
5D
  3
C2
350
5E
  3
C3
350
5F
  3
C4
350
60
  3
C5
350
61
  3
C6
350
62
  3
C7
350
63
  3
C8
350
64
  3
C9
350
65
  3
D0
350
66
  3
D1
350
67
  3
D2
350
68
  0
DICTIONARY
  5
1BB
102
{ACAD_REACTORS
330
C
102
}
330
C
100
AcDbDictionary
281
     1
  3
Metric50
350
1BC
  0
DICTIONARY
  5
1B7
102
{ACAD_REACTORS
330
C
102
}
330
C
100
AcDbDictionary
281
     1
  3
Standard
350
1B8
  0
DICTIONARY
  5
19D
102
{ACAD_REACTORS
330
C
102
}
330
C
100
AcDbDictionary
281
     1
  3
2dWireframe
350
1A3
  3
Basic
350
1A2
  3
Brighten
350
1A9
  3
ColorChange
350
1AD
  3
Conceptual
350
1A6
  3
Dim
350
1A8
  3
EdgeColorOff
350
1B5
  3
Facepattern
350
1AC
  3
Flat
350
19E
  3
FlatWithEdges
350
19F
  3
Gouraud
350
1A0
  3
GouraudWithEdges
350
1A1
  3
Hidden
350
1A5
  3
JitterOff
350
1B3
  3
Linepattern
350
1AB
  3
OverhangOff
350
1B4
  3
Realistic
350
1A7
  3
Shaded
350
1B2
  3
Shaded with edges
350
1B1
  3
Shades of Gray
350
1AE
  3
Sketchy
350
1AF
  3
Thicken
350
1AA
  3
Wireframe
350
1A4
  3
X-Ray
350
1B0
  0
XRECORD
  5
2EC
102
{ACAD_REACTORS
330
C
102
}
330
C
100
AcDbXrecord
280
     1
 90
        1
330
1B8
  0
DICTIONARY
  5
2E0
102
{ACAD_REACTORS
330
C
102
}
330
C
100
AcDbDictionary
281
     1
  3
CANNOSCALE
350
2E6
  3
CMLEADERSTYLE
350
2E2
  3
CTABLESTYLE
350
2E1
  3
CVIEWDETAILSTYLE
350
2E3
  3
CVIEWSECTIONSTYLE
350
2E4
  3
LAYEREVAL
350
2E8
  3
LAYERNOTIFY
350
2E9
  3
LIGHTINGUNITS
350
2E7
  3
MSLTSCALE
350
2E5
  0
DICTIONARY
  5
1D6
102
{ACAD_REACTORS
330
1D5
102
}
330
1D5
100
AcDbDictionary
281
     1
  0
XRECORD
  5
2D1
102
{ACAD_REACTORS
330
2D0
102
}
330
2D0
100
AcDbXrecord
280
     1
290
     1
  0
XRECORD
  5
2D3
102
{ACAD_REACTORS
330
2D2
102
}
330
2D2
100
AcDbXrecord
280
     1
290
     1
  0
XRECORD
  5
2D5
102
{ACAD_REACTORS
330
2D4
102
}
330
2D4
100
AcDbXrecord
280
     1
290
     1
  0
DICTIONARY
  5
241
102
{ACAD_REACTORS
330
240
102
}
330
240
100
AcDbDictionary
281
     1
  3
ACDB_ANNOTATIONSCALES
350
242
  0
DICTIONARY
  5
233
102
{ACAD_REACTORS
330
232
102
}
330
232
100
AcDbDictionary
281
     1
  3
ACDB_ANNOTATIONSCALES
350
234
  0
DICTIONARY
  5
225
102
{ACAD_REACTORS
330
224
102
}
330
224
100
AcDbDictionary
281
     1
  3
ACDB_ANNOTATIONSCALES
350
226
  0
DICTIONARY
  5
217
102
{ACAD_REACTORS
330
216
102
}
330
216
100
AcDbDictionary
281
     1
  3
ACDB_ANNOTATIONSCALES
350
218
  0
DICTIONARY
  5
287
102
{ACAD_REACTORS
330
286
102
}
330
286
100
AcDbDictionary
281
     1
  3
ACDB_ANNOTATIONSCALES
350
288
  0
DICTIONARY
  5
24F
102
{ACAD_REACTORS
330
24E
102
}
330
24E
100
AcDbDictionary
281
     1
  3
ACDB_ANNOTATIONSCALES
350
250
  0
DICTIONARY
  5
279
102
{ACAD_REACTORS
330
278
102
}
330
278
100
AcDbDictionary
281
     1
  3
ACDB_ANNOTATIONSCALES
350
27A
  0
DICTIONARY
  5
209
102
{ACAD_REACTORS
330
208
102
}
330
208
100
AcDbDictionary
281
     1
  3
ACDB_ANNOTATIONSCALES
350
20A
  0
DICTIONARY
  5
29C
102
{ACAD_REACTORS
330
29B
102
}
330
29B
100
AcDbDictionary
281
     1
  3
ACDB_ANNOTATIONSCALES
350
29D
  0
ACDBDETAILVIEWSTYLE
  5
1BE
102
{ACAD_REACTORS
330
1BD
102
}
330
1BD
100
AcDbModelDocViewStyle
 70
     0
  3
Metric50
290
     0
300
Metric50
 90
        0
100
AcDbDetailViewStyle
 70
     0
 71
     0
 90
        3
 71
     1
340
11
 62
   256
 40
5.0
340
0
 62
   256
 40
5.0
300

 40
0.0
280
     1
 71
     2
340
16
 90
       25
 62
   256
 71
     3
340
11
 62
   256
 40
5.0
 90
        0
 40
15.0
 90
        1
300
%<\AcVar ViewDetailId>% (%<\AcVar ViewScale \f "%sn">%)
 71
     4
340
16
 90
       25
 62
   256
340
16
 90
       25
 62
   256
280
     0
  0
LAYOUT
  5
1E
102
{ACAD_REACTORS
330
1A
102
}
330
1A
100
AcDbPlotSettings
  1

  2
none_device
  4

  6

 40
0.0
 41
0.0
 42
0.0
 43
0.0
 44
0.0
 45
0.0
 46
0.0
 47
0.0
 48
0.0
 49
0.0
140
0.0
141
0.0
142
1.0
143
1.0
 70
   688
 72
     1
 73
     0
 74
     5
  7

 75
    16
147
1.0
 76
     0
 77
     2
 78
   300
148
0.0
149
0.0
100
AcDbLayout
  1
Layout1
 70
     1
 71
     1
 10
0.0
 20
0.0
 11
420.0
 21
297.0
 12
0.0
 22
0.0
 32
0.0
 14
1.000000000000000E+20
 24
1.000000000000000E+20
 34
1.000000000000000E+20
 15
-1.000000000000000E+20
 25
-1.000000000000000E+20
 35
-1.000000000000000E+20
146
0.0
 13
0.0
 23
0.0
 33
0.0
 16
1.0
 26
0.0
 36
0.0
 17
0.0
 27
1.0
 37
0.0
 76
     0
330
1B
  0
LAYOUT
  5
26
102
{ACAD_REACTORS
330
1A
102
}
330
1A
100
AcDbPlotSettings
  1

  2
none_device
  4

  6

 40
0.0
 41
0.0
 42
0.0
 43
0.0
 44
0.0
 45
0.0
 46
0.0
 47
0.0
 48
0.0
 49
0.0
140
0.0
141
0.0
142
1.0
143
1.0
 70
   688
 72
     1
 73
     0
 74
     5
  7

 75
    16
147
1.0
 76
     0
 77
     2
 78
   300
148
0.0
149
0.0
100
AcDbLayout
  1
Layout2
 70
     1
 71
     2
 10
0.0
 20
0.0
 11
0.0
 21
0.0
 12
0.0
 22
0.0
 32
0.0
 14
0.0
 24
0.0
 34
0.0
 15
0.0
 25
0.0
 35
0.0
146
0.0
 13
0.0
 23
0.0
 33
0.0
 16
1.0
 26
0.0
 36
0.0
 17
0.0
 27
1.0
 37
0.0
 76
     0
330
23
  0
LAYOUT
  5
22
102
{ACAD_REACTORS
330
1A
102
}
330
1A
100
AcDbPlotSettings
  1

  2
none_device
  4
Letter_(8.50_x_11.00_Inches)
  6

 40
6.349999999999999
 41
6.349999999999999
 42
6.350005079999999
 43
6.350005079999999
 44
215.9
 45
279.4
 46
0.0
 47
0.0
 48
0.0
 49
0.0
140
0.0
141
0.0
142
1.0
143
1.0
 70
  1712
 72
     1
 73
     0
 74
     0
  7

 75
     0
147
1.0
 76
     0
 77
     2
 78
   300
148
0.0
149
0.0
100
AcDbLayout
  1
Model
 70
     1
 71
     0
 10
0.0
 20
0.0
 11
420.0
 21
297.0
 12
0.0
 22
0.0
 32
0.0
 14
0.0
 24
0.0
 34
0.0
 15
420.0
 25
297.0
 35
0.0
146
0.0
 13
0.0
 23
0.0
 33
0.0
 16
1.0
 26
0.0
 36
0.0
 17
0.0
 27
1.0
 37
0.0
 76
     0
330
1F
331
29
  0
MATERIAL
  5
18D
102
{ACAD_XDICTIONARY
360
18E
102
}
102
{ACAD_REACTORS
330
184
102
}
330
184
100
AcDbMaterial
  1
ByBlock
 72
     0
 43
0.0008202099737533
 43
0.0
 43
0.0
 43
0.0
 43
0.0
 43
0.0008202099737533
 43
0.0
 43
0.0
 43
0.0
 43
0.0
 43
1.0
 43
0.0
 43
0.0
 43
0.0
 43
0.0
 43
1.0
 77
     0
 47
0.0008202099737533
 47
0.0
 47
0.0
 47
0.0
 47
0.0
 47
0.0008202099737533
 47
0.0
 47
0.0
 47
0.0
 47
0.0
 47
1.0
 47
0.0
 47
0.0
 47
0.0
 47
0.0
 47
1.0
171
     0
 49
0.0008202099737533
 49
0.0
 49
0.0
 49
0.0
 49
0.0
 49
0.0008202099737533
 49
0.0
 49
0.0
 49
0.0
 49
0.0
 49
1.0
 49
0.0
 49
0.0
 49
0.0
 49
0.0
 49
1.0
175
     0
142
0.0008202099737533
142
0.0
142
0.0
142
0.0
142
0.0
142
0.0008202099737533
142
0.0
142
0.0
142
0.0
142
0.0
142
1.0
142
0.0
142
0.0
142
0.0
142
0.0
142
1.0
179
     0
144
0.0008202099737533
144
0.0
144
0.0
144
0.0
144
0.0
144
0.0008202099737533
144
0.0
144
0.0
144
0.0
144
0.0
144
1.0
144
0.0
144
0.0
144
0.0
144
0.0
144
1.0
147
0.0008202099737533
147
0.0
147
0.0
147
0.0
147
0.0
147
0.0008202099737533
147
0.0
147
0.0
147
0.0
147
0.0
147
1.0
147
0.0
147
0.0
147
0.0
147
0.0
147
1.0
  0
MATERIAL
  5
185
102
{ACAD_XDICTIONARY
360
186
102
}
102
{ACAD_REACTORS
330
184
102
}
330
184
100
AcDbMaterial
  1
ByLayer
 72
     0
 43
0.0008202099737533
 43
0.0
 43
0.0
 43
0.0
 43
0.0
 43
0.0008202099737533
 43
0.0
 43
0.0
 43
0.0
 43
0.0
 43
1.0
 43
0.0
 43
0.0
 43
0.0
 43
0.0
 43
1.0
 77
     0
 47
0.0008202099737533
 47
0.0
 47
0.0
 47
0.0
 47
0.0
 47
0.0008202099737533
 47
0.0
 47
0.0
 47
0.0
 47
0.0
 47
1.0
 47
0.0
 47
0.0
 47
0.0
 47
0.0
 47
1.0
171
     0
 49
0.0008202099737533
 49
0.0
 49
0.0
 49
0.0
 49
0.0
 49
0.0008202099737533
 49
0.0
 49
0.0
 49
0.0
 49
0.0
 49
1.0
 49
0.0
 49
0.0
 49
0.0
 49
0.0
 49
1.0
175
     0
142
0.0008202099737533
142
0.0
142
0.0
142
0.0
142
0.0
142
0.0008202099737533
142
0.0
142
0.0
142
0.0
142
0.0
142
1.0
142
0.0
142
0.0
142
0.0
142
0.0
142
1.0
179
     0
144
0.0008202099737533
144
0.0
144
0.0
144
0.0
144
0.0
144
0.0008202099737533
144
0.0
144
0.0
144
0.0
144
0.0
144
1.0
144
0.0
144
0.0
144
0.0
144
0.0
144
1.0
147
0.0008202099737533
147
0.0
147
0.0
147
0.0
147
0.0
147
0.0008202099737533
147
0.0
147
0.0
147
0.0
147
0.0
147
1.0
147
0.0
147
0.0
147
0.0
147
0.0
147
1.0
  0
MATERIAL
  5
195
102
{ACAD_XDICTIONARY
360
196
102
}
102
{ACAD_REACTORS
330
184
102
}
330
184
100
AcDbMaterial
  1
Global
 72
     0
 43
0.0008202099737533
 43
0.0
 43
0.0
 43
0.0
 43
0.0
 43
0.0008202099737533
 43
0.0
 43
0.0
 43
0.0
 43
0.0
 43
1.0
 43
0.0
 43
0.0
 43
0.0
 43
0.0
 43
1.0
 77
     0
 47
0.0008202099737533
 47
0.0
 47
0.0
 47
0.0
 47
0.0
 47
0.0008202099737533
 47
0.0
 47
0.0
 47
0.0
 47
0.0
 47
1.0
 47
0.0
 47
0.0
 47
0.0
 47
0.0
 47
1.0
171
     0
 49
0.0008202099737533
 49
0.0
 49
0.0
 49
0.0
 49
0.0
 49
0.0008202099737533
 49
0.0
 49
0.0
 49
0.0
 49
0.0
 49
1.0
 49
0.0
 49
0.0
 49
0.0
 49
0.0
 49
1.0
175
     0
142
0.0008202099737533
142
0.0
142
0.0
142
0.0
142
0.0
142
0.0008202099737533
142
0.0
142
0.0
142
0.0
142
0.0
142
1.0
142
0.0
142
0.0
142
0.0
142
0.0
142
1.0
179
     0
144
0.0008202099737533
144
0.0
144
0.0
144
0.0
144
0.0
144
0.0008202099737533
144
0.0
144
0.0
144
0.0
144
0.0
144
1.0
144
0.0
144
0.0
144
0.0
144
0.0
144
1.0
147
0.0008202099737533
147
0.0
147
0.0
147
0.0
147
0.0
147
0.0008202099737533
147
0.0
147
0.0
147
0.0
147
0.0
147
1.0
147
0.0
147
0.0
147
0.0
147
0.0
147
1.0
  0
MLEADERSTYLE
  5
1BA
102
{ACAD_REACTORS
330
1B9
102
}
330
1B9
100
AcDbMLeaderStyle
179
     2
170
     2
171
     1
172
     0
 90
        2
 40
0.0
 41
0.0
173
     1
 91
-1056964608
340
14
 92
       -2
290
     1
 42
2.0
291
     1
 43
0.36
  3
Standard
 44
4.0
300

342
11
174
     1
178
     6
175
     1
176
     0
 93
-1056964608
 45
4.0
292
     0
297
     0
 46
4.0
 94
-1056964608
 47
1.0
 49
1.0
140
1.0
293
     1
141
0.0
294
     1
177
     0
142
1.0
295
     0
296
     0
143
0.125
271
     0
272
     9
273
     9
298
     0
  0
MLINESTYLE
  5
18
102
{ACAD_REACTORS
330
17
102
}
330
17
100
AcDbMlineStyle
  2
STANDARD
 70
     0
  3

 62
   256
 51
90.0
 52
90.0
 71
     2
 49
0.5
 62
   256
  6
BYLAYER
 49
-0.5
 62
   256
  6
BYLAYER
  0
ACDBPLACEHOLDER
  5
F
102
{ACAD_REACTORS
330
E
102
}
330
E
  0
SCALE
  5
48
102
{ACAD_REACTORS
330
47
102
}
330
47
100
AcDbScale
 70
     0
300
1:1
140
1.0
141
1.0
290
     1
  0
SCALE
  5
49
102
{ACAD_REACTORS
330
47
102
}
330
47
100
AcDbScale
 70
     0
300
1:2
140
1.0
141
2.0
290
     0
  0
SCALE
  5
4A
102
{ACAD_REACTORS
330
47
102
}
330
47
100
AcDbScale
 70
     0
300
1:4
140
1.0
141
4.0
290
     0
  0
SCALE
  5
4B
102
{ACAD_REACTORS
330
47
102
}
330
47
100
AcDbScale
 70
     0
300
1:5
140
1.0
141
5.0
290
     0
  0
SCALE
  5
4C
102
{ACAD_REACTORS
330
47
102
}
330
47
100
AcDbScale
 70
     0
300
1:8
140
1.0
141
8.0
290
     0
  0
SCALE
  5
4D
102
{ACAD_REACTORS
330
47
102
}
330
47
100
AcDbScale
 70
     0
300
1:10
140
1.0
141
10.0
290
     0
  0
SCALE
  5
4E
102
{ACAD_REACTORS
330
47
102
}
330
47
100
AcDbScale
 70
     0
300
1:16
140
1.0
141
16.0
290
     0
  0
SCALE
  5
4F
102
{ACAD_REACTORS
330
47
102
}
330
47
100
AcDbScale
 70
     0
300
1:20
140
1.0
141
20.0
290
     0
  0
SCALE
  5
50
102
{ACAD_REACTORS
330
47
102
}
330
47
100
AcDbScale
 70
     0
300
1:30
140
1.0
141
30.0
290
     0
  0
SCALE
  5
51
102
{ACAD_REACTORS
330
47
102
}
330
47
100
AcDbScale
 70
     0
300
1:40
140
1.0
141
40.0
290
     0
  0
SCALE
  5
52
102
{ACAD_REACTORS
330
47
102
}
330
47
100
AcDbScale
 70
     0
300
1:50
140
1.0
141
50.0
290
     0
  0
SCALE
  5
53
102
{ACAD_REACTORS
330
47
102
}
330
47
100
AcDbScale
 70
     0
300
1:100
140
1.0
141
100.0
290
     0
  0
SCALE
  5
54
102
{ACAD_REACTORS
330
47
102
}
330
47
100
AcDbScale
 70
     0
300
2:1
140
2.0
141
1.0
290
     0
  0
SCALE
  5
55
102
{ACAD_REACTORS
330
47
102
}
330
47
100
AcDbScale
 70
     0
300
4:1
140
4.0
141
1.0
290
     0
  0
SCALE
  5
56
102
{ACAD_REACTORS
330
47
102
}
330
47
100
AcDbScale
 70
     0
300
8:1
140
8.0
141
1.0
290
     0
  0
SCALE
  5
57
102
{ACAD_REACTORS
330
47
102
}
330
47
100
AcDbScale
 70
     0
300
10:1
140
10.0
141
1.0
290
     0
  0
SCALE
  5
58
102
{ACAD_REACTORS
330
47
102
}
330
47
100
AcDbScale
 70
     0
300
100:1
140
100.0
141
1.0
290
     0
  0
SCALE
  5
59
102
{ACAD_REACTORS
330
47
102
}
330
47
100
AcDbScale
 70
     0
300
1/128" = 1'-0"
140
0.0078125
141
12.0
290
     0
  0
SCALE
  5
5A
102
{ACAD_REACTORS
330
47
102
}
330
47
100
AcDbScale
 70
     0
300
1/64" = 1'-0"
140
0.015625
141
12.0
290
     0
  0
SCALE
  5
5B
102
{ACAD_REACTORS
330
47
102
}
330
47
100
AcDbScale
 70
     0
300
1/32" = 1'-0"
140
0.03125
141
12.0
290
     0
  0
SCALE
  5
5C
102
{ACAD_REACTORS
330
47
102
}
330
47
100
AcDbScale
 70
     0
300
1/16" = 1'-0"
140
0.0625
141
12.0
290
     0
  0
SCALE
  5
5D
102
{ACAD_REACTORS
330
47
102
}
330
47
100
AcDbScale
 70
     0
300
3/32" = 1'-0"
140
0.09375
141
12.0
290
     0
  0
SCALE
  5
5E
102
{ACAD_REACTORS
330
47
102
}
330
47
100
AcDbScale
 70
     0
300
1/8" = 1'-0"
140
0.125
141
12.0
290
     0
  0
SCALE
  5
5F
102
{ACAD_REACTORS
330
47
102
}
330
47
100
AcDbScale
 70
     0
300
3/16" = 1'-0"
140
0.1875
141
12.0
290
     0
  0
SCALE
  5
60
102
{ACAD_REACTORS
330
47
102
}
330
47
100
AcDbScale
 70
     0
300
1/4" = 1'-0"
140
0.25
141
12.0
290
     0
  0
SCALE
  5
61
102
{ACAD_REACTORS
330
47
102
}
330
47
100
AcDbScale
 70
     0
300
3/8" = 1'-0"
140
0.375
141
12.0
290
     0
  0
SCALE
  5
62
102
{ACAD_REACTORS
330
47
102
}
330
47
100
AcDbScale
 70
     0
300
1/2" = 1'-0"
140
0.5
141
12.0
290
     0
  0
SCALE
  5
63
102
{ACAD_REACTORS
330
47
102
}
330
47
100
AcDbScale
 70
     0
300
3/4" = 1'-0"
140
0.75
141
12.0
290
     0
  0
SCALE
  5
64
102
{ACAD_REACTORS
330
47
102
}
330
47
100
AcDbScale
 70
     0
300
1" = 1'-0"
140
1.0
141
12.0
290
     0
  0
SCALE
  5
65
102
{ACAD_REACTORS
330
47
102
}
330
47
100
AcDbScale
 70
     0
300
1-1/2" = 1'-0"
140
1.5
141
12.0
290
     0
  0
SCALE
  5
66
102
{ACAD_REACTORS
330
47
102
}
330
47
100
AcDbScale
 70
     0
300
3" = 1'-0"
140
3.0
141
12.0
290
     0
  0
SCALE
  5
67
102
{ACAD_REACTORS
330
47
102
}
330
47
100
AcDbScale
 70
     0
300
6" = 1'-0"
140
6.0
141
12.0
290
     0
  0
SCALE
  5
68
102
{ACAD_REACTORS
330
47
102
}
330
47
100
AcDbScale
 70
     0
300
1'-0" = 1'-0"
140
12.0
141
12.0
290
     0
  0
ACDBSECTIONVIEWSTYLE
  5
1BC
102
{ACAD_REACTORS
330
1BB
102
}
330
1BB
100
AcDbModelDocViewStyle
 70
     0
  3
Metric50
290
     0
300
Metric50
 90
        0
100
AcDbSectionViewStyle
 70
     0
 71
     0
 90
      102
 71
     1
340
11
 62
   256
 40
5.0
340
0
340
0
 62
   256
 40
5.0
300
I, O, Q, S, X, Z
 40
10.0
 90
        0
 40
2.5
 90
        0
 71
     2
340
16
 90
       25
 62
   256
340
16
 90
       50
 62
   256
 40
5.0
 40
2.5
 40
5.0
 71
     3
340
11
 62
   256
 40
5.0
 90
        0
 40
15.0
 90
        1
300
%<\AcVar ViewSectionStartId>%-%<\AcVar ViewSectionEndId>% (%<\AcVar ViewScale \f "%sn">%)
 71
     4
 62
   256
 62
   257
300
ANSI31
 40
1.0
 90
        0
290
     0
290
     0
 90
        6
 40
0.0
 40
1.570796326794896
 40
0.2617993877991494
 40
1.308996938995747
 40
-0.2617993877991494
 40
1.832595714594046
  0
TABLESTYLE
  5
1B8
102
{ACAD_XDICTIONARY
360
2EA
102
}
102
{ACAD_REACTORS
330
1B7
102
}
330
1B7
100
AcDbTableStyle
280
     0
  3
Standard
 70
     0
 71
     0
 40
1.5
 41
1.5
280
     0
281
     0
  7
Standard
140
4.5
170
     2
 62
     0
 63
     7
283
     0
 90
      512
 91
        0
  1

274
    -2
284
     1
 64
     0
275
    -2
285
     1
 65
     0
276
    -2
286
     1
 66
     0
277
    -2
287
     1
 67
     0
278
    -2
288
     1
 68
     0
279
    -2
289
     1
 69
     0
  7
Standard
140
6.0
170
     5
 62
     0
 63
     7
283
     0
 90
      512
 91
        0
  1

274
    -2
284
     1
 64
     0
275
    -2
285
     1
 65
     0
276
    -2
286
     1
 66
     0
277
    -2
287
     1
 67
     0
278
    -2
288
     1
 68
     0
279
    -2
289
     1
 69
     0
  7
Standard
140
4.5
170
     5
 62
     0
 63
     7
283
     0
 90
      512
 91
        0
  1

274
    -2
284
     1
 64
     0
275
    -2
285
     1
 65
     0
276
    -2
286
     1
 66
     0
277
    -2
287
     1
 67
     0
278
    -2
288
     1
 68
     0
279
    -2
289
     1
 69
     0
  0
VISUALSTYLE
  5
1A3
102
{ACAD_REACTORS
330
19D
102
}
330
19D
100
AcDbVisualStyle
  2
2dWireframe
 70
     4
177
     3
291
     0
 70
    58
 90
        0
176
     1
 90
        2
176
     1
 90
        0
176
     1
 90
        0
176
     1
 40
0.6
176
     1
 40
30.0
176
     1
 62
     7
420
 16777215
176
     1
 90
        1
176
     1
 90
        4
176
     1
 62
     7
176
     1
 62
   257
176
     1
 90
        1
176
     1
 90
        1
176
     1
 40
1.0
176
     1
 90
        0
176
     1
 62
   257
176
     1
 40
1.0
176
     1
 90
        1
176
     1
 90
        6
176
     1
 90
        2
176
     1
 62
     7
176
     1
 90
        5
176
     1
 90
        0
176
     1
 90
        0
176
     1
290
     0
176
     1
 90
        1
176
     1
 40
0.0
176
     1
 90
        0
176
     1
290
     1
176
     1
290
     1
176
     1
290
     0
176
     1
290
     0
176
     1
290
     0
176
     1
290
     0
176
     1
290
     0
176
     1
290
     0
176
     1
290
     0
176
     1
 90
       50
176
     1
 40
0.0
176
     1
 40
1.0
176
     1
 90
        0
176
     1
 62
    18
420
        0
176
     1
 90
       50
176
     1
 90
        3
176
     1
 62
     5
420
      255
176
     1
290
     0
176
     1
 90
       50
176
     1
 90
       50
176
     1
 90
       50
176
     1
290
     0
176
     1
 90
       50
176
     1
 62
   256
176
     0
 40
1.0
176
     0
 90
        2
176
     1
  1
strokes_ogs.tif
176
     1
290
     0
176
     1
 40
1.0
176
     1
 40
1.0
176
     1
  0
VISUALSTYLE
  5
1A2
102
{ACAD_REACTORS
330
19D
102
}
330
19D
100
AcDbVisualStyle
  2
Basic
 70
     7
177
     3
291
     1
 70
    58
 90
        1
176
     1
 90
        0
176
     1
 90
        1
176
     1
 90
        0
176
     1
 40
0.6
176
     1
 40
30.0
176
     1
 62
     7
420
 16777215
176
     1
 90
        0
176
     1
 90
        4
176
     1
 62
     7
176
     1
 62
   257
176
     1
 90
        1
176
     1
 90
        1
176
     1
 40
1.0
176
     1
 90
        8
176
     1
 62
     7
176
     1
 40
1.0
176
     1
 90
        1
176
     1
 90
        6
176
     1
 90
        2
176
     1
 62
     7
176
     1
 90
        5
176
     1
 90
        0
176
     1
 90
        0
176
     1
290
     0
176
     1
 90
        1
176
     1
 40
0.0
176
     1
 90
        0
176
     1
290
     0
176
     1
290
     1
176
     1
290
     1
176
     1
290
     0
176
     1
290
     0
176
     1
290
     0
176
     1
290
     0
176
     1
290
     0
176
     1
290
     0
176
     1
 90
       50
176
     1
 40
0.0
176
     1
 40
1.0
176
     1
 90
        0
176
     1
 62
    18
420
        0
176
     1
 90
       50
176
     1
 90
        3
176
     1
 62
     5
420
      255
176
     1
290
     0
176
     1
 90
       50
176
     1
 90
       50
176
     1
 90
       50
176
     1
290
     0
176
     1
 90
       50
176
     1
 62
   256
176
     0
 40
1.0
176
     0
 90
        2
176
     1
  1
strokes_ogs.tif
176
     1
290
     0
176
     1
 40
1.0
176
     1
 40
1.0
176
     1
  0
VISUALSTYLE
  5
1A9
102
{ACAD_REACTORS
330
19D
102
}
330
19D
100
AcDbVisualStyle
  2
Brighten
 70
    12
177
     3
291
     1
 70
    58
 90
        2
176
     1
 90
        2
176
     1
 90
        0
176
     1
 90
        0
176
     1
 40
0.6
176
     1
 40
30.0
176
     1
 62
     7
420
 16777215
176
     1
 90
        1
176
     1
 90
        4
176
     1
 62
     7
176
     1
 62
   257
176
     1
 90
        1
176
     1
 90
        1
176
     1
 40
1.0
176
     1
 90
        8
176
     1
 62
     7
176
     1
 40
1.0
176
     1
 90
        1
176
     1
 90
        6
176
     1
 90
        2
176
     1
 62
     7
176
     1
 90
        5
176
     1
 90
        0
176
     1
 90
        0
176
     1
290
     0
176
     1
 90
        1
176
     1
 40
50.0
176
     1
 90
        0
176
     1
290
     0
176
     1
290
     1
176
     1
290
     1
176
     1
290
     0
176
     1
290
     0
176
     1
290
     0
176
     1
290
     0
176
     1
290
     0
176
     1
290
     0
176
     1
 90
       50
176
     1
 40
0.0
176
     1
 40
1.0
176
     1
 90
        0
176
     1
 62
    18
420
        0
176
     1
 90
       50
176
     1
 90
        3
176
     1
 62
     5
420
      255
176
     1
290
     0
176
     1
 90
       50
176
     1
 90
       50
176
     1
 90
       50
176
     1
290
     0
176
     1
 90
       50
176
     1
 62
   256
176
     0
 40
1.0
176
     0
 90
        2
176
     1
  1
strokes_ogs.tif
176
     1
290
     0
176
     1
 40
1.0
176
     1
 40
1.0
176
     1
  0
VISUALSTYLE
  5
1AD
102
{ACAD_REACTORS
330
19D
102
}
330
19D
100
AcDbVisualStyle
  2
ColorChange
 70
    16
177
     3
291
     1
 70
    58
 90
        2
176
     1
 90
        2
176
     1
 90
        3
176
     1
 90
        0
176
     1
 40
0.6
176
     1
 40
30.0
176
     1
 62
     8
420
  8421504
176
     1
 90
        1
176
     1
 90
        4
176
     1
 62
     7
176
     1
 62
   257
176
     1
 90
        1
176
     1
 90
        1
176
     1
 40
1.0
176
     1
 90
        8
176
     1
 62
     8
420
  8421504
176
     1
 40
1.0
176
     1
 90
        1
176
     1
 90
        6
176
     1
 90
        2
176
     1
 62
     7
176
     1
 90
        5
176
     1
 90
        0
176
     1
 90
        0
176
     1
290
     0
176
     1
 90
        1
176
     1
 40
0.0
176
     1
 90
        0
176
     1
290
     0
176
     1
290
     1
176
     1
290
     1
176
     1
290
     0
176
     1
290
     0
176
     1
290
     0
176
     1
290
     0
176
     1
290
     0
176
     1
290
     0
176
     1
 90
       50
176
     1
 40
0.0
176
     1
 40
1.0
176
     1
 90
        0
176
     1
 62
    18
420
        0
176
     1
 90
       50
176
     1
 90
        3
176
     1
 62
     5
420
      255
176
     1
290
     0
176
     1
 90
       50
176
     1
 90
       50
176
     1
 90
       50
176
     1
290
     0
176
     1
 90
       50
176
     1
 62
   256
176
     0
 40
1.0
176
     0
 90
        2
176
     1
  1
strokes_ogs.tif
176
     1
290
     0
176
     1
 40
1.0
176
     1
 40
1.0
176
     1
  0
VISUALSTYLE
  5
1A6
102
{ACAD_REACTORS
330
19D
102
}
330
19D
100
AcDbVisualStyle
  2
Conceptual
 70
     9
177
     3
291
     0
 70
    58
 90
        3
176
     1
 90
        2
176
     1
 90
        0
176
     1
 90
        0
176
     1
 40
0.6
176
     1
 40
30.0
176
     1
 62
     7
420
 16777215
176
     1
 90
        2
176
     1
 90
        2
176
     1
 62
     7
176
     1
 62
   257
176
     1
 90
        1
176
     1
 90
        1
176
     1
 40
179.0
176
     1
 90
        8
176
     1
 62
     7
176
     1
 40
1.0
176
     1
 90
        1
176
     1
 90
        6
176
     1
 90
        2
176
     1
 62
     7
176
     1
 90
        3
176
     1
 90
        0
176
     1
 90
        0
176
     1
290
     0
176
     1
 90
        1
176
     1
 40
0.0
176
     1
 90
        0
176
     1
290
     0
176
     1
290
     1
176
     1
290
     1
176
     1
290
     0
176
     1
290
     0
176
     1
290
     0
176
     1
290
     0
176
     1
290
     0
176
     1
290
     0
176
     1
 90
       50
176
     1
 40
0.0
176
     1
 40
1.0
176
     1
 90
        0
176
     1
 62
    18
420
        0
176
     1
 90
       50
176
     1
 90
        3
176
     1
 62
     5
420
      255
176
     1
290
     0
176
     1
 90
       50
176
     1
 90
       50
176
     1
 90
       50
176
     1
290
     0
176
     1
 90
       50
176
     1
 62
   256
176
     0
 40
1.0
176
     0
 90
        2
176
     1
  1
strokes_ogs.tif
176
     1
290
     0
176
     1
 40
1.0
176
     1
 40
1.0
176
     1
  0
VISUALSTYLE
  5
1A8
102
{ACAD_REACTORS
330
19D
102
}
330
19D
100
AcDbVisualStyle
  2
Dim
 70
    11
177
     3
291
     1
 70
    58
 90
        2
176
     1
 90
        2
176
     1
 90
        0
176
     1
 90
        0
176
     1
 40
0.6
176
     1
 40
30.0
176
     1
 62
     7
420
 16777215
176
     1
 90
        1
176
     1
 90
        4
176
     1
 62
     7
176
     1
 62
   257
176
     1
 90
        1
176
     1
 90
        1
176
     1
 40
1.0
176
     1
 90
        8
176
     1
 62
     7
176
     1
 40
1.0
176
     1
 90
        1
176
     1
 90
        6
176
     1
 90
        2
176
     1
 62
     7
176
     1
 90
        5
176
     1
 90
        0
176
     1
 90
        0
176
     1
290
     0
176
     1
 90
        1
176
     1
 40
-50.0
176
     1
 90
        0
176
     1
290
     0
176
     1
290
     1
176
     1
290
     1
176
     1
290
     0
176
     1
290
     0
176
     1
290
     0
176
     1
290
     0
176
     1
290
     0
176
     1
290
     0
176
     1
 90
       50
176
     1
 40
0.0
176
     1
 40
1.0
176
     1
 90
        0
176
     1
 62
    18
420
        0
176
     1
 90
       50
176
     1
 90
        3
176
     1
 62
     5
420
      255
176
     1
290
     0
176
     1
 90
       50
176
     1
 90
       50
176
     1
 90
       50
176
     1
290
     0
176
     1
 90
       50
176
     1
 62
   256
176
     0
 40
1.0
176
     0
 90
        2
176
     1
  1
strokes_ogs.tif
176
     1
290
     0
176
     1
 40
1.0
176
     1
 40
1.0
176
     1
  0
VISUALSTYLE
  5
1B5
102
{ACAD_REACTORS
330
19D
102
}
330
19D
100
AcDbVisualStyle
  2
EdgeColorOff
 70
    22
177
     3
291
     1
 70
    58
 90
        2
176
     0
 90
        2
176
     0
 90
        0
176
     0
 90
        0
176
     0
 40
0.6
176
     0
 40
30.0
176
     0
 62
     7
420
 16777215
176
     0
 90
        1
176
     0
 90
        4
176
     0
 62
     7
176
     0
 62
   257
176
     0
 90
        1
176
     0
 90
        1
176
     0
 40
1.0
176
     0
 90
        8
176
     2
 62
     7
176
     0
 40
1.0
176
     0
 90
        1
176
     0
 90
        6
176
     0
 90
        2
176
     0
 62
     7
176
     0
 90
        5
176
     0
 90
        0
176
     0
 90
        0
176
     0
290
     0
176
     0
 90
        1
176
     0
 40
0.0
176
     0
 90
        0
176
     0
290
     0
176
     1
290
     1
176
     1
290
     1
176
     1
290
     0
176
     1
290
     0
176
     1
290
     0
176
     1
290
     0
176
     1
290
     0
176
     1
290
     0
176
     1
 90
       50
176
     0
 40
0.0
176
     0
 40
1.0
176
     0
 90
        0
176
     0
 62
    18
420
        0
176
     0
 90
       50
176
     0
 90
        3
176
     0
 62
     5
420
      255
176
     0
290
     0
176
     1
 90
       50
176
     0
 90
       50
176
     0
 90
       50
176
     0
290
     0
176
     1
 90
       50
176
     0
 62
   256
176
     0
 40
1.0
176
     0
 90
        2
176
     0
  1
strokes_ogs.tif
176
     0
290
     0
176
     1
 40
1.0
176
     0
 40
1.0
176
     0
  0
VISUALSTYLE
  5
1AC
102
{ACAD_REACTORS
330
19D
102
}
330
19D
100
AcDbVisualStyle
  2
Facepattern
 70
    15
177
     3
291
     1
 70
    58
 90
        2
176
     1
 90
        2
176
     1
 90
        0
176
     1
 90
        0
176
     1
 40
0.6
176
     1
 40
30.0
176
     1
 62
     7
420
 16777215
176
     1
 90
        1
176
     1
 90
        4
176
     1
 62
     7
176
     1
 62
   257
176
     1
 90
        1
176
     1
 90
        1
176
     1
 40
1.0
176
     1
 90
        8
176
     1
 62
     7
176
     1
 40
1.0
176
     1
 90
        1
176
     1
 90
        6
176
     1
 90
        2
176
     1
 62
     7
176
     1
 90
        5
176
     1
 90
        0
176
     1
 90
        0
176
     1
290
     0
176
     1
 90
        1
176
     1
 40
0.0
176
     1
 90
        0
176
     1
290
     0
176
     1
290
     1
176
     1
290
     1
176
     1
290
     0
176
     1
290
     0
176
     1
290
     0
176
     1
290
     0
176
     1
290
     0
176
     1
290
     0
176
     1
 90
       50
176
     1
 40
0.0
176
     1
 40
1.0
176
     1
 90
        0
176
     1
 62
    18
420
        0
176
     1
 90
       50
176
     1
 90
        3
176
     1
 62
     5
420
      255
176
     1
290
     0
176
     1
 90
       50
176
     1
 90
       50
176
     1
 90
       50
176
     1
290
     0
176
     1
 90
       50
176
     1
 62
   256
176
     0
 40
1.0
176
     0
 90
        2
176
     1
  1
strokes_ogs.tif
176
     1
290
     0
176
     1
 40
1.0
176
     1
 40
1.0
176
     1
  0
VISUALSTYLE
  5
19E
102
{ACAD_REACTORS
330
19D
102
}
330
19D
100
AcDbVisualStyle
  2
Flat
 70
     0
177
     3
291
     1
 70
    58
 90
        2
176
     1
 90
        1
176
     1
 90
        1
176
     1
 90
        2
176
     1
 40
0.6
176
     1
 40
30.0
176
     1
 62
     7
420
 16777215
176
     1
 90
        0
176
     1
 90
        0
176
     1
 62
     7
176
     1
 62
   257
176
     1
 90
        1
176
     1
 90
        1
176
     1
 40
1.0
176
     1
 90
        8
176
     1
 62
     7
176
     1
 40
1.0
176
     1
 90
        1
176
     1
 90
        6
176
     1
 90
        2
176
     1
 62
     7
176
     1
 90
        5
176
     1
 90
        0
176
     1
 90
        0
176
     1
290
     0
176
     1
 90
       13
176
     1
 40
0.0
176
     1
 90
        0
176
     1
290
     0
176
     1
290
     1
176
     1
290
     1
176
     1
290
     0
176
     1
290
     0
176
     1
290
     0
176
     1
290
     0
176
     1
290
     0
176
     1
290
     0
176
     1
 90
       50
176
     1
 40
0.0
176
     1
 40
1.0
176
     1
 90
        0
176
     1
 62
    18
420
        0
176
     1
 90
       50
176
     1
 90
        3
176
     1
 62
     5
420
      255
176
     1
290
     0
176
     1
 90
       50
176
     1
 90
       50
176
     1
 90
       50
176
     1
290
     0
176
     1
 90
       50
176
     1
 62
   256
176
     0
 40
1.0
176
     0
 90
        2
176
     1
  1
strokes_ogs.tif
176
     1
290
     0
176
     1
 40
1.0
176
     1
 40
1.0
176
     1
  0
VISUALSTYLE
  5
19F
102
{ACAD_REACTORS
330
19D
102
}
330
19D
100
AcDbVisualStyle
  2
FlatWithEdges
 70
     1
177
     3
291
     1
 70
    58
 90
        2
176
     1
 90
        1
176
     1
 90
        1
176
     1
 90
        2
176
     1
 40
0.6
176
     1
 40
30.0
176
     1
 62
     7
420
 16777215
176
     1
 90
        1
176
     1
 90
        0
176
     1
 62
     7
176
     1
 62
   257
176
     1
 90
        1
176
     1
 90
        1
176
     1
 40
1.0
176
     1
 90
        0
176
     1
 62
   257
176
     1
 40
1.0
176
     1
 90
        1
176
     1
 90
        6
176
     1
 90
        2
176
     1
 62
     7
176
     1
 90
        5
176
     1
 90
        0
176
     1
 90
        0
176
     1
290
     0
176
     1
 90
       13
176
     1
 40
0.0
176
     1
 90
        0
176
     1
290
     0
176
     1
290
     1
176
     1
290
     1
176
     1
290
     0
176
     1
290
     0
176
     1
290
     0
176
     1
290
     0
176
     1
290
     0
176
     1
290
     0
176
     1
 90
       50
176
     1
 40
0.0
176
     1
 40
1.0
176
     1
 90
        0
176
     1
 62
    18
420
        0
176
     1
 90
       50
176
     1
 90
        3
176
     1
 62
     5
420
      255
176
     1
290
     0
176
     1
 90
       50
176
     1
 90
       50
176
     1
 90
       50
176
     1
290
     0
176
     1
 90
       50
176
     1
 62
   256
176
     0
 40
1.0
176
     0
 90
        2
176
     1
  1
strokes_ogs.tif
176
     1
290
     0
176
     1
 40
1.0
176
     1
 40
1.0
176
     1
  0
VISUALSTYLE
  5
1A0
102
{ACAD_REACTORS
330
19D
102
}
330
19D
100
AcDbVisualStyle
  2
Gouraud
 70
     2
177
     3
291
     1
 70
    58
 90
        2
176
     1
 90
        2
176
     1
 90
        1
176
     1
 90
        2
176
     1
 40
0.6
176
     1
 40
30.0
176
     1
 62
     7
420
 16777215
176
     1
 90
        0
176
     1
 90
        0
176
     1
 62
     7
176
     1
 62
   257
176
     1
 90
        1
176
     1
 90
        1
176
     1
 40
1.0
176
     1
 90
        0
176
     1
 62
     7
176
     1
 40
1.0
176
     1
 90
        1
176
     1
 90
        6
176
     1
 90
        2
176
     1
 62
     7
176
     1
 90
        5
176
     1
 90
        0
176
     1
 90
        0
176
     1
290
     0
176
     1
 90
       13
176
     1
 40
0.0
176
     1
 90
        0
176
     1
290
     0
176
     1
290
     1
176
     1
290
     1
176
     1
290
     0
176
     1
290
     0
176
     1
290
     0
176
     1
290
     0
176
     1
290
     0
176
     1
290
     0
176
     1
 90
       50
176
     1
 40
0.0
176
     1
 40
1.0
176
     1
 90
        0
176
     1
 62
    18
420
        0
176
     1
 90
       50
176
     1
 90
        3
176
     1
 62
     5
420
      255
176
     1
290
     0
176
     1
 90
       50
176
     1
 90
       50
176
     1
 90
       50
176
     1
290
     0
176
     1
 90
       50
176
     1
 62
   256
176
     0
 40
1.0
176
     0
 90
        2
176
     1
  1
strokes_ogs.tif
176
     1
290
     0
176
     1
 40
1.0
176
     1
 40
1.0
176
     1
  0
VISUALSTYLE
  5
1A1
102
{ACAD_REACTORS
330
19D
102
}
330
19D
100
AcDbVisualStyle
  2
GouraudWithEdges
 70
     3
177
     3
291
     1
 70
    58
 90
        2
176
     1
 90
        2
176
     1
 90
        1
176
     1
 90
        2
176
     1
 40
0.6
176
     1
 40
30.0
176
     1
 62
     7
420
 16777215
176
     1
 90
        1
176
     1
 90
        0
176
     1
 62
     7
176
     1
 62
   257
176
     1
 90
        1
176
     1
 90
        1
176
     1
 40
1.0
176
     1
 90
        0
176
     1
 62
   257
176
     1
 40
1.0
176
     1
 90
        1
176
     1
 90
        6
176
     1
 90
        2
176
     1
 62
     7
176
     1
 90
        5
176
     1
 90
        0
176
     1
 90
        0
176
     1
290
     0
176
     1
 90
       13
176
     1
 40
0.0
176
     1
 90
        0
176
     1
290
     0
176
     1
290
     1
176
     1
290
     1
176
     1
290
     0
176
     1
290
     0
176
     1
290
     0
176
     1
290
     0
176
     1
290
     0
176
     1
290
     0
176
     1
 90
       50
176
     1
 40
0.0
176
     1
 40
1.0
176
     1
 90
        0
176
     1
 62
    18
420
        0
176
     1
 90
       50
176
     1
 90
        3
176
     1
 62
     5
420
      255
176
     1
290
     0
176
     1
 90
       50
176
     1
 90
       50
176
     1
 90
       50
176
     1
290
     0
176
     1
 90
       50
176
     1
 62
   256
176
     0
 40
1.0
176
     0
 90
        2
176
     1
  1
strokes_ogs.tif
176
     1
290
     0
176
     1
 40
1.0
176
     1
 40
1.0
176
     1
  0
VISUALSTYLE
  5
1A5
102
{ACAD_REACTORS
330
19D
102
}
330
19D
100
AcDbVisualStyle
  2
Hidden
 70
     6
177
     3
291
     0
 70
    58
 90
        1
176
     1
 90
        2
176
     1
 90
        2
176
     1
 90
        0
176
     1
 40
0.6
176
     1
 40
30.0
176
     1
 62
     7
420
 16777215
176
     1
 90
        2
176
     1
 90
        2
176
     1
 62
     7
176
     1
 62
   257
176
     1
 90
        2
176
     1
 90
        1
176
     1
 40
40.0
176
     1
 90
        0
176
     1
 62
   257
176
     1
 40
1.0
176
     1
 90
        1
176
     1
 90
        6
176
     1
 90
        2
176
     1
 62
     7
176
     1
 90
        3
176
     1
 90
        0
176
     1
 90
        0
176
     1
290
     0
176
     1
 90
        1
176
     1
 40
0.0
176
     1
 90
        0
176
     1
290
     0
176
     1
290
     1
176
     1
290
     1
176
     1
290
     0
176
     1
290
     0
176
     1
290
     0
176
     1
290
     0
176
     1
290
     0
176
     1
290
     0
176
     1
 90
       50
176
     1
 40
0.0
176
     1
 40
1.0
176
     1
 90
        0
176
     1
 62
    18
420
        0
176
     1
 90
       50
176
     1
 90
        3
176
     1
 62
     5
420
      255
176
     1
290
     0
176
     1
 90
       50
176
     1
 90
       50
176
     1
 90
       50
176
     1
290
     0
176
     1
 90
       50
176
     1
 62
   256
176
     0
 40
1.0
176
     0
 90
        2
176
     1
  1
strokes_ogs.tif
176
     1
290
     0
176
     1
 40
1.0
176
     1
 40
1.0
176
     1
  0
VISUALSTYLE
  5
1B3
102
{ACAD_REACTORS
330
19D
102
}
330
19D
100
AcDbVisualStyle
  2
JitterOff
 70
    20
177
     3
291
     1
 70
    58
 90
        2
176
     0
 90
        2
176
     0
 90
        0
176
     0
 90
        0
176
     0
 40
0.6
176
     0
 40
30.0
176
     0
 62
     7
420
 16777215
176
     0
 90
        1
176
     0
 90
        4
176
     0
 62
     7
176
     0
 62
   257
176
     0
 90
        1
176
     0
 90
        1
176
     0
 40
1.0
176
     0
 90
       10
176
     2
 62
     7
176
     0
 40
1.0
176
     0
 90
        1
176
     0
 90
        6
176
     0
 90
        2
176
     0
 62
     7
176
     0
 90
        5
176
     0
 90
        0
176
     0
 90
        0
176
     0
290
     0
176
     0
 90
        1
176
     0
 40
0.0
176
     0
 90
        0
176
     0
290
     0
176
     1
290
     1
176
     1
290
     1
176
     1
290
     0
176
     1
290
     0
176
     1
290
     0
176
     1
290
     0
176
     1
290
     0
176
     1
290
     0
176
     1
 90
       50
176
     0
 40
0.0
176
     0
 40
1.0
176
     0
 90
        0
176
     0
 62
    18
420
        0
176
     0
 90
       50
176
     0
 90
        3
176
     0
 62
     5
420
      255
176
     0
290
     0
176
     1
 90
       50
176
     0
 90
       50
176
     0
 90
       50
176
     0
290
     0
176
     1
 90
       50
176
     0
 62
   256
176
     0
 40
1.0
176
     0
 90
        2
176
     0
  1
strokes_ogs.tif
176
     0
290
     0
176
     1
 40
1.0
176
     0
 40
1.0
176
     0
  0
VISUALSTYLE
  5
1AB
102
{ACAD_REACTORS
330
19D
102
}
330
19D
100
AcDbVisualStyle
  2
Linepattern
 70
    14
177
     3
291
     1
 70
    58
 90
        2
176
     1
 90
        2
176
     1
 90
        0
176
     1
 90
        0
176
     1
 40
0.6
176
     1
 40
30.0
176
     1
 62
     7
420
 16777215
176
     1
 90
        1
176
     1
 90
        4
176
     1
 62
     7
176
     1
 62
   257
176
     1
 90
        7
176
     1
 90
        7
176
     1
 40
1.0
176
     1
 90
        8
176
     1
 62
     7
176
     1
 40
1.0
176
     1
 90
        1
176
     1
 90
        6
176
     1
 90
        2
176
     1
 62
     7
176
     1
 90
        5
176
     1
 90
        0
176
     1
 90
        0
176
     1
290
     0
176
     1
 90
        1
176
     1
 40
0.0
176
     1
 90
        0
176
     1
290
     0
176
     1
290
     1
176
     1
290
     1
176
     1
290
     0
176
     1
290
     0
176
     1
290
     0
176
     1
290
     0
176
     1
290
     0
176
     1
290
     0
176
     1
 90
       50
176
     1
 40
0.0
176
     1
 40
1.0
176
     1
 90
        0
176
     1
 62
    18
420
        0
176
     1
 90
       50
176
     1
 90
        3
176
     1
 62
     5
420
      255
176
     1
290
     0
176
     1
 90
       50
176
     1
 90
       50
176
     1
 90
       50
176
     1
290
     0
176
     1
 90
       50
176
     1
 62
   256
176
     0
 40
1.0
176
     0
 90
        2
176
     1
  1
strokes_ogs.tif
176
     1
290
     0
176
     1
 40
1.0
176
     1
 40
1.0
176
     1
  0
VISUALSTYLE
  5
1B4
102
{ACAD_REACTORS
330
19D
102
}
330
19D
100
AcDbVisualStyle
  2
OverhangOff
 70
    21
177
     3
291
     1
 70
    58
 90
        2
176
     0
 90
        2
176
     0
 90
        0
176
     0
 90
        0
176
     0
 40
0.6
176
     0
 40
30.0
176
     0
 62
     7
420
 16777215
176
     0
 90
        1
176
     0
 90
        4
176
     0
 62
     7
176
     0
 62
   257
176
     0
 90
        1
176
     0
 90
        1
176
     0
 40
1.0
176
     0
 90
        9
176
     2
 62
     7
176
     0
 40
1.0
176
     0
 90
        1
176
     0
 90
        6
176
     0
 90
        2
176
     0
 62
     7
176
     0
 90
        5
176
     0
 90
        0
176
     0
 90
        0
176
     0
290
     0
176
     0
 90
        1
176
     0
 40
0.0
176
     0
 90
        0
176
     0
290
     0
176
     1
290
     1
176
     1
290
     1
176
     1
290
     0
176
     1
290
     0
176
     1
290
     0
176
     1
290
     0
176
     1
290
     0
176
     1
290
     0
176
     1
 90
       50
176
     0
 40
0.0
176
     0
 40
1.0
176
     0
 90
        0
176
     0
 62
    18
420
        0
176
     0
 90
       50
176
     0
 90
        3
176
     0
 62
     5
420
      255
176
     0
290
     0
176
     1
 90
       50
176
     0
 90
       50
176
     0
 90
       50
176
     0
290
     0
176
     1
 90
       50
176
     0
 62
   256
176
     0
 40
1.0
176
     0
 90
        2
176
     0
  1
strokes_ogs.tif
176
     0
290
     0
176
     1
 40
1.0
176
     0
 40
1.0
176
     0
  0
VISUALSTYLE
  5
1A7
102
{ACAD_REACTORS
330
19D
102
}
330
19D
100
AcDbVisualStyle
  2
Realistic
 70
     8
177
     3
291
     0
 70
    58
 90
        2
176
     1
 90
        3
176
     1
 90
        0
176
     1
 90
        2
176
     1
 40
0.6
176
     1
 40
30.0
176
     1
 62
     7
420
 16777215
176
     1
 90
        0
176
     1
 90
        0
176
     1
 62
     7
176
     1
 62
   257
176
     1
 90
        1
176
     1
 90
        1
176
     1
 40
1.0
176
     1
 90
        8
176
     1
 62
   257
176
     1
 40
1.0
176
     1
 90
        1
176
     1
 90
        6
176
     1
 90
        2
176
     1
 62
     7
176
     1
 90
        3
176
     1
 90
        0
176
     1
 90
        0
176
     1
290
     0
176
     1
 90
       13
176
     1
 40
0.0
176
     1
 90
        0
176
     1
290
     0
176
     1
290
     1
176
     1
290
     1
176
     1
290
     0
176
     1
290
     0
176
     1
290
     0
176
     1
290
     0
176
     1
290
     0
176
     1
290
     0
176
     1
 90
       50
176
     1
 40
0.0
176
     1
 40
1.0
176
     1
 90
        0
176
     1
 62
    18
420
        0
176
     1
 90
       50
176
     1
 90
        3
176
     1
 62
     5
420
      255
176
     1
290
     0
176
     1
 90
       50
176
     1
 90
       50
176
     1
 90
       50
176
     1
290
     0
176
     1
 90
       50
176
     1
 62
   256
176
     0
 40
1.0
176
     0
 90
        2
176
     1
  1
strokes_ogs.tif
176
     1
290
     0
176
     1
 40
1.0
176
     1
 40
1.0
176
     1
  0
VISUALSTYLE
  5
1B2
102
{ACAD_REACTORS
330
19D
102
}
330
19D
100
AcDbVisualStyle
  2
Shaded
 70
    27
177
     3
291
     0
 70
    58
 90
        2
176
     1
 90
        2
176
     1
 90
        1
176
     1
 90
        2
176
     1
 40
0.6
176
     1
 40
30.0
176
     1
 62
     7
420
 16777215
176
     1
 90
        0
176
     1
 90
        4
176
     1
 62
     7
176
     1
 62
   257
176
     1
 90
        1
176
     1
 90
        1
176
     1
 40
1.0
176
     1
 90
        8
176
     1
 62
   257
176
     1
 40
1.0
176
     1
 90
        1
176
     1
 90
        6
176
     1
 90
        2
176
     1
 62
     8
420
  7895160
176
     1
 90
        3
176
     1
 90
        0
176
     1
 90
        0
176
     1
290
     0
176
     1
 90
        5
176
     1
 40
0.0
176
     1
 90
        0
176
     1
290
     0
176
     1
290
     1
176
     1
290
     1
176
     1
290
     0
176
     1
290
     0
176
     1
290
     0
176
     1
290
     0
176
     1
290
     0
176
     1
290
     0
176
     1
 90
       50
176
     1
 40
0.0
176
     1
 40
1.0
176
     1
 90
        0
176
     1
 62
    18
420
        0
176
     1
 90
       50
176
     1
 90
        3
176
     1
 62
     5
420
      255
176
     1
290
     0
176
     1
 90
       50
176
     1
 90
       50
176
     1
 90
       50
176
     1
290
     0
176
     1
 90
       50
176
     1
 62
   256
176
     0
 40
1.0
176
     0
 90
        2
176
     1
  1
strokes_ogs.tif
176
     1
290
     0
176
     1
 40
1.0
176
     1
 40
1.0
176
     1
  0
VISUALSTYLE
  5
1B1
102
{ACAD_REACTORS
330
19D
102
}
330
19D
100
AcDbVisualStyle
  2
Shaded with edges
 70
    26
177
     3
291
     0
 70
    58
 90
        2
176
     1
 90
        2
176
     1
 90
        1
176
     1
 90
        2
176
     1
 40
0.6
176
     1
 40
30.0
176
     1
 62
     7
420
 16777215
176
     1
 90
        1
176
     1
 90
        2
176
     1
 62
     7
176
     1
 62
   257
176
     1
 90
        2
176
     1
 90
        1
176
     1
 40
1.0
176
     1
 90
        8
176
     1
 62
   257
176
     1
 40
1.0
176
     1
 90
        1
176
     1
 90
        6
176
     1
 90
        2
176
     1
 62
     7
176
     1
 90
        3
176
     1
 90
        0
176
     1
 90
        0
176
     1
290
     0
176
     1
 90
        5
176
     1
 40
0.0
176
     1
 90
        0
176
     1
290
     0
176
     1
290
     1
176
     1
290
     1
176
     1
290
     0
176
     1
290
     0
176
     1
290
     0
176
     1
290
     0
176
     1
290
     0
176
     1
290
     0
176
     1
 90
       50
176
     1
 40
0.0
176
     1
 40
1.0
176
     1
 90
        0
176
     1
 62
    18
420
        0
176
     1
 90
       50
176
     1
 90
        3
176
     1
 62
     5
420
      255
176
     1
290
     0
176
     1
 90
       50
176
     1
 90
       50
176
     1
 90
       50
176
     1
290
     0
176
     1
 90
       50
176
     1
 62
   256
176
     0
 40
1.0
176
     0
 90
        2
176
     1
  1
strokes_ogs.tif
176
     1
290
     0
176
     1
 40
1.0
176
     1
 40
1.0
176
     1
  0
VISUALSTYLE
  5
1AE
102
{ACAD_REACTORS
330
19D
102
}
330
19D
100
AcDbVisualStyle
  2
Shades of Gray
 70
    23
177
     3
291
     0
 70
    58
 90
        2
176
     1
 90
        2
176
     1
 90
        3
176
     1
 90
        0
176
     1
 40
0.6
176
     1
 40
30.0
176
     1
 62
     7
420
 16777215
176
     1
 90
        2
176
     1
 90
        2
176
     1
 62
     7
176
     1
 62
     7
176
     1
 90
        1
176
     1
 90
        1
176
     1
 40
40.0
176
     1
 90
        8
176
     1
 62
     7
176
     1
 40
1.0
176
     1
 90
        1
176
     1
 90
        6
176
     1
 90
        2
176
     1
 62
     7
176
     1
 90
        3
176
     1
 90
        0
176
     1
 90
        0
176
     1
290
     0
176
     1
 90
        1
176
     1
 40
0.0
176
     1
 90
        0
176
     1
290
     0
176
     1
290
     1
176
     1
290
     1
176
     1
290
     0
176
     1
290
     0
176
     1
290
     0
176
     1
290
     0
176
     1
290
     0
176
     1
290
     0
176
     1
 90
       50
176
     1
 40
0.0
176
     1
 40
1.0
176
     1
 90
        0
176
     1
 62
    18
420
        0
176
     1
 90
       50
176
     1
 90
        3
176
     1
 62
     5
420
      255
176
     1
290
     0
176
     1
 90
       50
176
     1
 90
       50
176
     1
 90
       50
176
     1
290
     0
176
     1
 90
       50
176
     1
 62
   256
176
     0
 40
1.0
176
     0
 90
        2
176
     1
  1
strokes_ogs.tif
176
     1
290
     0
176
     1
 40
1.0
176
     1
 40
1.0
176
     1
  0
VISUALSTYLE
  5
1AF
102
{ACAD_REACTORS
330
19D
102
}
330
19D
100
AcDbVisualStyle
  2
Sketchy
 70
    24
177
     3
291
     0
 70
    58
 90
        1
176
     1
 90
        2
176
     1
 90
        2
176
     1
 90
        0
176
     1
 40
0.6
176
     1
 40
30.0
176
     1
 62
     7
420
 16777215
176
     1
 90
        2
176
     1
 90
        2
176
     1
 62
     7
176
     1
 62
     7
176
     1
 90
        1
176
     1
 90
        1
176
     1
 40
40.0
176
     1
 90
       11
176
     1
 62
     7
176
     1
 40
1.0
176
     1
 90
        1
176
     1
 90
        6
176
     1
 90
        2
176
     1
 62
     7
176
     1
 90
        6
176
     1
 90
        0
176
     1
 90
        0
176
     1
290
     0
176
     1
 90
        1
176
     1
 40
0.0
176
     1
 90
        0
176
     1
290
     0
176
     1
290
     1
176
     1
290
     1
176
     1
290
     0
176
     1
290
     0
176
     1
290
     0
176
     1
290
     0
176
     1
290
     0
176
     1
290
     0
176
     1
 90
       50
176
     1
 40
0.0
176
     1
 40
1.0
176
     1
 90
        0
176
     1
 62
    18
420
        0
176
     1
 90
       50
176
     1
 90
        3
176
     1
 62
     5
420
      255
176
     1
290
     0
176
     1
 90
       50
176
     1
 90
       50
176
     1
 90
       50
176
     1
290
     0
176
     1
 90
       50
176
     1
 62
   256
176
     0
 40
1.0
176
     0
 90
        2
176
     1
  1
strokes_ogs.tif
176
     1
290
     0
176
     1
 40
1.0
176
     1
 40
1.0
176
     1
  0
VISUALSTYLE
  5
1AA
102
{ACAD_REACTORS
330
19D
102
}
330
19D
100
AcDbVisualStyle
  2
Thicken
 70
    13
177
     3
291
     1
 70
    58
 90
        2
176
     1
 90
        2
176
     1
 90
        0
176
     1
 90
        0
176
     1
 40
0.6
176
     1
 40
30.0
176
     1
 62
     7
420
 16777215
176
     1
 90
        1
176
     1
 90
        4
176
     1
 62
     7
176
     1
 62
   257
176
     1
 90
        1
176
     1
 90
        1
176
     1
 40
1.0
176
     1
 90
       12
176
     1
 62
     7
176
     1
 40
1.0
176
     1
 90
        1
176
     1
 90
        6
176
     1
 90
        2
176
     1
 62
     7
176
     1
 90
        5
176
     1
 90
        0
176
     1
 90
        0
176
     1
290
     0
176
     1
 90
        1
176
     1
 40
0.0
176
     1
 90
        0
176
     1
290
     0
176
     1
290
     1
176
     1
290
     1
176
     1
290
     0
176
     1
290
     0
176
     1
290
     0
176
     1
290
     0
176
     1
290
     0
176
     1
290
     0
176
     1
 90
       50
176
     1
 40
0.0
176
     1
 40
1.0
176
     1
 90
        0
176
     1
 62
    18
420
        0
176
     1
 90
       50
176
     1
 90
        3
176
     1
 62
     5
420
      255
176
     1
290
     0
176
     1
 90
       50
176
     1
 90
       50
176
     1
 90
       50
176
     1
290
     0
176
     1
 90
       50
176
     1
 62
   256
176
     0
 40
1.0
176
     0
 90
        2
176
     1
  1
strokes_ogs.tif
176
     1
290
     0
176
     1
 40
1.0
176
     1
 40
1.0
176
     1
  0
VISUALSTYLE
  5
1A4
102
{ACAD_REACTORS
330
19D
102
}
330
19D
100
AcDbVisualStyle
  2
Wireframe
 70
     5
177
     3
291
     0
 70
    58
 90
        0
176
     1
 90
        2
176
     1
 90
        0
176
     1
 90
        0
176
     1
 40
0.6
176
     1
 40
30.0
176
     1
 62
     7
420
 16777215
176
     1
 90
        1
176
     1
 90
        4
176
     1
 62
     7
176
     1
 62
   257
176
     1
 90
        1
176
     1
 90
        1
176
     1
 40
1.0
176
     1
 90
        0
176
     1
 62
   257
176
     1
 40
1.0
176
     1
 90
        1
176
     1
 90
        6
176
     1
 90
        2
176
     1
 62
     7
176
     1
 90
        3
176
     1
 90
        0
176
     1
 90
        0
176
     1
290
     0
176
     1
 90
        1
176
     1
 40
0.0
176
     1
 90
        0
176
     1
290
     0
176
     1
290
     1
176
     1
290
     1
176
     1
290
     0
176
     1
290
     0
176
     1
290
     0
176
     1
290
     0
176
     1
290
     0
176
     1
290
     0
176
     1
 90
       50
176
     1
 40
0.0
176
     1
 40
1.0
176
     1
 90
        0
176
     1
 62
    18
420
        0
176
     1
 90
       50
176
     1
 90
        3
176
     1
 62
     5
420
      255
176
     1
290
     0
176
     1
 90
       50
176
     1
 90
       50
176
     1
 90
       50
176
     1
290
     0
176
     1
 90
       50
176
     1
 62
   256
176
     0
 40
1.0
176
     0
 90
        2
176
     1
  1
strokes_ogs.tif
176
     1
290
     0
176
     1
 40
1.0
176
     1
 40
1.0
176
     1
  0
VISUALSTYLE
  5
1B0
102
{ACAD_REACTORS
330
19D
102
}
330
19D
100
AcDbVisualStyle
  2
X-Ray
 70
    25
177
     3
291
     0
 70
    58
 90
        2
176
     1
 90
        2
176
     1
 90
        1
176
     1
 90
        1
176
     1
 40
0.5
176
     1
 40
30.0
176
     1
 62
     7
420
 16777215
176
     1
 90
        1
176
     1
 90
        0
176
     1
 62
     7
176
     1
 62
   257
176
     1
 90
        1
176
     1
 90
        1
176
     1
 40
1.0
176
     1
 90
        8
176
     1
 62
     7
176
     1
 40
1.0
176
     1
 90
        1
176
     1
 90
        6
176
     1
 90
        2
176
     1
 62
     7
176
     1
 90
        3
176
     1
 90
        0
176
     1
 90
        0
176
     1
290
     0
176
     1
 90
       13
176
     1
 40
0.0
176
     1
 90
        0
176
     1
290
     0
176
     1
290
     1
176
     1
290
     1
176
     1
290
     0
176
     1
290
     0
176
     1
290
     0
176
     1
290
     0
176
     1
290
     0
176
     1
290
     0
176
     1
 90
       50
176
     1
 40
0.0
176
     1
 40
1.0
176
     1
 90
        0
176
     1
 62
    18
420
        0
176
     1
 90
       50
176
     1
 90
        3
176
     1
 62
     5
420
      255
176
     1
290
     0
176
     1
 90
       50
176
     1
 90
       50
176
     1
 90
       50
176
     1
290
     0
176
     1
 90
       50
176
     1
 62
   256
176
     0
 40
1.0
176
     0
 90
        2
176
     1
  1
strokes_ogs.tif
176
     1
290
     0
176
     1
 40
1.0
176
     1
 40
1.0
176
     1
  0
DICTIONARYVAR
  5
2E6
102
{ACAD_REACTORS
330
2E0
102
}
330
2E0
100
DictionaryVariables
280
     0
  1
1:1
  0
DICTIONARYVAR
  5
2E2
102
{ACAD_REACTORS
330
2E0
102
}
330
2E0
100
DictionaryVariables
280
     0
  1
STANDARD
  0
DICTIONARYVAR
  5
2E1
102
{ACAD_REACTORS
330
2E0
102
}
330
2E0
100
DictionaryVariables
280
     0
  1
STANDARD
  0
DICTIONARYVAR
  5
2E3
102
{ACAD_REACTORS
330
2E0
102
}
330
2E0
100
DictionaryVariables
280
     0
  1
Metric50
  0
DICTIONARYVAR
  5
2E4
102
{ACAD_REACTORS
330
2E0
102
}
330
2E0
100
DictionaryVariables
280
     0
  1
Metric50
  0
DICTIONARYVAR
  5
2E8
102
{ACAD_REACTORS
330
2E0
102
}
330
2E0
100
DictionaryVariables
280
     0
  1
1
  0
DICTIONARYVAR
  5
2E9
102
{ACAD_REACTORS
330
2E0
102
}
330
2E0
100
DictionaryVariables
280
     0
  1
15
  0
DICTIONARYVAR
  5
2E7
102
{ACAD_REACTORS
330
2E0
102
}
330
2E0
100
DictionaryVariables
280
     0
  1
0
  0
DICTIONARYVAR
  5
2E5
102
{ACAD_REACTORS
330
2E0
102
}
330
2E0
100
DictionaryVariables
280
     0
  1
0
  0
DICTIONARY
  5
242
102
{ACAD_REACTORS
330
241
102
}
330
241
100
AcDbDictionary
281
     1
  3
*A1
350
243
  0
DICTIONARY
  5
234
102
{ACAD_REACTORS
330
233
102
}
330
233
100
AcDbDictionary
281
     1
  3
*A1
350
235
  0
DICTIONARY
  5
226
102
{ACAD_REACTORS
330
225
102
}
330
225
100
AcDbDictionary
281
     1
  3
*A1
350
227
  0
DICTIONARY
  5
218
102
{ACAD_REACTORS
330
217
102
}
330
217
100
AcDbDictionary
281
     1
  3
*A1
350
219
  0
DICTIONARY
  5
288
102
{ACAD_REACTORS
330
287
102
}
330
287
100
AcDbDictionary
281
     1
  3
*A1
350
289
  0
DICTIONARY
  5
250
102
{ACAD_REACTORS
330
24F
102
}
330
24F
100
AcDbDictionary
281
     1
  3
*A1
350
251
  0
DICTIONARY
  5
27A
102
{ACAD_REACTORS
330
279
102
}
330
279
100
AcDbDictionary
281
     1
  3
*A1
350
27B
  0
DICTIONARY
  5
20A
102
{ACAD_REACTORS
330
209
102
}
330
209
100
AcDbDictionary
281
     1
  3
*A1
350
20B
  0
DICTIONARY
  5
29D
102
{ACAD_REACTORS
330
29C
102
}
330
29C
100
AcDbDictionary
281
     1
  3
*A1
350
29E
  0
DICTIONARY
  5
18E
330
18D
100
AcDbDictionary
280
     1
281
     1
  3
BUMPTILE
360
190
  3
DIFFUSETILE
360
18F
  3
OPACITYTILE
360
193
  3
REFLECTIONTILE
360
192
  3
REFRACTIONTILE
360
194
  3
SPECULARTILE
360
191
  0
DICTIONARY
  5
186
330
185
100
AcDbDictionary
280
     1
281
     1
  3
BUMPTILE
360
188
  3
DIFFUSETILE
360
187
  3
OPACITYTILE
360
18B
  3
REFLECTIONTILE
360
18A
  3
REFRACTIONTILE
360
18C
  3
SPECULARTILE
360
189
  0
DICTIONARY
  5
196
330
195
100
AcDbDictionary
280
     1
281
     1
  3
BUMPTILE
360
198
  3
DIFFUSETILE
360
197
  3
OPACITYTILE
360
19B
  3
REFLECTIONTILE
360
19A
  3
REFRACTIONTILE
360
19C
  3
SPECULARTILE
360
199
  0
DICTIONARY
  5
2EA
330
1B8
100
AcDbDictionary
280
     1
281
     1
  3
ACAD_ROUNDTRIP_2008_TABLESTYLE_CELLSTYLEMAP
360
2EB
  0
ACDB_ALDIMOBJECTCONTEXTDATA_CLASS
  5
243
102
{ACAD_REACTORS
330
242
102
}
330
242
100
AcDbObjectContextData
 70
     4
290
     1
100
AcDbAnnotScaleObjectContextData
340
48
100
AcDbDimensionObjectContextData
  2
*D18
293
     0
 10
-137.8694099055
 20
-819.099781317324
294
     0
140
0.0
298
     0
291
     0
 70
     0
292
     0
 71
     0
280
     0
295
     0
296
     0
297
     0
100
AcDbAlignedDimensionObjectContextData
 11
-27.09960626370005
 21
-819.099781317324
 31
0.0
  0
ACDB_ALDIMOBJECTCONTEXTDATA_CLASS
  5
235
102
{ACAD_REACTORS
330
234
102
}
330
234
100
AcDbObjectContextData
 70
     4
290
     1
100
AcDbAnnotScaleObjectContextData
340
48
100
AcDbDimensionObjectContextData
  2
*D17
293
     0
 10
4.179651319654112
 20
-419.5860727876999
294
     0
140
0.0
298
     0
291
     0
 70
     0
292
     0
 71
     0
280
     0
295
     0
296
     0
297
     0
100
AcDbAlignedDimensionObjectContextData
 11
4.179651319654316
 21
-794.3900573455005
 31
0.0
  0
ACDB_ALDIMOBJECTCONTEXTDATA_CLASS
  5
227
102
{ACAD_REACTORS
330
226
102
}
330
226
100
AcDbObjectContextData
 70
     4
290
     1
100
AcDbAnnotScaleObjectContextData
340
48
100
AcDbDimensionObjectContextData
  2
*D16
293
     0
 10
-290.2145652271647
 20
-318.3796346773
294
     0
140
0.0
298
     0
291
     0
 70
     0
292
     0
 71
     0
280
     0
295
     0
296
     0
297
     0
100
AcDbAlignedDimensionObjectContextData
 11
-290.2145652271646
 21
-794.3900573455005
 31
0.0
  0
ACDB_ALDIMOBJECTCONTEXTDATA_CLASS
  5
219
102
{ACAD_REACTORS
330
218
102
}
330
218
100
AcDbObjectContextData
 70
     4
290
     1
100
AcDbAnnotScaleObjectContextData
340
48
100
AcDbDimensionObjectContextData
  2
*D15
293
     0
 10
-219.9622025049
 20
90.70994265450002
294
     0
140
0.0
298
     0
291
     0
 70
     0
292
     0
 71
     0
280
     0
295
     0
296
     0
297
     0
100
AcDbAlignedDimensionObjectContextData
 11
-177.0604678035
 21
90.70994265450002
 31
0.0
  0
ACDB_ALDIMOBJECTCONTEXTDATA_CLASS
  5
289
102
{ACAD_REACTORS
330
288
102
}
330
288
100
AcDbObjectContextData
 70
     4
290
     1
100
AcDbAnnotScaleObjectContextData
340
48
100
AcDbDimensionObjectContextData
  2
*D21
293
     0
 10
287.6471658824
 20
90.70994265450002
294
     0
140
0.0
298
     0
291
     0
 70
     0
292
     0
 71
     0
280
     0
295
     0
296
     0
297
     0
100
AcDbAlignedDimensionObjectContextData
 11
316.0231310081
 21
90.70994265450002
 31
0.0
  0
ACDB_ALDIMOBJECTCONTEXTDATA_CLASS
  5
251
102
{ACAD_REACTORS
330
250
102
}
330
250
100
AcDbObjectContextData
 70
     4
290
     1
100
AcDbAnnotScaleObjectContextData
340
48
100
AcDbDimensionObjectContextData
  2
*D19
293
     0
 10
293.4331310081
 20
-823.0702216933668
294
     1
140
0.0
298
     0
291
     0
 70
     0
292
     0
 71
     0
280
    16
295
     0
296
     0
297
     0
100
AcDbAlignedDimensionObjectContextData
 11
244.4331310081
 21
-815.0702216933668
 31
0.0
  0
ACDB_ALDIMOBJECTCONTEXTDATA_CLASS
  5
27B
102
{ACAD_REACTORS
330
27A
102
}
330
27A
100
AcDbObjectContextData
 70
     4
290
     1
100
AcDbAnnotScaleObjectContextData
340
48
100
AcDbDimensionObjectContextData
  2
*D20
293
     0
 10
238.1024866607753
 20
-42.49005734550009
294
     1
140
0.0
298
     0
291
     0
 70
     0
292
     0
 71
     0
280
    16
295
     0
296
     0
297
     0
100
AcDbAlignedDimensionObjectContextData
 11
252.769153327442
 21
-55.19005734550003
 31
0.0
  0
ACDB_ALDIMOBJECTCONTEXTDATA_CLASS
  5
20B
102
{ACAD_REACTORS
330
20A
102
}
330
20A
100
AcDbObjectContextData
 70
     4
290
     1
100
AcDbAnnotScaleObjectContextData
340
48
100
AcDbDimensionObjectContextData
  2
*D14
293
     0
 10
-137.5780915862
 20
358.3015096051
294
     0
140
0.0
298
     0
291
     0
 70
     0
292
     0
 71
     0
280
     0
295
     0
296
     0
297
     0
100
AcDbAlignedDimensionObjectContextData
 11
-17.3104921938
 21
358.3015096051
 31
0.0
  0
ACDB_ALDIMOBJECTCONTEXTDATA_CLASS
  5
29E
102
{ACAD_REACTORS
330
29D
102
}
330
29D
100
AcDbObjectContextData
 70
     4
290
     1
100
AcDbAnnotScaleObjectContextData
340
48
100
AcDbDimensionObjectContextData
  2
*D22
293
     0
 10
-161.3920162193787
 20
-781.8900573455002
294
     1
140
0.0
298
     0
291
     0
 70
     0
292
     0
 71
     0
280
     0
295
     0
296
     0
297
     0
100
AcDbAlignedDimensionObjectContextData
 11
-172.0586828860452
 21
-769.3900573455004
 31
0.0
  0
XRECORD
  5
190
102
{ACAD_REACTORS
330
18E
102
}
330
18E
100
AcDbXrecord
280
     1
270
     1
271
     1
  0
XRECORD
  5
18F
102
{ACAD_REACTORS
330
18E
102
}
330
18E
100
AcDbXrecord
280
     1
270
     1
271
     1
  0
XRECORD
  5
193
102
{ACAD_REACTORS
330
18E
102
}
330
18E
100
AcDbXrecord
280
     1
270
     1
271
     1
  0
XRECORD
  5
192
102
{ACAD_REACTORS
330
18E
102
}
330
18E
100
AcDbXrecord
280
     1
270
     1
271
     1
  0
XRECORD
  5
194
102
{ACAD_REACTORS
330
18E
102
}
330
18E
100
AcDbXrecord
280
     1
270
     1
271
     1
  0
XRECORD
  5
191
102
{ACAD_REACTORS
330
18E
102
}
330
18E
100
AcDbXrecord
280
     1
270
     1
271
     1
  0
XRECORD
  5
188
102
{ACAD_REACTORS
330
186
102
}
330
186
100
AcDbXrecord
280
     1
270
     1
271
     1
  0
XRECORD
  5
187
102
{ACAD_REACTORS
330
186
102
}
330
186
100
AcDbXrecord
280
     1
270
     1
271
     1
  0
XRECORD
  5
18B
102
{ACAD_REACTORS
330
186
102
}
330
186
100
AcDbXrecord
280
     1
270
     1
271
     1
  0
XRECORD
  5
18A
102
{ACAD_REACTORS
330
186
102
}
330
186
100
AcDbXrecord
280
     1
270
     1
271
     1
  0
XRECORD
  5
18C
102
{ACAD_REACTORS
330
186
102
}
330
186
100
AcDbXrecord
280
     1
270
     1
271
     1
  0
XRECORD
  5
189
102
{ACAD_REACTORS
330
186
102
}
330
186
100
AcDbXrecord
280
     1
270
     1
271
     1
  0
XRECORD
  5
198
102
{ACAD_REACTORS
330
196
102
}
330
196
100
AcDbXrecord
280
     1
270
     1
271
     1
  0
XRECORD
  5
197
102
{ACAD_REACTORS
330
196
102
}
330
196
100
AcDbXrecord
280
     1
270
     1
271
     1
  0
XRECORD
  5
19B
102
{ACAD_REACTORS
330
196
102
}
330
196
100
AcDbXrecord
280
     1
270
     1
271
     1
  0
XRECORD
  5
19A
102
{ACAD_REACTORS
330
196
102
}
330
196
100
AcDbXrecord
280
     1
270
     1
271
     1
  0
XRECORD
  5
19C
102
{ACAD_REACTORS
330
196
102
}
330
196
100
AcDbXrecord
280
     1
270
     1
271
     1
  0
XRECORD
  5
199
102
{ACAD_REACTORS
330
196
102
}
330
196
100
AcDbXrecord
280
     1
270
     1
271
     1
  0
CELLSTYLEMAP
  5
2EB
102
{ACAD_REACTORS
330
2EA
102
}
330
2EA
100
AcDbCellStyleMap
 90
        3
300
CELLSTYLE
  1
TABLEFORMAT_BEGIN
 90
        5
170
     1
 91
        0
 92
    32768
 62
   257
 93
        1
300
CONTENTFORMAT
  1
CONTENTFORMAT_BEGIN
 90
        0
 91
        0
 92
      512
 93
        0
300

 40
0.0
140
1.0
 94
        5
 62
     0
340
11
144
6.0
309
CONTENTFORMAT_END
171
     1
301
MARGIN
  1
CELLMARGIN_BEGIN
 40
1.5
 40
1.5
 40
1.5
 40
1.5
 40
4.5
 40
4.5
309
CELLMARGIN_END
 94
        6
 95
        1
302
GRIDFORMAT
  1
GRIDFORMAT_BEGIN
 90
        0
 91
        1
 62
     0
 92
       -2
340
0
 93
        0
 40
1.125
309
GRIDFORMAT_END
 95
        2
302
GRIDFORMAT
  1
GRIDFORMAT_BEGIN
 90
        0
 91
        1
 62
     0
 92
       -2
340
0
 93
        0
 40
1.125
309
GRIDFORMAT_END
 95
        4
302
GRIDFORMAT
  1
GRIDFORMAT_BEGIN
 90
        0
 91
        1
 62
     0
 92
       -2
340
0
 93
        0
 40
1.125
309
GRIDFORMAT_END
 95
        8
302
GRIDFORMAT
  1
GRIDFORMAT_BEGIN
 90
        0
 91
        1
 62
     0
 92
       -2
340
0
 93
        0
 40
1.125
309
GRIDFORMAT_END
 95
       16
302
GRIDFORMAT
  1
GRIDFORMAT_BEGIN
 90
        0
 91
        1
 62
     0
 92
       -2
340
0
 93
        0
 40
1.125
309
GRIDFORMAT_END
 95
       32
302
GRIDFORMAT
  1
GRIDFORMAT_BEGIN
 90
        0
 91
        1
 62
     0
 92
       -2
340
0
 93
        0
 40
1.125
309
GRIDFORMAT_END
309
TABLEFORMAT_END
  1
CELLSTYLE_BEGIN
 90
        1
 91
        1
300
_TITLE
309
CELLSTYLE_END
300
CELLSTYLE
  1
TABLEFORMAT_BEGIN
 90
        5
170
     1
 91
        0
 92
        0
 62
   257
 93
        1
300
CONTENTFORMAT
  1
CONTENTFORMAT_BEGIN
 90
        0
 91
        0
 92
      512
 93
        0
300

 40
0.0
140
1.0
 94
        5
 62
     0
340
11
144
4.5
309
CONTENTFORMAT_END
171
     1
301
MARGIN
  1
CELLMARGIN_BEGIN
 40
1.5
 40
1.5
 40
1.5
 40
1.5
 40
4.5
 40
4.5
309
CELLMARGIN_END
 94
        6
 95
        1
302
GRIDFORMAT
  1
GRIDFORMAT_BEGIN
 90
        0
 91
        1
 62
     0
 92
       -2
340
0
 93
        0
 40
1.125
309
GRIDFORMAT_END
 95
        2
302
GRIDFORMAT
  1
GRIDFORMAT_BEGIN
 90
        0
 91
        1
 62
     0
 92
       -2
340
0
 93
        0
 40
1.125
309
GRIDFORMAT_END
 95
        4
302
GRIDFORMAT
  1
GRIDFORMAT_BEGIN
 90
        0
 91
        1
 62
     0
 92
       -2
340
0
 93
        0
 40
1.125
309
GRIDFORMAT_END
 95
        8
302
GRIDFORMAT
  1
GRIDFORMAT_BEGIN
 90
        0
 91
        1
 62
     0
 92
       -2
340
0
 93
        0
 40
1.125
309
GRIDFORMAT_END
 95
       16
302
GRIDFORMAT
  1
GRIDFORMAT_BEGIN
 90
        0
 91
        1
 62
     0
 92
       -2
340
0
 93
        0
 40
1.125
309
GRIDFORMAT_END
 95
       32
302
GRIDFORMAT
  1
GRIDFORMAT_BEGIN
 90
        0
 91
        1
 62
     0
 92
       -2
340
0
 93
        0
 40
1.125
309
GRIDFORMAT_END
309
TABLEFORMAT_END
  1
CELLSTYLE_BEGIN
 90
        2
 91
        1
300
_HEADER
309
CELLSTYLE_END
300
CELLSTYLE
  1
TABLEFORMAT_BEGIN
 90
        5
170
     1
 91
        0
 92
        0
 62
   257
 93
        1
300
CONTENTFORMAT
  1
CONTENTFORMAT_BEGIN
 90
        0
 91
        0
 92
      512
 93
        0
300

 40
0.0
140
1.0
 94
        2
 62
     0
340
11
144
4.5
309
CONTENTFORMAT_END
171
     1
301
MARGIN
  1
CELLMARGIN_BEGIN
 40
1.5
 40
1.5
 40
1.5
 40
1.5
 40
4.5
 40
4.5
309
CELLMARGIN_END
 94
        6
 95
        1
302
GRIDFORMAT
  1
GRIDFORMAT_BEGIN
 90
        0
 91
        1
 62
     0
 92
       -2
340
0
 93
        0
 40
1.125
309
GRIDFORMAT_END
 95
        2
302
GRIDFORMAT
  1
GRIDFORMAT_BEGIN
 90
        0
 91
        1
 62
     0
 92
       -2
340
0
 93
        0
 40
1.125
309
GRIDFORMAT_END
 95
        4
302
GRIDFORMAT
  1
GRIDFORMAT_BEGIN
 90
        0
 91
        1
 62
     0
 92
       -2
340
0
 93
        0
 40
1.125
309
GRIDFORMAT_END
 95
        8
302
GRIDFORMAT
  1
GRIDFORMAT_BEGIN
 90
        0
 91
        1
 62
     0
 92
       -2
340
0
 93
        0
 40
1.125
309
GRIDFORMAT_END
 95
       16
302
GRIDFORMAT
  1
GRIDFORMAT_BEGIN
 90
        0
 91
        1
 62
     0
 92
       -2
340
0
 93
        0
 40
1.125
309
GRIDFORMAT_END
 95
       32
302
GRIDFORMAT
  1
GRIDFORMAT_BEGIN
 90
        0
 91
        1
 62
     0
 92
       -2
340
0
 93
        0
 40
1.125
309
GRIDFORMAT_END
309
TABLEFORMAT_END
  1
CELLSTYLE_BEGIN
 90
        3
 91
        2
300
_DATA
309
CELLSTYLE_END
  0
ENDSEC
  0
EOF
