  0
SECTION
  2
HEADER
  9
$ACADVER
  1
AC1027
  9
$ACADMAINTVER
 70
   125
  9
$DWGCODEPAGE
  3
ANSI_1252
  9
$LASTSAVEDBY
  1
fleminab
  9
$REQUIREDVERSIONS
160
                 0
  9
$INSBASE
 10
0.0
 20
0.0
 30
0.0
  9
$EXTMIN
 10
0.0
 20
0.0
 30
0.0
  9
$EXTMAX
 10
800.0
 20
400.0
 30
0.0
  9
$LIMMIN
 10
0.0
 20
0.0
  9
$LIMMAX
 10
800.0
 20
400.0
  9
$ORTHOMODE
 70
     0
  9
$REGENMODE
 70
     1
  9
$FILLMODE
 70
     1
  9
$QTEXTMODE
 70
     0
  9
$MIRRTEXT
 70
     1
  9
$LTSCALE
 40
10.0
  9
$ATTMODE
 70
     1
  9
$TEXTSIZE
 40
21.1666666667
  9
$TRACEWID
 40
1.0
  9
$TEXTSTYLE
  7
STANDARD
  9
$CLAYER
  8
0
  9
$CELTYPE
  6
ByLayer
  9
$CECOLOR
 62
   256
  9
$CELTSCALE
 40
1.0
  9
$DISPSILH
 70
     0
  9
$DIMSCALE
 40
1.0
  9
$DIMASZ
 40
20.0
  9
$DIMEXO
 40
10.0
  9
$DIMDLI
 40
3.75
  9
$DIMRND
 40
0.0
  9
$DIMDLE
 40
0.0
  9
$DIMEXE
 40
10.0
  9
$DIMTP
 40
0.0
  9
$DIMTM
 40
0.0
  9
$DIMTXT
 40
28.2222222222
  9
$DIMCEN
 40
2.5
  9
$DIMTSZ
 40
0.0
  9
$DIMTOL
 70
     0
  9
$DIMLIM
 70
     0
  9
$DIMTIH
 70
     1
  9
$DIMTOH
 70
     1
  9
$DIMSE1
 70
     0
  9
$DIMSE2
 70
     0
  9
$DIMTAD
 70
     1
  9
$DIMZIN
 70
     0
  9
$DIMBLK
  1

  9
$DIMASO
 70
     1
  9
$DIMSHO
 70
     1
  9
$DIMPOST
  1

  9
$DIMAPOST
  1

  9
$DIMALT
 70
     0
  9
$DIMALTD
 70
     3
  9
$DIMALTF
 40
0.0393700787
  9
$DIMLFAC
 40
1.0
  9
$DIMTOFL
 70
     1
  9
$DIMTVP
 40
0.0
  9
$DIMTIX
 70
     0
  9
$DIMSOXD
 70
     0
  9
$DIMSAH
 70
     0
  9
$DIMBLK1
  1

  9
$DIMBLK2
  1

  9
$DIMSTYLE
  2
ISO-25
  9
$DIMCLRD
 70
     0
  9
$DIMCLRE
 70
     0
  9
$DIMCLRT
 70
     0
  9
$DIMTFAC
 40
1.0
  9
$DIMGAP
 40
20.0
  9
$DIMJUST
 70
     0
  9
$DIMSD1
 70
     0
  9
$DIMSD2
 70
     0
  9
$DIMTOLJ
 70
     0
  9
$DIMTZIN
 70
     0
  9
$DIMALTZ
 70
     0
  9
$DIMALTTZ
 70
     0
  9
$DIMUPT
 70
     0
  9
$DIMDEC
 70
     2
  9
$DIMTDEC
 70
     2
  9
$DIMALTU
 70
     2
  9
$DIMALTTD
 70
     3
  9
$DIMTXSTY
  7
STANDARD
  9
$DIMAUNIT
 70
     0
  9
$DIMADEC
 70
     1
  9
$DIMALTRND
 40
0.0
  9
$DIMAZIN
 70
     0
  9
$DIMDSEP
 70
    44
  9
$DIMATFIT
 70
     3
  9
$DIMFRAC
 70
     0
  9
$DIMLDRBLK
  1

  9
$DIMLUNIT
 70
     2
  9
$DIMLWD
 70
    -2
  9
$DIMLWE
 70
    -2
  9
$DIMTMOVE
 70
     0
  9
$DIMFXL
 40
1.0
  9
$DIMFXLON
 70
     0
  9
$DIMJOGANG
 40
0.7853981633974483
  9
$DIMTFILL
 70
     0
  9
$DIMTFILLCLR
 70
     0
  9
$DIMARCSYM
 70
     0
  9
$DIMLTYPE
  6

  9
$DIMLTEX1
  6

  9
$DIMLTEX2
  6

  9
$DIMTXTDIRECTION
 70
     0
  9
$LUNITS
 70
     2
  9
$LUPREC
 70
     2
  9
$SKETCHINC
 40
1.0
  9
$FILLETRAD
 40
10.0
  9
$AUNITS
 70
     0
  9
$AUPREC
 70
     1
  9
$MENU
  1
.
  9
$ELEVATION
 40
0.0
  9
$PELEVATION
 40
0.0
  9
$THICKNESS
 40
0.0
  9
$LIMCHECK
 70
     0
  9
$CHAMFERA
 40
0.0
  9
$CHAMFERB
 40
0.0
  9
$CHAMFERC
 40
0.0
  9
$CHAMFERD
 40
0.0
  9
$SKPOLY
 70
     0
  9
$TDCREATE
 40
2458050.773298611
  9
$TDUCREATE
 40
2458050.314971702
  9
$TDUPDATE
 40
2458051.627673611
  9
$TDUUPDATE
 40
2458051.169340278
  9
$TDINDWG
 40
0.0015740856
  9
$TDUSRTIMER
 40
0.0015740856
  9
$USRTIMER
 70
     1
  9
$ANGBASE
 50
0.0
  9
$ANGDIR
 70
     0
  9
$PDMODE
 70
     0
  9
$PDSIZE
 40
-1.0
  9
$PLINEWID
 40
0.0
  9
$SPLFRAME
 70
     0
  9
$SPLINETYPE
 70
     6
  9
$SPLINESEGS
 70
     8
  9
$HANDSEED
  5
1B8
  9
$SURFTAB1
 70
     6
  9
$SURFTAB2
 70
     6
  9
$SURFTYPE
 70
     6
  9
$SURFU
 70
     6
  9
$SURFV
 70
     6
  9
$UCSBASE
  2

  9
$UCSNAME
  2

  9
$UCSORG
 10
0.0
 20
0.0
 30
0.0
  9
$UCSXDIR
 10
1.0
 20
0.0
 30
0.0
  9
$UCSYDIR
 10
0.0
 20
1.0
 30
0.0
  9
$UCSORTHOREF
  2

  9
$UCSORTHOVIEW
 70
     0
  9
$UCSORGTOP
 10
0.0
 20
0.0
 30
0.0
  9
$UCSORGBOTTOM
 10
0.0
 20
0.0
 30
0.0
  9
$UCSORGLEFT
 10
0.0
 20
0.0
 30
0.0
  9
$UCSORGRIGHT
 10
0.0
 20
0.0
 30
0.0
  9
$UCSORGFRONT
 10
0.0
 20
0.0
 30
0.0
  9
$UCSORGBACK
 10
0.0
 20
0.0
 30
0.0
  9
$PUCSBASE
  2

  9
$PUCSNAME
  2

  9
$PUCSORG
 10
0.0
 20
0.0
 30
0.0
  9
$PUCSXDIR
 10
1.0
 20
0.0
 30
0.0
  9
$PUCSYDIR
 10
0.0
 20
1.0
 30
0.0
  9
$PUCSORTHOREF
  2

  9
$PUCSORTHOVIEW
 70
     0
  9
$PUCSORGTOP
 10
0.0
 20
0.0
 30
0.0
  9
$PUCSORGBOTTOM
 10
0.0
 20
0.0
 30
0.0
  9
$PUCSORGLEFT
 10
0.0
 20
0.0
 30
0.0
  9
$PUCSORGRIGHT
 10
0.0
 20
0.0
 30
0.0
  9
$PUCSORGFRONT
 10
0.0
 20
0.0
 30
0.0
  9
$PUCSORGBACK
 10
0.0
 20
0.0
 30
0.0
  9
$USERI1
 70
     0
  9
$USERI2
 70
     0
  9
$USERI3
 70
     0
  9
$USERI4
 70
     0
  9
$USERI5
 70
     0
  9
$USERR1
 40
0.0
  9
$USERR2
 40
0.0
  9
$USERR3
 40
0.0
  9
$USERR4
 40
0.0
  9
$USERR5
 40
0.0
  9
$WORLDVIEW
 70
     1
  9
$SHADEDGE
 70
     3
  9
$SHADEDIF
 70
    70
  9
$TILEMODE
 70
     1
  9
$MAXACTVP
 70
    64
  9
$PINSBASE
 10
0.0
 20
0.0
 30
0.0
  9
$PLIMCHECK
 70
     0
  9
$PEXTMIN
 10
1.000000000000000E+20
 20
1.000000000000000E+20
 30
1.000000000000000E+20
  9
$PEXTMAX
 10
-1.000000000000000E+20
 20
-1.000000000000000E+20
 30
-1.000000000000000E+20
  9
$PLIMMIN
 10
0.0
 20
0.0
  9
$PLIMMAX
 10
420.0
 20
297.0
  9
$UNITMODE
 70
     0
  9
$VISRETAIN
 70
     1
  9
$PLINEGEN
 70
     0
  9
$PSLTSCALE
 70
     1
  9
$TREEDEPTH
 70
  3020
  9
$CMLSTYLE
  2
Standard
  9
$CMLJUST
 70
     0
  9
$CMLSCALE
 40
20.0
  9
$PROXYGRAPHICS
 70
     1
  9
$MEASUREMENT
 70
     1
  9
$CELWEIGHT
370
    -1
  9
$ENDCAPS
280
     0
  9
$JOINSTYLE
280
     0
  9
$LWDISPLAY
290
     1
  9
$INSUNITS
 70
     4
  9
$HYPERLINKBASE
  1

  9
$STYLESHEET
  1

  9
$XEDIT
290
     1
  9
$CEPSNTYPE
380
     0
  9
$PSTYLEMODE
290
     1
  9
$FINGERPRINTGUID
  2
{42AF82A7-5425-48D3-821C-E8A2AEE7A919}
  9
$VERSIONGUID
  2
{482AE6C4-A6A3-0643-9158-423898BE22C4}
  9
$EXTNAMES
290
     1
  9
$PSVPSCALE
 40
0.0
  9
$OLESTARTUP
290
     0
  9
$SORTENTS
280
   127
  9
$INDEXCTL
280
     0
  9
$HIDETEXT
280
     0
  9
$XCLIPFRAME
280
     2
  9
$HALOGAP
280
     0
  9
$OBSCOLOR
 70
   257
  9
$OBSLTYPE
280
     0
  9
$INTERSECTIONDISPLAY
280
     0
  9
$INTERSECTIONCOLOR
 70
   257
  9
$DIMASSOC
280
     1
  9
$PROJECTNAME
  1

  9
$CAMERADISPLAY
290
     0
  9
$LENSLENGTH
 40
50.0
  9
$CAMERAHEIGHT
 40
0.0
  9
$STEPSPERSEC
 40
2.0
  9
$STEPSIZE
 40
6.0
  9
$3DDWFPREC
 40
2.0
  9
$PSOLWIDTH
 40
0.25
  9
$PSOLHEIGHT
 40
4.0
  9
$LOFTANG1
 40
1.570796326794896
  9
$LOFTANG2
 40
1.570796326794896
  9
$LOFTMAG1
 40
0.0
  9
$LOFTMAG2
 40
0.0
  9
$LOFTPARAM
 70
     7
  9
$LOFTNORMALS
280
     1
  9
$LATITUDE
 40
37.795
  9
$LONGITUDE
 40
-122.394
  9
$NORTHDIRECTION
 40
0.0
  9
$TIMEZONE
 70
 -8000
  9
$LIGHTGLYPHDISPLAY
280
     1
  9
$TILEMODELIGHTSYNCH
280
     1
  9
$CMATERIAL
347
149
  9
$SOLIDHIST
280
     0
  9
$SHOWHIST
280
     1
  9
$DWFFRAME
280
     2
  9
$DGNFRAME
280
     0
  9
$REALWORLDSCALE
290
     1
  9
$INTERFERECOLOR
 62
     1
  9
$INTERFEREOBJVS
345
16B
  9
$INTERFEREVPVS
346
168
  9
$CSHADOW
280
     0
  9
$SHADOWPLANELOCATION
 40
0.0
  0
ENDSEC
  0
SECTION
  2
CLASSES
  0
CLASS
  1
ACDBDICTIONARYWDFLT
  2
AcDbDictionaryWithDefault
  3
ObjectDBX Classes
 90
        0
 91
        1
280
     0
281
     0
  0
CLASS
  1
VISUALSTYLE
  2
AcDbVisualStyle
  3
ObjectDBX Classes
 90
     4095
 91
       24
280
     0
281
     0
  0
CLASS
  1
MATERIAL
  2
AcDbMaterial
  3
ObjectDBX Classes
 90
     1153
 91
        3
280
     0
281
     0
  0
CLASS
  1
SCALE
  2
AcDbScale
  3
ObjectDBX Classes
 90
     1153
 91
       33
280
     0
281
     0
  0
CLASS
  1
TABLESTYLE
  2
AcDbTableStyle
  3
ObjectDBX Classes
 90
     4095
 91
        1
280
     0
281
     0
  0
CLASS
  1
MLEADERSTYLE
  2
AcDbMLeaderStyle
  3
ACDB_MLEADERSTYLE_CLASS
 90
     4095
 91
        1
280
     0
281
     0
  0
CLASS
  1
SUN
  2
AcDbSun
  3
SCENEOE
 90
     1153
 91
        0
280
     0
281
     0
  0
CLASS
  1
ACDBSECTIONVIEWSTYLE
  2
AcDbSectionViewStyle
  3
ObjectDBX Classes
 90
     1025
 91
        1
280
     0
281
     0
  0
CLASS
  1
ACDBDETAILVIEWSTYLE
  2
AcDbDetailViewStyle
  3
ObjectDBX Classes
 90
     1025
 91
        1
280
     0
281
     0
  0
CLASS
  1
DICTIONARYVAR
  2
AcDbDictionaryVar
  3
ObjectDBX Classes
 90
        0
 91
       18
280
     0
281
     0
  0
CLASS
  1
CELLSTYLEMAP
  2
AcDbCellStyleMap
  3
ObjectDBX Classes
 90
     1152
 91
        1
280
     0
281
     0
  0
ENDSEC
  0
SECTION
  2
TABLES
  0
TABLE
  2
VPORT
  5
8
330
0
100
AcDbSymbolTable
 70
     1
1001
ACAD
1000
DbSaveVer
1071
        5
  0
VPORT
  5
29
330
8
100
AcDbSymbolTableRecord
100
AcDbViewportTableRecord
  2
*Active
 70
     0
 10
0.0
 20
0.0
 11
1.0
 21
1.0
 12
458.542413381123
 22
200.0
 13
0.0
 23
0.0
 14
10.0
 24
10.0
 15
10.0
 25
10.0
 16
0.0
 26
0.0
 36
1.0
 17
0.0
 27
0.0
 37
0.0
 40
800.0
 41
2.292712066905615
 42
50.0
 43
0.0
 44
0.0
 50
0.0
 51
0.0
 71
     0
 72
  2000
 73
     1
 74
     3
 75
     0
 76
     0
 77
     0
 78
     0
281
     0
 65
     1
110
0.0
120
0.0
130
0.0
111
1.0
121
0.0
131
0.0
112
0.0
122
1.0
132
0.0
 79
     0
146
0.0
348
167
 60
     3
 61
     5
292
     1
282
     1
141
0.0
142
0.0
 63
   250
421
  3355443
1001
ACAD_NAV_VCDISPLAY
1070
     3
  0
ENDTAB
  0
TABLE
  2
LTYPE
  5
5
330
0
100
AcDbSymbolTable
 70
     8
  0
LTYPE
  5
14
330
5
100
AcDbSymbolTableRecord
100
AcDbLinetypeTableRecord
  2
ByBlock
 70
     0
  3

 72
    65
 73
     0
 40
0.0
  0
LTYPE
  5
15
330
5
100
AcDbSymbolTableRecord
100
AcDbLinetypeTableRecord
  2
ByLayer
 70
     0
  3

 72
    65
 73
     0
 40
0.0
  0
LTYPE
  5
16
330
5
100
AcDbSymbolTableRecord
100
AcDbLinetypeTableRecord
  2
Continuous
 70
     0
  3
Solid line
 72
    65
 73
     0
 40
0.0
  0
LTYPE
  5
6E
330
5
100
AcDbSymbolTableRecord
100
AcDbLinetypeTableRecord
  2
SLD-Continua
 70
     0
  3
SolidWorks Line Style
 72
    65
 73
     0
 40
0.0
  0
LTYPE
  5
6F
330
5
100
AcDbSymbolTableRecord
100
AcDbLinetypeTableRecord
  2
SLD-Discontinua
 70
     0
  3
SolidWorks Line Style
 72
    65
 73
     2
 40
1.905
 49
1.27
 74
     0
 49
-0.635
 74
     0
  0
LTYPE
  5
70
330
5
100
AcDbSymbolTableRecord
100
AcDbLinetypeTableRecord
  2
SLD-Centrada-doble
 70
     0
  3
SolidWorks Line Style
 72
    65
 73
     6
 40
12.7
 49
6.349999999999999
 74
     0
 49
-1.27
 74
     0
 49
1.27
 74
     0
 49
-1.27
 74
     0
 49
1.27
 74
     0
 49
-1.27
 74
     0
  0
LTYPE
  5
71
330
5
100
AcDbSymbolTableRecord
100
AcDbLinetypeTableRecord
  2
SLD-Centrada-simple
 70
     0
  3
SolidWorks Line Style
 72
    65
 73
     4
 40
10.16
 49
6.349999999999999
 74
     0
 49
-1.27
 74
     0
 49
1.27
 74
     0
 49
-1.27
 74
     0
  0
LTYPE
  5
72
330
5
100
AcDbSymbolTableRecord
100
AcDbLinetypeTableRecord
  2
SLD-Centrada-trazos-largos
 70
     0
  3
SolidWorks Line Style
 72
    65
 73
     4
 40
19.05
 49
15.24
 74
     0
 49
-1.27
 74
     0
 49
1.27
 74
     0
 49
-1.27
 74
     0
  0
LTYPE
  5
73
330
5
100
AcDbSymbolTableRecord
100
AcDbLinetypeTableRecord
  2
SLD-Puntos
 70
     0
  3
SolidWorks Line Style
 72
    65
 73
     2
 40
0.635
 49
0.0
 74
     0
 49
-0.635
 74
     0
  0
LTYPE
  5
74
330
5
100
AcDbSymbolTableRecord
100
AcDbLinetypeTableRecord
  2
SLD-Delgada-Gruesa
 70
     0
  3
SolidWorks Line Style
 72
    65
 73
     4
 40
10.16
 49
6.349999999999999
 74
     0
 49
-1.27
 74
     0
 49
1.27
 74
     0
 49
-1.27
 74
     0
  0
ENDTAB
  0
TABLE
  2
LAYER
  5
2
330
0
100
AcDbSymbolTable
 70
     8
  0
LAYER
  5
10
102
{ACAD_XDICTIONARY
360
197
102
}
330
2
100
AcDbSymbolTableRecord
100
AcDbLayerTableRecord
  2
0
 70
     0
 62
     7
  6
Continuous
370
    -3
390
F
347
159
348
0
  0
LAYER
  5
75
102
{ACAD_XDICTIONARY
360
199
102
}
330
2
100
AcDbSymbolTableRecord
100
AcDbLayerTableRecord
  2
SLD-0
 70
     0
 62
     7
  6
SLD-Continua
370
    -3
390
F
347
159
348
0
  0
LAYER
  5
76
102
{ACAD_XDICTIONARY
360
19B
102
}
330
2
100
AcDbSymbolTableRecord
100
AcDbLayerTableRecord
  2
A4
 70
     0
 62
     7
  6
SLD-Continua
370
    -3
390
F
347
159
348
0
  0
LAYER
  5
77
102
{ACAD_XDICTIONARY
360
19D
102
}
330
2
100
AcDbSymbolTableRecord
100
AcDbLayerTableRecord
  2
EJES
 70
     0
 62
     1
  6
SLD-Centrada-trazos-largos
370
    -3
390
F
347
159
348
0
  0
LAYER
  5
78
102
{ACAD_XDICTIONARY
360
19F
102
}
330
2
100
AcDbSymbolTableRecord
100
AcDbLayerTableRecord
  2
SLD-DEFPOINTS
 70
     0
 62
     7
  6
SLD-Continua
370
    -3
390
F
347
159
348
0
  0
LAYER
  5
79
102
{ACAD_XDICTIONARY
360
1A1
102
}
330
2
100
AcDbSymbolTableRecord
100
AcDbLayerTableRecord
  2
FORMAT
 70
     0
 62
     7
  6
SLD-Continua
370
    -3
390
F
347
159
348
0
  0
LAYER
  5
7A
102
{ACAD_XDICTIONARY
360
1A3
102
}
330
2
100
AcDbSymbolTableRecord
100
AcDbLayerTableRecord
  2
A3
 70
     0
 62
     7
  6
SLD-Continua
370
    -3
390
F
347
159
348
0
  0
LAYER
  5
7B
102
{ACAD_XDICTIONARY
360
1A5
102
}
330
2
100
AcDbSymbolTableRecord
100
AcDbLayerTableRecord
  2
1
 70
     0
 62
   179
  6
SLD-Continua
370
    -3
390
F
347
159
348
0
  0
ENDTAB
  0
TABLE
  2
STYLE
  5
3
330
0
100
AcDbSymbolTable
 70
     2
  0
STYLE
  5
11
330
3
100
AcDbSymbolTableRecord
100
AcDbTextStyleTableRecord
  2
STANDARD
 70
     0
 40
0.0
 41
1.0
 50
0.0
 71
     0
 42
21.1666666667
  3
ARIAL.TTF
  4

1001
ACAD
1000
ARIAL
1071
       34
  0
STYLE
  5
81
330
3
100
AcDbSymbolTableRecord
100
AcDbTextStyleTableRecord
  2
SLDTEXTSTYLE0
 70
     0
 40
0.0
 41
0.948
 50
0.0
 71
     0
 42
21.1666666667
  3
ARIAL.TTF
  4

1001
ACAD
1000
Arial
1071
      290
  0
ENDTAB
  0
TABLE
  2
VIEW
  5
6
330
0
100
AcDbSymbolTable
 70
     0
  0
ENDTAB
  0
TABLE
  2
UCS
  5
7
330
0
100
AcDbSymbolTable
 70
     0
  0
ENDTAB
  0
TABLE
  2
APPID
  5
9
330
0
100
AcDbSymbolTable
 70
     2
  0
APPID
  5
12
330
9
100
AcDbSymbolTableRecord
100
AcDbRegAppTableRecord
  2
ACAD
 70
     0
  0
APPID
  5
187
330
9
100
AcDbSymbolTableRecord
100
AcDbRegAppTableRecord
  2
ACAD_NAV_VCDISPLAY
 70
     0
  0
ENDTAB
  0
TABLE
  2
DIMSTYLE
  5
A
330
0
100
AcDbSymbolTable
 70
     4
100
AcDbDimStyleTable
 71
     0
  0
DIMSTYLE
105
27
330
A
100
AcDbSymbolTableRecord
100
AcDbDimStyleTableRecord
  2
ISO-25
 70
     0
 41
2.5
 42
0.625
 43
3.75
 44
1.25
 73
     0
 74
     0
 77
     1
 78
     8
140
2.5
141
2.5
143
0.0393700787
147
0.625
171
     3
172
     1
271
     2
272
     2
274
     3
278
    44
283
     0
284
     8
340
11
  0
DIMSTYLE
105
E3
102
{ACAD_REACTORS
330
E2
102
}
330
A
100
AcDbSymbolTableRecord
100
AcDbDimStyleTableRecord
  2
SLDDIMSTYLE0
 70
     0
 41
20.0
 44
0.0
 45
0.000000001
 78
    12
 79
     3
140
20.5465494792
147
5.136637369799999
172
     1
173
     1
271
     2
272
     2
276
     2
284
    12
289
     0
340
81
  0
DIMSTYLE
105
F1
102
{ACAD_REACTORS
330
F0
102
}
330
A
100
AcDbSymbolTableRecord
100
AcDbDimStyleTableRecord
  2
SLDDIMSTYLE1
 70
     0
 41
20.0
 44
0.0
 45
0.000000001
 78
    12
 79
     3
140
20.5465494792
147
5.136637369799999
173
     1
271
     0
272
     2
276
     2
284
    12
340
81
  0
DIMSTYLE
105
13C
102
{ACAD_REACTORS
330
13B
102
}
330
A
100
AcDbSymbolTableRecord
100
AcDbDimStyleTableRecord
  2
SLDDIMSTYLE2
 70
     0
 41
20.0
 44
0.0
 45
0.000000001
 78
    12
 79
     3
140
20.5465494792
147
5.136637369799999
173
     1
271
     2
272
     2
276
     2
284
    12
340
81
  0
ENDTAB
  0
TABLE
  2
BLOCK_RECORD
  5
1
330
0
100
AcDbSymbolTable
 70
     4
  0
BLOCK_RECORD
  5
1F
330
1
100
AcDbSymbolTableRecord
100
AcDbBlockTableRecord
  2
*Model_Space
340
22
 70
     0
280
     1
281
     0
  0
BLOCK_RECORD
  5
1B
330
1
100
AcDbSymbolTableRecord
100
AcDbBlockTableRecord
  2
*Paper_Space
340
1E
 70
     0
280
     1
281
     0
  0
BLOCK_RECORD
  5
23
330
1
100
AcDbSymbolTableRecord
100
AcDbBlockTableRecord
  2
*Paper_Space0
340
26
 70
     0
280
     1
281
     0
  0
BLOCK_RECORD
  5
E4
330
1
100
AcDbSymbolTableRecord
100
AcDbBlockTableRecord
  2
_D
340
0
 70
     0
280
     1
281
     0
  0
BLOCK_RECORD
  5
F2
330
1
100
AcDbSymbolTableRecord
100
AcDbBlockTableRecord
  2
_D_1
340
0
 70
     0
280
     1
281
     0
  0
BLOCK_RECORD
  5
13D
330
1
100
AcDbSymbolTableRecord
100
AcDbBlockTableRecord
  2
_D_2
340
0
 70
     0
280
     1
281
     0
  0
ENDTAB
  0
ENDSEC
  0
SECTION
  2
BLOCKS
  0
BLOCK
  5
20
330
1F
100
AcDbEntity
  8
0
100
AcDbBlockBegin
  2
*Model_Space
 70
     0
 10
0.0
 20
0.0
 30
0.0
  3
*Model_Space
  1

  0
ENDBLK
  5
21
330
1F
100
AcDbEntity
  8
0
100
AcDbBlockEnd
  0
BLOCK
  5
1C
330
1B
100
AcDbEntity
 67
     1
  8
0
100
AcDbBlockBegin
  2
*Paper_Space
 70
     0
 10
0.0
 20
0.0
 30
0.0
  3
*Paper_Space
  1

  0
ENDBLK
  5
1D
330
1B
100
AcDbEntity
 67
     1
  8
0
100
AcDbBlockEnd
  0
BLOCK
  5
24
330
23
100
AcDbEntity
 67
     1
  8
0
100
AcDbBlockBegin
  2
*Paper_Space0
 70
     0
 10
0.0
 20
0.0
 30
0.0
  3
*Paper_Space0
  1

  0
ENDBLK
  5
25
330
23
100
AcDbEntity
 67
     1
  8
0
100
AcDbBlockEnd
  0
BLOCK
  5
E5
330
E4
100
AcDbEntity
  8
0
100
AcDbBlockBegin
  2
_D
 70
     0
 10
0.0
 20
0.0
 30
0.0
  3
_D
  1

  0
SOLID
  5
E7
330
E4
100
AcDbEntity
  8
1
 62
     7
440
 16777216
100
AcDbTrace
 10
469.4444444444
 20
87.85531856870001
 30
0.0
 11
449.4444444444
 21
92.85531856870001
 31
0.0
 12
449.4444444444
 22
82.85531856869999
 32
0.0
 13
449.4444444444
 23
82.85531856869999
 33
0.0
  0
SOLID
  5
E8
330
E4
100
AcDbEntity
  8
1
 62
     7
440
 16777216
100
AcDbTrace
 10
519.4444444444
 20
87.85531856870001
 30
0.0
 11
539.4444444443999
 21
82.85531856869999
 31
0.0
 12
539.4444444443999
 22
92.85531856870001
 32
0.0
 13
539.4444444443999
 23
92.85531856870001
 33
0.0
  0
LINE
  5
E9
330
E4
100
AcDbEntity
  8
1
 62
     7
440
 16777216
100
AcDbLine
 10
469.4444444444
 20
139.188034188
 30
0.0
 11
469.4444444444
 21
77.8553185687
 31
0.0
  0
LINE
  5
EA
330
E4
100
AcDbEntity
  8
1
 62
     7
440
 16777216
100
AcDbLine
 10
519.4444444444
 20
139.188034188
 30
0.0
 11
519.4444444444
 21
77.8553185687
 31
0.0
  0
LINE
  5
EB
330
E4
100
AcDbEntity
  8
1
 62
     7
440
 16777216
100
AcDbLine
 10
469.4444444444
 20
87.85531856870001
 30
0.0
 11
439.4444444443999
 21
87.85531856870001
 31
0.0
  0
LINE
  5
EC
330
E4
100
AcDbEntity
  8
1
 62
     7
440
 16777216
100
AcDbLine
 10
469.4444444444
 20
87.85531856870001
 30
0.0
 11
519.4444444444
 21
87.85531856870001
 31
0.0
  0
LINE
  5
ED
330
E4
100
AcDbEntity
  8
1
 62
     7
440
 16777216
100
AcDbLine
 10
519.4444444444
 20
87.85531856870001
 30
0.0
 11
590.5807106919
 21
87.85531856870001
 31
0.0
  0
MTEXT
  5
EE
330
E4
100
AcDbEntity
  8
1
 62
     7
440
 16777216
100
AcDbMText
 10
529.246376378
 20
115.1405851451
 30
0.0
 40
21.1666666667
 41
0.0
 46
0.0
 71
     1
 72
     1
  1
%%c
  7
SLDTEXTSTYLE0
 73
     1
 44
1.0
  0
MTEXT
  5
EF
330
E4
100
AcDbEntity
  8
1
 62
     7
440
 16777216
100
AcDbMText
 10
559.2226884491
 20
115.1405851451
 30
0.0
 40
21.1666666667
 41
0.0
 46
0.0
 71
     1
 72
     1
  1
50
  7
SLDTEXTSTYLE0
 73
     1
 44
1.0
  0
ENDBLK
  5
E6
330
E4
100
AcDbEntity
  8
0
100
AcDbBlockEnd
  0
BLOCK
  5
F3
330
F2
100
AcDbEntity
  8
0
100
AcDbBlockBegin
  2
_D_1
 70
     0
 10
0.0
 20
0.0
 30
0.0
  3
_D_1
  1

  0
SOLID
  5
F5
330
F2
100
AcDbEntity
  8
1
 62
     7
440
 16777216
100
AcDbTrace
 10
559.913543535
 20
149.188034188
 30
0.0
 11
564.913543535
 21
169.188034188
 31
0.0
 12
554.913543535
 22
169.188034188
 32
0.0
 13
554.913543535
 23
169.188034188
 33
0.0
  0
SOLID
  5
F6
330
F2
100
AcDbEntity
  8
1
 62
     7
440
 16777216
100
AcDbTrace
 10
559.913543535
 20
350.288034188
 30
0.0
 11
554.913543535
 21
330.288034188
 31
0.0
 12
564.913543535
 22
330.288034188
 32
0.0
 13
564.913543535
 23
330.288034188
 33
0.0
  0
LINE
  5
F7
330
F2
100
AcDbEntity
  8
1
 62
     7
440
 16777216
100
AcDbLine
 10
529.4444444444
 20
149.188034188
 30
0.0
 11
569.913543535
 21
149.188034188
 31
0.0
  0
LINE
  5
F8
330
F2
100
AcDbEntity
  8
1
 62
     7
440
 16777216
100
AcDbLine
 10
516.4444444444
 20
350.288034188
 30
0.0
 11
569.913543535
 21
350.288034188
 31
0.0
  0
LINE
  5
F9
330
F2
100
AcDbEntity
  8
1
 62
     7
440
 16777216
100
AcDbLine
 10
559.913543535
 20
149.188034188
 30
0.0
 11
559.913543535
 21
233.9610281412
 31
0.0
  0
LINE
  5
FA
330
F2
100
AcDbEntity
  8
1
 62
     7
440
 16777216
100
AcDbLine
 10
559.913543535
 20
350.288034188
 30
0.0
 11
559.913543535
 21
265.5150402349
 31
0.0
  0
MTEXT
  5
FB
330
F2
100
AcDbEntity
  8
1
 62
     7
440
 16777216
100
AcDbMText
 10
536.3950245246
 20
261.2462947176
 30
0.0
 40
21.1666666667
 41
0.0
 46
0.0
 71
     1
 72
     1
  1
201
  7
SLDTEXTSTYLE0
 73
     1
 44
1.0
  0
ENDBLK
  5
F4
330
F2
100
AcDbEntity
  8
0
100
AcDbBlockEnd
  0
BLOCK
  5
13E
330
13D
100
AcDbEntity
  8
0
100
AcDbBlockBegin
  2
_D_2
 70
     0
 10
0.0
 20
0.0
 30
0.0
  3
_D_2
  1

  0
SOLID
  5
140
330
13D
100
AcDbEntity
  8
1
 62
     7
440
 16777216
100
AcDbTrace
 10
639.6388888888999
 20
89.18803418799999
 30
0.0
 11
659.6388888888999
 21
84.18803418800001
 31
0.0
 12
659.6388888888999
 22
94.18803418799999
 32
0.0
 13
659.6388888888999
 23
94.18803418799999
 33
0.0
  0
SOLID
  5
141
330
13D
100
AcDbEntity
  8
1
 62
     7
440
 16777216
100
AcDbTrace
 10
731.1388888888999
 20
89.18803418799999
 30
0.0
 11
711.1388888888999
 21
94.18803418799999
 31
0.0
 12
711.1388888888999
 22
84.18803418800001
 32
0.0
 13
711.1388888888999
 23
84.18803418800001
 33
0.0
  0
LINE
  5
142
330
13D
100
AcDbEntity
  8
1
 62
     7
440
 16777216
100
AcDbLine
 10
639.6388888888999
 20
239.688034188
 30
0.0
 11
639.6388888888999
 21
79.188034188
 31
0.0
  0
LINE
  5
143
330
13D
100
AcDbEntity
  8
1
 62
     7
440
 16777216
100
AcDbLine
 10
731.1388888888999
 20
331.788034188
 30
0.0
 11
731.1388888888999
 21
79.188034188
 31
0.0
  0
LINE
  5
144
330
13D
100
AcDbEntity
  8
1
 62
     7
440
 16777216
100
AcDbLine
 10
639.6388888888999
 20
89.18803418799999
 30
0.0
 11
731.1388888888999
 21
89.18803418799999
 31
0.0
  0
MTEXT
  5
145
330
13D
100
AcDbEntity
  8
1
 62
     7
440
 16777216
100
AcDbMText
 10
657.9506170981
 20
116.4733007645
 30
0.0
 40
21.1666666667
 41
0.0
 46
0.0
 71
     1
 72
     1
  1
91,5
  7
SLDTEXTSTYLE0
 73
     1
 44
1.0
  0
ENDBLK
  5
13F
330
13D
100
AcDbEntity
  8
0
100
AcDbBlockEnd
  0
ENDSEC
  0
SECTION
  2
ENTITIES
  0
LINE
  5
84
330
1F
100
AcDbEntity
  8
0
  6
SLD-Continua
 62
     7
370
    25
100
AcDbLine
 10
164.4172706007
 20
268.3959771279
 30
0.0
 11
158.0091348615
 21
272.0953151475
 31
0.0
  0
LINE
  5
85
330
1F
100
AcDbEntity
  8
0
  6
SLD-Continua
 62
     7
370
    25
100
AcDbLine
 10
140.486825893
 20
221.3321951595
 30
0.0
 11
156.8888533425
 21
211.8635062596
 31
0.0
  0
SPLINE
  5
86
330
1F
100
AcDbEntity
  8
0
  6
SLD-Continua
 62
     7
370
    25
100
AcDbSpline
210
0.0
220
0.0
230
1.0
 70
     8
 71
     3
 72
    32
 73
    28
 74
     0
 42
0.000000001
 43
0.0000000001
 40
0.0
 40
0.0
 40
0.0
 40
0.0
 40
0.0086985289831902
 40
0.0491665438845981
 40
0.0896346561892104
 40
0.1301275868104205
 40
0.1706714689958274
 40
0.2112901389667975
 40
0.2520042055324465
 40
0.2928303226279247
 40
0.3337807065366603
 40
0.3748629219985177
 40
0.4160799404955812
 40
0.4574304511732469
 40
0.4989093830953188
 40
0.5405085803710185
 40
0.5822175621320906
 40
0.6240242988870813
 40
0.6659159449482642
 40
0.7078794811337344
 40
0.7499022394904549
 40
0.7919722990345063
 40
0.8340787559145187
 40
0.8762118816075135
 40
0.9183631885287667
 40
0.960525424383897
 40
1.0
 40
1.0
 40
1.0
 40
1.0
 10
203.7624308643167
 20
306.0185102048192
 30
0.0
 10
203.7628706687193
 20
306.0405637435181
 30
0.0
 10
203.765356567485
 20
306.1652165762374
 30
0.0
 10
203.7533415222592
 20
306.3924674430833
 30
0.0
 10
203.7256105619218
 20
306.6997145708466
 30
0.0
 10
203.6796560154041
 20
307.0061017902097
 30
0.0
 10
203.6173429419928
 20
307.3113459555161
 30
0.0
 10
203.5382201845833
 20
307.6151788266917
 30
0.0
 10
203.4424604932559
 20
307.9173212265642
 30
0.0
 10
203.3300770078565
 20
308.2174834813564
 30
0.0
 10
203.2011402231161
 20
308.515362154524
 30
0.0
 10
203.0557265889007
 20
308.8106396081254
 30
0.0
 10
202.89393898489
 20
309.1029847175329
 30
0.0
 10
202.7159069265211
 20
309.3920550682247
 30
0.0
 10
202.5217907757726
 20
309.6775002337864
 30
0.0
 10
202.3117831139427
 20
309.9589657886897
 30
0.0
 10
202.0861090197835
 20
310.2360976042712
 30
0.0
 10
201.8450249883885
 20
310.5085460600025
 30
0.0
 10
201.5888166334156
 20
310.775969659578
 30
0.0
 10
201.3177964597326
 20
311.0380384404698
 30
0.0
 10
201.0322984050991
 20
311.2944347277139
 30
0.0
 10
200.7326831577324
 20
311.544859957063
 30
0.0
 10
200.419303275872
 20
311.7890150084087
 30
0.0
 10
200.0926196654684
 20
312.0266761623424
 30
0.0
 10
199.7527544428124
 20
312.2574111289562
 30
0.0
 10
199.4086356702413
 20
312.4768639356856
 30
0.0
 10
199.1722374191661
 20
312.6158278062735
 30
0.0
 10
199.0579296642524
 20
312.6830222461172
 30
0.0
  0
SPLINE
  5
87
330
1F
100
AcDbEntity
  8
0
  6
SLD-Continua
 62
     7
370
    25
100
AcDbSpline
210
0.0
220
0.0
230
1.0
 70
     8
 71
     3
 72
    79
 73
    75
 74
     0
 42
0.000000001
 43
0.0000000001
 40
0.0
 40
0.0
 40
0.0
 40
0.0
 40
0.0074893923201733
 40
0.0216580415027419
 40
0.0358235386962704
 40
0.0499859390648562
 40
0.0641446176877558
 40
0.0782991387533606
 40
0.092449224728702
 40
0.1065947292758065
 40
0.1207356137968077
 40
0.1348719274004253
 40
0.1490037899910564
 40
0.1631313781407479
 40
0.1772549133965869
 40
0.1913746526893142
 40
0.2054908805338695
 40
0.2196039027433835
 40
0.2337140414105719
 40
0.2478216309421109
 40
0.261927014960907
 40
0.2760305439174369
 40
0.290132573274139
 40
0.304233462146233
 40
0.3183335722983847
 40
0.33243326740946
 40
0.3465329125275201
 40
0.3606328116583812
 40
0.3747332714096103
 40
0.388834658705716
 40
0.402937340360758
 40
0.4170416825251989
 40
0.4311480499456716
 40
0.4452568049534968
 40
0.4593683060927347
 40
0.4734829062852983
 40
0.4876009504140817
 40
0.5017227721849352
 40
0.515848690104651
 40
0.5299790023848409
 40
0.5441139805508321
 40
0.5582538615014309
 40
0.5723988377307131
 40
0.5865490453895336
 40
0.6007045498359587
 40
0.6148653283063434
 40
0.6290312493410952
 40
0.6432020486338328
 40
0.6573773010566974
 40
0.6715563887705248
 40
0.6857384655844344
 40
0.6999224181177196
 40
0.7141064789212574
 40
0.7282885523477131
 40
0.742466345163173
 40
0.7566371369559072
 40
0.7707977655556682
 40
0.7849446333583663
 40
0.7990737421654244
 40
0.8131807642619474
 40
0.8272611562998728
 40
0.8413103198241092
 40
0.855323807812066
 40
0.8692975705954541
 40
0.8832282276987225
 40
0.8971133456340886
 40
0.9109516969693199
 40
0.9247434743252915
 40
0.938490435085812
 40
0.9521959583640283
 40
0.9658650041554535
 40
0.9795039740629299
 40
0.9931204819053943
 40
1.0
 40
1.0
 40
1.0
 40
1.0
 10
199.0579296642524
 20
312.6830222461172
 30
0.0
 10
198.9924989471259
 20
312.720394655278
 30
0.0
 10
198.8032845053526
 20
312.8284692698879
 30
0.0
 10
198.4814426606829
 20
313.0014601728112
 30
0.0
 10
198.0891341228539
 20
313.1993105138317
 30
0.0
 10
197.6860561820617
 20
313.3890999850911
 30
0.0
 10
197.2728549143024
 20
313.5707835025355
 30
0.0
 10
196.8499321206053
 20
313.744159448336
 30
0.0
 10
196.4177657983497
 20
313.9090781334254
 30
0.0
 10
195.9768219959961
 20
314.065386714308
 30
0.0
 10
195.5275783274592
 20
314.2129436958782
 30
0.0
 10
195.0705175419781
 20
314.3516148998186
 30
0.0
 10
194.6061290649779
 20
314.4812744810896
 30
0.0
 10
194.1349083495396
 20
314.6018046588858
 30
0.0
 10
193.6573567577408
 20
314.7130958425011
 30
0.0
 10
193.1739812443472
 20
314.8150466882149
 30
0.0
 10
192.685294040233
 20
314.9075641996084
 30
0.0
 10
192.1918122863288
 20
314.990563831257
 30
0.0
 10
191.6940576355923
 20
315.063969598282
 30
0.0
 10
191.1925558229568
 20
315.1277141843325
 30
0.0
 10
190.6878362080116
 20
315.1817390445041
 30
0.0
 10
190.1804312938389
 20
315.2259944997217
 30
0.0
 10
189.6708762256592
 20
315.2604398200087
 30
0.0
 10
189.1597082727107
 20
315.2850432945708
 30
0.0
 10
188.6474662966563
 20
315.2997822871047
 30
0.0
 10
188.1346902097273
 20
315.3046432751194
 30
0.0
 10
187.6219211769056
 20
315.2996218797477
 30
0.0
 10
187.1097010338609
 20
315.2847229496304
 30
0.0
 10
186.598570985727
 20
315.2599605894577
 30
0.0
 10
186.0890702898422
 20
315.2253580553147
 30
0.0
 10
185.581735734206
 20
315.1809476277752
 30
0.0
 10
185.0771018213092
 20
315.1267705652401
 30
0.0
 10
184.5757002354662
 20
315.062877018933
 30
0.0
 10
184.0780593231778
 20
314.9893259314672
 30
0.0
 10
183.5847035899918
 20
314.9061849201402
 30
0.0
 10
183.0961532173955
 20
314.8135301465292
 30
0.0
 10
182.6129236034874
 20
314.7114461744851
 30
0.0
 10
182.1355249313843
 20
314.6000258192618
 30
0.0
 10
181.6644617695031
 20
314.4793699913014
 30
0.0
 10
181.2002327080076
 20
314.349587539159
 30
0.0
 10
180.7433300357517
 20
314.2107950972005
 30
0.0
 10
180.2942394619612
 20
314.0631169451093
 30
0.0
 10
179.8534398865575
 20
313.9066848878515
 30
0.0
 10
179.4214032223529
 20
313.7416381666566
 30
0.0
 10
178.9985942711905
 20
313.5681234136699
 30
0.0
 10
178.5854706542675
 20
313.3862946652427
 30
0.0
 10
178.1824827941757
 20
313.1963134511697
 30
0.0
 10
177.7900739423193
 20
312.9983489793728
 30
0.0
 10
177.4086802401131
 20
312.792578437277
 30
0.0
 10
177.0387307953175
 20
312.5791874317845
 30
0.0
 10
176.6806477462285
 20
312.3583705890131
 30
0.0
 10
176.3348490862971
 20
312.130334184841
 30
0.0
 10
176.0017478451907
 20
311.8952973067935
 30
0.0
 10
175.6817498155701
 20
311.6534921852903
 30
0.0
 10
175.3752504840639
 20
311.4051635263856
 30
0.0
 10
175.0826346641399
 20
311.1505698811615
 30
0.0
 10
174.8042766598695
 20
310.8899861137295
 30
0.0
 10
174.540538347394
 20
310.6237046165216
 30
0.0
 10
174.2917667089603
 20
310.3520362170062
 30
0.0
 10
174.0582908340748
 20
310.0753105818033
 30
0.0
 10
173.840418473226
 20
309.793875913664
 30
0.0
 10
173.638432326759
 20
309.5080977557363
 30
0.0
 10
173.4525863184041
 20
309.2183567737861
 30
0.0
 10
173.2831022846217
 20
308.9250454827471
 30
0.0
 10
173.1301671782928
 20
308.6285640129165
 30
0.0
 10
172.9939322736946
 20
308.3293151521831
 30
0.0
 10
172.874510578862
 20
308.0276990396208
 30
0.0
 10
172.7719878351835
 20
307.7241079489814
 30
0.0
 10
172.6863905613248
 20
307.4189217326757
 30
0.0
 10
172.61782082818
 20
307.1125040683157
 30
0.0
 10
172.5659774719855
 20
306.8052009734935
 30
0.0
 10
172.5319622320577
 20
306.4973375859255
 30
0.0
 10
172.5149397480626
 20
306.239927050316
 30
0.0
 10
172.5157183983359
 20
306.0852594382325
 30
0.0
 10
172.5159797533254
 20
306.033345050573
 30
0.0
  0
LINE
  5
88
330
1F
100
AcDbEntity
  8
0
  6
SLD-Continua
 62
     7
370
    25
100
AcDbLine
 10
172.5138533425
 20
306.0186808685
 30
0.0
 11
172.5138533425
 21
278.4604284673
 31
0.0
  0
LINE
  5
89
330
1F
100
AcDbEntity
  8
0
  6
SLD-Continua
 62
     7
370
    25
100
AcDbLine
 10
203.7638533425
 20
278.4604284673
 30
0.0
 11
203.7638533425
 21
287.0548325563
 31
0.0
  0
LINE
  5
8A
330
1F
100
AcDbEntity
  8
0
  6
SLD-Continua
 62
     7
370
    25
100
AcDbLine
 10
203.7638533425
 20
295.7148520145
 30
0.0
 11
203.7638533425
 21
306.0186808685
 31
0.0
  0
SPLINE
  5
8B
330
1F
100
AcDbEntity
  8
0
  6
SLD-Continua
 62
     7
370
    25
100
AcDbSpline
210
0.0
220
0.0
230
1.0
 70
     8
 71
     3
 72
    32
 73
    28
 74
     0
 42
0.000000001
 43
0.0000000001
 40
0.0
 40
0.0
 40
0.0
 40
0.0
 40
0.010286762738336
 40
0.0506899409889896
 40
0.0910932164867959
 40
0.1315212705380151
 40
0.1720001945203604
 40
0.2125537864655043
 40
0.2532026221637266
 40
0.2939633288677619
 40
0.334848103288454
 40
0.3758644980456657
 40
0.4170154798606728
 40
0.4582997399790785
 40
0.4997122155891888
 40
0.5412447638673513
 40
0.5828869207374404
 40
0.6246266759813071
 40
0.6664512044922111
 40
0.7083475079471653
 40
0.7503029386893784
 40
0.7923055948343489
 40
0.8343445900005608
 40
0.8764102112517768
 40
0.9184939846018272
 40
0.9605886693757412
 40
1.0
 40
1.0
 40
1.0
 40
1.0
 10
172.5154668202295
 20
278.4728047159438
 30
0.0
 10
172.514929886842
 20
278.446682645868
 30
0.0
 10
172.5122840474831
 20
278.3179612760518
 30
0.0
 10
172.524306862269
 20
278.0866418873815
 30
0.0
 10
172.5521117546074
 20
277.7793947663504
 30
0.0
 10
172.5980464744829
 20
277.4730075451821
 30
0.0
 10
172.660364869909
 20
277.1677633803603
 30
0.0
 10
172.7394861974828
 20
276.8639305090545
 30
0.0
 10
172.8352462732493
 20
276.5617881092168
 30
0.0
 10
172.9476296552211
 20
276.2616258544154
 30
0.0
 10
173.0765664677996
 20
275.9637471812503
 30
0.0
 10
173.2219800945201
 20
275.6684697276481
 30
0.0
 10
173.3837677005489
 20
275.376124618241
 30
0.0
 10
173.5617997583745
 20
275.087054267549
 30
0.0
 10
173.7559159092692
 20
274.8016091019873
 30
0.0
 10
173.9659235710597
 20
274.520143547084
 30
0.0
 10
174.1915976652295
 20
274.2430117315025
 30
0.0
 10
174.4326816966217
 20
273.9705632757713
 30
0.0
 10
174.6888900515953
 20
273.7031396761957
 30
0.0
 10
174.9599102252781
 20
273.4410708953038
 30
0.0
 10
175.2454082799117
 20
273.1846746080598
 30
0.0
 10
175.5450235272783
 20
272.9342493787109
 30
0.0
 10
175.8584034091386
 20
272.690094327365
 30
0.0
 10
176.1850870195423
 20
272.4524331734316
 30
0.0
 10
176.5249522421983
 20
272.2216982068175
 30
0.0
 10
176.8690710147694
 20
272.0022454000883
 30
0.0
 10
177.1054692658446
 20
271.8632815295002
 30
0.0
 10
177.2197770207584
 20
271.7960870896566
 30
0.0
  0
SPLINE
  5
8C
330
1F
100
AcDbEntity
  8
0
  6
SLD-Continua
 62
     7
370
    25
100
AcDbSpline
210
0.0
220
0.0
230
1.0
 70
     8
 71
     3
 72
    79
 73
    75
 74
     0
 42
0.000000001
 43
0.0000000001
 40
0.0
 40
0.0
 40
0.0
 40
0.0
 40
0.0074856166531534
 40
0.0216471229195617
 40
0.0358054787859574
 40
0.049960739388631
 40
0.0641122801218799
 40
0.0782596653938088
 40
0.0924026178113579
 40
0.106540991110332
 40
0.1206747467123189
 40
0.1348039337012831
 40
0.1489286719211738
 40
0.1630491378550212
 40
0.1771655529382226
 40
0.1912781739719892
 40
0.2053872853278323
 40
0.2194931926647061
 40
0.23359621791295
 40
0.2476966953106552
 40
0.2617949683074908
 40
0.2758913871772663
 40
0.2899863072032131
 40
0.3040800873195111
 40
0.3181730891084487
 40
0.3322656760655432
 40
0.3463582130548284
 40
0.3604510039288552
 40
0.3745443551406266
 40
0.3886386334296598
 40
0.4027342054251025
 40
0.4168314370928199
 40
0.4309306929955678
 40
0.4450323352820007
 40
0.4591367223154228
 40
0.4732442068398287
 40
0.4873551335642487
 40
0.5014698360262937
 40
0.5155886325721881
 40
0.529711821263204
 40
0.5438396734877818
 40
0.5579724260253004
 40
0.5721102712727966
 40
0.5862533453124788
 40
0.6004017134694699
 40
0.6145553529915972
 40
0.6287141324855453
 40
0.6428777877781792
 40
0.657045893955956
 40
0.6712178334911917
 40
0.6853927606195992
 40
0.6995695625217638
 40
0.7137464726395982
 40
0.727921396382261
 40
0.7420920416719316
 40
0.7562556894683393
 40
0.7704091791953998
 40
0.7845489150627007
 40
0.7986709008872961
 40
0.8127708111360508
 40
0.8268441047513547
 40
0.840886185596371
 40
0.8548926088903993
 40
0.8688593270067407
 40
0.8827829611740572
 40
0.8966610791313735
 40
0.9104924540652479
 40
0.9242772784994482
 40
0.9380173089318263
 40
0.9517159227719995
 40
0.9653780775149677
 40
0.9790101715363018
 40
0.9926198148165475
 40
1.0
 40
1.0
 40
1.0
 40
1.0
 10
177.2197770207584
 20
271.7960870896566
 30
0.0
 10
177.285207737885
 20
271.7587146804957
 30
0.0
 10
177.4744221796581
 20
271.6506400658859
 30
0.0
 10
177.7962640243279
 20
271.4776491629626
 30
0.0
 10
178.1885725621569
 20
271.2797988219419
 30
0.0
 10
178.591650502949
 20
271.0900093506826
 30
0.0
 10
179.0048517707083
 20
270.9083258332382
 30
0.0
 10
179.4277745644055
 20
270.7349498874377
 30
0.0
 10
179.8599408866611
 20
270.5700312023486
 30
0.0
 10
180.3008846890146
 20
270.4137226214656
 30
0.0
 10
180.7501283575516
 20
270.2661656398957
 30
0.0
 10
181.2071891430327
 20
270.1274944359552
 30
0.0
 10
181.671577620033
 20
269.997834854684
 30
0.0
 10
182.1427983354712
 20
269.8773046768879
 30
0.0
 10
182.62034992727
 20
269.7660134932727
 30
0.0
 10
183.1037254406636
 20
269.6640626475587
 30
0.0
 10
183.5924126447778
 20
269.5715451361654
 30
0.0
 10
184.0858943986819
 20
269.4885455045167
 30
0.0
 10
184.5836490494185
 20
269.4151397374918
 30
0.0
 10
185.085150862054
 20
269.3513951514412
 30
0.0
 10
185.5898704769992
 20
269.2973702912694
 30
0.0
 10
186.0972753911718
 20
269.2531148360519
 30
0.0
 10
186.6068304593516
 20
269.218669515765
 30
0.0
 10
187.1179984122999
 20
269.1940660412028
 30
0.0
 10
187.6302403883544
 20
269.1793270486691
 30
0.0
 10
188.1430164752834
 20
269.1744660606543
 30
0.0
 10
188.6557855081051
 20
269.1794874560259
 30
0.0
 10
189.1680056511499
 20
269.1943863861433
 30
0.0
 10
189.6791356992835
 20
269.219148746316
 30
0.0
 10
190.1886363951685
 20
269.2537512804589
 30
0.0
 10
190.6959709508047
 20
269.2981617079985
 30
0.0
 10
191.2006048637015
 20
269.3523387705335
 30
0.0
 10
191.7020064495445
 20
269.4162323168408
 30
0.0
 10
192.1996473618329
 20
269.4897834043065
 30
0.0
 10
192.6930030950189
 20
269.5729244156335
 30
0.0
 10
193.1815534676152
 20
269.6655791892445
 30
0.0
 10
193.6647830815233
 20
269.7676631612885
 30
0.0
 10
194.1421817536265
 20
269.8790835165119
 30
0.0
 10
194.6132449155076
 20
269.9997393444723
 30
0.0
 10
195.0774739770031
 20
270.1295217966148
 30
0.0
 10
195.5343766492591
 20
270.2683142385731
 30
0.0
 10
195.9834672230495
 20
270.4159923906643
 30
0.0
 10
196.4242667984533
 20
270.5724244479221
 30
0.0
 10
196.8563034626578
 20
270.7374711691171
 30
0.0
 10
197.2791124138203
 20
270.9109859221039
 30
0.0
 10
197.6922360307431
 20
271.0928146705308
 30
0.0
 10
198.0952238908351
 20
271.2827958846041
 30
0.0
 10
198.4876327426915
 20
271.4807603564007
 30
0.0
 10
198.8690264448976
 20
271.6865308984966
 30
0.0
 10
199.2389758896934
 20
271.8999219039893
 30
0.0
 10
199.5970589387823
 20
272.1207387467607
 30
0.0
 10
199.9428575987137
 20
272.3487751509326
 30
0.0
 10
200.2759588398201
 20
272.5838120289801
 30
0.0
 10
200.5959568694407
 20
272.8256171504834
 30
0.0
 10
200.9024562009469
 20
273.0739458093881
 30
0.0
 10
201.1950720208709
 20
273.3285394546122
 30
0.0
 10
201.4734300251411
 20
273.5891232220442
 30
0.0
 10
201.7371683376171
 20
273.8554047192521
 30
0.0
 10
201.9859399760492
 20
274.1270731187675
 30
0.0
 10
202.219415850941
 20
274.4037987539703
 30
0.0
 10
202.4372882117665
 20
274.6852334221099
 30
0.0
 10
202.6392743583201
 20
274.9710115800367
 30
0.0
 10
202.8251203663527
 20
275.26075256199
 30
0.0
 10
202.9946044013329
 20
275.5540638530174
 30
0.0
 10
203.1475395032122
 20
275.8505453228918
 30
0.0
 10
203.2837744243353
 20
276.1497941834627
 30
0.0
 10
203.4031960578057
 20
276.4514102966273
 30
0.0
 10
203.5057190293449
 20
276.7550013850303
 30
0.0
 10
203.5913154569098
 20
277.0601876096425
 30
0.0
 10
203.659888334425
 20
277.3666052431401
 30
0.0
 10
203.7117200014788
 20
277.6739084526919
 30
0.0
 10
203.7457787261572
 20
277.9817714134549
 30
0.0
 10
203.7629154786446
 20
278.2429868764
 30
0.0
 10
203.7620608114757
 20
278.4014612834795
 30
0.0
 10
203.7617603039233
 20
278.4571821043097
 30
0.0
  0
SPLINE
  5
8D
330
1F
100
AcDbEntity
  8
0
  6
SLD-Continua
 62
     7
370
    25
100
AcDbSpline
210
0.0
220
0.0
230
1.0
 70
     8
 71
     3
 72
    54
 73
    50
 74
     0
 42
0.000000001
 43
0.0000000001
 40
0.0
 40
0.0
 40
0.0
 40
0.0
 40
0.0146393099703169
 40
0.0342758563596024
 40
0.0539330764892246
 40
0.0737100912625849
 40
0.0936977342680649
 40
0.1139727988626935
 40
0.1345914625699918
 40
0.1555827518225595
 40
0.1769440267460665
 40
0.1986410228216095
 40
0.2206140666845741
 40
0.2427895278005928
 40
0.265092898765885
 40
0.2874592835752333
 40
0.3098305246248896
 40
0.332173614273063
 40
0.3544727502224689
 40
0.3767217308994864
 40
0.3989210093193959
 40
0.4210754045344883
 40
0.4431924815089737
 40
0.4652814748632541
 40
0.4873526096232446
 40
0.5094166910438012
 40
0.5314848631172941
 40
0.5535649964276964
 40
0.5756682228188418
 40
0.597805934518982
 40
0.6199892732091545
 40
0.6422287619486489
 40
0.6645336809404502
 40
0.6869110502370944
 40
0.7093640468252928
 40
0.7318896704200269
 40
0.7544755376439736
 40
0.7770936269086136
 40
0.7996845792369156
 40
0.8221794626470734
 40
0.8444935605619338
 40
0.8665369223910959
 40
0.888230397932933
 40
0.9095218546025495
 40
0.9303962844535607
 40
0.9508768849278533
 40
0.9710189625026423
 40
0.9909007994995736
 40
1.0
 40
1.0
 40
1.0
 40
1.0
 10
227.8061294298938
 20
273.1773838623965
 30
0.0
 10
227.8422797834776
 20
273.1567723883309
 30
0.0
 10
227.926920680439
 20
273.1085135615239
 30
0.0
 10
228.0691543670977
 20
273.0501128891944
 30
0.0
 10
228.2299044709831
 20
272.9998118286868
 30
0.0
 10
228.3965558463487
 20
272.9654656659424
 30
0.0
 10
228.5682860385638
 20
272.9465083728647
 30
0.0
 10
228.7447706239885
 20
272.943235935577
 30
0.0
 10
228.9255414384704
 20
272.9557765691903
 30
0.0
 10
229.110073354174
 20
272.9843281711064
 30
0.0
 10
229.2976819707729
 20
273.0290192026482
 30
0.0
 10
229.4875088210976
 20
273.0898559910884
 30
0.0
 10
229.6785380120534
 20
273.1666572514724
 30
0.0
 10
229.8696588972384
 20
273.2590310757337
 30
0.0
 10
230.0597465822228
 20
273.366392091713
 30
0.0
 10
230.2477092184111
 20
273.4879945239049
 30
0.0
 10
230.4325570087115
 20
273.6229984905162
 30
0.0
 10
230.6134220385601
 20
273.7705268175517
 30
0.0
 10
230.7895641393567
 20
273.9297195248424
 30
0.0
 10
230.9603203451209
 20
274.0997299534635
 30
0.0
 10
231.1250730504953
 20
274.2797162158984
 30
0.0
 10
231.2832354776276
 20
274.4688376501989
 30
0.0
 10
231.4342425547646
 20
274.6662506928722
 30
0.0
 10
231.5775460695686
 20
274.8711057450083
 30
0.0
 10
231.7126127152018
 20
275.0825455830374
 30
0.0
 10
231.8389238183154
 20
275.2997053119035
 30
0.0
 10
231.9559697016714
 20
275.5217020058699
 30
0.0
 10
232.0632582089682
 20
275.7476466037543
 30
0.0
 10
232.1603159474013
 20
275.9766483677315
 30
0.0
 10
232.246691583253
 20
276.2078303935463
 30
0.0
 10
232.3219483447207
 20
276.4403211071742
 30
0.0
 10
232.385660841537
 20
276.6732537650702
 30
0.0
 10
232.4374115087054
 20
276.9057643875586
 30
0.0
 10
232.4767867800321
 20
277.1369857091098
 30
0.0
 10
232.5033742794913
 20
277.3660355213124
 30
0.0
 10
232.5167633944214
 20
277.5919979287862
 30
0.0
 10
232.5165530114453
 20
277.8138895344545
 30
0.0
 10
232.5023770286265
 20
278.0305843599667
 30
0.0
 10
232.4739563339424
 20
278.2408249723971
 30
0.0
 10
232.4311596361161
 20
278.4432303930693
 30
0.0
 10
232.3740530609089
 20
278.6363736390946
 30
0.0
 10
232.3029495004013
 20
278.8188353725498
 30
0.0
 10
232.2184107775927
 20
278.9893014036134
 30
0.0
 10
232.1212302276955
 20
279.1466963326185
 30
0.0
 10
232.0122825395565
 20
279.2901009266533
 30
0.0
 10
231.8927227767228
 20
279.4192341102832
 30
0.0
 10
231.7629023326276
 20
279.5326381527293
 30
0.0
 10
231.6503562478887
 20
279.616045672862
 30
0.0
 10
231.5783210373722
 20
279.655986805049
 30
0.0
 10
231.5557040822808
 20
279.6685271556149
 30
0.0
  0
LINE
  5
8E
330
1F
100
AcDbEntity
  8
0
  6
SLD-Continua
 62
     7
370
    25
100
AcDbLine
 10
196.7579822429
 20
291.0992358546
 30
0.0
 11
227.8065291135
 21
273.175291268
 31
0.0
  0
LINE
  5
8F
330
1F
100
AcDbEntity
  8
0
  6
SLD-Continua
 62
     7
370
    25
100
AcDbLine
 10
231.5562243609
 20
279.6706577359
 30
0.0
 11
200.6177721476
 21
297.5310460296
 31
0.0
  0
SPLINE
  5
90
330
1F
100
AcDbEntity
  8
0
  6
SLD-Continua
 62
     7
370
    25
100
AcDbSpline
210
0.0
220
0.0
230
1.0
 70
     8
 71
     3
 72
    56
 73
    52
 74
     0
 42
0.000000001
 43
0.0000000001
 40
0.0
 40
0.0
 40
0.0
 40
0.0
 40
0.0124732125570253
 40
0.0328427555260548
 40
0.0532169872405266
 40
0.0735995889107376
 40
0.0939940204908399
 40
0.1144034388375951
 40
0.1348306288382861
 40
0.1552779499645163
 40
0.1757472998124402
 40
0.1962400952317359
 40
0.2167572706917185
 40
0.2372992926517602
 40
0.2578661879570887
 40
0.2784575837173615
 40
0.299072755776898
 40
0.3197106827598624
 40
0.3403701027582736
 40
0.3610495699947999
 40
0.381747509189617
 40
0.4024622658399498
 40
0.4231921511315394
 40
0.4439354806969856
 40
0.464690606883129
 40
0.485455944564308
 40
0.5062299908295062
 40
0.5270113390785376
 40
0.5477986881900582
 40
0.5685908474858672
 40
0.589386738223106
 40
0.6101853923140826
 40
0.6309859489144856
 40
0.6517876494464953
 40
0.6725898195252174
 40
0.6933917257917378
 40
0.7141929037974157
 40
0.7349929619119612
 40
0.7557915743282062
 40
0.7765884743440694
 40
0.797383448017547
 40
0.8181763282495925
 40
0.8389669893241444
 40
0.8597553419150266
 40
0.8805413285551725
 40
0.9013249195530885
 40
0.9221061093343944
 40
0.9428849131819514
 40
0.9636613643451982
 40
0.9844355114886313
 40
1.0
 40
1.0
 40
1.0
 40
1.0
 10
220.0050609772869
 20
256.290723455876
 30
0.0
 10
220.0021479263958
 20
256.3787386631109
 30
0.0
 10
219.9944776796319
 20
256.6104882561349
 30
0.0
 10
219.9631314975606
 20
256.985590632314
 30
0.0
 10
219.9130276854234
 20
257.4157750018317
 30
0.0
 10
219.8454022891506
 20
257.8451328374518
 30
0.0
 10
219.7612015351201
 20
258.2734754700644
 30
0.0
 10
219.6602077881757
 20
258.7005933015789
 30
0.0
 10
219.542521756401
 20
259.1262786412004
 30
0.0
 10
219.4081663081281
 20
259.5503187464922
 30
0.0
 10
219.2571941596175
 20
259.972497173769
 30
0.0
 10
219.0896604461317
 20
260.3925932385888
 30
0.0
 10
218.9056314957346
 20
260.8103823198286
 30
0.0
 10
218.7051837604907
 20
261.2256362503995
 30
0.0
 10
218.4884051952907
 20
261.6381239561796
 30
0.0
 10
218.2553957379523
 20
262.0476122446576
 30
0.0
 10
218.0062677608325
 20
262.4538667062265
 30
0.0
 10
217.7411462523548
 20
262.8566526717403
 30
0.0
 10
217.4601688034779
 20
263.2557361774731
 30
0.0
 10
217.1634854041661
 20
263.6508848933077
 30
0.0
 10
216.8512580846948
 20
264.0418689786372
 30
0.0
 10
216.5236604352642
 20
264.4284618399138
 30
0.0
 10
216.1808770401967
 20
264.8104407735869
 30
0.0
 10
215.8231028610508
 20
265.1875874873146
 30
0.0
 10
215.4505425995068
 20
265.5596885002195
 30
0.0
 10
215.0634100659144
 20
265.9265354292149
 30
0.0
 10
214.6619275738267
 20
266.2879251729166
 30
0.0
 10
214.2463253752082
 20
266.6436600074355
 30
0.0
 10
213.8168411457489
 20
266.9935476096271
 30
0.0
 10
213.3737195251402
 20
267.3374010234276
 30
0.0
 10
212.9172117134082
 20
267.6750385840517
 30
0.0
 10
212.447575121519
 20
268.0062838133475
 30
0.0
 10
211.9650730723875
 20
268.3309652977962
 30
0.0
 10
211.4699746424815
 20
268.6489164974193
 30
0.0
 10
210.9625556673467
 20
268.9599748830689
 30
0.0
 10
210.443097177857
 20
269.2639828202382
 30
0.0
 10
209.9118851228241
 20
269.5607874869513
 30
0.0
 10
209.3692088824157
 20
269.8502414028835
 30
0.0
 10
208.8153626943432
 20
270.132201401367
 30
0.0
 10
208.2506455584071
 20
270.4065285639982
 30
0.0
 10
207.6753611309331
 20
270.6730881500011
 30
0.0
 10
207.0898176834307
 20
270.9317496166292
 30
0.0
 10
206.4943278337914
 20
271.1823863677336
 30
0.0
 10
205.8892091267669
 20
271.4248765795665
 30
0.0
 10
205.2747814367104
 20
271.6591000639938
 30
0.0
 10
204.6513762119093
 20
271.884949968562
 30
0.0
 10
204.0193015118521
 20
272.1022891585384
 30
0.0
 10
203.3789719739596
 20
272.3111130510925
 30
0.0
 10
202.7304233329543
 20
272.5109421236266
 30
0.0
 10
202.1298776166674
 20
272.6870338531844
 30
0.0
 10
201.7423418517592
 20
272.7924308992992
 30
0.0
 10
201.5763533425054
 20
272.8375743419141
 30
0.0
  0
SPLINE
  5
91
330
1F
100
AcDbEntity
  8
0
  6
SLD-Continua
 62
     7
370
    25
100
AcDbSpline
210
0.0
220
0.0
230
1.0
 70
     8
 71
     3
 72
    56
 73
    52
 74
     0
 42
0.000000001
 43
0.0000000001
 40
0.0
 40
0.0
 40
0.0
 40
0.0
 40
0.0081370156674113
 40
0.0288838828356076
 40
0.0496330946448969
 40
0.0703847310726265
 40
0.0911388616229436
 40
0.1118955434345495
 40
0.1326548191145964
 40
0.153416714269137
 40
0.1741812346993355
 40
0.1949483632319651
 40
0.2157180561534671
 40
0.2364902392183699
 40
0.2572648032065283
 40
0.2780415990095235
 40
0.2988204322353973
 40
0.3196010573335815
 40
0.3403831712593626
 40
0.3611664067201686
 40
0.3819503250757684
 40
0.402734294935724
 40
0.4235176063026723
 40
0.4442995299883982
 40
0.4650792344819016
 40
0.4858557801816655
 40
0.5066281149954736
 40
0.5273950718431012
 40
0.5481553686903031
 40
0.5689076118139562
 40
0.5896503030471186
 40
0.6103818517680652
 40
0.6311005923627501
 40
0.6518048077915505
 40
0.6724927597146032
 40
0.6931627253654188
 40
0.7138130410063876
 40
0.7344421513589992
 40
0.7550486638945645
 40
0.7756314063303616
 40
0.79618948514591
 40
0.8167223424698088
 40
0.8372298083468706
 40
0.8577121452329039
 40
0.8781700816229715
 40
0.8986048320199667
 40
0.9190181009916219
 40
0.9394120698167093
 40
0.9597893651322012
 40
0.9801530099933851
 40
1.0
 40
1.0
 40
1.0
 40
1.0
 10
174.7013533425054
 20
272.8373001923621
 30
0.0
 10
174.6141953799511
 20
272.8140177399097
 30
0.0
 10
174.3048116351598
 20
272.731372252148
 30
0.0
 10
173.7806580573939
 20
272.5800472398126
 30
0.0
 10
173.1292045128706
 20
272.3835644714692
 30
0.0
 10
172.4860548881149
 20
272.177784159047
 30
0.0
 10
171.8509795036306
 20
271.963522729571
 30
0.0
 10
171.2244647161633
 20
271.740691918401
 30
0.0
 10
170.6067999030239
 20
271.5094510588532
 30
0.0
 10
169.998322002606
 20
271.2698982202218
 30
0.0
 10
169.3993498421628
 20
271.0221529365035
 30
0.0
 10
168.8102016112497
 20
270.7663339970401
 30
0.0
 10
168.2311900610825
 20
270.502565369839
 30
0.0
 10
167.6626236817082
 20
270.2309745966119
 30
0.0
 10
167.1048062846448
 20
269.9516932187035
 30
0.0
 10
166.5580370191414
 20
269.6648566742096
 30
0.0
 10
166.0226102768026
 20
269.3706043544946
 30
0.0
 10
165.4988156284387
 20
269.0690796378769
 30
0.0
 10
164.9869377516562
 20
268.7604299514104
 30
0.0
 10
164.4872563566689
 20
268.4448068490012
 30
0.0
 10
164.0000469950494
 20
268.122366700288
 30
0.0
 10
163.5255807803001
 20
267.7932708378326
 30
0.0
 10
163.0641235984616
 20
267.4576853551781
 30
0.0
 10
162.6159351564998
 20
267.1157806462219
 30
0.0
 10
162.1812689664632
 20
266.7677315852655
 30
0.0
 10
161.7603727095676
 20
266.4137181144084
 30
0.0
 10
161.3534879727197
 20
266.0539254308529
 30
0.0
 10
160.9608499325882
 20
265.6885441689694
 30
0.0
 10
160.5826869814636
 20
265.317770566125
 30
0.0
 10
160.2192202906134
 20
264.9418065988003
 30
0.0
 10
159.87066330925
 20
264.5608600732308
 30
0.0
 10
159.5372212005528
 20
264.1751446529103
 30
0.0
 10
159.2190902204832
 20
263.7848798040804
 30
0.0
 10
158.916457050314
 20
263.3902906401648
 30
0.0
 10
158.6294980997065
 20
262.9916076473455
 30
0.0
 10
158.3583788033609
 20
262.5890662764685
 30
0.0
 10
158.1032529405533
 20
262.1829063914257
 30
0.0
 10
157.8642620113747
 20
261.7733715711964
 30
0.0
 10
157.6415347099211
 20
261.3607082716057
 30
0.0
 10
157.4351865255176
 20
260.9451648634005
 30
0.0
 10
157.245319539952
 20
260.5269905737949
 30
0.0
 10
157.0720223387703
 20
260.1064343716127
 30
0.0
 10
156.9153704836127
 20
259.6837438378019
 30
0.0
 10
156.7754259752552
 20
259.2591640990577
 30
0.0
 10
156.6522415896579
 20
258.8329367970924
 30
0.0
 10
156.5458481316602
 20
258.4052994686944
 30
0.0
 10
156.4563062858791
 20
257.9764842012149
 30
0.0
 10
156.3835185160365
 20
257.5467200236729
 30
0.0
 10
156.3279357197812
 20
257.1162225876575
 30
0.0
 10
156.2882603797472
 20
256.6888046551373
 30
0.0
 10
156.2760098964619
 20
256.4047580999062
 30
0.0
 10
156.2699633562832
 20
256.2645596384389
 30
0.0
  0
LINE
  5
92
330
1F
100
AcDbEntity
  8
0
  6
SLD-Continua
 62
     7
370
    25
100
AcDbLine
 10
220.0138533425
 20
254.3724745167
 30
0.0
 11
220.0138533425
 21
255.903488539
 31
0.0
  0
LINE
  5
93
330
1F
100
AcDbEntity
  8
0
  6
SLD-Continua
 62
     7
370
    25
100
AcDbLine
 10
156.2638533425
 20
255.903488539
 30
0.0
 11
156.2638533425
 21
254.3724745167
 31
0.0
  0
LINE
  5
94
330
1F
100
AcDbEntity
  8
0
  6
SLD-Continua
 62
     7
370
    25
100
AcDbLine
 10
201.5763533425
 20
263.5585586504
 30
0.0
 11
201.5763533425
 21
273.6964512686
 31
0.0
  0
LINE
  5
95
330
1F
100
AcDbEntity
  8
0
  6
SLD-Continua
 62
     7
370
    25
100
AcDbLine
 10
174.7013533425
 20
273.6943757713
 30
0.0
 11
174.7013533425
 21
263.5585586504
 31
0.0
  0
SPLINE
  5
96
330
1F
100
AcDbEntity
  8
0
  6
SLD-Continua
 62
     7
370
    25
100
AcDbSpline
210
0.0
220
0.0
230
1.0
 70
     8
 71
     3
 72
    14
 73
    10
 74
     0
 42
0.000000001
 43
0.0000000001
 40
0.0
 40
0.0
 40
0.0
 40
0.0
 40
0.1888805378033887
 40
0.3694196248183451
 40
0.5270361034865373
 40
0.6692892910741806
 40
0.8006650418596265
 40
0.9240076786770959
 40
1.0
 40
1.0
 40
1.0
 40
1.0
 10
174.7003503336473
 20
263.5587675135615
 30
0.0
 10
174.6999406965436
 20
263.5227815340992
 30
0.0
 10
174.6991395129653
 20
263.4523988086672
 30
0.0
 10
174.6872905050208
 20
263.3601730558856
 30
0.0
 10
174.6736597859974
 20
263.2885416500432
 30
0.0
 10
174.6604233343883
 20
263.2377032746506
 30
0.0
 10
174.6502157519457
 20
263.205682104018
 30
0.0
 10
174.6437389863072
 20
263.1890361972307
 30
0.0
 10
174.6439993713383
 20
263.1896660725866
 30
0.0
 10
174.6440986377345
 20
263.189906199511
 30
0.0
  0
SPLINE
  5
97
330
1F
100
AcDbEntity
  8
0
  6
SLD-Continua
 62
     7
370
    25
100
AcDbSpline
210
0.0
220
0.0
230
1.0
 70
     8
 71
     3
 72
    14
 73
    10
 74
     0
 42
0.000000001
 43
0.0000000001
 40
0.0
 40
0.0
 40
0.0
 40
0.0
 40
0.0928836459697518
 40
0.2186477258214104
 40
0.3514836980695847
 40
0.4936477236553917
 40
0.6486509299310983
 40
0.8224681297869198
 40
1.0
 40
1.0
 40
1.0
 40
1.0
 10
201.6339582857473
 20
263.1891281422643
 30
0.0
 10
201.633801615531
 20
263.1894656498574
 30
0.0
 10
201.6334328144775
 20
263.1902601413625
 30
0.0
 10
201.6262382552648
 20
263.2092836999072
 30
0.0
 10
201.6154606554475
 20
263.2440202914609
 30
0.0
 10
201.6022490452316
 20
263.296732906946
 30
0.0
 10
201.5891498868395
 20
263.3686064264025
 30
0.0
 10
201.5784052724863
 20
263.458045033122
 30
0.0
 10
201.5774072178143
 20
263.5249152214425
 30
0.0
 10
201.5769029144659
 20
263.558703811211
 30
0.0
  0
LINE
  5
98
330
1F
100
AcDbEntity
  8
0
  6
SLD-Continua
 62
     7
370
    25
100
AcDbLine
 10
219.3888533425
 20
101.2710722881
 30
0.0
 11
219.3888533425
 21
250.7464309516
 31
0.0
  0
LINE
  5
99
330
1F
100
AcDbEntity
  8
0
  6
SLD-Continua
 62
     7
370
    25
100
AcDbLine
 10
156.8888533425
 20
250.7464309516
 30
0.0
 11
156.8888533425
 21
101.2710722881
 31
0.0
  0
ARC
  5
9A
330
1F
100
AcDbEntity
  8
0
  6
SLD-Continua
 62
     7
370
    25
100
AcDbCircle
 10
140.9848516504
 20
261.6923241277
 30
0.0
 40
0.5763018028394643
100
AcDbArc
 50
122.60547834
 51
177.3945215143
  0
LINE
  5
9B
330
1F
100
AcDbEntity
  8
0
  6
SLD-Continua
 62
     7
370
    25
100
AcDbLine
 10
140.4091456124
 20
261.7185219473
 30
0.0
 11
140.4091456124
 21
221.5038869619
 31
0.0
  0
LWPOLYLINE
  5
9C
330
1F
100
AcDbEntity
  8
0
  6
SLD-Continua
 62
     7
370
    25
100
AcDbPolyline
 90
       90
 70
   128
 43
0.0
 10
145.7124464713
 20
241.6117020799
 10
145.8994911324
 20
241.4960960606
 10
146.0856039463
 20
241.365811115
 10
146.2698577085
 20
241.2214963161
 10
146.4513344759
 20
241.063870633
 10
146.6291301405
 20
240.893719349
 10
146.8023589331
 20
240.7118901491
 10
146.9701578367
 20
240.5192888973
 10
147.1316908855
 20
240.3168751233
 10
147.28615333
 20
240.1056572424
 10
147.4327756461
 20
239.8866875314
 10
147.5708273688
 20
239.6610568864
 10
147.6996207314
 20
239.429889388
 10
147.8185140917
 20
239.194336701
 10
147.9269151291
 20
238.9555723369
 10
148.0242837951
 20
238.714785808
 10
148.1101350038
 20
238.4731767005
 10
148.1840410488
 20
238.2319486989
 10
148.2456337339
 20
237.992303589
 10
148.2946062076
 20
237.7554352705
 10
148.3307144913
 20
237.5225238097
 10
148.3537786954
 20
237.2947295596
 10
148.3636839153
 20
237.0731873797
 10
148.3603808036
 20
236.8590009821
 10
148.3438858162
 20
236.6532374326
 10
148.3142811304
 20
236.4569218349
 10
148.2717142352
 20
236.2710322234
 10
148.2163971968
 20
236.0964946907
 10
148.1486056017
 20
235.9341787741
 10
148.0686771844
 20
235.7848931234
 10
147.9770101443
 20
235.6493814721
 10
147.8740611618
 20
235.5283189325
 10
147.7603431237
 20
235.422308632
 10
147.6364225674
 20
235.3318787086
 10
147.502916859
 20
235.2574796797
 10
147.3604911173
 20
235.1994821975
 10
147.2098549
 20
235.1581752025
 10
147.0517586692
 20
235.133764484
 10
146.8869900524
 20
235.1263716552
 10
146.7163699186
 20
235.1360335466
 10
146.5407482886
 20
235.1627020232
 10
146.3610001007
 20
235.206244224
 10
146.1780208512
 20
235.2664432239
 10
145.9927221336
 20
235.3429991146
 10
145.8060270967
 20
235.4355304984
 10
145.6188658459
 20
235.5435763887
 10
145.432170809
 20
235.6665985062
 10
145.2468720914
 20
235.8039839611
 10
145.0638928419
 20
235.9550483057
 10
144.884144654
 20
236.1190389452
 10
144.7085230241
 20
236.2951388865
 10
144.5379028902
 20
236.4824708085
 10
144.3731342735
 20
236.680101433
 10
144.2150380427
 20
236.8870461741
 10
144.0644018254
 20
237.1022740436
 10
143.9219760836
 20
237.3247127871
 10
143.7884703752
 20
237.5532542259
 10
143.664549819
 20
237.786759778
 10
143.5508317808
 20
238.0240661306
 10
143.4478827984
 20
238.2639910354
 10
143.3562157582
 20
238.5053391985
 10
143.2762873409
 20
238.7469082355
 10
143.2084957459
 20
238.9874946616
 10
143.1531787074
 20
239.2258998874
 10
143.1106118122
 20
239.4609361901
 10
143.0810071264
 20
239.6914326305
 10
143.064512139
 20
239.916240887
 10
143.0612090273
 20
240.1342409762
 10
143.0711142472
 20
240.3443468326
 10
143.0941784513
 20
240.5455117194
 10
143.130286735
 20
240.7367334433
 10
143.1792592087
 20
240.9170593472
 10
143.2408518939
 20
241.0855910566
 10
143.3147579389
 20
241.2414889549
 10
143.4006091476
 20
241.3839763667
 10
143.4979778135
 20
241.5123434269
 10
143.6063788509
 20
241.6259506171
 10
143.7252722112
 20
241.7242319522
 10
143.8540655738
 20
241.8066977994
 10
143.9921172965
 20
241.8729373181
 10
144.1387396126
 20
241.9226205063
 10
144.2932020572
 20
241.9554998448
 10
144.454735106
 20
241.9714115304
 10
144.6225340095
 20
241.970276292
 10
144.7957628022
 20
241.9520997851
 10
144.9735584667
 20
241.9169725644
 10
145.1550352342
 20
241.8650696317
 10
145.3392889963
 20
241.796649565
 10
145.5254018103
 20
241.7120532294
 10
145.7124464713
 20
241.6117020799
  0
LINE
  5
9D
330
1F
100
AcDbEntity
  8
0
  6
SLD-Continua
 62
     7
370
    25
100
AcDbLine
 10
157.8216500991
 20
272.0767496286
 30
0.0
 11
140.6743106554
 21
262.1778012727
 31
0.0
  0
ARC
  5
9E
330
1F
100
AcDbEntity
  8
0
  6
SLD-Continua
 62
     7
370
    25
100
AcDbCircle
 10
157.9314951197
 20
271.9234191302
 30
0.0
 40
0.188616463463182
100
AcDbArc
 50
65.6928809539
 51
125.6175774752
  0
ARC
  5
9F
330
1F
100
AcDbEntity
  8
0
  6
SLD-Continua
 62
     7
370
    25
100
AcDbCircle
 10
140.5928963258
 20
221.4836044355
 30
0.0
 40
0.1848667237997899
100
AcDbArc
 50
173.7011524906
 51
234.9866671161
  0
LWPOLYLINE
  5
A0
330
1F
100
AcDbEntity
  8
0
  6
SLD-Continua
 62
     7
370
    25
100
AcDbPolyline
 90
       81
 70
   128
 43
0.0
 10
143.7002006731
 20
238.7997803709
 10
143.7683372222
 20
238.5809431218
 10
143.8484598512
 20
238.3619130883
 10
143.9400745776
 20
238.1440406635
 10
144.0426165661
 20
237.9286691033
 10
144.1554536112
 20
237.7171262451
 10
144.2778900351
 20
237.5107163208
 10
144.4091709764
 20
237.3107119163
 10
144.5484870446
 20
237.1183461253
 10
144.6949793096
 20
236.9348049468
 10
144.8477445981
 20
236.7612199732
 10
145.0058410611
 20
236.5986614136
 10
145.1682939815
 20
236.4481314957
 10
145.3341017829
 20
236.3105582863
 10
145.5022422052
 20
236.1867899701
 10
145.6716786066
 20
236.0775896199
 10
145.8413663555
 20
235.9836304922
 10
146.0102592704
 20
235.9054918762
 10
146.1773160704
 20
235.8436555225
 10
146.3415067947
 20
235.7985026728
 10
146.501819153
 20
235.7703117094
 10
146.6572647661
 20
235.7592564389
 10
146.8068852603
 20
235.7654050209
 10
146.9497581755
 20
235.7887195472
 10
147.0850026525
 20
235.829056276
 10
147.2117848642
 20
235.886166518
 10
147.3293231562
 20
235.9596981695
 10
147.4368928657
 20
236.0491978835
 10
147.5338307898
 20
236.1541138645
 10
147.6195392739
 20
236.2737992706
 10
147.6934898967
 20
236.4075162013
 10
147.755226728
 20
236.5544402475
 10
147.8043691397
 20
236.7136655734
 10
147.8406141526
 20
236.8842105021
 10
147.863738304
 20
237.0650235672
 10
147.8735990259
 20
237.2549899962
 10
147.8701355236
 20
237.4529385828
 10
147.8533691508
 20
237.6576489082
 10
147.8234032778
 20
237.8678588651
 10
147.780422654
 20
238.0822724392
 10
147.7246922695
 20
238.2995676997
 10
147.6565557204
 20
238.5184049488
 10
147.5764330914
 20
238.7374349823
 10
147.484818365
 20
238.9553074071
 10
147.3822763765
 20
239.1706789673
 10
147.2694393314
 20
239.3822218255
 10
147.1470029075
 20
239.5886317498
 10
147.0157219662
 20
239.7886361543
 10
146.876405898
 20
239.9810019453
 10
146.729913633
 20
240.1645431238
 10
146.5771483445
 20
240.3381280974
 10
146.4190518815
 20
240.5006866569
 10
146.2565989611
 20
240.6512165749
 10
146.0907911597
 20
240.7887897843
 10
145.9226507374
 20
240.9125581005
 10
145.753214336
 20
241.0217584507
 10
145.5835265871
 20
241.1157175784
 10
145.4146336722
 20
241.1938561944
 10
145.2475768722
 20
241.2556925481
 10
145.0833861479
 20
241.3008453978
 10
144.9230737896
 20
241.3290363612
 10
144.7676281765
 20
241.3400916317
 10
144.6180076823
 20
241.3339430497
 10
144.4751347672
 20
241.3106285234
 10
144.3398902901
 20
241.2702917946
 10
144.2131080784
 20
241.2131815526
 10
144.0955697864
 20
241.1396499011
 10
143.9880000769
 20
241.0501501871
 10
143.8910621528
 20
240.9452342061
 10
143.8053536687
 20
240.8255488
 10
143.7314030459
 20
240.6918318693
 10
143.6696662146
 20
240.5449078231
 10
143.6205238029
 20
240.3856824972
 10
143.58427879
 20
240.2151375685
 10
143.5611546386
 20
240.0343245034
 10
143.5512939168
 20
239.8443580744
 10
143.554757419
 20
239.6464094878
 10
143.5715237918
 20
239.4416991624
 10
143.6014896649
 20
239.2314892055
 10
143.6444702886
 20
239.0170756313
 10
143.7002006731
 20
238.7997803709
  0
LINE
  5
A1
330
1F
100
AcDbEntity
  8
0
  6
SLD-Continua
 62
     7
370
    25
100
AcDbLine
 10
146.9092221828
 20
236.7563221935
 30
0.0
 11
147.1376404847
 21
238.372533622
 31
0.0
  0
LINE
  5
A2
330
1F
100
AcDbEntity
  8
0
  6
SLD-Continua
 62
     7
370
    25
100
AcDbLine
 10
145.9408647732
 20
240.1658854639
 30
0.0
 11
147.1376404847
 21
238.372533622
 31
0.0
  0
LINE
  5
A3
330
1F
100
AcDbEntity
  8
0
  6
SLD-Continua
 62
     7
370
    25
100
AcDbLine
 10
144.5156707599
 20
240.3430258771
 30
0.0
 11
145.9408647732
 21
240.1658854639
 31
0.0
  0
LINE
  5
A4
330
1F
100
AcDbEntity
  8
0
  6
SLD-Continua
 62
     7
370
    25
100
AcDbLine
 10
144.5156707599
 20
240.3430258771
 30
0.0
 11
144.2872524579
 21
238.7268144485
 31
0.0
  0
LINE
  5
A5
330
1F
100
AcDbEntity
  8
0
  6
SLD-Continua
 62
     7
370
    25
100
AcDbLine
 10
145.4840281694
 20
236.9334626067
 30
0.0
 11
144.2872524579
 21
238.7268144485
 31
0.0
  0
LINE
  5
A6
330
1F
100
AcDbEntity
  8
0
  6
SLD-Continua
 62
     7
370
    25
100
AcDbLine
 10
145.4840281694
 20
236.9334626067
 30
0.0
 11
146.9092221828
 21
236.7563221935
 31
0.0
  0
LINE
  5
A7
330
1F
100
AcDbEntity
  8
0
  6
SLD-Continua
 62
     7
370
    25
100
AcDbLine
 10
147.0630894222999
 20
237.8450352647
 30
0.0
 11
145.4840281694
 21
236.9334626067
 31
0.0
  0
LINE
  5
A8
330
1F
100
AcDbEntity
  8
0
  6
SLD-Continua
 62
     7
370
    25
100
AcDbLine
 10
146.1742528852
 20
239.8161566079
 30
0.0
 11
144.2872524579
 21
238.7268144485
 31
0.0
  0
LINE
  5
A9
330
1F
100
AcDbEntity
  8
0
  6
SLD-Continua
 62
     7
370
    25
100
AcDbLine
 10
172.5138533425
 20
306.0186808685
 30
0.0
 11
172.5138710408
 21
306.0322572187
 31
0.0
  0
LINE
  5
AA
330
1F
100
AcDbEntity
  8
0
  6
SLD-Continua
 62
     7
370
    25
100
AcDbLine
 10
172.5138659585
 20
278.4718909515
 30
0.0
 11
172.5138533425
 21
278.4604284673
 31
0.0
  0
SPLINE
  5
AB
330
1F
100
AcDbEntity
  8
0
  6
SLD-Continua
 62
     7
370
    25
100
AcDbSpline
210
0.0
220
0.0
230
1.0
 70
     8
 71
     3
 72
    40
 73
    36
 74
     0
 42
0.000000001
 43
0.0000000001
 40
0.0
 40
0.0
 40
0.0
 40
0.0
 40
0.0107179895323733
 40
0.0421646411931773
 40
0.0744251800606276
 40
0.1067867917827933
 40
0.1390449388759585
 40
0.171445806359328
 40
0.2039533130095295
 40
0.2363494043519412
 40
0.26792667553473
 40
0.2996080407984495
 40
0.3311859326974532
 40
0.3622763637691699
 40
0.3934642533407553
 40
0.4245589205148227
 40
0.4562392884575864
 40
0.4880168647834136
 40
0.5196987036281806
 40
0.5521334440446629
 40
0.5846715174143512
 40
0.6171023759868893
 40
0.6492986769320105
 40
0.6816016443594246
 40
0.7137945914980067
 40
0.745155667247972
 40
0.7766186174709726
 40
0.8079817480332323
 40
0.8391905394802884
 40
0.8704962284826278
 40
0.9017089224806952
 40
0.9336429077203943
 40
0.9656754925768844
 40
0.9976095438081468
 40
1.0
 40
1.0
 40
1.0
 40
1.0
 10
197.5315027198673
 20
290.6526919881473
 30
0.0
 10
197.4996659613608
 20
290.6600148174985
 30
0.0
 10
197.3744199443607
 20
290.688822876247
 30
0.0
 10
197.1704084367632
 20
290.7834589577384
 30
0.0
 10
196.9259227148846
 20
290.9369113763379
 30
0.0
 10
196.7075688748138
 20
291.1340104046418
 30
0.0
 10
196.5195705728421
 20
291.3669900906439
 30
0.0
 10
196.3676402281623
 20
291.6347316842357
 30
0.0
 10
196.2537010985696
 20
291.9320522478648
 30
0.0
 10
196.1810234229218
 20
292.2518549431087
 30
0.0
 10
196.1520213266265
 20
292.5894816843225
 30
0.0
 10
196.16418294793
 20
292.9392648398593
 30
0.0
 10
196.2167456926227
 20
293.2979500737941
 30
0.0
 10
196.3095068208108
 20
293.6609765577834
 30
0.0
 10
196.4380861284331
 20
294.0241466838391
 30
0.0
 10
196.6015492507021
 20
294.3879624176818
 30
0.0
 10
196.7986319641389
 20
294.7485047820368
 30
0.0
 10
197.0251473266898
 20
295.1024024996872
 30
0.0
 10
197.278073139972
 20
295.4469702122388
 30
0.0
 10
197.5544294373128
 20
295.7781770656297
 30
0.0
 10
197.8493853640662
 20
296.0926962158538
 30
0.0
 10
198.1554567765474
 20
296.3841288610012
 30
0.0
 10
198.4677074549212
 20
296.6486277334013
 30
0.0
 10
198.7811815530493
 20
296.8841245367828
 30
0.0
 10
199.0895135609809
 20
297.0867270835431
 30
0.0
 10
199.3878718859685
 20
297.2536095349986
 30
0.0
 10
199.6732799954687
 20
297.3847912307299
 30
0.0
 10
199.9447630696629
 20
297.4798821832059
 30
0.0
 10
200.1987700673438
 20
297.5364525805049
 30
0.0
 10
200.4340969706042
 20
297.5550827737371
 30
0.0
 10
200.6509280973191
 20
297.5347375820681
 30
0.0
 10
200.8475336086301
 20
297.4742922854826
 30
0.0
 10
201.0196971573237
 20
297.3684119610506
 30
0.0
 10
201.1294480157139
 20
297.2787462028834
 30
0.0
 10
201.1740340255525
 20
297.2127280410542
 30
0.0
 10
201.1771391219193
 20
297.2081303487471
 30
0.0
  0
LWPOLYLINE
  5
AC
330
1F
100
AcDbEntity
  8
0
  6
SLD-Continua
 62
     7
370
    25
100
AcDbPolyline
 90
        3
 70
   128
 43
0.0
 10
156.2706471362
 20
255.5235919065
 10
156.2638533425
 20
255.903488539
 10
156.2695364059
 20
256.2509481276
  0
LWPOLYLINE
  5
AD
330
1F
100
AcDbEntity
  8
0
  6
SLD-Continua
 62
     7
370
    25
100
AcDbPolyline
 90
        3
 70
   128
 43
0.0
 10
220.007316171
 20
256.2761419311
 10
220.0138533425
 20
255.903488539
 10
220.0077433496
 20
255.5432153476
  0
LWPOLYLINE
  5
AE
330
1F
100
AcDbEntity
  8
0
  6
SLD-Continua
 62
     7
370
    25
100
AcDbPolyline
 90
      121
 70
   128
 43
0.0
 10
220.0138533425
 20
254.3724745167
 10
220.0029305761
 20
253.8907912914
 10
219.9701697628
 20
253.4094381877
 10
219.9155933552
 20
252.928745101
 10
219.8392387574
 20
252.4490414743
 10
219.7411582988
 20
251.9706560726
 10
219.621419199
 20
251.4939167572
 10
219.4801035211
 20
251.0191502616
 10
219.3173081159
 20
250.5466819669
 10
219.1331445552
 20
250.0768356793
 10
218.9277390555
 20
249.609933408
 10
218.7012323914
 20
249.1462951444
 10
218.4537797994
 20
248.6862386432
 10
218.1855508711
 20
248.230079204
 10
217.8967294371
 20
247.7781294557
 10
217.5875134413
 20
247.3306991421
 10
217.2581148049
 20
246.8880949097
 10
216.9087592812
 20
246.4506200971
 10
216.539686301
 20
246.0185745279
 10
216.1511488086
 20
245.5922543044
 10
215.7434130881
 20
245.1719516053
 10
215.3167585813
 20
244.757954485
 10
214.8714776958
 20
244.3505466765
 10
214.4078756048
 20
243.9500073968
 10
213.9262700382
 20
243.5566111553
 10
213.4269910643
 20
243.1706275664
 10
212.9103808639
 20
242.7923211638
 10
212.376793496
 20
242.4219512199
 10
211.8265946546
 20
242.0597715677
 10
211.2601614185
 20
241.7060304271
 10
210.6778819928
 20
241.3609702345
 10
210.0801554427
 20
241.0248274771
 10
209.4673914202
 20
240.6978325302
 10
208.840009883
 20
240.3802094998
 10
208.1984408072
 20
240.072176069
 10
207.5431238922
 20
239.7739433484
 10
206.8745082593
 20
239.4857157318
 10
206.1930521445
 20
239.2076907561
 10
205.4992225836
 20
238.9400589657
 10
204.7934950928
 20
238.6830037821
 10
204.0763533425
 20
238.436701378
 10
203.3482888258
 20
238.2013205568
 10
202.6098005217
 20
237.9770226367
 10
201.8613945533
 20
237.7639613404
 10
201.1035838405
 20
237.5622826895
 10
200.3368877491
 20
237.3721249043
 10
199.5618317343
 20
237.1936183095
 10
198.7789469806
 20
237.0268852447
 10
197.9887700382
 20
236.8720399803
 10
197.1918424549
 20
236.7291886396
 10
196.3887104051
 20
236.5984291258
 10
195.5799243154
 20
236.4798510548
 10
194.7660384873
 20
236.3735356942
 10
193.9476107176
 20
236.2795559072
 10
193.1252019157
 20
236.1979761028
 10
192.2993757195
 20
236.1288521918
 10
191.4706981092
 20
236.0722315483
 10
190.6397370188
 20
236.0281529772
 10
189.8070619477
 20
235.9966466877
 10
188.9732435698
 20
235.9777342728
 10
188.1388533425
 20
235.971428694
 10
187.3044631152
 20
235.9777342728
 10
186.4706447373
 20
235.9966466877
 10
185.6379696662
 20
236.0281529772
 10
184.8070085758
 20
236.0722315483
 10
183.9783309655
 20
236.1288521918
 10
183.1525047693
 20
236.1979761028
 10
182.3300959674
 20
236.2795559072
 10
181.5116681977
 20
236.3735356942
 10
180.6977823696
 20
236.4798510548
 10
179.8889962799
 20
236.5984291258
 10
179.0858642301
 20
236.7291886396
 10
178.2889366468
 20
236.8720399803
 10
177.4987597044
 20
237.0268852447
 10
176.7158749507
 20
237.1936183095
 10
175.9408189359
 20
237.3721249043
 10
175.1741228445
 20
237.5622826895
 10
174.4163121317
 20
237.7639613404
 10
173.6679061633
 20
237.9770226367
 10
172.9294178592
 20
238.2013205568
 10
172.2013533425
 20
238.436701378
 10
171.4842115922
 20
238.6830037821
 10
170.7784841014
 20
238.9400589657
 10
170.0846545405
 20
239.2076907561
 10
169.4031984257
 20
239.4857157318
 10
168.7345827929
 20
239.7739433484
 10
168.0792658778
 20
240.072176069
 10
167.437696802
 20
240.3802094998
 10
166.8103152648
 20
240.6978325302
 10
166.1975512423
 20
241.0248274771
 10
165.5998246922
 20
241.3609702345
 10
165.0175452665
 20
241.7060304271
 10
164.4511120304
 20
242.0597715677
 10
163.900913189
 20
242.4219512199
 10
163.3673258211
 20
242.7923211638
 10
162.8507156207
 20
243.1706275664
 10
162.3514366468
 20
243.5566111553
 10
161.8698310802
 20
243.9500073968
 10
161.4062289892
 20
244.3505466765
 10
160.9609481037
 20
244.757954485
 10
160.5342935969
 20
245.1719516053
 10
160.1265578764
 20
245.5922543044
 10
159.738020384
 20
246.0185745279
 10
159.3689474039
 20
246.4506200971
 10
159.0195918801
 20
246.8880949097
 10
158.6901932437
 20
247.3306991421
 10
158.3809772479
 20
247.7781294557
 10
158.0921558139
 20
248.230079204
 10
157.8239268856
 20
248.6862386432
 10
157.5764742936
 20
249.1462951444
 10
157.3499676295
 20
249.609933408
 10
157.1445621298
 20
250.0768356793
 10
156.9603985691
 20
250.5466819669
 10
156.7976031639
 20
251.0191502616
 10
156.656287486
 20
251.4939167572
 10
156.5365483862
 20
251.9706560726
 10
156.4384679276
 20
252.4490414743
 10
156.3621133298
 20
252.928745101
 10
156.3075369222
 20
253.4094381877
 10
156.2747761089
 20
253.8907912914
 10
156.2638533425
 20
254.3724745167
  0
LWPOLYLINE
  5
AF
330
1F
100
AcDbEntity
  8
0
  6
SLD-Continua
 62
     7
370
    25
100
AcDbPolyline
 90
       31
 70
   128
 43
0.0
 10
166.0417664304
 20
88.5146955409
 10
165.4709042484
 20
88.85298984729999
 10
164.9155775463
 20
89.1997948871
 10
164.3761669175
 20
89.5548729775
 10
163.853042047
 20
89.91798076569999
 10
163.3465614584
 20
90.28886939569998
 10
162.8570722683
 20
90.66728467889999
 10
162.3849099481
 20
91.0529672686
 10
161.9303980942
 20
91.44565283700002
 10
161.4938482064
 20
91.84507225709998
 10
161.0755594742
 20
92.2509517868
 10
160.6758185718
 20
92.66301325649999
 10
160.2948994616
 20
93.0809742599
 10
159.9330632066
 20
93.5045483474
 10
159.5905577912
 20
93.93344522239999
 10
159.2676179515
 20
94.3673709405
 10
158.9644650145
 20
94.80602811069999
 10
158.6813067459
 20
95.2491160992
 10
158.4183372083
 20
95.6963312357
 10
158.1757366279
 20
96.14736702120001
 10
157.953671271
 20
96.60191433840001
 10
157.7522933301
 20
97.05966166320001
 10
157.5717408196
 20
97.5202952785
 10
157.4121374811
 20
97.983499489
 10
157.2735926989
 20
98.44895683770001
 10
157.1562014246
 20
98.9163483233
 10
157.0600441122
 20
99.3853536191
 10
156.9851866633
 20
99.8556512923
 10
156.9316803814
 20
100.3269190244
 10
156.899561937
 20
100.7988338319
 10
156.8888533425
 20
101.2710722881
  0
LWPOLYLINE
  5
B0
330
1F
100
AcDbEntity
  8
0
  6
SLD-Continua
 62
     7
370
    25
100
AcDbPolyline
 90
       91
 70
   128
 43
0.0
 10
219.3888533425
 20
101.2710722881
 10
219.378144748
 20
100.7988338319
 10
219.3460263036
 20
100.3269190244
 10
219.2925200217
 20
99.8556512923
 10
219.2176625728
 20
99.3853536191
 10
219.1215052604
 20
98.9163483233
 10
219.0041139861
 20
98.44895683770001
 10
218.8655692039
 20
97.983499489
 10
218.7059658654
 20
97.5202952785
 10
218.5254133549
 20
97.05966166320001
 10
218.324035414
 20
96.60191433840001
 10
218.1019700571
 20
96.14736702120001
 10
217.8593694767
 20
95.6963312357
 10
217.5963999391
 20
95.2491160992
 10
217.3132416705
 20
94.80602811069999
 10
217.0100887335
 20
94.3673709405
 10
216.6871488938
 20
93.93344522239999
 10
216.3446434784
 20
93.5045483474
 10
215.9828072234
 20
93.0809742599
 10
215.6018881132
 20
92.66301325649999
 10
215.2021472108
 20
92.2509517868
 10
214.7838584786
 20
91.84507225709998
 10
214.3473085908
 20
91.44565283700002
 10
213.8927967369
 20
91.0529672686
 10
213.4206344167
 20
90.66728467889999
 10
212.9311452266
 20
90.28886939569998
 10
212.424664638
 20
89.91798076569999
 10
211.9015397675
 20
89.5548729775
 10
211.3621291387
 20
89.1997948871
 10
210.8068024366
 20
88.85298984729999
 10
210.2359402546
 20
88.5146955409
 10
209.6499338329
 20
88.1851438179
 10
209.0491847912
 20
87.8645605366
 10
208.4341048528
 20
87.5531654088
 10
207.8051155628
 20
87.2511718492
 10
207.162647999
 20
86.958786829
 10
206.5071424766
 20
86.6762107343
 10
205.8390482464
 20
86.4036372288
 10
205.1588231867
 20
86.14125312049999
 10
204.4669334899
 20
85.8892382346
 10
203.7638533425
 20
85.64776528939999
 10
203.0500646006
 20
85.4169997784
 10
202.3260564594
 20
85.1970998568
 10
201.5923251178
 20
84.98821623300001
 10
200.8493734386
 20
84.7904920653
 10
200.0977106039
 20
84.60406286420001
 10
199.3378517658
 20
84.4290563987
 10
198.5703176936
 20
84.2655926097
 10
197.7956344166999
 20
84.11378352699999
 10
197.0143328645
 20
83.97373319299999
 10
196.226948502
 20
83.8455375911
 10
195.434020963
 20
83.7292845804
 10
194.6360936806
 20
83.62505383469999
 10
193.8337135141
 20
83.53291678859999
 10
193.027430375
 20
83.45293658820001
 10
192.2177968493999
 20
83.3851680481
 10
191.4053678196
 20
83.3296576132
 10
190.590700084
 20
83.28644332779999
 10
189.7743519751
 20
83.25555480869999
 10
188.9568829771
 20
83.2370132255
 10
188.1388533425
 20
83.2308312854
 10
187.3208237079
 20
83.2370132255
 10
186.5033547099
 20
83.25555480869999
 10
185.687006601
 20
83.28644332779999
 10
184.8723388654
 20
83.3296576132
 10
184.0599098356
 20
83.3851680481
 10
183.25027631
 20
83.45293658820001
 10
182.4439931709
 20
83.53291678859999
 10
181.6416130044
 20
83.62505383469999
 10
180.843685722
 20
83.7292845804
 10
180.0507581831
 20
83.8455375911
 10
179.2633738205
 20
83.97373319299999
 10
178.4820722683
 20
84.11378352699999
 10
177.7073889914
 20
84.2655926097
 10
176.9398549191999
 20
84.4290563987
 10
176.1799960811
 20
84.60406286420001
 10
175.4283332464
 20
84.7904920653
 10
174.6853815672
 20
84.98821623300001
 10
173.9516502256
 20
85.1970998568
 10
173.2276420844
 20
85.4169997784
 10
172.5138533425
 20
85.64776528939999
 10
171.8107731951
 20
85.8892382346
 10
171.1188834983
 20
86.14125312049999
 10
170.4386584386
 20
86.4036372288
 10
169.7705642084
 20
86.6762107343
 10
169.115058686
 20
86.958786829
 10
168.4725911222
 20
87.2511718492
 10
167.8436018322
 20
87.5531654088
 10
167.2285218937999
 20
87.8645605366
 10
166.6277728520999
 20
88.1851438179
 10
166.0417664304
 20
88.5146955409
  0
LINE
  5
B1
330
1F
100
AcDbEntity
  8
0
  6
SLD-Continua
 62
     7
370
    18
100
AcDbLine
 10
156.4352399497
 20
252.4668546137
 30
0.0
 11
140.4091456124
 21
261.7185219473
 31
0.0
  0
LINE
  5
B2
330
1F
100
AcDbEntity
  8
0
  6
SLD-Continua
 62
     7
370
    18
100
AcDbLine
 10
140.6743106554
 20
262.1778012727
 30
0.0
 11
156.3358271291
 21
253.1366002598
 31
0.0
  0
LINE
  5
B3
330
1F
100
AcDbEntity
  8
0
  6
SLD-Continua
 62
     7
370
    18
100
AcDbLine
 10
140.4091456124
 20
221.5038869619
 30
0.0
 11
156.8888533425
 21
211.9903541906
 31
0.0
  0
LINE
  5
B4
330
1F
100
AcDbEntity
  8
0
  6
SLD-Continua
 62
     7
370
    18
100
AcDbLine
 10
164.3149400629
 20
268.3282531215001
 30
0.0
 11
157.8216500991
 21
272.0767496286
 31
0.0
  0
LWPOLYLINE
  5
B5
330
1F
100
AcDbEntity
  8
0
  6
SLD-Continua
 62
     7
370
    18
100
AcDbPolyline
 90
      179
 70
   128
 43
0.0
 10
198.7454550602999
 20
312.6520797146
 10
198.3645253061
 20
312.8643572095
 10
197.970855638
 20
313.0687416617
 10
197.5649365194
 20
313.2649784337
 10
197.1472736749
 20
313.4528230389
 10
196.7183874604
 20
313.6320414463
 10
196.2788122148
 20
313.8024103721
 10
195.829095594
 20
313.9637175577
 10
195.3697978891
 20
314.1157620346
 10
194.9014913276
 20
314.2583543743
 10
194.4247593613
 20
314.3913169244
 10
193.9401959389
 20
314.5144840302
 10
193.4484047659999
 20
314.6277022408
 10
192.9499985532
 20
314.7308305004
 10
192.4455982525
 20
314.823740324
 10
191.935832284
 20
314.9063159576
 10
191.4213357526
 20
314.9784545222
 10
190.9027496568
 20
315.0400661422001
 10
190.3807200902999
 20
315.0910740571
 10
189.8558974371
 20
315.1314147174
 10
189.3289355608
 20
315.1610378637
 10
188.8004909900999
 20
315.1799065893
 10
188.2712221014
 20
315.1879973859
 10
187.7417882977
 20
315.1853001737
 10
187.2128491875999
 20
315.1718183128
 10
186.6850637633
 20
315.1475686001
 10
186.1590895799
 20
315.1125812476
 10
185.6355819355
 20
315.0668998453
 10
185.1151930557
 20
315.0105813064
 10
184.59857128
 20
314.9436957969
 10
184.0863602549
 20
314.8663266479
 10
183.5791981315
 20
314.7785702515
 10
183.0777167708
 20
314.6805359413999
 10
182.5825409559999
 20
314.572345856
 10
182.0942876145999
 20
314.4541347869
 10
181.6135650493
 20
314.3260500102
 10
181.1409721807
 20
314.1882511036
 10
180.6770978007
 20
314.0409097474
 10
180.2225198388
 20
313.8842095106
 10
179.7778046428
 20
313.7183456221
 10
179.3435062723
 20
313.5435247278
 10
178.920165809
 20
313.3599646327
 10
178.5083106824
 20
313.1678940297
 10
178.1084540127
 20
312.967552215
 10
177.7210939716
 20
312.7591887896
 10
177.3467131614
 20
312.5430633482
 10
176.9857780139
 20
312.3194451563
 10
176.6387382095
 20
312.0886128143
 10
176.3060261166
 20
311.8508539106
 10
175.9880562528
 20
311.6064646631
 10
175.6852247692
 20
311.3557495504
 10
175.397908956
 20
311.0990209323
 10
175.126466773
 20
310.8365986608
 10
174.8712364033
 20
310.5688096812
 10
174.6325358321
 20
310.2959876254
 10
174.4106624507
 20
310.0184723955
 10
174.2058926857
 20
309.7366097411
 10
174.0184816547
 20
309.4507508279
 10
173.8486628484
 20
309.1612518005
 10
173.6966478401
 20
308.8684733387
 10
173.5626260214
 20
308.5727802079
 10
173.4467643668
 20
308.274540805
 10
173.3492072256
 20
307.9741266991
 10
173.2700761418
 20
307.6719121689
 10
173.2094697029
 20
307.3682737359
 10
173.1674634169
 20
307.0635896959
 10
173.1441096184
 20
306.7582396471
 10
173.1394374035
 20
306.4526040179
 10
173.153452593
 20
306.147063592
 10
173.1861377258
 20
305.8419990349
 10
173.2374520803
 20
305.537790419
 10
173.3073317252
 20
305.2348167502
 10
173.3956895991
 20
304.9334554962
 10
173.5024156192
 20
304.6340821154
 10
173.6273768181
 20
304.3370695899
 10
173.7704175097
 20
304.0427879602999
 10
173.9313594832
 20
303.7516038647
 10
174.1100022248
 20
303.4638800824
 10
174.306123168
 20
303.1799750814
 10
174.5194779705
 20
302.9002425719
 10
174.7498008188
 20
302.6250310658
 10
174.9968047593
 20
302.3546834424
 10
175.2601820557
 20
302.0895365211
 10
175.5396045729
 20
301.829920642
 10
175.8347241852
 20
301.5761592542
 10
176.1451732103
 20
301.3285685127
 10
176.4705648672
 20
301.0874568848
 10
176.8104937586999
 20
300.8531247655
 10
177.1645363755
 20
300.6258641035
 10
177.5322516247
 20
300.4059580372
 10
177.9131813789
 20
300.1936805423
 10
178.306851047
 20
299.9892960901
 10
178.7127701656
 20
299.793059318
 10
179.1304330101
 20
299.6052147129
 10
179.5593192246
 20
299.4259963055
 10
179.9988944702
 20
299.2556273797
 10
180.448611091
 20
299.094320194
 10
180.9079087959
 20
298.9422757171
 10
181.3762153574
 20
298.7996833775
 10
181.8529473237
 20
298.6667208274
 10
182.3375107461
 20
298.5435537216
 10
182.829301919
 20
298.430335511
 10
183.3277081319
 20
298.3272072514
 10
183.8321084325
 20
298.2342974277
 10
184.341874401
 20
298.1517217941
 10
184.8563709325
 20
298.0795832295001
 10
185.3749570282
 20
298.0179716096
 10
185.8969865947
 20
297.9669636947
 10
186.4218092479
 20
297.9266230344
 10
186.9487711243
 20
297.8969998881
 10
187.4772156949
 20
297.8781311625
 10
188.0064845836
 20
297.8700403658
 10
188.5359183873
 20
297.8727375781
 10
189.0648574974
 20
297.886219439
 10
189.5926429217
 20
297.9104691517
 10
190.1186171051
 20
297.9454565042
 10
190.6421247495
 20
297.9911379065
 10
191.1625136294
 20
298.0474564454
 10
191.679135405
 20
298.1143419548
 10
192.1913464300999
 20
298.1917111039
 10
192.6985085535
 20
298.2794675003
 10
193.1999899142
 20
298.3775018104
 10
193.695165729
 20
298.4856918957
 10
194.1834190704
 20
298.6039029649001
 10
194.6641416357
 20
298.7319877416
 10
195.1367345043
 20
298.8697866482
 10
195.6006088843
 20
299.0171280044
 10
196.0551868462
 20
299.1738282412
 10
196.4999020422
 20
299.3396921297001
 10
196.9342004127
 20
299.514513024
 10
197.3575408761
 20
299.6980731191
 10
197.7693960026
 20
299.8901437221
 10
198.1692526723
 20
300.0904855367
 10
198.5566127134
 20
300.2988489622
 10
198.9309935236
 20
300.5149744036
 10
199.2919286711
 20
300.7385925955
 10
199.6389684755
 20
300.9694249375
 10
199.9716805684
 20
301.2071838412
 10
200.2896504322
 20
301.4515730887
 10
200.5924819158
 20
301.7022882014
 10
200.879797729
 20
301.9590168195
 10
201.151239912
 20
302.221439091
 10
201.4064702817
 20
302.4892280706
 10
201.6451708529
 20
302.7620501264
 10
201.8670442343
 20
303.0395653563
 10
202.0718139993
 20
303.3214280107
 10
202.2592250303
 20
303.6072869239
 10
202.4290438366
 20
303.8967859513
 10
202.5810588449
 20
304.1895644131
 10
202.7150806636
 20
304.4852575439
 10
202.8309423182
 20
304.7834969468
 10
202.9284994594
 20
305.0839110526
 10
203.0076305432
 20
305.3861255829001
 10
203.0682369821
 20
305.6897640159
 10
203.1102432681
 20
305.9944480559
 10
203.1335970666
 20
306.2997981046
 10
203.1382692815
 20
306.6054337339
 10
203.124254092
 20
306.9109741597
 10
203.0915689592
 20
307.2160387169
 10
203.0402546047
 20
307.5202473328
 10
202.9703749598
 20
307.8232210015
 10
202.8820170859
 20
308.1245822556
 10
202.7752910658
 20
308.4239556363
 10
202.6503298669
 20
308.7209681619
 10
202.5072891753
 20
309.0152497915
 10
202.3463472018
 20
309.3064338871
 10
202.1677044602
 20
309.5941576693
 10
201.971583517
 20
309.8780626704
 10
201.7582287145
 20
310.1577951799
 10
201.5279058662
 20
310.433006686
 10
201.2809019258
 20
310.7033543094
 10
201.0175246293
 20
310.9685012307
 10
200.7381021121
 20
311.2281171097
 10
200.4429824998
 20
311.4818784976
 10
200.1325334748
 20
311.7294692391
 10
199.8071418178
 20
311.970580867
 10
199.4672129263
 20
312.2049129863
 10
199.1131703095
 20
312.4321736483
 10
198.7454550602999
 20
312.6520797146
  0
LWPOLYLINE
  5
B6
330
1F
100
AcDbEntity
  8
0
  6
SLD-Continua
 62
     7
370
    18
100
AcDbPolyline
 90
       93
 70
   128
 43
0.0
 10
203.7638533403
 20
306.0185289333
 10
203.7625294613
 20
305.9012634211
 10
203.7460576227
 20
305.5883015329
 10
203.7107803186
 20
305.2758582182
 10
203.6567400554
 20
304.964309947
 10
203.5840019473
 20
304.6540321106001
 10
203.4926536381
 20
304.3453985697
 10
203.3828051954
 20
304.0387812036
 10
203.2545889781
 20
303.7345494624
 10
203.1081594766
 20
303.4330699216
 10
202.9436931272
 20
303.1347058407
 10
202.7613880989
 20
302.839816725
 10
202.5614640552
 20
302.5487578931
 10
202.3441618889
 20
302.261880048
 10
202.1097434322
 20
301.9795288554
 10
201.8584911411
 20
301.7020445263
 10
201.5907077551
 20
301.4297614078
 10
201.3067159322
 20
301.1630075798
 10
201.0068578605
 20
300.90210446
 10
200.6914948457
 20
300.6473664162
 10
200.3610068755
 20
300.3991003879
 10
200.0157921622
 20
300.1576055165001
 10
199.6562666627
 20
299.9231727843
 10
199.2828635773
 20
299.6960846646
 10
198.8960328275
 20
299.4766147809
 10
198.4962405141999
 20
299.2650275773
 10
198.0839683562
 20
299.0615779998
 10
197.6597131091
 20
298.8665111895
 10
197.2239859676
 20
298.6800621866
 10
196.7773119488
 20
298.5024556475
 10
196.3202292603
 20
298.3339055745
 10
195.8532886509999
 20
298.1746150571
 10
195.3770527481
 20
298.0247760281
 10
194.8920953786
 20
297.8845690318
 10
194.3990008784999
 20
297.7541630067
 10
193.8983633881
 20
297.633715082
 10
193.3907861368
 20
297.5233703879
 10
192.8768807155
 20
297.4232618813
 10
192.3572663402
 20
297.333510185
 10
191.8325691058
 20
297.254223443
 10
191.3034212317
 20
297.1854971896
 10
190.7704602997
 20
297.1274142345
 10
190.2343284863
 20
297.0800445631
 10
189.6956717886
 20
297.0434452523
 10
189.1551392458
 20
297.0176604014
 10
188.6133821577999
 20
297.002721079
 10
188.0710532995
 20
296.998645286
 10
187.5288061349
 20
297.0054379333
 10
186.9872940297
 20
297.0230908363
 10
186.4471694638
 20
297.0515827247
 10
185.9090832452
 20
297.0908792679
 10
185.3736837259
 20
297.1409331167
 10
184.8416160206
 20
297.20168396
 10
184.3135212295
 20
297.2730585979
 10
183.7900356656
 20
297.3549710295
 10
183.2717900883
 20
297.4473225566
 10
182.7594089432
 20
297.5500019029
 10
182.2535096095
 20
297.6628853477
 10
181.7547016566999
 20
297.7858368753
 10
181.2635861094
 20
297.9187083387
 10
180.7807547236
 20
298.0613396381
 10
180.3067892736
 20
298.2135589139
 10
179.8422608507
 20
298.3751827538
 10
179.3877291756
 20
298.5460164135
 10
178.9437419234999
 20
298.7258540519
 10
178.5108340645
 20
298.9144789786
 10
178.0895272188
 20
299.1116639152
 10
177.6803290284
 20
299.3171712693
 10
177.2837325452
 20
299.5307534205
 10
176.900215637
 20
299.7521530189
 10
176.530240412
 20
299.9811032954
 10
176.1742526614
 20
300.2173283825
 10
175.8326813227
 20
300.4605436475
 10
175.5059379627
 20
300.710456035
 10
175.1944162819
 20
300.96676442
 10
174.8984916395
 20
301.2291599708
 10
174.6185206018
 20
301.4973265212
 10
174.3548405119
 20
301.7709409515
 10
174.1077690839
 20
302.0496735775
 10
173.8776040195
 20
302.3331885482
 10
173.6646226498
 20
302.62114425
 10
173.4690816008
 20
302.9131937189
 10
173.2912164841
 20
303.2089850579
 10
173.1312416133
 20
303.5081618615
 10
172.9893497458
 20
303.810363645
 10
172.8657118502
 20
304.1152262787
 10
172.7604769005
 20
304.422382427
 10
172.6737716966
 20
304.7314619905
 10
172.6057007116
 20
305.0420925525
 10
172.5563459657
 20
305.3538998274
 10
172.5257669274
 20
305.6665081116999
 10
172.5140004423
 20
305.9795407366999
 10
172.5138533425
 20
306.0186808685
  0
LWPOLYLINE
  5
B7
330
1F
100
AcDbEntity
  8
0
  6
SLD-Continua
 62
     7
370
    18
100
AcDbPolyline
 90
       69
 70
   128
 43
0.0
 10
177.0903098865
 20
272.0822400937
 10
177.4804253439
 20
271.864716454
 10
177.8833833769
 20
271.6551401336
 10
178.2986984525
 20
271.4537636556
 10
178.7258701483
 20
271.260829663
 10
179.1643837556
 20
271.0765706261
 10
179.6137108999
 20
270.9012085628
 10
180.0733101767
 20
270.7349547708
 10
180.5426278049
 20
270.5780095729
 10
181.0210982932
 20
270.4305620757
 10
181.508145122
 20
270.2927899422
 10
182.0031814377
 20
270.1648591769
 10
182.5056107601
 20
270.0469239265
 10
183.0148277012
 20
269.9391262937
 10
183.530218694
 20
269.8415961664
 10
184.0511627326
 20
269.7544510607
 10
184.57703212
 20
269.6777959797
 10
185.1071932246
 20
269.6117232868
 10
185.6410072435
 20
269.5563125944
 10
186.1778309724
 20
269.5116306681
 10
186.7170175805
 20
269.4777313462
 10
187.2579173899
 20
269.4546554746
 10
187.7998786586
 20
269.4424308581
 10
188.3422483652999
 20
269.4410722263
 10
188.8843729969
 20
269.4505812163
 10
189.4255993354
 20
269.4709463705
 10
189.9652752452
 20
269.5021431504
 10
190.5027504588
 20
269.5441339664
 10
191.0373773605
 20
269.5968682229
 10
191.5685117666
 20
269.660282379
 10
192.0955137014
 20
269.7343000258
 10
192.6177481686
 20
269.8188319776
 10
193.1345859164
 20
269.9137763802
 10
193.6454041955
 20
270.0190188329
 10
194.1495875098
 20
270.1344325267
 10
194.6465283575
 20
270.2598783971
 10
195.1356279638
 20
270.3952052916
 10
195.6162970015
 20
270.5402501519
 10
196.0879563021
 20
270.6948382102
 10
196.5500375527
 20
270.8587831998
 10
197.0019839815
 20
271.03188758
 10
197.4432510282
 20
271.2139427733
 10
197.8733070004
 20
271.4047294175
 10
198.2916337141
 20
271.6040176295
 10
198.6977271182
 20
271.8115672825
 10
199.0910979018
 20
272.0271282954
 10
199.4712720838
 20
272.2504409339
 10
199.8377915838999
 20
272.4812361238
 10
200.1902147745
 20
272.7192357747
 10
200.5281170133
 20
272.9641531156
 10
200.8510911544
 20
273.2156930402
 10
201.158748039
 20
273.4735524625
 10
201.4507169645
 20
273.737420682
 10
201.7266461313
 20
274.006979758
 10
201.986203066
 20
274.2819048929
 10
202.2290750229
 20
274.5618648231
 10
202.4549693601
 20
274.846522219
 10
202.6636138925
 20
275.1355340903
 10
202.8547572198
 20
275.4285522005
 10
203.028169029
 20
275.7252234854
 10
203.1836403726
 20
276.0251904792
 10
203.3209839196
 20
276.3280917452
 10
203.4400341817
 20
276.6335623108
 10
203.5406477127
 20
276.9412341079
 10
203.6227032811
 20
277.2507364158
 10
203.6861020163
 20
277.5616963085
 10
203.7307675278
 20
277.8737391033
 10
203.7566459972
 20
278.1864888132
 10
203.7638533425
 20
278.4604284673
  0
ARC
  5
B8
330
1F
100
AcDbEntity
  8
0
  6
SLD-Continua
 62
     7
370
    18
100
AcDbCircle
 10
180.3755137434
 20
279.2703647959
 30
0.0
 40
7.903271545095733
100
AcDbArc
 50
185.8820639248
 51
245.4380770328
  0
ARC
  5
B9
330
1F
100
AcDbEntity
  8
0
  6
SLD-Continua
 62
     7
370
    18
100
AcDbCircle
 10
230.7770084134
 20
277.9797332699
 30
0.0
 40
1.861785262880871
100
AcDbArc
 50
65.24444302
 51
126.0495337672
  0
LWPOLYLINE
  5
BA
330
1F
100
AcDbEntity
  8
0
  6
SLD-Continua
 62
     7
370
    18
100
AcDbPolyline
 90
       35
 70
   128
 43
0.0
 10
227.8056271084
 20
273.1758124857
 10
227.7574006411
 20
273.2051791753
 10
227.6334800849
 20
273.2956090986
 10
227.5197620467
 20
273.4016193991
 10
227.4168130643
 20
273.5226819388
 10
227.3251460241
 20
273.6581935901
 10
227.2452176068
 20
273.8074792408
 10
227.1774260118
 20
273.9697951574
 10
227.1221089733
 20
274.14433269
 10
227.0795420781
 20
274.3302223015001
 10
227.0499373923
 20
274.5265378993
 10
227.0334424049
 20
274.7323014488
 10
227.0301392932
 20
274.9464878464
 10
227.0400445131
 20
275.1680300262
 10
227.0631087172
 20
275.3958242763
 10
227.099217001
 20
275.6287357372
 10
227.1481894746
 20
275.8656040556
 10
227.2097821598
 20
276.1052491656
 10
227.2836882048
 20
276.3464771672
 10
227.3695394135
 20
276.5880862747
 10
227.4669080794
 20
276.8288728036
 10
227.5753091168
 20
277.0676371676
 10
227.6942024772
 20
277.3031898546
 10
227.8229958397
 20
277.5343573531
 10
227.9610475624
 20
277.759987998
 10
228.1076698785
 20
277.978957709
 10
228.2621323231
 20
278.1901755899
 10
228.4236653719
 20
278.3925893639
 10
228.5914642754
 20
278.5851906157
 10
228.7646930681
 20
278.7670198156
 10
228.9424887326
 20
278.9371710997
 10
229.1239655001
 20
279.0947967828
 10
229.3082192622
 20
279.2391115817
 10
229.4943320762
 20
279.3693965272
 10
229.6813767372
 20
279.4850025465
  0
LWPOLYLINE
  5
BB
330
1F
100
AcDbEntity
  8
0
  6
SLD-Continua
 62
     7
370
    18
100
AcDbPolyline
 90
       82
 70
   128
 43
0.0
 10
230.1233184755
 20
278.7195370041
 10
229.9520828
 20
278.6130116708
 10
229.781876956
 20
278.4917808292
 10
229.6137245815
 20
278.3565735758001
 10
229.4486369647
 20
278.2082030632
 10
229.2876069618
 20
278.0475616089
 10
229.1316030264
 20
277.8756153295
 10
228.9815633843
 20
277.6933983303
 10
228.8383903917
 20
277.5020064857
 10
228.7029451077
 20
277.3025908488
 10
228.5760421164
 20
277.0963507286
 10
228.4584446271
 20
276.8845264775
 10
228.350859885
 20
276.6683920316
 10
228.2539349175
 20
276.4492472487
 10
228.1682526426
 20
276.2284100915
 10
228.0943283637
 20
276.0072087004
 10
228.03260667
 20
275.7869734069
 10
227.9834587632
 20
275.5690287317
 10
227.9471802245
 20
275.3546854198
 10
227.9239892372
 20
275.1452325572
 10
227.9140252748
 20
274.941929818
 10
227.9173482616
 20
274.7459998887
 10
227.9339382129
 20
274.5586211151
 10
227.9636953547
 20
274.380920415
 10
228.006440724
 20
274.2139665016
 10
228.0619172452
 20
274.0587634551
 10
228.129791276
 20
273.9162446851
 10
228.2096546139
 20
273.7872673161
 10
228.3010269515
 20
273.6726070332
 10
228.4033587646
 20
273.572953417
 10
228.5160346179
 20
273.4889057958
 10
228.6383768654
 20
273.4209696421
 10
228.7696497265
 20
273.3695535318
 10
228.9090637107
 20
273.3349666874
 10
229.055780366
 20
273.3174171185
 10
229.208917321
 20
273.31701037
 10
229.3675535922
 20
273.3337488882
 10
229.5307351223
 20
273.3675320058
 10
229.6974805184
 20
273.418156547
 10
229.8667869541
 20
273.48531805
 10
230.0376362006
 20
273.5686125975
 10
230.2090007503
 20
273.6675392464
 10
230.3798499968
 20
273.7815030401
 10
230.5491564325
 20
273.9098185869
 10
230.7159018286
 20
274.0517141821
 10
230.8790833587
 20
274.2063364489
 10
231.0377196299
 20
274.3727554707
 10
231.190856585
 20
274.5499703841
 10
231.3375732402
 20
274.7369153975
 10
231.4769872244
 20
274.9324662018
 10
231.6082600855
 20
275.1354467313
 10
231.730602333
 20
275.3446362374
 10
231.8432781863
 20
275.5587766296
 10
231.9456099995
 20
275.7765800425
 10
232.036982337
 20
275.9967365808
 10
232.1168456749
 20
276.217922197
 10
232.1847197057
 20
276.4388066549
 10
232.2401962269
 20
276.6580615294
 10
232.2829415962
 20
276.8743681958
 10
232.312698738
 20
277.0864257604
 10
232.3292886893
 20
277.292958884
 10
232.3326116761
 20
277.4927254522
 10
232.3226477137
 20
277.6845240453
 10
232.2994567265
 20
277.867201164
 10
232.2631781877
 20
278.0396581666
 10
232.2140302809
 20
278.2008578764
 10
232.1523085872
 20
278.3498308194
 10
232.0783843083
 20
278.4856810547
 10
231.9927020335
 20
278.6075915632
 10
231.8957770659
 20
278.7148291605
 10
231.7881923238
 20
278.8067489072
 10
231.6705948346
 20
278.8827979872
 10
231.5436918432
 20
278.9425190323
 10
231.4082465593
 20
278.9855528731
 10
231.2650735666
 20
279.011640699
 10
231.1150339246
 20
279.0206256148
 10
230.9590299891
 20
279.0124535842
 10
230.7979999862
 20
278.9871737546
 10
230.6329123694
 20
278.9449381621
 10
230.4647599949
 20
278.8860008163
 10
230.2945541509
 20
278.8107161734
 10
230.1233184755
 20
278.7195370041
  0
LWPOLYLINE
  5
BC
330
1F
100
AcDbEntity
  8
0
  6
SLD-Continua
 62
     7
370
    18
100
AcDbPolyline
 90
       31
 70
   128
 43
0.0
 10
165.5998246922
 20
242.8919842568
 10
165.0175452665
 20
243.2370444493
 10
164.4511120304
 20
243.59078559
 10
163.900913189
 20
243.9529652422
 10
163.3673258211
 20
244.3233351861
 10
162.8507156207
 20
244.7016415887
 10
162.3514366468
 20
245.0876251776
 10
161.8698310802
 20
245.481021419
 10
161.4062289892
 20
245.8815606988
 10
160.9609481037
 20
246.2889685073
 10
160.5342935969
 20
246.7029656276
 10
160.1265578764
 20
247.1232683267
 10
159.738020384
 20
247.5495885502
 10
159.3689474039
 20
247.9816341194
 10
159.0195918801
 20
248.419108932
 10
158.6901932437
 20
248.8617131644
 10
158.3809772479
 20
249.309143478
 10
158.0921558139
 20
249.7610932263
 10
157.8239268856
 20
250.2172526655
 10
157.5764742936
 20
250.6773091667
 10
157.3499676295
 20
251.1409474302
 10
157.1445621298
 20
251.6078497016
 10
156.9603985691
 20
252.0776959892
 10
156.7976031639
 20
252.5501642839
 10
156.656287486
 20
253.0249307795
 10
156.5365483862
 20
253.5016700949
 10
156.4384679276
 20
253.9800554966
 10
156.3621133298
 20
254.4597591233
 10
156.3075369222
 20
254.94045221
 10
156.2747761089
 20
255.4218053137
 10
156.2706471362
 20
255.5235919065
  0
LWPOLYLINE
  5
BD
330
1F
100
AcDbEntity
  8
0
  6
SLD-Continua
 62
     7
370
    18
100
AcDbPolyline
 90
       91
 70
   128
 43
0.0
 10
220.0077433496
 20
255.5432153476
 10
220.0029305761
 20
255.4218053137
 10
219.9701697628
 20
254.94045221
 10
219.9155933552
 20
254.4597591233
 10
219.8392387574
 20
253.9800554966
 10
219.7411582988
 20
253.5016700949
 10
219.621419199
 20
253.0249307795
 10
219.4801035211
 20
252.5501642839
 10
219.3173081159
 20
252.0776959892
 10
219.1331445552
 20
251.6078497016
 10
218.9277390555
 20
251.1409474302
 10
218.7012323914
 20
250.6773091667
 10
218.4537797994
 20
250.2172526655
 10
218.1855508711
 20
249.7610932263
 10
217.8967294371
 20
249.309143478
 10
217.5875134413
 20
248.8617131644
 10
217.2581148049
 20
248.419108932
 10
216.9087592812
 20
247.9816341194
 10
216.539686301
 20
247.5495885502
 10
216.1511488086
 20
247.1232683267
 10
215.7434130881
 20
246.7029656276
 10
215.3167585813
 20
246.2889685073
 10
214.8714776958
 20
245.8815606988
 10
214.4078756048
 20
245.481021419
 10
213.9262700382
 20
245.0876251776
 10
213.4269910643
 20
244.7016415887
 10
212.9103808639
 20
244.3233351861
 10
212.376793496
 20
243.9529652422
 10
211.8265946546
 20
243.59078559
 10
211.2601614185
 20
243.2370444493
 10
210.6778819928
 20
242.8919842568
 10
210.0801554427
 20
242.5558414993
 10
209.4673914202
 20
242.2288465524
 10
208.840009883
 20
241.9112235221
 10
208.1984408072
 20
241.6031900913
 10
207.5431238922
 20
241.3049573707
 10
206.8745082593
 20
241.0167297541
 10
206.1930521445
 20
240.7387047784
 10
205.4992225836
 20
240.471072988
 10
204.7934950928
 20
240.2140178044
 10
204.0763533425
 20
239.9677154003
 10
203.3482888258
 20
239.7323345791
 10
202.6098005217
 20
239.508036659
 10
201.8613945533
 20
239.2949753627
 10
201.1035838405
 20
239.0932967117
 10
200.3368877491
 20
238.9031389266
 10
199.5618317343
 20
238.7246323318
 10
198.7789469806
 20
238.557899267
 10
197.9887700382
 20
238.4030540026
 10
197.1918424549
 20
238.2602026619
 10
196.3887104051
 20
238.1294431481
 10
195.5799243154
 20
238.0108650771
 10
194.7660384873
 20
237.9045497165
 10
193.9476107176
 20
237.8105699295
 10
193.1252019157
 20
237.7289901251
 10
192.2993757195
 20
237.6598662141
 10
191.4706981092
 20
237.6032455706
 10
190.6397370188
 20
237.5591669995
 10
189.8070619477
 20
237.52766071
 10
188.9732435698
 20
237.5087482951
 10
188.1388533425
 20
237.5024427162
 10
187.3044631152
 20
237.5087482951
 10
186.4706447373
 20
237.52766071
 10
185.6379696662
 20
237.5591669995
 10
184.8070085758
 20
237.6032455706
 10
183.9783309655
 20
237.6598662141
 10
183.1525047693
 20
237.7289901251
 10
182.3300959674
 20
237.8105699295
 10
181.5116681977
 20
237.9045497165
 10
180.6977823696
 20
238.0108650771
 10
179.8889962799
 20
238.1294431481
 10
179.0858642301
 20
238.2602026619
 10
178.2889366468
 20
238.4030540026
 10
177.4987597044
 20
238.557899267
 10
176.7158749507
 20
238.7246323318
 10
175.9408189359
 20
238.9031389266
 10
175.1741228445
 20
239.0932967117
 10
174.4163121317
 20
239.2949753627
 10
173.6679061633
 20
239.508036659
 10
172.9294178592
 20
239.7323345791
 10
172.2013533425
 20
239.9677154003
 10
171.4842115922
 20
240.2140178044
 10
170.7784841014
 20
240.471072988
 10
170.0846545405
 20
240.7387047784
 10
169.4031984257
 20
241.0167297541
 10
168.7345827929
 20
241.3049573707
 10
168.0792658778
 20
241.6031900913
 10
167.437696802
 20
241.9112235221
 10
166.8103152648
 20
242.2288465524
 10
166.1975512423
 20
242.5558414993
 10
165.5998246922
 20
242.8919842568
  0
LWPOLYLINE
  5
BE
330
1F
100
AcDbEntity
  8
0
  6
SLD-Continua
 62
     7
370
    18
100
AcDbPolyline
 90
      135
 70
   128
 43
0.0
 10
166.0417664304
 20
243.6574497992
 10
166.6277728520999
 20
243.3278980762
 10
167.2285218937999
 20
243.0073147949
 10
167.8436018322
 20
242.6959196671
 10
168.4725911222
 20
242.3939261075
 10
169.115058686
 20
242.1015410873
 10
169.7705642084
 20
241.8189649926
 10
170.4386584386
 20
241.546391487
 10
171.1188834983
 20
241.2840073788
 10
171.8107731951
 20
241.0319924929
 10
172.5138533425
 20
240.7905195477
 10
173.2276420844
 20
240.5597540367
 10
173.9516502256
 20
240.3398541151
 10
174.6853815672
 20
240.1309704913
 10
175.4283332464
 20
239.9332463236
 10
176.1799960811
 20
239.7468171225
 10
176.9398549191999
 20
239.571810657
 10
177.7073889915
 20
239.408346868
 10
178.4820722683
 20
239.2565377853
 10
179.2633738205
 20
239.1164874513
 10
180.0507581831
 20
238.9882918494
 10
180.843685722
 20
238.8720388387
 10
181.6416130045
 20
238.767808093
 10
182.4439931709
 20
238.6756710469
 10
183.25027631
 20
238.5956908465
 10
184.0599098356
 20
238.5279223064
 10
184.8723388654
 20
238.4724118715
 10
185.687006601
 20
238.4291975861
 10
186.5033547099
 20
238.398309067
 10
187.3208237079
 20
238.3797674838
 10
188.1388533425
 20
238.3735855437
 10
188.9568829771
 20
238.3797674838
 10
189.7743519751
 20
238.398309067
 10
190.590700084
 20
238.4291975861
 10
191.4053678196
 20
238.4724118715
 10
192.2177968493999
 20
238.5279223064
 10
193.027430375
 20
238.5956908465
 10
193.8337135141
 20
238.6756710469
 10
194.6360936806
 20
238.767808093
 10
195.434020963
 20
238.8720388387
 10
196.226948502
 20
238.9882918494
 10
197.0143328645
 20
239.1164874513
 10
197.7956344166999
 20
239.2565377853
 10
198.5703176936
 20
239.408346868
 10
199.3378517658
 20
239.571810657
 10
200.0977106039
 20
239.7468171225
 10
200.8493734386
 20
239.9332463236
 10
201.5923251178
 20
240.1309704913
 10
202.3260564594
 20
240.3398541151
 10
203.0500646006
 20
240.5597540367
 10
203.7638533425
 20
240.7905195477
 10
204.4669334899
 20
241.0319924929
 10
205.1588231867
 20
241.2840073788
 10
205.8390482464
 20
241.546391487
 10
206.5071424766
 20
241.8189649926
 10
207.162647999
 20
242.1015410873
 10
207.8051155628
 20
242.3939261075
 10
208.4341048528
 20
242.6959196671
 10
209.0491847912
 20
243.0073147949
 10
209.6499338329
 20
243.3278980762
 10
210.2359402546
 20
243.6574497992
 10
210.8068024366
 20
243.9957441056
 10
211.3621291387
 20
244.3425491454
 10
211.9015397675
 20
244.6976272358
 10
212.424664638
 20
245.060735024
 10
212.9311452266
 20
245.431623654
 10
213.4206344167
 20
245.8100389372
 10
213.8927967369
 20
246.1957215269
 10
214.3473085908
 20
246.5884070953
 10
214.7838584786
 20
246.9878265154
 10
215.2021472108
 20
247.3937060451
 10
215.6018881132
 20
247.8057675148
 10
215.9828072234
 20
248.2237285182
 10
216.3446434784
 20
248.6473026057
 10
216.6871488938
 20
249.0761994807
 10
217.0100887335
 20
249.5101251988
 10
217.3132416705
 20
249.948782369
 10
217.5963999391
 20
250.3918703575
 10
217.8593694767
 20
250.839085494
 10
218.1019700571
 20
251.2901212795
 10
218.324035414
 20
251.7446685967
 10
218.5254133549
 20
252.2024159215
 10
218.7059658654
 20
252.6630495368
 10
218.8655692039
 20
253.1262537473
 10
219.0041139861
 20
253.5917110959
 10
219.1215052604
 20
254.0591025816
 10
219.2176625728
 20
254.5281078774
 10
219.2925200217
 20
254.9984055506
 10
219.3460263036
 20
255.4696732827
 10
219.378144748
 20
255.9415880902
 10
219.3888533425
 20
256.4138265464
 10
219.378144748
 20
256.8860650026
 10
219.3460263036
 20
257.3579798101
 10
219.2925200217
 20
257.8292475422
 10
219.2176625728
 20
258.2995452154
 10
219.1215052604
 20
258.7685505112
 10
219.0041139861
 20
259.2359419968
 10
218.8655692039
 20
259.7013993455
 10
218.7059658654
 20
260.164603556
 10
218.5254133549
 20
260.6252371713
 10
218.324035414
 20
261.0829844961
 10
218.1019700571
 20
261.5375318133
 10
217.8593694767
 20
261.9885675988
 10
217.5963999391
 20
262.4357827353
 10
217.3132416705
 20
262.8788707238
 10
217.0100887335
 20
263.317527894
 10
216.6871488938
 20
263.7514536120999
 10
216.3446434784
 20
264.1803504871
 10
215.9828072234
 20
264.6039245746
 10
215.6018881132
 20
265.021885578
 10
215.2021472108
 20
265.4339470477
 10
214.7838584786
 20
265.8398265774
 10
214.3473085908
 20
266.2392459975
 10
213.8927967369
 20
266.6319315659
 10
213.4206344167
 20
267.0176141556
 10
212.9311452266
 20
267.3960294388
 10
212.424664638
 20
267.7669180688
 10
211.9015397675
 20
268.130025857
 10
211.3621291387
 20
268.4851039474001
 10
210.8068024366
 20
268.8319089872
 10
210.2359402546
 20
269.1702032936
 10
209.6499338329
 20
269.4997550166
 10
209.0491847912
 20
269.8203382979
 10
208.4341048528
 20
270.1317334257
 10
207.8051155628
 20
270.4337269853
 10
207.162647999
 20
270.7261120055
 10
206.5071424766
 20
271.0086881002
 10
205.8390482464
 20
271.2812616058
 10
205.1588231867
 20
271.543645714
 10
204.4669334899
 20
271.7956605999
 10
203.7638533425
 20
272.0371335451
 10
203.0500646006
 20
272.2678990561
 10
202.3260564594
 20
272.4877989777
 10
201.5923251178
 20
272.6966826015
 10
201.5763533425
 20
272.70107726
  0
LWPOLYLINE
  5
BF
330
1F
100
AcDbEntity
  8
0
  6
SLD-Continua
 62
     7
370
    18
100
AcDbPolyline
 90
       75
 70
   128
 43
0.0
 10
174.7013533425
 20
272.70107726
 10
174.6853815672
 20
272.6966826015
 10
173.9516502256
 20
272.4877989777
 10
173.2276420844
 20
272.2678990561
 10
172.5138533425
 20
272.0371335451
 10
171.8107731951
 20
271.7956605999
 10
171.1188834983
 20
271.543645714
 10
170.4386584386
 20
271.2812616058
 10
169.7705642084
 20
271.0086881002
 10
169.115058686
 20
270.7261120055
 10
168.4725911222
 20
270.4337269853
 10
167.8436018322
 20
270.1317334257
 10
167.2285218937999
 20
269.8203382979
 10
166.6277728520999
 20
269.4997550166
 10
166.0417664304
 20
269.1702032936
 10
165.4709042484
 20
268.8319089872
 10
164.9155775463
 20
268.4851039474001
 10
164.3761669175
 20
268.130025857
 10
163.853042047
 20
267.7669180688
 10
163.3465614584
 20
267.3960294388
 10
162.8570722683
 20
267.0176141556
 10
162.3849099481
 20
266.6319315659
 10
161.9303980942
 20
266.2392459975
 10
161.4938482064
 20
265.8398265774
 10
161.0755594742
 20
265.4339470477
 10
160.6758185718
 20
265.021885578
 10
160.2948994616
 20
264.6039245746
 10
159.9330632066
 20
264.1803504871
 10
159.5905577912
 20
263.7514536120999
 10
159.2676179515
 20
263.317527894
 10
158.9644650145
 20
262.8788707238
 10
158.6813067459
 20
262.4357827353
 10
158.4183372083
 20
261.9885675988
 10
158.1757366279
 20
261.5375318133
 10
157.953671271
 20
261.0829844961
 10
157.7522933301
 20
260.6252371713
 10
157.5717408196
 20
260.164603556
 10
157.4121374811
 20
259.7013993455
 10
157.2735926989
 20
259.2359419968
 10
157.1562014246
 20
258.7685505112
 10
157.0600441122
 20
258.2995452154
 10
156.9851866633
 20
257.8292475422
 10
156.9316803814
 20
257.3579798101
 10
156.899561937
 20
256.8860650026
 10
156.8888533425
 20
256.4138265464
 10
156.899561937
 20
255.9415880902
 10
156.9316803814
 20
255.4696732827
 10
156.9851866633
 20
254.9984055506
 10
157.0600441122
 20
254.5281078774
 10
157.1562014246
 20
254.0591025816
 10
157.2735926989
 20
253.5917110959
 10
157.4121374811
 20
253.1262537473
 10
157.5717408196
 20
252.6630495368
 10
157.7522933301
 20
252.2024159215
 10
157.953671271
 20
251.7446685967
 10
158.1757366279
 20
251.2901212795
 10
158.4183372083
 20
250.839085494
 10
158.6813067459
 20
250.3918703575
 10
158.9644650145
 20
249.948782369
 10
159.2676179515
 20
249.5101251988
 10
159.5905577912
 20
249.0761994807
 10
159.9330632066
 20
248.6473026057
 10
160.2948994616
 20
248.2237285182
 10
160.6758185718
 20
247.8057675148
 10
161.0755594742
 20
247.3937060451
 10
161.4938482064
 20
246.9878265154
 10
161.9303980942
 20
246.5884070953
 10
162.3849099481
 20
246.1957215269
 10
162.8570722683
 20
245.8100389372
 10
163.3465614584
 20
245.431623654
 10
163.853042047
 20
245.060735024
 10
164.3761669175
 20
244.6976272358
 10
164.9155775463
 20
244.3425491454
 10
165.4709042484
 20
243.9957441056
 10
166.0417664304
 20
243.6574497992
  0
LWPOLYLINE
  5
C0
330
1F
100
AcDbEntity
  8
0
  6
SLD-Continua
 62
     7
370
    18
100
AcDbPolyline
 90
      168
 70
   128
 43
0.0
 10
203.8277850501
 20
265.4708540369
 10
204.2774560149
 20
265.203601365
 10
204.7134721107
 20
264.928911666
 10
205.1354644242
 20
264.6470173549
 10
205.5430759079
 20
264.3581569424
 10
205.9359616818
 20
264.0625748333
 10
206.3137893252
 20
263.7605211195
 10
206.6762391582
 20
263.4522513686
 10
207.0230045122
 20
263.1380264077
 10
207.353791989
 20
262.8181121023
 10
207.6683217093
 20
262.492779132
 10
207.9663275497
 20
262.162302761
 10
208.2475573674
 20
261.8269626051
 10
208.5117732139
 20
261.4870423957
 10
208.7587515363
 20
261.1428297391999
 10
208.9882833662
 20
260.7946158739
 10
209.2001744968
 20
260.4426954234
 10
209.394245647
 20
260.0873661477
 10
209.5703326133
 20
259.7289286907
 10
209.7282864085
 20
259.3676863263
 10
209.8679733879
 20
259.0039447017
 10
209.9892753625
 20
258.6380115785
 10
210.0920896985
 20
258.2701965727
 10
210.1763294049
 20
257.9008108926
 10
210.2419232064
 20
257.5301670752
 10
210.2888156041
 20
257.1585787223
 10
210.3169669225
 20
256.7863602347
 10
210.3263533425
 20
256.4138265464
 10
210.3169669225
 20
256.0412928581
 10
210.2888156041
 20
255.6690743705
 10
210.2419232064
 20
255.2974860176
 10
210.1763294049
 20
254.9268422002
 10
210.0920896985
 20
254.5574565201
 10
209.9892753625
 20
254.1896415143
 10
209.8679733879
 20
253.8237083911
 10
209.7282864085
 20
253.4599667665
 10
209.5703326133
 20
253.0987244021
 10
209.394245647
 20
252.7402869451
 10
209.2001744968
 20
252.3849576694
 10
208.9882833662
 20
252.0330372189
 10
208.7587515363
 20
251.6848233536
 10
208.5117732139
 20
251.3406106971
 10
208.2475573674
 20
251.0006904877
 10
207.9663275497
 20
250.6653503318
 10
207.6683217093
 20
250.3348739608
 10
207.353791989
 20
250.0095409905
 10
207.0230045122
 20
249.6896266851
 10
206.6762391582
 20
249.3754017242
 10
206.3137893252
 20
249.0671319733
 10
205.9359616818
 20
248.7650782595
 10
205.5430759079
 20
248.4694961504
 10
205.1354644242
 20
248.1806357379
 10
204.7134721107
 20
247.8987414268
 10
204.2774560149
 20
247.6240517278
 10
203.8277850501
 20
247.3567990559
 10
203.3648396827
 20
247.0972095334
 10
202.8890116108
 20
246.845502799
 10
202.4007034324
 20
246.6018918218
 10
201.900328305
 20
246.366582721
 10
201.3883095959
 20
246.1397745915
 10
200.865080524
 20
245.9216593357
 10
200.3310837934999
 20
245.7124215008
 10
199.7867712187
 20
245.512238123
 10
199.2326033425
 20
245.3212785773
 10
198.6690490463
 20
245.1397044347
 10
198.0965851532
 20
244.9676693249
 10
197.5156960249
 20
244.8053188069
 10
196.9268731515
 20
244.6527902453
 10
196.3306147359999
 20
244.5102126947
 10
195.7274252725
 20
244.3777067897
 10
195.1178151196
 20
244.2553846437
 10
194.5023000683
 20
244.1433497535
 10
193.8814009057
 20
244.0416969116
 10
193.2556429746
 20
243.9505121265
 10
192.6255557286
 20
243.8698725497
 10
191.9916722845
 20
243.7998464104
 10
191.3545289709
 20
243.7404929576
 10
190.7146648747
 20
243.6918624102
 10
190.0726213847
 20
243.6539959146
 10
189.428941734
 20
243.6269255096
 10
188.7841705396
 20
243.6106740995
 10
188.1388533425
 20
243.6052554345
 10
187.4935361454
 20
243.6106740995
 10
186.8487649511
 20
243.6269255096
 10
186.2050853003
 20
243.6539959146
 10
185.5630418104
 20
243.6918624102
 10
184.9231777141
 20
243.7404929576
 10
184.2860344005
 20
243.7998464104
 10
183.6521509564
 20
243.8698725497
 10
183.0220637104
 20
243.9505121265
 10
182.3963057793
 20
244.0416969116
 10
181.7754066166999
 20
244.1433497535
 10
181.1598915654
 20
244.2553846437
 10
180.5502814125
 20
244.3777067897
 10
179.947091949
 20
244.5102126947
 10
179.3508335335
 20
244.6527902453
 10
178.7620106601
 20
244.8053188069
 10
178.1811215318
 20
244.9676693249
 10
177.6086576386999
 20
245.1397044347
 10
177.0451033425
 20
245.3212785773
 10
176.4909354663
 20
245.512238123
 10
175.9466228916
 20
245.7124215008
 10
175.412626161
 20
245.9216593357
 10
174.8893970891
 20
246.1397745915
 10
174.37737838
 20
246.366582721
 10
173.8770032526
 20
246.6018918218
 10
173.3886950742
 20
246.845502799
 10
172.9128670023
 20
247.0972095334
 10
172.4499216349
 20
247.3567990559
 10
172.0002506701
 20
247.6240517278
 10
171.5642345743
 20
247.8987414268
 10
171.1422422608
 20
248.1806357379
 10
170.7346307771
 20
248.4694961504
 10
170.3417450033
 20
248.7650782595
 10
169.9639173598
 20
249.0671319733
 10
169.6014675268
 20
249.3754017242
 10
169.2547021728
 20
249.6896266851
 10
168.923914696
 20
250.0095409905
 10
168.6093849757
 20
250.3348739608
 10
168.3113791353
 20
250.6653503318
 10
168.0301493176
 20
251.0006904877
 10
167.7659334711
 20
251.3406106971
 10
167.5189551487
 20
251.6848233536
 10
167.2894233188
 20
252.0330372189
 10
167.0775321882
 20
252.3849576694
 10
166.883461038
 20
252.7402869451
 10
166.7073740717
 20
253.0987244021
 10
166.5494202765
 20
253.4599667665
 10
166.4097332971
 20
253.8237083911
 10
166.2884313225
 20
254.1896415143
 10
166.1856169865
 20
254.5574565201
 10
166.1013772801
 20
254.9268422002
 10
166.0357834786
 20
255.2974860176
 10
165.9888910809
 20
255.6690743705
 10
165.9607397626
 20
256.0412928581
 10
165.9513533425
 20
256.4138265464
 10
165.9607397626
 20
256.7863602347
 10
165.9888910809
 20
257.1585787223
 10
166.0357834786
 20
257.5301670752
 10
166.1013772801
 20
257.9008108926
 10
166.1856169865
 20
258.2701965727
 10
166.2884313225
 20
258.6380115785
 10
166.4097332971
 20
259.0039447017
 10
166.5494202765
 20
259.3676863263
 10
166.7073740717
 20
259.7289286907
 10
166.883461038
 20
260.0873661477
 10
167.0775321882
 20
260.4426954234
 10
167.2894233188
 20
260.7946158739
 10
167.5189551487
 20
261.1428297391999
 10
167.7659334711
 20
261.4870423957
 10
168.0301493176
 20
261.8269626051
 10
168.3113791353
 20
262.162302761
 10
168.6093849757
 20
262.492779132
 10
168.923914696
 20
262.8181121023
 10
169.2547021728
 20
263.1380264077
 10
169.6014675268
 20
263.4522513686
 10
169.9639173598
 20
263.7605211195
 10
170.3417450033
 20
264.0625748333
 10
170.7346307771
 20
264.3581569424
 10
171.1422422608
 20
264.6470173549
 10
171.5642345743
 20
264.928911666
 10
172.0002506701
 20
265.203601365
 10
172.4499216349
 20
265.4708540369
 10
172.9128670023
 20
265.7304435594
 10
173.3886950742
 20
265.9821502938001
 10
173.8770032526
 20
266.225761271
 10
174.37737838
 20
266.4610703718
 10
174.7013533425
 20
266.6061635847
  0
ARC
  5
C1
330
1F
100
AcDbEntity
  8
0
  6
SLD-Continua
 62
     7
370
    18
100
AcDbCircle
 10
192.3379089914
 20
245.4853487028
 30
0.0
 40
23.05293203270442
100
AcDbArc
 50
60.10495385359999
 51
66.374976292
  0
LWPOLYLINE
  5
C2
330
1F
100
AcDbEntity
  8
0
  6
SLD-Continua
 62
     7
370
    18
100
AcDbPolyline
 90
       85
 70
   128
 43
0.0
 10
201.5763533425
 20
263.5585586504
 10
201.5669565631
 20
263.2685038033
 10
201.5387793671
 20
262.9788546241
 10
201.4918611629
 20
262.6900162134
 10
201.4262675699
 20
262.4023925378
 10
201.3420903266
 20
262.1163858651
 10
201.2394471624
 20
261.8323962014
 10
201.1184816333
 20
261.550820732
 10
200.9793629203
 20
261.2720532656
 10
200.8222855935
 20
260.9964836838
 10
200.6474693399
 20
260.7244973955
 10
200.4551586558
 20
260.4564747981001
 10
200.2456225049
 20
260.1927907454
 10
200.0191539427
 20
259.9338140236
 10
199.7760697059
 20
259.6799068348
 10
199.5167097696
 20
259.4314242914
 10
199.2414368724
 20
259.1887139185
 10
198.9506360081
 20
258.9521151686
 10
198.6447138882
 20
258.7219589465
 10
198.3240983723
 20
258.4985671463
 10
197.9892378702
 20
258.2822522019
 10
197.6406007147
 20
258.0733166491
 10
197.2786745063
 20
257.8720527032
 10
196.9039654316
 20
257.6787418501
 10
196.516997555
 20
257.4936544525
 10
196.1183120861
 20
257.3170493718
 10
195.7084666227
 20
257.1491736062
 10
195.2880343707
 20
256.9902619451
 10
194.8576033425
 20
256.840536641
 10
194.4177755349
 20
256.700207098
 10
193.9691660869
 20
256.5694695799
 10
193.5124024193
 20
256.4485069348
 10
193.0481233574
 20
256.3374883399
 10
192.5769782375
 20
256.2365690648
 10
192.0996259986999
 20
256.1458902542
 10
191.6167342611
 20
256.0655787307
 10
191.1289783924999
 20
255.9957468171
 10
190.6370405638
 20
255.9364921797
 10
190.1416087942
 20
255.8878976915
 10
189.6433759901
 20
255.8500313163
 10
189.1430389751
 20
255.8229460135
 10
188.6412975156
 20
255.8066796645
 10
188.1388533425
 20
255.8012550193
 10
187.6364091694
 20
255.8066796645
 10
187.1346677099
 20
255.8229460135
 10
186.6343306949
 20
255.8500313163
 10
186.1360978908
 20
255.8878976915
 10
185.6406661213
 20
255.9364921797
 10
185.1487282925
 20
255.9957468171
 10
184.6609724239
 20
256.0655787307
 10
184.1780806864
 20
256.1458902542
 10
183.7007284475
 20
256.2365690648
 10
183.2295833275999
 20
256.3374883399
 10
182.7653042657
 20
256.4485069348
 10
182.3085405981
 20
256.5694695799
 10
181.8599311501
 20
256.700207098
 10
181.4201033425
 20
256.840536641
 10
180.9896723143
 20
256.9902619451
 10
180.5692400623
 20
257.1491736062
 10
180.1593945989
 20
257.3170493718
 10
179.76070913
 20
257.4936544525
 10
179.3737412535
 20
257.6787418501
 10
178.9990321787
 20
257.8720527032
 10
178.6371059702999
 20
258.0733166491
 10
178.2884688148
 20
258.2822522019
 10
177.9536083127
 20
258.4985671463
 10
177.6329927968
 20
258.7219589465
 10
177.3270706769
 20
258.9521151686
 10
177.0362698126
 20
259.1887139185
 10
176.7609969154
 20
259.4314242914
 10
176.5016369792
 20
259.6799068348
 10
176.2585527423
 20
259.9338140236
 10
176.0320841801
 20
260.1927907454
 10
175.8225480293
 20
260.4564747981001
 10
175.6302373450999
 20
260.7244973955
 10
175.4554210915
 20
260.9964836838
 10
175.2983437648
 20
261.2720532656
 10
175.1592250517
 20
261.550820732
 10
175.0382595226
 20
261.8323962014
 10
174.9356163584
 20
262.1163858651
 10
174.8514391151
 20
262.4023925378
 10
174.7858455221
 20
262.6900162134
 10
174.7389273179
 20
262.9788546241
 10
174.7107501219
 20
263.2685038033
 10
174.7013533425
 20
263.5585586504
  0
ARC
  5
C3
330
1F
100
AcDbEntity
  8
0
  6
SLD-Continua
 62
     7
370
    25
100
AcDbCircle
 10
506.4444444443999
 20
349.7880341880001
 30
0.0
 40
0.5000000000000569
100
AcDbArc
 50
0.0
 51
90.0
  0
ARC
  5
C4
330
1F
100
AcDbEntity
  8
0
  6
SLD-Continua
 62
     7
370
    25
100
AcDbCircle
 10
482.4444444444
 20
349.7880341880001
 30
0.0
 40
0.5
100
AcDbArc
 50
90.0
 51
180.0
  0
LINE
  5
C5
330
1F
100
AcDbEntity
  8
0
  6
SLD-Continua
 62
     7
370
    25
100
AcDbLine
 10
481.9444444444
 20
349.7880341880001
 30
0.0
 11
481.9444444444
 21
322.788034188
 31
0.0
  0
LINE
  5
C6
330
1F
100
AcDbEntity
  8
0
  6
SLD-Continua
 62
     7
370
    25
100
AcDbLine
 10
506.9444444444
 20
322.788034188
 30
0.0
 11
506.9444444444
 21
349.7880341880001
 31
0.0
  0
ARC
  5
C7
330
1F
100
AcDbEntity
  8
0
  6
SLD-Continua
 62
     7
370
    25
100
AcDbCircle
 10
482.4444444444
 20
322.788034188
 30
0.0
 40
0.5000000000000569
100
AcDbArc
 50
180.0
 51
270.0
  0
ARC
  5
C8
330
1F
100
AcDbEntity
  8
0
  6
SLD-Continua
 62
     7
370
    25
100
AcDbCircle
 10
506.4444444443999
 20
322.788034188
 30
0.0
 40
0.5000000000000569
100
AcDbArc
 50
270.0
 51
0.0
  0
LINE
  5
C9
330
1F
100
AcDbEntity
  8
0
  6
SLD-Continua
 62
     7
370
    25
100
AcDbLine
 10
519.9444444444
 20
299.188034188
 30
0.0
 11
519.9444444444
 21
300.688034188
 31
0.0
  0
LINE
  5
CA
330
1F
100
AcDbEntity
  8
0
  6
SLD-Continua
 62
     7
370
    25
100
AcDbLine
 10
468.9444444443999
 20
300.688034188
 30
0.0
 11
468.9444444443999
 21
299.188034188
 31
0.0
  0
ARC
  5
CB
330
1F
100
AcDbEntity
  8
0
  6
SLD-Continua
 62
     7
370
    25
100
AcDbCircle
 10
469.4444444444
 20
300.688034188
 30
0.0
 40
0.5000000000000569
100
AcDbArc
 50
90.0
 51
180.0
  0
ARC
  5
CC
330
1F
100
AcDbEntity
  8
0
  6
SLD-Continua
 62
     7
370
    25
100
AcDbCircle
 10
519.4444444444
 20
300.688034188
 30
0.0
 40
0.5000000000001137
100
AcDbArc
 50
0.0
 51
90.0
  0
ARC
  5
CD
330
1F
100
AcDbEntity
  8
0
  6
SLD-Continua
 62
     7
370
    25
100
AcDbCircle
 10
512.1944444443999
 20
308.188034188
 30
0.0
 40
7.0
100
AcDbArc
 50
180.0
 51
270.0
  0
ARC
  5
CE
330
1F
100
AcDbEntity
  8
0
  6
SLD-Continua
 62
     7
370
    25
100
AcDbCircle
 10
476.6944444444
 20
308.188034188
 30
0.0
 40
7.0
100
AcDbArc
 50
270.0
 51
0.0
  0
LINE
  5
CF
330
1F
100
AcDbEntity
  8
0
  6
SLD-Continua
 62
     7
370
    25
100
AcDbLine
 10
505.1944444444
 20
308.188034188
 30
0.0
 11
505.1944444444
 21
322.288034188
 31
0.0
  0
LINE
  5
D0
330
1F
100
AcDbEntity
  8
0
  6
SLD-Continua
 62
     7
370
    25
100
AcDbLine
 10
483.6944444443999
 20
322.288034188
 30
0.0
 11
483.6944444443999
 21
308.188034188
 31
0.0
  0
LINE
  5
D1
330
1F
100
AcDbEntity
  8
0
  6
SLD-Continua
 62
     7
370
    25
100
AcDbLine
 10
519.4444444444
 20
149.188034188
 30
0.0
 11
519.4444444444
 21
298.988034188
 31
0.0
  0
LINE
  5
D2
330
1F
100
AcDbEntity
  8
0
  6
SLD-Continua
 62
     7
370
    25
100
AcDbLine
 10
469.4444444444
 20
298.988034188
 30
0.0
 11
469.4444444444
 21
149.188034188
 31
0.0
  0
LINE
  5
D3
330
1F
100
AcDbEntity
  8
0
  6
SLD-Continua
 62
     7
370
    25
100
AcDbLine
 10
519.4444444444
 20
298.988034188
 30
0.0
 11
519.2444444444
 21
299.188034188
 31
0.0
  0
LINE
  5
D4
330
1F
100
AcDbEntity
  8
0
  6
SLD-Continua
 62
     7
370
    25
100
AcDbLine
 10
469.6444444444
 20
299.188034188
 30
0.0
 11
469.4444444444
 21
298.988034188
 31
0.0
  0
LINE
  5
D5
330
1F
100
AcDbEntity
  8
0
  6
SLD-Continua
 62
     7
370
    25
100
AcDbLine
 10
482.4444444444
 20
350.288034188
 30
0.0
 11
506.4444444443999
 21
350.288034188
 31
0.0
  0
SPLINE
  5
D6
330
1F
100
AcDbEntity
  8
0
  6
SLD-Continua
 62
     7
370
    25
100
AcDbSpline
210
0.0
220
0.0
230
1.0
 70
     9
 71
     3
 72
    64
 73
    60
 74
     0
 42
0.000000001
 43
0.0000000001
 40
0.0
 40
0.0
 40
0.0
 40
0.0
 40
0.0175132171290044
 40
0.0350839505488579
 40
0.0525987721734605
 40
0.0700960008218531
 40
0.087648021453563
 40
0.1051474304154042
 40
0.1229776299909759
 40
0.1408630802816775
 40
0.1586927845328523
 40
0.176759139524313
 40
0.1948842709797118
 40
0.2129480042881889
 40
0.2306614379599517
 40
0.2484335132947768
 40
0.2661463079426364
 40
0.2834837312741035
 40
0.3008763638623501
 40
0.3182157467479623
 40
0.3357065737616561
 40
0.3532511964420179
 40
0.3707436485206521
 40
0.3886888318825159
 40
0.4066902378300666
 40
0.4246340907483105
 40
0.442657333027725
 40
0.4607398941985631
 40
0.4787604797112818
 40
0.4963255899461322
 40
0.5139486033479715
 40
0.5315140588611924
 40
0.5488083603815018
 40
0.56615687397364
 40
0.5834535318598407
 40
0.6010759904939032
 40
0.6187525220703165
 40
0.6363757989054099
 40
0.6544178832754108
 40
0.6725174474290018
 40
0.6905573724921899
 40
0.7084668229947944
 40
0.7264356075832669
 40
0.7443431925040983
 40
0.7617880422963085
 40
0.779289560580822
 40
0.7967355533788433
 40
0.8140956938067722
 40
0.8315097342766073
 40
0.8488720455298208
 40
0.8666355808184286
 40
0.8844539629343007
 40
0.9022175349312448
 40
0.9202888626034287
 40
0.9384185373981559
 40
0.9564871759413083
 40
0.9709810627160367
 40
0.9855067631980576
 40
1.0
 40
1.0
 40
1.0
 40
1.0
 10
497.4944444444443
 20
344.2880341880343
 30
0.0
 10
497.4907626769435
 20
344.1757411532652
 30
0.0
 10
497.4833870504111
 20
343.9507862948975
 30
0.0
 10
497.4254933518296
 20
343.6179256771096
 30
0.0
 10
497.3345815779391
 20
343.2935932329183
 30
0.0
 10
497.2072675676965
 20
342.9822924791504
 30
0.0
 10
497.0474672769628
 20
342.6872325228733
 30
0.0
 10
496.8556035348593
 20
342.4098209737206
 30
0.0
 10
496.6324229032408
 20
342.1544224930968
 30
0.0
 10
496.3809263130143
 20
341.9238030466561
 30
0.0
 10
496.1041005132854
 20
341.7212619994044
 30
0.0
 10
495.8040572125113
 20
341.5508855593257
 30
0.0
 10
495.484973613482
 20
341.4143728058706
 30
0.0
 10
495.1541540690474
 20
341.3149352959941
 30
0.0
 10
494.8158364977861
 20
341.2546672323464
 30
0.0
 10
494.4749771477678
 20
341.2321620881069
 30
0.0
 10
494.1360417175695
 20
341.2472546347562
 30
0.0
 10
493.8036682361765
 20
341.3001928278816
 30
0.0
 10
493.4816876236426
 20
341.3878929664947
 30
0.0
 10
493.1705581144882
 20
341.509947512631
 30
0.0
 10
492.8746620097784
 20
341.666191739713
 30
0.0
 10
492.5970479985334
 20
341.8538349936186
 30
0.0
 10
492.3393696233692
 20
342.0721251614967
 30
0.0
 10
492.1060894389062
 20
342.3202694750738
 30
0.0
 10
491.8999816767865
 20
342.5951820197354
 30
0.0
 10
491.7251782154611
 20
342.8920923308933
 30
0.0
 10
491.5853542659343
 20
343.2082253130471
 30
0.0
 10
491.4814338233964
 20
343.5389982135122
 30
0.0
 10
491.4156293064772
 20
343.8770064517578
 30
0.0
 10
491.3893297120189
 20
344.217686786156
 30
0.0
 10
491.4003152691002
 20
344.556278808915
 30
0.0
 10
491.4479733675273
 20
344.8897769590359
 30
0.0
 10
491.5322567684476
 20
345.213644918712
 30
0.0
 10
491.6500196055016
 20
345.5244381692024
 30
0.0
 10
491.8011701584123
 20
345.8222117114292
 30
0.0
 10
491.9855434110929
 20
346.1025759165703
 30
0.0
 10
492.2004977484227
 20
346.3625008763389
 30
0.0
 10
492.4443889068048
 20
346.5992902914459
 30
0.0
 10
492.7160003137411
 20
346.8085258861421
 30
0.0
 10
493.0118542728546
 20
346.9876930412244
 30
0.0
 10
493.3256496455133
 20
347.132589704182
 30
0.0
 10
493.6538887909502
 20
347.2401517350983
 30
0.0
 10
493.9916623051679
 20
347.3104582935994
 30
0.0
 10
494.3325814577735
 20
347.3424836371847
 30
0.0
 10
494.6719683436376
 20
347.3354028686707
 30
0.0
 10
495.0054304545036
 20
347.2919459155741
 30
0.0
 10
495.3313705882274
 20
347.2127662782808
 30
0.0
 10
495.6453450108944
 20
347.0979551083402
 30
0.0
 10
495.9441177301163
 20
346.9504968795857
 30
0.0
 10
496.2270789997063
 20
346.7706103899507
 30
0.0
 10
496.4897932773769
 20
346.5586816111472
 30
0.0
 10
496.7293118547181
 20
346.3174816583235
 30
0.0
 10
496.9422076856386
 20
346.0497801750664
 30
0.0
 10
497.1242833149663
 20
345.7573968205986
 30
0.0
 10
497.2735057108133
 20
345.4442877432437
 30
0.0
 10
497.3795967577873
 20
345.1374163727596
 30
0.0
 10
497.4472946098503
 20
344.8434603207705
 30
0.0
 10
497.4869423340915
 20
344.5669873526686
 30
0.0
 10
497.4919456067249
 20
344.3809492022028
 30
0.0
 10
497.4944444444443
 20
344.2880341880343
 30
0.0
  0
LINE
  5
D7
330
1F
100
AcDbEntity
  8
0
  6
SLD-Continua
 62
     7
370
    25
100
AcDbLine
 10
482.4444444444
 20
322.288034188
 30
0.0
 11
506.4444444443999
 21
322.288034188
 31
0.0
  0
CIRCLE
  5
D8
330
1F
100
AcDbEntity
  8
0
  6
SLD-Continua
 62
     7
370
    25
100
AcDbCircle
 10
494.4444444444
 20
344.288034188
 30
0.0
 40
3.0
  0
LINE
  5
D9
330
1F
100
AcDbEntity
  8
0
  6
SLD-Continua
 62
     7
370
    25
100
AcDbLine
 10
519.9444444444
 20
299.188034188
 30
0.0
 11
468.9444444443999
 21
299.188034188
 31
0.0
  0
LINE
  5
DA
330
1F
100
AcDbEntity
  8
0
  6
SLD-Continua
 62
     7
370
    25
100
AcDbLine
 10
469.4444444444
 20
301.188034188
 30
0.0
 11
519.4444444444
 21
301.188034188
 31
0.0
  0
LINE
  5
DB
330
1F
100
AcDbEntity
  8
0
  6
SLD-Continua
 62
     7
370
    25
100
AcDbLine
 10
519.4444444444
 20
149.188034188
 30
0.0
 11
469.4444444444
 21
149.188034188
 31
0.0
  0
LINE
  5
DC
330
1F
100
AcDbEntity
  8
0
  6
SLD-Continua
 62
     7
370
    25
100
AcDbLine
 10
519.4444444444
 20
298.988034188
 30
0.0
 11
469.4444444444
 21
298.988034188
 31
0.0
  0
LINE
  5
DD
330
1F
100
AcDbEntity
  8
0
  6
SLD-Continua
 62
     7
370
    18
100
AcDbLine
 10
506.9444444444
 20
349.7880341880001
 30
0.0
 11
481.9444444444
 21
349.7880341880001
 31
0.0
  0
LINE
  5
DE
330
1F
100
AcDbEntity
  8
0
  6
SLD-Continua
 62
     7
370
    18
100
AcDbLine
 10
481.9444444444
 20
322.788034188
 30
0.0
 11
506.9444444444
 21
322.788034188
 31
0.0
  0
CIRCLE
  5
DF
330
1F
100
AcDbEntity
  8
0
  6
SLD-Continua
 62
     7
370
    18
100
AcDbCircle
 10
494.4444444444
 20
344.288034188
 30
0.0
 40
2.499999999999715
  0
LINE
  5
E0
330
1F
100
AcDbEntity
  8
0
  6
SLD-Continua
 62
     7
370
    18
100
AcDbLine
 10
519.9444444444
 20
300.688034188
 30
0.0
 11
468.9444444443999
 21
300.688034188
 31
0.0
  0
LINE
  5
E1
330
1F
100
AcDbEntity
  8
0
  6
SLD-Continua
 62
     7
370
    18
100
AcDbLine
 10
505.1944444444
 20
308.188034188
 30
0.0
 11
483.6944444443999
 21
308.188034188
 31
0.0
  0
DIMENSION
  5
E2
330
1F
100
AcDbEntity
  8
1
 62
     7
100
AcDbDimension
280
     0
  2
_D
 10
519.4444444444
 20
104.9650402349
 30
0.0
 11
559.913543535
 21
104.9650402349
 31
0.0
 70
   160
  1
%%c<>
 71
     2
 42
-1.0
 73
     0
 74
     0
 75
     0
  3
SLDDIMSTYLE0
100
AcDbAlignedDimension
 13
469.4444444444
 23
149.188034188
 33
0.0
 14
519.4444444444
 24
149.188034188
 34
0.0
100
AcDbRotatedDimension
  0
DIMENSION
  5
F0
330
1F
100
AcDbEntity
  8
1
 62
     7
100
AcDbDimension
280
     0
  2
_D_1
 10
559.913543535
 20
350.288034188
 30
0.0
 11
559.913543535
 21
249.738034188
 31
0.0
 70
   160
  1
<>
 71
     2
 42
-1.0
 73
     0
 74
     0
 75
     0
  3
SLDDIMSTYLE1
100
AcDbAlignedDimension
 13
519.4444444444
 23
149.188034188
 33
0.0
 14
506.4444444443999
 24
350.288034188
 34
0.0
 50
90.0
100
AcDbRotatedDimension
  0
ARC
  5
FC
330
1F
100
AcDbEntity
  8
0
  6
SLD-Continua
 62
     7
370
    25
100
AcDbCircle
 10
695.6388888888999
 20
349.7880341880001
 30
0.0
 40
0.5
100
AcDbArc
 50
0.0
 51
90.0
  0
ARC
  5
FD
330
1F
100
AcDbEntity
  8
0
  6
SLD-Continua
 62
     7
370
    25
100
AcDbCircle
 10
671.6388888888999
 20
349.7880341880001
 30
0.0
 40
0.5000000000001137
100
AcDbArc
 50
90.0
 51
180.0
  0
LINE
  5
FE
330
1F
100
AcDbEntity
  8
0
  6
SLD-Continua
 62
     7
370
    25
100
AcDbLine
 10
671.1388888888999
 20
349.7880341880001
 30
0.0
 11
671.1388888888999
 21
322.788034188
 31
0.0
  0
LINE
  5
FF
330
1F
100
AcDbEntity
  8
0
  6
SLD-Continua
 62
     7
370
    25
100
AcDbLine
 10
696.1388888888999
 20
347.3355384883
 30
0.0
 11
696.1388888888999
 21
349.7880341880001
 31
0.0
  0
LINE
  5
100
330
1F
100
AcDbEntity
  8
0
  6
SLD-Continua
 62
     7
370
    25
100
AcDbLine
 10
696.1388888888999
 20
322.788034188
 30
0.0
 11
696.1388888888999
 21
341.2397967879
 31
0.0
  0
ARC
  5
101
330
1F
100
AcDbEntity
  8
0
  6
SLD-Continua
 62
     7
370
    25
100
AcDbCircle
 10
671.6388888888999
 20
322.788034188
 30
0.0
 40
0.5000000000001137
100
AcDbArc
 50
180.0
 51
270.0
  0
ARC
  5
102
330
1F
100
AcDbEntity
  8
0
  6
SLD-Continua
 62
     7
370
    25
100
AcDbCircle
 10
695.6388888888999
 20
322.788034188
 30
0.0
 40
0.5000000000000569
100
AcDbArc
 50
270.0
 51
0.0
  0
ARC
  5
103
330
1F
100
AcDbEntity
  8
0
  6
SLD-Continua
 62
     7
370
    25
100
AcDbCircle
 10
730.6388888888999
 20
346.788034188
 30
0.0
 40
0.5000000000002843
100
AcDbArc
 50
0.0
 51
90.0
  0
ARC
  5
104
330
1F
100
AcDbEntity
  8
0
  6
SLD-Continua
 62
     7
370
    25
100
AcDbCircle
 10
730.6388888888999
 20
341.788034188
 30
0.0
 40
0.5000000000002843
100
AcDbArc
 50
270.0
 51
0.0
  0
LINE
  5
105
330
1F
100
AcDbEntity
  8
0
  6
SLD-Continua
 62
     7
370
    25
100
AcDbLine
 10
727.6388888888999
 20
341.288034188
 30
0.0
 11
730.6388888888999
 21
341.288034188
 31
0.0
  0
LINE
  5
106
330
1F
100
AcDbEntity
  8
0
  6
SLD-Continua
 62
     7
370
    25
100
AcDbLine
 10
696.1267807853999
 20
341.288034188
 30
0.0
 11
724.6397640547999
 21
341.288034188
 31
0.0
  0
LINE
  5
107
330
1F
100
AcDbEntity
  8
0
  6
SLD-Continua
 62
     7
370
    25
100
AcDbLine
 10
730.6388888888999
 20
347.288034188
 30
0.0
 11
696.1267976867
 21
347.288034188
 31
0.0
  0
ARC
  5
108
330
1F
100
AcDbEntity
  8
0
  6
SLD-Continua
 62
     7
370
    25
100
AcDbCircle
 10
658.6388888888999
 20
300.688034188
 30
0.0
 40
0.5000000000001137
100
AcDbArc
 50
90.0
 51
180.0
  0
ARC
  5
109
330
1F
100
AcDbEntity
  8
0
  6
SLD-Continua
 62
     7
370
    25
100
AcDbCircle
 10
708.6388888888999
 20
300.688034188
 30
0.0
 40
0.5000000000000569
100
AcDbArc
 50
0.0
 51
90.0
  0
LINE
  5
10A
330
1F
100
AcDbEntity
  8
0
  6
SLD-Continua
 62
     7
370
    25
100
AcDbLine
 10
709.1388888888999
 20
299.188034188
 30
0.0
 11
709.1388888888999
 21
300.688034188
 31
0.0
  0
LINE
  5
10B
330
1F
100
AcDbEntity
  8
0
  6
SLD-Continua
 62
     7
370
    25
100
AcDbLine
 10
658.1388888888999
 20
300.688034188
 30
0.0
 11
658.1388888888999
 21
299.188034188
 31
0.0
  0
ARC
  5
10C
330
1F
100
AcDbEntity
  8
0
  6
SLD-Continua
 62
     7
370
    25
100
AcDbCircle
 10
701.3888888888999
 20
308.188034188
 30
0.0
 40
7.0
100
AcDbArc
 50
180.0
 51
270.0
  0
ARC
  5
10D
330
1F
100
AcDbEntity
  8
0
  6
SLD-Continua
 62
     7
370
    25
100
AcDbCircle
 10
665.8888888888999
 20
308.188034188
 30
0.0
 40
7.0
100
AcDbArc
 50
270.0
 51
0.0
  0
LINE
  5
10E
330
1F
100
AcDbEntity
  8
0
  6
SLD-Continua
 62
     7
370
    25
100
AcDbLine
 10
694.3888888888999
 20
308.188034188
 30
0.0
 11
694.3888888888999
 21
322.288034188
 31
0.0
  0
LINE
  5
10F
330
1F
100
AcDbEntity
  8
0
  6
SLD-Continua
 62
     7
370
    25
100
AcDbLine
 10
672.8888888888999
 20
322.288034188
 30
0.0
 11
672.8888888888999
 21
308.188034188
 31
0.0
  0
LINE
  5
110
330
1F
100
AcDbEntity
  8
0
  6
SLD-Continua
 62
     7
370
    25
100
AcDbLine
 10
708.6388888888999
 20
149.188034188
 30
0.0
 11
708.6388888888999
 21
298.988034188
 31
0.0
  0
LINE
  5
111
330
1F
100
AcDbEntity
  8
0
  6
SLD-Continua
 62
     7
370
    25
100
AcDbLine
 10
658.6388888888999
 20
298.988034188
 30
0.0
 11
658.6388888888999
 21
289.688034188
 31
0.0
  0
LINE
  5
112
330
1F
100
AcDbEntity
  8
0
  6
SLD-Continua
 62
     7
370
    25
100
AcDbLine
 10
658.6388888888999
 20
249.688034188
 30
0.0
 11
658.6388888888999
 21
149.188034188
 31
0.0
  0
LINE
  5
113
330
1F
100
AcDbEntity
  8
0
  6
SLD-Continua
 62
     7
370
    25
100
AcDbLine
 10
708.6388888888999
 20
298.988034188
 30
0.0
 11
708.4388888889
 21
299.188034188
 31
0.0
  0
LINE
  5
114
330
1F
100
AcDbEntity
  8
0
  6
SLD-Continua
 62
     7
370
    25
100
AcDbLine
 10
658.8388888888999
 20
299.188034188
 30
0.0
 11
658.6388888888999
 21
298.988034188
 31
0.0
  0
LINE
  5
115
330
1F
100
AcDbEntity
  8
0
  6
SLD-Continua
 62
     7
370
    25
100
AcDbLine
 10
660.5974045616999
 20
249.688034188
 30
0.0
 11
639.6388888888999
 21
249.688034188
 31
0.0
  0
LINE
  5
116
330
1F
100
AcDbEntity
  8
0
  6
SLD-Continua
 62
     7
370
    25
100
AcDbLine
 10
639.6388888888999
 20
249.688034188
 30
0.0
 11
639.6388888888999
 21
249.988034188
 31
0.0
  0
SPLINE
  5
117
330
1F
100
AcDbEntity
  8
0
  6
SLD-Continua
 62
     7
370
    25
100
AcDbSpline
210
0.0
220
0.0
230
1.0
 70
     8
 71
     3
 72
    12
 73
     8
 74
     0
 42
0.000000001
 43
0.0000000001
 40
0.0
 40
0.0
 40
0.0
 40
0.0
 40
0.19303655189537
 40
0.3858222786433229
 40
0.5854349146651757
 40
0.8008870703585641
 40
1.0
 40
1.0
 40
1.0
 40
1.0
 10
660.7260104141094
 20
249.9880341880346
 30
0.0
 10
660.7247245565589
 20
249.9563584102443
 30
0.0
 10
660.7221545122578
 20
249.893048013095
 30
0.0
 10
660.7023983582199
 20
249.8080342235238
 30
0.0
 10
660.6730846270009
 20
249.740336474148
 30
0.0
 10
660.6365145803189
 20
249.6961338030282
 30
0.0
 10
660.6100941321201
 20
249.6906621754009
 30
0.0
 10
660.5974045617017
 20
249.6880341880345
 30
0.0
  0
LINE
  5
118
330
1F
100
AcDbEntity
  8
0
  6
SLD-Continua
 62
     7
370
    25
100
AcDbLine
 10
639.6388888888999
 20
289.688034188
 30
0.0
 11
660.5974045616999
 21
289.688034188
 31
0.0
  0
SPLINE
  5
119
330
1F
100
AcDbEntity
  8
0
  6
SLD-Continua
 62
     7
370
    25
100
AcDbSpline
210
0.0
220
0.0
230
1.0
 70
     8
 71
     3
 72
    14
 73
    10
 74
     0
 42
0.000000001
 43
0.0000000001
 40
0.0
 40
0.0
 40
0.0
 40
0.0
 40
0.2385235761844391
 40
0.3565516404000238
 40
0.4782909186547561
 40
0.591170807859824
 40
0.7079280893597908
 40
0.9174713287269529
 40
1.0
 40
1.0
 40
1.0
 40
1.0
 10
660.5974045617017
 20
289.6880341880342
 30
0.0
 10
660.612677834073
 20
289.6844071115644
 30
0.0
 10
660.6355087441463
 20
289.6789852573148
 30
0.0
 10
660.6637357109788
 20
289.6460382376116
 30
0.0
 10
660.6827129941159
 20
289.6137169831169
 30
0.0
 10
660.6990977490137
 20
289.5732123276003
 30
0.0
 10
660.7155359577749
 20
289.5141524831172
 30
0.0
 10
660.724914050256
 20
289.4493046267939
 30
0.0
 10
660.7257688729681
 20
289.4015327466144
 30
0.0
 10
660.7260104141094
 20
289.3880341880342
 30
0.0
  0
LINE
  5
11A
330
1F
100
AcDbEntity
  8
0
  6
SLD-Continua
 62
     7
370
    25
100
AcDbLine
 10
639.6388888888999
 20
289.388034188
 30
0.0
 11
639.6388888888999
 21
289.688034188
 31
0.0
  0
CIRCLE
  5
11B
330
1F
100
AcDbEntity
  8
0
  6
SLD-Continua
 62
     7
370
    25
100
AcDbCircle
 10
645.6388888888999
 20
269.688034188
 30
0.0
 40
2.999999999999943
  0
LINE
  5
11C
330
1F
100
AcDbEntity
  8
0
  6
SLD-Continua
 62
     7
370
    25
100
AcDbLine
 10
660.7260104141
 20
289.388034188
 30
0.0
 11
660.7260104141
 21
249.988034188
 31
0.0
  0
LINE
  5
11D
330
1F
100
AcDbEntity
  8
0
  6
SLD-Continua
 62
     7
370
    25
100
AcDbLine
 10
639.6388888888999
 20
289.388034188
 30
0.0
 11
639.6388888888999
 21
249.988034188
 31
0.0
  0
CIRCLE
  5
11E
330
1F
100
AcDbEntity
  8
0
  6
SLD-Continua
 62
     7
370
    25
100
AcDbCircle
 10
645.6388888888999
 20
269.688034188
 30
0.0
 40
2.445500000000013
  0
LINE
  5
11F
330
1F
100
AcDbEntity
  8
0
  6
SLD-Continua
 62
     7
370
    25
100
AcDbLine
 10
646.9928860427
 20
268.6078991467
 30
0.0
 11
647.2513118511
 21
270.3205625992
 31
0.0
  0
LINE
  5
120
330
1F
100
AcDbEntity
  8
0
  6
SLD-Continua
 62
     7
370
    25
100
AcDbLine
 10
645.8973146973001
 20
271.4006976405
 30
0.0
 11
647.2513118511
 21
270.3205625992
 31
0.0
  0
LINE
  5
121
330
1F
100
AcDbEntity
  8
0
  6
SLD-Continua
 62
     7
370
    25
100
AcDbLine
 10
644.2848917351
 20
270.7681692293
 30
0.0
 11
645.8973146973001
 21
271.4006976405
 31
0.0
  0
LINE
  5
122
330
1F
100
AcDbEntity
  8
0
  6
SLD-Continua
 62
     7
370
    25
100
AcDbLine
 10
644.2848917351
 20
270.7681692293
 30
0.0
 11
644.0264659267
 21
269.0555057768
 31
0.0
  0
LINE
  5
123
330
1F
100
AcDbEntity
  8
0
  6
SLD-Continua
 62
     7
370
    25
100
AcDbLine
 10
645.3804630805
 20
267.9753707355
 30
0.0
 11
644.0264659267
 21
269.0555057768
 31
0.0
  0
LINE
  5
124
330
1F
100
AcDbEntity
  8
0
  6
SLD-Continua
 62
     7
370
    25
100
AcDbLine
 10
645.3804630805
 20
267.9753707355
 30
0.0
 11
646.9928860427
 21
268.6078991467
 31
0.0
  0
LINE
  5
125
330
1F
100
AcDbEntity
  8
0
  6
SLD-Continua
 62
     7
370
    25
100
AcDbLine
 10
671.6388888888999
 20
350.288034188
 30
0.0
 11
695.6388888888999
 21
350.288034188
 31
0.0
  0
SPLINE
  5
126
330
1F
100
AcDbEntity
  8
0
  6
SLD-Continua
 62
     7
370
    25
100
AcDbSpline
210
0.0
220
0.0
230
1.0
 70
     8
 71
     3
 72
    46
 73
    42
 74
     0
 42
0.000000001
 43
0.0000000001
 40
0.0
 40
0.0
 40
0.0
 40
0.0
 40
0.005304662086555
 40
0.0323018657443121
 40
0.057969576720086
 40
0.0836375538442501
 40
0.1100389615501934
 40
0.1364408046644529
 40
0.1623464680958788
 40
0.1882524978043582
 40
0.2148736847830925
 40
0.2414950754226756
 40
0.2680583085929867
 40
0.2946214537668687
 40
0.3219488230648689
 40
0.3492757933782951
 40
0.375932780925786
 40
0.4025892787417357
 40
0.4300604769393959
 40
0.4575312291077723
 40
0.4835188270371967
 40
0.5095063270825195
 40
0.5362732969690835
 40
0.5630405011572453
 40
0.5886509944544512
 40
0.6142618754680047
 40
0.640590054886199
 40
0.6669186835223248
 40
0.6930176630470612
 40
0.7191169142517435
 40
0.7459393080930127
 40
0.7727617116339078
 40
0.7994599252751228
 40
0.826157863957037
 40
0.8536420311340794
 40
0.8811256981864893
 40
0.9076142327022299
 40
0.9341023541704791
 40
0.9614013748904271
 40
0.9887001567980149
 40
1.0
 40
1.0
 40
1.0
 40
1.0
 10
696.1384555251959
 20
341.2397967879055
 30
0.0
 10
696.1385876164467
 20
341.2392533938749
 30
0.0
 10
696.1393919643528
 20
341.2359444854592
 30
0.0
 10
696.1357152199703
 20
341.2510502638087
 30
0.0
 10
696.1274116820224
 20
341.2852923410795
 30
0.0
 10
696.1141708352691
 20
341.3407621041125
 30
0.0
 10
696.0965212280038
 20
341.4161794131723
 30
0.0
 10
696.0748761625807
 20
341.5114041047152
 30
0.0
 10
696.0500377794742
 20
341.6246082420485
 30
0.0
 10
696.0225158491196
 20
341.7556511899721
 30
0.0
 10
695.9927519527629
 20
341.9050689632339
 30
0.0
 10
695.9615522145477
 20
342.0720888935154
 30
0.0
 10
695.9300170148199
 20
342.2543615760111
 30
0.0
 10
695.8987076676707
 20
342.4524077469972
 30
0.0
 10
695.8685143388448
 20
342.665674520743
 30
0.0
 10
695.8405792036008
 20
342.8911425966916
 30
0.0
 10
695.8159963502477
 20
343.1250397594728
 30
0.0
 10
695.7951085970613
 20
343.3678539237267
 30
0.0
 10
695.7785725774299
 20
343.620192223838
 30
0.0
 10
695.767190578957
 20
343.8756078758981
 30
0.0
 10
695.7612776685672
 20
344.1293856423115
 30
0.0
 10
695.7605477691389
 20
344.3820542662304
 30
0.0
 10
695.7652082784222
 20
344.6365495061979
 30
0.0
 10
695.7750368474541
 20
344.8872591343111
 30
0.0
 10
695.7895333652581
 20
345.1299723179673
 30
0.0
 10
695.808129042727
 20
345.3655617175858
 30
0.0
 10
695.8307280500942
 20
345.5958090634965
 30
0.0
 10
695.8566545223352
 20
345.8183521991352
 30
0.0
 10
695.8849969439499
 20
346.0296419996983
 30
0.0
 10
695.9152023999575
 20
346.2304121123038
 30
0.0
 10
695.9466057599345
 20
346.4195079234427
 30
0.0
 10
695.9782987865857
 20
346.5951036751846
 30
0.0
 10
696.0091142309257
 20
346.7542497590682
 30
0.0
 10
696.0385302492282
 20
346.8975098509107
 30
0.0
 10
696.0656680045834
 20
347.0233170524456
 30
0.0
 10
696.0894216508569
 20
347.1289848040635
 30
0.0
 10
696.1088909659042
 20
347.2129754856493
 30
0.0
 10
696.1240554294354
 20
347.2767865324773
 30
0.0
 10
696.1340838794114
 20
347.318370593527
 30
0.0
 10
696.1388980113865
 20
347.3380639719453
 30
0.0
 10
696.1384188109962
 20
347.3361104010535
 30
0.0
 10
696.1382785238939
 20
347.3355384883313
 30
0.0
  0
LINE
  5
127
330
1F
100
AcDbEntity
  8
0
  6
SLD-Continua
 62
     7
370
    25
100
AcDbLine
 10
683.6388888888999
 20
322.288034188
 30
0.0
 11
695.6388888888999
 21
322.288034188
 31
0.0
  0
LINE
  5
128
330
1F
100
AcDbEntity
  8
0
  6
SLD-Continua
 62
     7
370
    25
100
AcDbLine
 10
671.6388888888999
 20
322.288034188
 30
0.0
 11
683.6388888888999
 21
322.288034188
 31
0.0
  0
LINE
  5
129
330
1F
100
AcDbEntity
  8
0
  6
SLD-Continua
 62
     7
370
    25
100
AcDbLine
 10
731.1388888888999
 20
346.788034188
 30
0.0
 11
731.1388888888999
 21
341.7880341882
 31
0.0
  0
SPLINE
  5
12A
330
1F
100
AcDbEntity
  8
0
  6
SLD-Continua
 62
     7
370
    25
100
AcDbSpline
210
0.0
220
0.0
230
1.0
 70
     8
 71
     3
 72
    35
 73
    31
 74
     0
 42
0.000000001
 43
0.0000000001
 40
0.0
 40
0.0
 40
0.0
 40
0.0
 40
0.048629576548717
 40
0.0987675570457524
 40
0.1473736212036577
 40
0.197243300840053
 40
0.2488333964197896
 40
0.3017119603099974
 40
0.3294322715371074
 40
0.3571506810682287
 40
0.3857766555058957
 40
0.4143991805978748
 40
0.440378489249889
 40
0.4663557734251662
 40
0.4933096641544915
 40
0.5202632376176333
 40
0.5661548186572415
 40
0.6133299344223103
 40
0.6604244359849876
 40
0.7086009996636541
 40
0.7616030727971276
 40
0.7888261246551062
 40
0.8160480580985517
 40
0.8436959050274348
 40
0.8713417035530529
 40
0.899940986384011
 40
0.9285378132878504
 40
0.9538809675424404
 40
0.9792232109900716
 40
1.0
 40
1.0
 40
1.0
 40
1.0
 10
727.6388888888913
 20
341.2880341880342
 30
0.0
 10
727.6353753024624
 20
341.2897988220026
 30
0.0
 10
727.6282391443325
 20
341.293382825782
 30
0.0
 10
727.5712073487092
 20
341.3215255390105
 30
0.0
 10
727.4821373661043
 20
341.3637364302498
 30
0.0
 10
727.3601767113222
 20
341.4181255342816
 30
0.0
 10
727.2053889493823
 20
341.4810538273923
 30
0.0
 10
727.0495742113174
 20
341.5362944846728
 30
0.0
 10
726.9092761999068
 20
341.578833765302
 30
0.0
 10
726.7941109971533
 20
341.6094396731197
 30
0.0
 10
726.6718718177885
 20
341.6367938176938
 30
0.0
 10
726.5471691550133
 20
341.659051251779
 30
0.0
 10
726.4227171269426
 20
341.6754110679569
 30
0.0
 10
726.2983300255918
 20
341.6860992918283
 30
0.0
 10
726.1708510478626
 20
341.6908026019498
 30
0.0
 10
726.0112462614523
 20
341.6888414449982
 30
0.0
 10
725.8210072008638
 20
341.673561028885
 30
0.0
 10
725.607890507564
 20
341.6388761047545
 30
0.0
 10
725.4053922428873
 20
341.5905691281679
 30
0.0
 10
725.2131065143412
 20
341.5318078801497
 30
0.0
 10
725.0660689991465
 20
341.4779829372815
 30
0.0
 10
724.9579976105702
 20
341.4344734878086
 30
0.0
 10
724.883547197867
 20
341.4028031690393
 30
0.0
 10
724.8175748216396
 20
341.3734423281088
 30
0.0
 10
724.7600644447196
 20
341.3468689650017
 30
0.0
 10
724.7124930264826
 20
341.3242348422188
 30
0.0
 10
724.6770170921965
 20
341.3069464730322
 30
0.0
 10
724.6537317336795
 20
341.2954467853663
 30
0.0
 10
724.6406731967496
 20
341.2889252557574
 30
0.0
 10
724.6400464199838
 20
341.2886142960618
 30
0.0
 10
724.6397640548098
 20
341.2884742076071
 30
0.0
  0
LINE
  5
12B
330
1F
100
AcDbEntity
  8
0
  6
SLD-Continua
 62
     7
370
    25
100
AcDbLine
 10
683.6388888888999
 20
301.188034188
 30
0.0
 11
708.6388888888999
 21
301.188034188
 31
0.0
  0
LINE
  5
12C
330
1F
100
AcDbEntity
  8
0
  6
SLD-Continua
 62
     7
370
    25
100
AcDbLine
 10
658.6388888888999
 20
301.188034188
 30
0.0
 11
683.6388888888999
 21
301.188034188
 31
0.0
  0
LINE
  5
12D
330
1F
100
AcDbEntity
  8
0
  6
SLD-Continua
 62
     7
370
    25
100
AcDbLine
 10
709.1388888888999
 20
299.188034188
 30
0.0
 11
658.1388888888999
 21
299.188034188
 31
0.0
  0
LINE
  5
12E
330
1F
100
AcDbEntity
  8
0
  6
SLD-Continua
 62
     7
370
    25
100
AcDbLine
 10
683.6388888888999
 20
149.188034188
 30
0.0
 11
658.6388888888999
 21
149.188034188
 31
0.0
  0
LINE
  5
12F
330
1F
100
AcDbEntity
  8
0
  6
SLD-Continua
 62
     7
370
    25
100
AcDbLine
 10
708.6388888888999
 20
149.188034188
 30
0.0
 11
683.6388888888999
 21
149.188034188
 31
0.0
  0
LINE
  5
130
330
1F
100
AcDbEntity
  8
0
  6
SLD-Continua
 62
     7
370
    25
100
AcDbLine
 10
683.6388888888999
 20
298.988034188
 30
0.0
 11
658.6388888888999
 21
298.988034188
 31
0.0
  0
LINE
  5
131
330
1F
100
AcDbEntity
  8
0
  6
SLD-Continua
 62
     7
370
    25
100
AcDbLine
 10
708.6388888888999
 20
298.988034188
 30
0.0
 11
683.6388888888999
 21
298.988034188
 31
0.0
  0
LINE
  5
132
330
1F
100
AcDbEntity
  8
0
  6
SLD-Continua
 62
     7
370
    18
100
AcDbLine
 10
639.6388888888999
 20
249.988034188
 30
0.0
 11
660.7260104141
 21
249.988034188
 31
0.0
  0
LINE
  5
133
330
1F
100
AcDbEntity
  8
0
  6
SLD-Continua
 62
     7
370
    18
100
AcDbLine
 10
660.7260104141
 20
289.388034188
 30
0.0
 11
639.6388888888999
 21
289.388034188
 31
0.0
  0
LINE
  5
134
330
1F
100
AcDbEntity
  8
0
  6
SLD-Continua
 62
     7
370
    18
100
AcDbLine
 10
696.1388888888999
 20
349.7880341880001
 30
0.0
 11
671.1388888888999
 21
349.7880341880001
 31
0.0
  0
LINE
  5
135
330
1F
100
AcDbEntity
  8
0
  6
SLD-Continua
 62
     7
370
    18
100
AcDbLine
 10
683.6388888888999
 20
322.788034188
 30
0.0
 11
696.1388888888999
 21
322.788034188
 31
0.0
  0
LINE
  5
136
330
1F
100
AcDbEntity
  8
0
  6
SLD-Continua
 62
     7
370
    18
100
AcDbLine
 10
671.1388888888999
 20
322.788034188
 30
0.0
 11
683.6388888888999
 21
322.788034188
 31
0.0
  0
LINE
  5
137
330
1F
100
AcDbEntity
  8
0
  6
SLD-Continua
 62
     7
370
    18
100
AcDbLine
 10
730.6388888888999
 20
341.288034188
 30
0.0
 11
730.6388888888999
 21
347.288034188
 31
0.0
  0
LINE
  5
138
330
1F
100
AcDbEntity
  8
0
  6
SLD-Continua
 62
     7
370
    18
100
AcDbLine
 10
683.6388888888999
 20
300.688034188
 30
0.0
 11
658.1388888888999
 21
300.688034188
 31
0.0
  0
LINE
  5
139
330
1F
100
AcDbEntity
  8
0
  6
SLD-Continua
 62
     7
370
    18
100
AcDbLine
 10
709.1388888888999
 20
300.688034188
 30
0.0
 11
683.6388888888999
 21
300.688034188
 31
0.0
  0
LINE
  5
13A
330
1F
100
AcDbEntity
  8
0
  6
SLD-Continua
 62
     7
370
    18
100
AcDbLine
 10
694.3888888888999
 20
308.188034188
 30
0.0
 11
672.8888888888999
 21
308.188034188
 31
0.0
  0
DIMENSION
  5
13B
330
1F
100
AcDbEntity
  8
1
 62
     7
100
AcDbDimension
280
     0
  2
_D_2
 10
731.1388888888999
 20
104.9650402349
 30
0.0
 11
685.3888888888999
 21
104.9650402349
 31
0.0
 70
   160
  1
<>
 71
     2
 42
-1.0
 73
     0
 74
     0
 75
     0
  3
SLDDIMSTYLE2
100
AcDbAlignedDimension
 13
639.6388888888999
 23
249.688034188
 33
0.0
 14
731.1388888888999
 24
341.788034188
 34
0.0
100
AcDbRotatedDimension
  0
ENDSEC
  0
SECTION
  2
OBJECTS
  0
DICTIONARY
  5
C
330
0
100
AcDbDictionary
281
     1
  3
ACAD_CIP_PREVIOUS_PRODUCT_INFO
350
186
  3
ACAD_COLOR
350
17A
  3
ACAD_DETAILVIEWSTYLE
350
181
  3
ACAD_GROUP
350
D
  3
ACAD_LAYOUT
350
1A
  3
ACAD_MATERIAL
350
148
  3
ACAD_MLEADERSTYLE
350
17D
  3
ACAD_MLINESTYLE
350
17
  3
ACAD_PLOTSETTINGS
350
19
  3
ACAD_PLOTSTYLENAME
350
E
  3
ACAD_SCALELIST
350
47
  3
ACAD_SECTIONVIEWSTYLE
350
17F
  3
ACAD_TABLESTYLE
350
17B
  3
ACAD_VISUALSTYLE
350
161
  3
ACDB_RECOMPOSE_DATA
350
1B7
  3
AcDbVariableDictionary
350
1A7
  0
DICTIONARY
  5
197
330
10
100
AcDbDictionary
280
     1
281
     1
  3
ADSK_XREC_LAYER_RECONCILED
360
198
  0
DICTIONARY
  5
199
330
75
100
AcDbDictionary
280
     1
281
     1
  3
ADSK_XREC_LAYER_RECONCILED
360
19A
  0
DICTIONARY
  5
19B
330
76
100
AcDbDictionary
280
     1
281
     1
  3
ADSK_XREC_LAYER_RECONCILED
360
19C
  0
DICTIONARY
  5
19D
330
77
100
AcDbDictionary
280
     1
281
     1
  3
ADSK_XREC_LAYER_RECONCILED
360
19E
  0
DICTIONARY
  5
19F
330
78
100
AcDbDictionary
280
     1
281
     1
  3
ADSK_XREC_LAYER_RECONCILED
360
1A0
  0
DICTIONARY
  5
1A1
330
79
100
AcDbDictionary
280
     1
281
     1
  3
ADSK_XREC_LAYER_RECONCILED
360
1A2
  0
DICTIONARY
  5
1A3
330
7A
100
AcDbDictionary
280
     1
281
     1
  3
ADSK_XREC_LAYER_RECONCILED
360
1A4
  0
DICTIONARY
  5
1A5
330
7B
100
AcDbDictionary
280
     1
281
     1
  3
ADSK_XREC_LAYER_RECONCILED
360
1A6
  0
XRECORD
  5
186
102
{ACAD_REACTORS
330
C
102
}
330
C
100
AcDbXrecord
280
     1
300
ACD
300
2017
300
ACD_F_S
  0
DICTIONARY
  5
17A
102
{ACAD_REACTORS
330
C
102
}
330
C
100
AcDbDictionary
281
     1
  0
DICTIONARY
  5
181
102
{ACAD_REACTORS
330
C
102
}
330
C
100
AcDbDictionary
281
     1
  3
Metric50
350
182
  0
DICTIONARY
  5
D
102
{ACAD_REACTORS
330
C
102
}
330
C
100
AcDbDictionary
281
     1
  0
DICTIONARY
  5
1A
102
{ACAD_REACTORS
330
C
102
}
330
C
100
AcDbDictionary
281
     1
  3
Layout1
350
1E
  3
Layout2
350
26
  3
Model
350
22
  0
DICTIONARY
  5
148
102
{ACAD_REACTORS
330
C
102
}
330
C
100
AcDbDictionary
281
     1
  3
ByBlock
350
151
  3
ByLayer
350
149
  3
Global
350
159
  0
DICTIONARY
  5
17D
102
{ACAD_REACTORS
330
C
102
}
330
C
100
AcDbDictionary
281
     1
  3
Standard
350
17E
  0
DICTIONARY
  5
17
102
{ACAD_REACTORS
330
C
102
}
330
C
100
AcDbDictionary
281
     1
  3
Standard
350
18
  0
DICTIONARY
  5
19
102
{ACAD_REACTORS
330
C
102
}
330
C
100
AcDbDictionary
281
     1
  0
ACDBDICTIONARYWDFLT
  5
E
102
{ACAD_REACTORS
330
C
102
}
330
C
100
AcDbDictionary
281
     1
  3
Normal
350
F
100
AcDbDictionaryWithDefault
340
F
  0
DICTIONARY
  5
47
102
{ACAD_REACTORS
330
C
102
}
330
C
100
AcDbDictionary
281
     1
  3
A0
350
48
  3
A1
350
49
  3
A2
350
4A
  3
A3
350
4B
  3
A4
350
4C
  3
A5
350
4D
  3
A6
350
4E
  3
A7
350
4F
  3
A8
350
50
  3
A9
350
51
  3
B0
350
52
  3
B1
350
53
  3
B2
350
54
  3
B3
350
55
  3
B4
350
56
  3
B5
350
57
  3
B6
350
58
  3
B7
350
59
  3
B8
350
5A
  3
B9
350
5B
  3
C0
350
5C
  3
C1
350
5D
  3
C2
350
5E
  3
C3
350
5F
  3
C4
350
60
  3
C5
350
61
  3
C6
350
62
  3
C7
350
63
  3
C8
350
64
  3
C9
350
65
  3
D0
350
66
  3
D1
350
67
  3
D2
350
68
  0
DICTIONARY
  5
17F
102
{ACAD_REACTORS
330
C
102
}
330
C
100
AcDbDictionary
281
     1
  3
Metric50
350
180
  0
DICTIONARY
  5
17B
102
{ACAD_REACTORS
330
C
102
}
330
C
100
AcDbDictionary
281
     1
  3
Standard
350
17C
  0
DICTIONARY
  5
161
102
{ACAD_REACTORS
330
C
102
}
330
C
100
AcDbDictionary
281
     1
  3
2dWireframe
350
167
  3
Basic
350
166
  3
Brighten
350
16D
  3
ColorChange
350
171
  3
Conceptual
350
16A
  3
Dim
350
16C
  3
EdgeColorOff
350
179
  3
Facepattern
350
170
  3
Flat
350
162
  3
FlatWithEdges
350
163
  3
Gouraud
350
164
  3
GouraudWithEdges
350
165
  3
Hidden
350
169
  3
JitterOff
350
177
  3
Linepattern
350
16F
  3
OverhangOff
350
178
  3
Realistic
350
16B
  3
Shaded
350
176
  3
Shaded with edges
350
175
  3
Shades of Gray
350
172
  3
Sketchy
350
173
  3
Thicken
350
16E
  3
Wireframe
350
168
  3
X-Ray
350
174
  0
XRECORD
  5
1B7
102
{ACAD_REACTORS
330
C
102
}
330
C
100
AcDbXrecord
280
     1
 90
        1
330
17C
330
180
330
182
  0
DICTIONARY
  5
1A7
102
{ACAD_REACTORS
330
C
102
}
330
C
100
AcDbDictionary
281
     1
  3
CANNOSCALE
350
1AD
  3
CMLEADERSTYLE
350
1A9
  3
CTABLESTYLE
350
1A8
  3
CVIEWDETAILSTYLE
350
1AA
  3
CVIEWSECTIONSTYLE
350
1AB
  3
LAYEREVAL
350
1AF
  3
LAYERNOTIFY
350
1B0
  3
LIGHTINGUNITS
350
1AE
  3
MSLTSCALE
350
1AC
  0
XRECORD
  5
198
102
{ACAD_REACTORS
330
197
102
}
330
197
100
AcDbXrecord
280
     1
290
     1
  0
XRECORD
  5
19A
102
{ACAD_REACTORS
330
199
102
}
330
199
100
AcDbXrecord
280
     1
290
     1
  0
XRECORD
  5
19C
102
{ACAD_REACTORS
330
19B
102
}
330
19B
100
AcDbXrecord
280
     1
290
     1
  0
XRECORD
  5
19E
102
{ACAD_REACTORS
330
19D
102
}
330
19D
100
AcDbXrecord
280
     1
290
     1
  0
XRECORD
  5
1A0
102
{ACAD_REACTORS
330
19F
102
}
330
19F
100
AcDbXrecord
280
     1
290
     1
  0
XRECORD
  5
1A2
102
{ACAD_REACTORS
330
1A1
102
}
330
1A1
100
AcDbXrecord
280
     1
290
     1
  0
XRECORD
  5
1A4
102
{ACAD_REACTORS
330
1A3
102
}
330
1A3
100
AcDbXrecord
280
     1
290
     1
  0
XRECORD
  5
1A6
102
{ACAD_REACTORS
330
1A5
102
}
330
1A5
100
AcDbXrecord
280
     1
290
     1
  0
ACDBDETAILVIEWSTYLE
  5
182
102
{ACAD_XDICTIONARY
360
1B5
102
}
102
{ACAD_REACTORS
330
181
102
}
330
181
100
AcDbModelDocViewStyle
 70
     0
  3
Metric50
290
     0
100
AcDbDetailViewStyle
 70
     0
 71
     0
 90
        3
 71
     1
340
11
 62
   256
 40
5.0
340
0
 62
   256
 40
5.0
300

 40
0.0
280
     1
 71
     2
340
16
 90
       25
 62
   256
 71
     3
340
11
 62
   256
 40
5.0
 90
        0
 40
15.0
 90
        1
300
%<\AcVar ViewDetailId>% (%<\AcVar ViewScale \f "%sn">%)
 71
     4
340
16
 90
       25
 62
   256
340
16
 90
       25
 62
   256
280
     0
  0
LAYOUT
  5
1E
102
{ACAD_REACTORS
330
1A
102
}
330
1A
100
AcDbPlotSettings
  1

  2
none_device
  4

  6

 40
0.0
 41
0.0
 42
0.0
 43
0.0
 44
0.0
 45
0.0
 46
0.0
 47
0.0
 48
0.0
 49
0.0
140
0.0
141
0.0
142
1.0
143
1.0
 70
   688
 72
     1
 73
     0
 74
     5
  7

 75
    16
147
1.0
 76
     0
 77
     2
 78
   300
148
0.0
149
0.0
100
AcDbLayout
  1
Layout1
 70
     1
 71
     1
 10
0.0
 20
0.0
 11
420.0
 21
297.0
 12
0.0
 22
0.0
 32
0.0
 14
1.000000000000000E+20
 24
1.000000000000000E+20
 34
1.000000000000000E+20
 15
-1.000000000000000E+20
 25
-1.000000000000000E+20
 35
-1.000000000000000E+20
146
0.0
 13
0.0
 23
0.0
 33
0.0
 16
1.0
 26
0.0
 36
0.0
 17
0.0
 27
1.0
 37
0.0
 76
     0
330
1B
  0
LAYOUT
  5
26
102
{ACAD_REACTORS
330
1A
102
}
330
1A
100
AcDbPlotSettings
  1

  2
none_device
  4

  6

 40
0.0
 41
0.0
 42
0.0
 43
0.0
 44
0.0
 45
0.0
 46
0.0
 47
0.0
 48
0.0
 49
0.0
140
0.0
141
0.0
142
1.0
143
1.0
 70
   688
 72
     1
 73
     0
 74
     5
  7

 75
    16
147
1.0
 76
     0
 77
     2
 78
   300
148
0.0
149
0.0
100
AcDbLayout
  1
Layout2
 70
     1
 71
     2
 10
0.0
 20
0.0
 11
0.0
 21
0.0
 12
0.0
 22
0.0
 32
0.0
 14
0.0
 24
0.0
 34
0.0
 15
0.0
 25
0.0
 35
0.0
146
0.0
 13
0.0
 23
0.0
 33
0.0
 16
1.0
 26
0.0
 36
0.0
 17
0.0
 27
1.0
 37
0.0
 76
     0
330
23
  0
LAYOUT
  5
22
102
{ACAD_REACTORS
330
1A
102
}
330
1A
100
AcDbPlotSettings
  1

  2
none_device
  4
Letter_(8.50_x_11.00_Inches)
  6

 40
6.349999999999999
 41
6.349999999999999
 42
6.350005079999999
 43
6.350005079999999
 44
215.9
 45
279.4
 46
0.0
 47
0.0
 48
0.0
 49
0.0
140
0.0
141
0.0
142
1.0
143
1.0
 70
  1712
 72
     1
 73
     0
 74
     0
  7

 75
     0
147
1.0
 76
     0
 77
     2
 78
   300
148
0.0
149
0.0
100
AcDbLayout
  1
Model
 70
     1
 71
     0
 10
0.0
 20
0.0
 11
800.0
 21
400.0
 12
0.0
 22
0.0
 32
0.0
 14
0.0
 24
0.0
 34
0.0
 15
800.0
 25
400.0
 35
0.0
146
0.0
 13
0.0
 23
0.0
 33
0.0
 16
1.0
 26
0.0
 36
0.0
 17
0.0
 27
1.0
 37
0.0
 76
     0
330
1F
331
29
  0
MATERIAL
  5
151
102
{ACAD_XDICTIONARY
360
152
102
}
102
{ACAD_REACTORS
330
148
102
}
330
148
100
AcDbMaterial
  1
ByBlock
 72
     0
 43
0.0008202099737533
 43
0.0
 43
0.0
 43
0.0
 43
0.0
 43
0.0008202099737533
 43
0.0
 43
0.0
 43
0.0
 43
0.0
 43
1.0
 43
0.0
 43
0.0
 43
0.0
 43
0.0
 43
1.0
 77
     0
 47
0.0008202099737533
 47
0.0
 47
0.0
 47
0.0
 47
0.0
 47
0.0008202099737533
 47
0.0
 47
0.0
 47
0.0
 47
0.0
 47
1.0
 47
0.0
 47
0.0
 47
0.0
 47
0.0
 47
1.0
171
     0
 49
0.0008202099737533
 49
0.0
 49
0.0
 49
0.0
 49
0.0
 49
0.0008202099737533
 49
0.0
 49
0.0
 49
0.0
 49
0.0
 49
1.0
 49
0.0
 49
0.0
 49
0.0
 49
0.0
 49
1.0
175
     0
142
0.0008202099737533
142
0.0
142
0.0
142
0.0
142
0.0
142
0.0008202099737533
142
0.0
142
0.0
142
0.0
142
0.0
142
1.0
142
0.0
142
0.0
142
0.0
142
0.0
142
1.0
179
     0
144
0.0008202099737533
144
0.0
144
0.0
144
0.0
144
0.0
144
0.0008202099737533
144
0.0
144
0.0
144
0.0
144
0.0
144
1.0
144
0.0
144
0.0
144
0.0
144
0.0
144
1.0
147
0.0008202099737533
147
0.0
147
0.0
147
0.0
147
0.0
147
0.0008202099737533
147
0.0
147
0.0
147
0.0
147
0.0
147
1.0
147
0.0
147
0.0
147
0.0
147
0.0
147
1.0
  0
MATERIAL
  5
149
102
{ACAD_XDICTIONARY
360
14A
102
}
102
{ACAD_REACTORS
330
148
102
}
330
148
100
AcDbMaterial
  1
ByLayer
 72
     0
 43
0.0008202099737533
 43
0.0
 43
0.0
 43
0.0
 43
0.0
 43
0.0008202099737533
 43
0.0
 43
0.0
 43
0.0
 43
0.0
 43
1.0
 43
0.0
 43
0.0
 43
0.0
 43
0.0
 43
1.0
 77
     0
 47
0.0008202099737533
 47
0.0
 47
0.0
 47
0.0
 47
0.0
 47
0.0008202099737533
 47
0.0
 47
0.0
 47
0.0
 47
0.0
 47
1.0
 47
0.0
 47
0.0
 47
0.0
 47
0.0
 47
1.0
171
     0
 49
0.0008202099737533
 49
0.0
 49
0.0
 49
0.0
 49
0.0
 49
0.0008202099737533
 49
0.0
 49
0.0
 49
0.0
 49
0.0
 49
1.0
 49
0.0
 49
0.0
 49
0.0
 49
0.0
 49
1.0
175
     0
142
0.0008202099737533
142
0.0
142
0.0
142
0.0
142
0.0
142
0.0008202099737533
142
0.0
142
0.0
142
0.0
142
0.0
142
1.0
142
0.0
142
0.0
142
0.0
142
0.0
142
1.0
179
     0
144
0.0008202099737533
144
0.0
144
0.0
144
0.0
144
0.0
144
0.0008202099737533
144
0.0
144
0.0
144
0.0
144
0.0
144
1.0
144
0.0
144
0.0
144
0.0
144
0.0
144
1.0
147
0.0008202099737533
147
0.0
147
0.0
147
0.0
147
0.0
147
0.0008202099737533
147
0.0
147
0.0
147
0.0
147
0.0
147
1.0
147
0.0
147
0.0
147
0.0
147
0.0
147
1.0
  0
MATERIAL
  5
159
102
{ACAD_XDICTIONARY
360
15A
102
}
102
{ACAD_REACTORS
330
148
102
}
330
148
100
AcDbMaterial
  1
Global
 72
     0
 43
0.0008202099737533
 43
0.0
 43
0.0
 43
0.0
 43
0.0
 43
0.0008202099737533
 43
0.0
 43
0.0
 43
0.0
 43
0.0
 43
1.0
 43
0.0
 43
0.0
 43
0.0
 43
0.0
 43
1.0
 77
     0
 47
0.0008202099737533
 47
0.0
 47
0.0
 47
0.0
 47
0.0
 47
0.0008202099737533
 47
0.0
 47
0.0
 47
0.0
 47
0.0
 47
1.0
 47
0.0
 47
0.0
 47
0.0
 47
0.0
 47
1.0
171
     0
 49
0.0008202099737533
 49
0.0
 49
0.0
 49
0.0
 49
0.0
 49
0.0008202099737533
 49
0.0
 49
0.0
 49
0.0
 49
0.0
 49
1.0
 49
0.0
 49
0.0
 49
0.0
 49
0.0
 49
1.0
175
     0
142
0.0008202099737533
142
0.0
142
0.0
142
0.0
142
0.0
142
0.0008202099737533
142
0.0
142
0.0
142
0.0
142
0.0
142
1.0
142
0.0
142
0.0
142
0.0
142
0.0
142
1.0
179
     0
144
0.0008202099737533
144
0.0
144
0.0
144
0.0
144
0.0
144
0.0008202099737533
144
0.0
144
0.0
144
0.0
144
0.0
144
1.0
144
0.0
144
0.0
144
0.0
144
0.0
144
1.0
147
0.0008202099737533
147
0.0
147
0.0
147
0.0
147
0.0
147
0.0008202099737533
147
0.0
147
0.0
147
0.0
147
0.0
147
1.0
147
0.0
147
0.0
147
0.0
147
0.0
147
1.0
  0
MLEADERSTYLE
  5
17E
102
{ACAD_REACTORS
330
17D
102
}
330
17D
100
AcDbMLeaderStyle
179
     2
170
     2
171
     1
172
     0
 90
        2
 40
0.0
 41
0.0
173
     1
 91
-1056964608
340
14
 92
       -2
290
     1
 42
2.0
291
     1
 43
0.36
  3
Standard
 44
4.0
300

342
11
174
     1
178
     6
175
     1
176
     0
 93
-1056964608
 45
4.0
292
     0
297
     0
 46
4.0
 94
-1056964608
 47
1.0
 49
1.0
140
1.0
293
     1
141
0.0
294
     1
177
     0
142
1.0
295
     0
296
     0
143
0.125
271
     0
272
     9
273
     9
298
     0
  0
MLINESTYLE
  5
18
102
{ACAD_REACTORS
330
17
102
}
330
17
100
AcDbMlineStyle
  2
STANDARD
 70
     0
  3

 62
   256
 51
90.0
 52
90.0
 71
     2
 49
0.5
 62
   256
  6
BYLAYER
 49
-0.5
 62
   256
  6
BYLAYER
  0
ACDBPLACEHOLDER
  5
F
102
{ACAD_REACTORS
330
E
102
}
330
E
  0
SCALE
  5
48
102
{ACAD_REACTORS
330
47
102
}
330
47
100
AcDbScale
 70
     0
300
1:1
140
1.0
141
1.0
290
     1
  0
SCALE
  5
49
102
{ACAD_REACTORS
330
47
102
}
330
47
100
AcDbScale
 70
     0
300
1:2
140
1.0
141
2.0
290
     0
  0
SCALE
  5
4A
102
{ACAD_REACTORS
330
47
102
}
330
47
100
AcDbScale
 70
     0
300
1:4
140
1.0
141
4.0
290
     0
  0
SCALE
  5
4B
102
{ACAD_REACTORS
330
47
102
}
330
47
100
AcDbScale
 70
     0
300
1:5
140
1.0
141
5.0
290
     0
  0
SCALE
  5
4C
102
{ACAD_REACTORS
330
47
102
}
330
47
100
AcDbScale
 70
     0
300
1:8
140
1.0
141
8.0
290
     0
  0
SCALE
  5
4D
102
{ACAD_REACTORS
330
47
102
}
330
47
100
AcDbScale
 70
     0
300
1:10
140
1.0
141
10.0
290
     0
  0
SCALE
  5
4E
102
{ACAD_REACTORS
330
47
102
}
330
47
100
AcDbScale
 70
     0
300
1:16
140
1.0
141
16.0
290
     0
  0
SCALE
  5
4F
102
{ACAD_REACTORS
330
47
102
}
330
47
100
AcDbScale
 70
     0
300
1:20
140
1.0
141
20.0
290
     0
  0
SCALE
  5
50
102
{ACAD_REACTORS
330
47
102
}
330
47
100
AcDbScale
 70
     0
300
1:30
140
1.0
141
30.0
290
     0
  0
SCALE
  5
51
102
{ACAD_REACTORS
330
47
102
}
330
47
100
AcDbScale
 70
     0
300
1:40
140
1.0
141
40.0
290
     0
  0
SCALE
  5
52
102
{ACAD_REACTORS
330
47
102
}
330
47
100
AcDbScale
 70
     0
300
1:50
140
1.0
141
50.0
290
     0
  0
SCALE
  5
53
102
{ACAD_REACTORS
330
47
102
}
330
47
100
AcDbScale
 70
     0
300
1:100
140
1.0
141
100.0
290
     0
  0
SCALE
  5
54
102
{ACAD_REACTORS
330
47
102
}
330
47
100
AcDbScale
 70
     0
300
2:1
140
2.0
141
1.0
290
     0
  0
SCALE
  5
55
102
{ACAD_REACTORS
330
47
102
}
330
47
100
AcDbScale
 70
     0
300
4:1
140
4.0
141
1.0
290
     0
  0
SCALE
  5
56
102
{ACAD_REACTORS
330
47
102
}
330
47
100
AcDbScale
 70
     0
300
8:1
140
8.0
141
1.0
290
     0
  0
SCALE
  5
57
102
{ACAD_REACTORS
330
47
102
}
330
47
100
AcDbScale
 70
     0
300
10:1
140
10.0
141
1.0
290
     0
  0
SCALE
  5
58
102
{ACAD_REACTORS
330
47
102
}
330
47
100
AcDbScale
 70
     0
300
100:1
140
100.0
141
1.0
290
     0
  0
SCALE
  5
59
102
{ACAD_REACTORS
330
47
102
}
330
47
100
AcDbScale
 70
     0
300
1/128" = 1'-0"
140
0.0078125
141
12.0
290
     0
  0
SCALE
  5
5A
102
{ACAD_REACTORS
330
47
102
}
330
47
100
AcDbScale
 70
     0
300
1/64" = 1'-0"
140
0.015625
141
12.0
290
     0
  0
SCALE
  5
5B
102
{ACAD_REACTORS
330
47
102
}
330
47
100
AcDbScale
 70
     0
300
1/32" = 1'-0"
140
0.03125
141
12.0
290
     0
  0
SCALE
  5
5C
102
{ACAD_REACTORS
330
47
102
}
330
47
100
AcDbScale
 70
     0
300
1/16" = 1'-0"
140
0.0625
141
12.0
290
     0
  0
SCALE
  5
5D
102
{ACAD_REACTORS
330
47
102
}
330
47
100
AcDbScale
 70
     0
300
3/32" = 1'-0"
140
0.09375
141
12.0
290
     0
  0
SCALE
  5
5E
102
{ACAD_REACTORS
330
47
102
}
330
47
100
AcDbScale
 70
     0
300
1/8" = 1'-0"
140
0.125
141
12.0
290
     0
  0
SCALE
  5
5F
102
{ACAD_REACTORS
330
47
102
}
330
47
100
AcDbScale
 70
     0
300
3/16" = 1'-0"
140
0.1875
141
12.0
290
     0
  0
SCALE
  5
60
102
{ACAD_REACTORS
330
47
102
}
330
47
100
AcDbScale
 70
     0
300
1/4" = 1'-0"
140
0.25
141
12.0
290
     0
  0
SCALE
  5
61
102
{ACAD_REACTORS
330
47
102
}
330
47
100
AcDbScale
 70
     0
300
3/8" = 1'-0"
140
0.375
141
12.0
290
     0
  0
SCALE
  5
62
102
{ACAD_REACTORS
330
47
102
}
330
47
100
AcDbScale
 70
     0
300
1/2" = 1'-0"
140
0.5
141
12.0
290
     0
  0
SCALE
  5
63
102
{ACAD_REACTORS
330
47
102
}
330
47
100
AcDbScale
 70
     0
300
3/4" = 1'-0"
140
0.75
141
12.0
290
     0
  0
SCALE
  5
64
102
{ACAD_REACTORS
330
47
102
}
330
47
100
AcDbScale
 70
     0
300
1" = 1'-0"
140
1.0
141
12.0
290
     0
  0
SCALE
  5
65
102
{ACAD_REACTORS
330
47
102
}
330
47
100
AcDbScale
 70
     0
300
1-1/2" = 1'-0"
140
1.5
141
12.0
290
     0
  0
SCALE
  5
66
102
{ACAD_REACTORS
330
47
102
}
330
47
100
AcDbScale
 70
     0
300
3" = 1'-0"
140
3.0
141
12.0
290
     0
  0
SCALE
  5
67
102
{ACAD_REACTORS
330
47
102
}
330
47
100
AcDbScale
 70
     0
300
6" = 1'-0"
140
6.0
141
12.0
290
     0
  0
SCALE
  5
68
102
{ACAD_REACTORS
330
47
102
}
330
47
100
AcDbScale
 70
     0
300
1'-0" = 1'-0"
140
12.0
141
12.0
290
     0
  0
ACDBSECTIONVIEWSTYLE
  5
180
102
{ACAD_XDICTIONARY
360
1B3
102
}
102
{ACAD_REACTORS
330
17F
102
}
330
17F
100
AcDbModelDocViewStyle
 70
     0
  3
Metric50
290
     0
100
AcDbSectionViewStyle
 70
     0
 71
     0
 90
      102
 71
     1
340
11
 62
   256
 40
5.0
340
0
340
0
 62
   256
 40
5.0
300
I, O, Q, S, X, Z
 40
10.0
 90
        0
 40
2.5
 90
        0
 71
     2
340
16
 90
       25
 62
   256
340
16
 90
       50
 62
   256
 40
5.0
 40
2.5
 40
5.0
 71
     3
340
11
 62
   256
 40
5.0
 90
        0
 40
15.0
 90
        1
300
%<\AcVar ViewSectionStartId>%-%<\AcVar ViewSectionEndId>% (%<\AcVar ViewScale \f "%sn">%)
 71
     4
 62
   256
 62
   257
300
ANSI31
 40
1.0
 90
        0
290
     0
290
     0
 90
        6
 40
0.0
 40
1.570796326794896
 40
0.2617993877991494
 40
1.308996938995747
 40
-0.2617993877991494
 40
1.832595714594046
  0
TABLESTYLE
  5
17C
102
{ACAD_XDICTIONARY
360
1B1
102
}
102
{ACAD_REACTORS
330
17B
102
}
330
17B
100
AcDbTableStyle
280
     0
  3
Standard
 70
     0
 71
     0
 40
1.5
 41
1.5
280
     0
281
     0
  7
STANDARD
140
4.5
170
     2
 62
     0
 63
     7
283
     0
 90
      512
 91
        0
  1

274
    -2
284
     1
 64
     0
275
    -2
285
     1
 65
     0
276
    -2
286
     1
 66
     0
277
    -2
287
     1
 67
     0
278
    -2
288
     1
 68
     0
279
    -2
289
     1
 69
     0
  7
STANDARD
140
6.0
170
     5
 62
     0
 63
     7
283
     0
 90
      512
 91
        0
  1

274
    -2
284
     1
 64
     0
275
    -2
285
     1
 65
     0
276
    -2
286
     1
 66
     0
277
    -2
287
     1
 67
     0
278
    -2
288
     1
 68
     0
279
    -2
289
     1
 69
     0
  7
STANDARD
140
4.5
170
     5
 62
     0
 63
     7
283
     0
 90
      512
 91
        0
  1

274
    -2
284
     1
 64
     0
275
    -2
285
     1
 65
     0
276
    -2
286
     1
 66
     0
277
    -2
287
     1
 67
     0
278
    -2
288
     1
 68
     0
279
    -2
289
     1
 69
     0
  0
VISUALSTYLE
  5
167
102
{ACAD_REACTORS
330
161
102
}
330
161
100
AcDbVisualStyle
  2
2dWireframe
 70
     4
177
     3
291
     0
 70
    58
 90
        0
176
     1
 90
        2
176
     1
 90
        0
176
     1
 90
        0
176
     1
 40
0.6
176
     1
 40
30.0
176
     1
 62
     7
420
 16777215
176
     1
 90
        1
176
     1
 90
        4
176
     1
 62
     7
176
     1
 62
   257
176
     1
 90
        1
176
     1
 90
        1
176
     1
 40
1.0
176
     1
 90
        0
176
     1
 62
   257
176
     1
 40
1.0
176
     1
 90
        1
176
     1
 90
        6
176
     1
 90
        2
176
     1
 62
     7
176
     1
 90
        5
176
     1
 90
        0
176
     1
 90
        0
176
     1
290
     0
176
     1
 90
        1
176
     1
 40
0.0
176
     1
 90
        0
176
     1
290
     1
176
     1
290
     1
176
     1
290
     0
176
     1
290
     0
176
     1
290
     0
176
     1
290
     0
176
     1
290
     0
176
     1
290
     0
176
     1
290
     0
176
     1
 90
       50
176
     1
 40
0.0
176
     1
 40
1.0
176
     1
 90
        0
176
     1
 62
    18
420
        0
176
     1
 90
       50
176
     1
 90
        3
176
     1
 62
     5
420
      255
176
     1
290
     0
176
     1
 90
       50
176
     1
 90
       50
176
     1
 90
       50
176
     1
290
     0
176
     1
 90
       50
176
     1
 62
   256
176
     0
 40
1.0
176
     0
 90
        2
176
     1
  1
strokes_ogs.tif
176
     1
290
     0
176
     1
 40
1.0
176
     1
 40
1.0
176
     1
  0
VISUALSTYLE
  5
166
102
{ACAD_REACTORS
330
161
102
}
330
161
100
AcDbVisualStyle
  2
Basic
 70
     7
177
     3
291
     1
 70
    58
 90
        1
176
     1
 90
        0
176
     1
 90
        1
176
     1
 90
        0
176
     1
 40
0.6
176
     1
 40
30.0
176
     1
 62
     7
420
 16777215
176
     1
 90
        0
176
     1
 90
        4
176
     1
 62
     7
176
     1
 62
   257
176
     1
 90
        1
176
     1
 90
        1
176
     1
 40
1.0
176
     1
 90
        8
176
     1
 62
     7
176
     1
 40
1.0
176
     1
 90
        1
176
     1
 90
        6
176
     1
 90
        2
176
     1
 62
     7
176
     1
 90
        5
176
     1
 90
        0
176
     1
 90
        0
176
     1
290
     0
176
     1
 90
        1
176
     1
 40
0.0
176
     1
 90
        0
176
     1
290
     0
176
     1
290
     1
176
     1
290
     1
176
     1
290
     0
176
     1
290
     0
176
     1
290
     0
176
     1
290
     0
176
     1
290
     0
176
     1
290
     0
176
     1
 90
       50
176
     1
 40
0.0
176
     1
 40
1.0
176
     1
 90
        0
176
     1
 62
    18
420
        0
176
     1
 90
       50
176
     1
 90
        3
176
     1
 62
     5
420
      255
176
     1
290
     0
176
     1
 90
       50
176
     1
 90
       50
176
     1
 90
       50
176
     1
290
     0
176
     1
 90
       50
176
     1
 62
   256
176
     0
 40
1.0
176
     0
 90
        2
176
     1
  1
strokes_ogs.tif
176
     1
290
     0
176
     1
 40
1.0
176
     1
 40
1.0
176
     1
  0
VISUALSTYLE
  5
16D
102
{ACAD_REACTORS
330
161
102
}
330
161
100
AcDbVisualStyle
  2
Brighten
 70
    12
177
     3
291
     1
 70
    58
 90
        2
176
     1
 90
        2
176
     1
 90
        0
176
     1
 90
        0
176
     1
 40
0.6
176
     1
 40
30.0
176
     1
 62
     7
420
 16777215
176
     1
 90
        1
176
     1
 90
        4
176
     1
 62
     7
176
     1
 62
   257
176
     1
 90
        1
176
     1
 90
        1
176
     1
 40
1.0
176
     1
 90
        8
176
     1
 62
     7
176
     1
 40
1.0
176
     1
 90
        1
176
     1
 90
        6
176
     1
 90
        2
176
     1
 62
     7
176
     1
 90
        5
176
     1
 90
        0
176
     1
 90
        0
176
     1
290
     0
176
     1
 90
        1
176
     1
 40
50.0
176
     1
 90
        0
176
     1
290
     0
176
     1
290
     1
176
     1
290
     1
176
     1
290
     0
176
     1
290
     0
176
     1
290
     0
176
     1
290
     0
176
     1
290
     0
176
     1
290
     0
176
     1
 90
       50
176
     1
 40
0.0
176
     1
 40
1.0
176
     1
 90
        0
176
     1
 62
    18
420
        0
176
     1
 90
       50
176
     1
 90
        3
176
     1
 62
     5
420
      255
176
     1
290
     0
176
     1
 90
       50
176
     1
 90
       50
176
     1
 90
       50
176
     1
290
     0
176
     1
 90
       50
176
     1
 62
   256
176
     0
 40
1.0
176
     0
 90
        2
176
     1
  1
strokes_ogs.tif
176
     1
290
     0
176
     1
 40
1.0
176
     1
 40
1.0
176
     1
  0
VISUALSTYLE
  5
171
102
{ACAD_REACTORS
330
161
102
}
330
161
100
AcDbVisualStyle
  2
ColorChange
 70
    16
177
     3
291
     1
 70
    58
 90
        2
176
     1
 90
        2
176
     1
 90
        3
176
     1
 90
        0
176
     1
 40
0.6
176
     1
 40
30.0
176
     1
 62
     8
420
  8421504
176
     1
 90
        1
176
     1
 90
        4
176
     1
 62
     7
176
     1
 62
   257
176
     1
 90
        1
176
     1
 90
        1
176
     1
 40
1.0
176
     1
 90
        8
176
     1
 62
     8
420
  8421504
176
     1
 40
1.0
176
     1
 90
        1
176
     1
 90
        6
176
     1
 90
        2
176
     1
 62
     7
176
     1
 90
        5
176
     1
 90
        0
176
     1
 90
        0
176
     1
290
     0
176
     1
 90
        1
176
     1
 40
0.0
176
     1
 90
        0
176
     1
290
     0
176
     1
290
     1
176
     1
290
     1
176
     1
290
     0
176
     1
290
     0
176
     1
290
     0
176
     1
290
     0
176
     1
290
     0
176
     1
290
     0
176
     1
 90
       50
176
     1
 40
0.0
176
     1
 40
1.0
176
     1
 90
        0
176
     1
 62
    18
420
        0
176
     1
 90
       50
176
     1
 90
        3
176
     1
 62
     5
420
      255
176
     1
290
     0
176
     1
 90
       50
176
     1
 90
       50
176
     1
 90
       50
176
     1
290
     0
176
     1
 90
       50
176
     1
 62
   256
176
     0
 40
1.0
176
     0
 90
        2
176
     1
  1
strokes_ogs.tif
176
     1
290
     0
176
     1
 40
1.0
176
     1
 40
1.0
176
     1
  0
VISUALSTYLE
  5
16A
102
{ACAD_REACTORS
330
161
102
}
330
161
100
AcDbVisualStyle
  2
Conceptual
 70
     9
177
     3
291
     0
 70
    58
 90
        3
176
     1
 90
        2
176
     1
 90
        0
176
     1
 90
        0
176
     1
 40
0.6
176
     1
 40
30.0
176
     1
 62
     7
420
 16777215
176
     1
 90
        2
176
     1
 90
        2
176
     1
 62
     7
176
     1
 62
   257
176
     1
 90
        1
176
     1
 90
        1
176
     1
 40
179.0
176
     1
 90
        8
176
     1
 62
     7
176
     1
 40
1.0
176
     1
 90
        1
176
     1
 90
        6
176
     1
 90
        2
176
     1
 62
     7
176
     1
 90
        3
176
     1
 90
        0
176
     1
 90
        0
176
     1
290
     0
176
     1
 90
        1
176
     1
 40
0.0
176
     1
 90
        0
176
     1
290
     0
176
     1
290
     1
176
     1
290
     1
176
     1
290
     0
176
     1
290
     0
176
     1
290
     0
176
     1
290
     0
176
     1
290
     0
176
     1
290
     0
176
     1
 90
       50
176
     1
 40
0.0
176
     1
 40
1.0
176
     1
 90
        0
176
     1
 62
    18
420
        0
176
     1
 90
       50
176
     1
 90
        3
176
     1
 62
     5
420
      255
176
     1
290
     0
176
     1
 90
       50
176
     1
 90
       50
176
     1
 90
       50
176
     1
290
     0
176
     1
 90
       50
176
     1
 62
   256
176
     0
 40
1.0
176
     0
 90
        2
176
     1
  1
strokes_ogs.tif
176
     1
290
     0
176
     1
 40
1.0
176
     1
 40
1.0
176
     1
  0
VISUALSTYLE
  5
16C
102
{ACAD_REACTORS
330
161
102
}
330
161
100
AcDbVisualStyle
  2
Dim
 70
    11
177
     3
291
     1
 70
    58
 90
        2
176
     1
 90
        2
176
     1
 90
        0
176
     1
 90
        0
176
     1
 40
0.6
176
     1
 40
30.0
176
     1
 62
     7
420
 16777215
176
     1
 90
        1
176
     1
 90
        4
176
     1
 62
     7
176
     1
 62
   257
176
     1
 90
        1
176
     1
 90
        1
176
     1
 40
1.0
176
     1
 90
        8
176
     1
 62
     7
176
     1
 40
1.0
176
     1
 90
        1
176
     1
 90
        6
176
     1
 90
        2
176
     1
 62
     7
176
     1
 90
        5
176
     1
 90
        0
176
     1
 90
        0
176
     1
290
     0
176
     1
 90
        1
176
     1
 40
-50.0
176
     1
 90
        0
176
     1
290
     0
176
     1
290
     1
176
     1
290
     1
176
     1
290
     0
176
     1
290
     0
176
     1
290
     0
176
     1
290
     0
176
     1
290
     0
176
     1
290
     0
176
     1
 90
       50
176
     1
 40
0.0
176
     1
 40
1.0
176
     1
 90
        0
176
     1
 62
    18
420
        0
176
     1
 90
       50
176
     1
 90
        3
176
     1
 62
     5
420
      255
176
     1
290
     0
176
     1
 90
       50
176
     1
 90
       50
176
     1
 90
       50
176
     1
290
     0
176
     1
 90
       50
176
     1
 62
   256
176
     0
 40
1.0
176
     0
 90
        2
176
     1
  1
strokes_ogs.tif
176
     1
290
     0
176
     1
 40
1.0
176
     1
 40
1.0
176
     1
  0
VISUALSTYLE
  5
179
102
{ACAD_REACTORS
330
161
102
}
330
161
100
AcDbVisualStyle
  2
EdgeColorOff
 70
    22
177
     3
291
     1
 70
    58
 90
        2
176
     0
 90
        2
176
     0
 90
        0
176
     0
 90
        0
176
     0
 40
0.6
176
     0
 40
30.0
176
     0
 62
     7
420
 16777215
176
     0
 90
        1
176
     0
 90
        4
176
     0
 62
     7
176
     0
 62
   257
176
     0
 90
        1
176
     0
 90
        1
176
     0
 40
1.0
176
     0
 90
        8
176
     2
 62
     7
176
     0
 40
1.0
176
     0
 90
        1
176
     0
 90
        6
176
     0
 90
        2
176
     0
 62
     7
176
     0
 90
        5
176
     0
 90
        0
176
     0
 90
        0
176
     0
290
     0
176
     0
 90
        1
176
     0
 40
0.0
176
     0
 90
        0
176
     0
290
     0
176
     1
290
     1
176
     1
290
     1
176
     1
290
     0
176
     1
290
     0
176
     1
290
     0
176
     1
290
     0
176
     1
290
     0
176
     1
290
     0
176
     1
 90
       50
176
     0
 40
0.0
176
     0
 40
1.0
176
     0
 90
        0
176
     0
 62
    18
420
        0
176
     0
 90
       50
176
     0
 90
        3
176
     0
 62
     5
420
      255
176
     0
290
     0
176
     1
 90
       50
176
     0
 90
       50
176
     0
 90
       50
176
     0
290
     0
176
     1
 90
       50
176
     0
 62
   256
176
     0
 40
1.0
176
     0
 90
        2
176
     0
  1
strokes_ogs.tif
176
     0
290
     0
176
     1
 40
1.0
176
     0
 40
1.0
176
     0
  0
VISUALSTYLE
  5
170
102
{ACAD_REACTORS
330
161
102
}
330
161
100
AcDbVisualStyle
  2
Facepattern
 70
    15
177
     3
291
     1
 70
    58
 90
        2
176
     1
 90
        2
176
     1
 90
        0
176
     1
 90
        0
176
     1
 40
0.6
176
     1
 40
30.0
176
     1
 62
     7
420
 16777215
176
     1
 90
        1
176
     1
 90
        4
176
     1
 62
     7
176
     1
 62
   257
176
     1
 90
        1
176
     1
 90
        1
176
     1
 40
1.0
176
     1
 90
        8
176
     1
 62
     7
176
     1
 40
1.0
176
     1
 90
        1
176
     1
 90
        6
176
     1
 90
        2
176
     1
 62
     7
176
     1
 90
        5
176
     1
 90
        0
176
     1
 90
        0
176
     1
290
     0
176
     1
 90
        1
176
     1
 40
0.0
176
     1
 90
        0
176
     1
290
     0
176
     1
290
     1
176
     1
290
     1
176
     1
290
     0
176
     1
290
     0
176
     1
290
     0
176
     1
290
     0
176
     1
290
     0
176
     1
290
     0
176
     1
 90
       50
176
     1
 40
0.0
176
     1
 40
1.0
176
     1
 90
        0
176
     1
 62
    18
420
        0
176
     1
 90
       50
176
     1
 90
        3
176
     1
 62
     5
420
      255
176
     1
290
     0
176
     1
 90
       50
176
     1
 90
       50
176
     1
 90
       50
176
     1
290
     0
176
     1
 90
       50
176
     1
 62
   256
176
     0
 40
1.0
176
     0
 90
        2
176
     1
  1
strokes_ogs.tif
176
     1
290
     0
176
     1
 40
1.0
176
     1
 40
1.0
176
     1
  0
VISUALSTYLE
  5
162
102
{ACAD_REACTORS
330
161
102
}
330
161
100
AcDbVisualStyle
  2
Flat
 70
     0
177
     3
291
     1
 70
    58
 90
        2
176
     1
 90
        1
176
     1
 90
        1
176
     1
 90
        2
176
     1
 40
0.6
176
     1
 40
30.0
176
     1
 62
     7
420
 16777215
176
     1
 90
        0
176
     1
 90
        0
176
     1
 62
     7
176
     1
 62
   257
176
     1
 90
        1
176
     1
 90
        1
176
     1
 40
1.0
176
     1
 90
        8
176
     1
 62
     7
176
     1
 40
1.0
176
     1
 90
        1
176
     1
 90
        6
176
     1
 90
        2
176
     1
 62
     7
176
     1
 90
        5
176
     1
 90
        0
176
     1
 90
        0
176
     1
290
     0
176
     1
 90
       13
176
     1
 40
0.0
176
     1
 90
        0
176
     1
290
     0
176
     1
290
     1
176
     1
290
     1
176
     1
290
     0
176
     1
290
     0
176
     1
290
     0
176
     1
290
     0
176
     1
290
     0
176
     1
290
     0
176
     1
 90
       50
176
     1
 40
0.0
176
     1
 40
1.0
176
     1
 90
        0
176
     1
 62
    18
420
        0
176
     1
 90
       50
176
     1
 90
        3
176
     1
 62
     5
420
      255
176
     1
290
     0
176
     1
 90
       50
176
     1
 90
       50
176
     1
 90
       50
176
     1
290
     0
176
     1
 90
       50
176
     1
 62
   256
176
     0
 40
1.0
176
     0
 90
        2
176
     1
  1
strokes_ogs.tif
176
     1
290
     0
176
     1
 40
1.0
176
     1
 40
1.0
176
     1
  0
VISUALSTYLE
  5
163
102
{ACAD_REACTORS
330
161
102
}
330
161
100
AcDbVisualStyle
  2
FlatWithEdges
 70
     1
177
     3
291
     1
 70
    58
 90
        2
176
     1
 90
        1
176
     1
 90
        1
176
     1
 90
        2
176
     1
 40
0.6
176
     1
 40
30.0
176
     1
 62
     7
420
 16777215
176
     1
 90
        1
176
     1
 90
        0
176
     1
 62
     7
176
     1
 62
   257
176
     1
 90
        1
176
     1
 90
        1
176
     1
 40
1.0
176
     1
 90
        0
176
     1
 62
   257
176
     1
 40
1.0
176
     1
 90
        1
176
     1
 90
        6
176
     1
 90
        2
176
     1
 62
     7
176
     1
 90
        5
176
     1
 90
        0
176
     1
 90
        0
176
     1
290
     0
176
     1
 90
       13
176
     1
 40
0.0
176
     1
 90
        0
176
     1
290
     0
176
     1
290
     1
176
     1
290
     1
176
     1
290
     0
176
     1
290
     0
176
     1
290
     0
176
     1
290
     0
176
     1
290
     0
176
     1
290
     0
176
     1
 90
       50
176
     1
 40
0.0
176
     1
 40
1.0
176
     1
 90
        0
176
     1
 62
    18
420
        0
176
     1
 90
       50
176
     1
 90
        3
176
     1
 62
     5
420
      255
176
     1
290
     0
176
     1
 90
       50
176
     1
 90
       50
176
     1
 90
       50
176
     1
290
     0
176
     1
 90
       50
176
     1
 62
   256
176
     0
 40
1.0
176
     0
 90
        2
176
     1
  1
strokes_ogs.tif
176
     1
290
     0
176
     1
 40
1.0
176
     1
 40
1.0
176
     1
  0
VISUALSTYLE
  5
164
102
{ACAD_REACTORS
330
161
102
}
330
161
100
AcDbVisualStyle
  2
Gouraud
 70
     2
177
     3
291
     1
 70
    58
 90
        2
176
     1
 90
        2
176
     1
 90
        1
176
     1
 90
        2
176
     1
 40
0.6
176
     1
 40
30.0
176
     1
 62
     7
420
 16777215
176
     1
 90
        0
176
     1
 90
        0
176
     1
 62
     7
176
     1
 62
   257
176
     1
 90
        1
176
     1
 90
        1
176
     1
 40
1.0
176
     1
 90
        0
176
     1
 62
     7
176
     1
 40
1.0
176
     1
 90
        1
176
     1
 90
        6
176
     1
 90
        2
176
     1
 62
     7
176
     1
 90
        5
176
     1
 90
        0
176
     1
 90
        0
176
     1
290
     0
176
     1
 90
       13
176
     1
 40
0.0
176
     1
 90
        0
176
     1
290
     0
176
     1
290
     1
176
     1
290
     1
176
     1
290
     0
176
     1
290
     0
176
     1
290
     0
176
     1
290
     0
176
     1
290
     0
176
     1
290
     0
176
     1
 90
       50
176
     1
 40
0.0
176
     1
 40
1.0
176
     1
 90
        0
176
     1
 62
    18
420
        0
176
     1
 90
       50
176
     1
 90
        3
176
     1
 62
     5
420
      255
176
     1
290
     0
176
     1
 90
       50
176
     1
 90
       50
176
     1
 90
       50
176
     1
290
     0
176
     1
 90
       50
176
     1
 62
   256
176
     0
 40
1.0
176
     0
 90
        2
176
     1
  1
strokes_ogs.tif
176
     1
290
     0
176
     1
 40
1.0
176
     1
 40
1.0
176
     1
  0
VISUALSTYLE
  5
165
102
{ACAD_REACTORS
330
161
102
}
330
161
100
AcDbVisualStyle
  2
GouraudWithEdges
 70
     3
177
     3
291
     1
 70
    58
 90
        2
176
     1
 90
        2
176
     1
 90
        1
176
     1
 90
        2
176
     1
 40
0.6
176
     1
 40
30.0
176
     1
 62
     7
420
 16777215
176
     1
 90
        1
176
     1
 90
        0
176
     1
 62
     7
176
     1
 62
   257
176
     1
 90
        1
176
     1
 90
        1
176
     1
 40
1.0
176
     1
 90
        0
176
     1
 62
   257
176
     1
 40
1.0
176
     1
 90
        1
176
     1
 90
        6
176
     1
 90
        2
176
     1
 62
     7
176
     1
 90
        5
176
     1
 90
        0
176
     1
 90
        0
176
     1
290
     0
176
     1
 90
       13
176
     1
 40
0.0
176
     1
 90
        0
176
     1
290
     0
176
     1
290
     1
176
     1
290
     1
176
     1
290
     0
176
     1
290
     0
176
     1
290
     0
176
     1
290
     0
176
     1
290
     0
176
     1
290
     0
176
     1
 90
       50
176
     1
 40
0.0
176
     1
 40
1.0
176
     1
 90
        0
176
     1
 62
    18
420
        0
176
     1
 90
       50
176
     1
 90
        3
176
     1
 62
     5
420
      255
176
     1
290
     0
176
     1
 90
       50
176
     1
 90
       50
176
     1
 90
       50
176
     1
290
     0
176
     1
 90
       50
176
     1
 62
   256
176
     0
 40
1.0
176
     0
 90
        2
176
     1
  1
strokes_ogs.tif
176
     1
290
     0
176
     1
 40
1.0
176
     1
 40
1.0
176
     1
  0
VISUALSTYLE
  5
169
102
{ACAD_REACTORS
330
161
102
}
330
161
100
AcDbVisualStyle
  2
Hidden
 70
     6
177
     3
291
     0
 70
    58
 90
        1
176
     1
 90
        2
176
     1
 90
        2
176
     1
 90
        0
176
     1
 40
0.6
176
     1
 40
30.0
176
     1
 62
     7
420
 16777215
176
     1
 90
        2
176
     1
 90
        2
176
     1
 62
     7
176
     1
 62
   257
176
     1
 90
        2
176
     1
 90
        1
176
     1
 40
40.0
176
     1
 90
        0
176
     1
 62
   257
176
     1
 40
1.0
176
     1
 90
        1
176
     1
 90
        6
176
     1
 90
        2
176
     1
 62
     7
176
     1
 90
        3
176
     1
 90
        0
176
     1
 90
        0
176
     1
290
     0
176
     1
 90
        1
176
     1
 40
0.0
176
     1
 90
        0
176
     1
290
     0
176
     1
290
     1
176
     1
290
     1
176
     1
290
     0
176
     1
290
     0
176
     1
290
     0
176
     1
290
     0
176
     1
290
     0
176
     1
290
     0
176
     1
 90
       50
176
     1
 40
0.0
176
     1
 40
1.0
176
     1
 90
        0
176
     1
 62
    18
420
        0
176
     1
 90
       50
176
     1
 90
        3
176
     1
 62
     5
420
      255
176
     1
290
     0
176
     1
 90
       50
176
     1
 90
       50
176
     1
 90
       50
176
     1
290
     0
176
     1
 90
       50
176
     1
 62
   256
176
     0
 40
1.0
176
     0
 90
        2
176
     1
  1
strokes_ogs.tif
176
     1
290
     0
176
     1
 40
1.0
176
     1
 40
1.0
176
     1
  0
VISUALSTYLE
  5
177
102
{ACAD_REACTORS
330
161
102
}
330
161
100
AcDbVisualStyle
  2
JitterOff
 70
    20
177
     3
291
     1
 70
    58
 90
        2
176
     0
 90
        2
176
     0
 90
        0
176
     0
 90
        0
176
     0
 40
0.6
176
     0
 40
30.0
176
     0
 62
     7
420
 16777215
176
     0
 90
        1
176
     0
 90
        4
176
     0
 62
     7
176
     0
 62
   257
176
     0
 90
        1
176
     0
 90
        1
176
     0
 40
1.0
176
     0
 90
       10
176
     2
 62
     7
176
     0
 40
1.0
176
     0
 90
        1
176
     0
 90
        6
176
     0
 90
        2
176
     0
 62
     7
176
     0
 90
        5
176
     0
 90
        0
176
     0
 90
        0
176
     0
290
     0
176
     0
 90
        1
176
     0
 40
0.0
176
     0
 90
        0
176
     0
290
     0
176
     1
290
     1
176
     1
290
     1
176
     1
290
     0
176
     1
290
     0
176
     1
290
     0
176
     1
290
     0
176
     1
290
     0
176
     1
290
     0
176
     1
 90
       50
176
     0
 40
0.0
176
     0
 40
1.0
176
     0
 90
        0
176
     0
 62
    18
420
        0
176
     0
 90
       50
176
     0
 90
        3
176
     0
 62
     5
420
      255
176
     0
290
     0
176
     1
 90
       50
176
     0
 90
       50
176
     0
 90
       50
176
     0
290
     0
176
     1
 90
       50
176
     0
 62
   256
176
     0
 40
1.0
176
     0
 90
        2
176
     0
  1
strokes_ogs.tif
176
     0
290
     0
176
     1
 40
1.0
176
     0
 40
1.0
176
     0
  0
VISUALSTYLE
  5
16F
102
{ACAD_REACTORS
330
161
102
}
330
161
100
AcDbVisualStyle
  2
Linepattern
 70
    14
177
     3
291
     1
 70
    58
 90
        2
176
     1
 90
        2
176
     1
 90
        0
176
     1
 90
        0
176
     1
 40
0.6
176
     1
 40
30.0
176
     1
 62
     7
420
 16777215
176
     1
 90
        1
176
     1
 90
        4
176
     1
 62
     7
176
     1
 62
   257
176
     1
 90
        7
176
     1
 90
        7
176
     1
 40
1.0
176
     1
 90
        8
176
     1
 62
     7
176
     1
 40
1.0
176
     1
 90
        1
176
     1
 90
        6
176
     1
 90
        2
176
     1
 62
     7
176
     1
 90
        5
176
     1
 90
        0
176
     1
 90
        0
176
     1
290
     0
176
     1
 90
        1
176
     1
 40
0.0
176
     1
 90
        0
176
     1
290
     0
176
     1
290
     1
176
     1
290
     1
176
     1
290
     0
176
     1
290
     0
176
     1
290
     0
176
     1
290
     0
176
     1
290
     0
176
     1
290
     0
176
     1
 90
       50
176
     1
 40
0.0
176
     1
 40
1.0
176
     1
 90
        0
176
     1
 62
    18
420
        0
176
     1
 90
       50
176
     1
 90
        3
176
     1
 62
     5
420
      255
176
     1
290
     0
176
     1
 90
       50
176
     1
 90
       50
176
     1
 90
       50
176
     1
290
     0
176
     1
 90
       50
176
     1
 62
   256
176
     0
 40
1.0
176
     0
 90
        2
176
     1
  1
strokes_ogs.tif
176
     1
290
     0
176
     1
 40
1.0
176
     1
 40
1.0
176
     1
  0
VISUALSTYLE
  5
178
102
{ACAD_REACTORS
330
161
102
}
330
161
100
AcDbVisualStyle
  2
OverhangOff
 70
    21
177
     3
291
     1
 70
    58
 90
        2
176
     0
 90
        2
176
     0
 90
        0
176
     0
 90
        0
176
     0
 40
0.6
176
     0
 40
30.0
176
     0
 62
     7
420
 16777215
176
     0
 90
        1
176
     0
 90
        4
176
     0
 62
     7
176
     0
 62
   257
176
     0
 90
        1
176
     0
 90
        1
176
     0
 40
1.0
176
     0
 90
        9
176
     2
 62
     7
176
     0
 40
1.0
176
     0
 90
        1
176
     0
 90
        6
176
     0
 90
        2
176
     0
 62
     7
176
     0
 90
        5
176
     0
 90
        0
176
     0
 90
        0
176
     0
290
     0
176
     0
 90
        1
176
     0
 40
0.0
176
     0
 90
        0
176
     0
290
     0
176
     1
290
     1
176
     1
290
     1
176
     1
290
     0
176
     1
290
     0
176
     1
290
     0
176
     1
290
     0
176
     1
290
     0
176
     1
290
     0
176
     1
 90
       50
176
     0
 40
0.0
176
     0
 40
1.0
176
     0
 90
        0
176
     0
 62
    18
420
        0
176
     0
 90
       50
176
     0
 90
        3
176
     0
 62
     5
420
      255
176
     0
290
     0
176
     1
 90
       50
176
     0
 90
       50
176
     0
 90
       50
176
     0
290
     0
176
     1
 90
       50
176
     0
 62
   256
176
     0
 40
1.0
176
     0
 90
        2
176
     0
  1
strokes_ogs.tif
176
     0
290
     0
176
     1
 40
1.0
176
     0
 40
1.0
176
     0
  0
VISUALSTYLE
  5
16B
102
{ACAD_REACTORS
330
161
102
}
330
161
100
AcDbVisualStyle
  2
Realistic
 70
     8
177
     3
291
     0
 70
    58
 90
        2
176
     1
 90
        3
176
     1
 90
        0
176
     1
 90
        2
176
     1
 40
0.6
176
     1
 40
30.0
176
     1
 62
     7
420
 16777215
176
     1
 90
        0
176
     1
 90
        0
176
     1
 62
     7
176
     1
 62
   257
176
     1
 90
        1
176
     1
 90
        1
176
     1
 40
1.0
176
     1
 90
        8
176
     1
 62
   257
176
     1
 40
1.0
176
     1
 90
        1
176
     1
 90
        6
176
     1
 90
        2
176
     1
 62
     7
176
     1
 90
        3
176
     1
 90
        0
176
     1
 90
        0
176
     1
290
     0
176
     1
 90
       13
176
     1
 40
0.0
176
     1
 90
        0
176
     1
290
     0
176
     1
290
     1
176
     1
290
     1
176
     1
290
     0
176
     1
290
     0
176
     1
290
     0
176
     1
290
     0
176
     1
290
     0
176
     1
290
     0
176
     1
 90
       50
176
     1
 40
0.0
176
     1
 40
1.0
176
     1
 90
        0
176
     1
 62
    18
420
        0
176
     1
 90
       50
176
     1
 90
        3
176
     1
 62
     5
420
      255
176
     1
290
     0
176
     1
 90
       50
176
     1
 90
       50
176
     1
 90
       50
176
     1
290
     0
176
     1
 90
       50
176
     1
 62
   256
176
     0
 40
1.0
176
     0
 90
        2
176
     1
  1
strokes_ogs.tif
176
     1
290
     0
176
     1
 40
1.0
176
     1
 40
1.0
176
     1
  0
VISUALSTYLE
  5
176
102
{ACAD_REACTORS
330
161
102
}
330
161
100
AcDbVisualStyle
  2
Shaded
 70
    27
177
     3
291
     0
 70
    58
 90
        2
176
     1
 90
        2
176
     1
 90
        1
176
     1
 90
        2
176
     1
 40
0.6
176
     1
 40
30.0
176
     1
 62
     7
420
 16777215
176
     1
 90
        0
176
     1
 90
        4
176
     1
 62
     7
176
     1
 62
   257
176
     1
 90
        1
176
     1
 90
        1
176
     1
 40
1.0
176
     1
 90
        8
176
     1
 62
   257
176
     1
 40
1.0
176
     1
 90
        1
176
     1
 90
        6
176
     1
 90
        2
176
     1
 62
     8
420
  7895160
176
     1
 90
        3
176
     1
 90
        0
176
     1
 90
        0
176
     1
290
     0
176
     1
 90
        5
176
     1
 40
0.0
176
     1
 90
        0
176
     1
290
     0
176
     1
290
     1
176
     1
290
     1
176
     1
290
     0
176
     1
290
     0
176
     1
290
     0
176
     1
290
     0
176
     1
290
     0
176
     1
290
     0
176
     1
 90
       50
176
     1
 40
0.0
176
     1
 40
1.0
176
     1
 90
        0
176
     1
 62
    18
420
        0
176
     1
 90
       50
176
     1
 90
        3
176
     1
 62
     5
420
      255
176
     1
290
     0
176
     1
 90
       50
176
     1
 90
       50
176
     1
 90
       50
176
     1
290
     0
176
     1
 90
       50
176
     1
 62
   256
176
     0
 40
1.0
176
     0
 90
        2
176
     1
  1
strokes_ogs.tif
176
     1
290
     0
176
     1
 40
1.0
176
     1
 40
1.0
176
     1
  0
VISUALSTYLE
  5
175
102
{ACAD_REACTORS
330
161
102
}
330
161
100
AcDbVisualStyle
  2
Shaded with edges
 70
    26
177
     3
291
     0
 70
    58
 90
        2
176
     1
 90
        2
176
     1
 90
        1
176
     1
 90
        2
176
     1
 40
0.6
176
     1
 40
30.0
176
     1
 62
     7
420
 16777215
176
     1
 90
        1
176
     1
 90
        2
176
     1
 62
     7
176
     1
 62
   257
176
     1
 90
        2
176
     1
 90
        1
176
     1
 40
1.0
176
     1
 90
        8
176
     1
 62
   257
176
     1
 40
1.0
176
     1
 90
        1
176
     1
 90
        6
176
     1
 90
        2
176
     1
 62
     7
176
     1
 90
        3
176
     1
 90
        0
176
     1
 90
        0
176
     1
290
     0
176
     1
 90
        5
176
     1
 40
0.0
176
     1
 90
        0
176
     1
290
     0
176
     1
290
     1
176
     1
290
     1
176
     1
290
     0
176
     1
290
     0
176
     1
290
     0
176
     1
290
     0
176
     1
290
     0
176
     1
290
     0
176
     1
 90
       50
176
     1
 40
0.0
176
     1
 40
1.0
176
     1
 90
        0
176
     1
 62
    18
420
        0
176
     1
 90
       50
176
     1
 90
        3
176
     1
 62
     5
420
      255
176
     1
290
     0
176
     1
 90
       50
176
     1
 90
       50
176
     1
 90
       50
176
     1
290
     0
176
     1
 90
       50
176
     1
 62
   256
176
     0
 40
1.0
176
     0
 90
        2
176
     1
  1
strokes_ogs.tif
176
     1
290
     0
176
     1
 40
1.0
176
     1
 40
1.0
176
     1
  0
VISUALSTYLE
  5
172
102
{ACAD_REACTORS
330
161
102
}
330
161
100
AcDbVisualStyle
  2
Shades of Gray
 70
    23
177
     3
291
     0
 70
    58
 90
        2
176
     1
 90
        2
176
     1
 90
        3
176
     1
 90
        0
176
     1
 40
0.6
176
     1
 40
30.0
176
     1
 62
     7
420
 16777215
176
     1
 90
        2
176
     1
 90
        2
176
     1
 62
     7
176
     1
 62
     7
176
     1
 90
        1
176
     1
 90
        1
176
     1
 40
40.0
176
     1
 90
        8
176
     1
 62
     7
176
     1
 40
1.0
176
     1
 90
        1
176
     1
 90
        6
176
     1
 90
        2
176
     1
 62
     7
176
     1
 90
        3
176
     1
 90
        0
176
     1
 90
        0
176
     1
290
     0
176
     1
 90
        1
176
     1
 40
0.0
176
     1
 90
        0
176
     1
290
     0
176
     1
290
     1
176
     1
290
     1
176
     1
290
     0
176
     1
290
     0
176
     1
290
     0
176
     1
290
     0
176
     1
290
     0
176
     1
290
     0
176
     1
 90
       50
176
     1
 40
0.0
176
     1
 40
1.0
176
     1
 90
        0
176
     1
 62
    18
420
        0
176
     1
 90
       50
176
     1
 90
        3
176
     1
 62
     5
420
      255
176
     1
290
     0
176
     1
 90
       50
176
     1
 90
       50
176
     1
 90
       50
176
     1
290
     0
176
     1
 90
       50
176
     1
 62
   256
176
     0
 40
1.0
176
     0
 90
        2
176
     1
  1
strokes_ogs.tif
176
     1
290
     0
176
     1
 40
1.0
176
     1
 40
1.0
176
     1
  0
VISUALSTYLE
  5
173
102
{ACAD_REACTORS
330
161
102
}
330
161
100
AcDbVisualStyle
  2
Sketchy
 70
    24
177
     3
291
     0
 70
    58
 90
        1
176
     1
 90
        2
176
     1
 90
        2
176
     1
 90
        0
176
     1
 40
0.6
176
     1
 40
30.0
176
     1
 62
     7
420
 16777215
176
     1
 90
        2
176
     1
 90
        2
176
     1
 62
     7
176
     1
 62
     7
176
     1
 90
        1
176
     1
 90
        1
176
     1
 40
40.0
176
     1
 90
       11
176
     1
 62
     7
176
     1
 40
1.0
176
     1
 90
        1
176
     1
 90
        6
176
     1
 90
        2
176
     1
 62
     7
176
     1
 90
        6
176
     1
 90
        0
176
     1
 90
        0
176
     1
290
     0
176
     1
 90
        1
176
     1
 40
0.0
176
     1
 90
        0
176
     1
290
     0
176
     1
290
     1
176
     1
290
     1
176
     1
290
     0
176
     1
290
     0
176
     1
290
     0
176
     1
290
     0
176
     1
290
     0
176
     1
290
     0
176
     1
 90
       50
176
     1
 40
0.0
176
     1
 40
1.0
176
     1
 90
        0
176
     1
 62
    18
420
        0
176
     1
 90
       50
176
     1
 90
        3
176
     1
 62
     5
420
      255
176
     1
290
     0
176
     1
 90
       50
176
     1
 90
       50
176
     1
 90
       50
176
     1
290
     0
176
     1
 90
       50
176
     1
 62
   256
176
     0
 40
1.0
176
     0
 90
        2
176
     1
  1
strokes_ogs.tif
176
     1
290
     0
176
     1
 40
1.0
176
     1
 40
1.0
176
     1
  0
VISUALSTYLE
  5
16E
102
{ACAD_REACTORS
330
161
102
}
330
161
100
AcDbVisualStyle
  2
Thicken
 70
    13
177
     3
291
     1
 70
    58
 90
        2
176
     1
 90
        2
176
     1
 90
        0
176
     1
 90
        0
176
     1
 40
0.6
176
     1
 40
30.0
176
     1
 62
     7
420
 16777215
176
     1
 90
        1
176
     1
 90
        4
176
     1
 62
     7
176
     1
 62
   257
176
     1
 90
        1
176
     1
 90
        1
176
     1
 40
1.0
176
     1
 90
       12
176
     1
 62
     7
176
     1
 40
1.0
176
     1
 90
        1
176
     1
 90
        6
176
     1
 90
        2
176
     1
 62
     7
176
     1
 90
        5
176
     1
 90
        0
176
     1
 90
        0
176
     1
290
     0
176
     1
 90
        1
176
     1
 40
0.0
176
     1
 90
        0
176
     1
290
     0
176
     1
290
     1
176
     1
290
     1
176
     1
290
     0
176
     1
290
     0
176
     1
290
     0
176
     1
290
     0
176
     1
290
     0
176
     1
290
     0
176
     1
 90
       50
176
     1
 40
0.0
176
     1
 40
1.0
176
     1
 90
        0
176
     1
 62
    18
420
        0
176
     1
 90
       50
176
     1
 90
        3
176
     1
 62
     5
420
      255
176
     1
290
     0
176
     1
 90
       50
176
     1
 90
       50
176
     1
 90
       50
176
     1
290
     0
176
     1
 90
       50
176
     1
 62
   256
176
     0
 40
1.0
176
     0
 90
        2
176
     1
  1
strokes_ogs.tif
176
     1
290
     0
176
     1
 40
1.0
176
     1
 40
1.0
176
     1
  0
VISUALSTYLE
  5
168
102
{ACAD_REACTORS
330
161
102
}
330
161
100
AcDbVisualStyle
  2
Wireframe
 70
     5
177
     3
291
     0
 70
    58
 90
        0
176
     1
 90
        2
176
     1
 90
        0
176
     1
 90
        0
176
     1
 40
0.6
176
     1
 40
30.0
176
     1
 62
     7
420
 16777215
176
     1
 90
        1
176
     1
 90
        4
176
     1
 62
     7
176
     1
 62
   257
176
     1
 90
        1
176
     1
 90
        1
176
     1
 40
1.0
176
     1
 90
        0
176
     1
 62
   257
176
     1
 40
1.0
176
     1
 90
        1
176
     1
 90
        6
176
     1
 90
        2
176
     1
 62
     7
176
     1
 90
        3
176
     1
 90
        0
176
     1
 90
        0
176
     1
290
     0
176
     1
 90
        1
176
     1
 40
0.0
176
     1
 90
        0
176
     1
290
     0
176
     1
290
     1
176
     1
290
     1
176
     1
290
     0
176
     1
290
     0
176
     1
290
     0
176
     1
290
     0
176
     1
290
     0
176
     1
290
     0
176
     1
 90
       50
176
     1
 40
0.0
176
     1
 40
1.0
176
     1
 90
        0
176
     1
 62
    18
420
        0
176
     1
 90
       50
176
     1
 90
        3
176
     1
 62
     5
420
      255
176
     1
290
     0
176
     1
 90
       50
176
     1
 90
       50
176
     1
 90
       50
176
     1
290
     0
176
     1
 90
       50
176
     1
 62
   256
176
     0
 40
1.0
176
     0
 90
        2
176
     1
  1
strokes_ogs.tif
176
     1
290
     0
176
     1
 40
1.0
176
     1
 40
1.0
176
     1
  0
VISUALSTYLE
  5
174
102
{ACAD_REACTORS
330
161
102
}
330
161
100
AcDbVisualStyle
  2
X-Ray
 70
    25
177
     3
291
     0
 70
    58
 90
        2
176
     1
 90
        2
176
     1
 90
        1
176
     1
 90
        1
176
     1
 40
0.5
176
     1
 40
30.0
176
     1
 62
     7
420
 16777215
176
     1
 90
        1
176
     1
 90
        0
176
     1
 62
     7
176
     1
 62
   257
176
     1
 90
        1
176
     1
 90
        1
176
     1
 40
1.0
176
     1
 90
        8
176
     1
 62
     7
176
     1
 40
1.0
176
     1
 90
        1
176
     1
 90
        6
176
     1
 90
        2
176
     1
 62
     7
176
     1
 90
        3
176
     1
 90
        0
176
     1
 90
        0
176
     1
290
     0
176
     1
 90
       13
176
     1
 40
0.0
176
     1
 90
        0
176
     1
290
     0
176
     1
290
     1
176
     1
290
     1
176
     1
290
     0
176
     1
290
     0
176
     1
290
     0
176
     1
290
     0
176
     1
290
     0
176
     1
290
     0
176
     1
 90
       50
176
     1
 40
0.0
176
     1
 40
1.0
176
     1
 90
        0
176
     1
 62
    18
420
        0
176
     1
 90
       50
176
     1
 90
        3
176
     1
 62
     5
420
      255
176
     1
290
     0
176
     1
 90
       50
176
     1
 90
       50
176
     1
 90
       50
176
     1
290
     0
176
     1
 90
       50
176
     1
 62
   256
176
     0
 40
1.0
176
     0
 90
        2
176
     1
  1
strokes_ogs.tif
176
     1
290
     0
176
     1
 40
1.0
176
     1
 40
1.0
176
     1
  0
DICTIONARYVAR
  5
1AD
102
{ACAD_REACTORS
330
1A7
102
}
330
1A7
100
DictionaryVariables
280
     0
  1
1:1
  0
DICTIONARYVAR
  5
1A9
102
{ACAD_REACTORS
330
1A7
102
}
330
1A7
100
DictionaryVariables
280
     0
  1
STANDARD
  0
DICTIONARYVAR
  5
1A8
102
{ACAD_REACTORS
330
1A7
102
}
330
1A7
100
DictionaryVariables
280
     0
  1
STANDARD
  0
DICTIONARYVAR
  5
1AA
102
{ACAD_REACTORS
330
1A7
102
}
330
1A7
100
DictionaryVariables
280
     0
  1
Metric50
  0
DICTIONARYVAR
  5
1AB
102
{ACAD_REACTORS
330
1A7
102
}
330
1A7
100
DictionaryVariables
280
     0
  1
Metric50
  0
DICTIONARYVAR
  5
1AF
102
{ACAD_REACTORS
330
1A7
102
}
330
1A7
100
DictionaryVariables
280
     0
  1
1
  0
DICTIONARYVAR
  5
1B0
102
{ACAD_REACTORS
330
1A7
102
}
330
1A7
100
DictionaryVariables
280
     0
  1
15
  0
DICTIONARYVAR
  5
1AE
102
{ACAD_REACTORS
330
1A7
102
}
330
1A7
100
DictionaryVariables
280
     0
  1
0
  0
DICTIONARYVAR
  5
1AC
102
{ACAD_REACTORS
330
1A7
102
}
330
1A7
100
DictionaryVariables
280
     0
  1
0
  0
DICTIONARY
  5
1B5
330
182
100
AcDbDictionary
280
     1
281
     1
  3
ACAD_XREC_ROUNDTRIP
360
1B6
  0
DICTIONARY
  5
152
330
151
100
AcDbDictionary
280
     1
281
     1
  3
BUMPTILE
360
154
  3
DIFFUSETILE
360
153
  3
OPACITYTILE
360
157
  3
REFLECTIONTILE
360
156
  3
REFRACTIONTILE
360
158
  3
SPECULARTILE
360
155
  0
DICTIONARY
  5
14A
330
149
100
AcDbDictionary
280
     1
281
     1
  3
BUMPTILE
360
14C
  3
DIFFUSETILE
360
14B
  3
OPACITYTILE
360
14F
  3
REFLECTIONTILE
360
14E
  3
REFRACTIONTILE
360
150
  3
SPECULARTILE
360
14D
  0
DICTIONARY
  5
15A
330
159
100
AcDbDictionary
280
     1
281
     1
  3
BUMPTILE
360
15C
  3
DIFFUSETILE
360
15B
  3
OPACITYTILE
360
15F
  3
REFLECTIONTILE
360
15E
  3
REFRACTIONTILE
360
160
  3
SPECULARTILE
360
15D
  0
DICTIONARY
  5
1B3
330
180
100
AcDbDictionary
280
     1
281
     1
  3
ACAD_XREC_ROUNDTRIP
360
1B4
  0
DICTIONARY
  5
1B1
330
17C
100
AcDbDictionary
280
     1
281
     1
  3
ACAD_ROUNDTRIP_2008_TABLESTYLE_CELLSTYLEMAP
360
1B2
  0
XRECORD
  5
1B6
102
{ACAD_REACTORS
330
1B5
102
}
330
1B5
100
AcDbXrecord
280
     1
102
DISPLAYNAME
  1
Metric50
102
FLAGS
 90
        0
  0
XRECORD
  5
154
102
{ACAD_REACTORS
330
152
102
}
330
152
100
AcDbXrecord
280
     1
270
     1
271
     1
  0
XRECORD
  5
153
102
{ACAD_REACTORS
330
152
102
}
330
152
100
AcDbXrecord
280
     1
270
     1
271
     1
  0
XRECORD
  5
157
102
{ACAD_REACTORS
330
152
102
}
330
152
100
AcDbXrecord
280
     1
270
     1
271
     1
  0
XRECORD
  5
156
102
{ACAD_REACTORS
330
152
102
}
330
152
100
AcDbXrecord
280
     1
270
     1
271
     1
  0
XRECORD
  5
158
102
{ACAD_REACTORS
330
152
102
}
330
152
100
AcDbXrecord
280
     1
270
     1
271
     1
  0
XRECORD
  5
155
102
{ACAD_REACTORS
330
152
102
}
330
152
100
AcDbXrecord
280
     1
270
     1
271
     1
  0
XRECORD
  5
14C
102
{ACAD_REACTORS
330
14A
102
}
330
14A
100
AcDbXrecord
280
     1
270
     1
271
     1
  0
XRECORD
  5
14B
102
{ACAD_REACTORS
330
14A
102
}
330
14A
100
AcDbXrecord
280
     1
270
     1
271
     1
  0
XRECORD
  5
14F
102
{ACAD_REACTORS
330
14A
102
}
330
14A
100
AcDbXrecord
280
     1
270
     1
271
     1
  0
XRECORD
  5
14E
102
{ACAD_REACTORS
330
14A
102
}
330
14A
100
AcDbXrecord
280
     1
270
     1
271
     1
  0
XRECORD
  5
150
102
{ACAD_REACTORS
330
14A
102
}
330
14A
100
AcDbXrecord
280
     1
270
     1
271
     1
  0
XRECORD
  5
14D
102
{ACAD_REACTORS
330
14A
102
}
330
14A
100
AcDbXrecord
280
     1
270
     1
271
     1
  0
XRECORD
  5
15C
102
{ACAD_REACTORS
330
15A
102
}
330
15A
100
AcDbXrecord
280
     1
270
     1
271
     1
  0
XRECORD
  5
15B
102
{ACAD_REACTORS
330
15A
102
}
330
15A
100
AcDbXrecord
280
     1
270
     1
271
     1
  0
XRECORD
  5
15F
102
{ACAD_REACTORS
330
15A
102
}
330
15A
100
AcDbXrecord
280
     1
270
     1
271
     1
  0
XRECORD
  5
15E
102
{ACAD_REACTORS
330
15A
102
}
330
15A
100
AcDbXrecord
280
     1
270
     1
271
     1
  0
XRECORD
  5
160
102
{ACAD_REACTORS
330
15A
102
}
330
15A
100
AcDbXrecord
280
     1
270
     1
271
     1
  0
XRECORD
  5
15D
102
{ACAD_REACTORS
330
15A
102
}
330
15A
100
AcDbXrecord
280
     1
270
     1
271
     1
  0
XRECORD
  5
1B4
102
{ACAD_REACTORS
330
1B3
102
}
330
1B3
100
AcDbXrecord
280
     1
102
DISPLAYNAME
  1
Metric50
102
FLAGS
 90
        0
  0
CELLSTYLEMAP
  5
1B2
102
{ACAD_REACTORS
330
1B1
102
}
330
1B1
100
AcDbCellStyleMap
 90
        3
300
CELLSTYLE
  1
TABLEFORMAT_BEGIN
 90
        5
170
     1
 91
        0
 92
    32768
 62
   257
 93
        1
300
CONTENTFORMAT
  1
CONTENTFORMAT_BEGIN
 90
        0
 91
        0
 92
      512
 93
        0
300

 40
0.0
140
1.0
 94
        5
 62
     0
340
11
144
6.0
309
CONTENTFORMAT_END
171
     1
301
MARGIN
  1
CELLMARGIN_BEGIN
 40
1.5
 40
1.5
 40
1.5
 40
1.5
 40
4.5
 40
4.5
309
CELLMARGIN_END
 94
        6
 95
        1
302
GRIDFORMAT
  1
GRIDFORMAT_BEGIN
 90
        0
 91
        1
 62
     0
 92
       -2
340
0
 93
        0
 40
1.125
309
GRIDFORMAT_END
 95
        2
302
GRIDFORMAT
  1
GRIDFORMAT_BEGIN
 90
        0
 91
        1
 62
     0
 92
       -2
340
0
 93
        0
 40
1.125
309
GRIDFORMAT_END
 95
        4
302
GRIDFORMAT
  1
GRIDFORMAT_BEGIN
 90
        0
 91
        1
 62
     0
 92
       -2
340
0
 93
        0
 40
1.125
309
GRIDFORMAT_END
 95
        8
302
GRIDFORMAT
  1
GRIDFORMAT_BEGIN
 90
        0
 91
        1
 62
     0
 92
       -2
340
0
 93
        0
 40
1.125
309
GRIDFORMAT_END
 95
       16
302
GRIDFORMAT
  1
GRIDFORMAT_BEGIN
 90
        0
 91
        1
 62
     0
 92
       -2
340
0
 93
        0
 40
1.125
309
GRIDFORMAT_END
 95
       32
302
GRIDFORMAT
  1
GRIDFORMAT_BEGIN
 90
        0
 91
        1
 62
     0
 92
       -2
340
0
 93
        0
 40
1.125
309
GRIDFORMAT_END
309
TABLEFORMAT_END
  1
CELLSTYLE_BEGIN
 90
        1
 91
        1
300
_TITLE
309
CELLSTYLE_END
300
CELLSTYLE
  1
TABLEFORMAT_BEGIN
 90
        5
170
     1
 91
        0
 92
        0
 62
   257
 93
        1
300
CONTENTFORMAT
  1
CONTENTFORMAT_BEGIN
 90
        0
 91
        0
 92
      512
 93
        0
300

 40
0.0
140
1.0
 94
        5
 62
     0
340
11
144
4.5
309
CONTENTFORMAT_END
171
     1
301
MARGIN
  1
CELLMARGIN_BEGIN
 40
1.5
 40
1.5
 40
1.5
 40
1.5
 40
4.5
 40
4.5
309
CELLMARGIN_END
 94
        6
 95
        1
302
GRIDFORMAT
  1
GRIDFORMAT_BEGIN
 90
        0
 91
        1
 62
     0
 92
       -2
340
0
 93
        0
 40
1.125
309
GRIDFORMAT_END
 95
        2
302
GRIDFORMAT
  1
GRIDFORMAT_BEGIN
 90
        0
 91
        1
 62
     0
 92
       -2
340
0
 93
        0
 40
1.125
309
GRIDFORMAT_END
 95
        4
302
GRIDFORMAT
  1
GRIDFORMAT_BEGIN
 90
        0
 91
        1
 62
     0
 92
       -2
340
0
 93
        0
 40
1.125
309
GRIDFORMAT_END
 95
        8
302
GRIDFORMAT
  1
GRIDFORMAT_BEGIN
 90
        0
 91
        1
 62
     0
 92
       -2
340
0
 93
        0
 40
1.125
309
GRIDFORMAT_END
 95
       16
302
GRIDFORMAT
  1
GRIDFORMAT_BEGIN
 90
        0
 91
        1
 62
     0
 92
       -2
340
0
 93
        0
 40
1.125
309
GRIDFORMAT_END
 95
       32
302
GRIDFORMAT
  1
GRIDFORMAT_BEGIN
 90
        0
 91
        1
 62
     0
 92
       -2
340
0
 93
        0
 40
1.125
309
GRIDFORMAT_END
309
TABLEFORMAT_END
  1
CELLSTYLE_BEGIN
 90
        2
 91
        1
300
_HEADER
309
CELLSTYLE_END
300
CELLSTYLE
  1
TABLEFORMAT_BEGIN
 90
        5
170
     1
 91
        0
 92
        0
 62
   257
 93
        1
300
CONTENTFORMAT
  1
CONTENTFORMAT_BEGIN
 90
        0
 91
        0
 92
      512
 93
        0
300

 40
0.0
140
1.0
 94
        2
 62
     0
340
11
144
4.5
309
CONTENTFORMAT_END
171
     1
301
MARGIN
  1
CELLMARGIN_BEGIN
 40
1.5
 40
1.5
 40
1.5
 40
1.5
 40
4.5
 40
4.5
309
CELLMARGIN_END
 94
        6
 95
        1
302
GRIDFORMAT
  1
GRIDFORMAT_BEGIN
 90
        0
 91
        1
 62
     0
 92
       -2
340
0
 93
        0
 40
1.125
309
GRIDFORMAT_END
 95
        2
302
GRIDFORMAT
  1
GRIDFORMAT_BEGIN
 90
        0
 91
        1
 62
     0
 92
       -2
340
0
 93
        0
 40
1.125
309
GRIDFORMAT_END
 95
        4
302
GRIDFORMAT
  1
GRIDFORMAT_BEGIN
 90
        0
 91
        1
 62
     0
 92
       -2
340
0
 93
        0
 40
1.125
309
GRIDFORMAT_END
 95
        8
302
GRIDFORMAT
  1
GRIDFORMAT_BEGIN
 90
        0
 91
        1
 62
     0
 92
       -2
340
0
 93
        0
 40
1.125
309
GRIDFORMAT_END
 95
       16
302
GRIDFORMAT
  1
GRIDFORMAT_BEGIN
 90
        0
 91
        1
 62
     0
 92
       -2
340
0
 93
        0
 40
1.125
309
GRIDFORMAT_END
 95
       32
302
GRIDFORMAT
  1
GRIDFORMAT_BEGIN
 90
        0
 91
        1
 62
     0
 92
       -2
340
0
 93
        0
 40
1.125
309
GRIDFORMAT_END
309
TABLEFORMAT_END
  1
CELLSTYLE_BEGIN
 90
        3
 91
        2
300
_DATA
309
CELLSTYLE_END
  0
ENDSEC
  0
EOF
