  0
SECTION
  2
HEADER
  9
$ACADVER
  1
AC1027
  9
$ACADMAINTVER
 70
   125
  9
$DWGCODEPAGE
  3
ANSI_1252
  9
$LASTSAVEDBY
  1
fleminab
  9
$REQUIREDVERSIONS
160
                 0
  9
$INSBASE
 10
0.0
 20
0.0
 30
0.0
  9
$EXTMIN
 10
677.3046702180327
 20
651.6485691299294
 30
-0.0015258207003583
  9
$EXTMAX
 10
1778.138863274056
 20
1601.032110756532
 30
0.0000000349246037
  9
$LIMMIN
 10
0.0
 20
0.0
  9
$LIMMAX
 10
5346.0
 20
3780.0
  9
$ORTHOMODE
 70
     1
  9
$REGENMODE
 70
     1
  9
$FILLMODE
 70
     1
  9
$QTEXTMODE
 70
     0
  9
$MIRRTEXT
 70
     0
  9
$LTSCALE
 40
294.03
  9
$ATTMODE
 70
     1
  9
$TEXTSIZE
 40
0.2
  9
$TRACEWID
 40
0.05
  9
$TEXTSTYLE
  7
STANDARD
  9
$CLAYER
  8
尺寸线
  9
$CELTYPE
  6
BYLAYER
  9
$CECOLOR
 62
   256
  9
$CELTSCALE
 40
1.0
  9
$DISPSILH
 70
     0
  9
$DIMSCALE
 40
1.0
  9
$DIMASZ
 40
8.0
  9
$DIMEXO
 40
0.0
  9
$DIMDLI
 40
5.0
  9
$DIMRND
 40
0.0
  9
$DIMDLE
 40
0.0
  9
$DIMEXE
 40
3.0
  9
$DIMTP
 40
0.0
  9
$DIMTM
 40
0.0
  9
$DIMTXT
 40
10.0
  9
$DIMCEN
 40
0.0
  9
$DIMTSZ
 40
0.0
  9
$DIMTOL
 70
     0
  9
$DIMLIM
 70
     0
  9
$DIMTIH
 70
     0
  9
$DIMTOH
 70
     0
  9
$DIMSE1
 70
     0
  9
$DIMSE2
 70
     0
  9
$DIMTAD
 70
     1
  9
$DIMZIN
 70
     8
  9
$DIMBLK
  1

  9
$DIMASO
 70
     1
  9
$DIMSHO
 70
     1
  9
$DIMPOST
  1

  9
$DIMAPOST
  1

  9
$DIMALT
 70
     0
  9
$DIMALTD
 70
     3
  9
$DIMALTF
 40
0.03937007874016
  9
$DIMLFAC
 40
1.0
  9
$DIMTOFL
 70
     1
  9
$DIMTVP
 40
0.0
  9
$DIMTIX
 70
     0
  9
$DIMSOXD
 70
     0
  9
$DIMSAH
 70
     0
  9
$DIMBLK1
  1

  9
$DIMBLK2
  1

  9
$DIMSTYLE
  2
大字
  9
$DIMCLRD
 70
   256
  9
$DIMCLRE
 70
     0
  9
$DIMCLRT
 70
     1
  9
$DIMTFAC
 40
1.0
  9
$DIMGAP
 40
3.0
  9
$DIMJUST
 70
     0
  9
$DIMSD1
 70
     0
  9
$DIMSD2
 70
     0
  9
$DIMTOLJ
 70
     0
  9
$DIMTZIN
 70
     8
  9
$DIMALTZ
 70
     0
  9
$DIMALTTZ
 70
     0
  9
$DIMUPT
 70
     0
  9
$DIMDEC
 70
     2
  9
$DIMTDEC
 70
     2
  9
$DIMALTU
 70
     2
  9
$DIMALTTD
 70
     3
  9
$DIMTXSTY
  7
STANDARD
  9
$DIMAUNIT
 70
     0
  9
$DIMADEC
 70
     0
  9
$DIMALTRND
 40
0.0
  9
$DIMAZIN
 70
     0
  9
$DIMDSEP
 70
    46
  9
$DIMATFIT
 70
     3
  9
$DIMFRAC
 70
     0
  9
$DIMLDRBLK
  1

  9
$DIMLUNIT
 70
     2
  9
$DIMLWD
 70
    18
  9
$DIMLWE
 70
    -2
  9
$DIMTMOVE
 70
     0
  9
$DIMFXL
 40
1.25
  9
$DIMFXLON
 70
     0
  9
$DIMJOGANG
 40
1.570796326794896
  9
$DIMTFILL
 70
     0
  9
$DIMTFILLCLR
 70
     0
  9
$DIMARCSYM
 70
     0
  9
$DIMLTYPE
  6
CONTINUOUS
  9
$DIMLTEX1
  6

  9
$DIMLTEX2
  6

  9
$DIMTXTDIRECTION
 70
     0
  9
$LUNITS
 70
     2
  9
$LUPREC
 70
     4
  9
$SKETCHINC
 40
0.1
  9
$FILLETRAD
 40
60.0
  9
$AUNITS
 70
     0
  9
$AUPREC
 70
     0
  9
$MENU
  1
.
  9
$ELEVATION
 40
0.0
  9
$PELEVATION
 40
0.0
  9
$THICKNESS
 40
0.0
  9
$LIMCHECK
 70
     0
  9
$CHAMFERA
 40
0.0
  9
$CHAMFERB
 40
0.0
  9
$CHAMFERC
 40
0.0
  9
$CHAMFERD
 40
0.0
  9
$SKPOLY
 70
     0
  9
$TDCREATE
 40
2456650.724664352
  9
$TDUCREATE
 40
2456650.266335718
  9
$TDUPDATE
 40
2458157.379652778
  9
$TDUUPDATE
 40
2458156.921319445
  9
$TDINDWG
 40
0.0058351389
  9
$TDUSRTIMER
 40
0.0058351389
  9
$USRTIMER
 70
     1
  9
$ANGBASE
 50
0.0
  9
$ANGDIR
 70
     0
  9
$PDMODE
 70
     3
  9
$PDSIZE
 40
8.0
  9
$PLINEWID
 40
0.0
  9
$SPLFRAME
 70
     0
  9
$SPLINETYPE
 70
     6
  9
$SPLINESEGS
 70
     8
  9
$HANDSEED
  5
AB2
  9
$SURFTAB1
 70
     6
  9
$SURFTAB2
 70
     6
  9
$SURFTYPE
 70
     6
  9
$SURFU
 70
     6
  9
$SURFV
 70
     6
  9
$UCSBASE
  2

  9
$UCSNAME
  2

  9
$UCSORG
 10
0.0
 20
0.0
 30
0.0
  9
$UCSXDIR
 10
1.0
 20
0.0
 30
0.0
  9
$UCSYDIR
 10
0.0
 20
1.0
 30
0.0
  9
$UCSORTHOREF
  2

  9
$UCSORTHOVIEW
 70
     0
  9
$UCSORGTOP
 10
0.0
 20
0.0
 30
0.0
  9
$UCSORGBOTTOM
 10
0.0
 20
0.0
 30
0.0
  9
$UCSORGLEFT
 10
0.0
 20
0.0
 30
0.0
  9
$UCSORGRIGHT
 10
0.0
 20
0.0
 30
0.0
  9
$UCSORGFRONT
 10
0.0
 20
0.0
 30
0.0
  9
$UCSORGBACK
 10
0.0
 20
0.0
 30
0.0
  9
$PUCSBASE
  2

  9
$PUCSNAME
  2

  9
$PUCSORG
 10
0.0
 20
0.0
 30
0.0
  9
$PUCSXDIR
 10
1.0
 20
0.0
 30
0.0
  9
$PUCSYDIR
 10
0.0
 20
1.0
 30
0.0
  9
$PUCSORTHOREF
  2

  9
$PUCSORTHOVIEW
 70
     0
  9
$PUCSORGTOP
 10
0.0
 20
0.0
 30
0.0
  9
$PUCSORGBOTTOM
 10
0.0
 20
0.0
 30
0.0
  9
$PUCSORGLEFT
 10
0.0
 20
0.0
 30
0.0
  9
$PUCSORGRIGHT
 10
0.0
 20
0.0
 30
0.0
  9
$PUCSORGFRONT
 10
0.0
 20
0.0
 30
0.0
  9
$PUCSORGBACK
 10
0.0
 20
0.0
 30
0.0
  9
$USERI1
 70
     0
  9
$USERI2
 70
     0
  9
$USERI3
 70
     0
  9
$USERI4
 70
     0
  9
$USERI5
 70
     0
  9
$USERR1
 40
0.0
  9
$USERR2
 40
0.0
  9
$USERR3
 40
0.0
  9
$USERR4
 40
0.0
  9
$USERR5
 40
0.0
  9
$WORLDVIEW
 70
     1
  9
$SHADEDGE
 70
     3
  9
$SHADEDIF
 70
    70
  9
$TILEMODE
 70
     1
  9
$MAXACTVP
 70
    64
  9
$PINSBASE
 10
0.0
 20
0.0
 30
0.0
  9
$PLIMCHECK
 70
     0
  9
$PEXTMIN
 10
1.000000000000000E+20
 20
1.000000000000000E+20
 30
1.000000000000000E+20
  9
$PEXTMAX
 10
-1.000000000000000E+20
 20
-1.000000000000000E+20
 30
-1.000000000000000E+20
  9
$PLIMMIN
 10
0.0
 20
0.0
  9
$PLIMMAX
 10
12.0
 20
9.0
  9
$UNITMODE
 70
     0
  9
$VISRETAIN
 70
     1
  9
$PLINEGEN
 70
     0
  9
$PSLTSCALE
 70
     1
  9
$TREEDEPTH
 70
  3020
  9
$CMLSTYLE
  2
Standard
  9
$CMLJUST
 70
     0
  9
$CMLSCALE
 40
1.0
  9
$PROXYGRAPHICS
 70
     1
  9
$MEASUREMENT
 70
     1
  9
$CELWEIGHT
370
    -1
  9
$ENDCAPS
280
     0
  9
$JOINSTYLE
280
     0
  9
$LWDISPLAY
290
     0
  9
$INSUNITS
 70
     4
  9
$HYPERLINKBASE
  1

  9
$STYLESHEET
  1

  9
$XEDIT
290
     1
  9
$CEPSNTYPE
380
     0
  9
$PSTYLEMODE
290
     1
  9
$FINGERPRINTGUID
  2
{7B01791B-17FC-4B29-9D63-6D63F75FBDF4}
  9
$VERSIONGUID
  2
{ADEFC699-AFF0-0B45-A743-3B85B2162CB7}
  9
$EXTNAMES
290
     1
  9
$PSVPSCALE
 40
0.0
  9
$OLESTARTUP
290
     0
  9
$SORTENTS
280
   127
  9
$INDEXCTL
280
     0
  9
$HIDETEXT
280
     1
  9
$XCLIPFRAME
280
     0
  9
$HALOGAP
280
     0
  9
$OBSCOLOR
 70
   257
  9
$OBSLTYPE
280
     0
  9
$INTERSECTIONDISPLAY
280
     0
  9
$INTERSECTIONCOLOR
 70
   257
  9
$DIMASSOC
280
     2
  9
$PROJECTNAME
  1

  9
$CAMERADISPLAY
290
     0
  9
$LENSLENGTH
 40
50.0
  9
$CAMERAHEIGHT
 40
0.0
  9
$STEPSPERSEC
 40
2.0
  9
$STEPSIZE
 40
6.0
  9
$3DDWFPREC
 40
2.0
  9
$PSOLWIDTH
 40
0.25
  9
$PSOLHEIGHT
 40
4.0
  9
$LOFTANG1
 40
1.570796326794896
  9
$LOFTANG2
 40
1.570796326794896
  9
$LOFTMAG1
 40
0.0
  9
$LOFTMAG2
 40
0.0
  9
$LOFTPARAM
 70
     7
  9
$LOFTNORMALS
280
     1
  9
$LATITUDE
 40
37.795
  9
$LONGITUDE
 40
-122.394
  9
$NORTHDIRECTION
 40
0.0
  9
$TIMEZONE
 70
 -8000
  9
$LIGHTGLYPHDISPLAY
280
     1
  9
$TILEMODELIGHTSYNCH
280
     1
  9
$CMATERIAL
347
6DB
  9
$SOLIDHIST
280
     0
  9
$SHOWHIST
280
     1
  9
$DWFFRAME
280
     2
  9
$DGNFRAME
280
     0
  9
$REALWORLDSCALE
290
     1
  9
$INTERFERECOLOR
 62
     1
  9
$INTERFEREOBJVS
345
6FD
  9
$INTERFEREVPVS
346
A8A
  9
$CSHADOW
280
     0
  9
$SHADOWPLANELOCATION
 40
0.0
  0
ENDSEC
  0
SECTION
  2
CLASSES
  0
CLASS
  1
ACDBDICTIONARYWDFLT
  2
AcDbDictionaryWithDefault
  3
ObjectDBX Classes
 90
        0
 91
        1
280
     0
281
     0
  0
CLASS
  1
MATERIAL
  2
AcDbMaterial
  3
ObjectDBX Classes
 90
     1153
 91
        3
280
     0
281
     0
  0
CLASS
  1
VISUALSTYLE
  2
AcDbVisualStyle
  3
ObjectDBX Classes
 90
     4095
 91
       26
280
     0
281
     0
  0
CLASS
  1
TABLESTYLE
  2
AcDbTableStyle
  3
ObjectDBX Classes
 90
     4095
 91
        1
280
     0
281
     0
  0
CLASS
  1
SCALE
  2
AcDbScale
  3
ObjectDBX Classes
 90
     1153
 91
       33
280
     0
281
     0
  0
CLASS
  1
MLEADERSTYLE
  2
AcDbMLeaderStyle
  3
ACDB_MLEADERSTYLE_CLASS
 90
     4095
 91
        1
280
     0
281
     0
  0
CLASS
  1
CELLSTYLEMAP
  2
AcDbCellStyleMap
  3
ObjectDBX Classes
 90
     1152
 91
        2
280
     0
281
     0
  0
CLASS
  1
DICTIONARYVAR
  2
AcDbDictionaryVar
  3
ObjectDBX Classes
 90
        0
 91
       15
280
     0
281
     0
  0
CLASS
  1
SORTENTSTABLE
  2
AcDbSortentsTable
  3
ObjectDBX Classes
 90
        0
 91
        1
280
     0
281
     0
  0
CLASS
  1
DIMASSOC
  2
AcDbDimAssoc
  3
"AcDbDimAssoc|Product Desc:     AcDim ARX App For Dimension|Company:          Autodesk, Inc.|WEB Address:      www.autodesk.com"
 90
        0
 91
       13
280
     0
281
     0
  0
CLASS
  1
ACDBSECTIONVIEWSTYLE
  2
AcDbSectionViewStyle
  3
ObjectDBX Classes
 90
     1025
 91
        1
280
     0
281
     0
  0
CLASS
  1
ACDBDETAILVIEWSTYLE
  2
AcDbDetailViewStyle
  3
ObjectDBX Classes
 90
     1025
 91
        1
280
     0
281
     0
  0
ENDSEC
  0
SECTION
  2
TABLES
  0
TABLE
  2
VPORT
  5
8
102
{ACAD_XDICTIONARY
360
72F
102
}
330
0
100
AcDbSymbolTable
 70
     1
1001
ACAD
1000
DbSaveVer
1071
        5
  0
VPORT
  5
1F4
330
8
100
AcDbSymbolTableRecord
100
AcDbViewportTableRecord
  2
*ACTIVE
 70
     0
 10
0.0
 20
0.0
 11
1.0
 21
1.0
 12
1227.721766746045
 22
1126.340339943231
 13
0.0
 23
0.0
 14
1.0
 24
1.0
 15
0.0
 25
0.0
 16
0.0
 26
0.0
 36
1.0
 17
0.0
 27
0.0
 37
0.0
 40
956.6678143245052
 41
2.444302176696542
 42
50.0
 43
0.0
 44
0.0
 50
0.0
 51
0.0
 71
     0
 72
 20000
 73
     1
 74
     1
 75
     0
 76
     0
 77
     0
 78
     0
281
     0
 65
     1
110
0.0
120
0.0
130
0.0
111
1.0
121
0.0
131
0.0
112
0.0
122
1.0
132
0.0
 79
     0
146
0.0
348
6F9
 60
     3
 61
     5
292
     1
282
     1
141
0.0
142
0.0
 63
   250
421
  3355443
1001
ACAD_NAV_VCDISPLAY
1070
     3
  0
ENDTAB
  0
TABLE
  2
LTYPE
  5
5
330
0
100
AcDbSymbolTable
 70
     4
  0
LTYPE
  5
14
330
5
100
AcDbSymbolTableRecord
100
AcDbLinetypeTableRecord
  2
BYBLOCK
 70
     0
  3

 72
    65
 73
     0
 40
0.0
  0
LTYPE
  5
15
330
5
100
AcDbSymbolTableRecord
100
AcDbLinetypeTableRecord
  2
BYLAYER
 70
     0
  3

 72
    65
 73
     0
 40
0.0
  0
LTYPE
  5
16
330
5
100
AcDbSymbolTableRecord
100
AcDbLinetypeTableRecord
  2
CONTINUOUS
 70
     0
  3
Solid line
 72
    65
 73
     0
 40
0.0
  0
LTYPE
  5
7D4
330
5
100
AcDbSymbolTableRecord
100
AcDbLinetypeTableRecord
  2
ACAD_ISO05W100
 70
     0
  3
ISO long-dash double-dot ____ .. ____ .. ____ .
 72
    65
 73
     6
 40
33.0
 49
24.0
 74
     0
 49
-3.0
 74
     0
 49
0.0
 74
     0
 49
-3.0
 74
     0
 49
0.0
 74
     0
 49
-3.0
 74
     0
  0
LTYPE
  5
7D5
330
5
100
AcDbSymbolTableRecord
100
AcDbLinetypeTableRecord
  2
ACAD_ISO02W100
 70
     0
  3
ISO dash __ __ __ __ __ __ __ __ __ __ __ __ __
 72
    65
 73
     2
 40
15.0
 49
12.0
 74
     0
 49
-3.0
 74
     0
  0
LTYPE
  5
7D6
330
5
100
AcDbSymbolTableRecord
100
AcDbLinetypeTableRecord
  2
ACAD_ISO04W100
 70
     0
  3
ISO long-dash dot ____ . ____ . ____ . ____ . _
 72
    65
 73
     4
 40
30.0
 49
24.0
 74
     0
 49
-3.0
 74
     0
 49
0.0
 74
     0
 49
-3.0
 74
     0
  0
ENDTAB
  0
TABLE
  2
LAYER
  5
2
102
{ACAD_XDICTIONARY
360
90C
102
}
330
0
100
AcDbSymbolTable
 70
    11
  0
LAYER
  5
10
102
{ACAD_XDICTIONARY
360
759
102
}
330
2
100
AcDbSymbolTableRecord
100
AcDbLayerTableRecord
  2
0
 70
     0
 62
     7
  6
CONTINUOUS
370
    -3
390
F
347
6EB
348
0
  0
LAYER
  5
1FF
102
{ACAD_XDICTIONARY
360
765
102
}
330
2
100
AcDbSymbolTableRecord
100
AcDbLayerTableRecord
  2
02___PRT_ALL_AXES
 70
     0
 62
     7
  6
CONTINUOUS
370
    -3
390
F
347
6EB
348
0
  0
LAYER
  5
7B5
330
2
100
AcDbSymbolTableRecord
100
AcDbLayerTableRecord
  2
Defpoints
 70
     0
 62
     7
  6
CONTINUOUS
290
     0
370
    -3
390
F
347
6EB
348
0
  0
LAYER
  5
7D7
102
{ACAD_XDICTIONARY
360
7D8
102
}
330
2
100
AcDbSymbolTableRecord
100
AcDbLayerTableRecord
  2
参考
 70
     0
 62
     2
  6
CONTINUOUS
290
     0
370
    53
390
F
347
6EB
348
0
1001
AcAecLayerStandard
1000

1000

1001
AcadStringInfo
1000
MIFCodePage
1070
     5
  0
LAYER
  5
7D9
102
{ACAD_XDICTIONARY
360
7DA
102
}
330
2
100
AcDbSymbolTableRecord
100
AcDbLayerTableRecord
  2
尺寸线
 70
     0
 62
     1
  6
CONTINUOUS
370
    -3
390
F
347
6EB
348
0
1001
AcAecLayerStandard
1000

1000

1001
AcadStringInfo
1000
MIFCodePage
1070
     5
  0
LAYER
  5
7DB
102
{ACAD_XDICTIONARY
360
7DC
102
}
330
2
100
AcDbSymbolTableRecord
100
AcDbLayerTableRecord
  2
粗实线
 70
     0
 62
     7
  6
CONTINUOUS
370
    53
390
F
347
6EB
348
0
1001
AcAecLayerStandard
1000

1000

1001
AcadStringInfo
1000
MIFCodePage
1070
     5
  0
LAYER
  5
7DD
102
{ACAD_XDICTIONARY
360
7DE
102
}
330
2
100
AcDbSymbolTableRecord
100
AcDbLayerTableRecord
  2
双点划线
 70
     0
 62
   211
  6
ACAD_ISO05W100
370
    -3
390
F
347
6EB
348
0
1001
AcAecLayerStandard
1000

1000

1001
AcadStringInfo
1000
MIFCodePage
1070
     5
  0
LAYER
  5
7DF
102
{ACAD_XDICTIONARY
360
7E0
102
}
330
2
100
AcDbSymbolTableRecord
100
AcDbLayerTableRecord
  2
图框线
 70
     0
 62
     5
  6
CONTINUOUS
370
    60
390
F
347
6EB
348
0
1001
AcAecLayerStandard
1000

1000

1001
AcadStringInfo
1000
MIFCodePage
1070
     5
  0
LAYER
  5
7E1
102
{ACAD_XDICTIONARY
360
7E2
102
}
330
2
100
AcDbSymbolTableRecord
100
AcDbLayerTableRecord
  2
细实线
 70
     0
 62
   140
  6
CONTINUOUS
370
    -3
390
F
347
6EB
348
0
1001
AcAecLayerStandard
1000

1000

1001
AcadStringInfo
1000
MIFCodePage
1070
     5
  0
LAYER
  5
7E3
102
{ACAD_XDICTIONARY
360
7E4
102
}
330
2
100
AcDbSymbolTableRecord
100
AcDbLayerTableRecord
  2
虚线
 70
     0
 62
    40
  6
ACAD_ISO02W100
370
    -3
390
F
347
6EB
348
0
1001
AcAecLayerStandard
1000

1000

1001
AcadStringInfo
1000
MIFCodePage
1070
     5
  0
LAYER
  5
7E5
102
{ACAD_XDICTIONARY
360
7E6
102
}
330
2
100
AcDbSymbolTableRecord
100
AcDbLayerTableRecord
  2
中心线
 70
     0
 62
     1
  6
ACAD_ISO04W100
370
    -3
390
F
347
6EB
348
0
1001
AcAecLayerStandard
1000

1000

1001
AcadStringInfo
1000
MIFCodePage
1070
     5
  0
ENDTAB
  0
TABLE
  2
STYLE
  5
3
330
0
100
AcDbSymbolTable
 70
     2
  0
STYLE
  5
11
330
3
100
AcDbSymbolTableRecord
100
AcDbTextStyleTableRecord
  2
STANDARD
 70
     0
 40
0.0
 41
0.7
 50
0.0
 71
     0
 42
0.2
  3
txt
  4

  0
STYLE
  5
7B6
330
3
100
AcDbSymbolTableRecord
100
AcDbTextStyleTableRecord
  2
Annotative
 70
     0
 40
0.0
 41
1.0
 50
0.0
 71
     0
 42
0.2
  3
txt
  4

1001
AcadAnnotative
1000
AnnotativeData
1002
{
1070
     1
1070
     1
1002
}
  0
ENDTAB
  0
TABLE
  2
VIEW
  5
6
330
0
100
AcDbSymbolTable
 70
     0
  0
ENDTAB
  0
TABLE
  2
UCS
  5
7
330
0
100
AcDbSymbolTable
 70
     0
  0
ENDTAB
  0
TABLE
  2
APPID
  5
9
330
0
100
AcDbSymbolTable
 70
    14
  0
APPID
  5
206
330
9
100
AcDbSymbolTableRecord
100
AcDbRegAppTableRecord
  2
ACAD
 70
     0
  0
APPID
  5
72B
330
9
100
AcDbSymbolTableRecord
100
AcDbRegAppTableRecord
  2
ACAD_MLEADERVER
 70
     0
  0
APPID
  5
7CB
330
9
100
AcDbSymbolTableRecord
100
AcDbRegAppTableRecord
  2
AcadAnnotative
 70
     0
  0
APPID
  5
7CC
330
9
100
AcDbSymbolTableRecord
100
AcDbRegAppTableRecord
  2
ACAD_DSTYLE_DIMJOGGED_JOGANGLE_SYMBOL
 70
     0
  0
APPID
  5
7CD
330
9
100
AcDbSymbolTableRecord
100
AcDbRegAppTableRecord
  2
ACAD_DSTYLE_DIMBREAK
 70
     0
  0
APPID
  5
7CE
330
9
100
AcDbSymbolTableRecord
100
AcDbRegAppTableRecord
  2
ACAD_DSTYLE_DIMJAG
 70
     0
  0
APPID
  5
7CF
330
9
100
AcDbSymbolTableRecord
100
AcDbRegAppTableRecord
  2
ACAD_DSTYLE_DIMTALN
 70
     0
  0
APPID
  5
7E7
330
9
100
AcDbSymbolTableRecord
100
AcDbRegAppTableRecord
  2
AcAecLayerStandard
 70
     0
  0
APPID
  5
87C
330
9
100
AcDbSymbolTableRecord
100
AcDbRegAppTableRecord
  2
ACAD_DSTYLE_DIMRADIAL_EXTENSION
 70
     0
  0
APPID
  5
8DD
330
9
100
AcDbSymbolTableRecord
100
AcDbRegAppTableRecord
  2
ACAD_EXEMPT_FROM_CAD_STANDARDS
 70
     0
  0
APPID
  5
981
330
9
100
AcDbSymbolTableRecord
100
AcDbRegAppTableRecord
  2
ACAD_DSTYLE_DIMEXT_LENGTH
 70
     0
  0
APPID
  5
982
330
9
100
AcDbSymbolTableRecord
100
AcDbRegAppTableRecord
  2
ACAD_DSTYLE_DIM_LINETYPE
 70
     0
  0
APPID
  5
A95
330
9
100
AcDbSymbolTableRecord
100
AcDbRegAppTableRecord
  2
AcadStringInfo
 70
     0
  0
APPID
  5
A9A
330
9
100
AcDbSymbolTableRecord
100
AcDbRegAppTableRecord
  2
ACAD_NAV_VCDISPLAY
 70
     0
  0
ENDTAB
  0
TABLE
  2
DIMSTYLE
  5
A
330
0
100
AcDbSymbolTable
 70
    21
100
AcDbDimStyleTable
 71
     1
340
7BC
  0
DIMSTYLE
105
209
330
A
100
AcDbSymbolTableRecord
100
AcDbDimStyleTableRecord
  2
STANDARD
 70
     0
 41
3.0
 47
0.01
 48
0.01
 71
     1
 73
     0
 74
     0
 77
     1
 78
     8
140
45.0
271
     2
272
     2
284
     8
340
11
  0
DIMSTYLE
105
7B7
330
A
100
AcDbSymbolTableRecord
100
AcDbDimStyleTableRecord
  2
Annotative
 70
     0
340
11
1001
AcadAnnotative
1000
AnnotativeData
1002
{
1070
     1
1070
     1
1002
}
  0
DIMSTYLE
105
7B8
330
A
100
AcDbSymbolTableRecord
100
AcDbDimStyleTableRecord
  2
ISO-25
 70
     0
 41
2.0
 42
0.0
 43
5.0
 44
1.0
 49
1.25
 50
90.0
 73
     0
 74
     0
 77
     1
 78
     8
140
2.5
141
0.0
143
0.03937007874016
147
0.5
171
     3
172
     1
176
   256
178
     1
271
     2
272
     2
274
     3
283
     0
284
     8
340
11
345
16
371
    18
1001
ACAD_DSTYLE_DIMJOGGED_JOGANGLE_SYMBOL
1070
   384
1040
1.570796326794896
  0
DIMSTYLE
105
7B9
330
A
100
AcDbSymbolTableRecord
100
AcDbDimStyleTableRecord
  2
ISO-25$3
 70
     0
 41
2.0
 42
0.0
 43
5.0
 44
1.0
 49
1.25
 50
90.0
 73
     0
 77
     1
 78
     8
140
2.5
141
0.0
143
0.03937007874016
147
0.5
171
     3
172
     1
176
   256
178
     1
271
     2
272
     2
274
     3
283
     0
284
     8
340
11
345
16
371
    18
1001
ACAD_DSTYLE_DIMJOGGED_JOGANGLE_SYMBOL
1070
   384
1040
1.570796326794896
  0
DIMSTYLE
105
7BA
330
A
100
AcDbSymbolTableRecord
100
AcDbDimStyleTableRecord
  2
ISO-25$4
 70
     0
 41
2.0
 42
0.0
 43
5.0
 44
1.0
 49
1.25
 50
90.0
 73
     0
 77
     1
 78
     8
140
2.5
141
0.0
143
0.03937007874016
147
0.5
171
     3
176
   256
178
     1
271
     2
272
     2
274
     3
283
     0
284
     8
340
11
345
16
371
    18
1001
ACAD_DSTYLE_DIMJOGGED_JOGANGLE_SYMBOL
1070
   384
1040
1.570796326794896
  0
DIMSTYLE
105
7BB
330
A
100
AcDbSymbolTableRecord
100
AcDbDimStyleTableRecord
  2
ISO-25$6
 70
     0
 41
2.0
 42
0.0
 43
5.0
 44
1.0
 49
1.25
 50
90.0
 73
     0
 74
     0
 78
     8
140
2.5
141
0.0
143
0.03937007874016
147
0.5
171
     3
172
     1
176
   256
178
     1
271
     2
272
     2
274
     3
283
     0
284
     8
340
11
345
16
371
    18
1001
ACAD_DSTYLE_DIMJOGGED_JOGANGLE_SYMBOL
1070
   384
1040
1.570796326794896
  0
DIMSTYLE
105
7BC
102
{ACAD_REACTORS
330
7EC
330
804
330
81C
330
834
330
84C
330
864
330
895
330
8AD
330
8C5
330
8E8
102
}
330
A
100
AcDbSymbolTableRecord
100
AcDbDimStyleTableRecord
  2
大字
 70
     0
 41
8.0
 42
0.0
 43
5.0
 44
3.0
 49
1.25
 50
90.0
 73
     0
 74
     0
 77
     1
 78
     8
140
10.0
141
0.0
143
0.03937007874016
147
3.0
171
     3
172
     1
176
   256
178
     1
271
     2
272
     2
274
     3
283
     0
284
     8
340
11
345
16
371
    18
1001
ACAD_DSTYLE_DIMBREAK
1070
   391
1040
3.75
1001
ACAD_DSTYLE_DIMJAG
1070
   388
1040
1.5
1001
ACAD_DSTYLE_DIMTALN
1070
   392
1070
     0
1001
ACAD_DSTYLE_DIMJOGGED_JOGANGLE_SYMBOL
1070
   384
1040
1.570796326794896
1001
AcadStringInfo
1000
MIFCodePage
1070
     5
  0
DIMSTYLE
105
7BD
102
{ACAD_REACTORS
330
87D
330
9C7
330
9DF
102
}
330
A
100
AcDbSymbolTableRecord
100
AcDbDimStyleTableRecord
  2
大字$3
 70
     0
 41
8.0
 42
0.0
 43
5.0
 44
3.0
 49
1.25
 50
90.0
 73
     0
 77
     1
 78
     8
140
10.0
141
0.0
143
0.03937007874016
147
3.0
171
     3
172
     1
176
   256
178
     1
271
     2
272
     2
274
     3
283
     0
284
     8
340
11
345
16
371
    18
1001
ACAD_DSTYLE_DIMBREAK
1070
   391
1040
3.75
1001
ACAD_DSTYLE_DIMJAG
1070
   388
1040
1.5
1001
ACAD_DSTYLE_DIMTALN
1070
   392
1070
     0
1001
ACAD_DSTYLE_DIMJOGGED_JOGANGLE_SYMBOL
1070
   384
1040
1.570796326794896
1001
AcadStringInfo
1000
MIFCodePage
1070
     5
  0
DIMSTYLE
105
7BE
330
A
100
AcDbSymbolTableRecord
100
AcDbDimStyleTableRecord
  2
大字$4
 70
     0
 41
8.0
 42
0.0
 43
5.0
 44
3.0
 49
1.25
 50
90.0
 73
     0
 77
     1
 78
     8
140
10.0
141
0.0
143
0.03937007874016
147
3.0
171
     3
172
     1
176
   256
178
     1
271
     2
272
     2
274
     3
283
     0
284
     8
340
11
345
16
371
    18
1001
ACAD_DSTYLE_DIMBREAK
1070
   391
1040
3.75
1001
ACAD_DSTYLE_DIMJAG
1070
   388
1040
1.5
1001
ACAD_DSTYLE_DIMTALN
1070
   392
1070
     0
1001
ACAD_DSTYLE_DIMJOGGED_JOGANGLE_SYMBOL
1070
   384
1040
1.570796326794896
1001
AcadStringInfo
1000
MIFCodePage
1070
     5
  0
DIMSTYLE
105
7BF
330
A
100
AcDbSymbolTableRecord
100
AcDbDimStyleTableRecord
  2
对称公差
 70
     0
 41
2.0
 42
0.0
 43
5.0
 44
1.0
 47
0.02
 48
0.02
 49
1.25
 50
90.0
 71
     1
 73
     0
 74
     0
 77
     1
 78
     8
140
2.5
141
0.0
143
0.03937007874016
147
0.5
171
     3
172
     1
176
   256
178
     1
271
     2
272
     2
274
     3
283
     0
284
     8
340
11
345
16
371
    18
1001
ACAD_DSTYLE_DIMJOGGED_JOGANGLE_SYMBOL
1070
   384
1040
1.570796326794896
1001
AcadStringInfo
1000
MIFCodePage
1070
     5
  0
DIMSTYLE
105
7C0
330
A
100
AcDbSymbolTableRecord
100
AcDbDimStyleTableRecord
  2
对称公差$3
 70
     0
 41
2.0
 42
0.0
 43
5.0
 44
1.0
 47
0.02
 48
0.02
 49
1.25
 50
90.0
 71
     1
 73
     0
 77
     1
 78
     8
140
2.5
141
0.0
143
0.03937007874016
147
0.5
171
     3
172
     1
176
   256
178
     1
271
     2
272
     2
274
     3
283
     0
284
     8
340
11
345
16
371
    18
1001
ACAD_DSTYLE_DIMJOGGED_JOGANGLE_SYMBOL
1070
   384
1040
1.570796326794896
1001
AcadStringInfo
1000
MIFCodePage
1070
     5
  0
DIMSTYLE
105
7C1
330
A
100
AcDbSymbolTableRecord
100
AcDbDimStyleTableRecord
  2
对称公差$4
 70
     0
 41
2.0
 42
0.0
 43
5.0
 44
1.0
 47
0.02
 48
0.02
 49
1.25
 50
90.0
 71
     1
 73
     0
 77
     1
 78
     8
140
2.5
141
0.0
143
0.03937007874016
147
0.5
171
     3
176
   256
178
     1
271
     2
272
     2
274
     3
283
     0
284
     8
340
11
345
16
371
    18
1001
ACAD_DSTYLE_DIMJOGGED_JOGANGLE_SYMBOL
1070
   384
1040
1.570796326794896
1001
AcadStringInfo
1000
MIFCodePage
1070
     5
  0
DIMSTYLE
105
7C2
330
A
100
AcDbSymbolTableRecord
100
AcDbDimStyleTableRecord
  2
对称公差$6
 70
     0
 41
2.0
 42
0.0
 43
5.0
 44
1.0
 47
0.02
 48
0.02
 49
1.25
 50
90.0
 71
     1
 73
     0
 74
     0
 78
     8
140
2.5
141
0.0
143
0.03937007874016
147
0.5
171
     3
172
     1
176
   256
178
     1
271
     2
272
     2
274
     3
283
     0
284
     8
340
11
345
16
371
    18
1001
ACAD_DSTYLE_DIMJOGGED_JOGANGLE_SYMBOL
1070
   384
1040
1.570796326794896
1001
AcadStringInfo
1000
MIFCodePage
1070
     5
  0
DIMSTYLE
105
7C3
330
A
100
AcDbSymbolTableRecord
100
AcDbDimStyleTableRecord
  2
过盈(孔）
 70
     0
 41
2.0
 42
0.0
 43
5.0
 44
1.0
 47
0.021
 48
0.000000001
 49
1.25
 50
90.0
 71
     1
 73
     0
 74
     0
 77
     1
 78
     8
140
2.5
141
0.0
143
0.03937007874016
146
0.5
147
0.5
171
     3
172
     1
176
   256
178
     1
271
     2
272
     3
274
     3
283
     0
284
     8
340
11
345
16
371
    18
1001
ACAD_DSTYLE_DIMJOGGED_JOGANGLE_SYMBOL
1070
   384
1040
1.570796326794896
1001
AcadStringInfo
1000
MIFCodePage
1070
     5
  0
DIMSTYLE
105
7C4
330
A
100
AcDbSymbolTableRecord
100
AcDbDimStyleTableRecord
  2
过盈(孔）$3
 70
     0
 41
2.0
 42
0.0
 43
5.0
 44
1.0
 47
0.021
 48
0.000000001
 49
1.25
 50
90.0
 71
     1
 73
     0
 77
     1
 78
     8
140
2.5
141
0.0
143
0.03937007874016
146
0.5
147
0.5
171
     3
172
     1
176
   256
178
     1
271
     2
272
     3
274
     3
283
     0
284
     8
340
11
345
16
371
    18
1001
ACAD_DSTYLE_DIMJOGGED_JOGANGLE_SYMBOL
1070
   384
1040
1.570796326794896
1001
AcadStringInfo
1000
MIFCodePage
1070
     5
  0
DIMSTYLE
105
7C5
330
A
100
AcDbSymbolTableRecord
100
AcDbDimStyleTableRecord
  2
过盈(轴）
 70
     0
 41
2.0
 42
0.0
 43
5.0
 44
1.0
 47
0.035
 48
0.022
 49
1.25
 50
90.0
 71
     1
 73
     0
 74
     0
 77
     1
 78
     8
140
2.5
141
0.0
143
0.03937007874016
146
0.5
147
0.5
171
     3
172
     1
176
   256
178
     1
271
     2
272
     3
274
     3
283
     0
284
     8
340
11
345
16
371
    18
1001
ACAD_DSTYLE_DIMJOGGED_JOGANGLE_SYMBOL
1070
   384
1040
1.570796326794896
1001
AcadStringInfo
1000
MIFCodePage
1070
     5
  0
DIMSTYLE
105
7C6
330
A
100
AcDbSymbolTableRecord
100
AcDbDimStyleTableRecord
  2
过盈(轴）$3
 70
     0
 41
2.0
 42
0.0
 43
5.0
 44
1.0
 47
0.035
 48
0.022
 49
1.25
 50
90.0
 71
     1
 73
     0
 77
     1
 78
     8
140
2.5
141
0.0
143
0.03937007874016
146
0.5
147
0.5
171
     3
172
     1
176
   256
178
     1
271
     2
272
     3
274
     3
283
     0
284
     8
340
11
345
16
371
    18
1001
ACAD_DSTYLE_DIMJOGGED_JOGANGLE_SYMBOL
1070
   384
1040
1.570796326794896
1001
AcadStringInfo
1000
MIFCodePage
1070
     5
  0
DIMSTYLE
105
7C7
330
A
100
AcDbSymbolTableRecord
100
AcDbDimStyleTableRecord
  2
圆心标记
 70
     0
 41
2.0
 42
0.0
 43
5.0
 44
1.0
 49
1.25
 50
90.0
 73
     0
 74
     0
 77
     1
 78
     8
140
2.5
141
-1.0
143
0.03937007874016
147
0.5
171
     3
172
     1
176
   256
178
     1
271
     2
272
     2
274
     3
283
     0
284
     8
340
11
345
16
371
    18
1001
ACAD_DSTYLE_DIMJOGGED_JOGANGLE_SYMBOL
1070
   384
1040
1.570796326794896
1001
AcadStringInfo
1000
MIFCodePage
1070
     5
  0
DIMSTYLE
105
7C8
330
A
100
AcDbSymbolTableRecord
100
AcDbDimStyleTableRecord
  2
转换
 70
     0
 41
2.0
 42
0.0
 43
5.0
 44
1.0
 49
1.25
 50
90.0
 73
     0
 74
     0
 77
     1
 78
     8
140
2.5
141
0.0
143
0.03937007874016
147
0.5
171
     3
172
     1
176
   256
178
     1
271
     2
272
     2
274
     3
283
     0
284
     8
340
11
345
16
371
    18
1001
ACAD_DSTYLE_DIMJOGGED_JOGANGLE_SYMBOL
1070
   384
1040
1.570796326794896
1001
AcadStringInfo
1000
MIFCodePage
1070
     5
  0
DIMSTYLE
105
7C9
330
A
100
AcDbSymbolTableRecord
100
AcDbDimStyleTableRecord
  2
转换$0
 70
     0
  3
%%c<>
 41
2.0
 42
0.0
 43
5.0
 44
1.0
 49
1.25
 50
90.0
 73
     0
 74
     0
 77
     1
 78
     8
140
2.5
141
0.0
143
0.03937007874016
147
0.5
171
     3
172
     1
176
   256
178
     1
271
     2
272
     2
274
     3
283
     0
284
     8
340
11
345
16
371
    18
1001
ACAD_DSTYLE_DIMJOGGED_JOGANGLE_SYMBOL
1070
   384
1040
1.570796326794896
1001
AcadStringInfo
1000
MIFCodePage
1070
     5
  0
DIMSTYLE
105
7CA
330
A
100
AcDbSymbolTableRecord
100
AcDbDimStyleTableRecord
  2
转换$3
 70
     0
  3
M<>
 41
2.0
 42
0.0
 43
5.0
 44
1.0
 49
1.25
 50
90.0
 73
     0
 77
     1
 78
     8
140
2.5
141
0.0
143
0.03937007874016
147
0.5
171
     3
172
     1
176
   256
178
     1
271
     2
272
     2
274
     3
283
     0
284
     8
340
11
345
16
371
    18
1001
ACAD_DSTYLE_DIMJOGGED_JOGANGLE_SYMBOL
1070
   384
1040
1.570796326794896
1001
AcadStringInfo
1000
MIFCodePage
1070
     5
  0
ENDTAB
  0
TABLE
  2
BLOCK_RECORD
  5
1
330
0
100
AcDbSymbolTable
 70
    13
  0
BLOCK_RECORD
  5
207
102
{ACAD_XDICTIONARY
360
7A1
102
}
330
1
100
AcDbSymbolTableRecord
100
AcDbBlockTableRecord
  2
*Model_Space
340
6D6
 70
     0
280
     1
281
     0
  0
BLOCK_RECORD
  5
208
330
1
100
AcDbSymbolTableRecord
100
AcDbBlockTableRecord
  2
*Paper_Space
340
6D7
 70
     0
280
     1
281
     0
  0
BLOCK_RECORD
  5
7ED
330
1
100
AcDbSymbolTableRecord
100
AcDbBlockTableRecord
  2
*D0
340
0
 70
     0
280
     1
281
     0
  0
BLOCK_RECORD
  5
805
330
1
100
AcDbSymbolTableRecord
100
AcDbBlockTableRecord
  2
*D1
340
0
 70
     0
280
     1
281
     0
  0
BLOCK_RECORD
  5
81D
330
1
100
AcDbSymbolTableRecord
100
AcDbBlockTableRecord
  2
*D2
340
0
 70
     0
280
     1
281
     0
  0
BLOCK_RECORD
  5
835
330
1
100
AcDbSymbolTableRecord
100
AcDbBlockTableRecord
  2
*D3
340
0
 70
     0
280
     1
281
     0
  0
BLOCK_RECORD
  5
84D
330
1
100
AcDbSymbolTableRecord
100
AcDbBlockTableRecord
  2
*D4
340
0
 70
     0
280
     1
281
     0
  0
BLOCK_RECORD
  5
865
330
1
100
AcDbSymbolTableRecord
100
AcDbBlockTableRecord
  2
*D5
340
0
 70
     0
280
     1
281
     0
  0
BLOCK_RECORD
  5
87E
330
1
100
AcDbSymbolTableRecord
100
AcDbBlockTableRecord
  2
*D6
340
0
 70
     0
280
     1
281
     0
  0
BLOCK_RECORD
  5
896
330
1
100
AcDbSymbolTableRecord
100
AcDbBlockTableRecord
  2
*D7
340
0
 70
     0
280
     1
281
     0
  0
BLOCK_RECORD
  5
8AE
330
1
100
AcDbSymbolTableRecord
100
AcDbBlockTableRecord
  2
*D8
340
0
 70
     0
280
     1
281
     0
  0
BLOCK_RECORD
  5
8C6
330
1
100
AcDbSymbolTableRecord
100
AcDbBlockTableRecord
  2
*D9
340
0
 70
     0
280
     1
281
     0
  0
BLOCK_RECORD
  5
8E9
330
1
100
AcDbSymbolTableRecord
100
AcDbBlockTableRecord
  2
*D10
340
0
 70
     0
280
     1
281
     0
  0
BLOCK_RECORD
  5
9C8
330
1
100
AcDbSymbolTableRecord
100
AcDbBlockTableRecord
  2
*D11
340
0
 70
     0
280
     1
281
     0
  0
BLOCK_RECORD
  5
9E0
330
1
100
AcDbSymbolTableRecord
100
AcDbBlockTableRecord
  2
*D12
340
0
 70
     0
280
     1
281
     0
  0
ENDTAB
  0
ENDSEC
  0
SECTION
  2
BLOCKS
  0
BLOCK
  5
20
330
207
100
AcDbEntity
  8
0
100
AcDbBlockBegin
  2
*Model_Space
 70
     0
 10
0.0
 20
0.0
 30
0.0
  3
*Model_Space
  1

  0
ENDBLK
  5
21
330
207
100
AcDbEntity
  8
0
100
AcDbBlockEnd
  0
BLOCK
  5
1C
330
208
100
AcDbEntity
 67
     1
  8
0
100
AcDbBlockBegin
  2
*Paper_Space
 70
     0
 10
0.0
 20
0.0
 30
0.0
  3
*Paper_Space
  1

  0
ENDBLK
  5
1D
330
208
100
AcDbEntity
 67
     1
  8
0
100
AcDbBlockEnd
  0
BLOCK
  5
7EE
330
7ED
100
AcDbEntity
  8
0
100
AcDbBlockBegin
  2
*D0
 70
     1
 10
0.0
 20
0.0
 30
0.0
  3
*D0
  1

  0
LINE
  5
7FA
330
7ED
100
AcDbEntity
  8
尺寸线
 62
     0
440
 16777216
370
    -2
100
AcDbLine
 10
870.0370663412
 20
1257.9451082511
 30
0.0
 11
687.4400660402534
 21
1257.9451082511
 31
0.0
  0
LINE
  5
7FB
330
7ED
100
AcDbEntity
  8
尺寸线
 62
     0
440
 16777216
370
    -2
100
AcDbLine
 10
870.0370663412
 20
760.9451082511
 30
0.0
 11
687.4400660402533
 21
760.9451082511001
 31
0.0
  0
LINE
  5
7FC
330
7ED
100
AcDbEntity
  8
尺寸线
  6
Continuous
440
 16777216
370
    18
100
AcDbLine
 10
690.4400660402534
 20
1249.9451082511
 30
0.0
 11
690.4400660402534
 21
768.9451082511001
 31
0.0
  0
SOLID
  5
7FD
330
7ED
100
AcDbEntity
  8
尺寸线
440
 16777216
100
AcDbTrace
 10
689.10673270692
 20
1249.9451082511
 30
0.0
 11
691.7733993735867
 21
1249.9451082511
 31
0.0
 12
690.4400660402534
 22
1257.9451082511
 32
0.0
 13
690.4400660402534
 23
1257.9451082511
 33
0.0
  0
SOLID
  5
7FE
330
7ED
100
AcDbEntity
  8
尺寸线
440
 16777216
100
AcDbTrace
 10
689.10673270692
 20
768.9451082511001
 30
0.0
 11
691.7733993735867
 21
768.9451082511001
 31
0.0
 12
690.4400660402533
 22
760.9451082511001
 32
0.0
 13
690.4400660402533
 23
760.9451082511001
 33
0.0
  0
MTEXT
  5
7FF
330
7ED
100
AcDbEntity
  8
尺寸线
 62
     1
440
 16777216
100
AcDbMText
 10
682.4400660402533
 20
1009.4451082511
 30
0.0
 40
10.0
 41
0.0
 46
0.0
 71
     5
 72
     1
  1
497
 11
0.0000000000000001
 21
1.0
 31
0.0
 73
     1
 44
1.0
  0
POINT
  5
800
330
7ED
100
AcDbEntity
  8
Defpoints
 62
     0
440
 16777216
100
AcDbPoint
 10
870.0370663412
 20
1257.9451082511
 30
0.0
  0
POINT
  5
801
330
7ED
100
AcDbEntity
  8
Defpoints
 62
     0
440
 16777216
100
AcDbPoint
 10
870.0370663412
 20
760.9451082511
 30
0.0
  0
POINT
  5
802
330
7ED
100
AcDbEntity
  8
Defpoints
 62
     0
440
 16777216
100
AcDbPoint
 10
690.4400660402533
 20
760.9451082511001
 30
0.0
  0
ENDBLK
  5
7EF
330
7ED
100
AcDbEntity
  8
0
100
AcDbBlockEnd
  0
BLOCK
  5
806
330
805
100
AcDbEntity
  8
0
100
AcDbBlockBegin
  2
*D1
 70
     1
 10
0.0
 20
0.0
 30
0.0
  3
*D1
  1

  0
LINE
  5
812
330
805
100
AcDbEntity
  8
尺寸线
 62
     0
440
 16777216
370
    -2
100
AcDbLine
 10
745.0370663412
 20
885.9451082511
 30
0.0
 11
745.0370663412
 21
651.6513138335658
 31
0.0
  0
LINE
  5
813
330
805
100
AcDbEntity
  8
尺寸线
 62
     0
440
 16777216
370
    -2
100
AcDbLine
 10
1755.0370663412
 20
885.9451082511
 30
0.0
 11
1755.0370663412
 21
651.6513138335658
 31
0.0
  0
LINE
  5
814
330
805
100
AcDbEntity
  8
尺寸线
  6
Continuous
440
 16777216
370
    18
100
AcDbLine
 10
753.0370663412
 20
654.6513138335658
 30
0.0
 11
1747.0370663412
 21
654.6513138335658
 31
0.0
  0
SOLID
  5
815
330
805
100
AcDbEntity
  8
尺寸线
440
 16777216
100
AcDbTrace
 10
753.0370663412
 20
655.9846471668992
 30
0.0
 11
753.0370663412
 21
653.3179805002324
 31
0.0
 12
745.0370663412
 22
654.6513138335658
 32
0.0
 13
745.0370663412
 23
654.6513138335658
 33
0.0
  0
SOLID
  5
816
330
805
100
AcDbEntity
  8
尺寸线
440
 16777216
100
AcDbTrace
 10
1747.0370663412
 20
655.9846471668992
 30
0.0
 11
1747.0370663412
 21
653.3179805002324
 31
0.0
 12
1755.0370663412
 22
654.6513138335658
 32
0.0
 13
1755.0370663412
 23
654.6513138335658
 33
0.0
  0
MTEXT
  5
817
330
805
100
AcDbEntity
  8
尺寸线
 62
     1
440
 16777216
100
AcDbMText
 10
1250.0370663412
 20
662.6513138335658
 30
0.0
 40
10.0
 41
0.0
 46
0.0
 71
     5
 72
     1
  1
1010
 73
     1
 44
1.0
  0
POINT
  5
818
330
805
100
AcDbEntity
  8
Defpoints
 62
     0
440
 16777216
100
AcDbPoint
 10
745.0370663412
 20
885.9451082511
 30
0.0
  0
POINT
  5
819
330
805
100
AcDbEntity
  8
Defpoints
 62
     0
440
 16777216
100
AcDbPoint
 10
1755.0370663412
 20
885.9451082511
 30
0.0
  0
POINT
  5
81A
330
805
100
AcDbEntity
  8
Defpoints
 62
     0
440
 16777216
100
AcDbPoint
 10
1755.0370663412
 20
654.6513138335658
 30
0.0
  0
ENDBLK
  5
807
330
805
100
AcDbEntity
  8
0
100
AcDbBlockEnd
  0
BLOCK
  5
81E
330
81D
100
AcDbEntity
  8
0
100
AcDbBlockBegin
  2
*D2
 70
     1
 10
0.0
 20
0.0
 30
0.0
  3
*D2
  1

  0
LINE
  5
82A
330
81D
100
AcDbEntity
  8
尺寸线
 62
     0
440
 16777216
370
    -2
100
AcDbLine
 10
790.0370663411999
 20
886.9451082511
 30
0.0
 11
790.0370663411999
 21
708.9880754100022
 31
0.0
  0
LINE
  5
82B
330
81D
100
AcDbEntity
  8
尺寸线
 62
     0
440
 16777216
370
    -2
100
AcDbLine
 10
1145.0370663412
 20
886.9451082511
 30
0.0
 11
1145.0370663412
 21
708.9880754100022
 31
0.0
  0
LINE
  5
82C
330
81D
100
AcDbEntity
  8
尺寸线
  6
Continuous
440
 16777216
370
    18
100
AcDbLine
 10
798.0370663411999
 20
711.9880754100022
 30
0.0
 11
1137.0370663412
 21
711.9880754100022
 31
0.0
  0
SOLID
  5
82D
330
81D
100
AcDbEntity
  8
尺寸线
440
 16777216
100
AcDbTrace
 10
798.0370663411999
 20
713.3214087433356
 30
0.0
 11
798.0370663411999
 21
710.6547420766688
 31
0.0
 12
790.0370663411999
 22
711.9880754100022
 32
0.0
 13
790.0370663411999
 23
711.9880754100022
 33
0.0
  0
SOLID
  5
82E
330
81D
100
AcDbEntity
  8
尺寸线
440
 16777216
100
AcDbTrace
 10
1137.0370663412
 20
713.3214087433356
 30
0.0
 11
1137.0370663412
 21
710.6547420766688
 31
0.0
 12
1145.0370663412
 22
711.9880754100022
 32
0.0
 13
1145.0370663412
 23
711.9880754100022
 33
0.0
  0
MTEXT
  5
82F
330
81D
100
AcDbEntity
  8
尺寸线
 62
     1
440
 16777216
100
AcDbMText
 10
967.5370663412
 20
719.9880754100022
 30
0.0
 40
10.0
 41
0.0
 46
0.0
 71
     5
 72
     1
  1
355
 73
     1
 44
1.0
  0
POINT
  5
830
330
81D
100
AcDbEntity
  8
Defpoints
 62
     0
440
 16777216
100
AcDbPoint
 10
790.0370663411999
 20
886.9451082511
 30
0.0
  0
POINT
  5
831
330
81D
100
AcDbEntity
  8
Defpoints
 62
     0
440
 16777216
100
AcDbPoint
 10
1145.0370663412
 20
886.9451082511
 30
0.0
  0
POINT
  5
832
330
81D
100
AcDbEntity
  8
Defpoints
 62
     0
440
 16777216
100
AcDbPoint
 10
1145.0370663412
 20
711.9880754100022
 30
0.0
  0
ENDBLK
  5
81F
330
81D
100
AcDbEntity
  8
0
100
AcDbBlockEnd
  0
BLOCK
  5
836
330
835
100
AcDbEntity
  8
0
100
AcDbBlockBegin
  2
*D3
 70
     1
 10
0.0
 20
0.0
 30
0.0
  3
*D3
  1

  0
LINE
  5
842
330
835
100
AcDbEntity
  8
尺寸线
 62
     0
440
 16777216
370
    -2
100
AcDbLine
 10
870.0370663412
 20
806.9451082510999
 30
0.0
 11
710.2174200562276
 21
806.9451082511001
 31
0.0
  0
LINE
  5
843
330
835
100
AcDbEntity
  8
尺寸线
 62
     0
440
 16777216
370
    -2
100
AcDbLine
 10
870.0370663412
 20
1211.9451082511
 30
0.0
 11
710.2174200562276
 21
1211.9451082511
 31
0.0
  0
LINE
  5
844
330
835
100
AcDbEntity
  8
尺寸线
  6
Continuous
440
 16777216
370
    18
100
AcDbLine
 10
713.2174200562276
 20
814.9451082511001
 30
0.0
 11
713.2174200562276
 21
1203.9451082511
 31
0.0
  0
SOLID
  5
845
330
835
100
AcDbEntity
  8
尺寸线
440
 16777216
100
AcDbTrace
 10
711.8840867228942
 20
814.9451082511001
 30
0.0
 11
714.550753389561
 21
814.9451082511001
 31
0.0
 12
713.2174200562276
 22
806.9451082511001
 32
0.0
 13
713.2174200562276
 23
806.9451082511001
 33
0.0
  0
SOLID
  5
846
330
835
100
AcDbEntity
  8
尺寸线
440
 16777216
100
AcDbTrace
 10
711.8840867228942
 20
1203.9451082511
 30
0.0
 11
714.550753389561
 21
1203.9451082511
 31
0.0
 12
713.2174200562276
 22
1211.9451082511
 32
0.0
 13
713.2174200562276
 23
1211.9451082511
 33
0.0
  0
MTEXT
  5
847
330
835
100
AcDbEntity
  8
尺寸线
 62
     1
440
 16777216
100
AcDbMText
 10
705.2174200562275
 20
1009.4451082511
 30
0.0
 40
10.0
 41
0.0
 46
0.0
 71
     5
 72
     1
  1
405
 11
0.0000000000000001
 21
1.0
 31
0.0
 73
     1
 44
1.0
  0
POINT
  5
848
330
835
100
AcDbEntity
  8
Defpoints
 62
     0
440
 16777216
100
AcDbPoint
 10
870.0370663412
 20
806.9451082510999
 30
0.0
  0
POINT
  5
849
330
835
100
AcDbEntity
  8
Defpoints
 62
     0
440
 16777216
100
AcDbPoint
 10
870.0370663412
 20
1211.9451082511
 30
0.0
  0
POINT
  5
84A
330
835
100
AcDbEntity
  8
Defpoints
 62
     0
440
 16777216
100
AcDbPoint
 10
713.2174200562276
 20
1211.9451082511
 30
0.0
  0
ENDBLK
  5
837
330
835
100
AcDbEntity
  8
0
100
AcDbBlockEnd
  0
BLOCK
  5
84E
330
84D
100
AcDbEntity
  8
0
100
AcDbBlockBegin
  2
*D4
 70
     1
 10
0.0
 20
0.0
 30
0.0
  3
*D4
  1

  0
LINE
  5
85A
330
84D
100
AcDbEntity
  8
尺寸线
 62
     0
440
 16777216
370
    -2
100
AcDbLine
 10
1180.0370663412
 20
919.4451082510999
 30
0.0
 11
1180.0370663412
 21
711.4105149986308
 31
0.0
  0
LINE
  5
85B
330
84D
100
AcDbEntity
  8
尺寸线
 62
     0
440
 16777216
370
    -2
100
AcDbLine
 10
1380.0370663412
 20
919.4451082510999
 30
0.0
 11
1380.0370663412
 21
711.4105149986308
 31
0.0
  0
LINE
  5
85C
330
84D
100
AcDbEntity
  8
尺寸线
  6
Continuous
440
 16777216
370
    18
100
AcDbLine
 10
1188.0370663412
 20
714.4105149986308
 30
0.0
 11
1372.0370663412
 21
714.4105149986308
 31
0.0
  0
SOLID
  5
85D
330
84D
100
AcDbEntity
  8
尺寸线
440
 16777216
100
AcDbTrace
 10
1188.0370663412
 20
715.7438483319642
 30
0.0
 11
1188.0370663412
 21
713.0771816652973
 31
0.0
 12
1180.0370663412
 22
714.4105149986308
 32
0.0
 13
1180.0370663412
 23
714.4105149986308
 33
0.0
  0
SOLID
  5
85E
330
84D
100
AcDbEntity
  8
尺寸线
440
 16777216
100
AcDbTrace
 10
1372.0370663412
 20
715.7438483319642
 30
0.0
 11
1372.0370663412
 21
713.0771816652973
 31
0.0
 12
1380.0370663412
 22
714.4105149986308
 32
0.0
 13
1380.0370663412
 23
714.4105149986308
 33
0.0
  0
MTEXT
  5
85F
330
84D
100
AcDbEntity
  8
尺寸线
 62
     1
440
 16777216
100
AcDbMText
 10
1280.0370663412
 20
722.4105149986307
 30
0.0
 40
10.0
 41
0.0
 46
0.0
 71
     5
 72
     1
  1
200
 73
     1
 44
1.0
  0
POINT
  5
860
330
84D
100
AcDbEntity
  8
Defpoints
 62
     0
440
 16777216
100
AcDbPoint
 10
1180.0370663412
 20
919.4451082510999
 30
0.0
  0
POINT
  5
861
330
84D
100
AcDbEntity
  8
Defpoints
 62
     0
440
 16777216
100
AcDbPoint
 10
1380.0370663412
 20
919.4451082510999
 30
0.0
  0
POINT
  5
862
330
84D
100
AcDbEntity
  8
Defpoints
 62
     0
440
 16777216
100
AcDbPoint
 10
1380.0370663412
 20
714.4105149986308
 30
0.0
  0
ENDBLK
  5
84F
330
84D
100
AcDbEntity
  8
0
100
AcDbBlockEnd
  0
BLOCK
  5
866
330
865
100
AcDbEntity
  8
0
100
AcDbBlockBegin
  2
*D5
 70
     1
 10
0.0
 20
0.0
 30
0.0
  3
*D5
  1

  0
LINE
  5
872
330
865
100
AcDbEntity
  8
尺寸线
 62
     0
440
 16777216
370
    -2
100
AcDbLine
 10
1240.0370663412
 20
859.4451082511
 30
0.0
 11
729.4518450514388
 21
859.4451082511001
 31
0.0
  0
LINE
  5
873
330
865
100
AcDbEntity
  8
尺寸线
 62
     0
440
 16777216
370
    -2
100
AcDbLine
 10
1240.0370663412
 20
1159.4451082511
 30
0.0
 11
729.4518450514388
 21
1159.4451082511
 31
0.0
  0
LINE
  5
874
330
865
100
AcDbEntity
  8
尺寸线
  6
Continuous
440
 16777216
370
    18
100
AcDbLine
 10
732.4518450514387
 20
867.4451082511001
 30
0.0
 11
732.4518450514387
 21
1151.4451082511
 31
0.0
  0
SOLID
  5
875
330
865
100
AcDbEntity
  8
尺寸线
440
 16777216
100
AcDbTrace
 10
731.1185117181054
 20
867.4451082511001
 30
0.0
 11
733.7851783847721
 21
867.4451082511001
 31
0.0
 12
732.4518450514387
 22
859.4451082511001
 32
0.0
 13
732.4518450514387
 23
859.4451082511001
 33
0.0
  0
SOLID
  5
876
330
865
100
AcDbEntity
  8
尺寸线
440
 16777216
100
AcDbTrace
 10
731.1185117181054
 20
1151.4451082511
 30
0.0
 11
733.7851783847721
 21
1151.4451082511
 31
0.0
 12
732.4518450514387
 22
1159.4451082511
 32
0.0
 13
732.4518450514387
 23
1159.4451082511
 33
0.0
  0
MTEXT
  5
877
330
865
100
AcDbEntity
  8
尺寸线
 62
     1
440
 16777216
100
AcDbMText
 10
724.4518450514386
 20
1009.4451082511
 30
0.0
 40
10.0
 41
0.0
 46
0.0
 71
     5
 72
     1
  1
300
 11
0.0000000000000001
 21
1.0
 31
0.0
 73
     1
 44
1.0
  0
POINT
  5
878
330
865
100
AcDbEntity
  8
Defpoints
 62
     0
440
 16777216
100
AcDbPoint
 10
1240.0370663412
 20
859.4451082511
 30
0.0
  0
POINT
  5
879
330
865
100
AcDbEntity
  8
Defpoints
 62
     0
440
 16777216
100
AcDbPoint
 10
1240.0370663412
 20
1159.4451082511
 30
0.0
  0
POINT
  5
87A
330
865
100
AcDbEntity
  8
Defpoints
 62
     0
440
 16777216
100
AcDbPoint
 10
732.4518450514387
 20
1159.4451082511
 30
0.0
  0
ENDBLK
  5
867
330
865
100
AcDbEntity
  8
0
100
AcDbBlockEnd
  0
BLOCK
  5
87F
330
87E
100
AcDbEntity
  8
0
100
AcDbBlockBegin
  2
*D6
 70
     1
 10
0.0
 20
0.0
 30
0.0
  3
*D6
  1

  0
LINE
  5
88B
330
87E
100
AcDbEntity
  8
尺寸线
  6
Continuous
440
 16777216
370
    18
100
AcDbLine
 10
1261.151229915496
 20
1138.81698300486
 30
0.0
 11
1239.484563248829
 21
1138.81698300486
 31
0.0
  0
LINE
  5
88C
330
87E
100
AcDbEntity
  8
尺寸线
  6
Continuous
440
 16777216
370
    18
100
AcDbLine
 10
1239.484563248829
 20
1138.81698300486
 30
0.0
 11
1197.876067080146
 21
1194.074417140324
 31
0.0
  0
LINE
  5
88D
330
87E
100
AcDbEntity
  8
尺寸线
  6
Continuous
440
 16777216
370
    18
100
AcDbLine
 10
1167.198065602254
 20
1234.815799361875
 30
0.0
 11
1162.385830076311
 21
1241.206604416236
 31
0.0
  0
MTEXT
  5
88E
102
{ACAD_XDICTIONARY
360
A83
102
}
330
87E
100
AcDbEntity
  8
尺寸线
 62
     1
440
 16777216
100
AcDbMText
 10
1251.817896582162
 20
1146.81698300486
 30
0.0
 40
10.0
 41
0.0
 46
0.0
 71
     5
 72
     1
  1
∅35
 73
     1
 44
1.0
  0
LINE
  5
88F
330
87E
100
AcDbEntity
  8
尺寸线
  6
Continuous
440
 16777216
370
    18
100
AcDbLine
 10
1172.010301128198
 20
1228.424994307514
 30
0.0
 11
1193.063831554202
 21
1200.465222194685
 31
0.0
  0
SOLID
  5
890
330
87E
100
AcDbEntity
  8
尺寸线
440
 16777216
100
AcDbTrace
 10
1168.263199777981
 20
1235.617838616199
 30
0.0
 11
1166.132931426528
 21
1234.013760107552
 31
0.0
 12
1172.010301128198
 22
1228.424994307514
 32
0.0
 13
1172.010301128198
 23
1228.424994307514
 33
0.0
  0
SOLID
  5
891
330
87E
100
AcDbEntity
  8
尺寸线
440
 16777216
100
AcDbTrace
 10
1198.941201255872
 20
1194.876456394649
 30
0.0
 11
1196.810932904419
 21
1193.272377886001
 31
0.0
 12
1193.063831554202
 22
1200.465222194685
 32
0.0
 13
1193.063831554202
 23
1200.465222194685
 33
0.0
  0
POINT
  5
892
330
87E
100
AcDbEntity
  8
Defpoints
 62
     0
440
 16777216
100
AcDbPoint
 10
1193.063831554202
 20
1200.465222194685
 30
0.0
  0
POINT
  5
893
330
87E
100
AcDbEntity
  8
Defpoints
 62
     0
440
 16777216
100
AcDbPoint
 10
1172.010301128198
 20
1228.424994307514
 30
0.0
  0
ENDBLK
  5
880
330
87E
100
AcDbEntity
  8
0
100
AcDbBlockEnd
  0
BLOCK
  5
897
330
896
100
AcDbEntity
  8
0
100
AcDbBlockBegin
  2
*D7
 70
     1
 10
0.0
 20
0.0
 30
0.0
  3
*D7
  1

  0
LINE
  5
8A3
330
896
100
AcDbEntity
  8
尺寸线
 62
     0
440
 16777216
370
    -2
100
AcDbLine
 10
1182.5370663412
 20
1214.4451082511
 30
0.0
 11
1266.160909763348
 21
1214.4451082511
 31
0.0
  0
LINE
  5
8A4
330
896
100
AcDbEntity
  8
尺寸线
 62
     0
440
 16777216
370
    -2
100
AcDbLine
 10
1250.0370663412
 20
1257.9451082511
 30
0.0
 11
1266.160909763348
 21
1257.9451082511
 31
0.0
  0
LINE
  5
8A5
330
896
100
AcDbEntity
  8
尺寸线
  6
Continuous
440
 16777216
370
    18
100
AcDbLine
 10
1263.160909763348
 20
1222.4451082511
 30
0.0
 11
1263.160909763348
 21
1249.9451082511
 31
0.0
  0
SOLID
  5
8A6
330
896
100
AcDbEntity
  8
尺寸线
440
 16777216
100
AcDbTrace
 10
1261.827576430015
 20
1222.4451082511
 30
0.0
 11
1264.494243096681
 21
1222.4451082511
 31
0.0
 12
1263.160909763348
 22
1214.4451082511
 32
0.0
 13
1263.160909763348
 23
1214.4451082511
 33
0.0
  0
SOLID
  5
8A7
330
896
100
AcDbEntity
  8
尺寸线
440
 16777216
100
AcDbTrace
 10
1261.827576430015
 20
1249.9451082511
 30
0.0
 11
1264.494243096681
 21
1249.9451082511
 31
0.0
 12
1263.160909763348
 22
1257.9451082511
 32
0.0
 13
1263.160909763348
 23
1257.9451082511
 33
0.0
  0
MTEXT
  5
8A8
330
896
100
AcDbEntity
  8
尺寸线
 62
     1
440
 16777216
100
AcDbMText
 10
1255.160909763348
 20
1236.1951082511
 30
0.0
 40
10.0
 41
0.0
 46
0.0
 71
     5
 72
     1
  1
43.5
 11
0.0000000000000001
 21
1.0
 31
0.0
 73
     1
 44
1.0
  0
POINT
  5
8A9
330
896
100
AcDbEntity
  8
Defpoints
 62
     0
440
 16777216
100
AcDbPoint
 10
1182.5370663412
 20
1214.4451082511
 30
0.0
  0
POINT
  5
8AA
330
896
100
AcDbEntity
  8
Defpoints
 62
     0
440
 16777216
100
AcDbPoint
 10
1250.0370663412
 20
1257.9451082511
 30
0.0
  0
POINT
  5
8AB
330
896
100
AcDbEntity
  8
Defpoints
 62
     0
440
 16777216
100
AcDbPoint
 10
1263.160909763348
 20
1257.9451082511
 30
0.0
  0
ENDBLK
  5
898
330
896
100
AcDbEntity
  8
0
100
AcDbBlockEnd
  0
BLOCK
  5
8AF
330
8AE
100
AcDbEntity
  8
0
100
AcDbBlockBegin
  2
*D8
 70
     1
 10
0.0
 20
0.0
 30
0.0
  3
*D8
  1

  0
LINE
  5
8BB
330
8AE
100
AcDbEntity
  8
尺寸线
 62
     0
440
 16777216
370
    -2
100
AcDbLine
 10
1182.5370663412
 20
1214.4451082511
 30
0.0
 11
1182.5370663412
 21
1297.444358944373
 31
0.0
  0
LINE
  5
8BC
330
8AE
100
AcDbEntity
  8
尺寸线
 62
     0
440
 16777216
370
    -2
100
AcDbLine
 10
745.0370663412
 20
1132.9451082511
 30
0.0
 11
745.0370663412
 21
1297.444358944373
 31
0.0
  0
LINE
  5
8BD
330
8AE
100
AcDbEntity
  8
尺寸线
  6
Continuous
440
 16777216
370
    18
100
AcDbLine
 10
1174.5370663412
 20
1294.444358944373
 30
0.0
 11
753.0370663412
 21
1294.444358944373
 31
0.0
  0
SOLID
  5
8BE
330
8AE
100
AcDbEntity
  8
尺寸线
440
 16777216
100
AcDbTrace
 10
1174.5370663412
 20
1295.777692277707
 30
0.0
 11
1174.5370663412
 21
1293.11102561104
 31
0.0
 12
1182.5370663412
 22
1294.444358944373
 32
0.0
 13
1182.5370663412
 23
1294.444358944373
 33
0.0
  0
SOLID
  5
8BF
330
8AE
100
AcDbEntity
  8
尺寸线
440
 16777216
100
AcDbTrace
 10
753.0370663412
 20
1295.777692277707
 30
0.0
 11
753.0370663412
 21
1293.11102561104
 31
0.0
 12
745.0370663412
 22
1294.444358944373
 32
0.0
 13
745.0370663412
 23
1294.444358944373
 33
0.0
  0
MTEXT
  5
8C0
330
8AE
100
AcDbEntity
  8
尺寸线
 62
     1
440
 16777216
100
AcDbMText
 10
963.7870663412
 20
1302.444358944373
 30
0.0
 40
10.0
 41
0.0
 46
0.0
 71
     5
 72
     1
  1
437.5
 73
     1
 44
1.0
  0
POINT
  5
8C1
330
8AE
100
AcDbEntity
  8
Defpoints
 62
     0
440
 16777216
100
AcDbPoint
 10
1182.5370663412
 20
1214.4451082511
 30
0.0
  0
POINT
  5
8C2
330
8AE
100
AcDbEntity
  8
Defpoints
 62
     0
440
 16777216
100
AcDbPoint
 10
745.0370663412
 20
1132.9451082511
 30
0.0
  0
POINT
  5
8C3
330
8AE
100
AcDbEntity
  8
Defpoints
 62
     0
440
 16777216
100
AcDbPoint
 10
745.0370663412
 20
1294.444358944373
 30
0.0
  0
ENDBLK
  5
8B0
330
8AE
100
AcDbEntity
  8
0
100
AcDbBlockEnd
  0
BLOCK
  5
8C7
330
8C6
100
AcDbEntity
  8
0
100
AcDbBlockBegin
  2
*D9
 70
     1
 10
0.0
 20
0.0
 30
0.0
  3
*D9
  1

  0
LINE
  5
A39
330
8C6
100
AcDbEntity
  8
尺寸线
 62
     0
440
 16777216
370
    -2
100
AcDbLine
 10
866.1600251786
 20
1415.19458581554
 30
0.0
 11
724.4415531012473
 21
1415.19458581554
 31
0.0
  0
LINE
  5
A3A
330
8C6
100
AcDbEntity
  8
尺寸线
 62
     0
440
 16777216
370
    -2
100
AcDbLine
 10
747.0370663411999
 20
1600.99458581554
 30
0.0
 11
724.4415531012473
 21
1600.99458581554
 31
0.0
  0
LINE
  5
A3B
330
8C6
100
AcDbEntity
  8
尺寸线
  6
Continuous
440
 16777216
370
    18
100
AcDbLine
 10
727.4415531012473
 20
1423.19458581554
 30
0.0
 11
727.4415531012473
 21
1592.99458581554
 31
0.0
  0
SOLID
  5
A3C
330
8C6
100
AcDbEntity
  8
尺寸线
440
 16777216
100
AcDbTrace
 10
726.1082197679139
 20
1423.19458581554
 30
0.0
 11
728.7748864345807
 21
1423.19458581554
 31
0.0
 12
727.4415531012473
 22
1415.19458581554
 32
0.0
 13
727.4415531012473
 23
1415.19458581554
 33
0.0
  0
SOLID
  5
A3D
330
8C6
100
AcDbEntity
  8
尺寸线
440
 16777216
100
AcDbTrace
 10
726.1082197679139
 20
1592.99458581554
 30
0.0
 11
728.7748864345807
 21
1592.99458581554
 31
0.0
 12
727.4415531012473
 22
1600.99458581554
 32
0.0
 13
727.4415531012473
 23
1600.99458581554
 33
0.0
  0
MTEXT
  5
A3E
330
8C6
100
AcDbEntity
  8
尺寸线
 62
     1
440
 16777216
100
AcDbMText
 10
719.4415531012471
 20
1508.09458581554
 30
0.0
 40
10.0
 41
0.0
 46
0.0
 71
     5
 72
     1
  1
185
 11
0.0000000000000001
 21
1.0
 31
0.0
 73
     1
 44
1.0
  0
POINT
  5
A3F
330
8C6
100
AcDbEntity
  8
Defpoints
 62
     0
440
 16777216
100
AcDbPoint
 10
866.1600251786
 20
1415.19458581554
 30
0.0
  0
POINT
  5
A40
330
8C6
100
AcDbEntity
  8
Defpoints
 62
     0
440
 16777216
100
AcDbPoint
 10
747.0370663411999
 20
1600.99458581554
 30
0.0
  0
POINT
  5
A41
330
8C6
100
AcDbEntity
  8
Defpoints
 62
     0
440
 16777216
100
AcDbPoint
 10
727.4415531012473
 20
1600.99458581554
 30
0.0
  0
ENDBLK
  5
8C8
330
8C6
100
AcDbEntity
  8
0
100
AcDbBlockEnd
  0
BLOCK
  5
8EA
330
8E9
100
AcDbEntity
  8
0
100
AcDbBlockBegin
  2
*D10
 70
     1
 10
0.0
 20
0.0
 30
0.0
  3
*D10
  1

  0
LINE
  5
A42
330
8E9
100
AcDbEntity
  8
尺寸线
 62
     0
440
 16777216
370
    -2
100
AcDbLine
 10
1340.3684371911
 20
1455.19458581554
 30
0.0
 11
1778.103415066439
 21
1455.19458581554
 31
0.0
  0
LINE
  5
A43
330
8E9
100
AcDbEntity
  8
尺寸线
 62
     0
440
 16777216
370
    -2
100
AcDbLine
 10
1753.0370663412
 20
1600.99458581554
 30
0.0
 11
1778.10341506644
 21
1600.99458581554
 31
0.0
  0
LINE
  5
A44
330
8E9
100
AcDbEntity
  8
尺寸线
  6
Continuous
440
 16777216
370
    18
100
AcDbLine
 10
1775.10341506644
 20
1463.19458581554
 30
0.0
 11
1775.10341506644
 21
1592.99458581554
 31
0.0
  0
SOLID
  5
A45
330
8E9
100
AcDbEntity
  8
尺寸线
440
 16777216
100
AcDbTrace
 10
1773.770081733107
 20
1463.19458581554
 30
0.0
 11
1776.436748399773
 21
1463.19458581554
 31
0.0
 12
1775.10341506644
 22
1455.19458581554
 32
0.0
 13
1775.10341506644
 23
1455.19458581554
 33
0.0
  0
SOLID
  5
A46
330
8E9
100
AcDbEntity
  8
尺寸线
440
 16777216
100
AcDbTrace
 10
1773.770081733107
 20
1592.99458581554
 30
0.0
 11
1776.436748399773
 21
1592.99458581554
 31
0.0
 12
1775.10341506644
 22
1600.99458581554
 32
0.0
 13
1775.10341506644
 23
1600.99458581554
 33
0.0
  0
MTEXT
  5
A47
330
8E9
100
AcDbEntity
  8
尺寸线
 62
     1
440
 16777216
100
AcDbMText
 10
1767.103415066439
 20
1528.09458581554
 30
0.0
 40
10.0
 41
0.0
 46
0.0
 71
     5
 72
     1
  1
145
 11
0.0000000000000001
 21
1.0
 31
0.0
 73
     1
 44
1.0
  0
POINT
  5
A48
330
8E9
100
AcDbEntity
  8
Defpoints
 62
     0
440
 16777216
100
AcDbPoint
 10
1340.3684371911
 20
1455.19458581554
 30
0.0
  0
POINT
  5
A49
330
8E9
100
AcDbEntity
  8
Defpoints
 62
     0
440
 16777216
100
AcDbPoint
 10
1753.0370663412
 20
1600.99458581554
 30
0.0
  0
POINT
  5
A4A
330
8E9
100
AcDbEntity
  8
Defpoints
 62
     0
440
 16777216
100
AcDbPoint
 10
1775.10341506644
 20
1600.99458581554
 30
0.0
  0
ENDBLK
  5
8EB
330
8E9
100
AcDbEntity
  8
0
100
AcDbBlockEnd
  0
BLOCK
  5
9C9
330
9C8
100
AcDbEntity
  8
0
100
AcDbBlockBegin
  2
*D11
 70
     1
 10
0.0
 20
0.0
 30
0.0
  3
*D11
  1

  0
LINE
  5
9D5
330
9C8
100
AcDbEntity
  8
尺寸线
  6
Continuous
440
 16777216
370
    18
100
AcDbLine
 10
1043.402780548046
 20
935.1793483140427
 30
0.0
 11
1022.902780548045
 21
935.1793483140427
 31
0.0
  0
LINE
  5
9D6
330
9C8
100
AcDbEntity
  8
尺寸线
  6
Continuous
440
 16777216
370
    18
100
AcDbLine
 10
1022.902780548045
 20
935.1793483140427
 30
0.0
 11
999.2147751096693
 21
966.9536647926809
 31
0.0
  0
LINE
  5
9D7
330
9C8
100
AcDbEntity
  8
尺寸线
  6
Continuous
440
 16777216
370
    18
100
AcDbLine
 10
935.8593575727303
 20
1051.936551709519
 30
0.0
 11
931.0778166265462
 21
1058.350354495695
 31
0.0
  0
MTEXT
  5
9D8
102
{ACAD_XDICTIONARY
360
A85
102
}
330
9C8
100
AcDbEntity
  8
尺寸线
 62
     1
440
 16777216
100
AcDbMText
 10
1034.652780548046
 20
943.1793483140429
 30
0.0
 40
10.0
 41
0.0
 46
0.0
 71
     5
 72
     1
  1
∅90
 73
     1
 44
1.0
  0
LINE
  5
9D9
330
9C8
100
AcDbEntity
  8
尺寸线
  6
Continuous
440
 16777216
370
    18
100
AcDbLine
 10
940.6408985189145
 20
1045.522748923342
 30
0.0
 11
994.4332341634853
 21
973.3674675788575
 31
0.0
  0
SOLID
  5
9DA
330
9C8
100
AcDbEntity
  8
尺寸线
440
 16777216
100
AcDbTrace
 10
936.9283247037598
 20
1052.733475200549
 30
0.0
 11
934.7903904417011
 21
1051.139628218488
 31
0.0
 12
940.6408985189145
 22
1045.522748923342
 32
0.0
 13
940.6408985189145
 23
1045.522748923342
 33
0.0
  0
SOLID
  5
9DB
330
9C8
100
AcDbEntity
  8
尺寸线
440
 16777216
100
AcDbTrace
 10
1000.283742240698
 20
967.7505882837115
 30
0.0
 11
998.1458079786401
 21
966.1567413016502
 31
0.0
 12
994.4332341634853
 22
973.3674675788575
 32
0.0
 13
994.4332341634853
 23
973.3674675788575
 33
0.0
  0
POINT
  5
9DC
330
9C8
100
AcDbEntity
  8
Defpoints
 62
     0
440
 16777216
100
AcDbPoint
 10
994.4332341634853
 20
973.3674675788575
 30
0.0
  0
POINT
  5
9DD
330
9C8
100
AcDbEntity
  8
Defpoints
 62
     0
440
 16777216
100
AcDbPoint
 10
940.6408985189145
 20
1045.522748923342
 30
0.0
  0
ENDBLK
  5
9CA
330
9C8
100
AcDbEntity
  8
0
100
AcDbBlockEnd
  0
BLOCK
  5
9E1
330
9E0
100
AcDbEntity
  8
0
100
AcDbBlockBegin
  2
*D12
 70
     1
 10
0.0
 20
0.0
 30
0.0
  3
*D12
  1

  0
LINE
  5
9ED
330
9E0
100
AcDbEntity
  8
尺寸线
  6
Continuous
440
 16777216
370
    18
100
AcDbLine
 10
1196.38740460289
 20
939.0574974004312
 30
0.0
 11
1216.88740460289
 21
939.0574974004316
 31
0.0
  0
LINE
  5
9EE
330
9E0
100
AcDbEntity
  8
尺寸线
  6
Continuous
440
 16777216
370
    18
100
AcDbLine
 10
1216.88740460289
 20
939.0574974004316
 30
0.0
 11
1244.643657835269
 21
969.9950558514862
 31
0.0
  0
LINE
  5
9EF
330
9E0
100
AcDbEntity
  8
尺寸线
  6
Continuous
440
 16777216
370
    18
100
AcDbLine
 10
1315.430474847131
 20
1048.895160650714
 30
0.0
 11
1320.772876131045
 21
1054.849885541222
 31
0.0
  0
MTEXT
  5
9F0
102
{ACAD_XDICTIONARY
360
A87
102
}
330
9E0
100
AcDbEntity
  8
尺寸线
 62
     1
440
 16777216
100
AcDbMText
 10
1205.137404602889
 20
947.0574974004314
 30
0.0
 40
10.0
 41
0.0
 46
0.0
 71
     5
 72
     1
  1
∅90
 73
     1
 44
1.0
  0
LINE
  5
9F1
330
9E0
100
AcDbEntity
  8
尺寸线
  6
Continuous
440
 16777216
370
    18
100
AcDbLine
 10
1310.088073563217
 20
1042.940435760206
 30
0.0
 11
1249.986059119183
 21
975.949780741994
 31
0.0
  0
SOLID
  5
9F2
330
9E0
100
AcDbEntity
  8
尺寸线
440
 16777216
100
AcDbTrace
 10
1314.438020698713
 20
1049.785560864699
 30
0.0
 11
1316.422928995549
 21
1048.004760436728
 31
0.0
 12
1310.088073563217
 22
1042.940435760206
 32
0.0
 13
1310.088073563217
 23
1042.940435760206
 33
0.0
  0
SOLID
  5
9F3
330
9E0
100
AcDbEntity
  8
尺寸线
440
 16777216
100
AcDbTrace
 10
1243.651203686851
 20
970.8854560654719
 30
0.0
 11
1245.636111983687
 21
969.1046556375004
 31
0.0
 12
1249.986059119183
 22
975.949780741994
 32
0.0
 13
1249.986059119183
 23
975.949780741994
 33
0.0
  0
POINT
  5
9F4
330
9E0
100
AcDbEntity
  8
Defpoints
 62
     0
440
 16777216
100
AcDbPoint
 10
1249.986059119183
 20
975.949780741994
 30
0.0
  0
POINT
  5
9F5
330
9E0
100
AcDbEntity
  8
Defpoints
 62
     0
440
 16777216
100
AcDbPoint
 10
1310.088073563217
 20
1042.940435760206
 30
0.0
  0
ENDBLK
  5
9E2
330
9E0
100
AcDbEntity
  8
0
100
AcDbBlockEnd
  0
ENDSEC
  0
SECTION
  2
ENTITIES
  0
LINE
  5
20E
330
207
100
AcDbEntity
  8
0
  6
Continuous
 62
     7
100
AcDbLine
 10
760.0370663411999
 20
1596.49458581554
 30
0.0
 11
760.0370663411999
 21
1580.99458581554
 31
0.0
  0
LINE
  5
20F
330
207
100
AcDbEntity
  8
0
  6
Continuous
 62
     7
100
AcDbLine
 10
760.8370663411999
 20
1580.99458581554
 30
0.0
 11
760.8370663411999
 21
1596.49458581554
 31
0.0
  0
LINE
  5
210
330
207
100
AcDbEntity
  8
0
  6
Continuous
 62
     7
100
AcDbLine
 10
789.9079563374999
 20
1588.17229335624
 30
0.0
 11
795.457054118
 21
1482.28920011354
 31
0.0
  0
LINE
  5
211
330
207
100
AcDbEntity
  8
0
  6
Continuous
 62
     7
100
AcDbLine
 10
870.0370663412
 20
1596.74458581554
 30
0.0
 11
870.0370663412
 21
1595.99458581554
 31
0.0
  0
LINE
  5
212
330
207
100
AcDbEntity
  8
0
  6
Continuous
 62
     7
100
AcDbLine
 10
870.0370663412
 20
1598.99458581554
 30
0.0
 11
870.0370663412
 21
1596.99458581554
 31
0.0
  0
LINE
  5
213
330
207
100
AcDbEntity
  8
0
  6
Continuous
 62
     7
100
AcDbLine
 10
770.7471917389999
 20
1589.72051634274
 30
0.0
 11
764.0024139404999
 21
1598.99458581554
 31
0.0
  0
LINE
  5
214
330
207
100
AcDbEntity
  8
0
  6
Continuous
 62
     7
100
AcDbLine
 10
930.0370663412
 20
1591.99458581554
 30
0.0
 11
930.0370663412
 21
1585.99458581554
 31
0.0
  0
LINE
  5
215
330
207
100
AcDbEntity
  8
0
  6
Continuous
 62
     7
100
AcDbLine
 10
941.0370663411999
 20
1585.99458581554
 30
0.0
 11
941.0370663411999
 21
1591.99458581554
 31
0.0
  0
LINE
  5
216
330
207
100
AcDbEntity
  8
0
  6
Continuous
 62
     7
100
AcDbLine
 10
912.2056954913
 20
1410.19458581554
 30
0.0
 11
907.2056954913
 21
1415.19458581554
 31
0.0
  0
LINE
  5
217
330
207
100
AcDbEntity
  8
0
  6
Continuous
 62
     7
100
AcDbLine
 10
1141.0370663412
 20
1591.99458581554
 30
0.0
 11
1141.0370663412
 21
1585.99458581554
 31
0.0
  0
LINE
  5
218
330
207
100
AcDbEntity
  8
0
  6
Continuous
 62
     7
100
AcDbLine
 10
1145.2338014554
 20
1589.46265733304
 30
0.0
 11
1145.0520475287
 21
1585.99458581554
 31
0.0
  0
LINE
  5
219
330
207
100
AcDbEntity
  8
0
  6
Continuous
 62
     7
100
AcDbLine
 10
1144.7900086323
 20
1580.99458581554
 30
0.0
 11
1139.6170785644
 21
1482.28920011354
 31
0.0
  0
LINE
  5
21A
330
207
100
AcDbEntity
  8
0
  6
Continuous
 62
     7
100
AcDbLine
 10
1180.28412405
 20
1580.99458581554
 30
0.0
 11
1185.3473416682
 21
1484.38263836324
 31
0.0
  0
LINE
  5
21B
330
207
100
AcDbEntity
  8
0
  6
Continuous
 62
     7
100
AcDbLine
 10
1152.0370663412
 20
1585.99458581554
 30
0.0
 11
1152.0370663412
 21
1591.99458581554
 31
0.0
  0
LINE
  5
21C
330
207
100
AcDbEntity
  8
0
  6
Continuous
 62
     7
100
AcDbLine
 10
1022.8684371911
 20
1410.19458581554
 30
0.0
 11
1027.8684371911
 21
1415.19458581554
 31
0.0
  0
LINE
  5
21D
330
207
100
AcDbEntity
  8
0
  6
Continuous
 62
     7
100
AcDbLine
 10
912.2056954913
 20
1410.19458581554
 30
0.0
 11
1022.8684371911
 21
1410.19458581554
 31
0.0
  0
LINE
  5
21E
102
{ACAD_REACTORS
330
8DC
102
}
330
207
100
AcDbEntity
  8
0
  6
Continuous
 62
     7
100
AcDbLine
 10
1068.9141075038
 20
1415.19458581554
 30
0.0
 11
866.1600251786
 21
1415.19458581554
 31
0.0
  0
LINE
  5
21F
330
207
100
AcDbEntity
  8
0
  6
Continuous
 62
     7
100
AcDbLine
 10
1224.7056954913
 20
1450.19458581554
 30
0.0
 11
1335.3684371911
 21
1450.19458581554
 31
0.0
  0
LINE
  5
220
330
207
100
AcDbEntity
  8
0
  6
Continuous
 62
     7
100
AcDbLine
 10
1343.9690013437
 20
1455.19458581554
 30
0.0
 11
1216.1051313387
 21
1455.19458581554
 31
0.0
  0
LINE
  5
221
330
207
100
AcDbEntity
  8
0
  6
Continuous
 62
     7
100
AcDbLine
 10
1224.7056954913
 20
1450.19458581554
 30
0.0
 11
1219.7056954913
 21
1455.19458581554
 31
0.0
  0
LINE
  5
222
330
207
100
AcDbEntity
  8
0
  6
Continuous
 62
     7
100
AcDbLine
 10
1348.0370663412
 20
1591.99458581554
 30
0.0
 11
1348.0370663412
 21
1585.99458581554
 31
0.0
  0
LINE
  5
223
102
{ACAD_REACTORS
330
8FF
102
}
330
207
100
AcDbEntity
  8
0
  6
Continuous
 62
     7
100
AcDbLine
 10
1335.3684371911
 20
1450.19458581554
 30
0.0
 11
1340.3684371911
 21
1455.19458581554
 31
0.0
  0
LINE
  5
224
330
207
100
AcDbEntity
  8
0
  6
Continuous
 62
     7
100
AcDbLine
 10
770.7471917389999
 20
1589.72051634274
 30
0.0
 11
872.7916809387
 21
1590.08758285064
 31
0.0
  0
LINE
  5
225
330
207
100
AcDbEntity
  8
0
  6
Continuous
 62
     7
100
AcDbLine
 10
930.0431852702999
 20
1590.29352351374
 30
0.0
 11
941.0430429399999
 21
1590.33309134704
 31
0.0
  0
LINE
  5
226
330
207
100
AcDbEntity
  8
0
  6
Continuous
 62
     7
100
AcDbLine
 10
1141.0404551157
 20
1591.05250649874
 30
0.0
 11
1152.0403127854
 21
1591.09207433214
 31
0.0
  0
LINE
  5
227
330
207
100
AcDbEntity
  8
0
  6
Continuous
 62
     7
100
AcDbLine
 10
1348.0377767176
 20
1591.79710118074
 30
0.0
 11
1359.0376343872
 21
1591.83666901414
 31
0.0
  0
LINE
  5
228
330
207
100
AcDbEntity
  8
0
  6
Continuous
 62
     7
100
AcDbLine
 10
1628.7472099082
 20
1592.80684734334
 30
0.0
 11
1731.8412484823
 21
1593.17768920874
 31
0.0
  0
LINE
  5
229
330
207
100
AcDbEntity
  8
0
  6
Continuous
 62
     7
100
AcDbLine
 10
760.0370663411999
 20
1580.99458581554
 30
0.0
 11
760.8370663411999
 21
1580.99458581554
 31
0.0
  0
LINE
  5
22A
330
207
100
AcDbEntity
  8
0
  6
Continuous
 62
     7
100
AcDbLine
 10
889.4019830721999
 20
1580.99458581554
 30
0.0
 11
1610.6721496101
 21
1580.99458581554
 31
0.0
  0
LINE
  5
22B
330
207
100
AcDbEntity
  8
0
  6
Continuous
 62
     7
100
AcDbLine
 10
1739.2370663412
 20
1580.99458581554
 30
0.0
 11
1740.0370663412
 21
1580.99458581554
 31
0.0
  0
LINE
  5
22C
330
207
100
AcDbEntity
  8
0
  6
Continuous
 62
     7
100
AcDbLine
 10
930.0370663412
 20
1585.99458581554
 30
0.0
 11
941.0370663411999
 21
1585.99458581554
 31
0.0
  0
LINE
  5
22D
330
207
100
AcDbEntity
  8
0
  6
Continuous
 62
     7
100
AcDbLine
 10
1141.0370663412
 20
1585.99458581554
 30
0.0
 11
1152.0370663412
 21
1585.99458581554
 31
0.0
  0
LINE
  5
22E
330
207
100
AcDbEntity
  8
0
  6
Continuous
 62
     7
100
AcDbLine
 10
1348.0370663412
 20
1585.99458581554
 30
0.0
 11
1359.0370663412
 21
1585.99458581554
 31
0.0
  0
LINE
  5
22F
330
207
100
AcDbEntity
  8
0
  6
Continuous
 62
     7
100
AcDbLine
 10
1559.0370663412
 20
1585.99458581554
 30
0.0
 11
1570.0370663412
 21
1585.99458581554
 31
0.0
  0
LINE
  5
230
330
207
100
AcDbEntity
  8
0
  6
Continuous
 62
     7
100
AcDbLine
 10
1570.0370663412
 20
1591.99458581554
 30
0.0
 11
1559.0370663412
 21
1591.99458581554
 31
0.0
  0
LINE
  5
231
330
207
100
AcDbEntity
  8
0
  6
Continuous
 62
     7
100
AcDbLine
 10
1359.0370663412
 20
1591.99458581554
 30
0.0
 11
1348.0370663412
 21
1591.99458581554
 31
0.0
  0
LINE
  5
232
330
207
100
AcDbEntity
  8
0
  6
Continuous
 62
     7
100
AcDbLine
 10
1152.0370663412
 20
1591.99458581554
 30
0.0
 11
1141.0370663412
 21
1591.99458581554
 31
0.0
  0
LINE
  5
233
330
207
100
AcDbEntity
  8
0
  6
Continuous
 62
     7
100
AcDbLine
 10
941.0370663411999
 20
1591.99458581554
 30
0.0
 11
930.0370663412
 21
1591.99458581554
 31
0.0
  0
LINE
  5
234
330
207
100
AcDbEntity
  8
0
  6
Continuous
 62
     7
100
AcDbLine
 10
760.0370663411999
 20
1595.99458581554
 30
0.0
 11
760.8370663411999
 21
1595.99458581554
 31
0.0
  0
LINE
  5
235
330
207
100
AcDbEntity
  8
0
  6
Continuous
 62
     7
100
AcDbLine
 10
1739.2370663412
 20
1595.99458581554
 30
0.0
 11
1740.0370663412
 21
1595.99458581554
 31
0.0
  0
LINE
  5
236
330
207
100
AcDbEntity
  8
0
  6
Continuous
 62
     7
100
AcDbLine
 10
747.0370663411999
 20
1596.99458581554
 30
0.0
 11
759.5370663411999
 21
1596.99458581554
 31
0.0
  0
LINE
  5
237
330
207
100
AcDbEntity
  8
0
  6
Continuous
 62
     7
100
AcDbLine
 10
870.0370663412
 20
1596.99458581554
 30
0.0
 11
1630.0370663412
 21
1596.99458581554
 31
0.0
  0
LINE
  5
238
330
207
100
AcDbEntity
  8
0
  6
Continuous
 62
     7
100
AcDbLine
 10
1740.5370663412
 20
1596.99458581554
 30
0.0
 11
1753.0370663412
 21
1596.99458581554
 31
0.0
  0
LINE
  5
239
330
207
100
AcDbEntity
  8
0
  6
Continuous
 62
     7
100
AcDbLine
 10
1753.0370663412
 20
1597.79458581554
 30
0.0
 11
1740.5370663412
 21
1597.79458581554
 31
0.0
  0
LINE
  5
23A
330
207
100
AcDbEntity
  8
0
  6
Continuous
 62
     7
100
AcDbLine
 10
759.5370663411999
 20
1597.79458581554
 30
0.0
 11
747.0370663411999
 21
1597.79458581554
 31
0.0
  0
LINE
  5
23B
330
207
100
AcDbEntity
  8
0
  6
Continuous
 62
     7
100
AcDbLine
 10
745.0370663412
 20
1598.99458581554
 30
0.0
 11
870.0370663412
 21
1598.99458581554
 31
0.0
  0
LINE
  5
23C
330
207
100
AcDbEntity
  8
0
  6
Continuous
 62
     7
100
AcDbLine
 10
1630.0370663412
 20
1598.99458581554
 30
0.0
 11
1755.0370663412
 21
1598.99458581554
 31
0.0
  0
LINE
  5
23D
330
207
100
AcDbEntity
  8
0
  6
Continuous
 62
     7
100
AcDbLine
 10
747.0370663411999
 20
1600.99458581554
 30
0.0
 11
1753.0370663412
 21
1600.99458581554
 31
0.0
  0
LINE
  5
23E
330
207
100
AcDbEntity
  8
0
  6
Continuous
 62
     7
100
AcDbLine
 10
1359.0370663412
 20
1585.99458581554
 30
0.0
 11
1359.0370663412
 21
1591.99458581554
 31
0.0
  0
LINE
  5
23F
330
207
100
AcDbEntity
  8
0
  6
Continuous
 62
     7
100
AcDbLine
 10
1379.7900086323
 20
1580.99458581554
 30
0.0
 11
1374.7267910141
 21
1484.38263836324
 31
0.0
  0
LINE
  5
240
330
207
100
AcDbEntity
  8
0
  6
Continuous
 62
     7
100
AcDbLine
 10
1559.0370663412
 20
1591.99458581554
 30
0.0
 11
1559.0370663412
 21
1585.99458581554
 31
0.0
  0
LINE
  5
241
330
207
100
AcDbEntity
  8
0
  6
Continuous
 62
     7
100
AcDbLine
 10
1570.0370663412
 20
1585.99458581554
 30
0.0
 11
1570.0370663412
 21
1591.99458581554
 31
0.0
  0
LINE
  5
242
330
207
100
AcDbEntity
  8
0
  6
Continuous
 62
     7
100
AcDbLine
 10
1731.8412484823
 20
1593.17768920874
 30
0.0
 11
1736.0717187418
 21
1598.99458581554
 31
0.0
  0
LINE
  5
243
330
207
100
AcDbEntity
  8
0
  6
Continuous
 62
     7
100
AcDbLine
 10
1630.0370663412
 20
1598.99458581554
 30
0.0
 11
1630.0370663412
 21
1596.99458581554
 31
0.0
  0
LINE
  5
244
330
207
100
AcDbEntity
  8
0
  6
Continuous
 62
     7
100
AcDbLine
 10
1630.0370663412
 20
1596.74458581554
 30
0.0
 11
1630.0370663412
 21
1595.99458581554
 31
0.0
  0
LINE
  5
245
330
207
100
AcDbEntity
  8
0
  6
Continuous
 62
     7
100
AcDbLine
 10
1739.2370663412
 20
1596.49458581554
 30
0.0
 11
1739.2370663412
 21
1580.99458581554
 31
0.0
  0
LINE
  5
246
330
207
100
AcDbEntity
  8
0
  6
Continuous
 62
     7
100
AcDbLine
 10
1740.0370663412
 20
1580.99458581554
 30
0.0
 11
1740.0370663412
 21
1596.49458581554
 31
0.0
  0
LINE
  5
247
330
207
100
AcDbEntity
  8
0
  6
Continuous
 62
     7
100
AcDbLine
 10
745.0370663412
 20
1132.9451082511
 30
0.0
 11
745.0370663412
 21
885.9451082511
 31
0.0
  0
LINE
  5
248
330
207
100
AcDbEntity
  8
0
  6
Continuous
 62
     7
100
AcDbLine
 10
763.5370663411999
 20
1134.4451082511
 30
0.0
 11
763.5370663411999
 21
884.4451082511
 31
0.0
  0
LINE
  5
249
330
207
100
AcDbEntity
  8
0
  6
Continuous
 62
     7
100
AcDbLine
 10
771.1535046972999
 20
1134.4451082511
 30
0.0
 11
771.1535046972999
 21
884.4451082511
 31
0.0
  0
LINE
  5
24A
330
207
100
AcDbEntity
  8
0
  6
Continuous
 62
     7
100
AcDbLine
 10
870.0370663412
 20
760.9451082511
 30
0.0
 11
1630.0370663412
 21
760.9451082511
 31
0.0
  0
LINE
  5
24B
330
207
100
AcDbEntity
  8
0
  6
Continuous
 62
     7
100
AcDbLine
 10
868.5370663411999
 20
779.4451082511
 30
0.0
 11
1074.0549252365
 21
779.4451082511
 31
0.0
  0
LINE
  5
24C
330
207
100
AcDbEntity
  8
0
  6
Continuous
 62
     7
100
AcDbLine
 10
1476.0192074459
 20
779.4451082511
 30
0.0
 11
1631.5370663412
 21
779.4451082511
 31
0.0
  0
LINE
  5
24D
330
207
100
AcDbEntity
  8
0
  6
Continuous
 62
     7
100
AcDbLine
 10
868.5370663411999
 20
786.8067825480999
 30
0.0
 11
1074.0549252365
 21
786.2691295489999
 31
0.0
  0
LINE
  5
24E
330
207
100
AcDbEntity
  8
0
  6
Continuous
 62
     7
100
AcDbLine
 10
1476.0192074459
 20
785.2175552332
 30
0.0
 11
1631.5370663412
 21
784.8107066814999
 31
0.0
  0
LINE
  5
24F
330
207
100
AcDbEntity
  8
0
  6
Continuous
 62
     7
100
AcDbLine
 10
1480.0370663412
 20
803.1030080951
 30
0.0
 11
1630.0370663412
 21
803.4145280244999
 31
0.0
  0
LINE
  5
250
330
207
100
AcDbEntity
  8
0
  6
Continuous
 62
     7
100
AcDbLine
 10
1423.9656832657
 20
826.9865590730999
 30
0.0
 11
1686.1084494167
 21
827.5309770465
 31
0.0
  0
LINE
  5
251
330
207
100
AcDbEntity
  8
0
  6
Continuous
 62
     7
100
AcDbLine
 10
1480.0370663412
 20
805.9451082510999
 30
0.0
 11
1630.0370663412
 21
805.9451082510999
 31
0.0
  0
LINE
  5
252
330
207
100
AcDbEntity
  8
0
  6
Continuous
 62
     7
100
AcDbLine
 10
1657.4231942164
 20
815.9451082510999
 30
0.0
 11
1452.6509384659
 21
815.9451082510999
 31
0.0
  0
LINE
  5
253
330
207
100
AcDbEntity
  8
0
  6
Continuous
 62
     7
100
AcDbLine
 10
1657.4231942164
 20
818.4188129803001
 30
0.0
 11
1452.6509384659
 21
818.8440839047
 31
0.0
  0
LINE
  5
254
330
207
100
AcDbEntity
  8
0
  6
Continuous
 62
     7
100
AcDbLine
 10
1408.3711748725
 20
850.9541724053999
 30
0.0
 11
1701.7029578099
 21
851.5633637142
 31
0.0
  0
LINE
  5
255
330
207
100
AcDbEntity
  8
0
  6
Continuous
 62
     7
100
AcDbLine
 10
1423.9656832657
 20
829.9451082511
 30
0.0
 11
1686.1084494167
 21
829.9451082511
 31
0.0
  0
LINE
  5
256
330
207
100
AcDbEntity
  8
0
  6
Continuous
 62
     7
100
AcDbLine
 10
1174.2185413852
 20
837.9451082511
 30
0.0
 11
1375.8555912971
 21
837.9451082511
 31
0.0
  0
LINE
  5
257
330
207
100
AcDbEntity
  8
0
  6
Continuous
 62
     7
100
AcDbLine
 10
1690.48539138
 20
839.9451082510999
 30
0.0
 11
1419.5887413024
 21
839.9451082510999
 31
0.0
  0
LINE
  5
258
330
207
100
AcDbEntity
  8
0
  6
Continuous
 62
     7
100
AcDbLine
 10
1408.3711748725
 20
853.9451082511
 30
0.0
 11
1701.7029578099
 21
853.9451082511
 31
0.0
  0
LINE
  5
259
330
207
100
AcDbEntity
  8
0
  6
Continuous
 62
     7
100
AcDbLine
 10
1703.5625721198
 20
863.9451082511
 30
0.0
 11
1406.5115605626
 21
863.9451082511
 31
0.0
  0
LINE
  5
25A
330
207
100
AcDbEntity
  8
0
  6
Continuous
 62
     7
100
AcDbLine
 10
1690.48539138
 20
842.3501494247998
 30
0.0
 11
1419.5887413024
 21
842.9127474602001
 31
0.0
  0
LINE
  5
25B
330
207
100
AcDbEntity
  8
0
  6
Continuous
 62
     7
100
AcDbLine
 10
1174.2185413852
 20
844.5070926199001
 30
0.0
 11
1375.8555912971
 21
843.9795921622998
 31
0.0
  0
LINE
  5
25C
330
207
100
AcDbEntity
  8
0
  6
Continuous
 62
     7
100
AcDbLine
 10
1402.810128036
 20
873.9426232258999
 30
0.0
 11
1707.2640046464
 21
874.5749128935999
 31
0.0
  0
LINE
  5
25D
330
207
100
AcDbEntity
  8
0
  6
Continuous
 62
     7
100
AcDbLine
 10
1402.5370663412
 20
897.9420561314999
 30
0.0
 11
1707.5370663412
 21
898.575479988
 31
0.0
  0
LINE
  5
25E
330
207
100
AcDbEntity
  8
0
  6
Continuous
 62
     7
100
AcDbLine
 10
1402.810128036
 20
876.9451082511
 30
0.0
 11
1707.2640046464
 21
876.9451082511
 31
0.0
  0
LINE
  5
25F
330
207
100
AcDbEntity
  8
0
  6
Continuous
 62
     7
100
AcDbLine
 10
1707.5225488524
 20
886.9451082511
 30
0.0
 11
1402.5515838299
 21
886.9451082511
 31
0.0
  0
LINE
  5
260
330
207
100
AcDbEntity
  8
0
  6
Continuous
 62
     7
100
AcDbLine
 10
1402.5370663412
 20
900.9451082511001
 30
0.0
 11
1707.5370663412
 21
900.9451082511001
 31
0.0
  0
LINE
  5
261
330
207
100
AcDbEntity
  8
0
  6
Continuous
 62
     7
100
AcDbLine
 10
1703.5625721198
 20
866.3229907419999
 30
0.0
 11
1406.5115605626
 21
866.939906143
 31
0.0
  0
LINE
  5
262
330
207
100
AcDbEntity
  8
0
  6
Continuous
 62
     7
100
AcDbLine
 10
1707.5225488524
 20
889.3147666641999
 30
0.0
 11
1402.5515838299
 21
889.9481302208
 31
0.0
  0
LINE
  5
263
330
207
100
AcDbEntity
  8
0
  6
Continuous
 62
     7
100
AcDbLine
 10
1402.5370663412
 20
920.9420561314999
 30
0.0
 11
1707.5370663412
 21
921.575479988
 31
0.0
  0
LINE
  5
264
330
207
100
AcDbEntity
  8
0
  6
Continuous
 62
     7
100
AcDbLine
 10
1707.5370663412
 20
910.9451082511
 30
0.0
 11
1402.5370663412
 21
910.9451082511
 31
0.0
  0
LINE
  5
265
330
207
100
AcDbEntity
  8
0
  6
Continuous
 62
     7
100
AcDbLine
 10
1402.5370663412
 20
923.9451082510999
 30
0.0
 11
1707.5370663412
 21
923.9451082510999
 31
0.0
  0
LINE
  5
266
330
207
100
AcDbEntity
  8
0
  6
Continuous
 62
     7
100
AcDbLine
 10
1707.5370663412
 20
933.9451082511001
 30
0.0
 11
1402.5370663412
 21
933.9451082511001
 31
0.0
  0
LINE
  5
267
330
207
100
AcDbEntity
  8
0
  6
Continuous
 62
     7
100
AcDbLine
 10
1707.5370663412
 20
913.3147365142999
 30
0.0
 11
1402.5370663412
 21
913.9481603707
 31
0.0
  0
LINE
  5
268
330
207
100
AcDbEntity
  8
0
  6
Continuous
 62
     7
100
AcDbLine
 10
1707.5370663412
 20
936.3147365142999
 30
0.0
 11
1402.5370663412
 21
936.9481603707001
 31
0.0
  0
LINE
  5
269
330
207
100
AcDbEntity
  8
0
  6
Continuous
 62
     7
100
AcDbLine
 10
1402.5370663412
 20
943.9420561314999
 30
0.0
 11
1707.5370663412
 21
944.5754799879999
 31
0.0
  0
LINE
  5
26A
330
207
100
AcDbEntity
  8
0
  6
Continuous
 62
     7
100
AcDbLine
 10
1402.5370663412
 20
966.9420561315
 30
0.0
 11
1707.5370663412
 21
967.5754799879999
 31
0.0
  0
LINE
  5
26B
330
207
100
AcDbEntity
  8
0
  6
Continuous
 62
     7
100
AcDbLine
 10
1402.5370663412
 20
946.9451082511
 30
0.0
 11
1707.5370663412
 21
946.9451082511
 31
0.0
  0
LINE
  5
26C
330
207
100
AcDbEntity
  8
0
  6
Continuous
 62
     7
100
AcDbLine
 10
1707.5370663412
 20
956.9451082510999
 30
0.0
 11
1402.5370663412
 21
956.9451082510999
 31
0.0
  0
LINE
  5
26D
330
207
100
AcDbEntity
  8
0
  6
Continuous
 62
     7
100
AcDbLine
 10
1402.5370663412
 20
969.9451082511
 30
0.0
 11
1707.5370663412
 21
969.9451082511
 31
0.0
  0
LINE
  5
26E
330
207
100
AcDbEntity
  8
0
  6
Continuous
 62
     7
100
AcDbLine
 10
1707.5370663412
 20
959.3147365143
 30
0.0
 11
1402.5370663412
 21
959.9481603707001
 31
0.0
  0
LINE
  5
26F
330
207
100
AcDbEntity
  8
0
  6
Continuous
 62
     7
100
AcDbLine
 10
1402.5370663412
 20
989.9420561314999
 30
0.0
 11
1707.5370663412
 21
990.575479988
 31
0.0
  0
LINE
  5
270
330
207
100
AcDbEntity
  8
0
  6
Continuous
 62
     7
100
AcDbLine
 10
1402.5370663412
 20
1012.9420561315
 30
0.0
 11
1707.5370663412
 21
1013.575479988
 31
0.0
  0
LINE
  5
271
330
207
100
AcDbEntity
  8
0
  6
Continuous
 62
     7
100
AcDbLine
 10
1707.5370663412
 20
979.9451082511
 30
0.0
 11
1402.5370663412
 21
979.9451082511
 31
0.0
  0
LINE
  5
272
330
207
100
AcDbEntity
  8
0
  6
Continuous
 62
     7
100
AcDbLine
 10
1402.5370663412
 20
992.9451082511
 30
0.0
 11
1707.5370663412
 21
992.9451082511
 31
0.0
  0
LINE
  5
273
330
207
100
AcDbEntity
  8
0
  6
Continuous
 62
     7
100
AcDbLine
 10
1707.5370663412
 20
1002.9451082511
 30
0.0
 11
1402.5370663412
 21
1002.9451082511
 31
0.0
  0
LINE
  5
274
330
207
100
AcDbEntity
  8
0
  6
Continuous
 62
     7
100
AcDbLine
 10
1707.5370663412
 20
982.3147365142999
 30
0.0
 11
1402.5370663412
 21
982.9481603707
 31
0.0
  0
LINE
  5
275
330
207
100
AcDbEntity
  8
0
  6
Continuous
 62
     7
100
AcDbLine
 10
1707.5370663412
 20
1005.3147365143
 30
0.0
 11
1402.5370663412
 21
1005.9481603707
 31
0.0
  0
LINE
  5
276
330
207
100
AcDbEntity
  8
0
  6
Continuous
 62
     7
100
AcDbLine
 10
1402.5370663412
 20
1035.9420561315
 30
0.0
 11
1707.5370663412
 21
1036.575479988
 31
0.0
  0
LINE
  5
277
330
207
100
AcDbEntity
  8
0
  6
Continuous
 62
     7
100
AcDbLine
 10
1402.5370663412
 20
1015.9451082511
 30
0.0
 11
1707.5370663412
 21
1015.9451082511
 31
0.0
  0
LINE
  5
278
330
207
100
AcDbEntity
  8
0
  6
Continuous
 62
     7
100
AcDbLine
 10
1707.5370663412
 20
1025.9451082511
 30
0.0
 11
1402.5370663412
 21
1025.9451082511
 31
0.0
  0
LINE
  5
279
330
207
100
AcDbEntity
  8
0
  6
Continuous
 62
     7
100
AcDbLine
 10
1402.5370663412
 20
1038.9451082511
 30
0.0
 11
1707.5370663412
 21
1038.9451082511
 31
0.0
  0
LINE
  5
27A
330
207
100
AcDbEntity
  8
0
  6
Continuous
 62
     7
100
AcDbLine
 10
1707.5370663412
 20
1048.9451082511
 30
0.0
 11
1402.5370663412
 21
1048.9451082511
 31
0.0
  0
LINE
  5
27B
330
207
100
AcDbEntity
  8
0
  6
Continuous
 62
     7
100
AcDbLine
 10
1707.5370663412
 20
1028.3147365143
 30
0.0
 11
1402.5370663412
 21
1028.9481603707
 31
0.0
  0
LINE
  5
27C
330
207
100
AcDbEntity
  8
0
  6
Continuous
 62
     7
100
AcDbLine
 10
1402.5370663412
 20
1058.9420561315
 30
0.0
 11
1707.5370663412
 21
1059.575479988
 31
0.0
  0
LINE
  5
27D
330
207
100
AcDbEntity
  8
0
  6
Continuous
 62
     7
100
AcDbLine
 10
1402.5370663412
 20
1081.9420561315
 30
0.0
 11
1707.5370663412
 21
1082.575479988
 31
0.0
  0
LINE
  5
27E
330
207
100
AcDbEntity
  8
0
  6
Continuous
 62
     7
100
AcDbLine
 10
1402.5370663412
 20
1061.9451082511
 30
0.0
 11
1707.5370663412
 21
1061.9451082511
 31
0.0
  0
LINE
  5
27F
330
207
100
AcDbEntity
  8
0
  6
Continuous
 62
     7
100
AcDbLine
 10
1707.5370663412
 20
1071.9451082511
 30
0.0
 11
1402.5370663412
 21
1071.9451082511
 31
0.0
  0
LINE
  5
280
330
207
100
AcDbEntity
  8
0
  6
Continuous
 62
     7
100
AcDbLine
 10
1402.5370663412
 20
1084.9451082511
 30
0.0
 11
1707.5370663412
 21
1084.9451082511
 31
0.0
  0
LINE
  5
281
330
207
100
AcDbEntity
  8
0
  6
Continuous
 62
     7
100
AcDbLine
 10
1707.5370663412
 20
1051.3147365143
 30
0.0
 11
1402.5370663412
 21
1051.9481603707
 31
0.0
  0
LINE
  5
282
330
207
100
AcDbEntity
  8
0
  6
Continuous
 62
     7
100
AcDbLine
 10
1707.5370663412
 20
1074.3147365143
 30
0.0
 11
1402.5370663412
 21
1074.9481603707
 31
0.0
  0
LINE
  5
283
330
207
100
AcDbEntity
  8
0
  6
Continuous
 62
     7
100
AcDbLine
 10
1402.5370663412
 20
1104.9420561315
 30
0.0
 11
1707.5370663412
 21
1105.575479988
 31
0.0
  0
LINE
  5
284
330
207
100
AcDbEntity
  8
0
  6
Continuous
 62
     7
100
AcDbLine
 10
1707.5370663412
 20
1094.9451082511
 30
0.0
 11
1402.5370663412
 21
1094.9451082511
 31
0.0
  0
LINE
  5
285
330
207
100
AcDbEntity
  8
0
  6
Continuous
 62
     7
100
AcDbLine
 10
1402.5370663412
 20
1107.9451082511
 30
0.0
 11
1707.5370663412
 21
1107.9451082511
 31
0.0
  0
LINE
  5
286
330
207
100
AcDbEntity
  8
0
  6
Continuous
 62
     7
100
AcDbLine
 10
1707.5370663412
 20
1117.9451082511
 30
0.0
 11
1402.5370663412
 21
1117.9451082511
 31
0.0
  0
LINE
  5
287
330
207
100
AcDbEntity
  8
0
  6
Continuous
 62
     7
100
AcDbLine
 10
1707.5370663412
 20
1097.3147365143
 30
0.0
 11
1402.5370663412
 21
1097.9481603707
 31
0.0
  0
LINE
  5
288
330
207
100
AcDbEntity
  8
0
  6
Continuous
 62
     7
100
AcDbLine
 10
1707.5370663412
 20
1120.3147365143
 30
0.0
 11
1402.5370663412
 21
1120.9481603707
 31
0.0
  0
LINE
  5
289
330
207
100
AcDbEntity
  8
0
  6
Continuous
 62
     7
100
AcDbLine
 10
1397.0225617009
 20
1115.4451082511
 30
0.0
 11
1397.0225617009
 21
1110.4451082511
 31
0.0
  0
LINE
  5
28A
330
207
100
AcDbEntity
  8
0
  6
Continuous
 62
     7
100
AcDbLine
 10
1397.0225617009
 20
1092.4451082511
 30
0.0
 11
1397.0225617009
 21
1087.4451082511
 31
0.0
  0
LINE
  5
28B
330
207
100
AcDbEntity
  8
0
  6
Continuous
 62
     7
100
AcDbLine
 10
1397.0225617009
 20
1069.4451082511
 30
0.0
 11
1397.0225617009
 21
1064.4451082511
 31
0.0
  0
LINE
  5
28C
330
207
100
AcDbEntity
  8
0
  6
Continuous
 62
     7
100
AcDbLine
 10
1397.0225617009
 20
1046.4451082511
 30
0.0
 11
1397.0225617009
 21
1041.4451082511
 31
0.0
  0
LINE
  5
28D
330
207
100
AcDbEntity
  8
0
  6
Continuous
 62
     7
100
AcDbLine
 10
1397.0225617009
 20
1023.4451082511
 30
0.0
 11
1397.0225617009
 21
1018.4451082511
 31
0.0
  0
LINE
  5
28E
330
207
100
AcDbEntity
  8
0
  6
Continuous
 62
     7
100
AcDbLine
 10
1397.0225617009
 20
1000.4451082511
 30
0.0
 11
1397.0225617009
 21
995.4451082510999
 31
0.0
  0
LINE
  5
28F
330
207
100
AcDbEntity
  8
0
  6
Continuous
 62
     7
100
AcDbLine
 10
1397.0225617009
 20
977.4451082510999
 30
0.0
 11
1397.0225617009
 21
972.4451082511
 31
0.0
  0
LINE
  5
290
330
207
100
AcDbEntity
  8
0
  6
Continuous
 62
     7
100
AcDbLine
 10
1397.0225617009
 20
954.4451082511001
 30
0.0
 11
1397.0225617009
 21
949.4451082511
 31
0.0
  0
LINE
  5
291
330
207
100
AcDbEntity
  8
0
  6
Continuous
 62
     7
100
AcDbLine
 10
1397.0225617009
 20
931.4451082511
 30
0.0
 11
1397.0225617009
 21
926.4451082511
 31
0.0
  0
LINE
  5
292
330
207
100
AcDbEntity
  8
0
  6
Continuous
 62
     7
100
AcDbLine
 10
1397.0225617009
 20
908.4451082511
 30
0.0
 11
1397.0225617009
 21
903.4451082510999
 31
0.0
  0
LINE
  5
293
330
207
100
AcDbEntity
  8
0
  6
Continuous
 62
     7
100
AcDbLine
 10
1400.0370663412
 20
1115.4451082511
 30
0.0
 11
1400.0370663412
 21
1110.4451082511
 31
0.0
  0
LINE
  5
294
330
207
100
AcDbEntity
  8
0
  6
Continuous
 62
     7
100
AcDbLine
 10
1400.0370663412
 20
1092.4451082511
 30
0.0
 11
1400.0370663412
 21
1087.4451082511
 31
0.0
  0
LINE
  5
295
330
207
100
AcDbEntity
  8
0
  6
Continuous
 62
     7
100
AcDbLine
 10
1400.0370663412
 20
1069.4451082511
 30
0.0
 11
1400.0370663412
 21
1064.4451082511
 31
0.0
  0
LINE
  5
296
330
207
100
AcDbEntity
  8
0
  6
Continuous
 62
     7
100
AcDbLine
 10
1400.0370663412
 20
1046.4451082511
 30
0.0
 11
1400.0370663412
 21
1041.4451082511
 31
0.0
  0
LINE
  5
297
330
207
100
AcDbEntity
  8
0
  6
Continuous
 62
     7
100
AcDbLine
 10
1400.0370663412
 20
1023.4451082511
 30
0.0
 11
1400.0370663412
 21
1018.4451082511
 31
0.0
  0
LINE
  5
298
330
207
100
AcDbEntity
  8
0
  6
Continuous
 62
     7
100
AcDbLine
 10
1400.0370663412
 20
1000.4451082511
 30
0.0
 11
1400.0370663412
 21
995.4451082510999
 31
0.0
  0
LINE
  5
299
330
207
100
AcDbEntity
  8
0
  6
Continuous
 62
     7
100
AcDbLine
 10
1400.0370663412
 20
977.4451082510999
 30
0.0
 11
1400.0370663412
 21
972.4451082511
 31
0.0
  0
LINE
  5
29A
330
207
100
AcDbEntity
  8
0
  6
Continuous
 62
     7
100
AcDbLine
 10
1400.0370663412
 20
954.4451082511001
 30
0.0
 11
1400.0370663412
 21
949.4451082511
 31
0.0
  0
LINE
  5
29B
330
207
100
AcDbEntity
  8
0
  6
Continuous
 62
     7
100
AcDbLine
 10
1400.0370663412
 20
931.4451082511
 30
0.0
 11
1400.0370663412
 21
926.4451082511
 31
0.0
  0
LINE
  5
29C
330
207
100
AcDbEntity
  8
0
  6
Continuous
 62
     7
100
AcDbLine
 10
1400.0370663412
 20
908.4451082511
 30
0.0
 11
1400.0370663412
 21
903.4451082510999
 31
0.0
  0
LINE
  5
29D
330
207
100
AcDbEntity
  8
0
  6
Continuous
 62
     7
100
AcDbLine
 10
1402.5515838299
 20
1128.9420862815
 30
0.0
 11
1707.5225488524
 21
1129.5754498381
 31
0.0
  0
LINE
  5
29E
330
207
100
AcDbEntity
  8
0
  6
Continuous
 62
     7
100
AcDbLine
 10
1406.5115605626
 20
1151.9503103593
 30
0.0
 11
1703.5625721198
 21
1152.5672257603
 31
0.0
  0
LINE
  5
29F
330
207
100
AcDbEntity
  8
0
  6
Continuous
 62
     7
100
AcDbLine
 10
1402.5515838299
 20
1131.9451082511
 30
0.0
 11
1707.5225488524
 21
1131.9451082511
 31
0.0
  0
LINE
  5
2A0
330
207
100
AcDbEntity
  8
0
  6
Continuous
 62
     7
100
AcDbLine
 10
1707.2640046464
 20
1141.9451082511
 30
0.0
 11
1402.810128036
 21
1141.9451082511
 31
0.0
  0
LINE
  5
2A1
330
207
100
AcDbEntity
  8
0
  6
Continuous
 62
     7
100
AcDbLine
 10
1406.5115605626
 20
1154.9451082511
 30
0.0
 11
1703.5625721198
 21
1154.9451082511
 31
0.0
  0
LINE
  5
2A2
330
207
100
AcDbEntity
  8
0
  6
Continuous
 62
     7
100
AcDbLine
 10
1707.2640046464
 20
1144.3153036087
 30
0.0
 11
1402.810128036
 21
1144.9475932763
 31
0.0
  0
LINE
  5
2A3
330
207
100
AcDbEntity
  8
0
  6
Continuous
 62
     7
100
AcDbLine
 10
1375.8555912971
 20
1174.91062434
 30
0.0
 11
1174.2185413852
 21
1174.3831238824
 31
0.0
  0
LINE
  5
2A4
330
207
100
AcDbEntity
  8
0
  6
Continuous
 62
     7
100
AcDbLine
 10
1419.5887413024
 20
1175.9774690421
 30
0.0
 11
1690.48539138
 21
1176.5400670775
 31
0.0
  0
LINE
  5
2A5
330
207
100
AcDbEntity
  8
0
  6
Continuous
 62
     7
100
AcDbLine
 10
1452.6509384659
 20
1200.0461325976
 30
0.0
 11
1657.4231942164
 21
1200.471403522
 31
0.0
  0
LINE
  5
2A6
330
207
100
AcDbEntity
  8
0
  6
Continuous
 62
     7
100
AcDbLine
 10
1701.7029578099
 20
1164.9451082511
 30
0.0
 11
1408.3711748725
 21
1164.9451082511
 31
0.0
  0
LINE
  5
2A7
330
207
100
AcDbEntity
  8
0
  6
Continuous
 62
     7
100
AcDbLine
 10
1419.5887413024
 20
1178.9451082511
 30
0.0
 11
1690.48539138
 21
1178.9451082511
 31
0.0
  0
LINE
  5
2A8
330
207
100
AcDbEntity
  8
0
  6
Continuous
 62
     7
100
AcDbLine
 10
1375.8555912971
 20
1180.9451082511
 30
0.0
 11
1174.2185413852
 21
1180.9451082511
 31
0.0
  0
LINE
  5
2A9
330
207
100
AcDbEntity
  8
0
  6
Continuous
 62
     7
100
AcDbLine
 10
1686.1084494167
 20
1188.9451082511
 30
0.0
 11
1423.9656832657
 21
1188.9451082511
 31
0.0
  0
LINE
  5
2AA
330
207
100
AcDbEntity
  8
0
  6
Continuous
 62
     7
100
AcDbLine
 10
1701.7029578099
 20
1167.3268527881
 30
0.0
 11
1408.3711748725
 21
1167.9360440969
 31
0.0
  0
LINE
  5
2AB
330
207
100
AcDbEntity
  8
0
  6
Continuous
 62
     7
100
AcDbLine
 10
1686.1084494167
 20
1191.3592394558
 30
0.0
 11
1423.9656832657
 21
1191.9036574292
 31
0.0
  0
LINE
  5
2AC
330
207
100
AcDbEntity
  8
0
  6
Continuous
 62
     7
100
AcDbLine
 10
1631.5370663412
 20
1234.0795098208
 30
0.0
 11
1476.0192074459
 21
1233.6726612691
 31
0.0
  0
LINE
  5
2AD
330
207
100
AcDbEntity
  8
0
  6
Continuous
 62
     7
100
AcDbLine
 10
1074.0549252365
 20
1232.6210869533
 30
0.0
 11
868.5370663411999
 21
1232.0834339542
 31
0.0
  0
LINE
  5
2AE
330
207
100
AcDbEntity
  8
0
  6
Continuous
 62
     7
100
AcDbLine
 10
1452.6509384659
 20
1202.9451082511
 30
0.0
 11
1657.4231942164
 21
1202.9451082511
 31
0.0
  0
LINE
  5
2AF
330
207
100
AcDbEntity
  8
0
  6
Continuous
 62
     7
100
AcDbLine
 10
1630.0370663412
 20
1212.9451082511
 30
0.0
 11
1480.0370663412
 21
1212.9451082511
 31
0.0
  0
LINE
  5
2B0
330
207
100
AcDbEntity
  8
0
  6
Continuous
 62
     7
100
AcDbLine
 10
1631.5370663412
 20
1239.4451082511
 30
0.0
 11
1476.0192074459
 21
1239.4451082511
 31
0.0
  0
LINE
  5
2B1
330
207
100
AcDbEntity
  8
0
  6
Continuous
 62
     7
100
AcDbLine
 10
1074.0549252365
 20
1239.4451082511
 30
0.0
 11
868.5370663411999
 21
1239.4451082511
 31
0.0
  0
LINE
  5
2B2
330
207
100
AcDbEntity
  8
0
  6
Continuous
 62
     7
100
AcDbLine
 10
1630.0370663412
 20
1215.4756884778
 30
0.0
 11
1480.0370663412
 21
1215.7872084072
 31
0.0
  0
LINE
  5
2B3
102
{ACAD_REACTORS
330
8AC
102
}
330
207
100
AcDbEntity
  8
0
  6
Continuous
 62
     7
100
AcDbLine
 10
870.0370663412
 20
1257.9451082511
 30
0.0
 11
1630.0370663412
 21
1257.9451082511
 31
0.0
  0
LINE
  5
2B4
330
207
100
AcDbEntity
  8
0
  6
Continuous
 62
     7
100
AcDbLine
 10
1710.0370663412
 20
903.4451082510999
 30
0.0
 11
1710.0370663412
 21
908.4451082511
 31
0.0
  0
LINE
  5
2B5
330
207
100
AcDbEntity
  8
0
  6
Continuous
 62
     7
100
AcDbLine
 10
1710.0370663412
 20
926.4451082511
 30
0.0
 11
1710.0370663412
 21
931.4451082511
 31
0.0
  0
LINE
  5
2B6
330
207
100
AcDbEntity
  8
0
  6
Continuous
 62
     7
100
AcDbLine
 10
1710.0370663412
 20
949.4451082511
 30
0.0
 11
1710.0370663412
 21
954.4451082511001
 31
0.0
  0
LINE
  5
2B7
330
207
100
AcDbEntity
  8
0
  6
Continuous
 62
     7
100
AcDbLine
 10
1710.0370663412
 20
972.4451082511
 30
0.0
 11
1710.0370663412
 21
977.4451082510999
 31
0.0
  0
LINE
  5
2B8
330
207
100
AcDbEntity
  8
0
  6
Continuous
 62
     7
100
AcDbLine
 10
1710.0370663412
 20
995.4451082510999
 30
0.0
 11
1710.0370663412
 21
1000.4451082511
 31
0.0
  0
LINE
  5
2B9
330
207
100
AcDbEntity
  8
0
  6
Continuous
 62
     7
100
AcDbLine
 10
1710.0370663412
 20
1018.4451082511
 30
0.0
 11
1710.0370663412
 21
1023.4451082511
 31
0.0
  0
LINE
  5
2BA
330
207
100
AcDbEntity
  8
0
  6
Continuous
 62
     7
100
AcDbLine
 10
1710.0370663412
 20
1041.4451082511
 30
0.0
 11
1710.0370663412
 21
1046.4451082511
 31
0.0
  0
LINE
  5
2BB
330
207
100
AcDbEntity
  8
0
  6
Continuous
 62
     7
100
AcDbLine
 10
1710.0370663412
 20
1064.4451082511
 30
0.0
 11
1710.0370663412
 21
1069.4451082511
 31
0.0
  0
LINE
  5
2BC
330
207
100
AcDbEntity
  8
0
  6
Continuous
 62
     7
100
AcDbLine
 10
1710.0370663412
 20
1087.4451082511
 30
0.0
 11
1710.0370663412
 21
1092.4451082511
 31
0.0
  0
LINE
  5
2BD
330
207
100
AcDbEntity
  8
0
  6
Continuous
 62
     7
100
AcDbLine
 10
1710.0370663412
 20
1110.4451082511
 30
0.0
 11
1710.0370663412
 21
1115.4451082511
 31
0.0
  0
LINE
  5
2BE
330
207
100
AcDbEntity
  8
0
  6
Continuous
 62
     7
100
AcDbLine
 10
1712.3966023223
 20
903.4451082510999
 30
0.0
 11
1712.3966023223
 21
908.4451082511
 31
0.0
  0
LINE
  5
2BF
330
207
100
AcDbEntity
  8
0
  6
Continuous
 62
     7
100
AcDbLine
 10
1712.3966023223
 20
926.4451082511
 30
0.0
 11
1712.3966023223
 21
931.4451082511
 31
0.0
  0
LINE
  5
2C0
330
207
100
AcDbEntity
  8
0
  6
Continuous
 62
     7
100
AcDbLine
 10
1712.3966023223
 20
949.4451082511
 30
0.0
 11
1712.3966023223
 21
954.4451082511001
 31
0.0
  0
LINE
  5
2C1
330
207
100
AcDbEntity
  8
0
  6
Continuous
 62
     7
100
AcDbLine
 10
1712.3966023223
 20
972.4451082511
 30
0.0
 11
1712.3966023223
 21
977.4451082510999
 31
0.0
  0
LINE
  5
2C2
330
207
100
AcDbEntity
  8
0
  6
Continuous
 62
     7
100
AcDbLine
 10
1712.3966023223
 20
995.4451082510999
 30
0.0
 11
1712.3966023223
 21
1000.4451082511
 31
0.0
  0
LINE
  5
2C3
330
207
100
AcDbEntity
  8
0
  6
Continuous
 62
     7
100
AcDbLine
 10
1712.3966023223
 20
1018.4451082511
 30
0.0
 11
1712.3966023223
 21
1023.4451082511
 31
0.0
  0
LINE
  5
2C4
330
207
100
AcDbEntity
  8
0
  6
Continuous
 62
     7
100
AcDbLine
 10
1712.3966023223
 20
1041.4451082511
 30
0.0
 11
1712.3966023223
 21
1046.4451082511
 31
0.0
  0
LINE
  5
2C5
330
207
100
AcDbEntity
  8
0
  6
Continuous
 62
     7
100
AcDbLine
 10
1712.3966023223
 20
1064.4451082511
 30
0.0
 11
1712.3966023223
 21
1069.4451082511
 31
0.0
  0
LINE
  5
2C6
330
207
100
AcDbEntity
  8
0
  6
Continuous
 62
     7
100
AcDbLine
 10
1712.3966023223
 20
1087.4451082511
 30
0.0
 11
1712.3966023223
 21
1092.4451082511
 31
0.0
  0
LINE
  5
2C7
330
207
100
AcDbEntity
  8
0
  6
Continuous
 62
     7
100
AcDbLine
 10
1712.3966023223
 20
1110.4451082511
 30
0.0
 11
1712.3966023223
 21
1115.4451082511
 31
0.0
  0
LINE
  5
2C8
330
207
100
AcDbEntity
  8
0
  6
Continuous
 62
     7
100
AcDbLine
 10
1731.4328040461
 20
884.4451082511
 30
0.0
 11
1731.4328040461
 21
1134.4451082511
 31
0.0
  0
LINE
  5
2C9
330
207
100
AcDbEntity
  8
0
  6
Continuous
 62
     7
100
AcDbLine
 10
1736.5370663412
 20
884.4451082511
 30
0.0
 11
1736.5370663412
 21
1134.4451082511
 31
0.0
  0
LINE
  5
2CA
330
207
100
AcDbEntity
  8
0
  6
Continuous
 62
     7
100
AcDbLine
 10
1755.0370663412
 20
1132.9451082511
 30
0.0
 11
1755.0370663412
 21
885.9451082511
 31
0.0
  0
ARC
  5
442
330
207
100
AcDbEntity
  8
0
  6
Continuous
 62
     7
100
AcDbCircle
 10
866.1600251786
 20
1485.99458581554
 30
0.0
 40
70.8
100
AcDbArc
 50
182.9999999999991
 51
270.0
  0
ARC
  5
443
330
207
100
AcDbEntity
  8
0
  6
Continuous
 62
     7
100
AcDbCircle
 10
1068.9141075038
 20
1485.99458581554
 30
0.0
 40
70.8
100
AcDbArc
 50
270.0
 51
357.0000000000009
  0
ARC
  5
444
330
207
100
AcDbEntity
  8
0
  6
Continuous
 62
     7
100
AcDbCircle
 10
1216.1051313387
 20
1485.99458581554
 30
0.0
 40
30.8
100
AcDbArc
 50
182.9999999999991
 51
270.0
  0
ARC
  5
445
330
207
100
AcDbEntity
  8
0
  6
Continuous
 62
     7
100
AcDbCircle
 10
889.4019830721999
 20
1600.99458581554
 30
0.0
 40
20.0
100
AcDbArc
 50
194.477512185903
 51
270.0
  0
ARC
  5
446
102
{ACAD_REACTORS
330
8DC
102
}
330
207
100
AcDbEntity
  8
0
  6
Continuous
 62
     7
100
AcDbCircle
 10
747.0370663411999
 20
1598.99458581554
 30
0.0
 40
2.0
100
AcDbArc
 50
90.0
 51
270.0
  0
ARC
  5
447
330
207
100
AcDbEntity
  8
0
  6
Continuous
 62
     7
100
AcDbCircle
 10
1146.9311384133
 20
1589.37368500864
 30
0.0
 40
1.699991984299999
100
AcDbArc
 50
119.1303824960011
 51
176.9993716538992
  0
ARC
  5
448
330
207
100
AcDbEntity
  8
0
  6
Continuous
 62
     7
100
AcDbCircle
 10
788.2106190058
 20
1588.08332342804
 30
0.0
 40
1.699991978199999
100
AcDbArc
 50
3.00054701610264
 51
61.14438936369877
  0
ARC
  5
449
330
207
100
AcDbEntity
  8
0
  6
Continuous
 62
     7
100
AcDbCircle
 10
759.5370663411999
 20
1596.49458581554
 30
0.0
 40
1.3
100
AcDbArc
 50
0.0
 51
90.0
  0
ARC
  5
44A
330
207
100
AcDbEntity
  8
0
  6
Continuous
 62
     7
100
AcDbCircle
 10
747.0370663411999
 20
1598.99458581554
 30
0.0
 40
1.199999999999999
100
AcDbArc
 50
180.0
 51
270.0
  0
ARC
  5
44B
330
207
100
AcDbEntity
  8
0
  6
Continuous
 62
     7
100
AcDbCircle
 10
759.5370663411999
 20
1596.49458581554
 30
0.0
 40
0.5
100
AcDbArc
 50
0.0
 51
90.0
  0
ARC
  5
44C
330
207
100
AcDbEntity
  8
0
  6
Continuous
 62
     7
100
AcDbCircle
 10
1343.9690013437
 20
1485.99458581554
 30
0.0
 40
30.8
100
AcDbArc
 50
270.0
 51
357.0000000000009
  0
ARC
  5
44D
330
207
100
AcDbEntity
  8
0
  6
Continuous
 62
     7
100
AcDbCircle
 10
1610.6721496101
 20
1600.99458581554
 30
0.0
 40
20.0
100
AcDbArc
 50
270.0
 51
345.522487814097
  0
ARC
  5
44E
102
{ACAD_REACTORS
330
8FF
102
}
330
207
100
AcDbEntity
  8
0
  6
Continuous
 62
     7
100
AcDbCircle
 10
1753.0370663412
 20
1598.99458581554
 30
0.0
 40
2.0
100
AcDbArc
 50
270.0
 51
90.0
  0
ARC
  5
44F
330
207
100
AcDbEntity
  8
0
  6
Continuous
 62
     7
100
AcDbCircle
 10
1740.5370663412
 20
1596.49458581554
 30
0.0
 40
1.3
100
AcDbArc
 50
90.0
 51
180.0
  0
ARC
  5
450
330
207
100
AcDbEntity
  8
0
  6
Continuous
 62
     7
100
AcDbCircle
 10
1753.0370663412
 20
1598.99458581554
 30
0.0
 40
1.199999999999999
100
AcDbArc
 50
270.0
 51
0.0
  0
ARC
  5
451
330
207
100
AcDbEntity
  8
0
  6
Continuous
 62
     7
100
AcDbCircle
 10
1740.5370663412
 20
1596.49458581554
 30
0.0
 40
0.5
100
AcDbArc
 50
90.0
 51
180.0
  0
ARC
  5
452
102
{ACAD_REACTORS
330
803
330
81B
102
}
330
207
100
AcDbEntity
  8
0
  6
Continuous
 62
     7
100
AcDbCircle
 10
870.0370663412
 20
885.9451082511
 30
0.0
 40
125.0
100
AcDbArc
 50
180.0
 51
270.0
  0
ARC
  5
453
330
207
100
AcDbEntity
  8
0
  6
Continuous
 62
     7
100
AcDbCircle
 10
868.5370663411999
 20
884.4451082511
 30
0.0
 40
105.0
100
AcDbArc
 50
180.0
 51
270.0
  0
ARC
  5
454
330
207
100
AcDbEntity
  8
0
  6
Continuous
 62
     7
100
AcDbCircle
 10
1074.0549252365
 20
879.4451082511001
 30
0.0
 40
100.0
100
AcDbArc
 50
270.0
 51
330.5736513216
  0
CIRCLE
  5
455
330
207
100
AcDbEntity
  8
0
  6
Continuous
 62
     7
100
AcDbCircle
 10
1280.0370663412
 20
1009.4451082511
 30
0.0
 40
60.0
  0
CIRCLE
  5
456
330
207
100
AcDbEntity
  8
0
  6
Continuous
 62
     7
100
AcDbCircle
 10
967.5370663412
 20
1009.4451082511
 30
0.0
 40
60.0
  0
CIRCLE
  5
457
330
207
100
AcDbEntity
  8
0
  6
Continuous
 62
     7
100
AcDbCircle
 10
1280.0370663412
 20
1009.4451082511
 30
0.0
 40
55.0
  0
CIRCLE
  5
458
330
207
100
AcDbEntity
  8
0
  6
Continuous
 62
     7
100
AcDbCircle
 10
967.5370663412
 20
1009.4451082511
 30
0.0
 40
55.0
  0
CIRCLE
  5
459
102
{ACAD_REACTORS
330
9F6
102
}
330
207
100
AcDbEntity
  8
0
  6
Continuous
 62
     7
100
AcDbCircle
 10
1280.0370663412
 20
1009.4451082511
 30
0.0
 40
45.0
  0
CIRCLE
  5
45A
102
{ACAD_REACTORS
330
9DE
102
}
330
207
100
AcDbEntity
  8
0
  6
Continuous
 62
     7
100
AcDbCircle
 10
967.5370663412
 20
1009.4451082511
 30
0.0
 40
45.0
  0
ARC
  5
45B
330
207
100
AcDbEntity
  8
0
  6
Continuous
 62
     7
100
AcDbCircle
 10
1174.2185413852
 20
822.9451082510999
 30
0.0
 40
15.0
100
AcDbArc
 50
90.0
 51
150.5736513216
  0
ARC
  5
45C
102
{ACAD_REACTORS
330
803
330
8C4
102
}
330
207
100
AcDbEntity
  8
0
  6
Continuous
 62
     7
100
AcDbCircle
 10
870.0370663412
 20
1132.9451082511
 30
0.0
 40
125.0
100
AcDbArc
 50
90.0
 51
180.0
  0
ARC
  5
45D
330
207
100
AcDbEntity
  8
0
  6
Continuous
 62
     7
100
AcDbCircle
 10
868.5370663411999
 20
1134.4451082511
 30
0.0
 40
105.0
100
AcDbArc
 50
90.0
 51
180.0
  0
ARC
  5
45E
330
207
100
AcDbEntity
  8
0
  6
Continuous
 62
     7
100
AcDbCircle
 10
1074.0549252365
 20
1139.4451082511
 30
0.0
 40
100.0
100
AcDbArc
 50
29.4263486784
 51
90.0
  0
CIRCLE
  5
45F
102
{ACAD_REACTORS
330
894
102
}
330
207
100
AcDbEntity
  8
02___PRT_ALL_AXES
  6
Continuous
 62
     7
100
AcDbCircle
 10
1182.5370663412
 20
1214.4451082511
 30
0.0
 40
17.5
  0
ARC
  5
460
330
207
100
AcDbEntity
  8
0
  6
Continuous
 62
     7
100
AcDbCircle
 10
1174.2185413852
 20
1195.9451082511
 30
0.0
 40
15.0
100
AcDbArc
 50
209.4263486784
 51
270.0
  0
ARC
  5
461
330
207
100
AcDbEntity
  8
0
  6
Continuous
 62
     7
100
AcDbCircle
 10
1476.0192074459
 20
879.4451082511001
 30
0.0
 40
100.0
100
AcDbArc
 50
209.4263486784
 51
270.0
  0
ARC
  5
462
330
207
100
AcDbEntity
  8
0
  6
Continuous
 62
     7
100
AcDbCircle
 10
1480.0370663412
 20
885.9451082511
 30
0.0
 40
80.0
100
AcDbArc
 50
218.7414033663
 51
223.6556493469
  0
ARC
  5
463
330
207
100
AcDbEntity
  8
0
  6
Continuous
 62
     7
100
AcDbCircle
 10
1480.0370663412
 20
885.9451082511
 30
0.0
 40
80.0
100
AcDbArc
 50
249.3064587688
 51
270.0
  0
ARC
  5
464
330
207
100
AcDbEntity
  8
0
  6
Continuous
 62
     7
100
AcDbCircle
 10
1480.0370663412
 20
885.9451082511
 30
0.0
 40
80.0
100
AcDbArc
 50
198.4289858956
 51
202.3736511547
  0
ARC
  5
465
330
207
100
AcDbEntity
  8
0
  6
Continuous
 62
     7
100
AcDbCircle
 10
1480.0370663412
 20
885.9451082511
 30
0.0
 40
80.0
100
AcDbArc
 50
181.1090198202
 51
184.8111042479
  0
ARC
  5
466
330
207
100
AcDbEntity
  8
0
  6
Continuous
 62
     7
100
AcDbCircle
 10
1375.8555912971
 20
822.9451082510999
 30
0.0
 40
15.0
100
AcDbArc
 50
29.4263486784
 51
90.0
  0
ARC
  5
467
330
207
100
AcDbEntity
  8
0
  6
Continuous
 62
     7
100
AcDbCircle
 10
1423.9656832657
 20
832.4451082511
 30
0.0
 40
2.5
100
AcDbArc
 50
223.6556493469
 51
270.0
  0
ARC
  5
468
330
207
100
AcDbEntity
  8
0
  6
Continuous
 62
     7
100
AcDbCircle
 10
1419.5887413024
 20
837.4451082510999
 30
0.0
 40
2.5
100
AcDbArc
 50
90.0
 51
218.7414033663
  0
ARC
  5
469
330
207
100
AcDbEntity
  8
0
  6
Continuous
 62
     7
100
AcDbCircle
 10
1452.6509384659
 20
813.4451082511001
 30
0.0
 40
2.5
100
AcDbArc
 50
90.0
 51
249.3064587688
  0
ARC
  5
46A
330
207
100
AcDbEntity
  8
0
  6
Continuous
 62
     7
100
AcDbCircle
 10
1406.5115605626
 20
861.4451082510999
 30
0.0
 40
2.5
100
AcDbArc
 50
90.0
 51
198.4289858956
  0
ARC
  5
46B
330
207
100
AcDbEntity
  8
0
  6
Continuous
 62
     7
100
AcDbCircle
 10
1408.3711748725
 20
856.4451082511
 30
0.0
 40
2.5
100
AcDbArc
 50
202.3736511547
 51
270.0
  0
ARC
  5
46C
330
207
100
AcDbEntity
  8
0
  6
Continuous
 62
     7
100
AcDbCircle
 10
1402.810128036
 20
879.4451082511001
 30
0.0
 40
2.5
100
AcDbArc
 50
184.8111042479
 51
270.0
  0
ARC
  5
46D
330
207
100
AcDbEntity
  8
0
  6
Continuous
 62
     7
100
AcDbCircle
 10
1402.5515838299
 20
884.4451082511
 30
0.0
 40
2.5
100
AcDbArc
 50
90.0
 51
181.1090198202
  0
ARC
  5
46E
330
207
100
AcDbEntity
  8
0
  6
Continuous
 62
     7
100
AcDbCircle
 10
1402.5370663412
 20
903.4451082510999
 30
0.0
 40
2.5
100
AcDbArc
 50
180.0
 51
270.0
  0
ARC
  5
46F
330
207
100
AcDbEntity
  8
0
  6
Continuous
 62
     7
100
AcDbCircle
 10
1402.5370663412
 20
908.4451082511
 30
0.0
 40
2.5
100
AcDbArc
 50
90.0
 51
180.0
  0
ARC
  5
470
330
207
100
AcDbEntity
  8
0
  6
Continuous
 62
     7
100
AcDbCircle
 10
1402.5370663412
 20
931.4451082511
 30
0.0
 40
2.5
100
AcDbArc
 50
90.0
 51
180.0
  0
ARC
  5
471
330
207
100
AcDbEntity
  8
0
  6
Continuous
 62
     7
100
AcDbCircle
 10
1402.5370663412
 20
926.4451082511
 30
0.0
 40
2.5
100
AcDbArc
 50
180.0
 51
270.0
  0
ARC
  5
472
330
207
100
AcDbEntity
  8
0
  6
Continuous
 62
     7
100
AcDbCircle
 10
1402.5370663412
 20
954.4451082511001
 30
0.0
 40
2.5
100
AcDbArc
 50
90.0
 51
180.0
  0
ARC
  5
473
330
207
100
AcDbEntity
  8
0
  6
Continuous
 62
     7
100
AcDbCircle
 10
1402.5370663412
 20
949.4451082511
 30
0.0
 40
2.5
100
AcDbArc
 50
180.0
 51
270.0
  0
ARC
  5
474
330
207
100
AcDbEntity
  8
0
  6
Continuous
 62
     7
100
AcDbCircle
 10
1402.5370663412
 20
977.4451082510999
 30
0.0
 40
2.5
100
AcDbArc
 50
90.0
 51
180.0
  0
ARC
  5
475
330
207
100
AcDbEntity
  8
0
  6
Continuous
 62
     7
100
AcDbCircle
 10
1402.5370663412
 20
972.4451082511
 30
0.0
 40
2.5
100
AcDbArc
 50
180.0
 51
270.0
  0
ARC
  5
476
330
207
100
AcDbEntity
  8
0
  6
Continuous
 62
     7
100
AcDbCircle
 10
1402.5370663412
 20
1000.4451082511
 30
0.0
 40
2.5
100
AcDbArc
 50
90.0
 51
180.0
  0
ARC
  5
477
330
207
100
AcDbEntity
  8
0
  6
Continuous
 62
     7
100
AcDbCircle
 10
1402.5370663412
 20
995.4451082510999
 30
0.0
 40
2.5
100
AcDbArc
 50
180.0
 51
270.0
  0
ARC
  5
478
102
{ACAD_REACTORS
330
81B
102
}
330
207
100
AcDbEntity
  8
0
  6
Continuous
 62
     7
100
AcDbCircle
 10
1630.0370663412
 20
885.9451082511
 30
0.0
 40
125.0
100
AcDbArc
 50
270.0
 51
360.0
  0
ARC
  5
479
330
207
100
AcDbEntity
  8
0
  6
Continuous
 62
     7
100
AcDbCircle
 10
1631.5370663412
 20
884.4451082511
 30
0.0
 40
105.0
100
AcDbArc
 50
270.0
 51
360.0
  0
ARC
  5
47A
330
207
100
AcDbEntity
  8
0
  6
Continuous
 62
     7
100
AcDbCircle
 10
1630.0370663412
 20
885.9451082511
 30
0.0
 40
80.0
100
AcDbArc
 50
316.3443506531
 51
321.2585966337
  0
ARC
  5
47B
330
207
100
AcDbEntity
  8
0
  6
Continuous
 62
     7
100
AcDbCircle
 10
1630.0370663412
 20
885.9451082511
 30
0.0
 40
80.0
100
AcDbArc
 50
270.0
 51
290.6935412312
  0
ARC
  5
47C
330
207
100
AcDbEntity
  8
0
  6
Continuous
 62
     7
100
AcDbCircle
 10
1630.0370663412
 20
885.9451082511
 30
0.0
 40
80.0
100
AcDbArc
 50
337.6263488453
 51
341.5710141044
  0
ARC
  5
47D
330
207
100
AcDbEntity
  8
0
  6
Continuous
 62
     7
100
AcDbCircle
 10
1630.0370663412
 20
885.9451082511
 30
0.0
 40
80.0
100
AcDbArc
 50
355.1888957521
 51
358.8909801798
  0
ARC
  5
47E
330
207
100
AcDbEntity
  8
0
  6
Continuous
 62
     7
100
AcDbCircle
 10
1690.48539138
 20
837.4451082510999
 30
0.0
 40
2.5
100
AcDbArc
 50
321.2585966337
 51
90.0
  0
ARC
  5
47F
330
207
100
AcDbEntity
  8
0
  6
Continuous
 62
     7
100
AcDbCircle
 10
1686.1084494167
 20
832.4451082511
 30
0.0
 40
2.5
100
AcDbArc
 50
270.0
 51
316.3443506531
  0
ARC
  5
480
330
207
100
AcDbEntity
  8
0
  6
Continuous
 62
     7
100
AcDbCircle
 10
1657.4231942164
 20
813.4451082511001
 30
0.0
 40
2.5
100
AcDbArc
 50
290.6935412312
 51
90.0
  0
ARC
  5
481
330
207
100
AcDbEntity
  8
0
  6
Continuous
 62
     7
100
AcDbCircle
 10
1703.5625721198
 20
861.4451082510999
 30
0.0
 40
2.5
100
AcDbArc
 50
341.5710141044
 51
90.0
  0
ARC
  5
482
330
207
100
AcDbEntity
  8
0
  6
Continuous
 62
     7
100
AcDbCircle
 10
1701.7029578099
 20
856.4451082511
 30
0.0
 40
2.5
100
AcDbArc
 50
270.0
 51
337.6263488453
  0
ARC
  5
483
330
207
100
AcDbEntity
  8
0
  6
Continuous
 62
     7
100
AcDbCircle
 10
1707.5225488524
 20
884.4451082511
 30
0.0
 40
2.5
100
AcDbArc
 50
358.8909801798
 51
90.0
  0
ARC
  5
484
330
207
100
AcDbEntity
  8
0
  6
Continuous
 62
     7
100
AcDbCircle
 10
1707.2640046464
 20
879.4451082511001
 30
0.0
 40
2.5
100
AcDbArc
 50
270.0
 51
355.1888957521
  0
ARC
  5
485
330
207
100
AcDbEntity
  8
0
  6
Continuous
 62
     7
100
AcDbCircle
 10
1707.5370663412
 20
903.4451082510999
 30
0.0
 40
2.5
100
AcDbArc
 50
270.0
 51
360.0
  0
ARC
  5
486
330
207
100
AcDbEntity
  8
0
  6
Continuous
 62
     7
100
AcDbCircle
 10
1707.5370663412
 20
908.4451082511
 30
0.0
 40
2.5
100
AcDbArc
 50
0.0
 51
90.0
  0
ARC
  5
487
330
207
100
AcDbEntity
  8
0
  6
Continuous
 62
     7
100
AcDbCircle
 10
1707.5370663412
 20
931.4451082511
 30
0.0
 40
2.5
100
AcDbArc
 50
0.0
 51
90.0
  0
ARC
  5
488
330
207
100
AcDbEntity
  8
0
  6
Continuous
 62
     7
100
AcDbCircle
 10
1707.5370663412
 20
926.4451082511
 30
0.0
 40
2.5
100
AcDbArc
 50
270.0
 51
360.0
  0
ARC
  5
489
330
207
100
AcDbEntity
  8
0
  6
Continuous
 62
     7
100
AcDbCircle
 10
1707.5370663412
 20
954.4451082511001
 30
0.0
 40
2.5
100
AcDbArc
 50
0.0
 51
90.0
  0
ARC
  5
48A
330
207
100
AcDbEntity
  8
0
  6
Continuous
 62
     7
100
AcDbCircle
 10
1707.5370663412
 20
949.4451082511
 30
0.0
 40
2.5
100
AcDbArc
 50
270.0
 51
360.0
  0
ARC
  5
48B
330
207
100
AcDbEntity
  8
0
  6
Continuous
 62
     7
100
AcDbCircle
 10
1707.5370663412
 20
977.4451082510999
 30
0.0
 40
2.5
100
AcDbArc
 50
0.0
 51
90.0
  0
ARC
  5
48C
330
207
100
AcDbEntity
  8
0
  6
Continuous
 62
     7
100
AcDbCircle
 10
1707.5370663412
 20
972.4451082511
 30
0.0
 40
2.5
100
AcDbArc
 50
270.0
 51
360.0
  0
ARC
  5
48D
330
207
100
AcDbEntity
  8
0
  6
Continuous
 62
     7
100
AcDbCircle
 10
1707.5370663412
 20
1000.4451082511
 30
0.0
 40
2.5
100
AcDbArc
 50
0.0
 51
90.0
  0
ARC
  5
48E
330
207
100
AcDbEntity
  8
0
  6
Continuous
 62
     7
100
AcDbCircle
 10
1707.5370663412
 20
995.4451082510999
 30
0.0
 40
2.5
100
AcDbArc
 50
270.0
 51
360.0
  0
ARC
  5
48F
330
207
100
AcDbEntity
  8
0
  6
Continuous
 62
     7
100
AcDbCircle
 10
1402.5370663412
 20
1023.4451082511
 30
0.0
 40
2.5
100
AcDbArc
 50
90.0
 51
180.0
  0
ARC
  5
490
330
207
100
AcDbEntity
  8
0
  6
Continuous
 62
     7
100
AcDbCircle
 10
1402.5370663412
 20
1018.4451082511
 30
0.0
 40
2.5
100
AcDbArc
 50
180.0
 51
270.0
  0
ARC
  5
491
330
207
100
AcDbEntity
  8
0
  6
Continuous
 62
     7
100
AcDbCircle
 10
1402.5370663412
 20
1046.4451082511
 30
0.0
 40
2.5
100
AcDbArc
 50
90.0
 51
180.0
  0
ARC
  5
492
330
207
100
AcDbEntity
  8
0
  6
Continuous
 62
     7
100
AcDbCircle
 10
1402.5370663412
 20
1041.4451082511
 30
0.0
 40
2.5
100
AcDbArc
 50
180.0
 51
270.0
  0
ARC
  5
493
330
207
100
AcDbEntity
  8
0
  6
Continuous
 62
     7
100
AcDbCircle
 10
1402.5370663412
 20
1069.4451082511
 30
0.0
 40
2.5
100
AcDbArc
 50
90.0
 51
180.0
  0
ARC
  5
494
330
207
100
AcDbEntity
  8
0
  6
Continuous
 62
     7
100
AcDbCircle
 10
1402.5370663412
 20
1064.4451082511
 30
0.0
 40
2.5
100
AcDbArc
 50
180.0
 51
270.0
  0
ARC
  5
495
330
207
100
AcDbEntity
  8
0
  6
Continuous
 62
     7
100
AcDbCircle
 10
1402.5370663412
 20
1092.4451082511
 30
0.0
 40
2.5
100
AcDbArc
 50
90.0
 51
180.0
  0
ARC
  5
496
330
207
100
AcDbEntity
  8
0
  6
Continuous
 62
     7
100
AcDbCircle
 10
1402.5370663412
 20
1087.4451082511
 30
0.0
 40
2.5
100
AcDbArc
 50
180.0
 51
270.0
  0
ARC
  5
497
330
207
100
AcDbEntity
  8
0
  6
Continuous
 62
     7
100
AcDbCircle
 10
1402.5370663412
 20
1110.4451082511
 30
0.0
 40
2.5
100
AcDbArc
 50
180.0
 51
270.0
  0
ARC
  5
498
330
207
100
AcDbEntity
  8
0
  6
Continuous
 62
     7
100
AcDbCircle
 10
1476.0192074459
 20
1139.4451082511
 30
0.0
 40
100.0
100
AcDbArc
 50
90.0
 51
150.5736513216
  0
ARC
  5
499
330
207
100
AcDbEntity
  8
0
  6
Continuous
 62
     7
100
AcDbCircle
 10
1480.0370663412
 20
1132.9451082511
 30
0.0
 40
80.0
100
AcDbArc
 50
90.0
 51
110.6935412312
  0
ARC
  5
49A
330
207
100
AcDbEntity
  8
0
  6
Continuous
 62
     7
100
AcDbCircle
 10
1480.0370663412
 20
1132.9451082511
 30
0.0
 40
80.0
100
AcDbArc
 50
136.3443506531
 51
141.2585966337
  0
ARC
  5
49B
330
207
100
AcDbEntity
  8
0
  6
Continuous
 62
     7
100
AcDbCircle
 10
1480.0370663412
 20
1132.9451082511
 30
0.0
 40
80.0
100
AcDbArc
 50
157.6263488453
 51
161.5710141044
  0
ARC
  5
49C
330
207
100
AcDbEntity
  8
0
  6
Continuous
 62
     7
100
AcDbCircle
 10
1480.0370663412
 20
1132.9451082511
 30
0.0
 40
80.0
100
AcDbArc
 50
175.1888957521
 51
178.8909801798
  0
ARC
  5
49D
330
207
100
AcDbEntity
  8
0
  6
Continuous
 62
     7
100
AcDbCircle
 10
1375.8555912971
 20
1195.9451082511
 30
0.0
 40
15.0
100
AcDbArc
 50
270.0
 51
330.5736513216
  0
ARC
  5
49E
330
207
100
AcDbEntity
  8
0
  6
Continuous
 62
     7
100
AcDbCircle
 10
1452.6509384659
 20
1205.4451082511
 30
0.0
 40
2.5
100
AcDbArc
 50
110.6935412312
 51
270.0
  0
ARC
  5
49F
330
207
100
AcDbEntity
  8
0
  6
Continuous
 62
     7
100
AcDbCircle
 10
1423.9656832657
 20
1186.4451082511
 30
0.0
 40
2.5
100
AcDbArc
 50
90.0
 51
136.3443506531
  0
ARC
  5
4A0
330
207
100
AcDbEntity
  8
0
  6
Continuous
 62
     7
100
AcDbCircle
 10
1419.5887413024
 20
1181.4451082511
 30
0.0
 40
2.5
100
AcDbArc
 50
141.2585966337
 51
270.0
  0
ARC
  5
4A1
330
207
100
AcDbEntity
  8
0
  6
Continuous
 62
     7
100
AcDbCircle
 10
1406.5115605626
 20
1157.4451082511
 30
0.0
 40
2.5
100
AcDbArc
 50
161.5710141044
 51
270.0
  0
ARC
  5
4A2
330
207
100
AcDbEntity
  8
0
  6
Continuous
 62
     7
100
AcDbCircle
 10
1408.3711748725
 20
1162.4451082511
 30
0.0
 40
2.5
100
AcDbArc
 50
90.0
 51
157.6263488453
  0
ARC
  5
4A3
330
207
100
AcDbEntity
  8
0
  6
Continuous
 62
     7
100
AcDbCircle
 10
1402.810128036
 20
1139.4451082511
 30
0.0
 40
2.5
100
AcDbArc
 50
90.0
 51
175.1888957521
  0
ARC
  5
4A4
330
207
100
AcDbEntity
  8
0
  6
Continuous
 62
     7
100
AcDbCircle
 10
1402.5515838299
 20
1134.4451082511
 30
0.0
 40
2.5
100
AcDbArc
 50
178.8909801798
 51
270.0
  0
ARC
  5
4A5
330
207
100
AcDbEntity
  8
0
  6
Continuous
 62
     7
100
AcDbCircle
 10
1402.5370663412
 20
1115.4451082511
 30
0.0
 40
2.5
100
AcDbArc
 50
90.0
 51
180.0
  0
ARC
  5
4A6
330
207
100
AcDbEntity
  8
0
  6
Continuous
 62
     7
100
AcDbCircle
 10
1707.5370663412
 20
1023.4451082511
 30
0.0
 40
2.5
100
AcDbArc
 50
0.0
 51
90.0
  0
ARC
  5
4A7
330
207
100
AcDbEntity
  8
0
  6
Continuous
 62
     7
100
AcDbCircle
 10
1707.5370663412
 20
1018.4451082511
 30
0.0
 40
2.5
100
AcDbArc
 50
270.0
 51
360.0
  0
ARC
  5
4A8
330
207
100
AcDbEntity
  8
0
  6
Continuous
 62
     7
100
AcDbCircle
 10
1707.5370663412
 20
1046.4451082511
 30
0.0
 40
2.5
100
AcDbArc
 50
0.0
 51
90.0
  0
ARC
  5
4A9
330
207
100
AcDbEntity
  8
0
  6
Continuous
 62
     7
100
AcDbCircle
 10
1707.5370663412
 20
1041.4451082511
 30
0.0
 40
2.5
100
AcDbArc
 50
270.0
 51
360.0
  0
ARC
  5
4AA
330
207
100
AcDbEntity
  8
0
  6
Continuous
 62
     7
100
AcDbCircle
 10
1707.5370663412
 20
1069.4451082511
 30
0.0
 40
2.5
100
AcDbArc
 50
0.0
 51
90.0
  0
ARC
  5
4AB
330
207
100
AcDbEntity
  8
0
  6
Continuous
 62
     7
100
AcDbCircle
 10
1707.5370663412
 20
1064.4451082511
 30
0.0
 40
2.5
100
AcDbArc
 50
270.0
 51
360.0
  0
ARC
  5
4AC
330
207
100
AcDbEntity
  8
0
  6
Continuous
 62
     7
100
AcDbCircle
 10
1707.5370663412
 20
1092.4451082511
 30
0.0
 40
2.5
100
AcDbArc
 50
0.0
 51
90.0
  0
ARC
  5
4AD
330
207
100
AcDbEntity
  8
0
  6
Continuous
 62
     7
100
AcDbCircle
 10
1707.5370663412
 20
1087.4451082511
 30
0.0
 40
2.5
100
AcDbArc
 50
270.0
 51
360.0
  0
ARC
  5
4AE
330
207
100
AcDbEntity
  8
0
  6
Continuous
 62
     7
100
AcDbCircle
 10
1707.5370663412
 20
1110.4451082511
 30
0.0
 40
2.5
100
AcDbArc
 50
270.0
 51
360.0
  0
ARC
  5
4AF
330
207
100
AcDbEntity
  8
0
  6
Continuous
 62
     7
100
AcDbCircle
 10
1630.0370663412
 20
1132.9451082511
 30
0.0
 40
125.0
100
AcDbArc
 50
0.0
 51
90.0
  0
ARC
  5
4B0
330
207
100
AcDbEntity
  8
0
  6
Continuous
 62
     7
100
AcDbCircle
 10
1631.5370663412
 20
1134.4451082511
 30
0.0
 40
105.0
100
AcDbArc
 50
0.0
 51
90.0
  0
ARC
  5
4B1
330
207
100
AcDbEntity
  8
0
  6
Continuous
 62
     7
100
AcDbCircle
 10
1630.0370663412
 20
1132.9451082511
 30
0.0
 40
80.0
100
AcDbArc
 50
69.30645876879999
 51
90.0
  0
ARC
  5
4B2
330
207
100
AcDbEntity
  8
0
  6
Continuous
 62
     7
100
AcDbCircle
 10
1630.0370663412
 20
1132.9451082511
 30
0.0
 40
80.0
100
AcDbArc
 50
38.7414033663
 51
43.6556493469
  0
ARC
  5
4B3
330
207
100
AcDbEntity
  8
0
  6
Continuous
 62
     7
100
AcDbCircle
 10
1630.0370663412
 20
1132.9451082511
 30
0.0
 40
80.0
100
AcDbArc
 50
18.4289858956
 51
22.3736511547
  0
ARC
  5
4B4
330
207
100
AcDbEntity
  8
0
  6
Continuous
 62
     7
100
AcDbCircle
 10
1630.0370663412
 20
1132.9451082511
 30
0.0
 40
80.0
100
AcDbArc
 50
1.109019820199999
 51
4.8111042479
  0
ARC
  5
4B5
330
207
100
AcDbEntity
  8
0
  6
Continuous
 62
     7
100
AcDbCircle
 10
1657.4231942164
 20
1205.4451082511
 30
0.0
 40
2.5
100
AcDbArc
 50
270.0
 51
69.30645876879999
  0
ARC
  5
4B6
330
207
100
AcDbEntity
  8
0
  6
Continuous
 62
     7
100
AcDbCircle
 10
1686.1084494167
 20
1186.4451082511
 30
0.0
 40
2.5
100
AcDbArc
 50
43.6556493469
 51
90.0
  0
ARC
  5
4B7
330
207
100
AcDbEntity
  8
0
  6
Continuous
 62
     7
100
AcDbCircle
 10
1690.48539138
 20
1181.4451082511
 30
0.0
 40
2.5
100
AcDbArc
 50
270.0
 51
38.7414033663
  0
ARC
  5
4B8
330
207
100
AcDbEntity
  8
0
  6
Continuous
 62
     7
100
AcDbCircle
 10
1701.7029578099
 20
1162.4451082511
 30
0.0
 40
2.5
100
AcDbArc
 50
22.3736511547
 51
90.0
  0
ARC
  5
4B9
330
207
100
AcDbEntity
  8
0
  6
Continuous
 62
     7
100
AcDbCircle
 10
1703.5625721198
 20
1157.4451082511
 30
0.0
 40
2.5
100
AcDbArc
 50
270.0
 51
18.4289858956
  0
ARC
  5
4BA
330
207
100
AcDbEntity
  8
0
  6
Continuous
 62
     7
100
AcDbCircle
 10
1707.2640046464
 20
1139.4451082511
 30
0.0
 40
2.5
100
AcDbArc
 50
4.8111042479
 51
90.0
  0
ARC
  5
4BB
330
207
100
AcDbEntity
  8
0
  6
Continuous
 62
     7
100
AcDbCircle
 10
1707.5225488524
 20
1134.4451082511
 30
0.0
 40
2.5
100
AcDbArc
 50
270.0
 51
1.109019820199999
  0
ARC
  5
4BC
330
207
100
AcDbEntity
  8
0
  6
Continuous
 62
     7
100
AcDbCircle
 10
1707.5370663412
 20
1115.4451082511
 30
0.0
 40
2.5
100
AcDbArc
 50
0.0
 51
90.0
  0
ELLIPSE
  5
627
330
207
100
AcDbEntity
  8
0
  6
Continuous
 62
     7
100
AcDbEllipse
 10
1707.5269530559
 20
977.4451082510999
 30
0.0
 11
4.869649266399999
 21
-0.0000000003
 31
0.0
210
0.0
220
0.0
230
1.0
 40
0.9999978434
 41
0.0000000001
 42
1.5687195258
  0
ELLIPSE
  5
628
330
207
100
AcDbEntity
  8
0
  6
Continuous
 62
     7
100
AcDbEllipse
 10
1402.5256375558
 20
977.4451082510999
 30
0.0
 11
5.5030758549
 21
0.0
 31
0.0
210
0.0
220
0.0
230
1.0
 40
0.9999978434
 41
1.5687195258
 42
3.1415926536
  0
ELLIPSE
  5
629
330
207
100
AcDbEntity
  8
0
  6
Continuous
 62
     7
100
AcDbEllipse
 10
1402.5256375558
 20
972.4451082511
 30
0.0
 11
5.5030758549
 21
0.0
 31
0.0
210
0.0
220
0.0
230
1.0
 40
0.9999978434
 41
3.1415926536
 42
4.714465781399999
  0
ELLIPSE
  5
62A
330
207
100
AcDbEntity
  8
0
  6
Continuous
 62
     7
100
AcDbEllipse
 10
1707.5269530559
 20
995.4451082510999
 30
0.0
 11
4.869649266399999
 21
0.0
 31
0.0
210
0.0
220
0.0
230
1.0
 40
0.9999978434
 41
-1.5687195258
 42
0.0
  0
ELLIPSE
  5
62B
330
207
100
AcDbEntity
  8
0
  6
Continuous
 62
     7
100
AcDbEllipse
 10
1707.5269530559
 20
1000.4451082511
 30
0.0
 11
4.869649266399999
 21
-0.0000000003
 31
0.0
210
0.0
220
0.0
230
1.0
 40
0.9999978434
 41
0.0000000001
 42
1.5687195258
  0
ELLIPSE
  5
62C
330
207
100
AcDbEntity
  8
0
  6
Continuous
 62
     7
100
AcDbEllipse
 10
1402.5256375558
 20
1000.4451082511
 30
0.0
 11
5.5030758549
 21
0.0
 31
0.0
210
0.0
220
0.0
230
1.0
 40
0.9999978434
 41
1.5687195258
 42
3.1415926536
  0
ELLIPSE
  5
62D
330
207
100
AcDbEntity
  8
0
  6
Continuous
 62
     7
100
AcDbEllipse
 10
1402.5256375558
 20
995.4451082510999
 30
0.0
 11
5.5030758549
 21
0.0
 31
0.0
210
0.0
220
0.0
230
1.0
 40
0.9999978434
 41
3.1415926536
 42
4.714465781399999
  0
ELLIPSE
  5
62E
330
207
100
AcDbEntity
  8
0
  6
Continuous
 62
     7
100
AcDbEllipse
 10
1707.5269530559
 20
1018.4451082511
 30
0.0
 11
4.869649266399999
 21
0.0
 31
0.0
210
0.0
220
0.0
230
1.0
 40
0.9999978434
 41
-1.5687195258
 42
0.0
  0
ELLIPSE
  5
62F
330
207
100
AcDbEntity
  8
0
  6
Continuous
 62
     7
100
AcDbEllipse
 10
1707.5269530559
 20
1023.4451082511
 30
0.0
 11
4.869649266399999
 21
-0.0000000001
 31
0.0
210
0.0
220
0.0
230
1.0
 40
0.9999978434
 41
0.0
 42
1.5687195258
  0
ELLIPSE
  5
630
330
207
100
AcDbEntity
  8
0
  6
Continuous
 62
     7
100
AcDbEllipse
 10
1402.5256375558
 20
1023.4451082511
 30
0.0
 11
5.5030758549
 21
0.0
 31
0.0
210
0.0
220
0.0
230
1.0
 40
0.9999978434
 41
1.5687195258
 42
3.1415926536
  0
ELLIPSE
  5
631
330
207
100
AcDbEntity
  8
0
  6
Continuous
 62
     7
100
AcDbEllipse
 10
1402.5256375558
 20
1018.4451082511
 30
0.0
 11
5.5030758549
 21
0.0
 31
0.0
210
0.0
220
0.0
230
1.0
 40
0.9999978434
 41
3.1415926536
 42
4.714465781399999
  0
ELLIPSE
  5
632
330
207
100
AcDbEntity
  8
0
  6
Continuous
 62
     7
100
AcDbEllipse
 10
1707.5269530559
 20
1041.4451082511
 30
0.0
 11
4.869649266399999
 21
0.0000000001
 31
0.0
210
0.0
220
0.0
230
1.0
 40
0.9999978434
 41
-1.5687195258
 42
0.0
  0
ELLIPSE
  5
633
330
207
100
AcDbEntity
  8
0
  6
Continuous
 62
     7
100
AcDbEllipse
 10
1707.5269530559
 20
1046.4451082511
 30
0.0
 11
4.869649266399999
 21
0.0
 31
0.0
210
0.0
220
0.0
230
1.0
 40
0.9999978434
 41
0.0
 42
1.5687195258
  0
ELLIPSE
  5
634
330
207
100
AcDbEntity
  8
0
  6
Continuous
 62
     7
100
AcDbEllipse
 10
1402.5256375558
 20
1046.4451082511
 30
0.0
 11
5.5030758549
 21
0.0000000167
 31
0.0
210
0.0
220
0.0
230
1.0
 40
0.9999978434
 41
1.5687195227
 42
3.141592650599999
  0
ELLIPSE
  5
635
330
207
100
AcDbEntity
  8
0
  6
Continuous
 62
     7
100
AcDbEllipse
 10
1402.5256375558
 20
1041.4451082511
 30
0.0
 11
5.5030758549
 21
0.0000000163
 31
0.0
210
0.0
220
0.0
230
1.0
 40
0.9999978434
 41
3.141592650599999
 42
4.7144657784
  0
ELLIPSE
  5
636
330
207
100
AcDbEntity
  8
0
  6
Continuous
 62
     7
100
AcDbEllipse
 10
1707.5269530559
 20
1064.4451082511
 30
0.0
 11
4.869649266399999
 21
0.0000000001
 31
0.0
210
0.0
220
0.0
230
1.0
 40
0.9999978434
 41
-1.5687195258
 42
0.0
  0
ELLIPSE
  5
637
330
207
100
AcDbEntity
  8
0
  6
Continuous
 62
     7
100
AcDbEllipse
 10
1707.5269530559
 20
1069.4451082511
 30
0.0
 11
4.869649266399999
 21
0.0
 31
0.0
210
0.0
220
0.0
230
1.0
 40
0.9999978434
 41
0.0
 42
1.5687195258
  0
ELLIPSE
  5
638
330
207
100
AcDbEntity
  8
0
  6
Continuous
 62
     7
100
AcDbEllipse
 10
1402.5256375558
 20
1069.4451082511
 30
0.0
 11
5.5030758549
 21
0.0
 31
0.0
210
0.0
220
0.0
230
1.0
 40
0.9999978434
 41
1.5687195258
 42
3.1415926536
  0
ELLIPSE
  5
639
330
207
100
AcDbEntity
  8
0
  6
Continuous
 62
     7
100
AcDbEllipse
 10
1402.5256375558
 20
1064.4451082511
 30
0.0
 11
5.5030758549
 21
-0.0000000001
 31
0.0
210
0.0
220
0.0
230
1.0
 40
0.9999978434
 41
-3.1415926536
 42
-1.5687195258
  0
ELLIPSE
  5
63A
330
207
100
AcDbEntity
  8
0
  6
Continuous
 62
     7
100
AcDbEllipse
 10
1707.5269530559
 20
1087.4451082511
 30
0.0
 11
4.869649266399999
 21
0.0
 31
0.0
210
0.0
220
0.0
230
1.0
 40
0.9999978434
 41
-1.5687195258
 42
0.0
  0
ELLIPSE
  5
63B
330
207
100
AcDbEntity
  8
0
  6
Continuous
 62
     7
100
AcDbEllipse
 10
1707.5269530559
 20
1092.4451082511
 30
0.0
 11
4.869649266399999
 21
0.0000000001
 31
0.0
210
0.0
220
0.0
230
1.0
 40
0.9999978434
 41
0.0
 42
1.5687195258
  0
ELLIPSE
  5
63C
330
207
100
AcDbEntity
  8
0
  6
Continuous
 62
     7
100
AcDbEllipse
 10
1402.5256375558
 20
1092.4451082511
 30
0.0
 11
5.5030758549
 21
0.0
 31
0.0
210
0.0
220
0.0
230
1.0
 40
0.9999978434
 41
1.5687195258
 42
3.1415926536
  0
ELLIPSE
  5
63D
330
207
100
AcDbEntity
  8
0
  6
Continuous
 62
     7
100
AcDbEllipse
 10
1402.5256375558
 20
1087.4451082511
 30
0.0
 11
5.5030758549
 21
0.0
 31
0.0
210
0.0
220
0.0
230
1.0
 40
0.9999978434
 41
3.1415926536
 42
4.714465781399999
  0
ELLIPSE
  5
63E
330
207
100
AcDbEntity
  8
0
  6
Continuous
 62
     7
100
AcDbEllipse
 10
1707.5269530559
 20
1110.4451082511
 30
0.0
 11
4.869649266399999
 21
0.0
 31
0.0
210
0.0
220
0.0
230
1.0
 40
0.9999978434
 41
-1.5687195258
 42
0.0
  0
ELLIPSE
  5
63F
330
207
100
AcDbEntity
  8
0
  6
Continuous
 62
     7
100
AcDbEllipse
 10
1707.5269530559
 20
1115.4451082511
 30
0.0
 11
4.869649266399999
 21
0.0000000001
 31
0.0
210
0.0
220
0.0
230
1.0
 40
0.9999978434
 41
0.0
 42
1.5687195258
  0
ELLIPSE
  5
640
330
207
100
AcDbEntity
  8
0
  6
Continuous
 62
     7
100
AcDbEllipse
 10
1402.5256375558
 20
1115.4451082511
 30
0.0
 11
5.5030758549
 21
0.0
 31
0.0
210
0.0
220
0.0
230
1.0
 40
0.9999978434
 41
1.5687195258
 42
3.1415926536
  0
ELLIPSE
  5
641
330
207
100
AcDbEntity
  8
0
  6
Continuous
 62
     7
100
AcDbEllipse
 10
1402.5256375558
 20
1110.4451082511
 30
0.0
 11
5.5030758549
 21
0.0
 31
0.0
210
0.0
220
0.0
230
1.0
 40
0.9999978434
 41
3.1415926536
 42
4.714465781399999
  0
ELLIPSE
  5
642
330
207
100
AcDbEntity
  8
0
  6
Continuous
 62
     7
100
AcDbEllipse
 10
1479.8650191645
 20
885.9451082511
 30
0.0
 11
82.84245746399999
 21
0.000000002
 31
0.0
210
0.0
220
0.0
230
1.0
 40
0.9999978433999999
 41
-2.4641268788
 42
-2.3782230946
  0
ELLIPSE
  5
643
330
207
100
AcDbEntity
  8
0
  6
Continuous
 62
     7
100
AcDbEllipse
 10
1629.8656661317
 20
885.9451082511
 30
0.0
 11
82.53093619100001
 21
-0.0000000003
 31
0.0
210
0.0
220
0.0
230
1.0
 40
0.9999978434
 41
-0.7605022316
 42
-0.6748664216
  0
ELLIPSE
  5
644
330
207
100
AcDbEntity
  8
0
  6
Continuous
 62
     7
100
AcDbEllipse
 10
1479.8650191645
 20
885.9451082511
 30
0.0
 11
82.84245746399999
 21
-0.0000000018
 31
0.0
210
0.0
220
0.0
230
1.0
 40
0.9999978433999999
 41
-1.930023228099999
 42
-1.5687195258
  0
ELLIPSE
  5
645
330
207
100
AcDbEntity
  8
0
  6
Continuous
 62
     7
100
AcDbEllipse
 10
1629.8656661317
 20
885.9451082511
 30
0.0
 11
82.53093619100001
 21
-0.0000000013
 31
0.0
210
0.0
220
0.0
230
1.0
 40
0.9999978434
 41
-1.5687195258
 42
-1.207683797099999
  0
ELLIPSE
  5
646
330
207
100
AcDbEntity
  8
0
  6
Continuous
 62
     7
100
AcDbEllipse
 10
1629.8656661317
 20
885.9451082511
 30
0.0
 11
82.53093619100001
 21
0.0000000032
 31
0.0
210
0.0
220
0.0
230
1.0
 40
0.9999978434
 41
-0.3897041122
 42
-0.3209905906
  0
ELLIPSE
  5
647
330
207
100
AcDbEntity
  8
0
  6
Continuous
 62
     7
100
AcDbEllipse
 10
1479.8650191645
 20
885.9451082511
 30
0.0
 11
82.84245746399999
 21
-0.0000000013
 31
0.0
210
0.0
220
0.0
230
1.0
 40
0.9999978433999999
 41
-2.8192889872
 42
-2.750307490899999
  0
ELLIPSE
  5
648
330
207
100
AcDbEntity
  8
0
  6
Continuous
 62
     7
100
AcDbEllipse
 10
1479.8650191645
 20
885.9451082511
 30
0.0
 11
82.84245746399999
 21
-0.0000000004
 31
0.0
210
0.0
220
0.0
230
1.0
 40
0.9999978433999999
 41
-3.1221963683
 42
-3.057448679999999
  0
ELLIPSE
  5
649
330
207
100
AcDbEntity
  8
0
  6
Continuous
 62
     7
100
AcDbEllipse
 10
1629.8656661317
 20
885.9451082511
 30
0.0
 11
82.53093619100001
 21
-0.000000016
 31
0.0
210
0.0
220
0.0
230
1.0
 40
0.9999978434
 41
-0.0837956063
 42
-0.0193158927
  0
ELLIPSE
  5
64A
330
207
100
AcDbEntity
  8
0
  6
Continuous
 62
     7
100
AcDbEllipse
 10
1479.8650191645
 20
1132.9451082511
 30
0.0
 11
82.84245746399999
 21
-0.0000000018
 31
0.0
210
0.0
220
0.0
230
1.0
 40
0.9999978433999999
 41
1.5687195258
 42
1.930023228099999
  0
ELLIPSE
  5
64B
330
207
100
AcDbEntity
  8
0
  6
Continuous
 62
     7
100
AcDbEllipse
 10
1629.8656661317
 20
1132.9451082511
 30
0.0
 11
82.53093619100001
 21
-0.0000000002
 31
0.0
210
0.0
220
0.0
230
1.0
 40
0.9999978434
 41
1.207683797099999
 42
1.5687195258
  0
ELLIPSE
  5
64C
330
207
100
AcDbEntity
  8
0
  6
Continuous
 62
     7
100
AcDbEllipse
 10
1479.8650191645
 20
1132.9451082511
 30
0.0
 11
82.84245746399999
 21
0.0000000027
 31
0.0
210
0.0
220
0.0
230
1.0
 40
0.9999978433999999
 41
2.3782230945
 42
2.4641268787
  0
ELLIPSE
  5
64D
330
207
100
AcDbEntity
  8
0
  6
Continuous
 62
     7
100
AcDbEllipse
 10
1629.8656661317
 20
1132.9451082511
 30
0.0
 11
82.53093619100001
 21
-0.0000000002
 31
0.0
210
0.0
220
0.0
230
1.0
 40
0.9999978434
 41
0.6748664216
 42
0.7605022316
  0
ELLIPSE
  5
64E
330
207
100
AcDbEntity
  8
0
  6
Continuous
 62
     7
100
AcDbEllipse
 10
1629.8656661317
 20
1132.9451082511
 30
0.0
 11
82.53093619100001
 21
0.0000000017
 31
0.0
210
0.0
220
0.0
230
1.0
 40
0.9999978434
 41
0.3209905905
 42
0.3897041122
  0
ELLIPSE
  5
64F
330
207
100
AcDbEntity
  8
0
  6
Continuous
 62
     7
100
AcDbEllipse
 10
1479.8650191645
 20
1132.9451082511
 30
0.0
 11
82.84245746399999
 21
-0.0000000003
 31
0.0
210
0.0
220
0.0
230
1.0
 40
0.9999978433999999
 41
2.750307490899999
 42
2.8192889872
  0
ELLIPSE
  5
650
330
207
100
AcDbEntity
  8
0
  6
Continuous
 62
     7
100
AcDbEllipse
 10
1479.8650191645
 20
1132.9451082511
 30
0.0
 11
82.84245746399999
 21
0.0000000003
 31
0.0
210
0.0
220
0.0
230
1.0
 40
0.9999978433999999
 41
3.057448679999999
 42
3.1221963683
  0
ELLIPSE
  5
651
330
207
100
AcDbEntity
  8
0
  6
Continuous
 62
     7
100
AcDbEllipse
 10
1629.8656661317
 20
1132.9451082511
 30
0.0
 11
82.53093619100001
 21
-0.0000000041
 31
0.0
210
0.0
220
0.0
230
1.0
 40
0.9999978434
 41
0.0193158929
 42
0.0837956065
  0
ELLIPSE
  5
652
330
207
100
AcDbEntity
  8
0
  6
Continuous
 62
     7
100
AcDbEllipse
 10
1657.4128647842
 20
1205.4451082511
 30
0.0
 11
4.973726181299999
 21
0.0
 31
0.0
210
0.0
220
0.0
230
1.0
 40
0.9999978434
 41
-1.5687195258
 42
1.207683797099999
  0
ELLIPSE
  5
653
330
207
100
AcDbEntity
  8
0
  6
Continuous
 62
     7
100
AcDbEllipse
 10
1452.6397258275
 20
1205.4451082511
 30
0.0
 11
5.39899894
 21
0.0
 31
0.0
210
0.0
220
0.0
230
1.0
 40
0.9999978434
 41
1.930023228099999
 42
4.714465781399999
  0
ELLIPSE
  5
654
330
207
100
AcDbEntity
  8
0
  6
Continuous
 62
     7
100
AcDbEllipse
 10
1423.9543469044
 20
1186.4451082511
 30
0.0
 11
5.458572721399999
 21
-0.0000000001
 31
0.0
210
0.0
220
0.0
230
1.0
 40
0.9999978434
 41
1.5687195258
 42
2.3782230946
  0
ELLIPSE
  5
655
330
207
100
AcDbEntity
  8
0
  6
Continuous
 62
     7
100
AcDbEllipse
 10
1419.5773860628
 20
1181.4451082511
 30
0.0
 11
5.467662791599999
 21
-0.0000000001
 31
0.0
210
0.0
220
0.0
230
1.0
 40
0.9999978434
 41
2.4641268788
 42
4.714465781399999
  0
ELLIPSE
  5
656
330
207
100
AcDbEntity
  8
0
  6
Continuous
 62
     7
100
AcDbEllipse
 10
1690.4752045489
 20
1181.4451082511
 30
0.0
 11
4.9050623297
 21
0.0
 31
0.0
210
0.0
220
0.0
230
1.0
 40
0.9999978433999999
 41
-1.5687195258
 42
0.6748664216
  0
ELLIPSE
  5
657
330
207
100
AcDbEntity
  8
0
  6
Continuous
 62
     7
100
AcDbEllipse
 10
1686.0982437073
 20
1186.4451082511
 30
0.0
 11
4.914152399899999
 21
-0.0000000001
 31
0.0
210
0.0
220
0.0
230
1.0
 40
0.9999978434
 41
0.7605022316
 42
1.5687195258
  0
ELLIPSE
  5
658
330
207
100
AcDbEntity
  8
0
  6
Continuous
 62
     7
100
AcDbEllipse
 10
1701.6928193614
 20
1162.4451082511
 30
0.0
 11
4.881765592499999
 21
-0.0000000001
 31
0.0
210
0.0
220
0.0
230
1.0
 40
0.9999978434
 41
0.3897041122
 42
1.5687195258
  0
ELLIPSE
  5
659
330
207
100
AcDbEntity
  8
0
  6
Continuous
 62
     7
100
AcDbEllipse
 10
1703.552441692
 20
1157.4451082511
 30
0.0
 11
4.8779035297
 21
0.0
 31
0.0
210
0.0
220
0.0
230
1.0
 40
0.9999978434
 41
-1.5687195258
 42
0.3209905905
  0
ELLIPSE
  5
65A
330
207
100
AcDbEntity
  8
0
  6
Continuous
 62
     7
100
AcDbEllipse
 10
1406.5001489197
 20
1157.4451082511
 30
0.0
 11
5.4948215916
 21
-0.0000000001
 31
0.0
210
0.0
220
0.0
230
1.0
 40
0.9999978433999999
 41
2.8192889872
 42
4.714465781399999
  0
ELLIPSE
  5
65B
330
207
100
AcDbEntity
  8
0
  6
Continuous
 62
     7
100
AcDbEllipse
 10
1408.3597712503
 20
1162.4451082511
 30
0.0
 11
5.4909595288
 21
0.0
 31
0.0
210
0.0
220
0.0
230
1.0
 40
0.9999978434
 41
1.5687195258
 42
2.750307490899999
  0
ELLIPSE
  5
65C
330
207
100
AcDbEntity
  8
0
  6
Continuous
 62
     7
100
AcDbEllipse
 10
1402.7987004284
 20
1139.4451082511
 30
0.0
 11
5.502508758099999
 21
0.0
 31
0.0
210
0.0
220
0.0
230
1.0
 40
0.9999978433999999
 41
1.5687195258
 42
3.057448679999999
  0
ELLIPSE
  5
65D
330
207
100
AcDbEntity
  8
0
  6
Continuous
 62
     7
100
AcDbEllipse
 10
1402.5401551072
 20
1134.4451082511
 30
0.0
 11
5.503045704899999
 21
0.0
 31
0.0
210
0.0
220
0.0
230
1.0
 40
0.9999978433999999
 41
3.1221963683
 42
4.714465781399999
  0
ELLIPSE
  5
65E
330
207
100
AcDbEntity
  8
0
  6
Continuous
 62
     7
100
AcDbEllipse
 10
1707.5124355045
 20
1134.4451082511
 30
0.0
 11
4.869679416399998
 21
-0.0000000001
 31
0.0
210
0.0
220
0.0
230
1.0
 40
0.9999978434
 41
-1.5687195258
 42
0.0193158929
  0
ELLIPSE
  5
65F
330
207
100
AcDbEntity
  8
0
  6
Continuous
 62
     7
100
AcDbEllipse
 10
1707.2538901834
 20
1139.4451082511
 30
0.0
 11
4.870216363199999
 21
0.0000000001
 31
0.0
210
0.0
220
0.0
230
1.0
 40
0.9999978434
 41
0.0837956064
 42
1.5687195258
  0
ELLIPSE
  5
660
330
207
100
AcDbEntity
  8
0
  6
Continuous
 62
     7
100
AcDbEllipse
 10
1402.7987004284
 20
879.4451082511001
 30
0.0
 11
5.502508758099999
 21
0.0
 31
0.0
210
0.0
220
0.0
230
1.0
 40
0.9999978433999999
 41
-3.057448679999999
 42
-1.5687195258
  0
ELLIPSE
  5
661
330
207
100
AcDbEntity
  8
0
  6
Continuous
 62
     7
100
AcDbEllipse
 10
1402.5401551072
 20
884.4451082511
 30
0.0
 11
5.503045704899999
 21
0.0
 31
0.0
210
0.0
220
0.0
230
1.0
 40
0.9999978433999999
 41
1.5687195258
 42
3.160988938899999
  0
ELLIPSE
  5
662
330
207
100
AcDbEntity
  8
0
  6
Continuous
 62
     7
100
AcDbEllipse
 10
1707.2538901834
 20
879.4451082511001
 30
0.0
 11
4.870216363199999
 21
0.0
 31
0.0
210
0.0
220
0.0
230
1.0
 40
0.9999978434
 41
-1.5687195258
 42
-0.0837956065
  0
ELLIPSE
  5
663
330
207
100
AcDbEntity
  8
0
  6
Continuous
 62
     7
100
AcDbEllipse
 10
1707.5124355045
 20
884.4451082511
 30
0.0
 11
4.869679416399998
 21
0.0000000001
 31
0.0
210
0.0
220
0.0
230
1.0
 40
0.9999978434
 41
-0.0193158929
 42
1.5687195258
  0
ELLIPSE
  5
664
330
207
100
AcDbEntity
  8
0
  6
Continuous
 62
     7
100
AcDbEllipse
 10
1703.552441692
 20
861.4451082510999
 30
0.0
 11
4.8779035297
 21
-0.0000000001
 31
0.0
210
0.0
220
0.0
230
1.0
 40
0.9999978434
 41
-0.3209905905
 42
1.5687195258
  0
ELLIPSE
  5
665
330
207
100
AcDbEntity
  8
0
  6
Continuous
 62
     7
100
AcDbEllipse
 10
1701.6928193614
 20
856.4451082511
 30
0.0
 11
4.881765592499999
 21
-0.0000000001
 31
0.0
210
0.0
220
0.0
230
1.0
 40
0.9999978434
 41
-1.568719525699999
 42
-0.3897041122
  0
ELLIPSE
  5
666
330
207
100
AcDbEntity
  8
0
  6
Continuous
 62
     7
100
AcDbEllipse
 10
1408.3597712503
 20
856.4451082511
 30
0.0
 11
5.4909595288
 21
0.0
 31
0.0
210
0.0
220
0.0
230
1.0
 40
0.9999978434
 41
-2.750307490899999
 42
-1.5687195258
  0
ELLIPSE
  5
667
330
207
100
AcDbEntity
  8
0
  6
Continuous
 62
     7
100
AcDbEllipse
 10
1406.5001489197
 20
861.4451082510999
 30
0.0
 11
5.4948215916
 21
-0.0000000001
 31
0.0
210
0.0
220
0.0
230
1.0
 40
0.9999978433999999
 41
1.5687195258
 42
3.463896319999999
  0
ELLIPSE
  5
668
330
207
100
AcDbEntity
  8
0
  6
Continuous
 62
     7
100
AcDbEllipse
 10
1423.9543469044
 20
832.4451082511
 30
0.0
 11
5.458572721399999
 21
-0.0000000001
 31
0.0
210
0.0
220
0.0
230
1.0
 40
0.9999978434
 41
-2.3782230946
 42
-1.568719525699999
  0
ELLIPSE
  5
669
330
207
100
AcDbEntity
  8
0
  6
Continuous
 62
     7
100
AcDbEllipse
 10
1419.5773860628
 20
837.4451082510999
 30
0.0
 11
5.467662791599999
 21
-0.0000000002
 31
0.0
210
0.0
220
0.0
230
1.0
 40
0.9999978434
 41
1.5687195258
 42
3.8190584285
  0
ELLIPSE
  5
66A
330
207
100
AcDbEntity
  8
0
  6
Continuous
 62
     7
100
AcDbEllipse
 10
1452.6397258275
 20
813.4451082511001
 30
0.0
 11
5.39899894
 21
0.0000000001
 31
0.0
210
0.0
220
0.0
230
1.0
 40
0.9999978434
 41
1.568719525699999
 42
4.3531620791
  0
ELLIPSE
  5
66B
330
207
100
AcDbEntity
  8
0
  6
Continuous
 62
     7
100
AcDbEllipse
 10
1657.4128647842
 20
813.4451082511001
 30
0.0
 11
4.973726181299999
 21
-0.0000000001
 31
0.0
210
0.0
220
0.0
230
1.0
 40
0.9999978434
 41
-1.207683797099999
 42
1.5687195258
  0
ELLIPSE
  5
66C
330
207
100
AcDbEntity
  8
0
  6
Continuous
 62
     7
100
AcDbEllipse
 10
1686.0982437073
 20
832.4451082511
 30
0.0
 11
4.914152399899999
 21
0.0000000001
 31
0.0
210
0.0
220
0.0
230
1.0
 40
0.9999978434
 41
-1.5687195258
 42
-0.7605022316
  0
ELLIPSE
  5
66D
330
207
100
AcDbEntity
  8
0
  6
Continuous
 62
     7
100
AcDbEllipse
 10
1690.4752045489
 20
837.4451082510999
 30
0.0
 11
4.9050623297
 21
-0.0000000405
 31
0.0
210
0.0
220
0.0
230
1.0
 40
0.9999978433999999
 41
-0.6748664134000001
 42
1.568719533999999
  0
ELLIPSE
  5
66E
330
207
100
AcDbEntity
  8
0
  6
Continuous
 62
     7
100
AcDbEllipse
 10
868.7924986339998
 20
1134.4451082511
 30
0.0
 11
97.6389939372
 21
-0.000000002
 31
0.0
210
0.0
220
0.0
230
1.0
 40
0.9999965779999998
 41
1.5734124187
 42
3.1415926536
  0
ELLIPSE
  5
66F
330
207
100
AcDbEntity
  8
0
  6
Continuous
 62
     7
100
AcDbEllipse
 10
1074.2986835527
 20
1139.4451082511
 30
0.0
 11
93.17661639609999
 21
-0.0000000011
 31
0.0
210
0.0
220
0.0
230
1.0
 40
0.999996578
 41
0.5148734352000001
 42
1.5734124187
  0
ELLIPSE
  5
670
330
207
100
AcDbEntity
  8
0
  6
Continuous
 62
     7
100
AcDbEllipse
 10
1174.1621329302
 20
1195.9451082511
 30
0.0
 11
21.5621319384
 21
0.0000000003
 31
0.0
210
0.0
220
0.0
230
1.0
 40
0.999996578
 41
-2.626719218399999
 42
-1.568180234899999
  0
ELLIPSE
  5
671
330
207
100
AcDbEntity
  8
0
  6
Continuous
 62
     7
100
AcDbEllipse
 10
1375.8005628397
 20
1195.9451082511
 30
0.0
 11
21.0346278706
 21
-0.0000000292
 31
0.0
210
0.0
220
0.0
230
1.0
 40
0.999996578
 41
-1.568180233499999
 42
-0.5123028347
  0
ELLIPSE
  5
672
330
207
100
AcDbEntity
  8
0
  6
Continuous
 62
     7
100
AcDbEllipse
 10
1476.265716793
 20
1139.4451082511
 30
0.0
 11
94.2281979088
 21
-0.0000000018
 31
0.0
210
0.0
220
0.0
230
1.0
 40
0.999996578
 41
1.5734124187
 42
2.629289817599999
  0
ELLIPSE
  5
673
330
207
100
AcDbEntity
  8
0
  6
Continuous
 62
     7
100
AcDbEllipse
 10
1631.7977205818
 20
1134.4451082511
 30
0.0
 11
99.6350834649
 21
-0.0000000012
 31
0.0
210
0.0
220
0.0
230
1.0
 40
0.999996578
 41
0.0
 42
1.5734124187
  0
ELLIPSE
  5
674
330
207
100
AcDbEntity
  8
0
  6
Continuous
 62
     7
100
AcDbEllipse
 10
1631.7977205818
 20
884.4451082511
 30
0.0
 11
99.6350834649
 21
0.000000001
 31
0.0
210
0.0
220
0.0
230
1.0
 40
0.999996578
 41
-1.5734124187
 42
0.0
  0
ELLIPSE
  5
675
330
207
100
AcDbEntity
  8
0
  6
Continuous
 62
     7
100
AcDbEllipse
 10
1476.265716793
 20
879.4451082511001
 30
0.0
 11
94.2281979088
 21
-0.0000000008
 31
0.0
210
0.0
220
0.0
230
1.0
 40
0.999996578
 41
-2.6292898175
 42
-1.5734124187
  0
ELLIPSE
  5
676
330
207
100
AcDbEntity
  8
0
  6
Continuous
 62
     7
100
AcDbEllipse
 10
1375.8005628397
 20
822.9451082510999
 30
0.0
 11
21.0346278706
 21
0.0
 31
0.0
210
0.0
220
0.0
230
1.0
 40
0.999996578
 41
0.5123028360000001
 42
1.568180234899999
  0
ELLIPSE
  5
677
330
207
100
AcDbEntity
  8
0
  6
Continuous
 62
     7
100
AcDbEllipse
 10
1174.1621329302
 20
822.9451082510999
 30
0.0
 11
21.5621319384
 21
-0.0000000212
 31
0.0
210
0.0
220
0.0
230
1.0
 40
0.999996578
 41
1.5681802358
 42
2.626719219399999
  0
ELLIPSE
  5
678
330
207
100
AcDbEntity
  8
0
  6
Continuous
 62
     7
100
AcDbEllipse
 10
1074.2986835527
 20
879.4451082511001
 30
0.0
 11
93.17661639609999
 21
-0.0000000012
 31
0.0
210
0.0
220
0.0
230
1.0
 40
0.999996578
 41
-1.5734124187
 42
-0.5148734352000001
  0
ELLIPSE
  5
679
330
207
100
AcDbEntity
  8
0
  6
Continuous
 62
     7
100
AcDbEllipse
 10
868.7924986339998
 20
884.4451082511
 30
0.0
 11
97.6389939372
 21
0.0000000012
 31
0.0
210
0.0
220
0.0
230
1.0
 40
0.9999965779999998
 41
3.1415926536
 42
4.709772888399999
  0
ELLIPSE
  5
67A
330
207
100
AcDbEntity
  8
0
  6
Continuous
 62
     7
100
AcDbEllipse
 10
1707.5269530559
 20
903.4451082510999
 30
0.0
 11
4.869649266399999
 21
0.0
 31
0.0
210
0.0
220
0.0
230
1.0
 40
0.9999978434
 41
-1.5687195258
 42
0.0
  0
ELLIPSE
  5
67B
330
207
100
AcDbEntity
  8
0
  6
Continuous
 62
     7
100
AcDbEllipse
 10
1707.5269530559
 20
908.4451082511
 30
0.0
 11
4.869649266399999
 21
-0.0000000003
 31
0.0
210
0.0
220
0.0
230
1.0
 40
0.9999978434
 41
0.0000000001
 42
1.5687195258
  0
ELLIPSE
  5
67C
330
207
100
AcDbEntity
  8
0
  6
Continuous
 62
     7
100
AcDbEllipse
 10
1402.5256375558
 20
908.4451082511
 30
0.0
 11
5.5030758549
 21
0.0
 31
0.0
210
0.0
220
0.0
230
1.0
 40
0.9999978434
 41
1.5687195258
 42
3.1415926536
  0
ELLIPSE
  5
67D
330
207
100
AcDbEntity
  8
0
  6
Continuous
 62
     7
100
AcDbEllipse
 10
1402.5256375558
 20
903.4451082510999
 30
0.0
 11
5.5030758549
 21
0.0
 31
0.0
210
0.0
220
0.0
230
1.0
 40
0.9999978434
 41
3.1415926536
 42
4.714465781399999
  0
ELLIPSE
  5
67E
330
207
100
AcDbEntity
  8
0
  6
Continuous
 62
     7
100
AcDbEllipse
 10
1707.5269530559
 20
926.4451082511
 30
0.0
 11
4.869649266399999
 21
-0.0000000001
 31
0.0
210
0.0
220
0.0
230
1.0
 40
0.9999978434
 41
-1.5687195258
 42
0.0
  0
ELLIPSE
  5
67F
330
207
100
AcDbEntity
  8
0
  6
Continuous
 62
     7
100
AcDbEllipse
 10
1707.5269530559
 20
931.4451082511
 30
0.0
 11
4.869649266399999
 21
-0.0000000003
 31
0.0
210
0.0
220
0.0
230
1.0
 40
0.9999978434
 41
0.0000000001
 42
1.5687195258
  0
ELLIPSE
  5
680
330
207
100
AcDbEntity
  8
0
  6
Continuous
 62
     7
100
AcDbEllipse
 10
1402.5256375558
 20
931.4451082511
 30
0.0
 11
5.5030758549
 21
0.0
 31
0.0
210
0.0
220
0.0
230
1.0
 40
0.9999978434
 41
1.5687195258
 42
3.1415926536
  0
ELLIPSE
  5
681
330
207
100
AcDbEntity
  8
0
  6
Continuous
 62
     7
100
AcDbEllipse
 10
1402.5256375558
 20
926.4451082511
 30
0.0
 11
5.5030758549
 21
0.0
 31
0.0
210
0.0
220
0.0
230
1.0
 40
0.9999978434
 41
-3.1415926536
 42
-1.5687195258
  0
ELLIPSE
  5
682
330
207
100
AcDbEntity
  8
0
  6
Continuous
 62
     7
100
AcDbEllipse
 10
1707.5269530559
 20
949.4451082511
 30
0.0
 11
4.869649266399999
 21
-0.0000000001
 31
0.0
210
0.0
220
0.0
230
1.0
 40
0.9999978434
 41
-1.5687195258
 42
0.0
  0
ELLIPSE
  5
683
330
207
100
AcDbEntity
  8
0
  6
Continuous
 62
     7
100
AcDbEllipse
 10
1707.5269530559
 20
954.4451082511001
 30
0.0
 11
4.869649266399999
 21
0.0000000001
 31
0.0
210
0.0
220
0.0
230
1.0
 40
0.9999978434
 41
0.0
 42
1.5687195258
  0
ELLIPSE
  5
684
330
207
100
AcDbEntity
  8
0
  6
Continuous
 62
     7
100
AcDbEllipse
 10
1402.5256375558
 20
954.4451082511001
 30
0.0
 11
5.5030758549
 21
0.0
 31
0.0
210
0.0
220
0.0
230
1.0
 40
0.9999978434
 41
1.5687195258
 42
3.1415926536
  0
ELLIPSE
  5
685
330
207
100
AcDbEntity
  8
0
  6
Continuous
 62
     7
100
AcDbEllipse
 10
1402.5256375558
 20
949.4451082511
 30
0.0
 11
5.5030758549
 21
0.0
 31
0.0
210
0.0
220
0.0
230
1.0
 40
0.9999978434
 41
3.1415926536
 42
4.714465781399999
  0
ELLIPSE
  5
686
330
207
100
AcDbEntity
  8
0
  6
Continuous
 62
     7
100
AcDbEllipse
 10
1707.5269530559
 20
972.4451082511
 30
0.0
 11
4.869649266399999
 21
-0.0000000001
 31
0.0
210
0.0
220
0.0
230
1.0
 40
0.9999978434
 41
-1.5687195258
 42
0.0
  0
LINE
  5
7A0
330
207
100
AcDbEntity
  8
0
100
AcDbLine
 10
790.0370663411999
 20
886.9451082511
 30
0.0
 11
790.0370663411999
 21
1131.9451082511
 31
0.0
  0
LINE
  5
7A3
330
207
100
AcDbEntity
  8
0
100
AcDbLine
 10
1145.0370663412
 20
886.9451082511
 30
0.0
 11
1145.0370663412
 21
1131.9451082511
 31
0.0
  0
LINE
  5
7A4
330
207
100
AcDbEntity
  8
0
100
AcDbLine
 10
870.0370663412
 20
1211.9451082511
 30
0.0
 11
1065.0370663412
 21
1211.9451082511
 31
0.0
  0
ARC
  5
7A6
102
{ACAD_REACTORS
330
84B
102
}
330
207
100
AcDbEntity
  8
0
100
AcDbCircle
 10
870.0370663412
 20
1131.9451082511
 30
0.0
 40
80.0
100
AcDbArc
 50
90.0
 51
180.0
  0
ARC
  5
7A7
330
207
100
AcDbEntity
  8
0
100
AcDbCircle
 10
1065.0370663412
 20
1131.9451082511
 30
0.0
 40
80.0
100
AcDbArc
 50
0.0
 51
90.0
  0
ARC
  5
7A8
102
{ACAD_REACTORS
330
833
102
}
330
207
100
AcDbEntity
  8
0
100
AcDbCircle
 10
1065.0370663412
 20
886.9451082511
 30
0.0
 40
80.0
100
AcDbArc
 50
270.0
 51
0.0
  0
LINE
  5
7A9
330
207
100
AcDbEntity
  8
0
100
AcDbLine
 10
870.0370663412
 20
806.9451082510999
 30
0.0
 11
1065.0370663412
 21
806.9451082510999
 31
0.0
  0
ARC
  5
7AA
102
{ACAD_REACTORS
330
833
330
84B
102
}
330
207
100
AcDbEntity
  8
0
100
AcDbCircle
 10
870.0370663412
 20
886.9451082511
 30
0.0
 40
80.0
100
AcDbArc
 50
180.0
 51
270.0
  0
LINE
  5
7AC
330
207
100
AcDbEntity
  8
0
100
AcDbLine
 10
1180.0370663412
 20
919.4451082510999
 30
0.0
 11
1180.0370663412
 21
1099.4451082511
 31
0.0
  0
LINE
  5
7AD
330
207
100
AcDbEntity
  8
0
100
AcDbLine
 10
1380.0370663412
 20
919.4451082510999
 30
0.0
 11
1380.0370663412
 21
1099.4451082511
 31
0.0
  0
LINE
  5
7AF
102
{ACAD_REACTORS
330
87B
102
}
330
207
100
AcDbEntity
  8
0
100
AcDbLine
 10
1320.0370663412
 20
1159.4451082511
 30
0.0
 11
1240.0370663412
 21
1159.4451082511
 31
0.0
  0
LINE
  5
7B0
102
{ACAD_REACTORS
330
87B
102
}
330
207
100
AcDbEntity
  8
0
100
AcDbLine
 10
1320.0370663412
 20
859.4451082511
 30
0.0
 11
1240.0370663412
 21
859.4451082511
 31
0.0
  0
ARC
  5
7B1
330
207
100
AcDbEntity
  8
0
100
AcDbCircle
 10
1240.0370663412
 20
1099.4451082511
 30
0.0
 40
60.0
100
AcDbArc
 50
90.0
 51
179.9999999999999
  0
ARC
  5
7B2
330
207
100
AcDbEntity
  8
0
100
AcDbCircle
 10
1320.0370663412
 20
1099.4451082511
 30
0.0
 40
60.0
100
AcDbArc
 50
0.0
 51
90.0
  0
ARC
  5
7B3
102
{ACAD_REACTORS
330
863
102
}
330
207
100
AcDbEntity
  8
0
100
AcDbCircle
 10
1320.0370663412
 20
919.4451082510999
 30
0.0
 40
60.0
100
AcDbArc
 50
270.0
 51
0.0
  0
ARC
  5
7B4
102
{ACAD_REACTORS
330
863
102
}
330
207
100
AcDbEntity
  8
0
100
AcDbCircle
 10
1240.0370663412
 20
919.4451082510999
 30
0.0
 40
60.0
100
AcDbArc
 50
179.9999999999999
 51
270.0
  0
DIMENSION
  5
7EC
102
{ACAD_XDICTIONARY
360
7F9
102
}
102
{ACAD_REACTORS
330
803
102
}
330
207
100
AcDbEntity
  8
尺寸线
100
AcDbDimension
280
     0
  2
*D0
 10
690.4400660402533
 20
760.9451082511001
 30
0.0
 11
682.4400660402533
 21
1009.4451082511
 31
0.0
 70
    32
 71
     5
 42
497.0
 73
     0
 74
     0
 75
     0
  3
大字
100
AcDbAlignedDimension
 13
870.0370663412
 23
1257.9451082511
 33
0.0
 14
870.0370663412
 24
760.9451082511
 34
0.0
 50
90.0
100
AcDbRotatedDimension
  0
DIMENSION
  5
804
102
{ACAD_XDICTIONARY
360
811
102
}
102
{ACAD_REACTORS
330
81B
102
}
330
207
100
AcDbEntity
  8
尺寸线
100
AcDbDimension
280
     0
  2
*D1
 10
1755.0370663412
 20
654.6513138335658
 30
0.0
 11
1250.0370663412
 21
662.6513138335658
 31
0.0
 70
    32
 71
     5
 42
1010.0
 73
     0
 74
     0
 75
     0
  3
大字
100
AcDbAlignedDimension
 13
745.0370663412
 23
885.9451082511
 33
0.0
 14
1755.0370663412
 24
885.9451082511
 34
0.0
100
AcDbRotatedDimension
  0
DIMENSION
  5
81C
102
{ACAD_XDICTIONARY
360
829
102
}
102
{ACAD_REACTORS
330
833
102
}
330
207
100
AcDbEntity
  8
尺寸线
100
AcDbDimension
280
     0
  2
*D2
 10
1145.0370663412
 20
711.9880754100022
 30
0.0
 11
967.5370663412
 21
719.9880754100022
 31
0.0
 70
    32
 71
     5
 42
355.0
 73
     0
 74
     0
 75
     0
  3
大字
100
AcDbAlignedDimension
 13
790.0370663411999
 23
886.9451082511
 33
0.0
 14
1145.0370663412
 24
886.9451082511
 34
0.0
100
AcDbRotatedDimension
  0
DIMENSION
  5
834
102
{ACAD_XDICTIONARY
360
841
102
}
102
{ACAD_REACTORS
330
84B
102
}
330
207
100
AcDbEntity
  8
尺寸线
100
AcDbDimension
280
     0
  2
*D3
 10
713.2174200562276
 20
1211.9451082511
 30
0.0
 11
705.2174200562275
 21
1009.4451082511
 31
0.0
 70
    32
 71
     5
 42
405.0
 73
     0
 74
     0
 75
     0
  3
大字
100
AcDbAlignedDimension
 13
870.0370663412
 23
806.9451082510999
 33
0.0
 14
870.0370663412
 24
1211.9451082511
 34
0.0
 50
90.0
100
AcDbRotatedDimension
  0
DIMENSION
  5
84C
102
{ACAD_XDICTIONARY
360
859
102
}
102
{ACAD_REACTORS
330
863
102
}
330
207
100
AcDbEntity
  8
尺寸线
100
AcDbDimension
280
     0
  2
*D4
 10
1380.0370663412
 20
714.4105149986308
 30
0.0
 11
1280.0370663412
 21
722.4105149986307
 31
0.0
 70
    32
 71
     5
 42
200.0000000000002
 73
     0
 74
     0
 75
     0
  3
大字
100
AcDbAlignedDimension
 13
1180.0370663412
 23
919.4451082510999
 33
0.0
 14
1380.0370663412
 24
919.4451082510999
 34
0.0
100
AcDbRotatedDimension
  0
DIMENSION
  5
864
102
{ACAD_XDICTIONARY
360
871
102
}
102
{ACAD_REACTORS
330
87B
102
}
330
207
100
AcDbEntity
  8
尺寸线
100
AcDbDimension
280
     0
  2
*D5
 10
732.4518450514387
 20
1159.4451082511
 30
0.0
 11
724.4518450514386
 21
1009.4451082511
 31
0.0
 70
    32
 71
     5
 42
300.0
 73
     0
 74
     0
 75
     0
  3
大字
100
AcDbAlignedDimension
 13
1240.0370663412
 23
859.4451082511
 33
0.0
 14
1240.0370663412
 24
1159.4451082511
 34
0.0
 50
90.0
100
AcDbRotatedDimension
  0
DIMENSION
  5
87D
102
{ACAD_XDICTIONARY
360
88A
102
}
102
{ACAD_REACTORS
330
894
102
}
330
207
100
AcDbEntity
  8
尺寸线
100
AcDbDimension
280
     0
  2
*D6
 10
1172.010301128198
 20
1228.424994307514
 30
0.0
 11
1251.817896582162
 21
1138.81698300486
 31
0.0
 70
   163
 71
     5
 42
34.99999999999989
 73
     0
 74
     0
 75
     0
  3
大字$3
100
AcDbDiametricDimension
 15
1193.063831554202
 25
1200.465222194685
 35
0.0
 40
0.0
1001
ACAD
1000
DSTYLE
1002
{
1070
   288
1070
     1
1002
}
1001
ACAD_DSTYLE_DIMRADIAL_EXTENSION
1070
   387
1070
     1
1070
   388
1040
0.0
1070
   390
1040
0.0
  0
DIMENSION
  5
895
102
{ACAD_XDICTIONARY
360
8A2
102
}
102
{ACAD_REACTORS
330
8AC
102
}
330
207
100
AcDbEntity
  8
尺寸线
100
AcDbDimension
280
     0
  2
*D7
 10
1263.160909763348
 20
1257.9451082511
 30
0.0
 11
1255.160909763348
 21
1236.1951082511
 31
0.0
 70
    32
 71
     5
 42
43.5
 73
     0
 74
     0
 75
     0
  3
大字
100
AcDbAlignedDimension
 13
1182.5370663412
 23
1214.4451082511
 33
0.0
 14
1250.0370663412
 24
1257.9451082511
 34
0.0
 50
90.0
100
AcDbRotatedDimension
  0
DIMENSION
  5
8AD
102
{ACAD_XDICTIONARY
360
8BA
102
}
102
{ACAD_REACTORS
330
8C4
102
}
330
207
100
AcDbEntity
  8
尺寸线
100
AcDbDimension
280
     0
  2
*D8
 10
745.0370663412
 20
1294.444358944373
 30
0.0
 11
963.7870663412
 21
1302.444358944373
 31
0.0
 70
    32
 71
     5
 42
437.5
 73
     0
 74
     0
 75
     0
  3
大字
100
AcDbAlignedDimension
 13
1182.5370663412
 23
1214.4451082511
 33
0.0
 14
745.0370663412
 24
1132.9451082511
 34
0.0
100
AcDbRotatedDimension
  0
DIMENSION
  5
8C5
102
{ACAD_XDICTIONARY
360
8D2
102
}
102
{ACAD_REACTORS
330
8DC
102
}
330
207
100
AcDbEntity
  8
尺寸线
100
AcDbDimension
280
     0
  2
*D9
 10
727.4415531012473
 20
1600.99458581554
 30
0.0
 11
719.4415531012471
 21
1508.09458581554
 31
0.0
 70
    32
  1
185
 71
     5
 42
185.7999999999997
 73
     0
 74
     0
 75
     0
  3
大字
100
AcDbAlignedDimension
 13
866.1600251786
 23
1415.19458581554
 33
0.0
 14
747.0370663411999
 24
1600.99458581554
 34
0.0
 50
90.0
100
AcDbRotatedDimension
  0
DIMENSION
  5
8E8
102
{ACAD_XDICTIONARY
360
8F5
102
}
102
{ACAD_REACTORS
330
8FF
102
}
330
207
100
AcDbEntity
  8
尺寸线
100
AcDbDimension
280
     0
  2
*D10
 10
1775.10341506644
 20
1600.99458581554
 30
0.0
 11
1767.103415066439
 21
1528.09458581554
 31
0.0
 70
    32
  1
145
 71
     5
 42
145.7999999999999
 73
     0
 74
     0
 75
     0
  3
大字
100
AcDbAlignedDimension
 13
1340.3684371911
 23
1455.19458581554
 33
0.0
 14
1753.0370663412
 24
1600.99458581554
 34
0.0
 50
90.0
100
AcDbRotatedDimension
  0
DIMENSION
  5
9C7
102
{ACAD_XDICTIONARY
360
9D4
102
}
102
{ACAD_REACTORS
330
9DE
102
}
330
207
100
AcDbEntity
  8
尺寸线
100
AcDbDimension
280
     0
  2
*D11
 10
940.6408985189145
 20
1045.522748923342
 30
0.0
 11
1034.652780548046
 21
935.1793483140429
 31
0.0
 70
   163
 71
     5
 42
89.99999999999976
 73
     0
 74
     0
 75
     0
  3
大字$3
100
AcDbDiametricDimension
 15
994.4332341634853
 25
973.3674675788575
 35
0.0
 40
0.0
1001
ACAD
1000
DSTYLE
1002
{
1070
   288
1070
     1
1002
}
1001
ACAD_DSTYLE_DIMRADIAL_EXTENSION
1070
   387
1070
     1
1070
   388
1040
0.0
1070
   390
1040
0.0
  0
DIMENSION
  5
9DF
102
{ACAD_XDICTIONARY
360
9EC
102
}
102
{ACAD_REACTORS
330
9F6
102
}
330
207
100
AcDbEntity
  8
尺寸线
100
AcDbDimension
280
     0
  2
*D12
 10
1310.088073563217
 20
1042.940435760206
 30
0.0
 11
1205.137404602889
 21
939.0574974004314
 31
0.0
 70
   163
 71
     5
 42
90.0
 73
     0
 74
     0
 75
     0
  3
大字$3
100
AcDbDiametricDimension
 15
1249.986059119183
 25
975.949780741994
 35
0.0
 40
0.0
1001
ACAD
1000
DSTYLE
1002
{
1070
   288
1070
     1
1002
}
1001
ACAD_DSTYLE_DIMRADIAL_EXTENSION
1070
   387
1070
     1
1070
   388
1040
0.0
1070
   390
1040
0.0
  0
ENDSEC
  0
SECTION
  2
OBJECTS
  0
DICTIONARY
  5
C
330
0
100
AcDbDictionary
281
     1
  3
ACAD_CIP_PREVIOUS_PRODUCT_INFO
350
A99
  3
ACAD_COLOR
350
704
  3
ACAD_DETAILVIEWSTYLE
350
A93
  3
ACAD_GROUP
350
D
  3
ACAD_LAYOUT
350
1A
  3
ACAD_MATERIAL
350
6DA
  3
ACAD_MLEADERSTYLE
350
729
  3
ACAD_MLINESTYLE
350
17
  3
ACAD_PLOTSETTINGS
350
19
  3
ACAD_PLOTSTYLENAME
350
E
  3
ACAD_SCALELIST
350
707
  3
ACAD_SECTIONVIEWSTYLE
350
A91
  3
ACAD_TABLESTYLE
350
705
  3
ACAD_VISUALSTYLE
350
6F3
  3
ACDB_RECOMPOSE_DATA
350
AB1
  3
AcDbVariableDictionary
350
74D
  0
DICTIONARY
  5
72F
330
8
100
AcDbDictionary
280
     1
281
     1
  0
DICTIONARY
  5
90C
330
2
100
AcDbDictionary
280
     1
281
     1
  3
ACAD_LAYERSTATES
360
90D
  0
DICTIONARY
  5
759
330
10
100
AcDbDictionary
280
     1
281
     1
  3
ADSK_XREC_LAYER_RECONCILED
360
75A
  0
DICTIONARY
  5
765
330
1FF
100
AcDbDictionary
280
     1
281
     1
  3
ADSK_XREC_LAYER_RECONCILED
360
766
  0
DICTIONARY
  5
7D8
330
7D7
100
AcDbDictionary
280
     1
281
     1
  0
DICTIONARY
  5
7DA
330
7D9
100
AcDbDictionary
280
     1
281
     1
  0
DICTIONARY
  5
7DC
330
7DB
100
AcDbDictionary
280
     1
281
     1
  0
DICTIONARY
  5
7DE
330
7DD
100
AcDbDictionary
280
     1
281
     1
  0
DICTIONARY
  5
7E0
330
7DF
100
AcDbDictionary
280
     1
281
     1
  0
DICTIONARY
  5
7E2
330
7E1
100
AcDbDictionary
280
     1
281
     1
  0
DICTIONARY
  5
7E4
330
7E3
100
AcDbDictionary
280
     1
281
     1
  0
DICTIONARY
  5
7E6
330
7E5
100
AcDbDictionary
280
     1
281
     1
  0
DICTIONARY
  5
7A1
330
207
100
AcDbDictionary
280
     1
281
     1
  3
ACAD_SORTENTS
360
7A2
  0
DICTIONARY
  5
A83
330
88E
100
AcDbDictionary
280
     1
281
     1
  0
DICTIONARY
  5
A85
330
9D8
100
AcDbDictionary
280
     1
281
     1
  0
DICTIONARY
  5
A87
330
9F0
100
AcDbDictionary
280
     1
281
     1
  0
DICTIONARY
  5
7F9
330
7EC
100
AcDbDictionary
280
     1
281
     1
  3
ACAD_DIMASSOC
360
803
  0
DICTIONARY
  5
811
330
804
100
AcDbDictionary
280
     1
281
     1
  3
ACAD_DIMASSOC
360
81B
  0
DICTIONARY
  5
829
330
81C
100
AcDbDictionary
280
     1
281
     1
  3
ACAD_DIMASSOC
360
833
  0
DICTIONARY
  5
841
330
834
100
AcDbDictionary
280
     1
281
     1
  3
ACAD_DIMASSOC
360
84B
  0
DICTIONARY
  5
859
330
84C
100
AcDbDictionary
280
     1
281
     1
  3
ACAD_DIMASSOC
360
863
  0
DICTIONARY
  5
871
330
864
100
AcDbDictionary
280
     1
281
     1
  3
ACAD_DIMASSOC
360
87B
  0
DICTIONARY
  5
88A
330
87D
100
AcDbDictionary
280
     1
281
     1
  3
ACAD_DIMASSOC
360
894
  0
DICTIONARY
  5
8A2
330
895
100
AcDbDictionary
280
     1
281
     1
  3
ACAD_DIMASSOC
360
8AC
  0
DICTIONARY
  5
8BA
330
8AD
100
AcDbDictionary
280
     1
281
     1
  3
ACAD_DIMASSOC
360
8C4
  0
DICTIONARY
  5
8D2
330
8C5
100
AcDbDictionary
280
     1
281
     1
  3
ACAD_DIMASSOC
360
8DC
  0
DICTIONARY
  5
8F5
330
8E8
100
AcDbDictionary
280
     1
281
     1
  3
ACAD_DIMASSOC
360
8FF
  0
DICTIONARY
  5
9D4
330
9C7
100
AcDbDictionary
280
     1
281
     1
  3
ACAD_DIMASSOC
360
9DE
  0
DICTIONARY
  5
9EC
330
9DF
100
AcDbDictionary
280
     1
281
     1
  3
ACAD_DIMASSOC
360
9F6
  0
XRECORD
  5
A99
102
{ACAD_REACTORS
330
C
102
}
330
C
100
AcDbXrecord
280
     1
300
ACD
300
2017
300
ACD_F_S
  0
DICTIONARY
  5
704
102
{ACAD_REACTORS
330
C
102
}
330
C
100
AcDbDictionary
281
     1
  0
DICTIONARY
  5
A93
102
{ACAD_REACTORS
330
C
102
}
330
C
100
AcDbDictionary
281
     1
  3
Metric50
350
A94
  0
DICTIONARY
  5
D
102
{ACAD_REACTORS
330
C
102
}
330
C
100
AcDbDictionary
281
     1
  0
DICTIONARY
  5
1A
102
{ACAD_REACTORS
330
C
102
}
330
C
100
AcDbDictionary
281
     1
  3
Layout1
350
6D7
  3
Model
350
6D6
  0
DICTIONARY
  5
6DA
102
{ACAD_REACTORS
330
C
102
}
330
C
100
AcDbDictionary
281
     1
  3
ByBlock
350
6E3
  3
ByLayer
350
6DB
  3
Global
350
6EB
  0
DICTIONARY
  5
729
102
{ACAD_REACTORS
330
C
102
}
330
C
100
AcDbDictionary
281
     1
  3
Standard
350
72A
  0
DICTIONARY
  5
17
102
{ACAD_REACTORS
330
C
102
}
330
C
100
AcDbDictionary
281
     1
  3
Standard
350
18
  0
DICTIONARY
  5
19
102
{ACAD_REACTORS
330
C
102
}
330
C
100
AcDbDictionary
281
     1
  0
ACDBDICTIONARYWDFLT
  5
E
102
{ACAD_REACTORS
330
C
102
}
330
C
100
AcDbDictionary
281
     1
  3
Normal
350
F
100
AcDbDictionaryWithDefault
340
F
  0
DICTIONARY
  5
707
102
{ACAD_REACTORS
330
C
102
}
330
C
100
AcDbDictionary
281
     1
  3
A0
350
708
  3
A1
350
709
  3
A2
350
70A
  3
A3
350
70B
  3
A4
350
70C
  3
A5
350
70D
  3
A6
350
70E
  3
A7
350
70F
  3
A8
350
710
  3
A9
350
711
  3
B0
350
712
  3
B1
350
713
  3
B2
350
714
  3
B3
350
715
  3
B4
350
716
  3
B5
350
717
  3
B6
350
718
  3
B7
350
719
  3
B8
350
71A
  3
B9
350
71B
  3
C0
350
71C
  3
C1
350
71D
  3
C2
350
71E
  3
C3
350
71F
  3
C4
350
720
  3
C5
350
721
  3
C6
350
722
  3
C7
350
723
  3
C8
350
724
  3
C9
350
725
  3
D0
350
726
  3
D1
350
727
  3
D2
350
728
  0
DICTIONARY
  5
A91
102
{ACAD_REACTORS
330
C
102
}
330
C
100
AcDbDictionary
281
     1
  3
Metric50
350
A92
  0
DICTIONARY
  5
705
102
{ACAD_REACTORS
330
C
102
}
330
C
100
AcDbDictionary
281
     1
  3
Standard
350
706
  0
DICTIONARY
  5
6F3
102
{ACAD_REACTORS
330
C
102
}
330
C
100
AcDbDictionary
281
     1
  3
2dWireframe
350
6F9
  3
3D Hidden
350
6FB
  3
3dWireframe
350
6FA
  3
Basic
350
6F8
  3
Brighten
350
6FF
  3
ColorChange
350
703
  3
Conceptual
350
6FC
  3
Dim
350
6FE
  3
EdgeColorOff
350
754
  3
Facepattern
350
702
  3
Flat
350
6F4
  3
FlatWithEdges
350
6F5
  3
Gouraud
350
6F6
  3
GouraudWithEdges
350
6F7
  3
Hidden
350
A8B
  3
JitterOff
350
752
  3
Linepattern
350
701
  3
OverhangOff
350
753
  3
Realistic
350
6FD
  3
Shaded
350
A90
  3
Shaded with edges
350
A8F
  3
Shades of Gray
350
A8C
  3
Sketchy
350
A8D
  3
Thicken
350
700
  3
Wireframe
350
A8A
  3
X-Ray
350
A8E
  0
XRECORD
  5
AB1
102
{ACAD_REACTORS
330
C
102
}
330
C
100
AcDbXrecord
280
     1
 90
        1
330
706
330
A92
330
A94
  0
DICTIONARY
  5
74D
102
{ACAD_REACTORS
330
C
102
}
330
C
100
AcDbDictionary
281
     1
  3
CANNOSCALE
350
750
  3
CMLEADERSTYLE
350
74F
  3
CTABLESTYLE
350
74E
  3
CVIEWDETAILSTYLE
350
AA6
  3
CVIEWSECTIONSTYLE
350
AA7
  3
LAYEREVAL
350
AAA
  3
LAYERNOTIFY
350
AAB
  3
LIGHTINGUNITS
350
AA9
  3
MSLTSCALE
350
AA8
  0
DICTIONARY
  5
90D
102
{ACAD_REACTORS
330
90C
102
}
330
90C
100
AcDbDictionary
281
     1
  0
XRECORD
  5
75A
102
{ACAD_REACTORS
330
759
102
}
330
759
100
AcDbXrecord
280
     1
290
     1
  0
XRECORD
  5
766
102
{ACAD_REACTORS
330
765
102
}
330
765
100
AcDbXrecord
280
     1
290
     1
  0
SORTENTSTABLE
  5
7A2
102
{ACAD_REACTORS
330
7A1
102
}
330
7A1
100
AcDbSortentsTable
330
207
331
628
  5
628
331
7B3
  5
7B2
331
499
  5
499
331
62C
  5
62C
331
49D
  5
49D
331
7AF
  5
7B3
331
470
  5
470
331
474
  5
474
331
238
  5
238
331
23C
  5
23C
331
669
  5
669
331
279
  5
279
331
66D
  5
66D
331
27D
  5
27D
331
661
  5
661
331
2B0
  5
2B0
331
271
  5
271
331
665
  5
665
331
2B4
  5
2B4
331
275
  5
275
331
492
  5
492
331
496
  5
496
331
48A
  5
48A
331
7A0
  5
7A3
331
48E
  5
48E
331
7A4
  5
7A6
331
468
  5
468
331
230
  5
230
331
46C
  5
46C
331
460
  5
460
331
234
  5
234
331
228
  5
228
331
464
  5
464
331
22C
  5
22C
331
65A
  5
65A
331
65E
  5
65E
331
652
  5
652
331
2A8
  5
2A8
331
269
  5
269
331
656
  5
656
331
2AC
  5
2AC
331
26D
  5
26D
331
2A0
  5
2A0
331
261
  5
261
331
2A4
  5
2A4
331
265
  5
265
331
482
  5
482
331
486
  5
486
331
47A
  5
47A
331
47E
  5
47E
331
4B9
  5
4B9
331
459
  5
459
331
2CA
  5
2CA
331
45D
  5
45D
331
221
  5
221
331
451
  5
451
331
225
  5
225
331
455
  5
455
331
219
  5
219
331
21D
  5
21D
331
64A
  5
64A
331
25A
  5
25A
331
64E
  5
64E
331
25E
  5
25E
331
299
  5
299
331
642
  5
642
331
252
  5
252
331
29D
  5
29D
331
646
  5
646
331
681
  5
681
331
291
  5
291
331
256
  5
256
331
685
  5
685
331
295
  5
295
331
4B2
  5
4B2
331
4B6
  5
4B6
331
4AA
  5
4AA
331
4AE
  5
4AE
331
639
  5
639
331
63D
  5
63D
331
2C2
  5
2C2
331
2C6
  5
2C6
331
449
  5
449
331
211
  5
211
331
44D
  5
44D
331
2BA
  5
2BA
331
215
  5
215
331
2BE
  5
2BE
331
445
  5
445
331
67A
  5
67A
331
67E
  5
67E
331
24A
  5
24A
331
672
  5
672
331
24E
  5
24E
331
289
  5
289
331
676
  5
676
331
28D
  5
28D
331
242
  5
242
331
246
  5
246
331
281
  5
281
331
285
  5
285
331
4A2
  5
4A2
331
4A6
  5
4A6
331
631
  5
631
331
635
  5
635
331
49A
  5
49A
331
7B0
  5
7B1
331
49E
  5
49E
331
629
  5
629
331
7B4
  5
7B0
331
62D
  5
62D
331
7A8
  5
7A8
331
7AC
  5
7AF
331
471
  5
471
331
475
  5
475
331
239
  5
239
331
23D
  5
23D
331
66A
  5
66A
331
27A
  5
27A
331
66E
  5
66E
331
27E
  5
27E
331
662
  5
662
331
272
  5
272
331
666
  5
666
331
276
  5
276
331
2B1
  5
2B1
331
2B5
  5
2B5
331
493
  5
493
331
497
  5
497
331
48B
  5
48B
331
48F
  5
48F
331
469
  5
469
331
231
  5
231
331
46D
  5
46D
331
461
  5
461
331
235
  5
235
331
229
  5
229
331
465
  5
465
331
22D
  5
22D
331
65B
  5
65B
331
65F
  5
65F
331
26A
  5
26A
331
653
  5
653
331
26E
  5
26E
331
2A9
  5
2A9
331
657
  5
657
331
2AD
  5
2AD
331
262
  5
262
331
266
  5
266
331
2A1
  5
2A1
331
2A5
  5
2A5
331
483
  5
483
331
487
  5
487
331
4BA
  5
4BA
331
47B
  5
47B
331
47F
  5
47F
331
45A
  5
45A
331
45E
  5
45E
331
222
  5
222
331
452
  5
452
331
226
  5
226
331
456
  5
456
331
21A
  5
21A
331
21E
  5
21E
331
64B
  5
64B
331
29A
  5
29A
331
25B
  5
25B
331
64F
  5
64F
331
682
  5
682
331
29E
  5
29E
331
25F
  5
25F
331
643
  5
643
331
292
  5
292
331
686
  5
686
331
253
  5
253
331
647
  5
647
331
296
  5
296
331
257
  5
257
331
4B3
  5
4B3
331
4B7
  5
4B7
331
63A
  5
63A
331
4AB
  5
4AB
331
63E
  5
63E
331
4AF
  5
4AF
331
44A
  5
44A
331
2C3
  5
2C3
331
212
  5
212
331
44E
  5
44E
331
2C7
  5
2C7
331
442
  5
442
331
2BB
  5
2BB
331
216
  5
216
331
446
  5
446
331
2BF
  5
2BF
331
20E
  5
20E
331
67B
  5
67B
331
28A
  5
28A
331
67F
  5
67F
331
24B
  5
24B
331
673
  5
673
331
28E
  5
28E
331
24F
  5
24F
331
282
  5
282
331
677
  5
677
331
243
  5
243
331
286
  5
286
331
247
  5
247
331
632
  5
632
331
4A3
  5
4A3
331
636
  5
636
331
4A7
  5
4A7
331
62A
  5
62A
331
49B
  5
49B
331
62E
  5
62E
331
7B1
  5
7B4
331
49F
  5
49F
331
7A9
  5
7A9
331
472
  5
472
331
7AD
  5
7AC
331
476
  5
476
331
23A
  5
23A
331
23E
  5
23E
331
66B
  5
66B
331
27B
  5
27B
331
66F
  5
66F
331
27F
  5
27F
331
663
  5
663
331
2B2
  5
2B2
331
273
  5
273
331
667
  5
667
331
2B6
  5
2B6
331
277
  5
277
331
490
  5
490
331
627
  5
627
331
494
  5
494
331
488
  5
488
331
7A6
  5
7A7
331
48C
  5
48C
331
46A
  5
46A
331
232
  5
232
331
46E
  5
46E
331
462
  5
462
331
236
  5
236
331
22A
  5
22A
331
466
  5
466
331
22E
  5
22E
331
658
  5
658
331
2AA
  5
2AA
331
65C
  5
65C
331
26B
  5
26B
331
650
  5
650
331
2AE
  5
2AE
331
26F
  5
26F
331
2A2
  5
2A2
331
654
  5
654
331
263
  5
263
331
2A6
  5
2A6
331
267
  5
267
331
480
  5
480
331
484
  5
484
331
4BB
  5
4BB
331
478
  5
478
331
47C
  5
47C
331
45B
  5
45B
331
45F
  5
45F
331
223
  5
223
331
453
  5
453
331
2C8
  5
2C8
331
227
  5
227
331
457
  5
457
331
21B
  5
21B
331
21F
  5
21F
331
648
  5
648
331
29B
  5
29B
331
258
  5
258
331
64C
  5
64C
331
29F
  5
29F
331
25C
  5
25C
331
683
  5
683
331
640
  5
640
331
293
  5
293
331
250
  5
250
331
644
  5
644
331
297
  5
297
331
254
  5
254
331
4B0
  5
4B0
331
4B4
  5
4B4
331
63B
  5
63B
331
4A8
  5
4A8
331
63F
  5
63F
331
4AC
  5
4AC
331
44B
  5
44B
331
2C0
  5
2C0
331
213
  5
213
331
44F
  5
44F
331
2C4
  5
2C4
331
443
  5
443
331
2B8
  5
2B8
331
217
  5
217
331
447
  5
447
331
2BC
  5
2BC
331
20F
  5
20F
331
678
  5
678
331
67C
  5
67C
331
28B
  5
28B
331
248
  5
248
331
670
  5
670
331
28F
  5
28F
331
24C
  5
24C
331
674
  5
674
331
283
  5
283
331
240
  5
240
331
287
  5
287
331
244
  5
244
331
633
  5
633
331
4A0
  5
4A0
331
637
  5
637
331
4A4
  5
4A4
331
7B2
  5
7AD
331
62B
  5
62B
331
498
  5
498
331
62F
  5
62F
331
49C
  5
49C
331
7AA
  5
7AA
331
473
  5
473
331
477
  5
477
331
23B
  5
23B
331
23F
  5
23F
331
668
  5
668
331
278
  5
278
331
66C
  5
66C
331
27C
  5
27C
331
660
  5
660
331
2B3
  5
2B3
331
270
  5
270
331
664
  5
664
331
2B7
  5
2B7
331
274
  5
274
331
491
  5
491
331
495
  5
495
331
7A3
  5
79F
331
489
  5
489
331
7A7
  5
7A0
331
48D
  5
48D
331
46B
  5
46B
331
233
  5
233
331
46F
  5
46F
331
463
  5
463
331
237
  5
237
331
22B
  5
22B
331
467
  5
467
331
22F
  5
22F
331
659
  5
659
331
65D
  5
65D
331
2AB
  5
2AB
331
268
  5
268
331
651
  5
651
331
2AF
  5
2AF
331
26C
  5
26C
331
655
  5
655
331
2A3
  5
2A3
331
260
  5
260
331
2A7
  5
2A7
331
264
  5
264
331
481
  5
481
331
485
  5
485
331
4B8
  5
4B8
331
479
  5
479
331
4BC
  5
4BC
331
47D
  5
47D
331
458
  5
458
331
45C
  5
45C
331
220
  5
220
331
450
  5
450
331
2C9
  5
2C9
331
224
  5
224
331
454
  5
454
331
218
  5
218
331
21C
  5
21C
331
649
  5
649
331
298
  5
298
331
259
  5
259
331
64D
  5
64D
331
680
  5
680
331
29C
  5
29C
331
25D
  5
25D
331
641
  5
641
331
290
  5
290
331
684
  5
684
331
251
  5
251
331
645
  5
645
331
294
  5
294
331
255
  5
255
331
4B1
  5
4B1
331
4B5
  5
4B5
331
638
  5
638
331
4A9
  5
4A9
331
63C
  5
63C
331
4AD
  5
4AD
331
448
  5
448
331
2C1
  5
2C1
331
210
  5
210
331
44C
  5
44C
331
2C5
  5
2C5
331
214
  5
214
331
2B9
  5
2B9
331
444
  5
444
331
2BD
  5
2BD
331
679
  5
679
331
288
  5
288
331
67D
  5
67D
331
249
  5
249
331
671
  5
671
331
28C
  5
28C
331
24D
  5
24D
331
280
  5
280
331
675
  5
675
331
241
  5
241
331
284
  5
284
331
245
  5
245
331
630
  5
630
331
4A1
  5
4A1
331
634
  5
634
331
4A5
  5
4A5
  0
DIMASSOC
  5
803
102
{ACAD_REACTORS
330
7F9
102
}
330
7F9
100
AcDbDimAssoc
330
7EC
 90
        3
 70
     0
 71
     0
  1
AcDbOsnapPointRef
 72
    13
331
45C
 73
     2
 91
        0
 40
1.570796326794896
 10
0.0
 20
0.0
 30
2.000000000000000E+50
 75
     0
  1
AcDbOsnapPointRef
 72
     1
331
452
 73
     2
 91
        0
 40
4.712388980384689
 10
0.0
 20
0.0
 30
2.000000000000000E+50
 75
     0
  0
DIMASSOC
  5
81B
102
{ACAD_REACTORS
330
811
102
}
330
811
100
AcDbDimAssoc
330
804
 90
        3
 70
     0
 71
     0
  1
AcDbOsnapPointRef
 72
    13
331
452
 73
     2
 91
        0
 40
3.141592653589793
 10
0.0
 20
0.0
 30
2.000000000000000E+50
 75
     0
  1
AcDbOsnapPointRef
 72
     1
331
478
 73
     2
 91
        0
 40
6.283185307179586
 10
0.0
 20
0.0
 30
2.000000000000000E+50
 75
     0
  0
DIMASSOC
  5
833
102
{ACAD_REACTORS
330
829
102
}
330
829
100
AcDbDimAssoc
330
81C
 90
        3
 70
     0
 71
     0
  1
AcDbOsnapPointRef
 72
    13
331
7AA
 73
     2
 91
        0
 40
3.141592653589793
 10
0.0
 20
0.0
 30
2.000000000000000E+50
 75
     0
  1
AcDbOsnapPointRef
 72
     1
331
7A8
 73
     2
 91
        0
 40
6.283185307179586
 10
0.0
 20
0.0
 30
2.000000000000000E+50
 75
     0
  0
DIMASSOC
  5
84B
102
{ACAD_REACTORS
330
841
102
}
330
841
100
AcDbDimAssoc
330
834
 90
        3
 70
     0
 71
     0
  1
AcDbOsnapPointRef
 72
     1
331
7AA
 73
     2
 91
        0
 40
4.712388980384689
 10
0.0
 20
0.0
 30
2.000000000000000E+50
 75
     0
  1
AcDbOsnapPointRef
 72
    13
331
7A6
 73
     2
 91
        0
 40
1.570796326794896
 10
0.0
 20
0.0
 30
2.000000000000000E+50
 75
     0
  0
DIMASSOC
  5
863
102
{ACAD_REACTORS
330
859
102
}
330
859
100
AcDbDimAssoc
330
84C
 90
        3
 70
     0
 71
     0
  1
AcDbOsnapPointRef
 72
     5
331
7B4
 73
     2
 91
        0
 40
3.141592653589793
 10
0.0
 20
0.0
 30
0.0
 75
     0
  1
AcDbOsnapPointRef
 72
     1
331
7B3
 73
     2
 91
        0
 40
6.283185307179586
 10
0.0
 20
0.0
 30
2.000000000000000E+50
 75
     0
  0
DIMASSOC
  5
87B
102
{ACAD_REACTORS
330
871
102
}
330
871
100
AcDbDimAssoc
330
864
 90
        3
 70
     0
 71
     0
  1
AcDbOsnapPointRef
 72
     1
331
7B0
 73
     2
 91
        0
 40
1.0
 10
0.0
 20
0.0
 30
2.000000000000000E+50
 75
     0
  1
AcDbOsnapPointRef
 72
     8
331
7AF
 73
     2
 91
        0
 40
1.0
 10
0.0
 20
0.0
 30
0.0
 75
     1
  1
AcDbOsnapPointRef
 72
     1
331
7B0
 73
     2
 91
        0
 40
1.0
 10
0.0
 20
0.0
 30
2.000000000000000E+50
 75
     0
  0
DIMASSOC
  5
894
102
{ACAD_REACTORS
330
88A
102
}
330
88A
100
AcDbDimAssoc
330
87D
 90
        2
 70
     0
 71
     0
  1
AcDbOsnapPointRef
 72
     3
331
45F
 73
     2
 91
        0
 40
0.0
 10
0.0
 20
0.0
 30
0.0
 75
     0
  0
DIMASSOC
  5
8AC
102
{ACAD_REACTORS
330
8A2
102
}
330
8A2
100
AcDbDimAssoc
330
895
 90
        2
 70
     0
 71
     0
  1
AcDbOsnapPointRef
 72
     2
331
2B3
 73
     2
 91
        0
 40
0.5
 10
0.0
 20
0.0
 30
0.0
 75
     0
  0
DIMASSOC
  5
8C4
102
{ACAD_REACTORS
330
8BA
102
}
330
8BA
100
AcDbDimAssoc
330
8AD
 90
        2
 70
     0
 71
     0
  1
AcDbOsnapPointRef
 72
     1
331
45C
 73
     2
 91
        0
 40
3.141592653589793
 10
0.0
 20
0.0
 30
2.000000000000000E+50
 75
     0
  0
DIMASSOC
  5
8DC
102
{ACAD_REACTORS
330
8D2
102
}
330
8D2
100
AcDbDimAssoc
330
8C5
 90
        3
 70
     0
 71
     0
  1
AcDbOsnapPointRef
 72
     1
331
21E
 73
     2
 91
        0
 40
1.0
 10
0.0
 20
0.0
 30
2.000000000000000E+50
 75
     0
  1
AcDbOsnapPointRef
 72
    13
331
446
 73
     2
 91
        0
 40
1.570796326794896
 10
0.0
 20
0.0
 30
2.000000000000000E+50
 75
     0
  0
DIMASSOC
  5
8FF
102
{ACAD_REACTORS
330
8F5
102
}
330
8F5
100
AcDbDimAssoc
330
8E8
 90
        3
 70
     0
 71
     0
  1
AcDbOsnapPointRef
 72
     1
331
223
 73
     2
 91
        0
 40
0.9999999999999998
 10
0.0
 20
0.0
 30
2.000000000000000E+50
 75
     0
  1
AcDbOsnapPointRef
 72
     1
331
44E
 73
     2
 91
        0
 40
7.853981633974482
 10
0.0
 20
0.0
 30
2.000000000000000E+50
 75
     0
  0
DIMASSOC
  5
9DE
102
{ACAD_REACTORS
330
9D4
102
}
330
9D4
100
AcDbDimAssoc
330
9C7
 90
        2
 70
     0
 71
     0
  1
AcDbOsnapPointRef
 72
     3
331
45A
 73
     2
 91
        0
 40
0.0
 10
0.0
 20
0.0
 30
0.0
 75
     0
  0
DIMASSOC
  5
9F6
102
{ACAD_REACTORS
330
9EC
102
}
330
9EC
100
AcDbDimAssoc
330
9DF
 90
        2
 70
     0
 71
     0
  1
AcDbOsnapPointRef
 72
     3
331
459
 73
     2
 91
        0
 40
0.0
 10
0.0
 20
0.0
 30
0.0
 75
     0
  0
ACDBDETAILVIEWSTYLE
  5
A94
102
{ACAD_XDICTIONARY
360
AAF
102
}
102
{ACAD_REACTORS
330
A93
102
}
330
A93
100
AcDbModelDocViewStyle
 70
     0
  3
Metric50
290
     0
100
AcDbDetailViewStyle
 70
     0
 71
     0
 90
        3
 71
     1
340
11
 62
   256
 40
5.0
340
0
 62
   256
 40
5.0
300

 40
0.0
280
     1
 71
     2
340
16
 90
       25
 62
   256
 71
     3
340
11
 62
   256
 40
5.0
 90
        0
 40
15.0
 90
        1
300
%<\AcVar ViewDetailId>% (%<\AcVar ViewScale \f "%sn">%)
 71
     4
340
16
 90
       25
 62
   256
340
16
 90
       25
 62
   256
280
     0
  0
LAYOUT
  5
6D7
102
{ACAD_REACTORS
330
1A
102
}
330
1A
100
AcDbPlotSettings
  1

  2
none_device
  4
ISO_A4_(297.00_x_210.00_MM)
  6

 40
0.0
 41
0.0
 42
0.0
 43
0.0
 44
297.0
 45
210.0
 46
0.0
 47
0.0
 48
0.0
 49
0.0
140
0.0
141
0.0
142
1.0
143
1.0
 70
     0
 72
     1
 73
     0
 74
     0
  7

 75
     0
147
1.0
 76
     0
 77
     2
 78
   300
148
0.0
149
0.0
100
AcDbLayout
  1
Layout1
 70
     1
 71
     1
 10
0.0
 20
0.0
 11
12.0
 21
9.0
 12
0.0
 22
0.0
 32
0.0
 14
1.000000000000000E+20
 24
1.000000000000000E+20
 34
1.000000000000000E+20
 15
-1.000000000000000E+20
 25
-1.000000000000000E+20
 35
-1.000000000000000E+20
146
0.0
 13
0.0
 23
0.0
 33
0.0
 16
1.0
 26
0.0
 36
0.0
 17
0.0
 27
1.0
 37
0.0
 76
     0
330
208
  0
LAYOUT
  5
6D6
102
{ACAD_XDICTIONARY
360
912
102
}
102
{ACAD_REACTORS
330
1A
102
}
330
1A
100
AcDbPlotSettings
  1

  2
none_device
  4
ISO_A4_(297.00_x_210.00_MM)
  6

 40
0.0
 41
0.0
 42
0.0
 43
0.0
 44
297.0
 45
210.0
 46
0.0
 47
0.0
 48
0.0
 49
0.0
140
0.0
141
0.0
142
1.0
143
1.0
 70
  1024
 72
     1
 73
     0
 74
     0
  7

 75
     0
147
1.0
 76
     0
 77
     2
 78
   300
148
0.0
149
0.0
100
AcDbLayout
  1
Model
 70
     0
 71
     0
 10
0.0
 20
0.0
 11
297.0
 21
210.0
 12
0.0
 22
0.0
 32
0.0
 14
0.0
 24
0.0
 34
0.0
 15
0.0
 25
0.0
 35
0.0
146
0.0
 13
0.0
 23
0.0
 33
0.0
 16
1.0
 26
0.0
 36
0.0
 17
0.0
 27
1.0
 37
0.0
 76
     0
330
207
331
1F4
  0
MATERIAL
  5
6E3
102
{ACAD_XDICTIONARY
360
6E4
102
}
102
{ACAD_REACTORS
330
6DA
102
}
330
6DA
100
AcDbMaterial
  1
ByBlock
 72
     0
 43
0.0008202099737533
 43
0.0
 43
0.0
 43
0.0
 43
0.0
 43
0.0008202099737533
 43
0.0
 43
0.0
 43
0.0
 43
0.0
 43
1.0
 43
0.0
 43
0.0
 43
0.0
 43
0.0
 43
1.0
 77
     0
 47
0.0008202099737533
 47
0.0
 47
0.0
 47
0.0
 47
0.0
 47
0.0008202099737533
 47
0.0
 47
0.0
 47
0.0
 47
0.0
 47
1.0
 47
0.0
 47
0.0
 47
0.0
 47
0.0
 47
1.0
171
     0
 49
0.0008202099737533
 49
0.0
 49
0.0
 49
0.0
 49
0.0
 49
0.0008202099737533
 49
0.0
 49
0.0
 49
0.0
 49
0.0
 49
1.0
 49
0.0
 49
0.0
 49
0.0
 49
0.0
 49
1.0
175
     0
142
0.0008202099737533
142
0.0
142
0.0
142
0.0
142
0.0
142
0.0008202099737533
142
0.0
142
0.0
142
0.0
142
0.0
142
1.0
142
0.0
142
0.0
142
0.0
142
0.0
142
1.0
179
     0
144
0.0008202099737533
144
0.0
144
0.0
144
0.0
144
0.0
144
0.0008202099737533
144
0.0
144
0.0
144
0.0
144
0.0
144
1.0
144
0.0
144
0.0
144
0.0
144
0.0
144
1.0
147
0.0008202099737533
147
0.0
147
0.0
147
0.0
147
0.0
147
0.0008202099737533
147
0.0
147
0.0
147
0.0
147
0.0
147
1.0
147
0.0
147
0.0
147
0.0
147
0.0
147
1.0
  0
MATERIAL
  5
6DB
102
{ACAD_XDICTIONARY
360
6DC
102
}
102
{ACAD_REACTORS
330
6DA
102
}
330
6DA
100
AcDbMaterial
  1
ByLayer
 72
     0
 43
0.0008202099737533
 43
0.0
 43
0.0
 43
0.0
 43
0.0
 43
0.0008202099737533
 43
0.0
 43
0.0
 43
0.0
 43
0.0
 43
1.0
 43
0.0
 43
0.0
 43
0.0
 43
0.0
 43
1.0
 77
     0
 47
0.0008202099737533
 47
0.0
 47
0.0
 47
0.0
 47
0.0
 47
0.0008202099737533
 47
0.0
 47
0.0
 47
0.0
 47
0.0
 47
1.0
 47
0.0
 47
0.0
 47
0.0
 47
0.0
 47
1.0
171
     0
 49
0.0008202099737533
 49
0.0
 49
0.0
 49
0.0
 49
0.0
 49
0.0008202099737533
 49
0.0
 49
0.0
 49
0.0
 49
0.0
 49
1.0
 49
0.0
 49
0.0
 49
0.0
 49
0.0
 49
1.0
175
     0
142
0.0008202099737533
142
0.0
142
0.0
142
0.0
142
0.0
142
0.0008202099737533
142
0.0
142
0.0
142
0.0
142
0.0
142
1.0
142
0.0
142
0.0
142
0.0
142
0.0
142
1.0
179
     0
144
0.0008202099737533
144
0.0
144
0.0
144
0.0
144
0.0
144
0.0008202099737533
144
0.0
144
0.0
144
0.0
144
0.0
144
1.0
144
0.0
144
0.0
144
0.0
144
0.0
144
1.0
147
0.0008202099737533
147
0.0
147
0.0
147
0.0
147
0.0
147
0.0008202099737533
147
0.0
147
0.0
147
0.0
147
0.0
147
1.0
147
0.0
147
0.0
147
0.0
147
0.0
147
1.0
  0
MATERIAL
  5
6EB
102
{ACAD_XDICTIONARY
360
6EC
102
}
102
{ACAD_REACTORS
330
6DA
102
}
330
6DA
100
AcDbMaterial
  1
Global
 72
     0
 43
0.0008202099737533
 43
0.0
 43
0.0
 43
0.0
 43
0.0
 43
0.0008202099737533
 43
0.0
 43
0.0
 43
0.0
 43
0.0
 43
1.0
 43
0.0
 43
0.0
 43
0.0
 43
0.0
 43
1.0
 77
     0
 47
0.0008202099737533
 47
0.0
 47
0.0
 47
0.0
 47
0.0
 47
0.0008202099737533
 47
0.0
 47
0.0
 47
0.0
 47
0.0
 47
1.0
 47
0.0
 47
0.0
 47
0.0
 47
0.0
 47
1.0
171
     0
 49
0.0008202099737533
 49
0.0
 49
0.0
 49
0.0
 49
0.0
 49
0.0008202099737533
 49
0.0
 49
0.0
 49
0.0
 49
0.0
 49
1.0
 49
0.0
 49
0.0
 49
0.0
 49
0.0
 49
1.0
175
     0
142
0.0008202099737533
142
0.0
142
0.0
142
0.0
142
0.0
142
0.0008202099737533
142
0.0
142
0.0
142
0.0
142
0.0
142
1.0
142
0.0
142
0.0
142
0.0
142
0.0
142
1.0
179
     0
144
0.0008202099737533
144
0.0
144
0.0
144
0.0
144
0.0
144
0.0008202099737533
144
0.0
144
0.0
144
0.0
144
0.0
144
1.0
144
0.0
144
0.0
144
0.0
144
0.0
144
1.0
147
0.0008202099737533
147
0.0
147
0.0
147
0.0
147
0.0
147
0.0008202099737533
147
0.0
147
0.0
147
0.0
147
0.0
147
1.0
147
0.0
147
0.0
147
0.0
147
0.0
147
1.0
  0
MLEADERSTYLE
  5
72A
102
{ACAD_REACTORS
330
729
102
}
330
729
100
AcDbMLeaderStyle
179
     2
170
     2
171
     1
172
     0
 90
        2
 40
0.0
 41
0.0
173
     1
 91
-1056964608
340
14
 92
       -2
290
     1
 42
2.0
291
     1
 43
0.36
  3
Standard
 44
4.0
300

342
11
174
     1
178
     6
175
     1
176
     0
 93
-1056964608
 45
4.0
292
     0
297
     0
 46
4.0
 94
-1056964608
 47
1.0
 49
1.0
140
1.0
293
     1
141
0.0
294
     1
177
     0
142
1.0
295
     0
296
     0
143
0.125
271
     0
272
     9
273
     9
298
     0
  0
MLINESTYLE
  5
18
102
{ACAD_REACTORS
330
17
102
}
330
17
100
AcDbMlineStyle
  2
STANDARD
 70
     0
  3

 62
   256
 51
90.0
 52
90.0
 71
     2
 49
0.5
 62
   256
  6
BYLAYER
 49
-0.5
 62
   256
  6
BYLAYER
  0
ACDBPLACEHOLDER
  5
F
102
{ACAD_REACTORS
330
E
102
}
330
E
  0
SCALE
  5
708
102
{ACAD_REACTORS
330
707
102
}
330
707
100
AcDbScale
 70
     0
300
1:1
140
1.0
141
1.0
290
     1
  0
SCALE
  5
709
102
{ACAD_REACTORS
330
707
102
}
330
707
100
AcDbScale
 70
     0
300
1:2
140
1.0
141
2.0
290
     0
  0
SCALE
  5
70A
102
{ACAD_REACTORS
330
707
102
}
330
707
100
AcDbScale
 70
     0
300
1:4
140
1.0
141
4.0
290
     0
  0
SCALE
  5
70B
102
{ACAD_REACTORS
330
707
102
}
330
707
100
AcDbScale
 70
     0
300
1:5
140
1.0
141
5.0
290
     0
  0
SCALE
  5
70C
102
{ACAD_REACTORS
330
707
102
}
330
707
100
AcDbScale
 70
     0
300
1:8
140
1.0
141
8.0
290
     0
  0
SCALE
  5
70D
102
{ACAD_REACTORS
330
707
102
}
330
707
100
AcDbScale
 70
     0
300
1:10
140
1.0
141
10.0
290
     0
  0
SCALE
  5
70E
102
{ACAD_REACTORS
330
707
102
}
330
707
100
AcDbScale
 70
     0
300
1:16
140
1.0
141
16.0
290
     0
  0
SCALE
  5
70F
102
{ACAD_REACTORS
330
707
102
}
330
707
100
AcDbScale
 70
     0
300
1:20
140
1.0
141
20.0
290
     0
  0
SCALE
  5
710
102
{ACAD_REACTORS
330
707
102
}
330
707
100
AcDbScale
 70
     0
300
1:30
140
1.0
141
30.0
290
     0
  0
SCALE
  5
711
102
{ACAD_REACTORS
330
707
102
}
330
707
100
AcDbScale
 70
     0
300
1:40
140
1.0
141
40.0
290
     0
  0
SCALE
  5
712
102
{ACAD_REACTORS
330
707
102
}
330
707
100
AcDbScale
 70
     0
300
1:50
140
1.0
141
50.0
290
     0
  0
SCALE
  5
713
102
{ACAD_REACTORS
330
707
102
}
330
707
100
AcDbScale
 70
     0
300
1:100
140
1.0
141
100.0
290
     0
  0
SCALE
  5
714
102
{ACAD_REACTORS
330
707
102
}
330
707
100
AcDbScale
 70
     0
300
2:1
140
2.0
141
1.0
290
     0
  0
SCALE
  5
715
102
{ACAD_REACTORS
330
707
102
}
330
707
100
AcDbScale
 70
     0
300
4:1
140
4.0
141
1.0
290
     0
  0
SCALE
  5
716
102
{ACAD_REACTORS
330
707
102
}
330
707
100
AcDbScale
 70
     0
300
8:1
140
8.0
141
1.0
290
     0
  0
SCALE
  5
717
102
{ACAD_REACTORS
330
707
102
}
330
707
100
AcDbScale
 70
     0
300
10:1
140
10.0
141
1.0
290
     0
  0
SCALE
  5
718
102
{ACAD_REACTORS
330
707
102
}
330
707
100
AcDbScale
 70
     0
300
100:1
140
100.0
141
1.0
290
     0
  0
SCALE
  5
719
102
{ACAD_REACTORS
330
707
102
}
330
707
100
AcDbScale
 70
     0
300
1/128" = 1'-0"
140
0.0078125
141
12.0
290
     0
  0
SCALE
  5
71A
102
{ACAD_REACTORS
330
707
102
}
330
707
100
AcDbScale
 70
     0
300
1/64" = 1'-0"
140
0.015625
141
12.0
290
     0
  0
SCALE
  5
71B
102
{ACAD_REACTORS
330
707
102
}
330
707
100
AcDbScale
 70
     0
300
1/32" = 1'-0"
140
0.03125
141
12.0
290
     0
  0
SCALE
  5
71C
102
{ACAD_REACTORS
330
707
102
}
330
707
100
AcDbScale
 70
     0
300
1/16" = 1'-0"
140
0.0625
141
12.0
290
     0
  0
SCALE
  5
71D
102
{ACAD_REACTORS
330
707
102
}
330
707
100
AcDbScale
 70
     0
300
3/32" = 1'-0"
140
0.09375
141
12.0
290
     0
  0
SCALE
  5
71E
102
{ACAD_REACTORS
330
707
102
}
330
707
100
AcDbScale
 70
     0
300
1/8" = 1'-0"
140
0.125
141
12.0
290
     0
  0
SCALE
  5
71F
102
{ACAD_REACTORS
330
707
102
}
330
707
100
AcDbScale
 70
     0
300
3/16" = 1'-0"
140
0.1875
141
12.0
290
     0
  0
SCALE
  5
720
102
{ACAD_REACTORS
330
707
102
}
330
707
100
AcDbScale
 70
     0
300
1/4" = 1'-0"
140
0.25
141
12.0
290
     0
  0
SCALE
  5
721
102
{ACAD_REACTORS
330
707
102
}
330
707
100
AcDbScale
 70
     0
300
3/8" = 1'-0"
140
0.375
141
12.0
290
     0
  0
SCALE
  5
722
102
{ACAD_REACTORS
330
707
102
}
330
707
100
AcDbScale
 70
     0
300
1/2" = 1'-0"
140
0.5
141
12.0
290
     0
  0
SCALE
  5
723
102
{ACAD_REACTORS
330
707
102
}
330
707
100
AcDbScale
 70
     0
300
3/4" = 1'-0"
140
0.75
141
12.0
290
     0
  0
SCALE
  5
724
102
{ACAD_REACTORS
330
707
102
}
330
707
100
AcDbScale
 70
     0
300
1" = 1'-0"
140
1.0
141
12.0
290
     0
  0
SCALE
  5
725
102
{ACAD_REACTORS
330
707
102
}
330
707
100
AcDbScale
 70
     0
300
1-1/2" = 1'-0"
140
1.5
141
12.0
290
     0
  0
SCALE
  5
726
102
{ACAD_REACTORS
330
707
102
}
330
707
100
AcDbScale
 70
     0
300
3" = 1'-0"
140
3.0
141
12.0
290
     0
  0
SCALE
  5
727
102
{ACAD_REACTORS
330
707
102
}
330
707
100
AcDbScale
 70
     0
300
6" = 1'-0"
140
6.0
141
12.0
290
     0
  0
SCALE
  5
728
102
{ACAD_REACTORS
330
707
102
}
330
707
100
AcDbScale
 70
     0
300
1'-0" = 1'-0"
140
12.0
141
12.0
290
     0
  0
ACDBSECTIONVIEWSTYLE
  5
A92
102
{ACAD_XDICTIONARY
360
AAD
102
}
102
{ACAD_REACTORS
330
A91
102
}
330
A91
100
AcDbModelDocViewStyle
 70
     0
  3
Metric50
290
     0
100
AcDbSectionViewStyle
 70
     0
 71
     0
 90
      102
 71
     1
340
11
 62
   256
 40
5.0
340
0
340
0
 62
   256
 40
5.0
300
I, O, Q, S, X, Z
 40
10.0
 90
        0
 40
2.5
 90
        0
 71
     2
340
16
 90
       25
 62
   256
340
16
 90
       50
 62
   256
 40
5.0
 40
2.5
 40
5.0
 71
     3
340
11
 62
   256
 40
5.0
 90
        0
 40
15.0
 90
        1
300
%<\AcVar ViewSectionStartId>%-%<\AcVar ViewSectionEndId>% (%<\AcVar ViewScale \f "%sn">%)
 71
     4
 62
   256
 62
   257
300
ANSI31
 40
1.0
 90
        0
290
     0
290
     0
 90
        6
 40
0.0
 40
1.570796326794896
 40
0.2617993877991494
 40
1.308996938995747
 40
-0.2617993877991494
 40
1.832595714594046
  0
TABLESTYLE
  5
706
102
{ACAD_XDICTIONARY
360
72C
102
}
102
{ACAD_REACTORS
330
705
102
}
330
705
100
AcDbTableStyle
280
     0
  3
Standard
 70
     0
 71
     0
 40
1.5
 41
1.5
280
     0
281
     0
  7
STANDARD
140
4.5
170
     2
 62
     0
 63
     7
283
     0
 90
      512
 91
        0
  1

274
    -2
284
     1
 64
     0
275
    -2
285
     1
 65
     0
276
    -2
286
     1
 66
     0
277
    -2
287
     1
 67
     0
278
    -2
288
     1
 68
     0
279
    -2
289
     1
 69
     0
  7
STANDARD
140
6.0
170
     5
 62
     0
 63
     7
283
     0
 90
      512
 91
        0
  1

274
    -2
284
     1
 64
     0
275
    -2
285
     1
 65
     0
276
    -2
286
     1
 66
     0
277
    -2
287
     1
 67
     0
278
    -2
288
     1
 68
     0
279
    -2
289
     1
 69
     0
  7
STANDARD
140
4.5
170
     5
 62
     0
 63
     7
283
     0
 90
      512
 91
        0
  1

274
    -2
284
     1
 64
     0
275
    -2
285
     1
 65
     0
276
    -2
286
     1
 66
     0
277
    -2
287
     1
 67
     0
278
    -2
288
     1
 68
     0
279
    -2
289
     1
 69
     0
  0
VISUALSTYLE
  5
6F9
102
{ACAD_REACTORS
330
6F3
102
}
330
6F3
100
AcDbVisualStyle
  2
2dWireframe
 70
     4
177
     3
291
     0
 70
    58
 90
        0
176
     1
 90
        2
176
     1
 90
        0
176
     1
 90
        0
176
     1
 40
0.6
176
     1
 40
30.0
176
     1
 62
     7
420
 16777215
176
     1
 90
        1
176
     1
 90
        4
176
     1
 62
     7
176
     1
 62
   257
176
     1
 90
        1
176
     1
 90
        1
176
     1
 40
1.0
176
     1
 90
        0
176
     1
 62
   257
176
     1
 40
1.0
176
     1
 90
        1
176
     1
 90
        6
176
     1
 90
        2
176
     1
 62
     7
176
     1
 90
        5
176
     1
 90
        0
176
     1
 90
        0
176
     1
290
     0
176
     1
 90
        1
176
     1
 40
0.0
176
     1
 90
        0
176
     1
290
     1
176
     1
290
     1
176
     1
290
     0
176
     1
290
     0
176
     1
290
     0
176
     1
290
     0
176
     1
290
     0
176
     1
290
     0
176
     1
290
     0
176
     1
 90
       50
176
     1
 40
0.0
176
     1
 40
1.0
176
     1
 90
        0
176
     1
 62
    18
420
        0
176
     1
 90
       50
176
     1
 90
        3
176
     1
 62
     5
420
      255
176
     1
290
     0
176
     1
 90
       50
176
     1
 90
       50
176
     1
 90
       50
176
     1
290
     0
176
     1
 90
       50
176
     1
 62
   256
176
     0
 40
1.0
176
     0
 90
        2
176
     1
  1
strokes_ogs.tif
176
     1
290
     0
176
     1
 40
1.0
176
     1
 40
1.0
176
     1
  0
VISUALSTYLE
  5
6FB
102
{ACAD_REACTORS
330
6F3
102
}
330
6F3
100
AcDbVisualStyle
  2
3D Hidden
 70
     6
177
     3
291
     0
 70
    58
 90
        1
176
     1
 90
        2
176
     1
 90
        2
176
     1
 90
        0
176
     1
 40
0.6
176
     1
 40
30.0
176
     1
 62
     7
420
 16777215
176
     1
 90
        2
176
     1
 90
        2
176
     1
 62
     7
176
     1
 62
   257
176
     1
 90
        2
176
     1
 90
        1
176
     1
 40
40.0
176
     1
 90
        0
176
     1
 62
   257
176
     1
 40
1.0
176
     1
 90
        1
176
     1
 90
        6
176
     1
 90
        2
176
     1
 62
     7
176
     1
 90
        3
176
     1
 90
        0
176
     1
 90
        0
176
     1
290
     0
176
     1
 90
        1
176
     1
 40
0.0
176
     1
 90
        0
176
     1
290
     0
176
     1
290
     1
176
     1
290
     1
176
     1
290
     0
176
     1
290
     0
176
     1
290
     0
176
     1
290
     0
176
     1
290
     0
176
     1
290
     0
176
     1
 90
       50
176
     1
 40
0.0
176
     1
 40
1.0
176
     1
 90
        0
176
     1
 62
    18
420
        0
176
     1
 90
       50
176
     1
 90
        3
176
     1
 62
     5
420
      255
176
     1
290
     0
176
     1
 90
       50
176
     1
 90
       50
176
     1
 90
       50
176
     1
290
     0
176
     1
 90
       50
176
     1
 62
   256
176
     0
 40
1.0
176
     0
 90
        2
176
     1
  1
strokes_ogs.tif
176
     1
290
     0
176
     1
 40
1.0
176
     1
 40
1.0
176
     1
  0
VISUALSTYLE
  5
6FA
102
{ACAD_REACTORS
330
6F3
102
}
330
6F3
100
AcDbVisualStyle
  2
3dWireframe
 70
     5
177
     3
291
     0
 70
    58
 90
        0
176
     1
 90
        2
176
     1
 90
        0
176
     1
 90
        0
176
     1
 40
0.6
176
     1
 40
30.0
176
     1
 62
     7
420
 16777215
176
     1
 90
        1
176
     1
 90
        4
176
     1
 62
     7
176
     1
 62
   257
176
     1
 90
        1
176
     1
 90
        1
176
     1
 40
1.0
176
     1
 90
        0
176
     1
 62
   257
176
     1
 40
1.0
176
     1
 90
        1
176
     1
 90
        6
176
     1
 90
        2
176
     1
 62
     7
176
     1
 90
        5
176
     1
 90
        0
176
     1
 90
        0
176
     1
290
     0
176
     1
 90
        1
176
     1
 40
0.0
176
     1
 90
        0
176
     1
290
     0
176
     1
290
     1
176
     1
290
     1
176
     1
290
     0
176
     1
290
     0
176
     1
290
     0
176
     1
290
     0
176
     1
290
     0
176
     1
290
     0
176
     1
 90
       50
176
     1
 40
0.0
176
     1
 40
1.0
176
     1
 90
        0
176
     1
 62
    18
420
        0
176
     1
 90
       50
176
     1
 90
        3
176
     1
 62
     5
420
      255
176
     1
290
     0
176
     1
 90
       50
176
     1
 90
       50
176
     1
 90
       50
176
     1
290
     0
176
     1
 90
       50
176
     1
 62
   256
176
     0
 40
1.0
176
     0
 90
        2
176
     1
  1
strokes_ogs.tif
176
     1
290
     0
176
     1
 40
1.0
176
     1
 40
1.0
176
     1
  0
VISUALSTYLE
  5
6F8
102
{ACAD_REACTORS
330
6F3
102
}
330
6F3
100
AcDbVisualStyle
  2
Basic
 70
     7
177
     3
291
     1
 70
    58
 90
        1
176
     1
 90
        0
176
     1
 90
        1
176
     1
 90
        0
176
     1
 40
0.6
176
     1
 40
30.0
176
     1
 62
     7
420
 16777215
176
     1
 90
        0
176
     1
 90
        4
176
     1
 62
     7
176
     1
 62
   257
176
     1
 90
        1
176
     1
 90
        1
176
     1
 40
1.0
176
     1
 90
        8
176
     1
 62
     7
176
     1
 40
1.0
176
     1
 90
        1
176
     1
 90
        6
176
     1
 90
        2
176
     1
 62
     7
176
     1
 90
        5
176
     1
 90
        0
176
     1
 90
        0
176
     1
290
     0
176
     1
 90
        1
176
     1
 40
0.0
176
     1
 90
        0
176
     1
290
     0
176
     1
290
     1
176
     1
290
     1
176
     1
290
     0
176
     1
290
     0
176
     1
290
     0
176
     1
290
     0
176
     1
290
     0
176
     1
290
     0
176
     1
 90
       50
176
     1
 40
0.0
176
     1
 40
1.0
176
     1
 90
        0
176
     1
 62
    18
420
        0
176
     1
 90
       50
176
     1
 90
        3
176
     1
 62
     5
420
      255
176
     1
290
     0
176
     1
 90
       50
176
     1
 90
       50
176
     1
 90
       50
176
     1
290
     0
176
     1
 90
       50
176
     1
 62
   256
176
     0
 40
1.0
176
     0
 90
        2
176
     1
  1
strokes_ogs.tif
176
     1
290
     0
176
     1
 40
1.0
176
     1
 40
1.0
176
     1
  0
VISUALSTYLE
  5
6FF
102
{ACAD_REACTORS
330
6F3
102
}
330
6F3
100
AcDbVisualStyle
  2
Brighten
 70
    12
177
     3
291
     1
 70
    58
 90
        2
176
     1
 90
        2
176
     1
 90
        0
176
     1
 90
        0
176
     1
 40
0.6
176
     1
 40
30.0
176
     1
 62
     7
420
 16777215
176
     1
 90
        1
176
     1
 90
        4
176
     1
 62
     7
176
     1
 62
   257
176
     1
 90
        1
176
     1
 90
        1
176
     1
 40
1.0
176
     1
 90
        8
176
     1
 62
     7
176
     1
 40
1.0
176
     1
 90
        1
176
     1
 90
        6
176
     1
 90
        2
176
     1
 62
     7
176
     1
 90
        5
176
     1
 90
        0
176
     1
 90
        0
176
     1
290
     0
176
     1
 90
        1
176
     1
 40
50.0
176
     1
 90
        0
176
     1
290
     0
176
     1
290
     1
176
     1
290
     1
176
     1
290
     0
176
     1
290
     0
176
     1
290
     0
176
     1
290
     0
176
     1
290
     0
176
     1
290
     0
176
     1
 90
       50
176
     1
 40
0.0
176
     1
 40
1.0
176
     1
 90
        0
176
     1
 62
    18
420
        0
176
     1
 90
       50
176
     1
 90
        3
176
     1
 62
     5
420
      255
176
     1
290
     0
176
     1
 90
       50
176
     1
 90
       50
176
     1
 90
       50
176
     1
290
     0
176
     1
 90
       50
176
     1
 62
   256
176
     0
 40
1.0
176
     0
 90
        2
176
     1
  1
strokes_ogs.tif
176
     1
290
     0
176
     1
 40
1.0
176
     1
 40
1.0
176
     1
  0
VISUALSTYLE
  5
703
102
{ACAD_REACTORS
330
6F3
102
}
330
6F3
100
AcDbVisualStyle
  2
ColorChange
 70
    16
177
     3
291
     1
 70
    58
 90
        2
176
     1
 90
        2
176
     1
 90
        3
176
     1
 90
        0
176
     1
 40
0.6
176
     1
 40
30.0
176
     1
 62
     8
420
  8421504
176
     1
 90
        1
176
     1
 90
        4
176
     1
 62
     7
176
     1
 62
   257
176
     1
 90
        1
176
     1
 90
        1
176
     1
 40
1.0
176
     1
 90
        8
176
     1
 62
     8
420
  8421504
176
     1
 40
1.0
176
     1
 90
        1
176
     1
 90
        6
176
     1
 90
        2
176
     1
 62
     7
176
     1
 90
        5
176
     1
 90
        0
176
     1
 90
        0
176
     1
290
     0
176
     1
 90
        1
176
     1
 40
0.0
176
     1
 90
        0
176
     1
290
     0
176
     1
290
     1
176
     1
290
     1
176
     1
290
     0
176
     1
290
     0
176
     1
290
     0
176
     1
290
     0
176
     1
290
     0
176
     1
290
     0
176
     1
 90
       50
176
     1
 40
0.0
176
     1
 40
1.0
176
     1
 90
        0
176
     1
 62
    18
420
        0
176
     1
 90
       50
176
     1
 90
        3
176
     1
 62
     5
420
      255
176
     1
290
     0
176
     1
 90
       50
176
     1
 90
       50
176
     1
 90
       50
176
     1
290
     0
176
     1
 90
       50
176
     1
 62
   256
176
     0
 40
1.0
176
     0
 90
        2
176
     1
  1
strokes_ogs.tif
176
     1
290
     0
176
     1
 40
1.0
176
     1
 40
1.0
176
     1
  0
VISUALSTYLE
  5
6FC
102
{ACAD_REACTORS
330
6F3
102
}
330
6F3
100
AcDbVisualStyle
  2
Conceptual
 70
     9
177
     3
291
     0
 70
    58
 90
        3
176
     1
 90
        2
176
     1
 90
        0
176
     1
 90
        0
176
     1
 40
0.6
176
     1
 40
30.0
176
     1
 62
     7
420
 16777215
176
     1
 90
        2
176
     1
 90
        2
176
     1
 62
     7
176
     1
 62
   257
176
     1
 90
        1
176
     1
 90
        1
176
     1
 40
40.0
176
     1
 90
        8
176
     1
 62
     7
176
     1
 40
1.0
176
     1
 90
        1
176
     1
 90
        6
176
     1
 90
        2
176
     1
 62
     7
176
     1
 90
        3
176
     1
 90
        0
176
     1
 90
        0
176
     1
290
     0
176
     1
 90
        1
176
     1
 40
0.0
176
     1
 90
        0
176
     1
290
     0
176
     1
290
     1
176
     1
290
     1
176
     1
290
     0
176
     1
290
     0
176
     1
290
     0
176
     1
290
     0
176
     1
290
     0
176
     1
290
     0
176
     1
 90
       50
176
     1
 40
0.0
176
     1
 40
1.0
176
     1
 90
        0
176
     1
 62
    18
420
        0
176
     1
 90
       50
176
     1
 90
        3
176
     1
 62
     5
420
      255
176
     1
290
     0
176
     1
 90
       50
176
     1
 90
       50
176
     1
 90
       50
176
     1
290
     0
176
     1
 90
       50
176
     1
 62
   256
176
     0
 40
1.0
176
     0
 90
        2
176
     1
  1
strokes_ogs.tif
176
     1
290
     0
176
     1
 40
1.0
176
     1
 40
1.0
176
     1
  0
VISUALSTYLE
  5
6FE
102
{ACAD_REACTORS
330
6F3
102
}
330
6F3
100
AcDbVisualStyle
  2
Dim
 70
    11
177
     3
291
     1
 70
    58
 90
        2
176
     1
 90
        2
176
     1
 90
        0
176
     1
 90
        0
176
     1
 40
0.6
176
     1
 40
30.0
176
     1
 62
     7
420
 16777215
176
     1
 90
        1
176
     1
 90
        4
176
     1
 62
     7
176
     1
 62
   257
176
     1
 90
        1
176
     1
 90
        1
176
     1
 40
1.0
176
     1
 90
        8
176
     1
 62
     7
176
     1
 40
1.0
176
     1
 90
        1
176
     1
 90
        6
176
     1
 90
        2
176
     1
 62
     7
176
     1
 90
        5
176
     1
 90
        0
176
     1
 90
        0
176
     1
290
     0
176
     1
 90
        1
176
     1
 40
-50.0
176
     1
 90
        0
176
     1
290
     0
176
     1
290
     1
176
     1
290
     1
176
     1
290
     0
176
     1
290
     0
176
     1
290
     0
176
     1
290
     0
176
     1
290
     0
176
     1
290
     0
176
     1
 90
       50
176
     1
 40
0.0
176
     1
 40
1.0
176
     1
 90
        0
176
     1
 62
    18
420
        0
176
     1
 90
       50
176
     1
 90
        3
176
     1
 62
     5
420
      255
176
     1
290
     0
176
     1
 90
       50
176
     1
 90
       50
176
     1
 90
       50
176
     1
290
     0
176
     1
 90
       50
176
     1
 62
   256
176
     0
 40
1.0
176
     0
 90
        2
176
     1
  1
strokes_ogs.tif
176
     1
290
     0
176
     1
 40
1.0
176
     1
 40
1.0
176
     1
  0
VISUALSTYLE
  5
754
102
{ACAD_REACTORS
330
6F3
102
}
330
6F3
100
AcDbVisualStyle
  2
EdgeColorOff
 70
    22
177
     3
291
     1
 70
    58
 90
        2
176
     0
 90
        2
176
     0
 90
        0
176
     0
 90
        0
176
     0
 40
0.6
176
     0
 40
30.0
176
     0
 62
     7
420
 16777215
176
     0
 90
        1
176
     0
 90
        4
176
     0
 62
     7
176
     0
 62
   257
176
     0
 90
        1
176
     0
 90
        1
176
     0
 40
1.0
176
     0
 90
        8
176
     2
 62
     7
176
     0
 40
1.0
176
     0
 90
        1
176
     0
 90
        6
176
     0
 90
        2
176
     0
 62
     7
176
     0
 90
        5
176
     0
 90
        0
176
     0
 90
        0
176
     0
290
     0
176
     0
 90
        1
176
     0
 40
0.0
176
     0
 90
        0
176
     0
290
     0
176
     1
290
     1
176
     1
290
     1
176
     1
290
     0
176
     1
290
     0
176
     1
290
     0
176
     1
290
     0
176
     1
290
     0
176
     1
290
     0
176
     1
 90
       50
176
     1
 40
0.0
176
     1
 40
1.0
176
     1
 90
        0
176
     1
 62
    18
420
        0
176
     1
 90
       50
176
     1
 90
        3
176
     1
 62
     5
420
      255
176
     1
290
     0
176
     1
 90
       50
176
     1
 90
       50
176
     1
 90
       50
176
     1
290
     0
176
     1
 90
       50
176
     1
 62
   256
176
     0
 40
1.0
176
     0
 90
        2
176
     1
  1
strokes_ogs.tif
176
     1
290
     0
176
     1
 40
1.0
176
     1
 40
1.0
176
     1
  0
VISUALSTYLE
  5
702
102
{ACAD_REACTORS
330
6F3
102
}
330
6F3
100
AcDbVisualStyle
  2
Facepattern
 70
    15
177
     3
291
     1
 70
    58
 90
        2
176
     1
 90
        2
176
     1
 90
        0
176
     1
 90
        0
176
     1
 40
0.6
176
     1
 40
30.0
176
     1
 62
     7
420
 16777215
176
     1
 90
        1
176
     1
 90
        4
176
     1
 62
     7
176
     1
 62
   257
176
     1
 90
        1
176
     1
 90
        1
176
     1
 40
1.0
176
     1
 90
        8
176
     1
 62
     7
176
     1
 40
1.0
176
     1
 90
        1
176
     1
 90
        6
176
     1
 90
        2
176
     1
 62
     7
176
     1
 90
        5
176
     1
 90
        0
176
     1
 90
        0
176
     1
290
     0
176
     1
 90
        1
176
     1
 40
0.0
176
     1
 90
        0
176
     1
290
     0
176
     1
290
     1
176
     1
290
     1
176
     1
290
     0
176
     1
290
     0
176
     1
290
     0
176
     1
290
     0
176
     1
290
     0
176
     1
290
     0
176
     1
 90
       50
176
     1
 40
0.0
176
     1
 40
1.0
176
     1
 90
        0
176
     1
 62
    18
420
        0
176
     1
 90
       50
176
     1
 90
        3
176
     1
 62
     5
420
      255
176
     1
290
     0
176
     1
 90
       50
176
     1
 90
       50
176
     1
 90
       50
176
     1
290
     0
176
     1
 90
       50
176
     1
 62
   256
176
     0
 40
1.0
176
     0
 90
        2
176
     1
  1
strokes_ogs.tif
176
     1
290
     0
176
     1
 40
1.0
176
     1
 40
1.0
176
     1
  0
VISUALSTYLE
  5
6F4
102
{ACAD_REACTORS
330
6F3
102
}
330
6F3
100
AcDbVisualStyle
  2
Flat
 70
     0
177
     3
291
     1
 70
    58
 90
        2
176
     1
 90
        1
176
     1
 90
        1
176
     1
 90
        2
176
     1
 40
0.6
176
     1
 40
30.0
176
     1
 62
     7
420
 16777215
176
     1
 90
        0
176
     1
 90
        4
176
     1
 62
     7
176
     1
 62
   257
176
     1
 90
        1
176
     1
 90
        1
176
     1
 40
1.0
176
     1
 90
        8
176
     1
 62
     7
176
     1
 40
1.0
176
     1
 90
        1
176
     1
 90
        6
176
     1
 90
        2
176
     1
 62
     7
176
     1
 90
        5
176
     1
 90
        0
176
     1
 90
        0
176
     1
290
     0
176
     1
 90
       13
176
     1
 40
0.0
176
     1
 90
        0
176
     1
290
     0
176
     1
290
     1
176
     1
290
     1
176
     1
290
     0
176
     1
290
     0
176
     1
290
     0
176
     1
290
     0
176
     1
290
     0
176
     1
290
     0
176
     1
 90
       50
176
     1
 40
0.0
176
     1
 40
1.0
176
     1
 90
        0
176
     1
 62
    18
420
        0
176
     1
 90
       50
176
     1
 90
        3
176
     1
 62
     5
420
      255
176
     1
290
     0
176
     1
 90
       50
176
     1
 90
       50
176
     1
 90
       50
176
     1
290
     0
176
     1
 90
       50
176
     1
 62
   256
176
     0
 40
1.0
176
     0
 90
        2
176
     1
  1
strokes_ogs.tif
176
     1
290
     0
176
     1
 40
1.0
176
     1
 40
1.0
176
     1
  0
VISUALSTYLE
  5
6F5
102
{ACAD_REACTORS
330
6F3
102
}
330
6F3
100
AcDbVisualStyle
  2
FlatWithEdges
 70
     1
177
     3
291
     1
 70
    58
 90
        2
176
     1
 90
        1
176
     1
 90
        1
176
     1
 90
        2
176
     1
 40
0.6
176
     1
 40
30.0
176
     1
 62
     7
420
 16777215
176
     1
 90
        1
176
     1
 90
        4
176
     1
 62
     7
176
     1
 62
   257
176
     1
 90
        1
176
     1
 90
        1
176
     1
 40
1.0
176
     1
 90
        0
176
     1
 62
   257
176
     1
 40
1.0
176
     1
 90
        1
176
     1
 90
        6
176
     1
 90
        2
176
     1
 62
     7
176
     1
 90
        5
176
     1
 90
        0
176
     1
 90
        0
176
     1
290
     0
176
     1
 90
       13
176
     1
 40
0.0
176
     1
 90
        0
176
     1
290
     0
176
     1
290
     1
176
     1
290
     1
176
     1
290
     0
176
     1
290
     0
176
     1
290
     0
176
     1
290
     0
176
     1
290
     0
176
     1
290
     0
176
     1
 90
       50
176
     1
 40
0.0
176
     1
 40
1.0
176
     1
 90
        0
176
     1
 62
    18
420
        0
176
     1
 90
       50
176
     1
 90
        3
176
     1
 62
     5
420
      255
176
     1
290
     0
176
     1
 90
       50
176
     1
 90
       50
176
     1
 90
       50
176
     1
290
     0
176
     1
 90
       50
176
     1
 62
   256
176
     0
 40
1.0
176
     0
 90
        2
176
     1
  1
strokes_ogs.tif
176
     1
290
     0
176
     1
 40
1.0
176
     1
 40
1.0
176
     1
  0
VISUALSTYLE
  5
6F6
102
{ACAD_REACTORS
330
6F3
102
}
330
6F3
100
AcDbVisualStyle
  2
Gouraud
 70
     2
177
     3
291
     1
 70
    58
 90
        2
176
     1
 90
        2
176
     1
 90
        1
176
     1
 90
        2
176
     1
 40
0.6
176
     1
 40
30.0
176
     1
 62
     7
420
 16777215
176
     1
 90
        0
176
     1
 90
        4
176
     1
 62
     7
176
     1
 62
   257
176
     1
 90
        1
176
     1
 90
        1
176
     1
 40
1.0
176
     1
 90
        0
176
     1
 62
     7
176
     1
 40
1.0
176
     1
 90
        1
176
     1
 90
        6
176
     1
 90
        2
176
     1
 62
     7
176
     1
 90
        5
176
     1
 90
        0
176
     1
 90
        0
176
     1
290
     0
176
     1
 90
       13
176
     1
 40
0.0
176
     1
 90
        0
176
     1
290
     0
176
     1
290
     1
176
     1
290
     1
176
     1
290
     0
176
     1
290
     0
176
     1
290
     0
176
     1
290
     0
176
     1
290
     0
176
     1
290
     0
176
     1
 90
       50
176
     1
 40
0.0
176
     1
 40
1.0
176
     1
 90
        0
176
     1
 62
    18
420
        0
176
     1
 90
       50
176
     1
 90
        3
176
     1
 62
     5
420
      255
176
     1
290
     0
176
     1
 90
       50
176
     1
 90
       50
176
     1
 90
       50
176
     1
290
     0
176
     1
 90
       50
176
     1
 62
   256
176
     0
 40
1.0
176
     0
 90
        2
176
     1
  1
strokes_ogs.tif
176
     1
290
     0
176
     1
 40
1.0
176
     1
 40
1.0
176
     1
  0
VISUALSTYLE
  5
6F7
102
{ACAD_REACTORS
330
6F3
102
}
330
6F3
100
AcDbVisualStyle
  2
GouraudWithEdges
 70
     3
177
     3
291
     1
 70
    58
 90
        2
176
     1
 90
        2
176
     1
 90
        1
176
     1
 90
        2
176
     1
 40
0.6
176
     1
 40
30.0
176
     1
 62
     7
420
 16777215
176
     1
 90
        1
176
     1
 90
        4
176
     1
 62
     7
176
     1
 62
   257
176
     1
 90
        1
176
     1
 90
        1
176
     1
 40
1.0
176
     1
 90
        0
176
     1
 62
   257
176
     1
 40
1.0
176
     1
 90
        1
176
     1
 90
        6
176
     1
 90
        2
176
     1
 62
     7
176
     1
 90
        5
176
     1
 90
        0
176
     1
 90
        0
176
     1
290
     0
176
     1
 90
       13
176
     1
 40
0.0
176
     1
 90
        0
176
     1
290
     0
176
     1
290
     1
176
     1
290
     1
176
     1
290
     0
176
     1
290
     0
176
     1
290
     0
176
     1
290
     0
176
     1
290
     0
176
     1
290
     0
176
     1
 90
       50
176
     1
 40
0.0
176
     1
 40
1.0
176
     1
 90
        0
176
     1
 62
    18
420
        0
176
     1
 90
       50
176
     1
 90
        3
176
     1
 62
     5
420
      255
176
     1
290
     0
176
     1
 90
       50
176
     1
 90
       50
176
     1
 90
       50
176
     1
290
     0
176
     1
 90
       50
176
     1
 62
   256
176
     0
 40
1.0
176
     0
 90
        2
176
     1
  1
strokes_ogs.tif
176
     1
290
     0
176
     1
 40
1.0
176
     1
 40
1.0
176
     1
  0
VISUALSTYLE
  5
A8B
102
{ACAD_REACTORS
330
6F3
102
}
330
6F3
100
AcDbVisualStyle
  2
Hidden
 70
     6
177
     3
291
     0
 70
    58
 90
        1
176
     1
 90
        2
176
     1
 90
        2
176
     1
 90
        0
176
     1
 40
0.6
176
     1
 40
30.0
176
     1
 62
     7
420
 16777215
176
     1
 90
        2
176
     1
 90
        2
176
     1
 62
     7
176
     1
 62
   257
176
     1
 90
        2
176
     1
 90
        1
176
     1
 40
40.0
176
     1
 90
        0
176
     1
 62
   257
176
     1
 40
1.0
176
     1
 90
        1
176
     1
 90
        6
176
     1
 90
        2
176
     1
 62
     7
176
     1
 90
        3
176
     1
 90
        0
176
     1
 90
        0
176
     1
290
     0
176
     1
 90
        1
176
     1
 40
0.0
176
     1
 90
        0
176
     1
290
     0
176
     1
290
     1
176
     1
290
     1
176
     1
290
     0
176
     1
290
     0
176
     1
290
     0
176
     1
290
     0
176
     1
290
     0
176
     1
290
     0
176
     1
 90
       50
176
     1
 40
0.0
176
     1
 40
1.0
176
     1
 90
        0
176
     1
 62
    18
420
        0
176
     1
 90
       50
176
     1
 90
        3
176
     1
 62
     5
420
      255
176
     1
290
     0
176
     1
 90
       50
176
     1
 90
       50
176
     1
 90
       50
176
     1
290
     0
176
     1
 90
       50
176
     1
 62
   256
176
     0
 40
1.0
176
     0
 90
        2
176
     1
  1
strokes_ogs.tif
176
     1
290
     0
176
     1
 40
1.0
176
     1
 40
1.0
176
     1
  0
VISUALSTYLE
  5
752
102
{ACAD_REACTORS
330
6F3
102
}
330
6F3
100
AcDbVisualStyle
  2
JitterOff
 70
    20
177
     3
291
     1
 70
    58
 90
        2
176
     0
 90
        2
176
     0
 90
        0
176
     0
 90
        0
176
     0
 40
0.6
176
     0
 40
30.0
176
     0
 62
     7
420
 16777215
176
     0
 90
        1
176
     0
 90
        4
176
     0
 62
     7
176
     0
 62
   257
176
     0
 90
        1
176
     0
 90
        1
176
     0
 40
1.0
176
     0
 90
       10
176
     2
 62
     7
176
     0
 40
1.0
176
     0
 90
        1
176
     0
 90
        6
176
     0
 90
        2
176
     0
 62
     7
176
     0
 90
        5
176
     0
 90
        0
176
     0
 90
        0
176
     0
290
     0
176
     0
 90
        1
176
     0
 40
0.0
176
     0
 90
        0
176
     0
290
     0
176
     1
290
     1
176
     1
290
     1
176
     1
290
     0
176
     1
290
     0
176
     1
290
     0
176
     1
290
     0
176
     1
290
     0
176
     1
290
     0
176
     1
 90
       50
176
     1
 40
0.0
176
     1
 40
1.0
176
     1
 90
        0
176
     1
 62
    18
420
        0
176
     1
 90
       50
176
     1
 90
        3
176
     1
 62
     5
420
      255
176
     1
290
     0
176
     1
 90
       50
176
     1
 90
       50
176
     1
 90
       50
176
     1
290
     0
176
     1
 90
       50
176
     1
 62
   256
176
     0
 40
1.0
176
     0
 90
        2
176
     1
  1
strokes_ogs.tif
176
     1
290
     0
176
     1
 40
1.0
176
     1
 40
1.0
176
     1
  0
VISUALSTYLE
  5
701
102
{ACAD_REACTORS
330
6F3
102
}
330
6F3
100
AcDbVisualStyle
  2
Linepattern
 70
    14
177
     3
291
     1
 70
    58
 90
        2
176
     1
 90
        2
176
     1
 90
        0
176
     1
 90
        0
176
     1
 40
0.6
176
     1
 40
30.0
176
     1
 62
     7
420
 16777215
176
     1
 90
        1
176
     1
 90
        4
176
     1
 62
     7
176
     1
 62
   257
176
     1
 90
        7
176
     1
 90
        7
176
     1
 40
1.0
176
     1
 90
        8
176
     1
 62
     7
176
     1
 40
1.0
176
     1
 90
        1
176
     1
 90
        6
176
     1
 90
        2
176
     1
 62
     7
176
     1
 90
        5
176
     1
 90
        0
176
     1
 90
        0
176
     1
290
     0
176
     1
 90
        1
176
     1
 40
0.0
176
     1
 90
        0
176
     1
290
     0
176
     1
290
     1
176
     1
290
     1
176
     1
290
     0
176
     1
290
     0
176
     1
290
     0
176
     1
290
     0
176
     1
290
     0
176
     1
290
     0
176
     1
 90
       50
176
     1
 40
0.0
176
     1
 40
1.0
176
     1
 90
        0
176
     1
 62
    18
420
        0
176
     1
 90
       50
176
     1
 90
        3
176
     1
 62
     5
420
      255
176
     1
290
     0
176
     1
 90
       50
176
     1
 90
       50
176
     1
 90
       50
176
     1
290
     0
176
     1
 90
       50
176
     1
 62
   256
176
     0
 40
1.0
176
     0
 90
        2
176
     1
  1
strokes_ogs.tif
176
     1
290
     0
176
     1
 40
1.0
176
     1
 40
1.0
176
     1
  0
VISUALSTYLE
  5
753
102
{ACAD_REACTORS
330
6F3
102
}
330
6F3
100
AcDbVisualStyle
  2
OverhangOff
 70
    21
177
     3
291
     1
 70
    58
 90
        2
176
     0
 90
        2
176
     0
 90
        0
176
     0
 90
        0
176
     0
 40
0.6
176
     0
 40
30.0
176
     0
 62
     7
420
 16777215
176
     0
 90
        1
176
     0
 90
        4
176
     0
 62
     7
176
     0
 62
   257
176
     0
 90
        1
176
     0
 90
        1
176
     0
 40
1.0
176
     0
 90
        9
176
     2
 62
     7
176
     0
 40
1.0
176
     0
 90
        1
176
     0
 90
        6
176
     0
 90
        2
176
     0
 62
     7
176
     0
 90
        5
176
     0
 90
        0
176
     0
 90
        0
176
     0
290
     0
176
     0
 90
        1
176
     0
 40
0.0
176
     0
 90
        0
176
     0
290
     0
176
     1
290
     1
176
     1
290
     1
176
     1
290
     0
176
     1
290
     0
176
     1
290
     0
176
     1
290
     0
176
     1
290
     0
176
     1
290
     0
176
     1
 90
       50
176
     1
 40
0.0
176
     1
 40
1.0
176
     1
 90
        0
176
     1
 62
    18
420
        0
176
     1
 90
       50
176
     1
 90
        3
176
     1
 62
     5
420
      255
176
     1
290
     0
176
     1
 90
       50
176
     1
 90
       50
176
     1
 90
       50
176
     1
290
     0
176
     1
 90
       50
176
     1
 62
   256
176
     0
 40
1.0
176
     0
 90
        2
176
     1
  1
strokes_ogs.tif
176
     1
290
     0
176
     1
 40
1.0
176
     1
 40
1.0
176
     1
  0
VISUALSTYLE
  5
6FD
102
{ACAD_REACTORS
330
6F3
102
}
330
6F3
100
AcDbVisualStyle
  2
Realistic
 70
     8
177
     3
291
     0
 70
    58
 90
        2
176
     1
 90
        2
176
     1
 90
        0
176
     1
 90
        0
176
     1
 40
0.6
176
     1
 40
30.0
176
     1
 62
     7
420
 16777215
176
     1
 90
        1
176
     1
 90
        0
176
     1
 62
     7
176
     1
 62
   257
176
     1
 90
        1
176
     1
 90
        1
176
     1
 40
1.0
176
     1
 90
        8
176
     1
 62
     8
420
  7895160
176
     1
 40
1.0
176
     1
 90
        1
176
     1
 90
        6
176
     1
 90
        2
176
     1
 62
     7
176
     1
 90
        5
176
     1
 90
        0
176
     1
 90
        0
176
     1
290
     0
176
     1
 90
       13
176
     1
 40
0.0
176
     1
 90
        0
176
     1
290
     0
176
     1
290
     1
176
     1
290
     1
176
     1
290
     0
176
     1
290
     0
176
     1
290
     0
176
     1
290
     0
176
     1
290
     0
176
     1
290
     0
176
     1
 90
       50
176
     1
 40
0.0
176
     1
 40
1.0
176
     1
 90
        0
176
     1
 62
    18
420
        0
176
     1
 90
       50
176
     1
 90
        3
176
     1
 62
     5
420
      255
176
     1
290
     0
176
     1
 90
       50
176
     1
 90
       50
176
     1
 90
       50
176
     1
290
     0
176
     1
 90
       50
176
     1
 62
   256
176
     0
 40
1.0
176
     0
 90
        2
176
     1
  1
strokes_ogs.tif
176
     1
290
     0
176
     1
 40
1.0
176
     1
 40
1.0
176
     1
  0
VISUALSTYLE
  5
A90
102
{ACAD_REACTORS
330
6F3
102
}
330
6F3
100
AcDbVisualStyle
  2
Shaded
 70
    27
177
     3
291
     0
 70
    58
 90
        2
176
     1
 90
        2
176
     1
 90
        1
176
     1
 90
        2
176
     1
 40
0.6
176
     1
 40
30.0
176
     1
 62
     7
420
 16777215
176
     1
 90
        0
176
     1
 90
        4
176
     1
 62
     7
176
     1
 62
   257
176
     1
 90
        1
176
     1
 90
        1
176
     1
 40
1.0
176
     1
 90
        8
176
     1
 62
   257
176
     1
 40
1.0
176
     1
 90
        1
176
     1
 90
        6
176
     1
 90
        2
176
     1
 62
     8
420
  7895160
176
     1
 90
        3
176
     1
 90
        0
176
     1
 90
        0
176
     1
290
     0
176
     1
 90
        5
176
     1
 40
0.0
176
     1
 90
        0
176
     1
290
     0
176
     1
290
     1
176
     1
290
     1
176
     1
290
     0
176
     1
290
     0
176
     1
290
     0
176
     1
290
     0
176
     1
290
     0
176
     1
290
     0
176
     1
 90
       50
176
     1
 40
0.0
176
     1
 40
1.0
176
     1
 90
        0
176
     1
 62
    18
420
        0
176
     1
 90
       50
176
     1
 90
        3
176
     1
 62
     5
420
      255
176
     1
290
     0
176
     1
 90
       50
176
     1
 90
       50
176
     1
 90
       50
176
     1
290
     0
176
     1
 90
       50
176
     1
 62
   256
176
     0
 40
1.0
176
     0
 90
        2
176
     1
  1
strokes_ogs.tif
176
     1
290
     0
176
     1
 40
1.0
176
     1
 40
1.0
176
     1
  0
VISUALSTYLE
  5
A8F
102
{ACAD_REACTORS
330
6F3
102
}
330
6F3
100
AcDbVisualStyle
  2
Shaded with edges
 70
    26
177
     3
291
     0
 70
    58
 90
        2
176
     1
 90
        2
176
     1
 90
        1
176
     1
 90
        2
176
     1
 40
0.6
176
     1
 40
30.0
176
     1
 62
     7
420
 16777215
176
     1
 90
        1
176
     1
 90
        2
176
     1
 62
     7
176
     1
 62
   257
176
     1
 90
        2
176
     1
 90
        1
176
     1
 40
1.0
176
     1
 90
        8
176
     1
 62
   257
176
     1
 40
1.0
176
     1
 90
        1
176
     1
 90
        6
176
     1
 90
        2
176
     1
 62
     7
176
     1
 90
        3
176
     1
 90
        0
176
     1
 90
        0
176
     1
290
     0
176
     1
 90
        5
176
     1
 40
0.0
176
     1
 90
        0
176
     1
290
     0
176
     1
290
     1
176
     1
290
     1
176
     1
290
     0
176
     1
290
     0
176
     1
290
     0
176
     1
290
     0
176
     1
290
     0
176
     1
290
     0
176
     1
 90
       50
176
     1
 40
0.0
176
     1
 40
1.0
176
     1
 90
        0
176
     1
 62
    18
420
        0
176
     1
 90
       50
176
     1
 90
        3
176
     1
 62
     5
420
      255
176
     1
290
     0
176
     1
 90
       50
176
     1
 90
       50
176
     1
 90
       50
176
     1
290
     0
176
     1
 90
       50
176
     1
 62
   256
176
     0
 40
1.0
176
     0
 90
        2
176
     1
  1
strokes_ogs.tif
176
     1
290
     0
176
     1
 40
1.0
176
     1
 40
1.0
176
     1
  0
VISUALSTYLE
  5
A8C
102
{ACAD_REACTORS
330
6F3
102
}
330
6F3
100
AcDbVisualStyle
  2
Shades of Gray
 70
    23
177
     3
291
     0
 70
    58
 90
        2
176
     1
 90
        2
176
     1
 90
        3
176
     1
 90
        0
176
     1
 40
0.6
176
     1
 40
30.0
176
     1
 62
     7
420
 16777215
176
     1
 90
        2
176
     1
 90
        2
176
     1
 62
     7
176
     1
 62
     7
176
     1
 90
        1
176
     1
 90
        1
176
     1
 40
40.0
176
     1
 90
        8
176
     1
 62
     7
176
     1
 40
1.0
176
     1
 90
        1
176
     1
 90
        6
176
     1
 90
        2
176
     1
 62
     7
176
     1
 90
        3
176
     1
 90
        0
176
     1
 90
        0
176
     1
290
     0
176
     1
 90
        1
176
     1
 40
0.0
176
     1
 90
        0
176
     1
290
     0
176
     1
290
     1
176
     1
290
     1
176
     1
290
     0
176
     1
290
     0
176
     1
290
     0
176
     1
290
     0
176
     1
290
     0
176
     1
290
     0
176
     1
 90
       50
176
     1
 40
0.0
176
     1
 40
1.0
176
     1
 90
        0
176
     1
 62
    18
420
        0
176
     1
 90
       50
176
     1
 90
        3
176
     1
 62
     5
420
      255
176
     1
290
     0
176
     1
 90
       50
176
     1
 90
       50
176
     1
 90
       50
176
     1
290
     0
176
     1
 90
       50
176
     1
 62
   256
176
     0
 40
1.0
176
     0
 90
        2
176
     1
  1
strokes_ogs.tif
176
     1
290
     0
176
     1
 40
1.0
176
     1
 40
1.0
176
     1
  0
VISUALSTYLE
  5
A8D
102
{ACAD_REACTORS
330
6F3
102
}
330
6F3
100
AcDbVisualStyle
  2
Sketchy
 70
    24
177
     3
291
     0
 70
    58
 90
        1
176
     1
 90
        2
176
     1
 90
        2
176
     1
 90
        0
176
     1
 40
0.6
176
     1
 40
30.0
176
     1
 62
     7
420
 16777215
176
     1
 90
        2
176
     1
 90
        2
176
     1
 62
     7
176
     1
 62
     7
176
     1
 90
        1
176
     1
 90
        1
176
     1
 40
40.0
176
     1
 90
       11
176
     1
 62
     7
176
     1
 40
1.0
176
     1
 90
        1
176
     1
 90
        6
176
     1
 90
        2
176
     1
 62
     7
176
     1
 90
        6
176
     1
 90
        0
176
     1
 90
        0
176
     1
290
     0
176
     1
 90
        1
176
     1
 40
0.0
176
     1
 90
        0
176
     1
290
     0
176
     1
290
     1
176
     1
290
     1
176
     1
290
     0
176
     1
290
     0
176
     1
290
     0
176
     1
290
     0
176
     1
290
     0
176
     1
290
     0
176
     1
 90
       50
176
     1
 40
0.0
176
     1
 40
1.0
176
     1
 90
        0
176
     1
 62
    18
420
        0
176
     1
 90
       50
176
     1
 90
        3
176
     1
 62
     5
420
      255
176
     1
290
     0
176
     1
 90
       50
176
     1
 90
       50
176
     1
 90
       50
176
     1
290
     0
176
     1
 90
       50
176
     1
 62
   256
176
     0
 40
1.0
176
     0
 90
        2
176
     1
  1
strokes_ogs.tif
176
     1
290
     0
176
     1
 40
1.0
176
     1
 40
1.0
176
     1
  0
VISUALSTYLE
  5
700
102
{ACAD_REACTORS
330
6F3
102
}
330
6F3
100
AcDbVisualStyle
  2
Thicken
 70
    13
177
     3
291
     1
 70
    58
 90
        2
176
     1
 90
        2
176
     1
 90
        0
176
     1
 90
        0
176
     1
 40
0.6
176
     1
 40
30.0
176
     1
 62
     7
420
 16777215
176
     1
 90
        1
176
     1
 90
        4
176
     1
 62
     7
176
     1
 62
   257
176
     1
 90
        1
176
     1
 90
        1
176
     1
 40
1.0
176
     1
 90
       12
176
     1
 62
     7
176
     1
 40
1.0
176
     1
 90
        1
176
     1
 90
        6
176
     1
 90
        2
176
     1
 62
     7
176
     1
 90
        5
176
     1
 90
        0
176
     1
 90
        0
176
     1
290
     0
176
     1
 90
        1
176
     1
 40
0.0
176
     1
 90
        0
176
     1
290
     0
176
     1
290
     1
176
     1
290
     1
176
     1
290
     0
176
     1
290
     0
176
     1
290
     0
176
     1
290
     0
176
     1
290
     0
176
     1
290
     0
176
     1
 90
       50
176
     1
 40
0.0
176
     1
 40
1.0
176
     1
 90
        0
176
     1
 62
    18
420
        0
176
     1
 90
       50
176
     1
 90
        3
176
     1
 62
     5
420
      255
176
     1
290
     0
176
     1
 90
       50
176
     1
 90
       50
176
     1
 90
       50
176
     1
290
     0
176
     1
 90
       50
176
     1
 62
   256
176
     0
 40
1.0
176
     0
 90
        2
176
     1
  1
strokes_ogs.tif
176
     1
290
     0
176
     1
 40
1.0
176
     1
 40
1.0
176
     1
  0
VISUALSTYLE
  5
A8A
102
{ACAD_REACTORS
330
6F3
102
}
330
6F3
100
AcDbVisualStyle
  2
Wireframe
 70
     5
177
     3
291
     0
 70
    58
 90
        0
176
     1
 90
        2
176
     1
 90
        0
176
     1
 90
        0
176
     1
 40
0.6
176
     1
 40
30.0
176
     1
 62
     7
420
 16777215
176
     1
 90
        1
176
     1
 90
        4
176
     1
 62
     7
176
     1
 62
   257
176
     1
 90
        1
176
     1
 90
        1
176
     1
 40
1.0
176
     1
 90
        0
176
     1
 62
   257
176
     1
 40
1.0
176
     1
 90
        1
176
     1
 90
        6
176
     1
 90
        2
176
     1
 62
     7
176
     1
 90
        3
176
     1
 90
        0
176
     1
 90
        0
176
     1
290
     0
176
     1
 90
        1
176
     1
 40
0.0
176
     1
 90
        0
176
     1
290
     0
176
     1
290
     1
176
     1
290
     1
176
     1
290
     0
176
     1
290
     0
176
     1
290
     0
176
     1
290
     0
176
     1
290
     0
176
     1
290
     0
176
     1
 90
       50
176
     1
 40
0.0
176
     1
 40
1.0
176
     1
 90
        0
176
     1
 62
    18
420
        0
176
     1
 90
       50
176
     1
 90
        3
176
     1
 62
     5
420
      255
176
     1
290
     0
176
     1
 90
       50
176
     1
 90
       50
176
     1
 90
       50
176
     1
290
     0
176
     1
 90
       50
176
     1
 62
   256
176
     0
 40
1.0
176
     0
 90
        2
176
     1
  1
strokes_ogs.tif
176
     1
290
     0
176
     1
 40
1.0
176
     1
 40
1.0
176
     1
  0
VISUALSTYLE
  5
A8E
102
{ACAD_REACTORS
330
6F3
102
}
330
6F3
100
AcDbVisualStyle
  2
X-Ray
 70
    25
177
     3
291
     0
 70
    58
 90
        2
176
     1
 90
        2
176
     1
 90
        1
176
     1
 90
        1
176
     1
 40
0.5
176
     1
 40
30.0
176
     1
 62
     7
420
 16777215
176
     1
 90
        1
176
     1
 90
        0
176
     1
 62
     7
176
     1
 62
   257
176
     1
 90
        1
176
     1
 90
        1
176
     1
 40
1.0
176
     1
 90
        8
176
     1
 62
     7
176
     1
 40
1.0
176
     1
 90
        1
176
     1
 90
        6
176
     1
 90
        2
176
     1
 62
     7
176
     1
 90
        3
176
     1
 90
        0
176
     1
 90
        0
176
     1
290
     0
176
     1
 90
       13
176
     1
 40
0.0
176
     1
 90
        0
176
     1
290
     0
176
     1
290
     1
176
     1
290
     1
176
     1
290
     0
176
     1
290
     0
176
     1
290
     0
176
     1
290
     0
176
     1
290
     0
176
     1
290
     0
176
     1
 90
       50
176
     1
 40
0.0
176
     1
 40
1.0
176
     1
 90
        0
176
     1
 62
    18
420
        0
176
     1
 90
       50
176
     1
 90
        3
176
     1
 62
     5
420
      255
176
     1
290
     0
176
     1
 90
       50
176
     1
 90
       50
176
     1
 90
       50
176
     1
290
     0
176
     1
 90
       50
176
     1
 62
   256
176
     0
 40
1.0
176
     0
 90
        2
176
     1
  1
strokes_ogs.tif
176
     1
290
     0
176
     1
 40
1.0
176
     1
 40
1.0
176
     1
  0
DICTIONARYVAR
  5
750
102
{ACAD_REACTORS
330
74D
102
}
330
74D
100
DictionaryVariables
280
     0
  1
1:1
  0
DICTIONARYVAR
  5
74F
102
{ACAD_REACTORS
330
74D
102
}
330
74D
100
DictionaryVariables
280
     0
  1
STANDARD
  0
DICTIONARYVAR
  5
74E
102
{ACAD_REACTORS
330
74D
102
}
330
74D
100
DictionaryVariables
280
     0
  1
STANDARD
  0
DICTIONARYVAR
  5
AA6
102
{ACAD_REACTORS
330
74D
102
}
330
74D
100
DictionaryVariables
280
     0
  1
Metric50
  0
DICTIONARYVAR
  5
AA7
102
{ACAD_REACTORS
330
74D
102
}
330
74D
100
DictionaryVariables
280
     0
  1
Metric50
  0
DICTIONARYVAR
  5
AAA
102
{ACAD_REACTORS
330
74D
102
}
330
74D
100
DictionaryVariables
280
     0
  1
1
  0
DICTIONARYVAR
  5
AAB
102
{ACAD_REACTORS
330
74D
102
}
330
74D
100
DictionaryVariables
280
     0
  1
15
  0
DICTIONARYVAR
  5
AA9
102
{ACAD_REACTORS
330
74D
102
}
330
74D
100
DictionaryVariables
280
     0
  1
0
  0
DICTIONARYVAR
  5
AA8
102
{ACAD_REACTORS
330
74D
102
}
330
74D
100
DictionaryVariables
280
     0
  1
0
  0
DICTIONARY
  5
AAF
330
A94
100
AcDbDictionary
280
     1
281
     1
  3
ACAD_XREC_ROUNDTRIP
360
AB0
  0
DICTIONARY
  5
912
330
6D6
100
AcDbDictionary
280
     1
281
     1
  0
DICTIONARY
  5
6E4
330
6E3
100
AcDbDictionary
280
     1
281
     1
  3
BUMPTILE
360
6E6
  3
DIFFUSETILE
360
6E5
  3
OPACITYTILE
360
6E9
  3
REFLECTIONTILE
360
6E8
  3
REFRACTIONTILE
360
6EA
  3
SPECULARTILE
360
6E7
  0
DICTIONARY
  5
6DC
330
6DB
100
AcDbDictionary
280
     1
281
     1
  3
BUMPTILE
360
6DE
  3
DIFFUSETILE
360
6DD
  3
OPACITYTILE
360
6E1
  3
REFLECTIONTILE
360
6E0
  3
REFRACTIONTILE
360
6E2
  3
SPECULARTILE
360
6DF
  0
DICTIONARY
  5
6EC
330
6EB
100
AcDbDictionary
280
     1
281
     1
  3
BUMPTILE
360
6EE
  3
DIFFUSETILE
360
6ED
  3
OPACITYTILE
360
6F1
  3
REFLECTIONTILE
360
6F0
  3
REFRACTIONTILE
360
6F2
  3
SPECULARTILE
360
6EF
  0
DICTIONARY
  5
AAD
330
A92
100
AcDbDictionary
280
     1
281
     1
  3
ACAD_XREC_ROUNDTRIP
360
AAE
  0
DICTIONARY
  5
72C
330
706
100
AcDbDictionary
280
     1
281
     1
  3
ACAD_ROUNDTRIP_2008_TABLESTYLE_CELLSTYLEMAP
360
AAC
  0
XRECORD
  5
AB0
102
{ACAD_REACTORS
330
AAF
102
}
330
AAF
100
AcDbXrecord
280
     1
102
DISPLAYNAME
  1
Metric50
102
FLAGS
 90
        0
  0
XRECORD
  5
6E6
102
{ACAD_REACTORS
330
6E4
102
}
330
6E4
100
AcDbXrecord
280
     1
270
     1
271
     1
  0
XRECORD
  5
6E5
102
{ACAD_REACTORS
330
6E4
102
}
330
6E4
100
AcDbXrecord
280
     1
270
     1
271
     1
  0
XRECORD
  5
6E9
102
{ACAD_REACTORS
330
6E4
102
}
330
6E4
100
AcDbXrecord
280
     1
270
     1
271
     1
  0
XRECORD
  5
6E8
102
{ACAD_REACTORS
330
6E4
102
}
330
6E4
100
AcDbXrecord
280
     1
270
     1
271
     1
  0
XRECORD
  5
6EA
102
{ACAD_REACTORS
330
6E4
102
}
330
6E4
100
AcDbXrecord
280
     1
270
     1
271
     1
  0
XRECORD
  5
6E7
102
{ACAD_REACTORS
330
6E4
102
}
330
6E4
100
AcDbXrecord
280
     1
270
     1
271
     1
  0
XRECORD
  5
6DE
102
{ACAD_REACTORS
330
6DC
102
}
330
6DC
100
AcDbXrecord
280
     1
270
     1
271
     1
  0
XRECORD
  5
6DD
102
{ACAD_REACTORS
330
6DC
102
}
330
6DC
100
AcDbXrecord
280
     1
270
     1
271
     1
  0
XRECORD
  5
6E1
102
{ACAD_REACTORS
330
6DC
102
}
330
6DC
100
AcDbXrecord
280
     1
270
     1
271
     1
  0
XRECORD
  5
6E0
102
{ACAD_REACTORS
330
6DC
102
}
330
6DC
100
AcDbXrecord
280
     1
270
     1
271
     1
  0
XRECORD
  5
6E2
102
{ACAD_REACTORS
330
6DC
102
}
330
6DC
100
AcDbXrecord
280
     1
270
     1
271
     1
  0
XRECORD
  5
6DF
102
{ACAD_REACTORS
330
6DC
102
}
330
6DC
100
AcDbXrecord
280
     1
270
     1
271
     1
  0
XRECORD
  5
6EE
102
{ACAD_REACTORS
330
6EC
102
}
330
6EC
100
AcDbXrecord
280
     1
270
     1
271
     1
  0
XRECORD
  5
6ED
102
{ACAD_REACTORS
330
6EC
102
}
330
6EC
100
AcDbXrecord
280
     1
270
     1
271
     1
  0
XRECORD
  5
6F1
102
{ACAD_REACTORS
330
6EC
102
}
330
6EC
100
AcDbXrecord
280
     1
270
     1
271
     1
  0
XRECORD
  5
6F0
102
{ACAD_REACTORS
330
6EC
102
}
330
6EC
100
AcDbXrecord
280
     1
270
     1
271
     1
  0
XRECORD
  5
6F2
102
{ACAD_REACTORS
330
6EC
102
}
330
6EC
100
AcDbXrecord
280
     1
270
     1
271
     1
  0
XRECORD
  5
6EF
102
{ACAD_REACTORS
330
6EC
102
}
330
6EC
100
AcDbXrecord
280
     1
270
     1
271
     1
  0
XRECORD
  5
AAE
102
{ACAD_REACTORS
330
AAD
102
}
330
AAD
100
AcDbXrecord
280
     1
102
DISPLAYNAME
  1
Metric50
102
FLAGS
 90
        0
  0
CELLSTYLEMAP
  5
AAC
102
{ACAD_REACTORS
330
72C
102
}
330
72C
100
AcDbCellStyleMap
 90
        3
300
CELLSTYLE
  1
TABLEFORMAT_BEGIN
 90
        5
170
     1
 91
        0
 92
    32768
 62
   257
 93
        1
300
CONTENTFORMAT
  1
CONTENTFORMAT_BEGIN
 90
        0
 91
        0
 92
      512
 93
        0
300

 40
0.0
140
1.0
 94
        5
 62
     0
340
11
144
6.0
309
CONTENTFORMAT_END
171
     1
301
MARGIN
  1
CELLMARGIN_BEGIN
 40
1.5
 40
1.5
 40
1.5
 40
1.5
 40
4.5
 40
4.5
309
CELLMARGIN_END
 94
        6
 95
        1
302
GRIDFORMAT
  1
GRIDFORMAT_BEGIN
 90
        0
 91
        1
 62
     0
 92
       -2
340
0
 93
        0
 40
1.125
309
GRIDFORMAT_END
 95
        2
302
GRIDFORMAT
  1
GRIDFORMAT_BEGIN
 90
        0
 91
        1
 62
     0
 92
       -2
340
0
 93
        0
 40
1.125
309
GRIDFORMAT_END
 95
        4
302
GRIDFORMAT
  1
GRIDFORMAT_BEGIN
 90
        0
 91
        1
 62
     0
 92
       -2
340
0
 93
        0
 40
1.125
309
GRIDFORMAT_END
 95
        8
302
GRIDFORMAT
  1
GRIDFORMAT_BEGIN
 90
        0
 91
        1
 62
     0
 92
       -2
340
0
 93
        0
 40
1.125
309
GRIDFORMAT_END
 95
       16
302
GRIDFORMAT
  1
GRIDFORMAT_BEGIN
 90
        0
 91
        1
 62
     0
 92
       -2
340
0
 93
        0
 40
1.125
309
GRIDFORMAT_END
 95
       32
302
GRIDFORMAT
  1
GRIDFORMAT_BEGIN
 90
        0
 91
        1
 62
     0
 92
       -2
340
0
 93
        0
 40
1.125
309
GRIDFORMAT_END
309
TABLEFORMAT_END
  1
CELLSTYLE_BEGIN
 90
        1
 91
        1
300
_TITLE
309
CELLSTYLE_END
300
CELLSTYLE
  1
TABLEFORMAT_BEGIN
 90
        5
170
     1
 91
        0
 92
        0
 62
   257
 93
        1
300
CONTENTFORMAT
  1
CONTENTFORMAT_BEGIN
 90
        0
 91
        0
 92
      512
 93
        0
300

 40
0.0
140
1.0
 94
        5
 62
     0
340
11
144
4.5
309
CONTENTFORMAT_END
171
     1
301
MARGIN
  1
CELLMARGIN_BEGIN
 40
1.5
 40
1.5
 40
1.5
 40
1.5
 40
4.5
 40
4.5
309
CELLMARGIN_END
 94
        6
 95
        1
302
GRIDFORMAT
  1
GRIDFORMAT_BEGIN
 90
        0
 91
        1
 62
     0
 92
       -2
340
0
 93
        0
 40
1.125
309
GRIDFORMAT_END
 95
        2
302
GRIDFORMAT
  1
GRIDFORMAT_BEGIN
 90
        0
 91
        1
 62
     0
 92
       -2
340
0
 93
        0
 40
1.125
309
GRIDFORMAT_END
 95
        4
302
GRIDFORMAT
  1
GRIDFORMAT_BEGIN
 90
        0
 91
        1
 62
     0
 92
       -2
340
0
 93
        0
 40
1.125
309
GRIDFORMAT_END
 95
        8
302
GRIDFORMAT
  1
GRIDFORMAT_BEGIN
 90
        0
 91
        1
 62
     0
 92
       -2
340
0
 93
        0
 40
1.125
309
GRIDFORMAT_END
 95
       16
302
GRIDFORMAT
  1
GRIDFORMAT_BEGIN
 90
        0
 91
        1
 62
     0
 92
       -2
340
0
 93
        0
 40
1.125
309
GRIDFORMAT_END
 95
       32
302
GRIDFORMAT
  1
GRIDFORMAT_BEGIN
 90
        0
 91
        1
 62
     0
 92
       -2
340
0
 93
        0
 40
1.125
309
GRIDFORMAT_END
309
TABLEFORMAT_END
  1
CELLSTYLE_BEGIN
 90
        2
 91
        1
300
_HEADER
309
CELLSTYLE_END
300
CELLSTYLE
  1
TABLEFORMAT_BEGIN
 90
        5
170
     1
 91
        0
 92
        0
 62
   257
 93
        1
300
CONTENTFORMAT
  1
CONTENTFORMAT_BEGIN
 90
        0
 91
        0
 92
      512
 93
        0
300

 40
0.0
140
1.0
 94
        2
 62
     0
340
11
144
4.5
309
CONTENTFORMAT_END
171
     1
301
MARGIN
  1
CELLMARGIN_BEGIN
 40
1.5
 40
1.5
 40
1.5
 40
1.5
 40
4.5
 40
4.5
309
CELLMARGIN_END
 94
        6
 95
        1
302
GRIDFORMAT
  1
GRIDFORMAT_BEGIN
 90
        0
 91
        1
 62
     0
 92
       -2
340
0
 93
        0
 40
1.125
309
GRIDFORMAT_END
 95
        2
302
GRIDFORMAT
  1
GRIDFORMAT_BEGIN
 90
        0
 91
        1
 62
     0
 92
       -2
340
0
 93
        0
 40
1.125
309
GRIDFORMAT_END
 95
        4
302
GRIDFORMAT
  1
GRIDFORMAT_BEGIN
 90
        0
 91
        1
 62
     0
 92
       -2
340
0
 93
        0
 40
1.125
309
GRIDFORMAT_END
 95
        8
302
GRIDFORMAT
  1
GRIDFORMAT_BEGIN
 90
        0
 91
        1
 62
     0
 92
       -2
340
0
 93
        0
 40
1.125
309
GRIDFORMAT_END
 95
       16
302
GRIDFORMAT
  1
GRIDFORMAT_BEGIN
 90
        0
 91
        1
 62
     0
 92
       -2
340
0
 93
        0
 40
1.125
309
GRIDFORMAT_END
 95
       32
302
GRIDFORMAT
  1
GRIDFORMAT_BEGIN
 90
        0
 91
        1
 62
     0
 92
       -2
340
0
 93
        0
 40
1.125
309
GRIDFORMAT_END
309
TABLEFORMAT_END
  1
CELLSTYLE_BEGIN
 90
        3
 91
        2
300
_DATA
309
CELLSTYLE_END
  0
ENDSEC
  0
SECTION
  2
ACDSDATA
 70
     2
 71
     8
  0
ACDSSCHEMA
 90
        0
  1
AcDb_Thumbnail_Schema
  2
AcDbDs::ID
280
    10
 91
        8
  2
Thumbnail_Data
280
    15
 91
        0
101
ACDSRECORD
 95
        0
 90
        1
  2
AcDbDs::TreatedAsObjectData
280
     1
291
     1
101
ACDSRECORD
 95
        0
 90
        2
  2
AcDbDs::Legacy
280
     1
291
     1
101
ACDSRECORD
  1
AcDbDs::ID
 90
        3
  2
AcDs:Indexable
280
     1
291
     1
101
ACDSRECORD
  1
AcDbDs::ID
 90
        4
  2
AcDbDs::HandleAttribute
280
     7
282
     1
  0
ACDSSCHEMA
 90
        1
  1
AcDbDs::TreatedAsObjectDataSchema
  2
AcDbDs::TreatedAsObjectData
280
     1
 91
        0
  0
ACDSSCHEMA
 90
        2
  1
AcDbDs::LegacySchema
  2
AcDbDs::Legacy
280
     1
 91
        0
  0
ACDSSCHEMA
 90
        3
  1
AcDbDs::IndexedPropertySchema
  2
AcDs:Indexable
280
     1
 91
        0
  0
ACDSSCHEMA
 90
        4
  1
AcDbDs::HandleAttributeSchema
  2
AcDbDs::HandleAttribute
280
     7
 91
        1
284
     1
  0
ACDSRECORD
 90
        0
  2
AcDbDs::ID
280
    10
320
6D6
  2
Thumbnail_Data
280
    15
 94
     1680
310
89504E470D0A1A0A0000000D4948445200000100000000AD0803000000685951D000000300504C5445000000000000FFFFFF0000000000000000000000000000000000000000000000000000330000660000990000CC0000FF0033000033330033660033990033CC0033FF0066000066330066660066990066CC0066FF0099
310
000099330099660099990099CC0099FF00CC0000CC3300CC6600CC9900CCCC00CCFF00FF0000FF3300FF6600FF9900FFCC00FFFF3300003300333300663300993300CC3300FF3333003333333333663333993333CC3333FF3366003366333366663366993366CC3366FF3399003399333399663399993399CC3399FF33CC00
310
33CC3333CC6633CC9933CCCC33CCFF33FF0033FF3333FF6633FF9933FFCC33FFFF6600006600336600666600996600CC6600FF6633006633336633666633996633CC6633FF6666006666336666666666996666CC6666FF6699006699336699666699996699CC6699FF66CC0066CC3366CC6666CC9966CCCC66CCFF66FF0066
310
FF3366FF6666FF9966FFCC66FFFF9900009900339900669900999900CC9900FF9933009933339933669933999933CC9933FF9966009966339966669966999966CC9966FF9999009999339999669999999999CC9999FF99CC0099CC3399CC6699CC9999CCCC99CCFF99FF0099FF3399FF6699FF9999FFCC99FFFFCC0000CC00
310
33CC0066CC0099CC00CCCC00FFCC3300CC3333CC3366CC3399CC33CCCC33FFCC6600CC6633CC6666CC6699CC66CCCC66FFCC9900CC9933CC9966CC9999CC99CCCC99FFCCCC00CCCC33CCCC66CCCC99CCCCCCCCCCFFCCFF00CCFF33CCFF66CCFF99CCFFCCCCFFFFFF0000FF0033FF0066FF0099FF00CCFF00FFFF3300FF3333
310
FF3366FF3399FF33CCFF33FFFF6600FF6633FF6666FF6699FF66CCFF66FFFF9900FF9933FF9966FF9999FF99CCFF99FFFFCC00FFCC33FFCC66FFCC99FFCCCCFFCCFFFFFF00FFFF33FFFF66FFFF99FFFFCCFFFFFF0000000D0D0D1A1A1A2828283535354343435050505D5D5D6B6B6B787878868686939393A1A1A1AEAEAEBB
310
BBBBC9C9C9D6D6D6E4E4E4F1F1F1FFFFFF000000000000000000000000000000000000000000000000000000000000C11FEF660000034B4944415478DAEDDC516283200C80E1DDFF50394CEE90F7B515AD0A18E9685DE8CF9EB65A85CF4003D2FDE897971F0000000000000000000000000000000000000000000000000000
310
0000000000000000000000000000000000000000000000000000000000000000000000000000000000C88A88D81BCAEDB4E9020D6FBA06C0DE53340CC0AD8A6AED953D6E81E902E09D7E7983E95500DEB54B95B373273E7B706BEB0100A02FC0F1F5AD70805B6191A6E65D062000BC0940018801A000BC04609D01EC3F033C
310
2AB749544F65AD6D007A3580B995DBCE744E948606DAE500075578A572AD2779E5129D016A55B42EED3F3ECF6B97E8B81EF02C7F9DA23A045DA6C1AC080100000000000000006F04D8E5F1A30348FBD46630808E4701100C208BF383879D691DA0EFF3BDCB2340562B22E647C08991E073065D01BC7B2A5604281FFE21819E
310
008F5A976FDDF4E75BF05B06507CC7E7FA411F007F0C987834FF34B4992D0B80CF08748A80FB8FA510A8F4699D06C1C20B5AEE309F11E807E074DCF4A2E889FEFF0C835000CE2D4B512DC558B75A2F881501FE83913C173A0E8038006D65D7D30F422010805B5D4B61B0DEFAE66EA81A0EA030320E02606700CCCA23E3F700
310
2800007C0D40567FDBEE11181D40B216CC00F3DAC8D80026596EBC069867C6C302CCB778B7F5FBB94D28A50D63004811605E24CA01E6E59381002407D023005912E1710196FB5C03182802B4D205A68F82C218203A3C40FAE5BEFC9103C8732C1C1A60BF06B87C0CAE52848113A125DD79CEFE352D0BAFDA36FE5C60B5069E
310
00CECF057488C9D00EE0CB678392BF73F808D802580B807D3B40BC5561718E52D9B5C8BC0890D10074972B78111009A0FDB188B95D40E3003CD27E397C34269A3D18346FAF4C28806DE69FB5FFFE6A13800603D0D49C5AFBEF3192E701CEB3A12800277689DDE3A39C08553648C41A03A6C58F83089846F40240798F4CFA6B
310
3000E71F895400B43E04684400AD6F92AB00140D52C21003E0E44ED1B64F810DD07F8F80751438996039020ECF0A405480FDB7035600CB2BA301785F9668FE02453880DE8D0906D0BF00302240CB57A72201BCA7D005C200442D00000000000000000000000000000000000000000000000000000000000000000000000000
310
00000000003078F905E7990E6A1DE933220000000049454E44AE426082
  0
ENDSEC
  0
EOF
