  0
SECTION
  2
HEADER
  9
$ACADVER
  1
AC1027
  9
$ACADMAINTVER
 70
   125
  9
$DWGCODEPAGE
  3
ANSI_1252
  9
$LASTSAVEDBY
  1
fleminab
  9
$REQUIREDVERSIONS
160
                 0
  9
$INSBASE
 10
0.0
 20
0.0
 30
0.0
  9
$EXTMIN
 10
-6138.680460745861
 20
-11353.53744260917
 30
-0.0000000000000053
  9
$EXTMAX
 10
-2423.138931001537
 20
-10184.82906504754
 30
0.0000000000000099
  9
$LIMMIN
 10
0.0
 20
0.0
  9
$LIMMAX
 10
12.0
 20
9.0
  9
$ORTHOMODE
 70
     1
  9
$REGENMODE
 70
     1
  9
$FILLMODE
 70
     1
  9
$QTEXTMODE
 70
     0
  9
$MIRRTEXT
 70
     0
  9
$LTSCALE
 40
1.0
  9
$ATTMODE
 70
     1
  9
$TEXTSIZE
 40
0.2
  9
$TRACEWID
 40
0.05
  9
$TEXTSTYLE
  7
Standard
  9
$CLAYER
  8
0
  9
$CELTYPE
  6
ByLayer
  9
$CECOLOR
 62
   256
  9
$CELTSCALE
 40
1.0
  9
$DISPSILH
 70
     0
  9
$DIMSCALE
 40
15.0
  9
$DIMASZ
 40
2.5
  9
$DIMEXO
 40
0.0625
  9
$DIMDLI
 40
3.754999999999999
  9
$DIMRND
 40
0.0
  9
$DIMDLE
 40
0.0
  9
$DIMEXE
 40
1.25
  9
$DIMTP
 40
0.0
  9
$DIMTM
 40
0.0
  9
$DIMTXT
 40
3.0
  9
$DIMCEN
 40
2.5
  9
$DIMTSZ
 40
0.0
  9
$DIMTOL
 70
     0
  9
$DIMLIM
 70
     0
  9
$DIMTIH
 70
     0
  9
$DIMTOH
 70
     1
  9
$DIMSE1
 70
     0
  9
$DIMSE2
 70
     0
  9
$DIMTAD
 70
     1
  9
$DIMZIN
 70
     8
  9
$DIMBLK
  1

  9
$DIMASO
 70
     1
  9
$DIMSHO
 70
     1
  9
$DIMPOST
  1

  9
$DIMAPOST
  1

  9
$DIMALT
 70
     0
  9
$DIMALTD
 70
     2
  9
$DIMALTF
 40
25.4
  9
$DIMLFAC
 40
1.0
  9
$DIMTOFL
 70
     1
  9
$DIMTVP
 40
0.0
  9
$DIMTIX
 70
     0
  9
$DIMSOXD
 70
     0
  9
$DIMSAH
 70
     0
  9
$DIMBLK1
  1

  9
$DIMBLK2
  1

  9
$DIMSTYLE
  2
Standard
  9
$DIMCLRD
 70
     0
  9
$DIMCLRE
 70
     0
  9
$DIMCLRT
 70
     0
  9
$DIMTFAC
 40
1.0
  9
$DIMGAP
 40
0.625
  9
$DIMJUST
 70
     0
  9
$DIMSD1
 70
     0
  9
$DIMSD2
 70
     0
  9
$DIMTOLJ
 70
     1
  9
$DIMTZIN
 70
     0
  9
$DIMALTZ
 70
     0
  9
$DIMALTTZ
 70
     0
  9
$DIMUPT
 70
     0
  9
$DIMDEC
 70
     0
  9
$DIMTDEC
 70
     0
  9
$DIMALTU
 70
     2
  9
$DIMALTTD
 70
     2
  9
$DIMTXSTY
  7
Standard
  9
$DIMAUNIT
 70
     0
  9
$DIMADEC
 70
     0
  9
$DIMALTRND
 40
0.0
  9
$DIMAZIN
 70
     2
  9
$DIMDSEP
 70
    46
  9
$DIMATFIT
 70
     3
  9
$DIMFRAC
 70
     0
  9
$DIMLDRBLK
  1

  9
$DIMLUNIT
 70
     2
  9
$DIMLWD
 70
    -2
  9
$DIMLWE
 70
    -2
  9
$DIMTMOVE
 70
     0
  9
$DIMFXL
 40
1.0
  9
$DIMFXLON
 70
     0
  9
$DIMJOGANG
 40
0.7853981633974483
  9
$DIMTFILL
 70
     0
  9
$DIMTFILLCLR
 70
     0
  9
$DIMARCSYM
 70
     0
  9
$DIMLTYPE
  6

  9
$DIMLTEX1
  6

  9
$DIMLTEX2
  6

  9
$DIMTXTDIRECTION
 70
     0
  9
$LUNITS
 70
     2
  9
$LUPREC
 70
     4
  9
$SKETCHINC
 40
0.1
  9
$FILLETRAD
 40
60.0
  9
$AUNITS
 70
     0
  9
$AUPREC
 70
     0
  9
$MENU
  1
.
  9
$ELEVATION
 40
0.0
  9
$PELEVATION
 40
0.0
  9
$THICKNESS
 40
0.0
  9
$LIMCHECK
 70
     0
  9
$CHAMFERA
 40
0.0
  9
$CHAMFERB
 40
0.0
  9
$CHAMFERC
 40
0.0
  9
$CHAMFERD
 40
0.0
  9
$SKPOLY
 70
     0
  9
$TDCREATE
 40
2455980.500775463
  9
$TDUCREATE
 40
2455980.042452431
  9
$TDUPDATE
 40
2458051.684120371
  9
$TDUUPDATE
 40
2458051.225787037
  9
$TDINDWG
 40
1.7822846759
  9
$TDUSRTIMER
 40
1.7822846759
  9
$USRTIMER
 70
     1
  9
$ANGBASE
 50
0.0
  9
$ANGDIR
 70
     0
  9
$PDMODE
 70
     0
  9
$PDSIZE
 40
0.0
  9
$PLINEWID
 40
0.0
  9
$SPLFRAME
 70
     0
  9
$SPLINETYPE
 70
     6
  9
$SPLINESEGS
 70
     8
  9
$HANDSEED
  5
7DDC
  9
$SURFTAB1
 70
     6
  9
$SURFTAB2
 70
     6
  9
$SURFTYPE
 70
     6
  9
$SURFU
 70
     6
  9
$SURFV
 70
     6
  9
$UCSBASE
  2

  9
$UCSNAME
  2

  9
$UCSORG
 10
0.0
 20
0.0
 30
0.0
  9
$UCSXDIR
 10
1.0
 20
0.0
 30
0.0
  9
$UCSYDIR
 10
0.0
 20
1.0
 30
0.0
  9
$UCSORTHOREF
  2

  9
$UCSORTHOVIEW
 70
     1
  9
$UCSORGTOP
 10
0.0
 20
0.0
 30
0.0
  9
$UCSORGBOTTOM
 10
0.0
 20
0.0
 30
0.0
  9
$UCSORGLEFT
 10
0.0
 20
0.0
 30
0.0
  9
$UCSORGRIGHT
 10
0.0
 20
0.0
 30
0.0
  9
$UCSORGFRONT
 10
0.0
 20
0.0
 30
0.0
  9
$UCSORGBACK
 10
0.0
 20
0.0
 30
0.0
  9
$PUCSBASE
  2

  9
$PUCSNAME
  2

  9
$PUCSORG
 10
0.0
 20
0.0
 30
0.0
  9
$PUCSXDIR
 10
1.0
 20
0.0
 30
0.0
  9
$PUCSYDIR
 10
0.0
 20
1.0
 30
0.0
  9
$PUCSORTHOREF
  2

  9
$PUCSORTHOVIEW
 70
     0
  9
$PUCSORGTOP
 10
0.0
 20
0.0
 30
0.0
  9
$PUCSORGBOTTOM
 10
0.0
 20
0.0
 30
0.0
  9
$PUCSORGLEFT
 10
0.0
 20
0.0
 30
0.0
  9
$PUCSORGRIGHT
 10
0.0
 20
0.0
 30
0.0
  9
$PUCSORGFRONT
 10
0.0
 20
0.0
 30
0.0
  9
$PUCSORGBACK
 10
0.0
 20
0.0
 30
0.0
  9
$USERI1
 70
     0
  9
$USERI2
 70
     0
  9
$USERI3
 70
     0
  9
$USERI4
 70
     0
  9
$USERI5
 70
     0
  9
$USERR1
 40
0.0
  9
$USERR2
 40
0.0
  9
$USERR3
 40
0.0
  9
$USERR4
 40
0.0
  9
$USERR5
 40
0.0
  9
$WORLDVIEW
 70
     1
  9
$SHADEDGE
 70
     3
  9
$SHADEDIF
 70
    70
  9
$TILEMODE
 70
     1
  9
$MAXACTVP
 70
    64
  9
$PINSBASE
 10
0.0
 20
0.0
 30
0.0
  9
$PLIMCHECK
 70
     0
  9
$PEXTMIN
 10
0.0
 20
0.0
 30
0.0
  9
$PEXTMAX
 10
0.0
 20
0.0
 30
0.0
  9
$PLIMMIN
 10
0.0
 20
0.0
  9
$PLIMMAX
 10
12.0
 20
9.0
  9
$UNITMODE
 70
     0
  9
$VISRETAIN
 70
     1
  9
$PLINEGEN
 70
     0
  9
$PSLTSCALE
 70
     1
  9
$TREEDEPTH
 70
  3020
  9
$CMLSTYLE
  2
Standard
  9
$CMLJUST
 70
     0
  9
$CMLSCALE
 40
1.0
  9
$PROXYGRAPHICS
 70
     1
  9
$MEASUREMENT
 70
     0
  9
$CELWEIGHT
370
    -1
  9
$ENDCAPS
280
     0
  9
$JOINSTYLE
280
     0
  9
$LWDISPLAY
290
     1
  9
$INSUNITS
 70
     1
  9
$HYPERLINKBASE
  1

  9
$STYLESHEET
  1
acad.ctb
  9
$XEDIT
290
     1
  9
$CEPSNTYPE
380
     0
  9
$PSTYLEMODE
290
     1
  9
$FINGERPRINTGUID
  2
{E6A272C6-05BE-46A2-A4C2-A07F99362563}
  9
$VERSIONGUID
  2
{FAEF780E-3D3F-5040-9B86-B7E7F4B5E0F7}
  9
$EXTNAMES
290
     1
  9
$PSVPSCALE
 40
0.0
  9
$OLESTARTUP
290
     0
  9
$SORTENTS
280
   127
  9
$INDEXCTL
280
     0
  9
$HIDETEXT
280
     1
  9
$XCLIPFRAME
280
     0
  9
$HALOGAP
280
     0
  9
$OBSCOLOR
 70
   257
  9
$OBSLTYPE
280
     0
  9
$INTERSECTIONDISPLAY
280
     0
  9
$INTERSECTIONCOLOR
 70
   257
  9
$DIMASSOC
280
     2
  9
$PROJECTNAME
  1

  9
$CAMERADISPLAY
290
     0
  9
$LENSLENGTH
 40
50.0
  9
$CAMERAHEIGHT
 40
0.0
  9
$STEPSPERSEC
 40
2.0
  9
$STEPSIZE
 40
6.0
  9
$3DDWFPREC
 40
2.0
  9
$PSOLWIDTH
 40
0.25
  9
$PSOLHEIGHT
 40
4.0
  9
$LOFTANG1
 40
1.570796326794896
  9
$LOFTANG2
 40
1.570796326794896
  9
$LOFTMAG1
 40
0.0
  9
$LOFTMAG2
 40
0.0
  9
$LOFTPARAM
 70
     7
  9
$LOFTNORMALS
280
     1
  9
$LATITUDE
 40
37.795
  9
$LONGITUDE
 40
-122.394
  9
$NORTHDIRECTION
 40
0.0
  9
$TIMEZONE
 70
 -8000
  9
$LIGHTGLYPHDISPLAY
280
     1
  9
$TILEMODELIGHTSYNCH
280
     1
  9
$CMATERIAL
347
94
  9
$SOLIDHIST
280
     1
  9
$SHOWHIST
280
     1
  9
$DWFFRAME
280
     2
  9
$DGNFRAME
280
     0
  9
$REALWORLDSCALE
290
     1
  9
$INTERFERECOLOR
 62
     1
  9
$INTERFEREOBJVS
345
A1
  9
$INTERFEREVPVS
346
9E
  9
$CSHADOW
280
     0
  9
$SHADOWPLANELOCATION
 40
0.0
  0
ENDSEC
  0
SECTION
  2
CLASSES
  0
CLASS
  1
ACDBDICTIONARYWDFLT
  2
AcDbDictionaryWithDefault
  3
ObjectDBX Classes
 90
        0
 91
        1
280
     0
281
     0
  0
CLASS
  1
DICTIONARYVAR
  2
AcDbDictionaryVar
  3
ObjectDBX Classes
 90
        0
 91
       19
280
     0
281
     0
  0
CLASS
  1
TABLESTYLE
  2
AcDbTableStyle
  3
ObjectDBX Classes
 90
     4095
 91
        1
280
     0
281
     0
  0
CLASS
  1
MATERIAL
  2
AcDbMaterial
  3
ObjectDBX Classes
 90
     1153
 91
        3
280
     0
281
     0
  0
CLASS
  1
VISUALSTYLE
  2
AcDbVisualStyle
  3
ObjectDBX Classes
 90
     4095
 91
       26
280
     0
281
     0
  0
CLASS
  1
DIMASSOC
  2
AcDbDimAssoc
  3
"AcDbDimAssoc|Product Desc:     AcDim ARX App For Dimension|Company:          Autodesk, Inc.|WEB Address:      www.autodesk.com"
 90
        0
 91
       13
280
     0
281
     0
  0
CLASS
  1
SORTENTSTABLE
  2
AcDbSortentsTable
  3
ObjectDBX Classes
 90
        0
 91
        1
280
     0
281
     0
  0
CLASS
  1
EXACXREFPANELOBJECT
  2
ExAcXREFPanelObject
  3
EXAC_ESW
 90
     1025
 91
        0
280
     0
281
     0
  0
CLASS
  1
NPOCOLLECTION
  2
AcDbImpNonPersistentObjectsCollection
  3
ObjectDBX Classes
 90
     1153
 91
        0
280
     0
281
     0
  0
CLASS
  1
SCALE
  2
AcDbScale
  3
ObjectDBX Classes
 90
     1153
 91
       17
280
     0
281
     0
  0
CLASS
  1
MLEADERSTYLE
  2
AcDbMLeaderStyle
  3
ACDB_MLEADERSTYLE_CLASS
 90
     4095
 91
        1
280
     0
281
     0
  0
CLASS
  1
ACDBSECTIONVIEWSTYLE
  2
AcDbSectionViewStyle
  3
ObjectDBX Classes
 90
     1025
 91
        1
280
     0
281
     0
  0
CLASS
  1
ACDBDETAILVIEWSTYLE
  2
AcDbDetailViewStyle
  3
ObjectDBX Classes
 90
     1025
 91
        1
280
     0
281
     0
  0
CLASS
  1
CELLSTYLEMAP
  2
AcDbCellStyleMap
  3
ObjectDBX Classes
 90
     1152
 91
        1
280
     0
281
     0
  0
ENDSEC
  0
SECTION
  2
TABLES
  0
TABLE
  2
VPORT
  5
8
102
{ACAD_XDICTIONARY
360
937
102
}
330
0
100
AcDbSymbolTable
 70
     1
1001
ACAD
1000
DbSaveVer
1071
        5
  0
VPORT
  5
92
330
8
100
AcDbSymbolTableRecord
100
AcDbViewportTableRecord
  2
*Active
 70
     0
 10
0.0
 20
0.0
 11
1.0
 21
1.0
 12
-4280.909695873699
 22
-10769.18325382836
 13
0.0
 23
0.0
 14
0.5
 24
0.5
 15
0.5
 25
0.5
 16
0.0
 26
0.0
 36
1.0
 17
0.0
 27
0.0
 37
0.0
 40
1625.648871699897
 41
2.292712066905615
 42
50.0
 43
0.0
 44
0.0
 50
0.0
 51
0.0
 71
     0
 72
  1000
 73
     1
 74
     3
 75
     0
 76
     0
 77
     0
 78
     0
281
     0
 65
     1
110
0.0
120
0.0
130
0.0
111
1.0
121
0.0
131
0.0
112
0.0
122
1.0
132
0.0
 79
     0
146
0.0
348
9D
 60
     2
 61
     5
292
     1
282
     1
141
0.0
142
0.0
 63
   250
421
  3355443
1001
ACAD_NAV_VCDISPLAY
1070
     3
  0
ENDTAB
  0
TABLE
  2
LTYPE
  5
5
330
0
100
AcDbSymbolTable
 70
     5
  0
LTYPE
  5
14
330
5
100
AcDbSymbolTableRecord
100
AcDbLinetypeTableRecord
  2
ByBlock
 70
     0
  3

 72
    65
 73
     0
 40
0.0
  0
LTYPE
  5
15
330
5
100
AcDbSymbolTableRecord
100
AcDbLinetypeTableRecord
  2
ByLayer
 70
     0
  3

 72
    65
 73
     0
 40
0.0
  0
LTYPE
  5
16
330
5
100
AcDbSymbolTableRecord
100
AcDbLinetypeTableRecord
  2
Continuous
 70
     0
  3
Solid line
 72
    65
 73
     0
 40
0.0
  0
LTYPE
  5
268
330
5
100
AcDbSymbolTableRecord
100
AcDbLinetypeTableRecord
  2
ACAD_ISO03W100
 70
     0
  3
ISO dash space __    __    __    __    __    __
 72
    65
 73
     2
 40
30.0
 49
12.0
 74
     0
 49
-18.0
 74
     0
  0
LTYPE
  5
269
330
5
100
AcDbSymbolTableRecord
100
AcDbLinetypeTableRecord
  2
CENTER
 70
     0
  3
Center ____ _ ____ _ ____ _ ____ _ ____ _ ____
 72
    65
 73
     4
 40
50.8
 49
31.75
 74
     0
 49
-6.349999999999999
 74
     0
 49
6.349999999999999
 74
     0
 49
-6.349999999999999
 74
     0
  0
LTYPE
  5
10CC
330
5
100
AcDbSymbolTableRecord
100
AcDbLinetypeTableRecord
  2
HIDDEN
 70
     0
  3
- - - - - - - - - - - - - - - - - - - -
 72
    65
 73
     2
 40
0.2
 49
0.1
 74
     0
 49
-0.1
 74
     0
  0
LTYPE
  5
3539
330
5
100
AcDbSymbolTableRecord
100
AcDbLinetypeTableRecord
  2
DOT
 70
     0
  3
Dot . . . . . . . . . . . . . . . . . . . . . .
 72
    65
 73
     2
 40
0.25
 49
0.0
 74
     0
 49
-0.25
 74
     0
  0
ENDTAB
  0
TABLE
  2
LAYER
  5
2
102
{ACAD_XDICTIONARY
360
CB
102
}
330
0
100
AcDbSymbolTable
 70
    12
  0
LAYER
  5
10
102
{ACAD_XDICTIONARY
360
7DA9
102
}
330
2
100
AcDbSymbolTableRecord
100
AcDbLayerTableRecord
  2
0
 70
     0
 62
     7
  6
Continuous
370
    -3
390
F
347
96
348
0
  0
LAYER
  5
C5
102
{ACAD_XDICTIONARY
360
7DAB
102
}
330
2
100
AcDbSymbolTableRecord
100
AcDbLayerTableRecord
  2
标注
 70
     0
 62
    82
  6
Continuous
370
    -3
390
F
347
96
348
0
1001
AcadStringInfo
1000
MIFCodePage
1070
     5
  0
LAYER
  5
C6
102
{ACAD_XDICTIONARY
360
7DAD
102
}
330
2
100
AcDbSymbolTableRecord
100
AcDbLayerTableRecord
  2
粗实线
 70
     0
 62
     7
  6
Continuous
370
    30
390
F
347
96
348
0
1001
AcadStringInfo
1000
MIFCodePage
1070
     5
  0
LAYER
  5
C7
102
{ACAD_XDICTIONARY
360
7DAF
102
}
330
2
100
AcDbSymbolTableRecord
100
AcDbLayerTableRecord
  2
细实
 70
     0
 62
   131
  6
Continuous
370
    15
390
F
347
96
348
0
1001
AcadStringInfo
1000
MIFCodePage
1070
     5
  0
LAYER
  5
C8
102
{ACAD_XDICTIONARY
360
7DB1
102
}
330
2
100
AcDbSymbolTableRecord
100
AcDbLayerTableRecord
  2
粗实
 70
     0
 62
     7
  6
Continuous
370
    40
390
F
347
96
348
0
1001
AcadStringInfo
1000
MIFCodePage
1070
     5
  0
LAYER
  5
26A
102
{ACAD_XDICTIONARY
360
7DB3
102
}
330
2
100
AcDbSymbolTableRecord
100
AcDbLayerTableRecord
  2
细实线
 70
     0
 62
     7
  6
Continuous
370
    25
390
F
347
96
348
0
1001
AcAecLayerStandard
1000

1000

1001
AcadStringInfo
1000
MIFCodePage
1070
     5
  0
LAYER
  5
26B
102
{ACAD_XDICTIONARY
360
7DB5
102
}
330
2
100
AcDbSymbolTableRecord
100
AcDbLayerTableRecord
  2
标注线
 70
     0
 62
     6
  6
Continuous
370
    18
390
F
347
96
348
0
1001
AcAecLayerStandard
1000

1000

1001
AcadStringInfo
1000
MIFCodePage
1070
     5
  0
LAYER
  5
26C
102
{ACAD_XDICTIONARY
360
7DB7
102
}
330
2
100
AcDbSymbolTableRecord
100
AcDbLayerTableRecord
  2
虚线
 70
     0
 62
     2
  6
ACAD_ISO03W100
370
    18
390
F
347
96
348
0
1001
AcAecLayerStandard
1000

1000

1001
AcadStringInfo
1000
MIFCodePage
1070
     5
  0
LAYER
  5
26D
102
{ACAD_XDICTIONARY
360
7DB9
102
}
330
2
100
AcDbSymbolTableRecord
100
AcDbLayerTableRecord
  2
中心线
 70
     0
 62
     1
  6
CENTER
370
    18
390
F
347
96
348
0
1001
AcAecLayerStandard
1000

1000

1001
AcadStringInfo
1000
MIFCodePage
1070
     5
  0
LAYER
  5
26E
330
2
100
AcDbSymbolTableRecord
100
AcDbLayerTableRecord
  2
Defpoints
 70
     0
 62
     7
  6
Continuous
290
     0
370
    -3
390
F
347
96
348
0
  0
LAYER
  5
52B
102
{ACAD_XDICTIONARY
360
7DBB
102
}
330
2
100
AcDbSymbolTableRecord
100
AcDbLayerTableRecord
  2
06___PRT_ALL_SURFS
 70
     0
 62
     7
  6
Continuous
370
    -3
390
F
347
96
348
0
  0
LAYER
  5
3C36
102
{ACAD_XDICTIONARY
360
7DBD
102
}
330
2
100
AcDbSymbolTableRecord
100
AcDbLayerTableRecord
  2
AM_0
 70
     0
 62
     7
  6
Continuous
370
    35
390
F
347
96
348
0
1001
AcAecLayerStandard
1000

1000

  0
ENDTAB
  0
TABLE
  2
STYLE
  5
3
330
0
100
AcDbSymbolTable
 70
     2
  0
STYLE
  5
11
330
3
100
AcDbSymbolTableRecord
100
AcDbTextStyleTableRecord
  2
Standard
 70
     0
 40
0.0
 41
1.0
 50
0.0
 71
     0
 42
0.2
  3
txt
  4
gbcbig.shx
  0
STYLE
  5
C9
330
3
100
AcDbSymbolTableRecord
100
AcDbTextStyleTableRecord
  2
hz
 70
     0
 40
0.0
 41
0.667
 50
1.0
 71
     0
 42
3.0
  3
romans.shx
  4

  0
ENDTAB
  0
TABLE
  2
VIEW
  5
6
330
0
100
AcDbSymbolTable
 70
     0
  0
ENDTAB
  0
TABLE
  2
UCS
  5
7
330
0
100
AcDbSymbolTable
 70
     0
  0
ENDTAB
  0
TABLE
  2
APPID
  5
9
330
0
100
AcDbSymbolTable
 70
     6
  0
APPID
  5
12
330
9
100
AcDbSymbolTableRecord
100
AcDbRegAppTableRecord
  2
ACAD
 70
     0
  0
APPID
  5
CA
330
9
100
AcDbSymbolTableRecord
100
AcDbRegAppTableRecord
  2
ACAD_PSEXT
 70
     0
  0
APPID
  5
270
330
9
100
AcDbSymbolTableRecord
100
AcDbRegAppTableRecord
  2
AcAecLayerStandard
 70
     0
  0
APPID
  5
9E6
330
9
100
AcDbSymbolTableRecord
100
AcDbRegAppTableRecord
  2
ACAD_EXEMPT_FROM_CAD_STANDARDS
 70
     0
  0
APPID
  5
7DA1
330
9
100
AcDbSymbolTableRecord
100
AcDbRegAppTableRecord
  2
AcadStringInfo
 70
     0
  0
APPID
  5
7DBF
330
9
100
AcDbSymbolTableRecord
100
AcDbRegAppTableRecord
  2
ACAD_NAV_VCDISPLAY
 70
     0
  0
ENDTAB
  0
TABLE
  2
DIMSTYLE
  5
A
330
0
100
AcDbSymbolTable
 70
     2
100
AcDbDimStyleTable
 71
     2
340
27
340
26F
  0
DIMSTYLE
105
27
102
{ACAD_REACTORS
330
7758
330
775B
330
7760
330
7765
330
7768
330
7771
330
7774
330
7786
330
7789
330
778C
330
7792
330
7796
330
776E
330
7D3F
102
}
330
A
100
AcDbSymbolTableRecord
100
AcDbDimStyleTableRecord
  2
Standard
 70
     0
 40
15.0
 41
2.5
 43
3.754999999999999
 44
1.25
 73
     0
 74
     0
 77
     1
 78
     8
 79
     2
140
3.0
141
2.5
147
0.625
172
     1
271
     0
272
     0
340
11
  0
DIMSTYLE
105
26F
330
A
100
AcDbSymbolTableRecord
100
AcDbDimStyleTableRecord
  2
ISO-25
 70
     0
 41
52.0
 42
0.0
 43
3.75
 44
35.0
 73
     0
 74
     0
 77
     1
 78
     8
140
60.0
141
40.0
143
0.03937007874016
147
15.0
171
     3
172
     1
271
     0
272
     0
274
     3
278
    44
283
     0
284
     8
340
11
  0
ENDTAB
  0
TABLE
  2
BLOCK_RECORD
  5
1
330
0
100
AcDbSymbolTable
 70
   143
  0
BLOCK_RECORD
  5
1F
102
{ACAD_XDICTIONARY
360
FB6
102
}
330
1
100
AcDbSymbolTableRecord
100
AcDbBlockTableRecord
  2
*Model_Space
340
22
 70
     0
280
     1
281
     0
  0
BLOCK_RECORD
  5
58
330
1
100
AcDbSymbolTableRecord
100
AcDbBlockTableRecord
  2
*Paper_Space
340
59
 70
     0
280
     1
281
     0
  0
BLOCK_RECORD
  5
5D
330
1
100
AcDbSymbolTableRecord
100
AcDbBlockTableRecord
  2
*Paper_Space0
340
5E
 70
     0
280
     1
281
     0
  0
BLOCK_RECORD
  5
78BF
330
1
100
AcDbSymbolTableRecord
100
AcDbBlockTableRecord
  2
*D118
340
0
 70
     0
280
     1
281
     0
  0
BLOCK_RECORD
  5
78CB
330
1
100
AcDbSymbolTableRecord
100
AcDbBlockTableRecord
  2
*D119
340
0
 70
     0
280
     1
281
     0
  0
BLOCK_RECORD
  5
78D7
330
1
100
AcDbSymbolTableRecord
100
AcDbBlockTableRecord
  2
*D120
340
0
 70
     0
280
     1
281
     0
  0
BLOCK_RECORD
  5
78E3
330
1
100
AcDbSymbolTableRecord
100
AcDbBlockTableRecord
  2
*D121
340
0
 70
     0
280
     1
281
     0
  0
BLOCK_RECORD
  5
78EF
330
1
100
AcDbSymbolTableRecord
100
AcDbBlockTableRecord
  2
*D122
340
0
 70
     0
280
     1
281
     0
  0
BLOCK_RECORD
  5
7907
330
1
100
AcDbSymbolTableRecord
100
AcDbBlockTableRecord
  2
*D123
340
0
 70
     0
280
     1
281
     0
  0
BLOCK_RECORD
  5
7913
330
1
100
AcDbSymbolTableRecord
100
AcDbBlockTableRecord
  2
*D124
340
0
 70
     0
280
     1
281
     0
  0
BLOCK_RECORD
  5
791F
330
1
100
AcDbSymbolTableRecord
100
AcDbBlockTableRecord
  2
*D125
340
0
 70
     0
280
     1
281
     0
  0
BLOCK_RECORD
  5
795F
330
1
100
AcDbSymbolTableRecord
100
AcDbBlockTableRecord
  2
*D126
340
0
 70
     0
280
     1
281
     0
  0
BLOCK_RECORD
  5
796D
330
1
100
AcDbSymbolTableRecord
100
AcDbBlockTableRecord
  2
*D127
340
0
 70
     0
280
     1
281
     0
  0
BLOCK_RECORD
  5
797B
330
1
100
AcDbSymbolTableRecord
100
AcDbBlockTableRecord
  2
*D128
340
0
 70
     0
280
     1
281
     0
  0
BLOCK_RECORD
  5
7999
330
1
100
AcDbSymbolTableRecord
100
AcDbBlockTableRecord
  2
*D129
340
0
 70
     0
280
     1
281
     0
  0
BLOCK_RECORD
  5
79A7
330
1
100
AcDbSymbolTableRecord
100
AcDbBlockTableRecord
  2
*D130
340
0
 70
     0
280
     1
281
     0
  0
BLOCK_RECORD
  5
7D40
330
1
100
AcDbSymbolTableRecord
100
AcDbBlockTableRecord
  2
*D141
340
0
 70
     0
280
     1
281
     0
  0
ENDTAB
  0
ENDSEC
  0
SECTION
  2
BLOCKS
  0
BLOCK
  5
20
330
1F
100
AcDbEntity
  8
0
100
AcDbBlockBegin
  2
*Model_Space
 70
     0
 10
0.0
 20
0.0
 30
0.0
  3
*Model_Space
  1

  0
ENDBLK
  5
21
330
1F
100
AcDbEntity
  8
0
100
AcDbBlockEnd
  0
BLOCK
  5
5A
330
58
100
AcDbEntity
 67
     1
  8
0
100
AcDbBlockBegin
  2
*Paper_Space
 70
     0
 10
0.0
 20
0.0
 30
0.0
  3
*Paper_Space
  1

  0
ENDBLK
  5
5B
330
58
100
AcDbEntity
 67
     1
  8
0
100
AcDbBlockEnd
  0
BLOCK
  5
5F
330
5D
100
AcDbEntity
 67
     1
  8
0
100
AcDbBlockBegin
  2
*Paper_Space0
 70
     0
 10
0.0
 20
0.0
 30
0.0
  3
*Paper_Space0
  1

  0
ENDBLK
  5
60
330
5D
100
AcDbEntity
 67
     1
  8
0
100
AcDbBlockEnd
  0
BLOCK
  5
78C9
330
78BF
100
AcDbEntity
  8
0
100
AcDbBlockBegin
  2
*D118
 70
     1
 10
0.0
 20
0.0
 30
0.0
  3
*D118
  1

  0
LINE
  5
7BAC
330
78BF
100
AcDbEntity
  8
0
 62
     0
440
 16777216
370
    -2
100
AcDbLine
 10
-5886.657399220493
 20
-10811.30227286538
 30
0.0
 11
-5886.657399220493
 21
-10245.68848376225
 31
0.0
  0
LINE
  5
7BAD
330
78BF
100
AcDbEntity
  8
0
 62
     0
440
 16777216
370
    -2
100
AcDbLine
 10
-4466.657399221833
 20
-10811.30227286538
 30
0.0
 11
-4466.657399221833
 21
-10245.68848376225
 31
0.0
  0
LINE
  5
7BAE
330
78BF
100
AcDbEntity
  8
0
 62
     0
440
 16777216
370
    -2
100
AcDbLine
 10
-5849.157399220493
 20
-10264.43848376225
 30
0.0
 11
-4504.157399221832
 21
-10264.43848376225
 31
0.0
  0
SOLID
  5
7BAF
330
78BF
100
AcDbEntity
  8
0
 62
     0
440
 16777216
100
AcDbTrace
 10
-5849.157399220493
 20
-10258.18848376225
 30
0.0
 11
-5849.157399220493
 21
-10270.68848376226
 31
0.0
 12
-5886.657399220493
 22
-10264.43848376225
 32
0.0
 13
-5886.657399220493
 23
-10264.43848376225
 33
0.0
  0
SOLID
  5
7BB0
330
78BF
100
AcDbEntity
  8
0
 62
     0
440
 16777216
100
AcDbTrace
 10
-4504.157399221832
 20
-10258.18848376225
 30
0.0
 11
-4504.157399221832
 21
-10270.68848376226
 31
0.0
 12
-4466.657399221833
 22
-10264.43848376225
 32
0.0
 13
-4466.657399221833
 23
-10264.43848376225
 33
0.0
  0
MTEXT
  5
7BB1
330
78BF
100
AcDbEntity
  8
0
 62
     0
440
 16777216
100
AcDbMText
 10
-5176.657399221163
 20
-10232.56348376226
 30
0.0
 40
45.0
 41
0.0
 46
0.0
 71
     5
 72
     1
  1
\A1;1420
 73
     1
 44
1.0
  0
POINT
  5
7BB2
330
78BF
100
AcDbEntity
  8
Defpoints
 62
     0
440
 16777216
100
AcDbPoint
 10
-5886.657399220493
 20
-10812.23977286538
 30
0.0
  0
POINT
  5
7BB3
330
78BF
100
AcDbEntity
  8
Defpoints
 62
     0
440
 16777216
100
AcDbPoint
 10
-4466.657399221833
 20
-10812.23977286538
 30
0.0
  0
POINT
  5
7BB4
330
78BF
100
AcDbEntity
  8
Defpoints
 62
     0
440
 16777216
100
AcDbPoint
 10
-4466.657399221833
 20
-10264.43848376225
 30
0.0
  0
ENDBLK
  5
78CA
330
78BF
100
AcDbEntity
  8
0
100
AcDbBlockEnd
  0
BLOCK
  5
78D5
330
78CB
100
AcDbEntity
  8
0
100
AcDbBlockBegin
  2
*D119
 70
     1
 10
0.0
 20
0.0
 30
0.0
  3
*D119
  1

  0
LINE
  5
7BB5
330
78CB
100
AcDbEntity
  8
0
 62
     0
440
 16777216
370
    -2
100
AcDbLine
 10
-5237.594899221163
 20
-10409.73977286543
 30
0.0
 11
-6102.617321994699
 21
-10409.73977286543
 31
0.0
  0
LINE
  5
7BB6
330
78CB
100
AcDbEntity
  8
0
 62
     0
440
 16777216
370
    -2
100
AcDbLine
 10
-5237.594899221163
 20
-11209.73977286534
 30
0.0
 11
-6102.617321994699
 21
-11209.73977286534
 31
0.0
  0
LINE
  5
7BB7
330
78CB
100
AcDbEntity
  8
0
 62
     0
440
 16777216
370
    -2
100
AcDbLine
 10
-6083.867321994699
 20
-10447.23977286543
 30
0.0
 11
-6083.867321994699
 21
-11172.23977286533
 31
0.0
  0
SOLID
  5
7BB8
330
78CB
100
AcDbEntity
  8
0
 62
     0
440
 16777216
100
AcDbTrace
 10
-6090.1173219947
 20
-10447.23977286543
 30
0.0
 11
-6077.6173219947
 21
-10447.23977286543
 31
0.0
 12
-6083.867321994699
 22
-10409.73977286543
 32
0.0
 13
-6083.867321994699
 23
-10409.73977286543
 33
0.0
  0
SOLID
  5
7BB9
330
78CB
100
AcDbEntity
  8
0
 62
     0
440
 16777216
100
AcDbTrace
 10
-6090.1173219947
 20
-11172.23977286533
 30
0.0
 11
-6077.6173219947
 21
-11172.23977286533
 31
0.0
 12
-6083.867321994699
 22
-11209.73977286534
 32
0.0
 13
-6083.867321994699
 23
-11209.73977286534
 33
0.0
  0
MTEXT
  5
7BBA
330
78CB
100
AcDbEntity
  8
0
 62
     0
440
 16777216
100
AcDbMText
 10
-6115.742321994698
 20
-10809.73977286538
 30
0.0
 40
45.0
 41
0.0
 46
0.0
 71
     5
 72
     1
  1
\A1;800
 11
0.0000000000000001
 21
1.0
 31
0.0
 73
     1
 44
1.0
  0
POINT
  5
7BBB
330
78CB
100
AcDbEntity
  8
Defpoints
 62
     0
440
 16777216
100
AcDbPoint
 10
-5236.657399221163
 20
-10409.73977286543
 30
0.0
  0
POINT
  5
7BBC
330
78CB
100
AcDbEntity
  8
Defpoints
 62
     0
440
 16777216
100
AcDbPoint
 10
-5236.657399221163
 20
-11209.73977286534
 30
0.0
  0
POINT
  5
7BBD
330
78CB
100
AcDbEntity
  8
Defpoints
 62
     0
440
 16777216
100
AcDbPoint
 10
-6083.867321994699
 20
-11209.73977286534
 30
0.0
  0
ENDBLK
  5
78D6
330
78CB
100
AcDbEntity
  8
0
100
AcDbBlockEnd
  0
BLOCK
  5
78E1
330
78D7
100
AcDbEntity
  8
0
100
AcDbBlockBegin
  2
*D120
 70
     1
 10
0.0
 20
0.0
 30
0.0
  3
*D120
  1

  0
LINE
  5
7BBE
330
78D7
100
AcDbEntity
  8
0
 62
     0
440
 16777216
370
    -2
100
AcDbLine
 10
-4716.393115687761
 20
-10812.23977286538
 30
0.0
 11
-4716.393115687761
 21
-10706.17072557354
 31
0.0
  0
LINE
  5
7BBF
330
78D7
100
AcDbEntity
  8
0
 62
     0
440
 16777216
370
    -2
100
AcDbLine
 10
-4466.657399221833
 20
-10812.23977286538
 30
0.0
 11
-4466.657399221833
 21
-10706.17072557354
 31
0.0
  0
LINE
  5
7BC0
330
78D7
100
AcDbEntity
  8
0
 62
     0
440
 16777216
370
    -2
100
AcDbLine
 10
-4678.893115687762
 20
-10724.92072557354
 30
0.0
 11
-4504.157399221832
 21
-10724.92072557354
 31
0.0
  0
SOLID
  5
7BC1
330
78D7
100
AcDbEntity
  8
0
 62
     0
440
 16777216
100
AcDbTrace
 10
-4678.893115687762
 20
-10718.67072557354
 30
0.0
 11
-4678.893115687762
 21
-10731.17072557354
 31
0.0
 12
-4716.393115687761
 22
-10724.92072557354
 32
0.0
 13
-4716.393115687761
 23
-10724.92072557354
 33
0.0
  0
SOLID
  5
7BC2
330
78D7
100
AcDbEntity
  8
0
 62
     0
440
 16777216
100
AcDbTrace
 10
-4504.157399221832
 20
-10718.67072557354
 30
0.0
 11
-4504.157399221832
 21
-10731.17072557354
 31
0.0
 12
-4466.657399221833
 22
-10724.92072557354
 32
0.0
 13
-4466.657399221833
 23
-10724.92072557354
 33
0.0
  0
MTEXT
  5
7BC3
330
78D7
100
AcDbEntity
  8
0
 62
     0
440
 16777216
100
AcDbMText
 10
-4591.525257454797
 20
-10693.04572557354
 30
0.0
 40
45.0
 41
0.0
 46
0.0
 71
     5
 72
     1
  1
\A1;250
 73
     1
 44
1.0
  0
POINT
  5
7BC4
330
78D7
100
AcDbEntity
  8
Defpoints
 62
     0
440
 16777216
100
AcDbPoint
 10
-4716.393115687761
 20
-10813.17727286538
 30
0.0
  0
POINT
  5
7BC5
330
78D7
100
AcDbEntity
  8
Defpoints
 62
     0
440
 16777216
100
AcDbPoint
 10
-4466.657399221833
 20
-10813.17727286538
 30
0.0
  0
POINT
  5
7BC6
330
78D7
100
AcDbEntity
  8
Defpoints
 62
     0
440
 16777216
100
AcDbPoint
 10
-4466.657399221833
 20
-10724.92072557354
 30
0.0
  0
ENDBLK
  5
78E2
330
78D7
100
AcDbEntity
  8
0
100
AcDbBlockEnd
  0
BLOCK
  5
78ED
330
78E3
100
AcDbEntity
  8
0
100
AcDbBlockBegin
  2
*D121
 70
     1
 10
0.0
 20
0.0
 30
0.0
  3
*D121
  1

  0
LINE
  5
7BC7
330
78E3
100
AcDbEntity
  8
0
 62
     0
440
 16777216
370
    -2
100
AcDbLine
 10
-2688.076697507126
 20
-11095.80929852391
 30
0.0
 11
-2423.622695529541
 21
-11095.80929852391
 31
0.0
  0
LINE
  5
7BC8
330
78E3
100
AcDbEntity
  8
0
 62
     0
440
 16777216
370
    -2
100
AcDbLine
 10
-2688.076697507126
 20
-10595.62925213502
 30
0.0
 11
-2423.622695529541
 21
-10595.62925213502
 31
0.0
  0
LINE
  5
7BC9
330
78E3
100
AcDbEntity
  8
0
 62
     0
440
 16777216
370
    -2
100
AcDbLine
 10
-2442.372695529541
 20
-11058.3092985239
 30
0.0
 11
-2442.372695529541
 21
-10633.12925213502
 31
0.0
  0
SOLID
  5
7BCA
330
78E3
100
AcDbEntity
  8
0
 62
     0
440
 16777216
100
AcDbTrace
 10
-2448.622695529541
 20
-11058.3092985239
 30
0.0
 11
-2436.122695529541
 21
-11058.3092985239
 31
0.0
 12
-2442.372695529541
 22
-11095.80929852391
 32
0.0
 13
-2442.372695529541
 23
-11095.80929852391
 33
0.0
  0
SOLID
  5
7BCB
330
78E3
100
AcDbEntity
  8
0
 62
     0
440
 16777216
100
AcDbTrace
 10
-2448.622695529541
 20
-10633.12925213502
 30
0.0
 11
-2436.122695529541
 21
-10633.12925213502
 31
0.0
 12
-2442.372695529541
 22
-10595.62925213502
 32
0.0
 13
-2442.372695529541
 23
-10595.62925213502
 33
0.0
  0
MTEXT
  5
7BCC
330
78E3
100
AcDbEntity
  8
0
 62
     0
440
 16777216
100
AcDbMText
 10
-2474.247695529539
 20
-10845.71927532946
 30
0.0
 40
45.0
 41
0.0
 46
0.0
 71
     5
 72
     1
  1
\A1;500
 11
0.0000000000000001
 21
1.0
 31
0.0
 73
     1
 44
1.0
  0
POINT
  5
7BCD
330
78E3
100
AcDbEntity
  8
Defpoints
 62
     0
440
 16777216
100
AcDbPoint
 10
-2689.014197507127
 20
-11095.80929852391
 30
0.0
  0
POINT
  5
7BCE
330
78E3
100
AcDbEntity
  8
Defpoints
 62
     0
440
 16777216
100
AcDbPoint
 10
-2689.014197507127
 20
-10595.62925213502
 30
0.0
  0
POINT
  5
7BCF
330
78E3
100
AcDbEntity
  8
Defpoints
 62
     0
440
 16777216
100
AcDbPoint
 10
-2442.372695529541
 20
-10595.62925213502
 30
0.0
  0
ENDBLK
  5
78EE
330
78E3
100
AcDbEntity
  8
0
100
AcDbBlockEnd
  0
BLOCK
  5
78F9
330
78EF
100
AcDbEntity
  8
0
100
AcDbBlockBegin
  2
*D122
 70
     1
 10
0.0
 20
0.0
 30
0.0
  3
*D122
  1

  0
LINE
  5
7BD0
330
78EF
100
AcDbEntity
  8
0
 62
     0
440
 16777216
370
    -2
100
AcDbLine
 10
-3863.644751427517
 20
-10619.69175213502
 30
0.0
 11
-3863.644751427517
 21
-10456.87123464681
 31
0.0
  0
LINE
  5
7BD1
330
78EF
100
AcDbEntity
  8
0
 62
     0
440
 16777216
370
    -2
100
AcDbLine
 10
-2443.644751428847
 20
-10620.62925213502
 30
0.0
 11
-2443.644751428847
 21
-10456.87123464681
 31
0.0
  0
LINE
  5
7BD2
330
78EF
100
AcDbEntity
  8
0
 62
     0
440
 16777216
370
    -2
100
AcDbLine
 10
-3826.144751427517
 20
-10475.62123464681
 30
0.0
 11
-2481.144751428848
 21
-10475.62123464681
 31
0.0
  0
SOLID
  5
7BD3
330
78EF
100
AcDbEntity
  8
0
 62
     0
440
 16777216
100
AcDbTrace
 10
-3826.144751427517
 20
-10469.37123464681
 30
0.0
 11
-3826.144751427517
 21
-10481.87123464681
 31
0.0
 12
-3863.644751427517
 22
-10475.62123464681
 32
0.0
 13
-3863.644751427517
 23
-10475.62123464681
 33
0.0
  0
SOLID
  5
7BD4
330
78EF
100
AcDbEntity
  8
0
 62
     0
440
 16777216
100
AcDbTrace
 10
-2481.144751428848
 20
-10469.37123464681
 30
0.0
 11
-2481.144751428848
 21
-10481.87123464681
 31
0.0
 12
-2443.644751428847
 22
-10475.62123464681
 32
0.0
 13
-2443.644751428847
 23
-10475.62123464681
 33
0.0
  0
MTEXT
  5
7BD5
330
78EF
100
AcDbEntity
  8
0
 62
     0
440
 16777216
100
AcDbMText
 10
-3153.644751428182
 20
-10443.74623464681
 30
0.0
 40
45.0
 41
0.0
 46
0.0
 71
     5
 72
     1
  1
\A1;1420
 73
     1
 44
1.0
  0
POINT
  5
7BD6
330
78EF
100
AcDbEntity
  8
Defpoints
 62
     0
440
 16777216
100
AcDbPoint
 10
-3863.644751427517
 20
-10620.62925213502
 30
0.0
  0
POINT
  5
7BD7
330
78EF
100
AcDbEntity
  8
Defpoints
 62
     0
440
 16777216
100
AcDbPoint
 10
-2443.644751428847
 20
-10621.56675213502
 30
0.0
  0
POINT
  5
7BD8
330
78EF
100
AcDbEntity
  8
Defpoints
 62
     0
440
 16777216
100
AcDbPoint
 10
-2443.644751428847
 20
-10475.62123464681
 30
0.0
  0
ENDBLK
  5
78FA
330
78EF
100
AcDbEntity
  8
0
100
AcDbBlockEnd
  0
BLOCK
  5
7911
330
7907
100
AcDbEntity
  8
0
100
AcDbBlockBegin
  2
*D123
 70
     1
 10
0.0
 20
0.0
 30
0.0
  3
*D123
  1

  0
LINE
  5
7BE2
330
7907
100
AcDbEntity
  8
0
 62
     0
440
 16777216
370
    -2
100
AcDbLine
 10
-2603.732102091687
 20
-11079.75226355958
 30
0.0
 11
-2758.670005371126
 21
-11079.75226355958
 31
0.0
  0
LINE
  5
7BE3
330
7907
100
AcDbEntity
  8
0
 62
     0
440
 16777216
370
    -2
100
AcDbLine
 10
-2581.783783972822
 20
-10595.62925213502
 30
0.0
 11
-2758.670005371126
 21
-10595.62925213502
 31
0.0
  0
LINE
  5
7BE4
330
7907
100
AcDbEntity
  8
0
 62
     0
440
 16777216
370
    -2
100
AcDbLine
 10
-2739.920005371126
 20
-11042.25226355958
 30
0.0
 11
-2739.920005371126
 21
-10633.12925213502
 31
0.0
  0
SOLID
  5
7BE5
330
7907
100
AcDbEntity
  8
0
 62
     0
440
 16777216
100
AcDbTrace
 10
-2746.170005371126
 20
-11042.25226355958
 30
0.0
 11
-2733.670005371126
 21
-11042.25226355958
 31
0.0
 12
-2739.920005371126
 22
-11079.75226355958
 32
0.0
 13
-2739.920005371126
 23
-11079.75226355958
 33
0.0
  0
SOLID
  5
7BE6
330
7907
100
AcDbEntity
  8
0
 62
     0
440
 16777216
100
AcDbTrace
 10
-2746.170005371126
 20
-10633.12925213502
 30
0.0
 11
-2733.670005371126
 21
-10633.12925213502
 31
0.0
 12
-2739.920005371126
 22
-10595.62925213502
 32
0.0
 13
-2739.920005371126
 23
-10595.62925213502
 33
0.0
  0
MTEXT
  5
7BE7
330
7907
100
AcDbEntity
  8
0
 62
     0
440
 16777216
100
AcDbMText
 10
-2771.795005371124
 20
-10837.6907578473
 30
0.0
 40
45.0
 41
0.0
 46
0.0
 71
     5
 72
     1
  1
\A1;484
 11
0.0000000000000001
 21
1.0
 31
0.0
 73
     1
 44
1.0
  0
POINT
  5
7BE8
330
7907
100
AcDbEntity
  8
Defpoints
 62
     0
440
 16777216
100
AcDbPoint
 10
-2602.794602091688
 20
-11079.75226355958
 30
0.0
  0
POINT
  5
7BE9
330
7907
100
AcDbEntity
  8
Defpoints
 62
     0
440
 16777216
100
AcDbPoint
 10
-2580.846283972822
 20
-10595.62925213502
 30
0.0
  0
POINT
  5
7BEA
330
7907
100
AcDbEntity
  8
Defpoints
 62
     0
440
 16777216
100
AcDbPoint
 10
-2739.920005371126
 20
-10595.62925213502
 30
0.0
  0
ENDBLK
  5
7912
330
7907
100
AcDbEntity
  8
0
100
AcDbBlockEnd
  0
BLOCK
  5
791D
330
7913
100
AcDbEntity
  8
0
100
AcDbBlockBegin
  2
*D124
 70
     1
 10
0.0
 20
0.0
 30
0.0
  3
*D124
  1

  0
LINE
  5
7BEB
330
7913
100
AcDbEntity
  8
0
 62
     0
440
 16777216
370
    -2
100
AcDbLine
 10
-5596.657399221832
 20
-10808.80227286538
 30
0.0
 11
-5596.657399221832
 21
-10313.45401295772
 31
0.0
  0
LINE
  5
7BEC
330
7913
100
AcDbEntity
  8
0
 62
     0
440
 16777216
370
    -2
100
AcDbLine
 10
-4616.657399221834
 20
-10808.80227286538
 30
0.0
 11
-4616.657399221834
 21
-10313.45401295772
 31
0.0
  0
LINE
  5
7BED
330
7913
100
AcDbEntity
  8
0
 62
     0
440
 16777216
370
    -2
100
AcDbLine
 10
-5559.157399221833
 20
-10332.20401295771
 30
0.0
 11
-4654.157399221833
 21
-10332.20401295771
 31
0.0
  0
SOLID
  5
7BEE
330
7913
100
AcDbEntity
  8
0
 62
     0
440
 16777216
100
AcDbTrace
 10
-5559.157399221833
 20
-10325.95401295772
 30
0.0
 11
-5559.157399221833
 21
-10338.45401295772
 31
0.0
 12
-5596.657399221832
 22
-10332.20401295771
 32
0.0
 13
-5596.657399221832
 23
-10332.20401295771
 33
0.0
  0
SOLID
  5
7BEF
330
7913
100
AcDbEntity
  8
0
 62
     0
440
 16777216
100
AcDbTrace
 10
-4654.157399221833
 20
-10325.95401295772
 30
0.0
 11
-4654.157399221833
 21
-10338.45401295772
 31
0.0
 12
-4616.657399221834
 22
-10332.20401295771
 32
0.0
 13
-4616.657399221834
 23
-10332.20401295771
 33
0.0
  0
MTEXT
  5
7BF0
330
7913
100
AcDbEntity
  8
0
 62
     0
440
 16777216
100
AcDbMText
 10
-5106.657399221833
 20
-10300.32901295772
 30
0.0
 40
45.0
 41
0.0
 46
0.0
 71
     5
 72
     1
  1
\A1;980
 73
     1
 44
1.0
  0
POINT
  5
7BF1
330
7913
100
AcDbEntity
  8
Defpoints
 62
     0
440
 16777216
100
AcDbPoint
 10
-5596.657399221832
 20
-10809.73977286538
 30
0.0
  0
POINT
  5
7BF2
330
7913
100
AcDbEntity
  8
Defpoints
 62
     0
440
 16777216
100
AcDbPoint
 10
-4616.657399221834
 20
-10809.73977286538
 30
0.0
  0
POINT
  5
7BF3
330
7913
100
AcDbEntity
  8
Defpoints
 62
     0
440
 16777216
100
AcDbPoint
 10
-4616.657399221834
 20
-10332.20401295771
 30
0.0
  0
ENDBLK
  5
791E
330
7913
100
AcDbEntity
  8
0
100
AcDbBlockEnd
  0
BLOCK
  5
7929
330
791F
100
AcDbEntity
  8
0
100
AcDbBlockBegin
  2
*D125
 70
     1
 10
0.0
 20
0.0
 30
0.0
  3
*D125
  1

  0
LINE
  5
7BF4
330
791F
100
AcDbEntity
  8
0
 62
     0
440
 16777216
370
    -2
100
AcDbLine
 10
-5107.594899221834
 20
-10559.73977286511
 30
0.0
 11
-5954.715924472893
 21
-10559.73977286511
 31
0.0
  0
LINE
  5
7BF5
330
791F
100
AcDbEntity
  8
0
 62
     0
440
 16777216
370
    -2
100
AcDbLine
 10
-5107.594899221834
 20
-11059.73977286565
 30
0.0
 11
-5954.715924472893
 21
-11059.73977286565
 31
0.0
  0
LINE
  5
7BF6
330
791F
100
AcDbEntity
  8
0
 62
     0
440
 16777216
370
    -2
100
AcDbLine
 10
-5935.965924472893
 20
-10597.23977286511
 30
0.0
 11
-5935.965924472893
 21
-11022.23977286566
 31
0.0
  0
SOLID
  5
7BF7
330
791F
100
AcDbEntity
  8
0
 62
     0
440
 16777216
100
AcDbTrace
 10
-5942.215924472893
 20
-10597.23977286511
 30
0.0
 11
-5929.715924472893
 21
-10597.23977286511
 31
0.0
 12
-5935.965924472893
 22
-10559.73977286511
 32
0.0
 13
-5935.965924472893
 23
-10559.73977286511
 33
0.0
  0
SOLID
  5
7BF8
330
791F
100
AcDbEntity
  8
0
 62
     0
440
 16777216
100
AcDbTrace
 10
-5942.215924472893
 20
-11022.23977286566
 30
0.0
 11
-5929.715924472893
 21
-11022.23977286566
 31
0.0
 12
-5935.965924472893
 22
-11059.73977286565
 32
0.0
 13
-5935.965924472893
 23
-11059.73977286565
 33
0.0
  0
MTEXT
  5
7BF9
330
791F
100
AcDbEntity
  8
0
 62
     0
440
 16777216
100
AcDbMText
 10
-5967.840924472891
 20
-10809.73977286538
 30
0.0
 40
45.0
 41
0.0
 46
0.0
 71
     5
 72
     1
  1
\A1;500
 11
0.0000000000000001
 21
1.0
 31
0.0
 73
     1
 44
1.0
  0
POINT
  5
7BFA
330
791F
100
AcDbEntity
  8
Defpoints
 62
     0
440
 16777216
100
AcDbPoint
 10
-5106.657399221834
 20
-10559.73977286511
 30
0.0
  0
POINT
  5
7BFB
330
791F
100
AcDbEntity
  8
Defpoints
 62
     0
440
 16777216
100
AcDbPoint
 10
-5106.657399221834
 20
-11059.73977286565
 30
0.0
  0
POINT
  5
7BFC
330
791F
100
AcDbEntity
  8
Defpoints
 62
     0
440
 16777216
100
AcDbPoint
 10
-5935.965924472893
 20
-11059.73977286565
 30
0.0
  0
ENDBLK
  5
792A
330
791F
100
AcDbEntity
  8
0
100
AcDbBlockEnd
  0
BLOCK
  5
796B
330
795F
100
AcDbEntity
  8
0
100
AcDbBlockBegin
  2
*D126
 70
     1
 10
0.0
 20
0.0
 30
0.0
  3
*D126
  1

  0
LINE
  5
7C22
330
795F
100
AcDbEntity
  8
0
 62
     0
440
 16777216
370
    -2
100
AcDbLine
 10
-5557.594899220858
 20
-10409.73977286543
 30
0.0
 11
-6018.564881837956
 21
-10409.73977286543
 31
0.0
  0
LINE
  5
7C23
330
795F
100
AcDbEntity
  8
0
 62
     0
440
 16777216
370
    -2
100
AcDbLine
 10
-5557.594899220858
 20
-10479.73977286543
 30
0.0
 11
-6018.564881837956
 21
-10479.73977286543
 31
0.0
  0
LINE
  5
7C24
330
795F
100
AcDbEntity
  8
0
 62
     0
440
 16777216
370
    -2
100
AcDbLine
 10
-5999.814881837957
 20
-10372.23977286543
 30
0.0
 11
-5999.814881837957
 21
-10334.73977286543
 31
0.0
  0
LINE
  5
7C25
330
795F
100
AcDbEntity
  8
0
 62
     0
440
 16777216
370
    -2
100
AcDbLine
 10
-5999.814881837957
 20
-10517.23977286543
 30
0.0
 11
-5999.814881837957
 21
-10554.73977286543
 31
0.0
  0
LINE
  5
7C26
330
795F
100
AcDbEntity
  8
0
 62
     0
440
 16777216
370
    -2
100
AcDbLine
 10
-5999.814881837957
 20
-10409.73977286543
 30
0.0
 11
-5999.814881837957
 21
-10479.73977286543
 31
0.0
  0
SOLID
  5
7C27
330
795F
100
AcDbEntity
  8
0
 62
     0
440
 16777216
100
AcDbTrace
 10
-6006.064881837957
 20
-10372.23977286543
 30
0.0
 11
-5993.564881837957
 21
-10372.23977286543
 31
0.0
 12
-5999.814881837957
 22
-10409.73977286543
 32
0.0
 13
-5999.814881837957
 23
-10409.73977286543
 33
0.0
  0
SOLID
  5
7C28
330
795F
100
AcDbEntity
  8
0
 62
     0
440
 16777216
100
AcDbTrace
 10
-6006.064881837957
 20
-10517.23977286543
 30
0.0
 11
-5993.564881837957
 21
-10517.23977286543
 31
0.0
 12
-5999.814881837957
 22
-10479.73977286543
 32
0.0
 13
-5999.814881837957
 23
-10479.73977286543
 33
0.0
  0
MTEXT
  5
7C29
330
795F
100
AcDbEntity
  8
0
 62
     0
440
 16777216
100
AcDbMText
 10
-6031.689881837955
 20
-10444.73977286543
 30
0.0
 40
45.0
 41
0.0
 46
0.0
 71
     5
 72
     1
  1
\A1;70
 11
0.0000000000000001
 21
1.0
 31
0.0
 73
     1
 44
1.0
  0
POINT
  5
7C2A
330
795F
100
AcDbEntity
  8
Defpoints
 62
     0
440
 16777216
100
AcDbPoint
 10
-5556.657399220858
 20
-10409.73977286543
 30
0.0
  0
POINT
  5
7C2B
330
795F
100
AcDbEntity
  8
Defpoints
 62
     0
440
 16777216
100
AcDbPoint
 10
-5556.657399220858
 20
-10479.73977286543
 30
0.0
  0
POINT
  5
7C2C
330
795F
100
AcDbEntity
  8
Defpoints
 62
     0
440
 16777216
100
AcDbPoint
 10
-5999.814881837957
 20
-10479.73977286543
 30
0.0
  0
ENDBLK
  5
796C
330
795F
100
AcDbEntity
  8
0
100
AcDbBlockEnd
  0
BLOCK
  5
7979
330
796D
100
AcDbEntity
  8
0
100
AcDbBlockBegin
  2
*D127
 70
     1
 10
0.0
 20
0.0
 30
0.0
  3
*D127
  1

  0
LINE
  5
7C2D
330
796D
100
AcDbEntity
  8
0
 62
     0
440
 16777216
370
    -2
100
AcDbLine
 10
-5816.657399220492
 20
-11075.67727286534
 30
0.0
 11
-5816.657399220492
 21
-11261.4993422197
 31
0.0
  0
LINE
  5
7C2E
330
796D
100
AcDbEntity
  8
0
 62
     0
440
 16777216
370
    -2
100
AcDbLine
 10
-5886.657399220492
 20
-11060.67727286565
 30
0.0
 11
-5886.657399220492
 21
-11261.4993422197
 31
0.0
  0
LINE
  5
7C2F
330
796D
100
AcDbEntity
  8
0
 62
     0
440
 16777216
370
    -2
100
AcDbLine
 10
-5779.157399220492
 20
-11242.7493422197
 30
0.0
 11
-5741.657399220493
 21
-11242.7493422197
 31
0.0
  0
LINE
  5
7C30
330
796D
100
AcDbEntity
  8
0
 62
     0
440
 16777216
370
    -2
100
AcDbLine
 10
-5924.157399220492
 20
-11242.7493422197
 30
0.0
 11
-6047.907399220492
 21
-11242.7493422197
 31
0.0
  0
LINE
  5
7C31
330
796D
100
AcDbEntity
  8
0
 62
     0
440
 16777216
370
    -2
100
AcDbLine
 10
-5816.657399220492
 20
-11242.7493422197
 30
0.0
 11
-5886.657399220492
 21
-11242.7493422197
 31
0.0
  0
SOLID
  5
7C32
330
796D
100
AcDbEntity
  8
0
 62
     0
440
 16777216
100
AcDbTrace
 10
-5779.157399220492
 20
-11236.4993422197
 30
0.0
 11
-5779.157399220492
 21
-11248.9993422197
 31
0.0
 12
-5816.657399220492
 22
-11242.7493422197
 32
0.0
 13
-5816.657399220492
 23
-11242.7493422197
 33
0.0
  0
SOLID
  5
7C33
330
796D
100
AcDbEntity
  8
0
 62
     0
440
 16777216
100
AcDbTrace
 10
-5924.157399220492
 20
-11236.4993422197
 30
0.0
 11
-5924.157399220492
 21
-11248.9993422197
 31
0.0
 12
-5886.657399220492
 22
-11242.7493422197
 32
0.0
 13
-5886.657399220492
 23
-11242.7493422197
 33
0.0
  0
MTEXT
  5
7C34
330
796D
100
AcDbEntity
  8
0
 62
     0
440
 16777216
100
AcDbMText
 10
-6004.782399220492
 20
-11210.8743422197
 30
0.0
 40
45.0
 41
0.0
 46
0.0
 71
     5
 72
     1
  1
\A1;70
 73
     1
 44
1.0
  0
POINT
  5
7C35
330
796D
100
AcDbEntity
  8
Defpoints
 62
     0
440
 16777216
100
AcDbPoint
 10
-5816.657399220492
 20
-11074.73977286534
 30
0.0
  0
POINT
  5
7C36
330
796D
100
AcDbEntity
  8
Defpoints
 62
     0
440
 16777216
100
AcDbPoint
 10
-5886.657399220492
 20
-11059.73977286565
 30
0.0
  0
POINT
  5
7C37
330
796D
100
AcDbEntity
  8
Defpoints
 62
     0
440
 16777216
100
AcDbPoint
 10
-5886.657399220492
 20
-11242.7493422197
 30
0.0
  0
ENDBLK
  5
797A
330
796D
100
AcDbEntity
  8
0
100
AcDbBlockEnd
  0
BLOCK
  5
7988
330
797B
100
AcDbEntity
  8
0
100
AcDbBlockBegin
  2
*D128
 70
     1
 10
0.0
 20
0.0
 30
0.0
  3
*D128
  1

  0
LINE
  5
7C38
330
797B
100
AcDbEntity
  8
0
 62
     0
440
 16777216
370
    -2
100
AcDbLine
 10
-4595.719899221832
 20
-11139.73977286534
 30
0.0
 11
-4405.936005921073
 21
-11139.73977286534
 31
0.0
  0
LINE
  5
7C39
330
797B
100
AcDbEntity
  8
0
 62
     0
440
 16777216
370
    -2
100
AcDbLine
 10
-4595.719899221832
 20
-11209.73977286534
 30
0.0
 11
-4405.936005921073
 21
-11209.73977286534
 31
0.0
  0
LINE
  5
7C3A
330
797B
100
AcDbEntity
  8
0
 62
     0
440
 16777216
370
    -2
100
AcDbLine
 10
-4424.686005921073
 20
-11102.23977286534
 30
0.0
 11
-4424.686005921073
 21
-11064.73977286533
 31
0.0
  0
LINE
  5
7C3B
330
797B
100
AcDbEntity
  8
0
 62
     0
440
 16777216
370
    -2
100
AcDbLine
 10
-4424.686005921073
 20
-11247.23977286534
 30
0.0
 11
-4424.686005921073
 21
-11284.73977286533
 31
0.0
  0
LINE
  5
7C3C
330
797B
100
AcDbEntity
  8
0
 62
     0
440
 16777216
370
    -2
100
AcDbLine
 10
-4424.686005921073
 20
-11284.73977286533
 30
0.0
 11
-4501.561005921074
 21
-11284.73977286533
 31
0.0
  0
LINE
  5
7C3D
330
797B
100
AcDbEntity
  8
0
 62
     0
440
 16777216
370
    -2
100
AcDbLine
 10
-4424.686005921073
 20
-11139.73977286534
 30
0.0
 11
-4424.686005921073
 21
-11209.73977286534
 31
0.0
  0
SOLID
  5
7C3E
330
797B
100
AcDbEntity
  8
0
 62
     0
440
 16777216
100
AcDbTrace
 10
-4430.936005921074
 20
-11102.23977286534
 30
0.0
 11
-4418.436005921074
 21
-11102.23977286534
 31
0.0
 12
-4424.686005921073
 22
-11139.73977286534
 32
0.0
 13
-4424.686005921073
 23
-11139.73977286534
 33
0.0
  0
SOLID
  5
7C3F
330
797B
100
AcDbEntity
  8
0
 62
     0
440
 16777216
100
AcDbTrace
 10
-4430.936005921074
 20
-11247.23977286534
 30
0.0
 11
-4418.436005921074
 21
-11247.23977286534
 31
0.0
 12
-4424.686005921073
 22
-11209.73977286534
 32
0.0
 13
-4424.686005921073
 23
-11209.73977286534
 33
0.0
  0
MTEXT
  5
7C40
330
797B
100
AcDbEntity
  8
0
 62
     0
440
 16777216
100
AcDbMText
 10
-4467.811005921072
 20
-11252.86477286534
 30
0.0
 40
45.0
 41
0.0
 46
0.0
 71
     5
 72
     1
  1
\A1;70
 73
     1
 44
1.0
  0
POINT
  5
7C41
330
797B
100
AcDbEntity
  8
Defpoints
 62
     0
440
 16777216
100
AcDbPoint
 10
-4596.657399221832
 20
-11139.73977286534
 30
0.0
  0
POINT
  5
7C42
330
797B
100
AcDbEntity
  8
Defpoints
 62
     0
440
 16777216
100
AcDbPoint
 10
-4596.657399221832
 20
-11209.73977286534
 30
0.0
  0
POINT
  5
7C43
330
797B
100
AcDbEntity
  8
Defpoints
 62
     0
440
 16777216
100
AcDbPoint
 10
-4424.686005921073
 20
-11209.73977286534
 30
0.0
  0
ENDBLK
  5
7989
330
797B
100
AcDbEntity
  8
0
100
AcDbBlockEnd
  0
BLOCK
  5
79A5
330
7999
100
AcDbEntity
  8
0
100
AcDbBlockBegin
  2
*D129
 70
     1
 10
0.0
 20
0.0
 30
0.0
  3
*D129
  1

  0
LINE
  5
7C50
330
7999
100
AcDbEntity
  8
0
 62
     0
440
 16777216
370
    -2
100
AcDbLine
 10
-4616.657399221832
 20
-10998.80227286565
 30
0.0
 11
-4616.657399221832
 21
-10980.98977286566
 31
0.0
  0
LINE
  5
7C51
330
7999
100
AcDbEntity
  8
0
 62
     0
440
 16777216
370
    -2
100
AcDbLine
 10
-4536.657399221833
 20
-10813.17727286538
 30
0.0
 11
-4536.657399221833
 21
-11018.48977286566
 31
0.0
  0
LINE
  5
7C52
330
7999
100
AcDbEntity
  8
0
 62
     0
440
 16777216
370
    -2
100
AcDbLine
 10
-4654.157399221833
 20
-10999.73977286565
 30
0.0
 11
-4691.657399221832
 21
-10999.73977286565
 31
0.0
  0
LINE
  5
7C53
330
7999
100
AcDbEntity
  8
0
 62
     0
440
 16777216
370
    -2
100
AcDbLine
 10
-4499.157399221832
 20
-10999.73977286565
 30
0.0
 11
-4375.407399221833
 21
-10999.73977286565
 31
0.0
  0
LINE
  5
7C54
330
7999
100
AcDbEntity
  8
0
 62
     0
440
 16777216
370
    -2
100
AcDbLine
 10
-4616.657399221832
 20
-10999.73977286565
 30
0.0
 11
-4536.657399221833
 21
-10999.73977286565
 31
0.0
  0
SOLID
  5
7C55
330
7999
100
AcDbEntity
  8
0
 62
     0
440
 16777216
100
AcDbTrace
 10
-4654.157399221833
 20
-10993.48977286566
 30
0.0
 11
-4654.157399221833
 21
-11005.98977286566
 31
0.0
 12
-4616.657399221832
 22
-10999.73977286565
 32
0.0
 13
-4616.657399221832
 23
-10999.73977286565
 33
0.0
  0
SOLID
  5
7C56
330
7999
100
AcDbEntity
  8
0
 62
     0
440
 16777216
100
AcDbTrace
 10
-4499.157399221832
 20
-10993.48977286566
 30
0.0
 11
-4499.157399221832
 21
-11005.98977286566
 31
0.0
 12
-4536.657399221833
 22
-10999.73977286565
 32
0.0
 13
-4536.657399221833
 23
-10999.73977286565
 33
0.0
  0
MTEXT
  5
7C57
330
7999
100
AcDbEntity
  8
0
 62
     0
440
 16777216
100
AcDbMText
 10
-4418.532399221833
 20
-10967.86477286566
 30
0.0
 40
45.0
 41
0.0
 46
0.0
 71
     5
 72
     1
  1
\A1;80
 73
     1
 44
1.0
  0
POINT
  5
7C58
330
7999
100
AcDbEntity
  8
Defpoints
 62
     0
440
 16777216
100
AcDbPoint
 10
-4616.657399221832
 20
-10999.73977286565
 30
0.0
  0
POINT
  5
7C59
330
7999
100
AcDbEntity
  8
Defpoints
 62
     0
440
 16777216
100
AcDbPoint
 10
-4536.657399221833
 20
-10812.23977286538
 30
0.0
  0
POINT
  5
7C5A
330
7999
100
AcDbEntity
  8
Defpoints
 62
     0
440
 16777216
100
AcDbPoint
 10
-4536.657399221833
 20
-10999.73977286565
 30
0.0
  0
ENDBLK
  5
79A6
330
7999
100
AcDbEntity
  8
0
100
AcDbBlockEnd
  0
BLOCK
  5
79B1
330
79A7
100
AcDbEntity
  8
0
100
AcDbBlockBegin
  2
*D130
 70
     1
 10
0.0
 20
0.0
 30
0.0
  3
*D130
  1

  0
LINE
  5
7CAD
330
79A7
100
AcDbEntity
  8
0
 62
     0
440
 16777216
370
    -2
100
AcDbLine
 10
-4931.69455584237
 20
-10776.58167027933
 30
0.0
 11
-4809.81955584237
 21
-10776.58167027933
 31
0.0
  0
LINE
  5
7CAE
330
79A7
100
AcDbEntity
  8
0
 62
     0
440
 16777216
370
    -2
100
AcDbLine
 10
-4809.81955584237
 20
-10776.58167027933
 30
0.0
 11
-4774.784640784393
 21
-10789.9534587491
 31
0.0
  0
LINE
  5
7CAF
330
79A7
100
AcDbEntity
  8
0
 62
     0
440
 16777216
370
    -2
100
AcDbLine
 10
-4658.001590591132
 20
-10834.52608698167
 30
0.0
 11
-4622.966675533155
 21
-10847.89787545143
 31
0.0
  0
MTEXT
  5
7CB0
330
79A7
100
AcDbEntity
  8
0
 62
     0
440
 16777216
100
AcDbMText
 10
-4875.444555842371
 20
-10744.70667027933
 30
0.0
 40
45.0
 41
0.0
 46
0.0
 71
     5
 72
     1
  1
\A1;\U+220550
 73
     1
 44
1.0
  0
LINE
  5
7CB1
330
79A7
100
AcDbEntity
  8
0
 62
     0
440
 16777216
370
    -2
100
AcDbLine
 10
-4693.036505649112
 20
-10821.1542985119
 30
0.0
 11
-4739.749725726414
 21
-10803.32524721887
 31
0.0
  0
SOLID
  5
7CB2
330
79A7
100
AcDbEntity
  8
0
 62
     0
440
 16777216
100
AcDbTrace
 10
-4655.772959179505
 20
-10828.686934472
 30
0.0
 11
-4660.230222002762
 21
-10840.36523949133
 31
0.0
 12
-4693.036505649112
 22
-10821.1542985119
 32
0.0
 13
-4693.036505649112
 23
-10821.1542985119
 33
0.0
  0
SOLID
  5
7CB3
330
79A7
100
AcDbEntity
  8
0
 62
     0
440
 16777216
100
AcDbTrace
 10
-4772.556009372764
 20
-10784.11430623944
 30
0.0
 11
-4777.013272196021
 21
-10795.79261125876
 31
0.0
 12
-4739.749725726414
 22
-10803.32524721887
 32
0.0
 13
-4739.749725726414
 23
-10803.32524721887
 33
0.0
  0
POINT
  5
7CB4
330
79A7
100
AcDbEntity
  8
Defpoints
 62
     0
440
 16777216
100
AcDbPoint
 10
-4739.749725726414
 20
-10803.32524721887
 30
0.0
  0
POINT
  5
7CB5
330
79A7
100
AcDbEntity
  8
Defpoints
 62
     0
440
 16777216
100
AcDbPoint
 10
-4693.036505649112
 20
-10821.1542985119
 30
0.0
  0
ENDBLK
  5
79B2
330
79A7
100
AcDbEntity
  8
0
100
AcDbBlockEnd
  0
BLOCK
  5
7D4C
330
7D40
100
AcDbEntity
  8
0
100
AcDbBlockBegin
  2
*D141
 70
     1
 10
0.0
 20
0.0
 30
0.0
  3
*D141
  1

  0
LINE
  5
7D41
330
7D40
100
AcDbEntity
  8
0
 62
     0
440
 16777216
370
    -2
100
AcDbLine
 10
-4536.657399221833
 20
-10560.19064291155
 30
0.0
 11
-4536.657399221833
 21
-10522.3846150903
 31
0.0
  0
LINE
  5
7D42
330
7D40
100
AcDbEntity
  8
0
 62
     0
440
 16777216
370
    -2
100
AcDbLine
 10
-4466.657399221833
 20
-10560.19064291155
 30
0.0
 11
-4466.657399221833
 21
-10522.3846150903
 31
0.0
  0
LINE
  5
7D43
330
7D40
100
AcDbEntity
  8
0
 62
     0
440
 16777216
370
    -2
100
AcDbLine
 10
-4574.157399221832
 20
-10541.1346150903
 30
0.0
 11
-4611.657399221832
 21
-10541.1346150903
 31
0.0
  0
LINE
  5
7D44
330
7D40
100
AcDbEntity
  8
0
 62
     0
440
 16777216
370
    -2
100
AcDbLine
 10
-4429.157399221832
 20
-10541.1346150903
 30
0.0
 11
-4305.407399221833
 21
-10541.1346150903
 31
0.0
  0
LINE
  5
7D45
330
7D40
100
AcDbEntity
  8
0
 62
     0
440
 16777216
370
    -2
100
AcDbLine
 10
-4536.657399221833
 20
-10541.1346150903
 30
0.0
 11
-4466.657399221833
 21
-10541.1346150903
 31
0.0
  0
SOLID
  5
7D46
330
7D40
100
AcDbEntity
  8
0
 62
     0
440
 16777216
100
AcDbTrace
 10
-4574.157399221832
 20
-10534.8846150903
 30
0.0
 11
-4574.157399221832
 21
-10547.3846150903
 31
0.0
 12
-4536.657399221833
 22
-10541.1346150903
 32
0.0
 13
-4536.657399221833
 23
-10541.1346150903
 33
0.0
  0
SOLID
  5
7D47
330
7D40
100
AcDbEntity
  8
0
 62
     0
440
 16777216
100
AcDbTrace
 10
-4429.157399221832
 20
-10534.8846150903
 30
0.0
 11
-4429.157399221832
 21
-10547.3846150903
 31
0.0
 12
-4466.657399221833
 22
-10541.1346150903
 32
0.0
 13
-4466.657399221833
 23
-10541.1346150903
 33
0.0
  0
MTEXT
  5
7D48
330
7D40
100
AcDbEntity
  8
0
 62
     0
440
 16777216
100
AcDbMText
 10
-4348.532399221832
 20
-10509.2596150903
 30
0.0
 40
45.0
 41
0.0
 46
0.0
 71
     5
 72
     1
  1
\A1;70
 73
     1
 44
1.0
  0
POINT
  5
7D49
330
7D40
100
AcDbEntity
  8
Defpoints
 62
     0
440
 16777216
100
AcDbPoint
 10
-4536.657399221833
 20
-10561.12814291155
 30
0.0
  0
POINT
  5
7D4A
330
7D40
100
AcDbEntity
  8
Defpoints
 62
     0
440
 16777216
100
AcDbPoint
 10
-4466.657399221833
 20
-10561.12814291155
 30
0.0
  0
POINT
  5
7D4B
330
7D40
100
AcDbEntity
  8
Defpoints
 62
     0
440
 16777216
100
AcDbPoint
 10
-4466.657399221833
 20
-10541.1346150903
 30
0.0
  0
ENDBLK
  5
7D4D
330
7D40
100
AcDbEntity
  8
0
100
AcDbBlockEnd
  0
ENDSEC
  0
SECTION
  2
ENTITIES
  0
LINE
  5
7724
102
{ACAD_REACTORS
330
7767
102
}
330
1F
100
AcDbEntity
  8
粗实线
  6
Continuous
 62
     7
100
AcDbLine
 10
-3863.644751427517
 20
-10595.62925213502
 30
0.0
 11
-2443.644751428847
 21
-10595.62925213502
 31
0.0
  0
LINE
  5
7725
102
{ACAD_REACTORS
330
7776
102
}
330
1F
100
AcDbEntity
  8
粗实线
  6
Continuous
 62
     7
100
AcDbLine
 10
-5536.657399221835
 20
-10559.73977286511
 30
0.0
 11
-4676.657399221834
 21
-10559.73977286511
 31
0.0
  0
ARC
  5
7726
330
1F
100
AcDbEntity
  8
粗实线
  6
Continuous
 62
     7
100
AcDbCircle
 10
-5536.657399221835
 20
-10619.73977286511
 30
0.0
 40
60.0
100
AcDbArc
 50
90.0
 51
180.0
  0
LINE
  5
7727
330
1F
100
AcDbEntity
  8
粗实线
  6
Continuous
 62
     7
100
AcDbLine
 10
-4476.657399221774
 20
-10409.73977286543
 30
0.0
 11
-5236.657399221163
 21
-10409.73977286543
 31
0.0
  0
LINE
  5
7728
102
{ACAD_REACTORS
330
7788
102
}
330
1F
100
AcDbEntity
  8
粗实线
  6
Continuous
 62
     7
100
AcDbLine
 10
-4596.657399221832
 20
-10479.73977286543
 30
0.0
 11
-5756.657399220494
 21
-10479.73977286543
 31
0.0
  0
ARC
  5
7729
330
1F
100
AcDbEntity
  8
粗实线
  6
Continuous
 62
     7
100
AcDbCircle
 10
-4596.657399221832
 20
-10539.73977286543
 30
0.0
 40
60.0
100
AcDbArc
 50
0.0
 51
90.0
  0
ARC
  5
772A
330
1F
100
AcDbEntity
  8
粗实线
  6
Continuous
 62
     7
100
AcDbCircle
 10
-5752.215694039721
 20
-10544.03211610922
 30
0.0
 40
64.44559057600631
100
AcDbArc
 50
93.95206051110553
 51
180.6291595741585
  0
LINE
  5
772B
102
{ACAD_REACTORS
330
775A
102
}
330
1F
100
AcDbEntity
  8
粗实线
  6
Continuous
 62
     7
100
AcDbLine
 10
-4466.657399221833
 20
-10812.23977286538
 30
0.0
 11
-4466.657399221833
 21
-10419.73977286539
 31
0.0
  0
CIRCLE
  5
772C
330
1F
100
AcDbEntity
  8
粗实线
  6
Continuous
 62
     0
100
AcDbCircle
 10
-4716.393115687761
 20
-10813.17727286538
 30
0.0
 40
34.99999999986
  0
CIRCLE
  5
772D
102
{ACAD_REACTORS
330
7762
102
}
330
1F
100
AcDbEntity
  8
标注
  6
Continuous
 62
     0
100
AcDbCircle
 10
-4716.393115687761
 20
-10813.17727286538
 30
0.0
 40
33.21621621666
  0
ARC
  5
772E
330
1F
100
AcDbEntity
  8
粗实线
  6
Continuous
 62
     7
100
AcDbCircle
 10
-4476.657399221774
 20
-10419.73977286539
 30
0.0
 40
9.999999999959998
100
AcDbArc
 50
0.0
 51
90.0
  0
LINE
  5
772F
102
{ACAD_REACTORS
330
7770
102
}
330
1F
100
AcDbEntity
  8
虚线
 62
     0
100
AcDbLine
 10
-2602.794602091688
 20
-11079.75226355958
 30
0.0
 11
-3583.629025259776
 21
-11060.76631118381
 31
0.0
  0
ARC
  5
7730
330
1F
100
AcDbEntity
  8
虚线
 62
     0
100
AcDbCircle
 10
-2601.609241963982
 20
-11019.76397369091
 30
0.0
 40
60.0
100
AcDbArc
 50
268.8679908126967
 51
350.7907313066271
  0
LINE
  5
7731
330
1F
100
AcDbEntity
  8
虚线
 62
     0
100
AcDbLine
 10
-2473.681824493761
 20
-10605.62925213502
 30
0.0
 11
-2542.382618665849
 21
-11029.3664261225
 31
0.0
  0
LINE
  5
7732
102
{ACAD_REACTORS
330
775A
330
7794
102
}
330
1F
100
AcDbEntity
  8
中心线
 62
     0
100
AcDbLine
 10
-4365.564806351531
 20
-10812.23977286538
 30
0.0
 11
-5865.153023466662
 21
-10812.23977286538
 31
0.0
  0
LINE
  5
7733
330
1F
100
AcDbEntity
  8
中心线
 62
     0
100
AcDbLine
 10
-3128.644751428183
 20
-11212.48217229524
 30
0.0
 11
-3128.644751428182
 21
-10489.0207261657
 31
0.0
  0
LINE
  5
7734
102
{ACAD_REACTORS
330
7776
102
}
330
1F
100
AcDbEntity
  8
中心线
 62
     0
100
AcDbLine
 10
-5106.657399221834
 20
-11352.83704865208
 30
0.0
 11
-5106.657399221834
 21
-10185.60829889795
 31
0.0
  0
LINE
  5
7735
102
{ACAD_REACTORS
330
7776
102
}
330
1F
100
AcDbEntity
  8
粗实线
  6
Continuous
 62
     7
100
AcDbLine
 10
-5536.657399221832
 20
-11059.73977286565
 30
0.0
 11
-4676.657399221832
 21
-11059.73977286565
 31
0.0
  0
ARC
  5
7736
330
1F
100
AcDbEntity
  8
粗实线
  6
Continuous
 62
     7
100
AcDbCircle
 10
-4676.657399221832
 20
-10999.73977286565
 30
0.0
 40
60.0
100
AcDbArc
 50
270.0
 51
0.0
  0
LINE
  5
7737
102
{ACAD_REACTORS
330
778E
102
}
330
1F
100
AcDbEntity
  8
粗实线
  6
Continuous
 62
     7
100
AcDbLine
 10
-4476.657399221774
 20
-11209.73977286534
 30
0.0
 11
-5236.657399221163
 21
-11209.73977286534
 31
0.0
  0
LINE
  5
7738
102
{ACAD_REACTORS
330
778E
102
}
330
1F
100
AcDbEntity
  8
粗实线
  6
Continuous
 62
     7
100
AcDbLine
 10
-4596.657399221832
 20
-11139.73977286534
 30
0.0
 11
-5756.657399220492
 21
-11139.73977286534
 31
0.0
  0
ARC
  5
7739
330
1F
100
AcDbEntity
  8
粗实线
  6
Continuous
 62
     7
100
AcDbCircle
 10
-4596.657399221832
 20
-11079.73977286534
 30
0.0
 40
60.0
100
AcDbArc
 50
270.0
 51
0.0
  0
LINE
  5
773A
102
{ACAD_REACTORS
330
7773
330
7794
102
}
330
1F
100
AcDbEntity
  8
粗实线
  6
Continuous
 62
     7
100
AcDbLine
 10
-4616.657399221832
 20
-10999.73977286565
 30
0.0
 11
-4616.657399221835
 21
-10619.73977286511
 31
0.0
  0
ARC
  5
773B
330
1F
100
AcDbEntity
  8
粗实线
  6
Continuous
 62
     7
100
AcDbCircle
 10
-4676.657399221834
 20
-10619.73977286511
 30
0.0
 40
60.0
100
AcDbArc
 50
0.0
 51
90.0
  0
LINE
  5
773C
102
{ACAD_REACTORS
330
7762
102
}
330
1F
100
AcDbEntity
  8
粗实线
  6
Continuous
 62
     7
100
AcDbLine
 10
-4466.657399221833
 20
-10812.23977286538
 30
0.0
 11
-4466.657399221833
 21
-11199.73977286537
 31
0.0
  0
LINE
  5
773D
102
{ACAD_REACTORS
330
7794
102
}
330
1F
100
AcDbEntity
  8
粗实线
  6
Continuous
 62
     7
100
AcDbLine
 10
-4536.657399221833
 20
-10539.73977286543
 30
0.0
 11
-4536.657399221833
 21
-11079.73977286534
 31
0.0
  0
ARC
  5
773E
330
1F
100
AcDbEntity
  8
粗实线
  6
Continuous
 62
     7
100
AcDbCircle
 10
-4476.657399221774
 20
-11199.73977286537
 30
0.0
 40
9.999999999959998
100
AcDbArc
 50
270.0
 51
0.0
  0
LINE
  5
773F
102
{ACAD_REACTORS
330
775D
330
7788
102
}
330
1F
100
AcDbEntity
  8
粗实线
  6
Continuous
 62
     7
100
AcDbLine
 10
-5876.657399220552
 20
-10409.73977286543
 30
0.0
 11
-5236.657399221163
 21
-10409.73977286543
 31
0.0
  0
LINE
  5
7740
102
{ACAD_REACTORS
330
775D
102
}
330
1F
100
AcDbEntity
  8
粗实线
  6
Continuous
 62
     7
100
AcDbLine
 10
-5876.657399220552
 20
-11209.73977286534
 30
0.0
 11
-5236.657399221163
 21
-11209.73977286534
 31
0.0
  0
LINE
  5
7741
330
1F
100
AcDbEntity
  8
粗实线
  6
HIDDEN
 62
     0
 48
150.0
370
    20
100
AcDbLine
 10
-2724.006197506989
 20
-11095.80929852391
 30
0.0
 11
-2724.006197506989
 21
-11081.47809852394
 31
0.0
  0
LINE
  5
7742
330
1F
100
AcDbEntity
  8
粗实线
  6
HIDDEN
 62
     0
 48
150.0
370
    20
100
AcDbLine
 10
-2724.006197506989
 20
-11089.14369852392
 30
0.0
 11
-2724.006197506989
 21
-11088.01371483555
 31
0.0
  0
LINE
  5
7743
330
1F
100
AcDbEntity
  8
粗实线
  6
HIDDEN
 62
     0
 48
150.0
370
    20
100
AcDbLine
 10
-2719.340597507006
 20
-11095.80929852391
 30
0.0
 11
-2719.340597507006
 21
-11093.00993852439
 31
0.0
  0
LINE
  5
7744
330
1F
100
AcDbEntity
  8
粗实线
  6
HIDDEN
 62
     0
 48
150.0
370
    20
100
AcDbLine
 10
-2658.671797507249
 20
-11095.80929852391
 30
0.0
 11
-2658.671797507249
 21
-11093.00993852439
 31
0.0
  0
LINE
  5
7745
330
1F
100
AcDbEntity
  8
粗实线
  6
HIDDEN
 62
     0
 48
150.0
370
    20
100
AcDbLine
 10
-2654.006197507269
 20
-11089.14369852392
 30
0.0
 11
-2654.006197507269
 21
-11088.01371483555
 31
0.0
  0
LINE
  5
7746
330
1F
100
AcDbEntity
  8
粗实线
  6
HIDDEN
 62
     0
 48
150.0
370
    20
100
AcDbLine
 10
-2654.022197507265
 20
-11095.80929852391
 30
0.0
 11
-2654.022197507265
 21
-11081.47809852394
 31
0.0
  0
LINE
  5
7747
102
{ACAD_REACTORS
330
7767
102
}
330
1F
100
AcDbEntity
  8
粗实线
  6
HIDDEN
 62
     0
 48
150.0
370
    20
100
AcDbLine
 10
-2724.006197506989
 20
-11095.80929852391
 30
0.0
 11
-2654.022197507265
 21
-11095.80929852391
 31
0.0
  0
LINE
  5
7748
330
1F
100
AcDbEntity
  8
粗实线
  6
HIDDEN
 62
     0
 48
150.0
370
    20
100
AcDbLine
 10
-2719.340597507006
 20
-11095.80929852391
 30
0.0
 11
-2658.671797507249
 21
-11095.80929852391
 31
0.0
  0
LINE
  5
7749
330
1F
100
AcDbEntity
  8
粗实线
  6
HIDDEN
 62
     0
 48
150.0
370
    20
100
AcDbLine
 10
-2654.006197507269
 20
-11089.14369852392
 30
0.0
 11
-2724.006197506989
 21
-11089.14369852392
 31
0.0
  0
LINE
  5
774A
330
1F
100
AcDbEntity
  8
粗实线
  6
HIDDEN
 62
     0
 48
150.0
370
    20
100
AcDbLine
 10
-2724.006197506989
 20
-11081.47809852394
 30
0.0
 11
-2654.022197507265
 21
-11081.47809852394
 31
0.0
  0
ARC
  5
774B
330
1F
100
AcDbEntity
  8
粗实线
  6
HIDDEN
 62
     0
 48
150.0
370
    20
100
AcDbCircle
 10
-2689.006197507131
 20
-11412.98756943988
 30
0.0
 40
331.5094709135716
100
AcDbArc
 50
84.22876837162442
 51
95.77123162837557
  0
ARC
  5
774C
330
1F
100
AcDbEntity
  8
粗实线
  6
HIDDEN
 62
     0
 48
150.0
370
    20
100
AcDbCircle
 10
-2661.141894568492
 20
-11087.74700063994
 30
0.0
 40
7.14067987040838
100
AcDbArc
 50
357.859426056841
 51
39.98583479127637
  0
ARC
  5
774D
330
1F
100
AcDbEntity
  8
粗实线
  6
HIDDEN
 62
     0
 48
150.0
370
    20
100
AcDbCircle
 10
-2716.870500445769
 20
-11087.74700063994
 30
0.0
 40
7.140679870408279
100
AcDbArc
 50
140.0141652087236
 51
182.1405739431589
  0
ARC
  5
774E
330
1F
100
AcDbEntity
  8
粗实线
  6
HIDDEN
 62
     0
 48
150.0
370
    20
100
AcDbCircle
 10
-2654.189102446804
 20
-11092.79020387044
 30
0.0
 40
4.488077352619552
100
AcDbArc
 50
125.6603469190277
 51
182.8063026719658
  0
ARC
  5
774F
330
1F
100
AcDbEntity
  8
粗实线
  6
HIDDEN
 62
     0
 48
150.0
370
    20
100
AcDbCircle
 10
-2723.823292567455
 20
-11092.79020387044
 30
0.0
 40
4.48807735261955
100
AcDbArc
 50
357.1936973280342
 51
54.33965308097231
  0
LINE
  5
7750
330
1F
100
AcDbEntity
  8
虚线
 62
     0
100
AcDbLine
 10
-3639.043994539803
 20
-11020.68788597907
 30
0.0
 11
-3788.563616821619
 21
-10595.62925213502
 31
0.0
  0
ARC
  5
7751
330
1F
100
AcDbEntity
  8
虚线
 62
     0
100
AcDbCircle
 10
-3582.44366513207
 20
-11000.77802131514
 30
0.0
 40
60.0
100
AcDbArc
 50
199.3799521935705
 51
268.8679908126967
  0
LINE
  5
7752
330
1F
100
AcDbEntity
  8
粗实线
  6
Continuous
 62
     7
100
AcDbLine
 10
-5886.657399220493
 20
-10812.23977286538
 30
0.0
 11
-5886.657399220494
 21
-10419.73977286539
 31
0.0
  0
ARC
  5
7753
330
1F
100
AcDbEntity
  8
粗实线
  6
Continuous
 62
     7
100
AcDbCircle
 10
-5876.657399220552
 20
-10419.73977286539
 30
0.0
 40
9.999999999959998
100
AcDbArc
 50
90.0
 51
180.0
  0
LINE
  5
7754
102
{ACAD_REACTORS
330
775A
102
}
330
1F
100
AcDbEntity
  8
粗实线
  6
Continuous
 62
     7
100
AcDbLine
 10
-5886.657399220493
 20
-10812.23977286538
 30
0.0
 11
-5886.657399220492
 21
-11199.73977286537
 31
0.0
  0
LINE
  5
7755
102
{ACAD_REACTORS
330
775A
330
778B
102
}
330
1F
100
AcDbEntity
  8
粗实线
  6
Continuous
 62
     7
100
AcDbLine
 10
-5816.657399220494
 20
-10544.73977286543
 30
0.0
 11
-5816.657399220492
 21
-11074.73977286534
 31
0.0
  0
ARC
  5
7756
330
1F
100
AcDbEntity
  8
粗实线
  6
Continuous
 62
     7
100
AcDbCircle
 10
-5752.215694039719
 20
-11075.44742962155
 30
0.0
 40
64.44559057600681
100
AcDbArc
 50
179.3708404258414
 51
266.0479394888944
  0
ARC
  5
7757
330
1F
100
AcDbEntity
  8
粗实线
  6
Continuous
 62
     7
100
AcDbCircle
 10
-5876.657399220551
 20
-11199.73977286537
 30
0.0
 40
9.999999999959998
100
AcDbArc
 50
180.0
 51
270.0
  0
DIMENSION
  5
7758
102
{ACAD_XDICTIONARY
360
7759
102
}
102
{ACAD_REACTORS
330
775A
102
}
330
1F
100
AcDbEntity
  8
0
100
AcDbDimension
280
     0
  2
*D118
 10
-4466.657399221833
 20
-10264.43848376225
 30
0.0
 11
-5176.657399221163
 21
-10232.56348376226
 31
0.0
 70
    32
 71
     5
 42
1419.99999999866
 73
     0
 74
     0
 75
     0
  3
Standard
100
AcDbAlignedDimension
 13
-5886.657399220493
 23
-10812.23977286538
 33
0.0
 14
-4466.657399221833
 24
-10812.23977286538
 34
0.0
100
AcDbRotatedDimension
1001
ACAD
1000
DSTYLE
1002
{
1070
    74
1070
     1
1002
}
  0
DIMENSION
  5
775B
102
{ACAD_XDICTIONARY
360
775C
102
}
102
{ACAD_REACTORS
330
775D
102
}
330
1F
100
AcDbEntity
  8
0
100
AcDbDimension
280
     0
  2
*D119
 10
-6083.867321994699
 20
-11209.73977286534
 30
0.0
 11
-6115.742321994698
 21
-10809.73977286538
 31
0.0
 70
    32
 71
     5
 42
799.9999999999054
 73
     0
 74
     0
 75
     0
  3
Standard
100
AcDbAlignedDimension
 13
-5236.657399221163
 23
-10409.73977286543
 33
0.0
 14
-5236.657399221163
 24
-11209.73977286534
 34
0.0
 50
90.0
100
AcDbRotatedDimension
1001
ACAD
1000
DSTYLE
1002
{
1070
    74
1070
     1
1002
}
  0
LINE
  5
775E
102
{ACAD_REACTORS
330
7773
102
}
330
1F
100
AcDbEntity
  8
粗实线
  6
Continuous
 62
     7
100
AcDbLine
 10
-5596.657399221832
 20
-10999.73977286566
 30
0.0
 11
-5596.657399221834
 21
-10619.73977286511
 31
0.0
  0
ARC
  5
775F
330
1F
100
AcDbEntity
  8
粗实线
  6
Continuous
 62
     7
100
AcDbCircle
 10
-5536.657399221832
 20
-10999.73977286565
 30
0.0
 40
60.0
100
AcDbArc
 50
180.0
 51
270.0
  0
DIMENSION
  5
7760
102
{ACAD_XDICTIONARY
360
7761
102
}
102
{ACAD_REACTORS
330
7762
102
}
330
1F
100
AcDbEntity
  8
0
100
AcDbDimension
280
     0
  2
*D120
 10
-4466.657399221833
 20
-10724.92072557354
 30
0.0
 11
-4591.525257454797
 21
-10693.04572557354
 31
0.0
 70
    32
 71
     5
 42
249.7357164659288
 73
     0
 74
     0
 75
     0
  3
Standard
100
AcDbAlignedDimension
 13
-4716.393115687761
 23
-10813.17727286538
 33
0.0
 14
-4466.657399221833
 24
-10813.17727286538
 34
0.0
100
AcDbRotatedDimension
1001
ACAD
1000
DSTYLE
1002
{
1070
    74
1070
     1
1002
}
  0
LINE
  5
7763
102
{ACAD_REACTORS
330
776A
102
}
330
1F
100
AcDbEntity
  8
0
370
    30
100
AcDbLine
 10
-3863.644751427517
 20
-10595.62925213502
 30
0.0
 11
-3863.644751427517
 21
-10620.62925213502
 31
0.0
  0
LINE
  5
7764
330
1F
100
AcDbEntity
  8
0
370
    30
100
AcDbLine
 10
-2443.644751428847
 20
-10595.62925213502
 30
0.0
 11
-2443.644751428847
 21
-10620.62925213502
 31
0.0
  0
DIMENSION
  5
7765
102
{ACAD_XDICTIONARY
360
7766
102
}
102
{ACAD_REACTORS
330
7767
102
}
330
1F
100
AcDbEntity
  8
0
100
AcDbDimension
280
     0
  2
*D121
 10
-2442.372695529541
 20
-10595.62925213502
 30
0.0
 11
-2442.372695529539
 21
-10845.71927532946
 31
0.0
 70
   160
 71
     5
 42
500.1800463888848
 73
     0
 74
     0
 75
     0
  3
Standard
100
AcDbAlignedDimension
 13
-2689.014197507127
 23
-11095.80929852391
 33
0.0
 14
-2689.014197507127
 24
-10595.62925213502
 34
0.0
 50
90.0
100
AcDbRotatedDimension
1001
ACAD
1000
DSTYLE
1002
{
1070
    74
1070
     1
1002
}
  0
DIMENSION
  5
7768
102
{ACAD_XDICTIONARY
360
7769
102
}
102
{ACAD_REACTORS
330
776A
102
}
330
1F
100
AcDbEntity
  8
0
100
AcDbDimension
280
     0
  2
*D122
 10
-2443.644751428847
 20
-10475.62123464681
 30
0.0
 11
-3153.644751428182
 21
-10443.74623464681
 31
0.0
 70
    32
 71
     5
 42
1419.999999998669
 73
     0
 74
     0
 75
     0
  3
Standard
100
AcDbAlignedDimension
 13
-3863.644751427517
 23
-10620.62925213502
 33
0.0
 14
-2443.644751428847
 24
-10621.56675213502
 34
0.0
100
AcDbRotatedDimension
1001
ACAD
1000
DSTYLE
1002
{
1070
    74
1070
     1
1002
}
  0
DIMENSION
  5
776E
102
{ACAD_XDICTIONARY
360
776F
102
}
102
{ACAD_REACTORS
330
7770
102
}
330
1F
100
AcDbEntity
  8
0
100
AcDbDimension
280
     0
  2
*D123
 10
-2739.920005371126
 20
-10595.62925213502
 30
0.0
 11
-2771.795005371124
 21
-10837.6907578473
 31
0.0
 70
    32
 71
     5
 42
484.1230114245608
 73
     0
 74
     0
 75
     0
  3
Standard
100
AcDbAlignedDimension
 13
-2602.794602091688
 23
-11079.75226355958
 33
0.0
 14
-2580.846283972822
 24
-10595.62925213502
 34
0.0
 50
90.0
100
AcDbRotatedDimension
1001
ACAD
1000
DSTYLE
1002
{
1070
    74
1070
     1
1002
}
  0
DIMENSION
  5
7771
102
{ACAD_XDICTIONARY
360
7772
102
}
102
{ACAD_REACTORS
330
7773
102
}
330
1F
100
AcDbEntity
  8
0
100
AcDbDimension
280
     0
  2
*D124
 10
-4616.657399221834
 20
-10332.20401295771
 30
0.0
 11
-5106.657399221833
 21
-10300.32901295772
 31
0.0
 70
    32
 71
     5
 42
979.9999999999991
 73
     0
 74
     0
 75
     0
  3
Standard
100
AcDbAlignedDimension
 13
-5596.657399221832
 23
-10809.73977286538
 33
0.0
 14
-4616.657399221834
 24
-10809.73977286538
 34
0.0
100
AcDbRotatedDimension
1001
ACAD
1000
DSTYLE
1002
{
1070
    74
1070
     1
1002
}
  0
DIMENSION
  5
7774
102
{ACAD_XDICTIONARY
360
7775
102
}
102
{ACAD_REACTORS
330
7776
102
}
330
1F
100
AcDbEntity
  8
0
100
AcDbDimension
280
     0
  2
*D125
 10
-5935.965924472893
 20
-11059.73977286565
 30
0.0
 11
-5967.840924472891
 21
-10809.73977286538
 31
0.0
 70
    32
 71
     5
 42
500.0000000005456
 73
     0
 74
     0
 75
     0
  3
Standard
100
AcDbAlignedDimension
 13
-5106.657399221834
 23
-10559.73977286511
 33
0.0
 14
-5106.657399221834
 24
-11059.73977286565
 34
0.0
 50
90.0
100
AcDbRotatedDimension
1001
ACAD
1000
DSTYLE
1002
{
1070
    74
1070
     1
1002
}
  0
DIMENSION
  5
7786
102
{ACAD_XDICTIONARY
360
7787
102
}
102
{ACAD_REACTORS
330
7788
102
}
330
1F
100
AcDbEntity
  8
0
100
AcDbDimension
280
     0
  2
*D126
 10
-5999.814881837957
 20
-10479.73977286543
 30
0.0
 11
-5999.814881837955
 21
-10444.73977286543
 31
0.0
 70
   160
 71
     5
 42
70.0
 73
     0
 74
     0
 75
     0
  3
Standard
100
AcDbAlignedDimension
 13
-5556.657399220858
 23
-10409.73977286543
 33
0.0
 14
-5556.657399220858
 24
-10479.73977286543
 34
0.0
 50
90.0
100
AcDbRotatedDimension
1001
ACAD
1000
DSTYLE
1002
{
1070
    74
1070
     1
1002
}
  0
DIMENSION
  5
7789
102
{ACAD_XDICTIONARY
360
778A
102
}
102
{ACAD_REACTORS
330
778B
102
}
330
1F
100
AcDbEntity
  8
0
100
AcDbDimension
280
     0
  2
*D127
 10
-5886.657399220492
 20
-11242.7493422197
 30
0.0
 11
-6004.782399220492
 21
-11210.8743422197
 31
0.0
 70
    32
 71
     5
 42
70.0
 73
     0
 74
     0
 75
     0
  3
Standard
100
AcDbAlignedDimension
 13
-5816.657399220492
 23
-11074.73977286534
 33
0.0
 14
-5886.657399220492
 24
-11059.73977286565
 34
0.0
100
AcDbRotatedDimension
1001
ACAD
1000
DSTYLE
1002
{
1070
    74
1070
     1
1002
}
  0
DIMENSION
  5
778C
102
{ACAD_XDICTIONARY
360
778D
102
}
102
{ACAD_REACTORS
330
778E
102
}
330
1F
100
AcDbEntity
  8
0
100
AcDbDimension
280
     0
  2
*D128
 10
-4424.686005921073
 20
-11209.73977286534
 30
0.0
 11
-4467.811005921072
 21
-11252.86477286534
 31
0.0
 70
    32
 71
     5
 42
70.0
 73
     0
 74
     0
 75
     0
  3
Standard
100
AcDbAlignedDimension
 13
-4596.657399221832
 23
-11139.73977286534
 33
0.0
 14
-4596.657399221832
 24
-11209.73977286534
 34
0.0
 50
90.0
100
AcDbRotatedDimension
1001
ACAD
1000
DSTYLE
1002
{
1070
    74
1070
     1
1002
}
  0
DIMENSION
  5
7792
102
{ACAD_XDICTIONARY
360
7793
102
}
102
{ACAD_REACTORS
330
7794
102
}
330
1F
100
AcDbEntity
  8
0
100
AcDbDimension
280
     0
  2
*D129
 10
-4536.657399221833
 20
-10999.73977286565
 30
0.0
 11
-4418.532399221833
 21
-10967.86477286566
 31
0.0
 70
    32
 71
     5
 42
80.0
 73
     0
 74
     0
 75
     0
  3
Standard
100
AcDbAlignedDimension
 13
-4616.657399221832
 23
-10999.73977286565
 33
0.0
 14
-4536.657399221833
 24
-10812.23977286538
 34
0.0
100
AcDbRotatedDimension
1001
ACAD
1000
DSTYLE
1002
{
1070
    74
1070
     1
1002
}
  0
CIRCLE
  5
7795
102
{ACAD_REACTORS
330
7798
102
}
330
1F
100
AcDbEntity
  8
0
100
AcDbCircle
 10
-4716.393115687761
 20
-10812.23977286538
 30
0.0
 40
25.0
  0
DIMENSION
  5
7796
102
{ACAD_XDICTIONARY
360
7797
102
}
102
{ACAD_REACTORS
330
7798
102
}
330
1F
100
AcDbEntity
  8
0
100
AcDbDimension
280
     0
  2
*D130
 10
-4693.036505649112
 20
-10821.1542985119
 30
0.0
 11
-4875.444555842371
 21
-10744.70667027933
 31
0.0
 70
    35
 71
     5
 42
49.99999999999864
 73
     0
 74
     0
 75
     0
  3
Standard
100
AcDbDiametricDimension
 15
-4739.749725726414
 25
-10803.32524721887
 35
0.0
 40
0.0
1001
ACAD
1000
DSTYLE
1002
{
1070
    74
1070
     1
1070
   288
1070
     1
1002
}
  0
DIMENSION
  5
7D3F
330
1F
100
AcDbEntity
  8
0
100
AcDbDimension
280
     0
  2
*D141
 10
-4466.657399221833
 20
-10541.1346150903
 30
0.0
 11
-4348.532399221832
 21
-10509.2596150903
 31
0.0
 70
    32
 71
     5
 42
70.0
 73
     0
 74
     0
 75
     0
  3
Standard
100
AcDbAlignedDimension
 13
-4536.657399221833
 23
-10561.12814291155
 33
0.0
 14
-4466.657399221833
 24
-10561.12814291155
 34
0.0
100
AcDbRotatedDimension
1001
ACAD
1000
DSTYLE
1002
{
1070
    74
1070
     1
1002
}
  0
ENDSEC
  0
SECTION
  2
OBJECTS
  0
DICTIONARY
  5
C
330
0
100
AcDbDictionary
281
     1
  3
ACAD_CIP_PREVIOUS_PRODUCT_INFO
350
7DA8
  3
ACAD_COLOR
350
73
  3
ACAD_DETAILVIEWSTYLE
350
7D9F
  3
ACAD_GROUP
350
D
  3
ACAD_LAYOUT
350
1A
  3
ACAD_MATERIAL
350
72
  3
ACAD_MLEADERSTYLE
350
7D9B
  3
ACAD_MLINESTYLE
350
17
  3
ACAD_PLOTSETTINGS
350
19
  3
ACAD_PLOTSTYLENAME
350
E
  3
ACAD_SCALELIST
350
7D89
  3
ACAD_SECTIONVIEWSTYLE
350
7D9D
  3
ACAD_TABLESTYLE
350
86
  3
ACAD_VISUALSTYLE
350
97
  3
ACDB_RECOMPOSE_DATA
350
7DDB
  3
AcDbVariableDictionary
350
66
  0
DICTIONARY
  5
937
330
8
100
AcDbDictionary
280
     1
281
     1
  0
DICTIONARY
  5
CB
330
2
100
AcDbDictionary
280
     1
281
     1
  3
ACAD_LAYERSTATES
360
CC
  0
DICTIONARY
  5
7DA9
330
10
100
AcDbDictionary
280
     1
281
     1
  3
ADSK_XREC_LAYER_RECONCILED
360
7DAA
  0
DICTIONARY
  5
7DAB
330
C5
100
AcDbDictionary
280
     1
281
     1
  3
ADSK_XREC_LAYER_RECONCILED
360
7DAC
  0
DICTIONARY
  5
7DAD
330
C6
100
AcDbDictionary
280
     1
281
     1
  3
ADSK_XREC_LAYER_RECONCILED
360
7DAE
  0
DICTIONARY
  5
7DAF
330
C7
100
AcDbDictionary
280
     1
281
     1
  3
ADSK_XREC_LAYER_RECONCILED
360
7DB0
  0
DICTIONARY
  5
7DB1
330
C8
100
AcDbDictionary
280
     1
281
     1
  3
ADSK_XREC_LAYER_RECONCILED
360
7DB2
  0
DICTIONARY
  5
7DB3
330
26A
100
AcDbDictionary
280
     1
281
     1
  3
ADSK_XREC_LAYER_RECONCILED
360
7DB4
  0
DICTIONARY
  5
7DB5
330
26B
100
AcDbDictionary
280
     1
281
     1
  3
ADSK_XREC_LAYER_RECONCILED
360
7DB6
  0
DICTIONARY
  5
7DB7
330
26C
100
AcDbDictionary
280
     1
281
     1
  3
ADSK_XREC_LAYER_RECONCILED
360
7DB8
  0
DICTIONARY
  5
7DB9
330
26D
100
AcDbDictionary
280
     1
281
     1
  3
ADSK_XREC_LAYER_RECONCILED
360
7DBA
  0
DICTIONARY
  5
7DBB
330
52B
100
AcDbDictionary
280
     1
281
     1
  3
ADSK_XREC_LAYER_RECONCILED
360
7DBC
  0
DICTIONARY
  5
7DBD
330
3C36
100
AcDbDictionary
280
     1
281
     1
  3
ADSK_XREC_LAYER_RECONCILED
360
7DBE
  0
DICTIONARY
  5
FB6
330
1F
100
AcDbDictionary
280
     1
281
     1
  3
ACAD_SORTENTS
360
FB7
  0
DICTIONARY
  5
7759
330
7758
100
AcDbDictionary
280
     1
281
     1
  3
ACAD_DIMASSOC
360
775A
  0
DICTIONARY
  5
775C
330
775B
100
AcDbDictionary
280
     1
281
     1
  3
ACAD_DIMASSOC
360
775D
  0
DICTIONARY
  5
7761
330
7760
100
AcDbDictionary
280
     1
281
     1
  3
ACAD_DIMASSOC
360
7762
  0
DICTIONARY
  5
7766
330
7765
100
AcDbDictionary
280
     1
281
     1
  3
ACAD_DIMASSOC
360
7767
  0
DICTIONARY
  5
7769
330
7768
100
AcDbDictionary
280
     1
281
     1
  3
ACAD_DIMASSOC
360
776A
  0
DICTIONARY
  5
776F
330
776E
100
AcDbDictionary
280
     1
281
     1
  3
ACAD_DIMASSOC
360
7770
  0
DICTIONARY
  5
7772
330
7771
100
AcDbDictionary
280
     1
281
     1
  3
ACAD_DIMASSOC
360
7773
  0
DICTIONARY
  5
7775
330
7774
100
AcDbDictionary
280
     1
281
     1
  3
ACAD_DIMASSOC
360
7776
  0
DICTIONARY
  5
7787
330
7786
100
AcDbDictionary
280
     1
281
     1
  3
ACAD_DIMASSOC
360
7788
  0
DICTIONARY
  5
778A
330
7789
100
AcDbDictionary
280
     1
281
     1
  3
ACAD_DIMASSOC
360
778B
  0
DICTIONARY
  5
778D
330
778C
100
AcDbDictionary
280
     1
281
     1
  3
ACAD_DIMASSOC
360
778E
  0
DICTIONARY
  5
7793
330
7792
100
AcDbDictionary
280
     1
281
     1
  3
ACAD_DIMASSOC
360
7794
  0
DICTIONARY
  5
7797
330
7796
100
AcDbDictionary
280
     1
281
     1
  3
ACAD_DIMASSOC
360
7798
  0
XRECORD
  5
7DA8
102
{ACAD_REACTORS
330
C
102
}
330
C
100
AcDbXrecord
280
     1
300
ACD
300
2017
300
ACD_F_S
  0
DICTIONARY
  5
73
102
{ACAD_REACTORS
330
C
102
}
330
C
100
AcDbDictionary
281
     1
  0
DICTIONARY
  5
7D9F
102
{ACAD_REACTORS
330
C
102
}
330
C
100
AcDbDictionary
281
     1
  3
Imperial24
350
7DA0
  0
DICTIONARY
  5
D
102
{ACAD_REACTORS
330
C
102
}
330
C
100
AcDbDictionary
281
     1
  0
DICTIONARY
  5
1A
102
{ACAD_REACTORS
330
C
102
}
330
C
100
AcDbDictionary
281
     1
  3
Model
350
22
  3
布局1
350
59
  3
布局2
350
5E
1001
AcadStringInfo
1000
MIFCodePage
1070
     5
  0
DICTIONARY
  5
72
102
{ACAD_REACTORS
330
C
102
}
330
C
100
AcDbDictionary
281
     1
  3
ByBlock
350
95
  3
ByLayer
350
94
  3
Global
350
96
  0
DICTIONARY
  5
7D9B
102
{ACAD_REACTORS
330
C
102
}
330
C
100
AcDbDictionary
281
     1
  3
Standard
350
7D9C
  0
DICTIONARY
  5
17
102
{ACAD_REACTORS
330
C
102
}
330
C
100
AcDbDictionary
281
     1
  3
Standard
350
18
  0
DICTIONARY
  5
19
102
{ACAD_REACTORS
330
C
102
}
330
C
100
AcDbDictionary
281
     1
  0
ACDBDICTIONARYWDFLT
  5
E
102
{ACAD_REACTORS
330
C
102
}
330
C
100
AcDbDictionary
281
     1
  3
Normal
350
F
100
AcDbDictionaryWithDefault
340
F
  0
DICTIONARY
  5
7D89
102
{ACAD_REACTORS
330
C
102
}
330
C
100
AcDbDictionary
281
     1
  3
A0
350
7D8A
  3
A1
350
7D8B
  3
A2
350
7D8C
  3
A3
350
7D8D
  3
A4
350
7D8E
  3
A5
350
7D8F
  3
A6
350
7D90
  3
A7
350
7D91
  3
A8
350
7D92
  3
A9
350
7D93
  3
B0
350
7D94
  3
B1
350
7D95
  3
B2
350
7D96
  3
B3
350
7D97
  3
B4
350
7D98
  3
B5
350
7D99
  3
B6
350
7D9A
  0
DICTIONARY
  5
7D9D
102
{ACAD_REACTORS
330
C
102
}
330
C
100
AcDbDictionary
281
     1
  3
Imperial24
350
7D9E
  0
DICTIONARY
  5
86
102
{ACAD_REACTORS
330
C
102
}
330
C
100
AcDbDictionary
281
     1
  3
Standard
350
87
  0
DICTIONARY
  5
97
102
{ACAD_REACTORS
330
C
102
}
330
C
100
AcDbDictionary
281
     1
  3
2dWireframe
350
9D
  3
3D Hidden
350
9F
  3
3dWireframe
350
9E
  3
Basic
350
9C
  3
Brighten
350
A3
  3
ColorChange
350
A7
  3
Conceptual
350
A0
  3
Dim
350
A2
  3
EdgeColorOff
350
7D88
  3
Facepattern
350
A6
  3
Flat
350
98
  3
FlatWithEdges
350
99
  3
Gouraud
350
9A
  3
GouraudWithEdges
350
9B
  3
Hidden
350
7D80
  3
JitterOff
350
7D86
  3
Linepattern
350
A5
  3
OverhangOff
350
7D87
  3
Realistic
350
A1
  3
Shaded
350
7D85
  3
Shaded with edges
350
7D84
  3
Shades of Gray
350
7D81
  3
Sketchy
350
7D82
  3
Thicken
350
A4
  3
Wireframe
350
7D7F
  3
X-Ray
350
7D83
  0
XRECORD
  5
7DDB
102
{ACAD_REACTORS
330
C
102
}
330
C
100
AcDbXrecord
280
     1
 90
        1
330
87
330
7D9E
330
7DA0
  0
DICTIONARY
  5
66
102
{ACAD_REACTORS
330
C
102
}
330
C
100
AcDbDictionary
281
     1
  3
CANNOSCALE
350
7DD1
  3
CMLEADERSTYLE
350
7DCD
  3
CTABLESTYLE
350
8B
  3
CVIEWDETAILSTYLE
350
7DCE
  3
CVIEWSECTIONSTYLE
350
7DCF
  3
DIMASSOC
350
67
  3
HIDETEXT
350
6B
  3
LAYEREVAL
350
7DD3
  3
LAYERNOTIFY
350
7DD4
  3
LIGHTINGUNITS
350
7DD2
  3
MSLTSCALE
350
7DD0
  0
DICTIONARY
  5
CC
102
{ACAD_REACTORS
330
CB
102
}
330
CB
100
AcDbDictionary
281
     1
  0
XRECORD
  5
7DAA
102
{ACAD_REACTORS
330
7DA9
102
}
330
7DA9
100
AcDbXrecord
280
     1
290
     1
  0
XRECORD
  5
7DAC
102
{ACAD_REACTORS
330
7DAB
102
}
330
7DAB
100
AcDbXrecord
280
     1
290
     1
  0
XRECORD
  5
7DAE
102
{ACAD_REACTORS
330
7DAD
102
}
330
7DAD
100
AcDbXrecord
280
     1
290
     1
  0
XRECORD
  5
7DB0
102
{ACAD_REACTORS
330
7DAF
102
}
330
7DAF
100
AcDbXrecord
280
     1
290
     1
  0
XRECORD
  5
7DB2
102
{ACAD_REACTORS
330
7DB1
102
}
330
7DB1
100
AcDbXrecord
280
     1
290
     1
  0
XRECORD
  5
7DB4
102
{ACAD_REACTORS
330
7DB3
102
}
330
7DB3
100
AcDbXrecord
280
     1
290
     1
  0
XRECORD
  5
7DB6
102
{ACAD_REACTORS
330
7DB5
102
}
330
7DB5
100
AcDbXrecord
280
     1
290
     1
  0
XRECORD
  5
7DB8
102
{ACAD_REACTORS
330
7DB7
102
}
330
7DB7
100
AcDbXrecord
280
     1
290
     1
  0
XRECORD
  5
7DBA
102
{ACAD_REACTORS
330
7DB9
102
}
330
7DB9
100
AcDbXrecord
280
     1
290
     1
  0
XRECORD
  5
7DBC
102
{ACAD_REACTORS
330
7DBB
102
}
330
7DBB
100
AcDbXrecord
280
     1
290
     1
  0
XRECORD
  5
7DBE
102
{ACAD_REACTORS
330
7DBD
102
}
330
7DBD
100
AcDbXrecord
280
     1
290
     1
  0
SORTENTSTABLE
  5
FB7
102
{ACAD_REACTORS
330
FB6
102
}
330
FB6
100
AcDbSortentsTable
330
1F
  0
DIMASSOC
  5
775A
102
{ACAD_REACTORS
330
7759
102
}
330
7759
100
AcDbDimAssoc
330
7758
 90
        3
 70
     0
 71
     0
  1
AcDbOsnapPointRef
 72
     6
331
7754
 73
     2
 91
        0
 40
0.0
 10
0.0
 20
0.0
 30
0.0
332
7732
 74
     2
 92
        0
 75
     0
  1
AcDbOsnapPointRef
 72
    13
331
772B
 73
     2
 91
        0
 40
0.0
 10
0.0
 20
0.0
 30
2.000000000000000E+50
 75
     0
  0
DIMASSOC
  5
775D
102
{ACAD_REACTORS
330
775C
102
}
330
775C
100
AcDbDimAssoc
330
775B
 90
        3
 70
     0
 71
     0
  1
AcDbOsnapPointRef
 72
     1
331
773F
 73
     2
 91
        0
 40
1.0
 10
0.0
 20
0.0
 30
2.000000000000000E+50
 75
     0
  1
AcDbOsnapPointRef
 72
     1
331
7740
 73
     2
 91
        0
 40
1.0
 10
0.0
 20
0.0
 30
2.000000000000000E+50
 75
     0
  0
DIMASSOC
  5
7762
102
{ACAD_REACTORS
330
7761
102
}
330
7761
100
AcDbDimAssoc
330
7760
 90
        3
 70
     0
 71
     0
  1
AcDbOsnapPointRef
 72
     3
331
772D
 73
     2
 91
        0
 40
0.0
 10
0.0
 20
0.0
 30
0.0
 75
     0
  1
AcDbOsnapPointRef
 72
     8
331
773C
 73
     2
 91
        0
 40
0.0023437500000012
 10
0.0
 20
0.0
 30
0.0
 75
     1
  1
AcDbOsnapPointRef
 72
     3
331
772D
 73
     2
 91
        0
 40
0.0
 10
0.0
 20
0.0
 30
0.0
 75
     0
  0
DIMASSOC
  5
7767
102
{ACAD_REACTORS
330
7766
102
}
330
7766
100
AcDbDimAssoc
330
7765
 90
        3
 70
     0
 71
     0
  1
AcDbOsnapPointRef
 72
     2
331
7747
 73
     2
 91
        0
 40
0.5
 10
0.0
 20
0.0
 30
0.0
 75
     0
  1
AcDbOsnapPointRef
 72
     8
331
7724
 73
     2
 91
        0
 40
0.8105215748509086
 10
0.0
 20
0.0
 30
0.0
 75
     1
  1
AcDbOsnapPointRef
 72
     2
331
7747
 73
     2
 91
        0
 40
0.5
 10
0.0
 20
0.0
 30
0.0
 75
     0
  0
DIMASSOC
  5
776A
102
{ACAD_REACTORS
330
7769
102
}
330
7769
100
AcDbDimAssoc
330
7768
 90
        1
 70
     0
 71
     0
  1
AcDbOsnapPointRef
 72
     1
331
7763
 73
     2
 91
        0
 40
1.0
 10
0.0
 20
0.0
 30
2.000000000000000E+50
 75
     0
  0
DIMASSOC
  5
7770
102
{ACAD_REACTORS
330
776F
102
}
330
776F
100
AcDbDimAssoc
330
776E
 90
        1
 70
     0
 71
     0
  1
AcDbOsnapPointRef
 72
    13
331
772F
 73
     2
 91
        0
 40
0.0
 10
0.0
 20
0.0
 30
2.000000000000000E+50
 75
     0
  0
DIMASSOC
  5
7773
102
{ACAD_REACTORS
330
7772
102
}
330
7772
100
AcDbDimAssoc
330
7771
 90
        3
 70
     0
 71
     0
  1
AcDbOsnapPointRef
 72
     2
331
775E
 73
     2
 91
        0
 40
0.5
 10
0.0
 20
0.0
 30
0.0
 75
     0
  1
AcDbOsnapPointRef
 72
     2
331
773A
 73
     2
 91
        0
 40
0.4999999999999995
 10
0.0
 20
0.0
 30
0.0
 75
     0
  0
DIMASSOC
  5
7776
102
{ACAD_REACTORS
330
7775
102
}
330
7775
100
AcDbDimAssoc
330
7774
 90
        3
 70
     0
 71
     0
  1
AcDbOsnapPointRef
 72
     6
331
7734
 73
     2
 91
        0
 40
0.7952645280211507
 10
0.0
 20
0.0
 30
0.0
332
7725
 74
     2
 92
        0
 75
     0
  1
AcDbOsnapPointRef
 72
     8
331
7735
 73
     2
 91
        0
 40
0.4166666666674627
 10
0.0
 20
0.0
 30
0.0
 75
     1
  1
AcDbOsnapPointRef
 72
     6
331
7734
 73
     2
 91
        0
 40
0.7952645280211507
 10
0.0
 20
0.0
 30
0.0
332
7725
 74
     2
 92
        0
 75
     0
  0
DIMASSOC
  5
7788
102
{ACAD_REACTORS
330
7787
102
}
330
7787
100
AcDbDimAssoc
330
7786
 90
        3
 70
     0
 71
     0
  1
AcDbOsnapPointRef
 72
     2
331
773F
 73
     2
 91
        0
 40
0.5
 10
0.0
 20
0.0
 30
0.0
 75
     0
  1
AcDbOsnapPointRef
 72
     8
331
7728
 73
     2
 91
        0
 40
0.8318584070797687
 10
0.0
 20
0.0
 30
0.0
 75
     1
  1
AcDbOsnapPointRef
 72
     2
331
773F
 73
     2
 91
        0
 40
0.5
 10
0.0
 20
0.0
 30
0.0
 75
     0
  0
DIMASSOC
  5
778B
102
{ACAD_REACTORS
330
778A
102
}
330
778A
100
AcDbDimAssoc
330
7789
 90
        1
 70
     0
 71
     0
  1
AcDbOsnapPointRef
 72
     1
331
7755
 73
     2
 91
        0
 40
1.0
 10
0.0
 20
0.0
 30
2.000000000000000E+50
 75
     0
  0
DIMASSOC
  5
778E
102
{ACAD_REACTORS
330
778D
102
}
330
778D
100
AcDbDimAssoc
330
778C
 90
        3
 70
     0
 71
     0
  1
AcDbOsnapPointRef
 72
    13
331
7738
 73
     2
 91
        0
 40
0.0
 10
0.0
 20
0.0
 30
2.000000000000000E+50
 75
     0
  1
AcDbOsnapPointRef
 72
     8
331
7737
 73
     2
 91
        0
 40
0.1666666666668801
 10
0.0
 20
0.0
 30
0.0
 75
     1
  1
AcDbOsnapPointRef
 72
    13
331
7738
 73
     2
 91
        0
 40
0.0
 10
0.0
 20
0.0
 30
2.000000000000000E+50
 75
     0
  0
DIMASSOC
  5
7794
102
{ACAD_REACTORS
330
7793
102
}
330
7793
100
AcDbDimAssoc
330
7792
 90
        2
 70
     0
 71
     0
  1
AcDbOsnapPointRef
 72
     8
331
773D
 73
     2
 91
        0
 40
0.5046296296296305
 10
0.0
 20
0.0
 30
0.0
 75
     1
  1
AcDbOsnapPointRef
 72
     6
331
773A
 73
     2
 91
        0
 40
0.4934210526315879
 10
0.0
 20
0.0
 30
0.0
332
7732
 74
     2
 92
        0
 75
     0
  0
DIMASSOC
  5
7798
102
{ACAD_REACTORS
330
7797
102
}
330
7797
100
AcDbDimAssoc
330
7796
 90
        2
 70
     0
 71
     0
  1
AcDbOsnapPointRef
 72
     3
331
7795
 73
     2
 91
        0
 40
0.0
 10
0.0
 20
0.0
 30
0.0
 75
     0
  0
ACDBDETAILVIEWSTYLE
  5
7DA0
102
{ACAD_XDICTIONARY
360
7DD9
102
}
102
{ACAD_REACTORS
330
7D9F
102
}
330
7D9F
100
AcDbModelDocViewStyle
 70
     0
  3
Imperial24
290
     0
100
AcDbDetailViewStyle
 70
     0
 71
     0
 90
        3
 71
     1
340
11
 62
   256
 40
0.24
340
0
 62
   256
 40
0.24
300

 40
0.36
280
     3
 71
     2
340
16
 90
       25
 62
   256
 71
     3
340
11
 62
   256
 40
0.24
 90
        1
 40
0.75
 90
        1
300
%<\AcVar ViewType \f "%tc1">% %<\AcVar ViewDetailId>%\PSCALE %<\AcVar ViewScale \f "%sn">%
 71
     4
340
16
 90
       25
 62
   256
340
16
 90
       25
 62
   256
280
     0
  0
LAYOUT
  5
22
102
{ACAD_REACTORS
330
1A
102
}
330
1A
100
AcDbPlotSettings
  1

  2
DWG To PDF.pc3
  4
ISO_expand_A4_(210.00_x_297.00_MM)
  6

 40
5.793749809265136
 41
10.79374980926513
 42
5.793746948242187
 43
10.79376220703125
 44
210.0
 45
297.0
 46
0.0
 47
5.584311844874662
 48
4892.983353965359
 49
-12691.75303121942
140
9347.983353965359
141
-9346.632022233599
142
1.0
143
16.85942646919551
 70
 11956
 72
     1
 73
     1
 74
     4
  7
acad.ctb
 75
     0
147
0.0593139987191817
 76
     0
 77
     2
 78
   300
148
-4892.983353965359
149
12691.75303121942
100
AcDbLayout
  1
Model
 70
     1
 71
     0
 10
0.0
 20
0.0
 11
12.0
 21
9.0
 12
0.0
 22
0.0
 32
0.0
 14
0.0
 24
0.0
 34
0.0
 15
0.0
 25
0.0
 35
0.0
146
0.0
 13
0.0
 23
0.0
 33
0.0
 16
1.0
 26
0.0
 36
0.0
 17
0.0
 27
1.0
 37
0.0
 76
     0
330
1F
331
92
1001
ACAD_PSEXT
1000
DWG To PDF.pc3
1000
PDF
1000
文件
1000

1070
     0
  0
LAYOUT
  5
59
102
{ACAD_REACTORS
330
1A
102
}
330
1A
100
AcDbPlotSettings
  1

  2
None
  4

  6

 40
0.0
 41
0.0
 42
0.0
 43
0.0
 44
0.0
 45
0.0
 46
0.0
 47
0.0
 48
0.0
 49
0.0
140
0.0
141
0.0
142
1.0
143
1.0
 70
   688
 72
     0
 73
     0
 74
     5
  7
acad.ctb
 75
    16
147
1.0
 76
     0
 77
     2
 78
   300
148
0.0
149
0.0
100
AcDbLayout
  1
布局1
 70
     1
 71
     1
 10
0.0
 20
0.0
 11
12.0
 21
9.0
 12
0.0
 22
0.0
 32
0.0
 14
0.0
 24
0.0
 34
0.0
 15
0.0
 25
0.0
 35
0.0
146
0.0
 13
0.0
 23
0.0
 33
0.0
 16
1.0
 26
0.0
 36
0.0
 17
0.0
 27
1.0
 37
0.0
 76
     0
330
58
1001
AcadStringInfo
1000
MIFCodePage
1070
     5
  0
LAYOUT
  5
5E
102
{ACAD_REACTORS
330
1A
102
}
330
1A
100
AcDbPlotSettings
  1

  2
None
  4

  6

 40
0.0
 41
0.0
 42
0.0
 43
0.0
 44
0.0
 45
0.0
 46
0.0
 47
0.0
 48
0.0
 49
0.0
140
0.0
141
0.0
142
1.0
143
1.0
 70
   688
 72
     0
 73
     0
 74
     5
  7
acad.ctb
 75
    16
147
1.0
 76
     0
 77
     2
 78
   300
148
0.0
149
0.0
100
AcDbLayout
  1
布局2
 70
     1
 71
     2
 10
0.0
 20
0.0
 11
12.0
 21
9.0
 12
0.0
 22
0.0
 32
0.0
 14
0.0
 24
0.0
 34
0.0
 15
0.0
 25
0.0
 35
0.0
146
0.0
 13
0.0
 23
0.0
 33
0.0
 16
1.0
 26
0.0
 36
0.0
 17
0.0
 27
1.0
 37
0.0
 76
     0
330
5D
1001
AcadStringInfo
1000
MIFCodePage
1070
     5
  0
MATERIAL
  5
95
102
{ACAD_REACTORS
330
72
102
}
330
72
100
AcDbMaterial
  1
ByBlock
 73
     1
 78
     1
172
     1
176
     1
270
     1
274
     1
 94
       63
  0
MATERIAL
  5
94
102
{ACAD_REACTORS
330
72
102
}
330
72
100
AcDbMaterial
  1
ByLayer
 73
     1
 78
     1
172
     1
176
     1
270
     1
274
     1
 94
       63
  0
MATERIAL
  5
96
102
{ACAD_REACTORS
330
72
102
}
330
72
100
AcDbMaterial
  1
Global
 73
     1
 78
     1
172
     1
176
     1
270
     1
274
     1
 94
       63
  0
MLEADERSTYLE
  5
7D9C
102
{ACAD_REACTORS
330
7D9B
102
}
330
7D9B
100
AcDbMLeaderStyle
179
     2
170
     2
171
     1
172
     0
 90
        2
 40
0.0
 41
0.0
173
     1
 91
-1056964608
340
14
 92
       -2
290
     1
 42
0.09
291
     1
 43
0.36
  3
Standard
 44
0.18
300

342
11
174
     1
178
     6
175
     1
176
     0
 93
-1056964608
 45
0.18
292
     0
297
     0
 46
0.18
 94
-1056964608
 47
1.0
 49
1.0
140
1.0
293
     1
141
0.0
294
     1
177
     0
142
1.0
295
     1
296
     0
143
0.125
271
     0
272
     9
273
     9
298
     1
  0
MLINESTYLE
  5
18
102
{ACAD_REACTORS
330
17
102
}
330
17
100
AcDbMlineStyle
  2
STANDARD
 70
     0
  3

 62
   256
 51
90.0
 52
90.0
 71
     2
 49
0.5
 62
   256
  6
BYLAYER
 49
-0.5
 62
   256
  6
BYLAYER
  0
ACDBPLACEHOLDER
  5
F
102
{ACAD_REACTORS
330
E
102
}
330
E
  0
SCALE
  5
7D8A
102
{ACAD_REACTORS
330
7D89
102
}
330
7D89
100
AcDbScale
 70
     0
300
1:1
140
1.0
141
1.0
290
     1
  0
SCALE
  5
7D8B
102
{ACAD_REACTORS
330
7D89
102
}
330
7D89
100
AcDbScale
 70
     0
300
1/128" = 1'-0"
140
0.0078125
141
12.0
290
     0
  0
SCALE
  5
7D8C
102
{ACAD_REACTORS
330
7D89
102
}
330
7D89
100
AcDbScale
 70
     0
300
1/64" = 1'-0"
140
0.015625
141
12.0
290
     0
  0
SCALE
  5
7D8D
102
{ACAD_REACTORS
330
7D89
102
}
330
7D89
100
AcDbScale
 70
     0
300
1/32" = 1'-0"
140
0.03125
141
12.0
290
     0
  0
SCALE
  5
7D8E
102
{ACAD_REACTORS
330
7D89
102
}
330
7D89
100
AcDbScale
 70
     0
300
1/16" = 1'-0"
140
0.0625
141
12.0
290
     0
  0
SCALE
  5
7D8F
102
{ACAD_REACTORS
330
7D89
102
}
330
7D89
100
AcDbScale
 70
     0
300
3/32" = 1'-0"
140
0.09375
141
12.0
290
     0
  0
SCALE
  5
7D90
102
{ACAD_REACTORS
330
7D89
102
}
330
7D89
100
AcDbScale
 70
     0
300
1/8" = 1'-0"
140
0.125
141
12.0
290
     0
  0
SCALE
  5
7D91
102
{ACAD_REACTORS
330
7D89
102
}
330
7D89
100
AcDbScale
 70
     0
300
3/16" = 1'-0"
140
0.1875
141
12.0
290
     0
  0
SCALE
  5
7D92
102
{ACAD_REACTORS
330
7D89
102
}
330
7D89
100
AcDbScale
 70
     0
300
1/4" = 1'-0"
140
0.25
141
12.0
290
     0
  0
SCALE
  5
7D93
102
{ACAD_REACTORS
330
7D89
102
}
330
7D89
100
AcDbScale
 70
     0
300
3/8" = 1'-0"
140
0.375
141
12.0
290
     0
  0
SCALE
  5
7D94
102
{ACAD_REACTORS
330
7D89
102
}
330
7D89
100
AcDbScale
 70
     0
300
1/2" = 1'-0"
140
0.5
141
12.0
290
     0
  0
SCALE
  5
7D95
102
{ACAD_REACTORS
330
7D89
102
}
330
7D89
100
AcDbScale
 70
     0
300
3/4" = 1'-0"
140
0.75
141
12.0
290
     0
  0
SCALE
  5
7D96
102
{ACAD_REACTORS
330
7D89
102
}
330
7D89
100
AcDbScale
 70
     0
300
1" = 1'-0"
140
1.0
141
12.0
290
     0
  0
SCALE
  5
7D97
102
{ACAD_REACTORS
330
7D89
102
}
330
7D89
100
AcDbScale
 70
     0
300
1-1/2" = 1'-0"
140
1.5
141
12.0
290
     0
  0
SCALE
  5
7D98
102
{ACAD_REACTORS
330
7D89
102
}
330
7D89
100
AcDbScale
 70
     0
300
3" = 1'-0"
140
3.0
141
12.0
290
     0
  0
SCALE
  5
7D99
102
{ACAD_REACTORS
330
7D89
102
}
330
7D89
100
AcDbScale
 70
     0
300
6" = 1'-0"
140
6.0
141
12.0
290
     0
  0
SCALE
  5
7D9A
102
{ACAD_REACTORS
330
7D89
102
}
330
7D89
100
AcDbScale
 70
     0
300
1'-0" = 1'-0"
140
12.0
141
12.0
290
     0
  0
ACDBSECTIONVIEWSTYLE
  5
7D9E
102
{ACAD_XDICTIONARY
360
7DD7
102
}
102
{ACAD_REACTORS
330
7D9D
102
}
330
7D9D
100
AcDbModelDocViewStyle
 70
     0
  3
Imperial24
290
     0
100
AcDbSectionViewStyle
 70
     0
 71
     0
 90
       78
 71
     1
340
11
 62
   256
 40
0.24
340
0
340
0
 62
   256
 40
0.24
300
I, O, Q, S, X, Z
 40
0.48
 90
        3
 40
0.18
 90
        1
 71
     2
340
16
 90
       25
 62
   256
340
16
 90
       50
 62
   256
 40
0.24
 40
0.0
 40
0.24
 71
     3
340
11
 62
   256
 40
0.24
 90
        1
 40
0.75
 90
        1
300
%<\AcVar ViewType \f "%tc1">% %<\AcVar ViewSectionStartId>%-%<\AcVar ViewSectionEndId>%\PSCALE %<\AcVar ViewScale \f "%sn">%
 71
     4
 62
   256
 62
   257
300
ANSI31
 40
1.0
 90
        0
290
     0
290
     0
 90
        6
 40
0.0
 40
1.570796326794896
 40
0.2617993877991494
 40
1.308996938995747
 40
-0.2617993877991494
 40
1.832595714594046
  0
TABLESTYLE
  5
87
102
{ACAD_XDICTIONARY
360
7DD5
102
}
102
{ACAD_REACTORS
330
86
102
}
330
86
100
AcDbTableStyle
280
     0
  3
Standard
 70
     0
 71
     0
 40
0.06
 41
0.06
280
     0
281
     0
  7
Standard
140
0.18
170
     2
 62
     0
 63
     7
283
     0
 90
      512
 91
        0
  1

274
    -2
284
     1
 64
     0
275
    -2
285
     1
 65
     0
276
    -2
286
     1
 66
     0
277
    -2
287
     1
 67
     0
278
    -2
288
     1
 68
     0
279
    -2
289
     1
 69
     0
  7
Standard
140
0.25
170
     5
 62
     0
 63
     7
283
     0
 90
      512
 91
        0
  1

274
    -2
284
     1
 64
     0
275
    -2
285
     1
 65
     0
276
    -2
286
     1
 66
     0
277
    -2
287
     1
 67
     0
278
    -2
288
     1
 68
     0
279
    -2
289
     1
 69
     0
  7
Standard
140
0.18
170
     5
 62
     0
 63
     7
283
     0
 90
      512
 91
        0
  1

274
    -2
284
     1
 64
     0
275
    -2
285
     1
 65
     0
276
    -2
286
     1
 66
     0
277
    -2
287
     1
 67
     0
278
    -2
288
     1
 68
     0
279
    -2
289
     1
 69
     0
  0
VISUALSTYLE
  5
9D
102
{ACAD_REACTORS
330
97
102
}
330
97
100
AcDbVisualStyle
  2
2dWireframe
 70
     4
177
     3
291
     0
 70
    58
 90
        0
176
     1
 90
        2
176
     1
 90
        1
176
     1
 90
        0
176
     1
 40
0.6
176
     1
 40
30.0
176
     1
 62
     7
420
 16777215
176
     1
 90
        1
176
     1
 90
        4
176
     1
 62
     7
176
     1
 62
   257
176
     1
 90
        1
176
     1
 90
        1
176
     1
 40
1.0
176
     1
 90
        0
176
     1
 62
   257
176
     1
 40
1.0
176
     1
 90
        1
176
     1
 90
        6
176
     1
 90
        2
176
     1
 62
     7
176
     1
 90
        5
176
     1
 90
        0
176
     1
 90
        0
176
     1
290
     0
176
     1
 90
        1
176
     1
 40
0.0
176
     1
 90
        0
176
     1
290
     1
176
     1
290
     1
176
     1
290
     0
176
     1
290
     0
176
     1
290
     0
176
     1
290
     0
176
     1
290
     0
176
     1
290
     0
176
     1
290
     0
176
     1
 90
       50
176
     1
 40
0.0
176
     1
 40
1.0
176
     1
 90
        0
176
     1
 62
    18
420
        0
176
     1
 90
       50
176
     1
 90
        3
176
     1
 62
     5
420
      255
176
     1
290
     0
176
     1
 90
       50
176
     1
 90
       50
176
     1
 90
       50
176
     1
290
     0
176
     1
 90
       50
176
     1
 62
   256
176
     0
 40
1.0
176
     0
 90
        2
176
     1
  1
strokes_ogs.tif
176
     1
290
     0
176
     1
 40
1.0
176
     1
 40
1.0
176
     1
  0
VISUALSTYLE
  5
9F
102
{ACAD_REACTORS
330
97
102
}
330
97
100
AcDbVisualStyle
  2
3D Hidden
 70
     6
177
     3
291
     0
 70
    58
 90
        1
176
     1
 90
        2
176
     1
 90
        2
176
     1
 90
        0
176
     1
 40
0.6
176
     1
 40
30.0
176
     1
 62
     7
420
 16777215
176
     1
 90
        2
176
     1
 90
        2
176
     1
 62
     7
176
     1
 62
   257
176
     1
 90
        2
176
     1
 90
        1
176
     1
 40
40.0
176
     1
 90
        0
176
     1
 62
   257
176
     1
 40
1.0
176
     1
 90
        1
176
     1
 90
        6
176
     1
 90
        2
176
     1
 62
     7
176
     1
 90
        3
176
     1
 90
        0
176
     1
 90
        0
176
     1
290
     0
176
     1
 90
        1
176
     1
 40
0.0
176
     1
 90
        0
176
     1
290
     0
176
     1
290
     1
176
     1
290
     1
176
     1
290
     0
176
     1
290
     0
176
     1
290
     0
176
     1
290
     0
176
     1
290
     0
176
     1
290
     0
176
     1
 90
       50
176
     1
 40
0.0
176
     1
 40
1.0
176
     1
 90
        0
176
     1
 62
    18
420
        0
176
     1
 90
       50
176
     1
 90
        3
176
     1
 62
     5
420
      255
176
     1
290
     0
176
     1
 90
       50
176
     1
 90
       50
176
     1
 90
       50
176
     1
290
     0
176
     1
 90
       50
176
     1
 62
   256
176
     0
 40
1.0
176
     0
 90
        2
176
     1
  1
strokes_ogs.tif
176
     1
290
     0
176
     1
 40
1.0
176
     1
 40
1.0
176
     1
  0
VISUALSTYLE
  5
9E
102
{ACAD_REACTORS
330
97
102
}
330
97
100
AcDbVisualStyle
  2
3dWireframe
 70
     5
177
     3
291
     0
 70
    58
 90
        0
176
     1
 90
        2
176
     1
 90
        1
176
     1
 90
        0
176
     1
 40
0.6
176
     1
 40
30.0
176
     1
 62
     7
420
 16777215
176
     1
 90
        1
176
     1
 90
        4
176
     1
 62
     7
176
     1
 62
   257
176
     1
 90
        1
176
     1
 90
        1
176
     1
 40
1.0
176
     1
 90
        0
176
     1
 62
   257
176
     1
 40
1.0
176
     1
 90
        1
176
     1
 90
        6
176
     1
 90
        2
176
     1
 62
     7
176
     1
 90
        5
176
     1
 90
        0
176
     1
 90
        0
176
     1
290
     0
176
     1
 90
        1
176
     1
 40
0.0
176
     1
 90
        0
176
     1
290
     0
176
     1
290
     1
176
     1
290
     1
176
     1
290
     0
176
     1
290
     0
176
     1
290
     0
176
     1
290
     0
176
     1
290
     0
176
     1
290
     0
176
     1
 90
       50
176
     1
 40
0.0
176
     1
 40
1.0
176
     1
 90
        0
176
     1
 62
    18
420
        0
176
     1
 90
       50
176
     1
 90
        3
176
     1
 62
     5
420
      255
176
     1
290
     0
176
     1
 90
       50
176
     1
 90
       50
176
     1
 90
       50
176
     1
290
     0
176
     1
 90
       50
176
     1
 62
   256
176
     0
 40
1.0
176
     0
 90
        2
176
     1
  1
strokes_ogs.tif
176
     1
290
     0
176
     1
 40
1.0
176
     1
 40
1.0
176
     1
  0
VISUALSTYLE
  5
9C
102
{ACAD_REACTORS
330
97
102
}
330
97
100
AcDbVisualStyle
  2
Basic
 70
     7
177
     3
291
     1
 70
    58
 90
        1
176
     1
 90
        0
176
     1
 90
        1
176
     1
 90
        0
176
     1
 40
0.6
176
     1
 40
30.0
176
     1
 62
     7
420
 16777215
176
     1
 90
        0
176
     1
 90
        4
176
     1
 62
     7
176
     1
 62
   257
176
     1
 90
        1
176
     1
 90
        1
176
     1
 40
1.0
176
     1
 90
        8
176
     1
 62
     7
176
     1
 40
1.0
176
     1
 90
        1
176
     1
 90
        6
176
     1
 90
        2
176
     1
 62
     7
176
     1
 90
        5
176
     1
 90
        0
176
     1
 90
        0
176
     1
290
     0
176
     1
 90
        1
176
     1
 40
0.0
176
     1
 90
        0
176
     1
290
     0
176
     1
290
     1
176
     1
290
     1
176
     1
290
     0
176
     1
290
     0
176
     1
290
     0
176
     1
290
     0
176
     1
290
     0
176
     1
290
     0
176
     1
 90
       50
176
     1
 40
0.0
176
     1
 40
1.0
176
     1
 90
        0
176
     1
 62
    18
420
        0
176
     1
 90
       50
176
     1
 90
        3
176
     1
 62
     5
420
      255
176
     1
290
     0
176
     1
 90
       50
176
     1
 90
       50
176
     1
 90
       50
176
     1
290
     0
176
     1
 90
       50
176
     1
 62
   256
176
     0
 40
1.0
176
     0
 90
        2
176
     1
  1
strokes_ogs.tif
176
     1
290
     0
176
     1
 40
1.0
176
     1
 40
1.0
176
     1
  0
VISUALSTYLE
  5
A3
102
{ACAD_REACTORS
330
97
102
}
330
97
100
AcDbVisualStyle
  2
Brighten
 70
    12
177
     3
291
     1
 70
    58
 90
        2
176
     1
 90
        2
176
     1
 90
        1
176
     1
 90
        0
176
     1
 40
0.6
176
     1
 40
30.0
176
     1
 62
     7
420
 16777215
176
     1
 90
        1
176
     1
 90
        4
176
     1
 62
     7
176
     1
 62
   257
176
     1
 90
        1
176
     1
 90
        1
176
     1
 40
1.0
176
     1
 90
        8
176
     1
 62
     7
176
     1
 40
1.0
176
     1
 90
        1
176
     1
 90
        6
176
     1
 90
        2
176
     1
 62
     7
176
     1
 90
        5
176
     1
 90
        0
176
     1
 90
        0
176
     1
290
     0
176
     1
 90
        1
176
     1
 40
50.0
176
     1
 90
        0
176
     1
290
     0
176
     1
290
     1
176
     1
290
     1
176
     1
290
     0
176
     1
290
     0
176
     1
290
     0
176
     1
290
     0
176
     1
290
     0
176
     1
290
     0
176
     1
 90
       50
176
     1
 40
0.0
176
     1
 40
1.0
176
     1
 90
        0
176
     1
 62
    18
420
        0
176
     1
 90
       50
176
     1
 90
        3
176
     1
 62
     5
420
      255
176
     1
290
     0
176
     1
 90
       50
176
     1
 90
       50
176
     1
 90
       50
176
     1
290
     0
176
     1
 90
       50
176
     1
 62
   256
176
     0
 40
1.0
176
     0
 90
        2
176
     1
  1
strokes_ogs.tif
176
     1
290
     0
176
     1
 40
1.0
176
     1
 40
1.0
176
     1
  0
VISUALSTYLE
  5
A7
102
{ACAD_REACTORS
330
97
102
}
330
97
100
AcDbVisualStyle
  2
ColorChange
 70
    16
177
     3
291
     1
 70
    58
 90
        2
176
     1
 90
        2
176
     1
 90
        3
176
     1
 90
        0
176
     1
 40
0.6
176
     1
 40
30.0
176
     1
 62
     8
420
  8421504
176
     1
 90
        1
176
     1
 90
        4
176
     1
 62
     7
176
     1
 62
   257
176
     1
 90
        1
176
     1
 90
        1
176
     1
 40
1.0
176
     1
 90
        8
176
     1
 62
     8
420
  8421504
176
     1
 40
1.0
176
     1
 90
        1
176
     1
 90
        6
176
     1
 90
        2
176
     1
 62
     7
176
     1
 90
        5
176
     1
 90
        0
176
     1
 90
        0
176
     1
290
     0
176
     1
 90
        1
176
     1
 40
0.0
176
     1
 90
        0
176
     1
290
     0
176
     1
290
     1
176
     1
290
     1
176
     1
290
     0
176
     1
290
     0
176
     1
290
     0
176
     1
290
     0
176
     1
290
     0
176
     1
290
     0
176
     1
 90
       50
176
     1
 40
0.0
176
     1
 40
1.0
176
     1
 90
        0
176
     1
 62
    18
420
        0
176
     1
 90
       50
176
     1
 90
        3
176
     1
 62
     5
420
      255
176
     1
290
     0
176
     1
 90
       50
176
     1
 90
       50
176
     1
 90
       50
176
     1
290
     0
176
     1
 90
       50
176
     1
 62
   256
176
     0
 40
1.0
176
     0
 90
        2
176
     1
  1
strokes_ogs.tif
176
     1
290
     0
176
     1
 40
1.0
176
     1
 40
1.0
176
     1
  0
VISUALSTYLE
  5
A0
102
{ACAD_REACTORS
330
97
102
}
330
97
100
AcDbVisualStyle
  2
Conceptual
 70
     9
177
     3
291
     0
 70
    58
 90
        3
176
     1
 90
        2
176
     1
 90
        1
176
     1
 90
        0
176
     1
 40
0.6
176
     1
 40
30.0
176
     1
 62
     7
420
 16777215
176
     1
 90
        2
176
     1
 90
        2
176
     1
 62
     7
176
     1
 62
   257
176
     1
 90
        1
176
     1
 90
        1
176
     1
 40
40.0
176
     1
 90
        8
176
     1
 62
     7
176
     1
 40
1.0
176
     1
 90
        1
176
     1
 90
        6
176
     1
 90
        2
176
     1
 62
     7
176
     1
 90
        3
176
     1
 90
        0
176
     1
 90
        0
176
     1
290
     0
176
     1
 90
        1
176
     1
 40
0.0
176
     1
 90
        0
176
     1
290
     0
176
     1
290
     1
176
     1
290
     1
176
     1
290
     0
176
     1
290
     0
176
     1
290
     0
176
     1
290
     0
176
     1
290
     0
176
     1
290
     0
176
     1
 90
       50
176
     1
 40
0.0
176
     1
 40
1.0
176
     1
 90
        0
176
     1
 62
    18
420
        0
176
     1
 90
       50
176
     1
 90
        3
176
     1
 62
     5
420
      255
176
     1
290
     0
176
     1
 90
       50
176
     1
 90
       50
176
     1
 90
       50
176
     1
290
     0
176
     1
 90
       50
176
     1
 62
   256
176
     0
 40
1.0
176
     0
 90
        2
176
     1
  1
strokes_ogs.tif
176
     1
290
     0
176
     1
 40
1.0
176
     1
 40
1.0
176
     1
  0
VISUALSTYLE
  5
A2
102
{ACAD_REACTORS
330
97
102
}
330
97
100
AcDbVisualStyle
  2
Dim
 70
    11
177
     3
291
     1
 70
    58
 90
        2
176
     1
 90
        2
176
     1
 90
        1
176
     1
 90
        0
176
     1
 40
0.6
176
     1
 40
30.0
176
     1
 62
     7
420
 16777215
176
     1
 90
        1
176
     1
 90
        4
176
     1
 62
     7
176
     1
 62
   257
176
     1
 90
        1
176
     1
 90
        1
176
     1
 40
1.0
176
     1
 90
        8
176
     1
 62
     7
176
     1
 40
1.0
176
     1
 90
        1
176
     1
 90
        6
176
     1
 90
        2
176
     1
 62
     7
176
     1
 90
        5
176
     1
 90
        0
176
     1
 90
        0
176
     1
290
     0
176
     1
 90
        1
176
     1
 40
-50.0
176
     1
 90
        0
176
     1
290
     0
176
     1
290
     1
176
     1
290
     1
176
     1
290
     0
176
     1
290
     0
176
     1
290
     0
176
     1
290
     0
176
     1
290
     0
176
     1
290
     0
176
     1
 90
       50
176
     1
 40
0.0
176
     1
 40
1.0
176
     1
 90
        0
176
     1
 62
    18
420
        0
176
     1
 90
       50
176
     1
 90
        3
176
     1
 62
     5
420
      255
176
     1
290
     0
176
     1
 90
       50
176
     1
 90
       50
176
     1
 90
       50
176
     1
290
     0
176
     1
 90
       50
176
     1
 62
   256
176
     0
 40
1.0
176
     0
 90
        2
176
     1
  1
strokes_ogs.tif
176
     1
290
     0
176
     1
 40
1.0
176
     1
 40
1.0
176
     1
  0
VISUALSTYLE
  5
7D88
102
{ACAD_REACTORS
330
97
102
}
330
97
100
AcDbVisualStyle
  2
EdgeColorOff
 70
    22
177
     3
291
     1
 70
    58
 90
        2
176
     0
 90
        2
176
     0
 90
        0
176
     0
 90
        0
176
     0
 40
0.6
176
     0
 40
30.0
176
     0
 62
     7
420
 16777215
176
     0
 90
        1
176
     0
 90
        4
176
     0
 62
     7
176
     0
 62
   257
176
     0
 90
        1
176
     0
 90
        1
176
     0
 40
1.0
176
     0
 90
        8
176
     2
 62
     7
176
     0
 40
1.0
176
     0
 90
        1
176
     0
 90
        6
176
     0
 90
        2
176
     0
 62
     7
176
     0
 90
        5
176
     0
 90
        0
176
     0
 90
        0
176
     0
290
     0
176
     0
 90
        1
176
     0
 40
0.0
176
     0
 90
        0
176
     0
290
     0
176
     0
290
     1
176
     0
290
     1
176
     0
290
     0
176
     0
290
     0
176
     0
290
     0
176
     0
290
     0
176
     0
290
     0
176
     0
290
     0
176
     0
 90
       50
176
     0
 40
0.0
176
     0
 40
1.0
176
     0
 90
        0
176
     0
 62
    18
420
        0
176
     0
 90
       50
176
     0
 90
        3
176
     0
 62
     5
420
      255
176
     0
290
     0
176
     0
 90
       50
176
     0
 90
       50
176
     0
 90
       50
176
     0
290
     0
176
     0
 90
       50
176
     0
 62
   256
176
     0
 40
1.0
176
     0
 90
        2
176
     0
  1
strokes_ogs.tif
176
     0
290
     0
176
     0
 40
1.0
176
     0
 40
1.0
176
     0
  0
VISUALSTYLE
  5
A6
102
{ACAD_REACTORS
330
97
102
}
330
97
100
AcDbVisualStyle
  2
Facepattern
 70
    15
177
     3
291
     1
 70
    58
 90
        2
176
     1
 90
        2
176
     1
 90
        1
176
     1
 90
        0
176
     1
 40
0.6
176
     1
 40
30.0
176
     1
 62
     7
420
 16777215
176
     1
 90
        1
176
     1
 90
        4
176
     1
 62
     7
176
     1
 62
   257
176
     1
 90
        1
176
     1
 90
        1
176
     1
 40
1.0
176
     1
 90
        8
176
     1
 62
     7
176
     1
 40
1.0
176
     1
 90
        1
176
     1
 90
        6
176
     1
 90
        2
176
     1
 62
     7
176
     1
 90
        5
176
     1
 90
        0
176
     1
 90
        0
176
     1
290
     0
176
     1
 90
        1
176
     1
 40
0.0
176
     1
 90
        0
176
     1
290
     0
176
     1
290
     1
176
     1
290
     1
176
     1
290
     0
176
     1
290
     0
176
     1
290
     0
176
     1
290
     0
176
     1
290
     0
176
     1
290
     0
176
     1
 90
       50
176
     1
 40
0.0
176
     1
 40
1.0
176
     1
 90
        0
176
     1
 62
    18
420
        0
176
     1
 90
       50
176
     1
 90
        3
176
     1
 62
     5
420
      255
176
     1
290
     0
176
     1
 90
       50
176
     1
 90
       50
176
     1
 90
       50
176
     1
290
     0
176
     1
 90
       50
176
     1
 62
   256
176
     0
 40
1.0
176
     0
 90
        2
176
     1
  1
strokes_ogs.tif
176
     1
290
     0
176
     1
 40
1.0
176
     1
 40
1.0
176
     1
  0
VISUALSTYLE
  5
98
102
{ACAD_REACTORS
330
97
102
}
330
97
100
AcDbVisualStyle
  2
Flat
 70
     0
177
     3
291
     1
 70
    58
 90
        2
176
     1
 90
        1
176
     1
 90
        1
176
     1
 90
        2
176
     1
 40
0.6
176
     1
 40
30.0
176
     1
 62
     7
420
 16777215
176
     1
 90
        0
176
     1
 90
        4
176
     1
 62
     7
176
     1
 62
   257
176
     1
 90
        1
176
     1
 90
        1
176
     1
 40
1.0
176
     1
 90
        8
176
     1
 62
     7
176
     1
 40
1.0
176
     1
 90
        1
176
     1
 90
        6
176
     1
 90
        2
176
     1
 62
     7
176
     1
 90
        5
176
     1
 90
        0
176
     1
 90
        0
176
     1
290
     0
176
     1
 90
        1
176
     1
 40
0.0
176
     1
 90
        0
176
     1
290
     0
176
     1
290
     1
176
     1
290
     1
176
     1
290
     0
176
     1
290
     0
176
     1
290
     0
176
     1
290
     0
176
     1
290
     0
176
     1
290
     0
176
     1
 90
       50
176
     1
 40
0.0
176
     1
 40
1.0
176
     1
 90
        0
176
     1
 62
    18
420
        0
176
     1
 90
       50
176
     1
 90
        3
176
     1
 62
     5
420
      255
176
     1
290
     0
176
     1
 90
       50
176
     1
 90
       50
176
     1
 90
       50
176
     1
290
     0
176
     1
 90
       50
176
     1
 62
   256
176
     0
 40
1.0
176
     0
 90
        2
176
     1
  1
strokes_ogs.tif
176
     1
290
     0
176
     1
 40
1.0
176
     1
 40
1.0
176
     1
  0
VISUALSTYLE
  5
99
102
{ACAD_REACTORS
330
97
102
}
330
97
100
AcDbVisualStyle
  2
FlatWithEdges
 70
     1
177
     3
291
     1
 70
    58
 90
        2
176
     1
 90
        1
176
     1
 90
        1
176
     1
 90
        2
176
     1
 40
0.6
176
     1
 40
30.0
176
     1
 62
     7
420
 16777215
176
     1
 90
        1
176
     1
 90
        4
176
     1
 62
     7
176
     1
 62
   257
176
     1
 90
        1
176
     1
 90
        1
176
     1
 40
1.0
176
     1
 90
        0
176
     1
 62
   257
176
     1
 40
1.0
176
     1
 90
        1
176
     1
 90
        6
176
     1
 90
        2
176
     1
 62
     7
176
     1
 90
        5
176
     1
 90
        0
176
     1
 90
        0
176
     1
290
     0
176
     1
 90
        1
176
     1
 40
0.0
176
     1
 90
        0
176
     1
290
     0
176
     1
290
     1
176
     1
290
     1
176
     1
290
     0
176
     1
290
     0
176
     1
290
     0
176
     1
290
     0
176
     1
290
     0
176
     1
290
     0
176
     1
 90
       50
176
     1
 40
0.0
176
     1
 40
1.0
176
     1
 90
        0
176
     1
 62
    18
420
        0
176
     1
 90
       50
176
     1
 90
        3
176
     1
 62
     5
420
      255
176
     1
290
     0
176
     1
 90
       50
176
     1
 90
       50
176
     1
 90
       50
176
     1
290
     0
176
     1
 90
       50
176
     1
 62
   256
176
     0
 40
1.0
176
     0
 90
        2
176
     1
  1
strokes_ogs.tif
176
     1
290
     0
176
     1
 40
1.0
176
     1
 40
1.0
176
     1
  0
VISUALSTYLE
  5
9A
102
{ACAD_REACTORS
330
97
102
}
330
97
100
AcDbVisualStyle
  2
Gouraud
 70
     2
177
     3
291
     1
 70
    58
 90
        2
176
     1
 90
        2
176
     1
 90
        1
176
     1
 90
        2
176
     1
 40
0.6
176
     1
 40
30.0
176
     1
 62
     7
420
 16777215
176
     1
 90
        0
176
     1
 90
        4
176
     1
 62
     7
176
     1
 62
   257
176
     1
 90
        1
176
     1
 90
        1
176
     1
 40
1.0
176
     1
 90
        0
176
     1
 62
     7
176
     1
 40
1.0
176
     1
 90
        1
176
     1
 90
        6
176
     1
 90
        2
176
     1
 62
     7
176
     1
 90
        5
176
     1
 90
        0
176
     1
 90
        0
176
     1
290
     0
176
     1
 90
        1
176
     1
 40
0.0
176
     1
 90
        0
176
     1
290
     0
176
     1
290
     1
176
     1
290
     1
176
     1
290
     0
176
     1
290
     0
176
     1
290
     0
176
     1
290
     0
176
     1
290
     0
176
     1
290
     0
176
     1
 90
       50
176
     1
 40
0.0
176
     1
 40
1.0
176
     1
 90
        0
176
     1
 62
    18
420
        0
176
     1
 90
       50
176
     1
 90
        3
176
     1
 62
     5
420
      255
176
     1
290
     0
176
     1
 90
       50
176
     1
 90
       50
176
     1
 90
       50
176
     1
290
     0
176
     1
 90
       50
176
     1
 62
   256
176
     0
 40
1.0
176
     0
 90
        2
176
     1
  1
strokes_ogs.tif
176
     1
290
     0
176
     1
 40
1.0
176
     1
 40
1.0
176
     1
  0
VISUALSTYLE
  5
9B
102
{ACAD_REACTORS
330
97
102
}
330
97
100
AcDbVisualStyle
  2
GouraudWithEdges
 70
     3
177
     3
291
     1
 70
    58
 90
        2
176
     1
 90
        2
176
     1
 90
        1
176
     1
 90
        2
176
     1
 40
0.6
176
     1
 40
30.0
176
     1
 62
     7
420
 16777215
176
     1
 90
        1
176
     1
 90
        4
176
     1
 62
     7
176
     1
 62
   257
176
     1
 90
        1
176
     1
 90
        1
176
     1
 40
1.0
176
     1
 90
        0
176
     1
 62
   257
176
     1
 40
1.0
176
     1
 90
        1
176
     1
 90
        6
176
     1
 90
        2
176
     1
 62
     7
176
     1
 90
        5
176
     1
 90
        0
176
     1
 90
        0
176
     1
290
     0
176
     1
 90
        1
176
     1
 40
0.0
176
     1
 90
        0
176
     1
290
     0
176
     1
290
     1
176
     1
290
     1
176
     1
290
     0
176
     1
290
     0
176
     1
290
     0
176
     1
290
     0
176
     1
290
     0
176
     1
290
     0
176
     1
 90
       50
176
     1
 40
0.0
176
     1
 40
1.0
176
     1
 90
        0
176
     1
 62
    18
420
        0
176
     1
 90
       50
176
     1
 90
        3
176
     1
 62
     5
420
      255
176
     1
290
     0
176
     1
 90
       50
176
     1
 90
       50
176
     1
 90
       50
176
     1
290
     0
176
     1
 90
       50
176
     1
 62
   256
176
     0
 40
1.0
176
     0
 90
        2
176
     1
  1
strokes_ogs.tif
176
     1
290
     0
176
     1
 40
1.0
176
     1
 40
1.0
176
     1
  0
VISUALSTYLE
  5
7D80
102
{ACAD_REACTORS
330
97
102
}
330
97
100
AcDbVisualStyle
  2
Hidden
 70
     6
177
     3
291
     0
 70
    58
 90
        1
176
     1
 90
        2
176
     1
 90
        2
176
     1
 90
        0
176
     1
 40
0.6
176
     1
 40
30.0
176
     1
 62
     7
420
 16777215
176
     1
 90
        2
176
     1
 90
        2
176
     1
 62
     7
176
     1
 62
   257
176
     1
 90
        2
176
     1
 90
        1
176
     1
 40
40.0
176
     1
 90
        0
176
     1
 62
   257
176
     1
 40
1.0
176
     1
 90
        1
176
     1
 90
        6
176
     1
 90
        2
176
     1
 62
     7
176
     1
 90
        3
176
     1
 90
        0
176
     1
 90
        0
176
     1
290
     0
176
     1
 90
        1
176
     1
 40
0.0
176
     1
 90
        0
176
     1
290
     0
176
     1
290
     1
176
     1
290
     1
176
     1
290
     0
176
     1
290
     0
176
     1
290
     0
176
     1
290
     0
176
     1
290
     0
176
     1
290
     0
176
     1
 90
       50
176
     1
 40
0.0
176
     1
 40
1.0
176
     1
 90
        0
176
     1
 62
    18
420
        0
176
     1
 90
       50
176
     1
 90
        3
176
     1
 62
     5
420
      255
176
     1
290
     0
176
     1
 90
       50
176
     1
 90
       50
176
     1
 90
       50
176
     1
290
     0
176
     1
 90
       50
176
     1
 62
   256
176
     0
 40
1.0
176
     0
 90
        2
176
     1
  1
strokes_ogs.tif
176
     1
290
     0
176
     1
 40
1.0
176
     1
 40
1.0
176
     1
  0
VISUALSTYLE
  5
7D86
102
{ACAD_REACTORS
330
97
102
}
330
97
100
AcDbVisualStyle
  2
JitterOff
 70
    20
177
     3
291
     1
 70
    58
 90
        2
176
     0
 90
        2
176
     0
 90
        0
176
     0
 90
        0
176
     0
 40
0.6
176
     0
 40
30.0
176
     0
 62
     7
420
 16777215
176
     0
 90
        1
176
     0
 90
        4
176
     0
 62
     7
176
     0
 62
   257
176
     0
 90
        1
176
     0
 90
        1
176
     0
 40
1.0
176
     0
 90
       10
176
     2
 62
     7
176
     0
 40
1.0
176
     0
 90
        1
176
     0
 90
        6
176
     0
 90
        2
176
     0
 62
     7
176
     0
 90
        5
176
     0
 90
        0
176
     0
 90
        0
176
     0
290
     0
176
     0
 90
        1
176
     0
 40
0.0
176
     0
 90
        0
176
     0
290
     0
176
     0
290
     1
176
     0
290
     1
176
     0
290
     0
176
     0
290
     0
176
     0
290
     0
176
     0
290
     0
176
     0
290
     0
176
     0
290
     0
176
     0
 90
       50
176
     0
 40
0.0
176
     0
 40
1.0
176
     0
 90
        0
176
     0
 62
    18
420
        0
176
     0
 90
       50
176
     0
 90
        3
176
     0
 62
     5
420
      255
176
     0
290
     0
176
     0
 90
       50
176
     0
 90
       50
176
     0
 90
       50
176
     0
290
     0
176
     0
 90
       50
176
     0
 62
   256
176
     0
 40
1.0
176
     0
 90
        2
176
     0
  1
strokes_ogs.tif
176
     0
290
     0
176
     0
 40
1.0
176
     0
 40
1.0
176
     0
  0
VISUALSTYLE
  5
A5
102
{ACAD_REACTORS
330
97
102
}
330
97
100
AcDbVisualStyle
  2
Linepattern
 70
    14
177
     3
291
     1
 70
    58
 90
        2
176
     1
 90
        2
176
     1
 90
        1
176
     1
 90
        0
176
     1
 40
0.6
176
     1
 40
30.0
176
     1
 62
     7
420
 16777215
176
     1
 90
        1
176
     1
 90
        4
176
     1
 62
     7
176
     1
 62
   257
176
     1
 90
        7
176
     1
 90
        7
176
     1
 40
1.0
176
     1
 90
        8
176
     1
 62
     7
176
     1
 40
1.0
176
     1
 90
        1
176
     1
 90
        6
176
     1
 90
        2
176
     1
 62
     7
176
     1
 90
        5
176
     1
 90
        0
176
     1
 90
        0
176
     1
290
     0
176
     1
 90
        1
176
     1
 40
0.0
176
     1
 90
        0
176
     1
290
     0
176
     1
290
     1
176
     1
290
     1
176
     1
290
     0
176
     1
290
     0
176
     1
290
     0
176
     1
290
     0
176
     1
290
     0
176
     1
290
     0
176
     1
 90
       50
176
     1
 40
0.0
176
     1
 40
1.0
176
     1
 90
        0
176
     1
 62
    18
420
        0
176
     1
 90
       50
176
     1
 90
        3
176
     1
 62
     5
420
      255
176
     1
290
     0
176
     1
 90
       50
176
     1
 90
       50
176
     1
 90
       50
176
     1
290
     0
176
     1
 90
       50
176
     1
 62
   256
176
     0
 40
1.0
176
     0
 90
        2
176
     1
  1
strokes_ogs.tif
176
     1
290
     0
176
     1
 40
1.0
176
     1
 40
1.0
176
     1
  0
VISUALSTYLE
  5
7D87
102
{ACAD_REACTORS
330
97
102
}
330
97
100
AcDbVisualStyle
  2
OverhangOff
 70
    21
177
     3
291
     1
 70
    58
 90
        2
176
     0
 90
        2
176
     0
 90
        0
176
     0
 90
        0
176
     0
 40
0.6
176
     0
 40
30.0
176
     0
 62
     7
420
 16777215
176
     0
 90
        1
176
     0
 90
        4
176
     0
 62
     7
176
     0
 62
   257
176
     0
 90
        1
176
     0
 90
        1
176
     0
 40
1.0
176
     0
 90
        9
176
     2
 62
     7
176
     0
 40
1.0
176
     0
 90
        1
176
     0
 90
        6
176
     0
 90
        2
176
     0
 62
     7
176
     0
 90
        5
176
     0
 90
        0
176
     0
 90
        0
176
     0
290
     0
176
     0
 90
        1
176
     0
 40
0.0
176
     0
 90
        0
176
     0
290
     0
176
     0
290
     1
176
     0
290
     1
176
     0
290
     0
176
     0
290
     0
176
     0
290
     0
176
     0
290
     0
176
     0
290
     0
176
     0
290
     0
176
     0
 90
       50
176
     0
 40
0.0
176
     0
 40
1.0
176
     0
 90
        0
176
     0
 62
    18
420
        0
176
     0
 90
       50
176
     0
 90
        3
176
     0
 62
     5
420
      255
176
     0
290
     0
176
     0
 90
       50
176
     0
 90
       50
176
     0
 90
       50
176
     0
290
     0
176
     0
 90
       50
176
     0
 62
   256
176
     0
 40
1.0
176
     0
 90
        2
176
     0
  1
strokes_ogs.tif
176
     0
290
     0
176
     0
 40
1.0
176
     0
 40
1.0
176
     0
  0
VISUALSTYLE
  5
A1
102
{ACAD_REACTORS
330
97
102
}
330
97
100
AcDbVisualStyle
  2
Realistic
 70
     8
177
     3
291
     0
 70
    58
 90
        2
176
     1
 90
        2
176
     1
 90
        1
176
     1
 90
        0
176
     1
 40
0.6
176
     1
 40
30.0
176
     1
 62
     7
420
 16777215
176
     1
 90
        1
176
     1
 90
        0
176
     1
 62
     7
176
     1
 62
   257
176
     1
 90
        1
176
     1
 90
        1
176
     1
 40
1.0
176
     1
 90
        8
176
     1
 62
     8
420
  7895160
176
     1
 40
1.0
176
     1
 90
        1
176
     1
 90
        6
176
     1
 90
        2
176
     1
 62
     7
176
     1
 90
        5
176
     1
 90
        0
176
     1
 90
        0
176
     1
290
     0
176
     1
 90
       13
176
     1
 40
0.0
176
     1
 90
        0
176
     1
290
     0
176
     1
290
     1
176
     1
290
     1
176
     1
290
     0
176
     1
290
     0
176
     1
290
     0
176
     1
290
     0
176
     1
290
     0
176
     1
290
     0
176
     1
 90
       50
176
     1
 40
0.0
176
     1
 40
1.0
176
     1
 90
        0
176
     1
 62
    18
420
        0
176
     1
 90
       50
176
     1
 90
        3
176
     1
 62
     5
420
      255
176
     1
290
     0
176
     1
 90
       50
176
     1
 90
       50
176
     1
 90
       50
176
     1
290
     0
176
     1
 90
       50
176
     1
 62
   256
176
     0
 40
1.0
176
     0
 90
        2
176
     1
  1
strokes_ogs.tif
176
     1
290
     0
176
     1
 40
1.0
176
     1
 40
1.0
176
     1
  0
VISUALSTYLE
  5
7D85
102
{ACAD_REACTORS
330
97
102
}
330
97
100
AcDbVisualStyle
  2
Shaded
 70
    27
177
     3
291
     0
 70
    58
 90
        2
176
     1
 90
        2
176
     1
 90
        1
176
     1
 90
        2
176
     1
 40
0.6
176
     1
 40
30.0
176
     1
 62
     7
420
 16777215
176
     1
 90
        0
176
     1
 90
        4
176
     1
 62
     7
176
     1
 62
   257
176
     1
 90
        1
176
     1
 90
        1
176
     1
 40
1.0
176
     1
 90
        8
176
     1
 62
   257
176
     1
 40
1.0
176
     1
 90
        1
176
     1
 90
        6
176
     1
 90
        2
176
     1
 62
     8
420
  7895160
176
     1
 90
        3
176
     1
 90
        0
176
     1
 90
        0
176
     1
290
     0
176
     1
 90
        5
176
     1
 40
0.0
176
     1
 90
        0
176
     1
290
     0
176
     1
290
     1
176
     1
290
     1
176
     1
290
     0
176
     1
290
     0
176
     1
290
     0
176
     1
290
     0
176
     1
290
     0
176
     1
290
     0
176
     1
 90
       50
176
     1
 40
0.0
176
     1
 40
1.0
176
     1
 90
        0
176
     1
 62
    18
420
        0
176
     1
 90
       50
176
     1
 90
        3
176
     1
 62
     5
420
      255
176
     1
290
     0
176
     1
 90
       50
176
     1
 90
       50
176
     1
 90
       50
176
     1
290
     0
176
     1
 90
       50
176
     1
 62
   256
176
     0
 40
1.0
176
     0
 90
        2
176
     1
  1
strokes_ogs.tif
176
     1
290
     0
176
     1
 40
1.0
176
     1
 40
1.0
176
     1
  0
VISUALSTYLE
  5
7D84
102
{ACAD_REACTORS
330
97
102
}
330
97
100
AcDbVisualStyle
  2
Shaded with edges
 70
    26
177
     3
291
     0
 70
    58
 90
        2
176
     1
 90
        2
176
     1
 90
        1
176
     1
 90
        2
176
     1
 40
0.6
176
     1
 40
30.0
176
     1
 62
     7
420
 16777215
176
     1
 90
        1
176
     1
 90
        2
176
     1
 62
     7
176
     1
 62
   257
176
     1
 90
        2
176
     1
 90
        1
176
     1
 40
1.0
176
     1
 90
        8
176
     1
 62
   257
176
     1
 40
1.0
176
     1
 90
        1
176
     1
 90
        6
176
     1
 90
        2
176
     1
 62
     7
176
     1
 90
        3
176
     1
 90
        0
176
     1
 90
        0
176
     1
290
     0
176
     1
 90
        5
176
     1
 40
0.0
176
     1
 90
        0
176
     1
290
     0
176
     1
290
     1
176
     1
290
     1
176
     1
290
     0
176
     1
290
     0
176
     1
290
     0
176
     1
290
     0
176
     1
290
     0
176
     1
290
     0
176
     1
 90
       50
176
     1
 40
0.0
176
     1
 40
1.0
176
     1
 90
        0
176
     1
 62
    18
420
        0
176
     1
 90
       50
176
     1
 90
        3
176
     1
 62
     5
420
      255
176
     1
290
     0
176
     1
 90
       50
176
     1
 90
       50
176
     1
 90
       50
176
     1
290
     0
176
     1
 90
       50
176
     1
 62
   256
176
     0
 40
1.0
176
     0
 90
        2
176
     1
  1
strokes_ogs.tif
176
     1
290
     0
176
     1
 40
1.0
176
     1
 40
1.0
176
     1
  0
VISUALSTYLE
  5
7D81
102
{ACAD_REACTORS
330
97
102
}
330
97
100
AcDbVisualStyle
  2
Shades of Gray
 70
    23
177
     3
291
     0
 70
    58
 90
        2
176
     1
 90
        2
176
     1
 90
        3
176
     1
 90
        0
176
     1
 40
0.6
176
     1
 40
30.0
176
     1
 62
     7
420
 16777215
176
     1
 90
        2
176
     1
 90
        2
176
     1
 62
     7
176
     1
 62
     7
176
     1
 90
        1
176
     1
 90
        1
176
     1
 40
40.0
176
     1
 90
        8
176
     1
 62
     7
176
     1
 40
1.0
176
     1
 90
        1
176
     1
 90
        6
176
     1
 90
        2
176
     1
 62
     7
176
     1
 90
        3
176
     1
 90
        0
176
     1
 90
        0
176
     1
290
     0
176
     1
 90
        1
176
     1
 40
0.0
176
     1
 90
        0
176
     1
290
     0
176
     1
290
     1
176
     1
290
     1
176
     1
290
     0
176
     1
290
     0
176
     1
290
     0
176
     1
290
     0
176
     1
290
     0
176
     1
290
     0
176
     1
 90
       50
176
     1
 40
0.0
176
     1
 40
1.0
176
     1
 90
        0
176
     1
 62
    18
420
        0
176
     1
 90
       50
176
     1
 90
        3
176
     1
 62
     5
420
      255
176
     1
290
     0
176
     1
 90
       50
176
     1
 90
       50
176
     1
 90
       50
176
     1
290
     0
176
     1
 90
       50
176
     1
 62
   256
176
     0
 40
1.0
176
     0
 90
        2
176
     1
  1
strokes_ogs.tif
176
     1
290
     0
176
     1
 40
1.0
176
     1
 40
1.0
176
     1
  0
VISUALSTYLE
  5
7D82
102
{ACAD_REACTORS
330
97
102
}
330
97
100
AcDbVisualStyle
  2
Sketchy
 70
    24
177
     3
291
     0
 70
    58
 90
        1
176
     1
 90
        2
176
     1
 90
        2
176
     1
 90
        0
176
     1
 40
0.6
176
     1
 40
30.0
176
     1
 62
     7
420
 16777215
176
     1
 90
        2
176
     1
 90
        2
176
     1
 62
     7
176
     1
 62
     7
176
     1
 90
        1
176
     1
 90
        1
176
     1
 40
40.0
176
     1
 90
       11
176
     1
 62
     7
176
     1
 40
1.0
176
     1
 90
        1
176
     1
 90
        6
176
     1
 90
        2
176
     1
 62
     7
176
     1
 90
        6
176
     1
 90
        0
176
     1
 90
        0
176
     1
290
     0
176
     1
 90
        1
176
     1
 40
0.0
176
     1
 90
        0
176
     1
290
     0
176
     1
290
     1
176
     1
290
     1
176
     1
290
     0
176
     1
290
     0
176
     1
290
     0
176
     1
290
     0
176
     1
290
     0
176
     1
290
     0
176
     1
 90
       50
176
     1
 40
0.0
176
     1
 40
1.0
176
     1
 90
        0
176
     1
 62
    18
420
        0
176
     1
 90
       50
176
     1
 90
        3
176
     1
 62
     5
420
      255
176
     1
290
     0
176
     1
 90
       50
176
     1
 90
       50
176
     1
 90
       50
176
     1
290
     0
176
     1
 90
       50
176
     1
 62
   256
176
     0
 40
1.0
176
     0
 90
        2
176
     1
  1
strokes_ogs.tif
176
     1
290
     0
176
     1
 40
1.0
176
     1
 40
1.0
176
     1
  0
VISUALSTYLE
  5
A4
102
{ACAD_REACTORS
330
97
102
}
330
97
100
AcDbVisualStyle
  2
Thicken
 70
    13
177
     3
291
     1
 70
    58
 90
        2
176
     1
 90
        2
176
     1
 90
        1
176
     1
 90
        0
176
     1
 40
0.6
176
     1
 40
30.0
176
     1
 62
     7
420
 16777215
176
     1
 90
        1
176
     1
 90
        4
176
     1
 62
     7
176
     1
 62
   257
176
     1
 90
        1
176
     1
 90
        1
176
     1
 40
1.0
176
     1
 90
       12
176
     1
 62
     7
176
     1
 40
1.0
176
     1
 90
        1
176
     1
 90
        6
176
     1
 90
        2
176
     1
 62
     7
176
     1
 90
        5
176
     1
 90
        0
176
     1
 90
        0
176
     1
290
     0
176
     1
 90
        1
176
     1
 40
0.0
176
     1
 90
        0
176
     1
290
     0
176
     1
290
     1
176
     1
290
     1
176
     1
290
     0
176
     1
290
     0
176
     1
290
     0
176
     1
290
     0
176
     1
290
     0
176
     1
290
     0
176
     1
 90
       50
176
     1
 40
0.0
176
     1
 40
1.0
176
     1
 90
        0
176
     1
 62
    18
420
        0
176
     1
 90
       50
176
     1
 90
        3
176
     1
 62
     5
420
      255
176
     1
290
     0
176
     1
 90
       50
176
     1
 90
       50
176
     1
 90
       50
176
     1
290
     0
176
     1
 90
       50
176
     1
 62
   256
176
     0
 40
1.0
176
     0
 90
        2
176
     1
  1
strokes_ogs.tif
176
     1
290
     0
176
     1
 40
1.0
176
     1
 40
1.0
176
     1
  0
VISUALSTYLE
  5
7D7F
102
{ACAD_REACTORS
330
97
102
}
330
97
100
AcDbVisualStyle
  2
Wireframe
 70
     5
177
     3
291
     0
 70
    58
 90
        0
176
     1
 90
        2
176
     1
 90
        0
176
     1
 90
        0
176
     1
 40
0.6
176
     1
 40
30.0
176
     1
 62
     7
420
 16777215
176
     1
 90
        1
176
     1
 90
        4
176
     1
 62
     7
176
     1
 62
   257
176
     1
 90
        1
176
     1
 90
        1
176
     1
 40
1.0
176
     1
 90
        0
176
     1
 62
   257
176
     1
 40
1.0
176
     1
 90
        1
176
     1
 90
        6
176
     1
 90
        2
176
     1
 62
     7
176
     1
 90
        3
176
     1
 90
        0
176
     1
 90
        0
176
     1
290
     0
176
     1
 90
        1
176
     1
 40
0.0
176
     1
 90
        0
176
     1
290
     0
176
     1
290
     1
176
     1
290
     1
176
     1
290
     0
176
     1
290
     0
176
     1
290
     0
176
     1
290
     0
176
     1
290
     0
176
     1
290
     0
176
     1
 90
       50
176
     1
 40
0.0
176
     1
 40
1.0
176
     1
 90
        0
176
     1
 62
    18
420
        0
176
     1
 90
       50
176
     1
 90
        3
176
     1
 62
     5
420
      255
176
     1
290
     0
176
     1
 90
       50
176
     1
 90
       50
176
     1
 90
       50
176
     1
290
     0
176
     1
 90
       50
176
     1
 62
   256
176
     0
 40
1.0
176
     0
 90
        2
176
     1
  1
strokes_ogs.tif
176
     1
290
     0
176
     1
 40
1.0
176
     1
 40
1.0
176
     1
  0
VISUALSTYLE
  5
7D83
102
{ACAD_REACTORS
330
97
102
}
330
97
100
AcDbVisualStyle
  2
X-Ray
 70
    25
177
     3
291
     0
 70
    58
 90
        2
176
     1
 90
        2
176
     1
 90
        1
176
     1
 90
        1
176
     1
 40
0.5
176
     1
 40
30.0
176
     1
 62
     7
420
 16777215
176
     1
 90
        1
176
     1
 90
        0
176
     1
 62
     7
176
     1
 62
   257
176
     1
 90
        1
176
     1
 90
        1
176
     1
 40
1.0
176
     1
 90
        8
176
     1
 62
     7
176
     1
 40
1.0
176
     1
 90
        1
176
     1
 90
        6
176
     1
 90
        2
176
     1
 62
     7
176
     1
 90
        3
176
     1
 90
        0
176
     1
 90
        0
176
     1
290
     0
176
     1
 90
       13
176
     1
 40
0.0
176
     1
 90
        0
176
     1
290
     0
176
     1
290
     1
176
     1
290
     1
176
     1
290
     0
176
     1
290
     0
176
     1
290
     0
176
     1
290
     0
176
     1
290
     0
176
     1
290
     0
176
     1
 90
       50
176
     1
 40
0.0
176
     1
 40
1.0
176
     1
 90
        0
176
     1
 62
    18
420
        0
176
     1
 90
       50
176
     1
 90
        3
176
     1
 62
     5
420
      255
176
     1
290
     0
176
     1
 90
       50
176
     1
 90
       50
176
     1
 90
       50
176
     1
290
     0
176
     1
 90
       50
176
     1
 62
   256
176
     0
 40
1.0
176
     0
 90
        2
176
     1
  1
strokes_ogs.tif
176
     1
290
     0
176
     1
 40
1.0
176
     1
 40
1.0
176
     1
  0
DICTIONARYVAR
  5
7DD1
102
{ACAD_REACTORS
330
66
102
}
330
66
100
DictionaryVariables
280
     0
  1
1:1
  0
DICTIONARYVAR
  5
7DCD
102
{ACAD_REACTORS
330
66
102
}
330
66
100
DictionaryVariables
280
     0
  1
STANDARD
  0
DICTIONARYVAR
  5
8B
102
{ACAD_REACTORS
330
66
102
}
330
66
100
DictionaryVariables
280
     0
  1
STANDARD
  0
DICTIONARYVAR
  5
7DCE
102
{ACAD_REACTORS
330
66
102
}
330
66
100
DictionaryVariables
280
     0
  1
Imperial24
  0
DICTIONARYVAR
  5
7DCF
102
{ACAD_REACTORS
330
66
102
}
330
66
100
DictionaryVariables
280
     0
  1
Imperial24
  0
DICTIONARYVAR
  5
67
102
{ACAD_REACTORS
330
66
102
}
330
66
100
DictionaryVariables
280
     0
  1
2
  0
DICTIONARYVAR
  5
6B
102
{ACAD_REACTORS
330
66
102
}
330
66
100
DictionaryVariables
280
     0
  1
1
  0
DICTIONARYVAR
  5
7DD3
102
{ACAD_REACTORS
330
66
102
}
330
66
100
DictionaryVariables
280
     0
  1
1
  0
DICTIONARYVAR
  5
7DD4
102
{ACAD_REACTORS
330
66
102
}
330
66
100
DictionaryVariables
280
     0
  1
15
  0
DICTIONARYVAR
  5
7DD2
102
{ACAD_REACTORS
330
66
102
}
330
66
100
DictionaryVariables
280
     0
  1
0
  0
DICTIONARYVAR
  5
7DD0
102
{ACAD_REACTORS
330
66
102
}
330
66
100
DictionaryVariables
280
     0
  1
0
  0
DICTIONARY
  5
7DD9
330
7DA0
100
AcDbDictionary
280
     1
281
     1
  3
ACAD_XREC_ROUNDTRIP
360
7DDA
  0
DICTIONARY
  5
7DD7
330
7D9E
100
AcDbDictionary
280
     1
281
     1
  3
ACAD_XREC_ROUNDTRIP
360
7DD8
  0
DICTIONARY
  5
7DD5
330
87
100
AcDbDictionary
280
     1
281
     1
  3
ACAD_ROUNDTRIP_2008_TABLESTYLE_CELLSTYLEMAP
360
7DD6
  0
XRECORD
  5
7DDA
102
{ACAD_REACTORS
330
7DD9
102
}
330
7DD9
100
AcDbXrecord
280
     1
102
DISPLAYNAME
  1
Imperial24
102
FLAGS
 90
        0
  0
XRECORD
  5
7DD8
102
{ACAD_REACTORS
330
7DD7
102
}
330
7DD7
100
AcDbXrecord
280
     1
102
DISPLAYNAME
  1
Imperial24
102
FLAGS
 90
        0
  0
CELLSTYLEMAP
  5
7DD6
102
{ACAD_REACTORS
330
7DD5
102
}
330
7DD5
100
AcDbCellStyleMap
 90
        3
300
CELLSTYLE
  1
TABLEFORMAT_BEGIN
 90
        5
170
     1
 91
        0
 92
    32768
 62
   257
 93
        1
300
CONTENTFORMAT
  1
CONTENTFORMAT_BEGIN
 90
        0
 91
        0
 92
      512
 93
        0
300

 40
0.0
140
1.0
 94
        5
 62
     0
340
11
144
0.25
309
CONTENTFORMAT_END
171
     0
 94
        6
 95
        1
302
GRIDFORMAT
  1
GRIDFORMAT_BEGIN
 90
        0
 91
        1
 62
     0
 92
       -2
340
0
 93
        0
 40
0.045
309
GRIDFORMAT_END
 95
        2
302
GRIDFORMAT
  1
GRIDFORMAT_BEGIN
 90
        0
 91
        1
 62
     0
 92
       -2
340
0
 93
        0
 40
0.045
309
GRIDFORMAT_END
 95
        4
302
GRIDFORMAT
  1
GRIDFORMAT_BEGIN
 90
        0
 91
        1
 62
     0
 92
       -2
340
0
 93
        0
 40
0.045
309
GRIDFORMAT_END
 95
        8
302
GRIDFORMAT
  1
GRIDFORMAT_BEGIN
 90
        0
 91
        1
 62
     0
 92
       -2
340
0
 93
        0
 40
0.045
309
GRIDFORMAT_END
 95
       16
302
GRIDFORMAT
  1
GRIDFORMAT_BEGIN
 90
        0
 91
        1
 62
     0
 92
       -2
340
0
 93
        0
 40
0.045
309
GRIDFORMAT_END
 95
       32
302
GRIDFORMAT
  1
GRIDFORMAT_BEGIN
 90
        0
 91
        1
 62
     0
 92
       -2
340
0
 93
        0
 40
0.045
309
GRIDFORMAT_END
309
TABLEFORMAT_END
  1
CELLSTYLE_BEGIN
 90
        1
 91
        1
300
_TITLE
309
CELLSTYLE_END
300
CELLSTYLE
  1
TABLEFORMAT_BEGIN
 90
        5
170
     1
 91
        0
 92
        0
 62
   257
 93
        1
300
CONTENTFORMAT
  1
CONTENTFORMAT_BEGIN
 90
        0
 91
        0
 92
      512
 93
        0
300

 40
0.0
140
1.0
 94
        5
 62
     0
340
11
144
0.18
309
CONTENTFORMAT_END
171
     0
 94
        6
 95
        1
302
GRIDFORMAT
  1
GRIDFORMAT_BEGIN
 90
        0
 91
        1
 62
     0
 92
       -2
340
0
 93
        0
 40
0.045
309
GRIDFORMAT_END
 95
        2
302
GRIDFORMAT
  1
GRIDFORMAT_BEGIN
 90
        0
 91
        1
 62
     0
 92
       -2
340
0
 93
        0
 40
0.045
309
GRIDFORMAT_END
 95
        4
302
GRIDFORMAT
  1
GRIDFORMAT_BEGIN
 90
        0
 91
        1
 62
     0
 92
       -2
340
0
 93
        0
 40
0.045
309
GRIDFORMAT_END
 95
        8
302
GRIDFORMAT
  1
GRIDFORMAT_BEGIN
 90
        0
 91
        1
 62
     0
 92
       -2
340
0
 93
        0
 40
0.045
309
GRIDFORMAT_END
 95
       16
302
GRIDFORMAT
  1
GRIDFORMAT_BEGIN
 90
        0
 91
        1
 62
     0
 92
       -2
340
0
 93
        0
 40
0.045
309
GRIDFORMAT_END
 95
       32
302
GRIDFORMAT
  1
GRIDFORMAT_BEGIN
 90
        0
 91
        1
 62
     0
 92
       -2
340
0
 93
        0
 40
0.045
309
GRIDFORMAT_END
309
TABLEFORMAT_END
  1
CELLSTYLE_BEGIN
 90
        2
 91
        1
300
_HEADER
309
CELLSTYLE_END
300
CELLSTYLE
  1
TABLEFORMAT_BEGIN
 90
        5
170
     1
 91
        0
 92
        0
 62
   257
 93
        1
300
CONTENTFORMAT
  1
CONTENTFORMAT_BEGIN
 90
        0
 91
        0
 92
      512
 93
        0
300

 40
0.0
140
1.0
 94
        2
 62
     0
340
11
144
0.18
309
CONTENTFORMAT_END
171
     0
 94
        6
 95
        1
302
GRIDFORMAT
  1
GRIDFORMAT_BEGIN
 90
        0
 91
        1
 62
     0
 92
       -2
340
0
 93
        0
 40
0.045
309
GRIDFORMAT_END
 95
        2
302
GRIDFORMAT
  1
GRIDFORMAT_BEGIN
 90
        0
 91
        1
 62
     0
 92
       -2
340
0
 93
        0
 40
0.045
309
GRIDFORMAT_END
 95
        4
302
GRIDFORMAT
  1
GRIDFORMAT_BEGIN
 90
        0
 91
        1
 62
     0
 92
       -2
340
0
 93
        0
 40
0.045
309
GRIDFORMAT_END
 95
        8
302
GRIDFORMAT
  1
GRIDFORMAT_BEGIN
 90
        0
 91
        1
 62
     0
 92
       -2
340
0
 93
        0
 40
0.045
309
GRIDFORMAT_END
 95
       16
302
GRIDFORMAT
  1
GRIDFORMAT_BEGIN
 90
        0
 91
        1
 62
     0
 92
       -2
340
0
 93
        0
 40
0.045
309
GRIDFORMAT_END
 95
       32
302
GRIDFORMAT
  1
GRIDFORMAT_BEGIN
 90
        0
 91
        1
 62
     0
 92
       -2
340
0
 93
        0
 40
0.045
309
GRIDFORMAT_END
309
TABLEFORMAT_END
  1
CELLSTYLE_BEGIN
 90
        3
 91
        2
300
_DATA
309
CELLSTYLE_END
  0
ENDSEC
  0
EOF
