  0
SECTION
  2
HEADER
  9
$ACADVER
  1
AC1027
  9
$ACADMAINTVER
 70
   125
  9
$DWGCODEPAGE
  3
ANSI_1252
  9
$LASTSAVEDBY
  1
fleminab
  9
$REQUIREDVERSIONS
160
                 0
  9
$INSBASE
 10
0.0
 20
0.0
 30
0.0
  9
$EXTMIN
 10
-146.5928475626842
 20
-11401.32277075099
 30
-0.0000000000000053
  9
$EXTMAX
 10
3418.626875230093
 20
-10242.32408605977
 30
0.0000000000000099
  9
$LIMMIN
 10
0.0
 20
0.0
  9
$LIMMAX
 10
12.0
 20
9.0
  9
$ORTHOMODE
 70
     1
  9
$REGENMODE
 70
     1
  9
$FILLMODE
 70
     1
  9
$QTEXTMODE
 70
     0
  9
$MIRRTEXT
 70
     0
  9
$LTSCALE
 40
1.0
  9
$ATTMODE
 70
     1
  9
$TEXTSIZE
 40
0.2
  9
$TRACEWID
 40
0.05
  9
$TEXTSTYLE
  7
Standard
  9
$CLAYER
  8
0
  9
$CELTYPE
  6
ByLayer
  9
$CECOLOR
 62
   256
  9
$CELTSCALE
 40
1.0
  9
$DISPSILH
 70
     0
  9
$DIMSCALE
 40
15.0
  9
$DIMASZ
 40
2.5
  9
$DIMEXO
 40
0.0625
  9
$DIMDLI
 40
3.754999999999999
  9
$DIMRND
 40
0.0
  9
$DIMDLE
 40
0.0
  9
$DIMEXE
 40
1.25
  9
$DIMTP
 40
0.0
  9
$DIMTM
 40
0.0
  9
$DIMTXT
 40
3.0
  9
$DIMCEN
 40
2.5
  9
$DIMTSZ
 40
0.0
  9
$DIMTOL
 70
     0
  9
$DIMLIM
 70
     0
  9
$DIMTIH
 70
     0
  9
$DIMTOH
 70
     1
  9
$DIMSE1
 70
     0
  9
$DIMSE2
 70
     0
  9
$DIMTAD
 70
     1
  9
$DIMZIN
 70
     8
  9
$DIMBLK
  1

  9
$DIMASO
 70
     1
  9
$DIMSHO
 70
     1
  9
$DIMPOST
  1

  9
$DIMAPOST
  1

  9
$DIMALT
 70
     0
  9
$DIMALTD
 70
     2
  9
$DIMALTF
 40
25.4
  9
$DIMLFAC
 40
1.0
  9
$DIMTOFL
 70
     1
  9
$DIMTVP
 40
0.0
  9
$DIMTIX
 70
     0
  9
$DIMSOXD
 70
     0
  9
$DIMSAH
 70
     0
  9
$DIMBLK1
  1

  9
$DIMBLK2
  1

  9
$DIMSTYLE
  2
Standard
  9
$DIMCLRD
 70
     0
  9
$DIMCLRE
 70
     0
  9
$DIMCLRT
 70
     0
  9
$DIMTFAC
 40
1.0
  9
$DIMGAP
 40
0.625
  9
$DIMJUST
 70
     0
  9
$DIMSD1
 70
     0
  9
$DIMSD2
 70
     0
  9
$DIMTOLJ
 70
     1
  9
$DIMTZIN
 70
     0
  9
$DIMALTZ
 70
     0
  9
$DIMALTTZ
 70
     0
  9
$DIMUPT
 70
     0
  9
$DIMDEC
 70
     0
  9
$DIMTDEC
 70
     0
  9
$DIMALTU
 70
     2
  9
$DIMALTTD
 70
     2
  9
$DIMTXSTY
  7
Standard
  9
$DIMAUNIT
 70
     0
  9
$DIMADEC
 70
     0
  9
$DIMALTRND
 40
0.0
  9
$DIMAZIN
 70
     2
  9
$DIMDSEP
 70
    46
  9
$DIMATFIT
 70
     3
  9
$DIMFRAC
 70
     0
  9
$DIMLDRBLK
  1

  9
$DIMLUNIT
 70
     2
  9
$DIMLWD
 70
    -2
  9
$DIMLWE
 70
    -2
  9
$DIMTMOVE
 70
     0
  9
$DIMFXL
 40
1.0
  9
$DIMFXLON
 70
     0
  9
$DIMJOGANG
 40
0.7853981633974483
  9
$DIMTFILL
 70
     0
  9
$DIMTFILLCLR
 70
     0
  9
$DIMARCSYM
 70
     0
  9
$DIMLTYPE
  6

  9
$DIMLTEX1
  6

  9
$DIMLTEX2
  6

  9
$DIMTXTDIRECTION
 70
     0
  9
$LUNITS
 70
     2
  9
$LUPREC
 70
     4
  9
$SKETCHINC
 40
0.1
  9
$FILLETRAD
 40
60.0
  9
$AUNITS
 70
     0
  9
$AUPREC
 70
     0
  9
$MENU
  1
.
  9
$ELEVATION
 40
0.0
  9
$PELEVATION
 40
0.0
  9
$THICKNESS
 40
0.0
  9
$LIMCHECK
 70
     0
  9
$CHAMFERA
 40
0.0
  9
$CHAMFERB
 40
0.0
  9
$CHAMFERC
 40
0.0
  9
$CHAMFERD
 40
0.0
  9
$SKPOLY
 70
     0
  9
$TDCREATE
 40
2455980.500775463
  9
$TDUCREATE
 40
2455980.042452431
  9
$TDUPDATE
 40
2458051.683750000
  9
$TDUUPDATE
 40
2458051.225416667
  9
$TDINDWG
 40
1.7825127199
  9
$TDUSRTIMER
 40
1.7825127199
  9
$USRTIMER
 70
     1
  9
$ANGBASE
 50
0.0
  9
$ANGDIR
 70
     0
  9
$PDMODE
 70
     0
  9
$PDSIZE
 40
0.0
  9
$PLINEWID
 40
0.0
  9
$SPLFRAME
 70
     0
  9
$SPLINETYPE
 70
     6
  9
$SPLINESEGS
 70
     8
  9
$HANDSEED
  5
7DDC
  9
$SURFTAB1
 70
     6
  9
$SURFTAB2
 70
     6
  9
$SURFTYPE
 70
     6
  9
$SURFU
 70
     6
  9
$SURFV
 70
     6
  9
$UCSBASE
  2

  9
$UCSNAME
  2

  9
$UCSORG
 10
0.0
 20
0.0
 30
0.0
  9
$UCSXDIR
 10
1.0
 20
0.0
 30
0.0
  9
$UCSYDIR
 10
0.0
 20
1.0
 30
0.0
  9
$UCSORTHOREF
  2

  9
$UCSORTHOVIEW
 70
     1
  9
$UCSORGTOP
 10
0.0
 20
0.0
 30
0.0
  9
$UCSORGBOTTOM
 10
0.0
 20
0.0
 30
0.0
  9
$UCSORGLEFT
 10
0.0
 20
0.0
 30
0.0
  9
$UCSORGRIGHT
 10
0.0
 20
0.0
 30
0.0
  9
$UCSORGFRONT
 10
0.0
 20
0.0
 30
0.0
  9
$UCSORGBACK
 10
0.0
 20
0.0
 30
0.0
  9
$PUCSBASE
  2

  9
$PUCSNAME
  2

  9
$PUCSORG
 10
0.0
 20
0.0
 30
0.0
  9
$PUCSXDIR
 10
1.0
 20
0.0
 30
0.0
  9
$PUCSYDIR
 10
0.0
 20
1.0
 30
0.0
  9
$PUCSORTHOREF
  2

  9
$PUCSORTHOVIEW
 70
     0
  9
$PUCSORGTOP
 10
0.0
 20
0.0
 30
0.0
  9
$PUCSORGBOTTOM
 10
0.0
 20
0.0
 30
0.0
  9
$PUCSORGLEFT
 10
0.0
 20
0.0
 30
0.0
  9
$PUCSORGRIGHT
 10
0.0
 20
0.0
 30
0.0
  9
$PUCSORGFRONT
 10
0.0
 20
0.0
 30
0.0
  9
$PUCSORGBACK
 10
0.0
 20
0.0
 30
0.0
  9
$USERI1
 70
     0
  9
$USERI2
 70
     0
  9
$USERI3
 70
     0
  9
$USERI4
 70
     0
  9
$USERI5
 70
     0
  9
$USERR1
 40
0.0
  9
$USERR2
 40
0.0
  9
$USERR3
 40
0.0
  9
$USERR4
 40
0.0
  9
$USERR5
 40
0.0
  9
$WORLDVIEW
 70
     1
  9
$SHADEDGE
 70
     3
  9
$SHADEDIF
 70
    70
  9
$TILEMODE
 70
     1
  9
$MAXACTVP
 70
    64
  9
$PINSBASE
 10
0.0
 20
0.0
 30
0.0
  9
$PLIMCHECK
 70
     0
  9
$PEXTMIN
 10
0.0
 20
0.0
 30
0.0
  9
$PEXTMAX
 10
0.0
 20
0.0
 30
0.0
  9
$PLIMMIN
 10
0.0
 20
0.0
  9
$PLIMMAX
 10
12.0
 20
9.0
  9
$UNITMODE
 70
     0
  9
$VISRETAIN
 70
     1
  9
$PLINEGEN
 70
     0
  9
$PSLTSCALE
 70
     1
  9
$TREEDEPTH
 70
  3020
  9
$CMLSTYLE
  2
Standard
  9
$CMLJUST
 70
     0
  9
$CMLSCALE
 40
1.0
  9
$PROXYGRAPHICS
 70
     1
  9
$MEASUREMENT
 70
     0
  9
$CELWEIGHT
370
    -1
  9
$ENDCAPS
280
     0
  9
$JOINSTYLE
280
     0
  9
$LWDISPLAY
290
     1
  9
$INSUNITS
 70
     1
  9
$HYPERLINKBASE
  1

  9
$STYLESHEET
  1
acad.ctb
  9
$XEDIT
290
     1
  9
$CEPSNTYPE
380
     0
  9
$PSTYLEMODE
290
     1
  9
$FINGERPRINTGUID
  2
{E6A272C6-05BE-46A2-A4C2-A07F99362563}
  9
$VERSIONGUID
  2
{17311C52-634A-864E-977B-21474352D697}
  9
$EXTNAMES
290
     1
  9
$PSVPSCALE
 40
0.0
  9
$OLESTARTUP
290
     0
  9
$SORTENTS
280
   127
  9
$INDEXCTL
280
     0
  9
$HIDETEXT
280
     1
  9
$XCLIPFRAME
280
     0
  9
$HALOGAP
280
     0
  9
$OBSCOLOR
 70
   257
  9
$OBSLTYPE
280
     0
  9
$INTERSECTIONDISPLAY
280
     0
  9
$INTERSECTIONCOLOR
 70
   257
  9
$DIMASSOC
280
     2
  9
$PROJECTNAME
  1

  9
$CAMERADISPLAY
290
     0
  9
$LENSLENGTH
 40
50.0
  9
$CAMERAHEIGHT
 40
0.0
  9
$STEPSPERSEC
 40
2.0
  9
$STEPSIZE
 40
6.0
  9
$3DDWFPREC
 40
2.0
  9
$PSOLWIDTH
 40
0.25
  9
$PSOLHEIGHT
 40
4.0
  9
$LOFTANG1
 40
1.570796326794896
  9
$LOFTANG2
 40
1.570796326794896
  9
$LOFTMAG1
 40
0.0
  9
$LOFTMAG2
 40
0.0
  9
$LOFTPARAM
 70
     7
  9
$LOFTNORMALS
280
     1
  9
$LATITUDE
 40
37.795
  9
$LONGITUDE
 40
-122.394
  9
$NORTHDIRECTION
 40
0.0
  9
$TIMEZONE
 70
 -8000
  9
$LIGHTGLYPHDISPLAY
280
     1
  9
$TILEMODELIGHTSYNCH
280
     1
  9
$CMATERIAL
347
94
  9
$SOLIDHIST
280
     1
  9
$SHOWHIST
280
     1
  9
$DWFFRAME
280
     2
  9
$DGNFRAME
280
     0
  9
$REALWORLDSCALE
290
     1
  9
$INTERFERECOLOR
 62
     1
  9
$INTERFEREOBJVS
345
A1
  9
$INTERFEREVPVS
346
9E
  9
$CSHADOW
280
     0
  9
$SHADOWPLANELOCATION
 40
0.0
  0
ENDSEC
  0
SECTION
  2
CLASSES
  0
CLASS
  1
ACDBDICTIONARYWDFLT
  2
AcDbDictionaryWithDefault
  3
ObjectDBX Classes
 90
        0
 91
        1
280
     0
281
     0
  0
CLASS
  1
DICTIONARYVAR
  2
AcDbDictionaryVar
  3
ObjectDBX Classes
 90
        0
 91
       19
280
     0
281
     0
  0
CLASS
  1
TABLESTYLE
  2
AcDbTableStyle
  3
ObjectDBX Classes
 90
     4095
 91
        1
280
     0
281
     0
  0
CLASS
  1
MATERIAL
  2
AcDbMaterial
  3
ObjectDBX Classes
 90
     1153
 91
        3
280
     0
281
     0
  0
CLASS
  1
VISUALSTYLE
  2
AcDbVisualStyle
  3
ObjectDBX Classes
 90
     4095
 91
       26
280
     0
281
     0
  0
CLASS
  1
DIMASSOC
  2
AcDbDimAssoc
  3
"AcDbDimAssoc|Product Desc:     AcDim ARX App For Dimension|Company:          Autodesk, Inc.|WEB Address:      www.autodesk.com"
 90
        0
 91
       12
280
     0
281
     0
  0
CLASS
  1
SORTENTSTABLE
  2
AcDbSortentsTable
  3
ObjectDBX Classes
 90
        0
 91
        1
280
     0
281
     0
  0
CLASS
  1
EXACXREFPANELOBJECT
  2
ExAcXREFPanelObject
  3
EXAC_ESW
 90
     1025
 91
        0
280
     0
281
     0
  0
CLASS
  1
NPOCOLLECTION
  2
AcDbImpNonPersistentObjectsCollection
  3
ObjectDBX Classes
 90
     1153
 91
        0
280
     0
281
     0
  0
CLASS
  1
SCALE
  2
AcDbScale
  3
ObjectDBX Classes
 90
     1153
 91
       17
280
     0
281
     0
  0
CLASS
  1
MLEADERSTYLE
  2
AcDbMLeaderStyle
  3
ACDB_MLEADERSTYLE_CLASS
 90
     4095
 91
        1
280
     0
281
     0
  0
CLASS
  1
ACDBSECTIONVIEWSTYLE
  2
AcDbSectionViewStyle
  3
ObjectDBX Classes
 90
     1025
 91
        1
280
     0
281
     0
  0
CLASS
  1
ACDBDETAILVIEWSTYLE
  2
AcDbDetailViewStyle
  3
ObjectDBX Classes
 90
     1025
 91
        1
280
     0
281
     0
  0
CLASS
  1
CELLSTYLEMAP
  2
AcDbCellStyleMap
  3
ObjectDBX Classes
 90
     1152
 91
        1
280
     0
281
     0
  0
ENDSEC
  0
SECTION
  2
TABLES
  0
TABLE
  2
VPORT
  5
8
102
{ACAD_XDICTIONARY
360
937
102
}
330
0
100
AcDbSymbolTable
 70
     1
1001
ACAD
1000
DbSaveVer
1071
        5
  0
VPORT
  5
92
330
8
100
AcDbSymbolTableRecord
100
AcDbViewportTableRecord
  2
*Active
 70
     0
 10
0.0
 20
0.0
 11
1.0
 21
1.0
 12
1636.017013833704
 22
-10821.82342840538
 13
0.0
 23
0.0
 14
0.5
 24
0.5
 15
0.5
 25
0.5
 16
0.0
 26
0.0
 36
1.0
 17
0.0
 27
0.0
 37
0.0
 40
1559.879057553992
 41
2.292712066905615
 42
50.0
 43
0.0
 44
0.0
 50
0.0
 51
0.0
 71
     0
 72
  1000
 73
     1
 74
     3
 75
     0
 76
     0
 77
     0
 78
     0
281
     0
 65
     1
110
0.0
120
0.0
130
0.0
111
1.0
121
0.0
131
0.0
112
0.0
122
1.0
132
0.0
 79
     0
146
0.0
348
9D
 60
     2
 61
     5
292
     1
282
     1
141
0.0
142
0.0
 63
   250
421
  3355443
1001
ACAD_NAV_VCDISPLAY
1070
     3
  0
ENDTAB
  0
TABLE
  2
LTYPE
  5
5
330
0
100
AcDbSymbolTable
 70
     5
  0
LTYPE
  5
14
330
5
100
AcDbSymbolTableRecord
100
AcDbLinetypeTableRecord
  2
ByBlock
 70
     0
  3

 72
    65
 73
     0
 40
0.0
  0
LTYPE
  5
15
330
5
100
AcDbSymbolTableRecord
100
AcDbLinetypeTableRecord
  2
ByLayer
 70
     0
  3

 72
    65
 73
     0
 40
0.0
  0
LTYPE
  5
16
330
5
100
AcDbSymbolTableRecord
100
AcDbLinetypeTableRecord
  2
Continuous
 70
     0
  3
Solid line
 72
    65
 73
     0
 40
0.0
  0
LTYPE
  5
268
330
5
100
AcDbSymbolTableRecord
100
AcDbLinetypeTableRecord
  2
ACAD_ISO03W100
 70
     0
  3
ISO dash space __    __    __    __    __    __
 72
    65
 73
     2
 40
30.0
 49
12.0
 74
     0
 49
-18.0
 74
     0
  0
LTYPE
  5
269
330
5
100
AcDbSymbolTableRecord
100
AcDbLinetypeTableRecord
  2
CENTER
 70
     0
  3
Center ____ _ ____ _ ____ _ ____ _ ____ _ ____
 72
    65
 73
     4
 40
50.8
 49
31.75
 74
     0
 49
-6.349999999999999
 74
     0
 49
6.349999999999999
 74
     0
 49
-6.349999999999999
 74
     0
  0
LTYPE
  5
10CC
330
5
100
AcDbSymbolTableRecord
100
AcDbLinetypeTableRecord
  2
HIDDEN
 70
     0
  3
- - - - - - - - - - - - - - - - - - - -
 72
    65
 73
     2
 40
0.2
 49
0.1
 74
     0
 49
-0.1
 74
     0
  0
LTYPE
  5
3539
330
5
100
AcDbSymbolTableRecord
100
AcDbLinetypeTableRecord
  2
DOT
 70
     0
  3
Dot . . . . . . . . . . . . . . . . . . . . . .
 72
    65
 73
     2
 40
0.25
 49
0.0
 74
     0
 49
-0.25
 74
     0
  0
ENDTAB
  0
TABLE
  2
LAYER
  5
2
102
{ACAD_XDICTIONARY
360
CB
102
}
330
0
100
AcDbSymbolTable
 70
    12
  0
LAYER
  5
10
102
{ACAD_XDICTIONARY
360
7DA9
102
}
330
2
100
AcDbSymbolTableRecord
100
AcDbLayerTableRecord
  2
0
 70
     0
 62
     7
  6
Continuous
370
    -3
390
F
347
96
348
0
  0
LAYER
  5
C5
102
{ACAD_XDICTIONARY
360
7DAB
102
}
330
2
100
AcDbSymbolTableRecord
100
AcDbLayerTableRecord
  2
标注
 70
     0
 62
    82
  6
Continuous
370
    -3
390
F
347
96
348
0
1001
AcadStringInfo
1000
MIFCodePage
1070
     5
  0
LAYER
  5
C6
102
{ACAD_XDICTIONARY
360
7DAD
102
}
330
2
100
AcDbSymbolTableRecord
100
AcDbLayerTableRecord
  2
粗实线
 70
     0
 62
     7
  6
Continuous
370
    30
390
F
347
96
348
0
1001
AcadStringInfo
1000
MIFCodePage
1070
     5
  0
LAYER
  5
C7
102
{ACAD_XDICTIONARY
360
7DAF
102
}
330
2
100
AcDbSymbolTableRecord
100
AcDbLayerTableRecord
  2
细实
 70
     0
 62
   131
  6
Continuous
370
    15
390
F
347
96
348
0
1001
AcadStringInfo
1000
MIFCodePage
1070
     5
  0
LAYER
  5
C8
102
{ACAD_XDICTIONARY
360
7DB1
102
}
330
2
100
AcDbSymbolTableRecord
100
AcDbLayerTableRecord
  2
粗实
 70
     0
 62
     7
  6
Continuous
370
    40
390
F
347
96
348
0
1001
AcadStringInfo
1000
MIFCodePage
1070
     5
  0
LAYER
  5
26A
102
{ACAD_XDICTIONARY
360
7DB3
102
}
330
2
100
AcDbSymbolTableRecord
100
AcDbLayerTableRecord
  2
细实线
 70
     0
 62
     7
  6
Continuous
370
    25
390
F
347
96
348
0
1001
AcAecLayerStandard
1000

1000

1001
AcadStringInfo
1000
MIFCodePage
1070
     5
  0
LAYER
  5
26B
102
{ACAD_XDICTIONARY
360
7DB5
102
}
330
2
100
AcDbSymbolTableRecord
100
AcDbLayerTableRecord
  2
标注线
 70
     0
 62
     6
  6
Continuous
370
    18
390
F
347
96
348
0
1001
AcAecLayerStandard
1000

1000

1001
AcadStringInfo
1000
MIFCodePage
1070
     5
  0
LAYER
  5
26C
102
{ACAD_XDICTIONARY
360
7DB7
102
}
330
2
100
AcDbSymbolTableRecord
100
AcDbLayerTableRecord
  2
虚线
 70
     0
 62
     2
  6
ACAD_ISO03W100
370
    18
390
F
347
96
348
0
1001
AcAecLayerStandard
1000

1000

1001
AcadStringInfo
1000
MIFCodePage
1070
     5
  0
LAYER
  5
26D
102
{ACAD_XDICTIONARY
360
7DB9
102
}
330
2
100
AcDbSymbolTableRecord
100
AcDbLayerTableRecord
  2
中心线
 70
     0
 62
     1
  6
CENTER
370
    18
390
F
347
96
348
0
1001
AcAecLayerStandard
1000

1000

1001
AcadStringInfo
1000
MIFCodePage
1070
     5
  0
LAYER
  5
26E
330
2
100
AcDbSymbolTableRecord
100
AcDbLayerTableRecord
  2
Defpoints
 70
     0
 62
     7
  6
Continuous
290
     0
370
    -3
390
F
347
96
348
0
  0
LAYER
  5
52B
102
{ACAD_XDICTIONARY
360
7DBB
102
}
330
2
100
AcDbSymbolTableRecord
100
AcDbLayerTableRecord
  2
06___PRT_ALL_SURFS
 70
     0
 62
     7
  6
Continuous
370
    -3
390
F
347
96
348
0
  0
LAYER
  5
3C36
102
{ACAD_XDICTIONARY
360
7DBD
102
}
330
2
100
AcDbSymbolTableRecord
100
AcDbLayerTableRecord
  2
AM_0
 70
     0
 62
     7
  6
Continuous
370
    35
390
F
347
96
348
0
1001
AcAecLayerStandard
1000

1000

  0
ENDTAB
  0
TABLE
  2
STYLE
  5
3
330
0
100
AcDbSymbolTable
 70
     2
  0
STYLE
  5
11
330
3
100
AcDbSymbolTableRecord
100
AcDbTextStyleTableRecord
  2
Standard
 70
     0
 40
0.0
 41
1.0
 50
0.0
 71
     0
 42
0.2
  3
txt
  4
gbcbig.shx
  0
STYLE
  5
C9
330
3
100
AcDbSymbolTableRecord
100
AcDbTextStyleTableRecord
  2
hz
 70
     0
 40
0.0
 41
0.667
 50
1.0
 71
     0
 42
3.0
  3
romans.shx
  4

  0
ENDTAB
  0
TABLE
  2
VIEW
  5
6
330
0
100
AcDbSymbolTable
 70
     0
  0
ENDTAB
  0
TABLE
  2
UCS
  5
7
330
0
100
AcDbSymbolTable
 70
     0
  0
ENDTAB
  0
TABLE
  2
APPID
  5
9
330
0
100
AcDbSymbolTable
 70
     6
  0
APPID
  5
12
330
9
100
AcDbSymbolTableRecord
100
AcDbRegAppTableRecord
  2
ACAD
 70
     0
  0
APPID
  5
CA
330
9
100
AcDbSymbolTableRecord
100
AcDbRegAppTableRecord
  2
ACAD_PSEXT
 70
     0
  0
APPID
  5
270
330
9
100
AcDbSymbolTableRecord
100
AcDbRegAppTableRecord
  2
AcAecLayerStandard
 70
     0
  0
APPID
  5
9E6
330
9
100
AcDbSymbolTableRecord
100
AcDbRegAppTableRecord
  2
ACAD_EXEMPT_FROM_CAD_STANDARDS
 70
     0
  0
APPID
  5
7DA1
330
9
100
AcDbSymbolTableRecord
100
AcDbRegAppTableRecord
  2
AcadStringInfo
 70
     0
  0
APPID
  5
7DBF
330
9
100
AcDbSymbolTableRecord
100
AcDbRegAppTableRecord
  2
ACAD_NAV_VCDISPLAY
 70
     0
  0
ENDTAB
  0
TABLE
  2
DIMSTYLE
  5
A
330
0
100
AcDbSymbolTable
 70
     2
100
AcDbDimStyleTable
 71
     2
340
27
340
26F
  0
DIMSTYLE
105
27
102
{ACAD_REACTORS
330
7680
330
7683
330
7688
330
768D
330
7690
330
7696
330
7699
330
7711
330
7717
330
771A
330
779A
330
7D4E
102
}
330
A
100
AcDbSymbolTableRecord
100
AcDbDimStyleTableRecord
  2
Standard
 70
     0
 40
15.0
 41
2.5
 43
3.754999999999999
 44
1.25
 73
     0
 74
     0
 77
     1
 78
     8
 79
     2
140
3.0
141
2.5
147
0.625
172
     1
271
     0
272
     0
340
11
  0
DIMSTYLE
105
26F
330
A
100
AcDbSymbolTableRecord
100
AcDbDimStyleTableRecord
  2
ISO-25
 70
     0
 41
52.0
 42
0.0
 43
3.75
 44
35.0
 73
     0
 74
     0
 77
     1
 78
     8
140
60.0
141
40.0
143
0.03937007874016
147
15.0
171
     3
172
     1
271
     0
272
     0
274
     3
278
    44
283
     0
284
     8
340
11
  0
ENDTAB
  0
TABLE
  2
BLOCK_RECORD
  5
1
330
0
100
AcDbSymbolTable
 70
   143
  0
BLOCK_RECORD
  5
1F
102
{ACAD_XDICTIONARY
360
FB6
102
}
330
1
100
AcDbSymbolTableRecord
100
AcDbBlockTableRecord
  2
*Model_Space
340
22
 70
     0
280
     1
281
     0
  0
BLOCK_RECORD
  5
58
330
1
100
AcDbSymbolTableRecord
100
AcDbBlockTableRecord
  2
*Paper_Space
340
59
 70
     0
280
     1
281
     0
  0
BLOCK_RECORD
  5
5D
330
1
100
AcDbSymbolTableRecord
100
AcDbBlockTableRecord
  2
*Paper_Space0
340
5E
 70
     0
280
     1
281
     0
  0
BLOCK_RECORD
  5
7885
330
1
100
AcDbSymbolTableRecord
100
AcDbBlockTableRecord
  2
*D115
340
0
 70
     0
280
     1
281
     0
  0
BLOCK_RECORD
  5
78A2
330
1
100
AcDbSymbolTableRecord
100
AcDbBlockTableRecord
  2
*D116
340
0
 70
     0
280
     1
281
     0
  0
BLOCK_RECORD
  5
78B1
330
1
100
AcDbSymbolTableRecord
100
AcDbBlockTableRecord
  2
*D117
340
0
 70
     0
280
     1
281
     0
  0
BLOCK_RECORD
  5
79B3
330
1
100
AcDbSymbolTableRecord
100
AcDbBlockTableRecord
  2
*D131
340
0
 70
     0
280
     1
281
     0
  0
BLOCK_RECORD
  5
79CB
330
1
100
AcDbSymbolTableRecord
100
AcDbBlockTableRecord
  2
*D133
340
0
 70
     0
280
     1
281
     0
  0
BLOCK_RECORD
  5
79D7
330
1
100
AcDbSymbolTableRecord
100
AcDbBlockTableRecord
  2
*D134
340
0
 70
     0
280
     1
281
     0
  0
BLOCK_RECORD
  5
79E3
330
1
100
AcDbSymbolTableRecord
100
AcDbBlockTableRecord
  2
*D135
340
0
 70
     0
280
     1
281
     0
  0
BLOCK_RECORD
  5
79EF
330
1
100
AcDbSymbolTableRecord
100
AcDbBlockTableRecord
  2
*D136
340
0
 70
     0
280
     1
281
     0
  0
BLOCK_RECORD
  5
79FB
330
1
100
AcDbSymbolTableRecord
100
AcDbBlockTableRecord
  2
*D137
340
0
 70
     0
280
     1
281
     0
  0
BLOCK_RECORD
  5
7A13
330
1
100
AcDbSymbolTableRecord
100
AcDbBlockTableRecord
  2
*D138
340
0
 70
     0
280
     1
281
     0
  0
BLOCK_RECORD
  5
7A1F
330
1
100
AcDbSymbolTableRecord
100
AcDbBlockTableRecord
  2
*D139
340
0
 70
     0
280
     1
281
     0
  0
BLOCK_RECORD
  5
7D4F
330
1
100
AcDbSymbolTableRecord
100
AcDbBlockTableRecord
  2
*D142
340
0
 70
     0
280
     1
281
     0
  0
ENDTAB
  0
ENDSEC
  0
SECTION
  2
BLOCKS
  0
BLOCK
  5
20
330
1F
100
AcDbEntity
  8
0
100
AcDbBlockBegin
  2
*Model_Space
 70
     0
 10
0.0
 20
0.0
 30
0.0
  3
*Model_Space
  1

  0
ENDBLK
  5
21
330
1F
100
AcDbEntity
  8
0
100
AcDbBlockEnd
  0
BLOCK
  5
5A
330
58
100
AcDbEntity
 67
     1
  8
0
100
AcDbBlockBegin
  2
*Paper_Space
 70
     0
 10
0.0
 20
0.0
 30
0.0
  3
*Paper_Space
  1

  0
ENDBLK
  5
5B
330
58
100
AcDbEntity
 67
     1
  8
0
100
AcDbBlockEnd
  0
BLOCK
  5
5F
330
5D
100
AcDbEntity
 67
     1
  8
0
100
AcDbBlockBegin
  2
*Paper_Space0
 70
     0
 10
0.0
 20
0.0
 30
0.0
  3
*Paper_Space0
  1

  0
ENDBLK
  5
60
330
5D
100
AcDbEntity
 67
     1
  8
0
100
AcDbBlockEnd
  0
BLOCK
  5
7892
330
7885
100
AcDbEntity
  8
0
100
AcDbBlockBegin
  2
*D115
 70
     1
 10
0.0
 20
0.0
 30
0.0
  3
*D115
  1

  0
LINE
  5
7B7E
330
7885
100
AcDbEntity
  8
0
 62
     0
440
 16777216
370
    -2
100
AcDbLine
 10
234.1831070981462
 20
-10512.37202514786
 30
0.0
 11
-110.8393156760594
 21
-10512.37202514786
 31
0.0
  0
LINE
  5
7B7F
330
7885
100
AcDbEntity
  8
0
 62
     0
440
 16777216
370
    -2
100
AcDbLine
 10
234.1831070981462
 20
-10442.37202514786
 30
0.0
 11
-110.8393156760594
 21
-10442.37202514786
 31
0.0
  0
LINE
  5
7B80
330
7885
100
AcDbEntity
  8
0
 62
     0
440
 16777216
370
    -2
100
AcDbLine
 10
-92.08931567605944
 20
-10549.87202514786
 30
0.0
 11
-92.08931567605944
 21
-10587.37202514786
 31
0.0
  0
LINE
  5
7B81
330
7885
100
AcDbEntity
  8
0
 62
     0
440
 16777216
370
    -2
100
AcDbLine
 10
-92.08931567605942
 20
-10404.87202514786
 30
0.0
 11
-92.0893156760594
 21
-10367.37202514786
 31
0.0
  0
LINE
  5
7B82
330
7885
100
AcDbEntity
  8
0
 62
     0
440
 16777216
370
    -2
100
AcDbLine
 10
-92.0893156760594
 20
-10367.37202514786
 30
0.0
 11
-15.2143156760594
 21
-10367.37202514786
 31
0.0
  0
LINE
  5
7B83
330
7885
100
AcDbEntity
  8
0
 62
     0
440
 16777216
370
    -2
100
AcDbLine
 10
-92.08931567605942
 20
-10512.37202514786
 30
0.0
 11
-92.08931567605942
 21
-10442.37202514786
 31
0.0
  0
SOLID
  5
7B84
330
7885
100
AcDbEntity
  8
0
 62
     0
440
 16777216
100
AcDbTrace
 10
-98.33931567605944
 20
-10549.87202514786
 30
0.0
 11
-85.83931567605944
 21
-10549.87202514786
 31
0.0
 12
-92.08931567605942
 22
-10512.37202514786
 32
0.0
 13
-92.08931567605942
 23
-10512.37202514786
 33
0.0
  0
SOLID
  5
7B85
330
7885
100
AcDbEntity
  8
0
 62
     0
440
 16777216
100
AcDbTrace
 10
-98.33931567605942
 20
-10404.87202514786
 30
0.0
 11
-85.83931567605942
 21
-10404.87202514786
 31
0.0
 12
-92.08931567605942
 22
-10442.37202514786
 32
0.0
 13
-92.08931567605942
 23
-10442.37202514786
 33
0.0
  0
MTEXT
  5
7B86
330
7885
100
AcDbEntity
  8
0
 62
     0
440
 16777216
100
AcDbMText
 10
-48.96431567605773
 20
-10335.49702514786
 30
0.0
 40
45.0
 41
0.0
 46
0.0
 71
     5
 72
     1
  1
\A1;70
 73
     1
 44
1.0
  0
POINT
  5
7B87
330
7885
100
AcDbEntity
  8
Defpoints
 62
     0
440
 16777216
100
AcDbPoint
 10
235.1206070981461
 20
-10512.37202514786
 30
0.0
  0
POINT
  5
7B88
330
7885
100
AcDbEntity
  8
Defpoints
 62
     0
440
 16777216
100
AcDbPoint
 10
235.1206070981461
 20
-10442.37202514786
 30
0.0
  0
POINT
  5
7B89
330
7885
100
AcDbEntity
  8
Defpoints
 62
     0
440
 16777216
100
AcDbPoint
 10
-92.08931567605942
 20
-10442.37202514786
 30
0.0
  0
ENDBLK
  5
7893
330
7885
100
AcDbEntity
  8
0
100
AcDbBlockEnd
  0
BLOCK
  5
78AF
330
78A2
100
AcDbEntity
  8
0
100
AcDbBlockBegin
  2
*D116
 70
     1
 10
0.0
 20
0.0
 30
0.0
  3
*D116
  1

  0
LINE
  5
7B95
330
78A2
100
AcDbEntity
  8
0
 62
     0
440
 16777216
370
    -2
100
AcDbLine
 10
1501.058107096807
 20
-11172.37202514777
 30
0.0
 11
1784.088845993481
 21
-11172.37202514777
 31
0.0
  0
LINE
  5
7B96
330
78A2
100
AcDbEntity
  8
0
 62
     0
440
 16777216
370
    -2
100
AcDbLine
 10
1501.058107096807
 20
-11242.37202514777
 30
0.0
 11
1784.088845993481
 21
-11242.37202514777
 31
0.0
  0
LINE
  5
7B97
330
78A2
100
AcDbEntity
  8
0
 62
     0
440
 16777216
370
    -2
100
AcDbLine
 10
1765.338845993481
 20
-11134.87202514777
 30
0.0
 11
1765.338845993481
 21
-11097.37202514777
 31
0.0
  0
LINE
  5
7B98
330
78A2
100
AcDbEntity
  8
0
 62
     0
440
 16777216
370
    -2
100
AcDbLine
 10
1765.338845993481
 20
-11279.87202514777
 30
0.0
 11
1765.338845993481
 21
-11317.37202514777
 31
0.0
  0
LINE
  5
7B99
330
78A2
100
AcDbEntity
  8
0
 62
     0
440
 16777216
370
    -2
100
AcDbLine
 10
1765.338845993481
 20
-11317.37202514777
 30
0.0
 11
1688.463845993481
 21
-11317.37202514777
 31
0.0
  0
LINE
  5
7B9A
330
78A2
100
AcDbEntity
  8
0
 62
     0
440
 16777216
370
    -2
100
AcDbLine
 10
1765.338845993481
 20
-11172.37202514777
 30
0.0
 11
1765.338845993481
 21
-11242.37202514777
 31
0.0
  0
SOLID
  5
7B9B
330
78A2
100
AcDbEntity
  8
0
 62
     0
440
 16777216
100
AcDbTrace
 10
1759.088845993481
 20
-11134.87202514777
 30
0.0
 11
1771.588845993481
 21
-11134.87202514777
 31
0.0
 12
1765.338845993481
 22
-11172.37202514777
 32
0.0
 13
1765.338845993481
 23
-11172.37202514777
 33
0.0
  0
SOLID
  5
7B9C
330
78A2
100
AcDbEntity
  8
0
 62
     0
440
 16777216
100
AcDbTrace
 10
1759.088845993481
 20
-11279.87202514777
 30
0.0
 11
1771.588845993481
 21
-11279.87202514777
 31
0.0
 12
1765.338845993481
 22
-11242.37202514777
 32
0.0
 13
1765.338845993481
 23
-11242.37202514777
 33
0.0
  0
MTEXT
  5
7B9D
330
78A2
100
AcDbEntity
  8
0
 62
     0
440
 16777216
100
AcDbMText
 10
1722.213845993483
 20
-11285.49702514777
 30
0.0
 40
45.0
 41
0.0
 46
0.0
 71
     5
 72
     1
  1
\A1;70
 73
     1
 44
1.0
  0
POINT
  5
7B9E
330
78A2
100
AcDbEntity
  8
Defpoints
 62
     0
440
 16777216
100
AcDbPoint
 10
1500.120607096807
 20
-11172.37202514777
 30
0.0
  0
POINT
  5
7B9F
330
78A2
100
AcDbEntity
  8
Defpoints
 62
     0
440
 16777216
100
AcDbPoint
 10
1500.120607096807
 20
-11242.37202514777
 30
0.0
  0
POINT
  5
7BA0
330
78A2
100
AcDbEntity
  8
Defpoints
 62
     0
440
 16777216
100
AcDbPoint
 10
1765.338845993481
 20
-11242.37202514777
 30
0.0
  0
ENDBLK
  5
78B0
330
78A2
100
AcDbEntity
  8
0
100
AcDbBlockEnd
  0
BLOCK
  5
78BD
330
78B1
100
AcDbEntity
  8
0
100
AcDbBlockBegin
  2
*D117
 70
     1
 10
0.0
 20
0.0
 30
0.0
  3
*D117
  1

  0
LINE
  5
7C82
330
78B1
100
AcDbEntity
  8
0
 62
     0
440
 16777216
370
    -2
100
AcDbLine
 10
175.1206070981479
 20
-11113.30952514777
 30
0.0
 11
175.1206070981479
 21
-11401.15420623133
 31
0.0
  0
LINE
  5
7C83
330
78B1
100
AcDbEntity
  8
0
 62
     0
440
 16777216
370
    -2
100
AcDbLine
 10
105.1206070981478
 20
-11173.2491513942
 30
0.0
 11
105.1206070981478
 21
-11401.15420623133
 31
0.0
  0
LINE
  5
7C84
330
78B1
100
AcDbEntity
  8
0
 62
     0
440
 16777216
370
    -2
100
AcDbLine
 10
212.6206070981479
 20
-11382.40420623133
 30
0.0
 11
250.1206070981479
 21
-11382.40420623133
 31
0.0
  0
LINE
  5
7C85
330
78B1
100
AcDbEntity
  8
0
 62
     0
440
 16777216
370
    -2
100
AcDbLine
 10
67.6206070981478
 20
-11382.40420623133
 30
0.0
 11
-56.1293929018522
 21
-11382.40420623133
 31
0.0
  0
LINE
  5
7C86
330
78B1
100
AcDbEntity
  8
0
 62
     0
440
 16777216
370
    -2
100
AcDbLine
 10
175.1206070981479
 20
-11382.40420623133
 30
0.0
 11
105.1206070981478
 21
-11382.40420623133
 31
0.0
  0
SOLID
  5
7C87
330
78B1
100
AcDbEntity
  8
0
 62
     0
440
 16777216
100
AcDbTrace
 10
212.6206070981479
 20
-11376.15420623133
 30
0.0
 11
212.6206070981479
 21
-11388.65420623133
 31
0.0
 12
175.1206070981479
 22
-11382.40420623133
 32
0.0
 13
175.1206070981479
 23
-11382.40420623133
 33
0.0
  0
SOLID
  5
7C88
330
78B1
100
AcDbEntity
  8
0
 62
     0
440
 16777216
100
AcDbTrace
 10
67.6206070981478
 20
-11376.15420623133
 30
0.0
 11
67.6206070981478
 21
-11388.65420623133
 31
0.0
 12
105.1206070981478
 22
-11382.40420623133
 32
0.0
 13
105.1206070981478
 23
-11382.40420623133
 33
0.0
  0
MTEXT
  5
7C89
330
78B1
100
AcDbEntity
  8
0
 62
     0
440
 16777216
100
AcDbMText
 10
-13.00439290185219
 20
-11350.52920623133
 30
0.0
 40
45.0
 41
0.0
 46
0.0
 71
     5
 72
     1
  1
\A1;70
 73
     1
 44
1.0
  0
POINT
  5
7C8A
330
78B1
100
AcDbEntity
  8
Defpoints
 62
     0
440
 16777216
100
AcDbPoint
 10
175.1206070981479
 20
-11112.37202514777
 30
0.0
  0
POINT
  5
7C8B
330
78B1
100
AcDbEntity
  8
Defpoints
 62
     0
440
 16777216
100
AcDbPoint
 10
105.1206070981478
 20
-11172.3116513942
 30
0.0
  0
POINT
  5
7C8C
330
78B1
100
AcDbEntity
  8
Defpoints
 62
     0
440
 16777216
100
AcDbPoint
 10
105.1206070981478
 20
-11382.40420623133
 30
0.0
  0
ENDBLK
  5
78BE
330
78B1
100
AcDbEntity
  8
0
100
AcDbBlockEnd
  0
BLOCK
  5
79BD
330
79B3
100
AcDbEntity
  8
0
100
AcDbBlockBegin
  2
*D131
 70
     1
 10
0.0
 20
0.0
 30
0.0
  3
*D131
  1

  0
LINE
  5
7CB6
330
79B3
100
AcDbEntity
  8
0
 62
     0
440
 16777216
370
    -2
100
AcDbLine
 10
1058.165440427303
 20
-10938.91157856299
 30
0.0
 11
1180.040440427318
 21
-10938.91157856299
 31
0.0
  0
LINE
  5
7CB7
330
79B3
100
AcDbEntity
  8
0
 62
     0
440
 16777216
370
    -2
100
AcDbLine
 10
1180.040440427318
 20
-10938.91157856299
 30
0.0
 11
1323.977977507575
 21
-10870.22625139563
 31
0.0
  0
LINE
  5
7CB8
330
79B3
100
AcDbEntity
  8
0
 62
     0
440
 16777216
370
    -2
100
AcDbLine
 10
1436.791803754178
 20
-10816.3927989
 30
0.0
 11
1470.635951628161
 21
-10800.24276315131
 31
0.0
  0
MTEXT
  5
7CB9
330
79B3
100
AcDbEntity
  8
0
 62
     0
440
 16777216
100
AcDbMText
 10
1114.415440427302
 20
-10907.03657856298
 30
0.0
 40
45.0
 41
0.0
 46
0.0
 71
     5
 72
     1
  1
\A1;\U+220550
 73
     1
 44
1.0
  0
LINE
  5
7CBA
330
79B3
100
AcDbEntity
  8
0
 62
     0
440
 16777216
370
    -2
100
AcDbLine
 10
1402.947655880196
 20
-10832.54283464869
 30
0.0
 11
1357.822125381557
 21
-10854.07621564694
 31
0.0
  0
SOLID
  5
7CBB
330
79B3
100
AcDbEntity
  8
0
 62
     0
440
 16777216
100
AcDbTrace
 10
1434.100131129397
 20
-10810.75210758767
 30
0.0
 11
1439.48347637896
 21
-10822.03349021233
 31
0.0
 12
1402.947655880196
 22
-10832.54283464869
 32
0.0
 13
1402.947655880196
 23
-10832.54283464869
 33
0.0
  0
SOLID
  5
7CBC
330
79B3
100
AcDbEntity
  8
0
 62
     0
440
 16777216
100
AcDbTrace
 10
1321.286304882793
 20
-10864.5855600833
 30
0.0
 11
1326.669650132356
 21
-10875.86694270797
 31
0.0
 12
1357.822125381557
 22
-10854.07621564694
 32
0.0
 13
1357.822125381557
 23
-10854.07621564694
 33
0.0
  0
POINT
  5
7CBD
330
79B3
100
AcDbEntity
  8
Defpoints
 62
     0
440
 16777216
100
AcDbPoint
 10
1357.822125381557
 20
-10854.07621564694
 30
0.0
  0
POINT
  5
7CBE
330
79B3
100
AcDbEntity
  8
Defpoints
 62
     0
440
 16777216
100
AcDbPoint
 10
1402.947655880196
 20
-10832.54283464869
 30
0.0
  0
ENDBLK
  5
79BE
330
79B3
100
AcDbEntity
  8
0
100
AcDbBlockEnd
  0
BLOCK
  5
79D5
330
79CB
100
AcDbEntity
  8
0
100
AcDbBlockBegin
  2
*D133
 70
     1
 10
0.0
 20
0.0
 30
0.0
  3
*D133
  1

  0
LINE
  5
7A96
330
79CB
100
AcDbEntity
  8
0
 62
     0
440
 16777216
370
    -2
100
AcDbLine
 10
105.120607098147
 20
-10841.43452514781
 30
0.0
 11
105.1206070981471
 21
-10278.32073604469
 31
0.0
  0
LINE
  5
7A97
330
79CB
100
AcDbEntity
  8
0
 62
     0
440
 16777216
370
    -2
100
AcDbLine
 10
1630.120607096807
 20
-10841.43452514781
 30
0.0
 11
1630.120607096807
 21
-10278.32073604469
 31
0.0
  0
LINE
  5
7A98
330
79CB
100
AcDbEntity
  8
0
 62
     0
440
 16777216
370
    -2
100
AcDbLine
 10
142.6206070981471
 20
-10297.07073604469
 30
0.0
 11
1592.620607096807
 21
-10297.07073604469
 31
0.0
  0
SOLID
  5
7A99
330
79CB
100
AcDbEntity
  8
0
 62
     0
440
 16777216
100
AcDbTrace
 10
142.6206070981471
 20
-10290.82073604469
 30
0.0
 11
142.6206070981471
 21
-10303.32073604469
 31
0.0
 12
105.1206070981471
 22
-10297.07073604469
 32
0.0
 13
105.1206070981471
 23
-10297.07073604469
 33
0.0
  0
SOLID
  5
7A9A
330
79CB
100
AcDbEntity
  8
0
 62
     0
440
 16777216
100
AcDbTrace
 10
1592.620607096807
 20
-10290.82073604469
 30
0.0
 11
1592.620607096807
 21
-10303.32073604469
 31
0.0
 12
1630.120607096807
 22
-10297.07073604469
 32
0.0
 13
1630.120607096807
 23
-10297.07073604469
 33
0.0
  0
MTEXT
  5
7A9B
330
79CB
100
AcDbEntity
  8
0
 62
     0
440
 16777216
100
AcDbMText
 10
867.6206070974771
 20
-10265.19573604469
 30
0.0
 40
45.0
 41
0.0
 46
0.0
 71
     5
 72
     1
  1
\A1;1525
 73
     1
 44
1.0
  0
POINT
  5
7A9C
330
79CB
100
AcDbEntity
  8
Defpoints
 62
     0
440
 16777216
100
AcDbPoint
 10
105.120607098147
 20
-10842.37202514781
 30
0.0
  0
POINT
  5
7A9D
330
79CB
100
AcDbEntity
  8
Defpoints
 62
     0
440
 16777216
100
AcDbPoint
 10
1630.120607096807
 20
-10842.37202514781
 30
0.0
  0
POINT
  5
7A9E
330
79CB
100
AcDbEntity
  8
Defpoints
 62
     0
440
 16777216
100
AcDbPoint
 10
1630.120607096807
 20
-10297.07073604469
 30
0.0
  0
ENDBLK
  5
79D6
330
79CB
100
AcDbEntity
  8
0
100
AcDbBlockEnd
  0
BLOCK
  5
79E1
330
79D7
100
AcDbEntity
  8
0
100
AcDbBlockBegin
  2
*D134
 70
     1
 10
0.0
 20
0.0
 30
0.0
  3
*D134
  1

  0
LINE
  5
7A9F
330
79D7
100
AcDbEntity
  8
0
 62
     0
440
 16777216
370
    -2
100
AcDbLine
 10
881.6831070974767
 20
-10442.37202514786
 30
0.0
 11
-110.8393156760592
 21
-10442.37202514786
 31
0.0
  0
LINE
  5
7AA0
330
79D7
100
AcDbEntity
  8
0
 62
     0
440
 16777216
370
    -2
100
AcDbLine
 10
881.6831070974767
 20
-11242.37202514777
 30
0.0
 11
-110.8393156760594
 21
-11242.37202514777
 31
0.0
  0
LINE
  5
7AA1
330
79D7
100
AcDbEntity
  8
0
 62
     0
440
 16777216
370
    -2
100
AcDbLine
 10
-92.08931567605924
 20
-10479.87202514786
 30
0.0
 11
-92.0893156760594
 21
-11204.87202514777
 31
0.0
  0
SOLID
  5
7AA2
330
79D7
100
AcDbEntity
  8
0
 62
     0
440
 16777216
100
AcDbTrace
 10
-98.33931567605924
 20
-10479.87202514786
 30
0.0
 11
-85.83931567605924
 21
-10479.87202514786
 31
0.0
 12
-92.08931567605922
 22
-10442.37202514786
 32
0.0
 13
-92.08931567605922
 23
-10442.37202514786
 33
0.0
  0
SOLID
  5
7AA3
330
79D7
100
AcDbEntity
  8
0
 62
     0
440
 16777216
100
AcDbTrace
 10
-98.3393156760594
 20
-11204.87202514777
 30
0.0
 11
-85.8393156760594
 21
-11204.87202514777
 31
0.0
 12
-92.08931567605942
 22
-11242.37202514777
 32
0.0
 13
-92.08931567605942
 23
-11242.37202514777
 33
0.0
  0
MTEXT
  5
7AA4
330
79D7
100
AcDbEntity
  8
0
 62
     0
440
 16777216
100
AcDbMText
 10
-123.9643156760576
 20
-10842.37202514781
 30
0.0
 40
45.0
 41
0.0
 46
0.0
 71
     5
 72
     1
  1
\A1;800
 11
0.0000000000000001
 21
1.0
 31
0.0
 73
     1
 44
1.0
  0
POINT
  5
7AA5
330
79D7
100
AcDbEntity
  8
Defpoints
 62
     0
440
 16777216
100
AcDbPoint
 10
882.6206070974768
 20
-10442.37202514786
 30
0.0
  0
POINT
  5
7AA6
330
79D7
100
AcDbEntity
  8
Defpoints
 62
     0
440
 16777216
100
AcDbPoint
 10
882.6206070974768
 20
-11242.37202514777
 30
0.0
  0
POINT
  5
7AA7
330
79D7
100
AcDbEntity
  8
Defpoints
 62
     0
440
 16777216
100
AcDbPoint
 10
-92.08931567605942
 20
-11242.37202514777
 30
0.0
  0
ENDBLK
  5
79E2
330
79D7
100
AcDbEntity
  8
0
100
AcDbBlockEnd
  0
BLOCK
  5
79ED
330
79E3
100
AcDbEntity
  8
0
100
AcDbBlockBegin
  2
*D135
 70
     1
 10
0.0
 20
0.0
 30
0.0
  3
*D135
  1

  0
LINE
  5
7AA8
330
79E3
100
AcDbEntity
  8
0
 62
     0
440
 16777216
370
    -2
100
AcDbLine
 10
1380.384890630878
 20
-10842.37202514781
 30
0.0
 11
1380.384890630878
 21
-10733.80297785597
 31
0.0
  0
LINE
  5
7AA9
330
79E3
100
AcDbEntity
  8
0
 62
     0
440
 16777216
370
    -2
100
AcDbLine
 10
1630.120607096807
 20
-10842.37202514781
 30
0.0
 11
1630.120607096807
 21
-10733.80297785597
 31
0.0
  0
LINE
  5
7AAA
330
79E3
100
AcDbEntity
  8
0
 62
     0
440
 16777216
370
    -2
100
AcDbLine
 10
1417.884890630879
 20
-10752.55297785597
 30
0.0
 11
1592.620607096807
 21
-10752.55297785597
 31
0.0
  0
SOLID
  5
7AAB
330
79E3
100
AcDbEntity
  8
0
 62
     0
440
 16777216
100
AcDbTrace
 10
1417.884890630879
 20
-10746.30297785597
 30
0.0
 11
1417.884890630879
 21
-10758.80297785597
 31
0.0
 12
1380.384890630878
 22
-10752.55297785597
 32
0.0
 13
1380.384890630878
 23
-10752.55297785597
 33
0.0
  0
SOLID
  5
7AAC
330
79E3
100
AcDbEntity
  8
0
 62
     0
440
 16777216
100
AcDbTrace
 10
1592.620607096807
 20
-10746.30297785597
 30
0.0
 11
1592.620607096807
 21
-10758.80297785597
 31
0.0
 12
1630.120607096807
 22
-10752.55297785597
 32
0.0
 13
1630.120607096807
 23
-10752.55297785597
 33
0.0
  0
MTEXT
  5
7AAD
330
79E3
100
AcDbEntity
  8
0
 62
     0
440
 16777216
100
AcDbMText
 10
1505.252748863843
 20
-10720.67797785597
 30
0.0
 40
45.0
 41
0.0
 46
0.0
 71
     5
 72
     1
  1
\A1;250
 73
     1
 44
1.0
  0
POINT
  5
7AAE
330
79E3
100
AcDbEntity
  8
Defpoints
 62
     0
440
 16777216
100
AcDbPoint
 10
1380.384890630878
 20
-10843.30952514781
 30
0.0
  0
POINT
  5
7AAF
330
79E3
100
AcDbEntity
  8
Defpoints
 62
     0
440
 16777216
100
AcDbPoint
 10
1630.120607096807
 20
-10843.30952514781
 30
0.0
  0
POINT
  5
7AB0
330
79E3
100
AcDbEntity
  8
Defpoints
 62
     0
440
 16777216
100
AcDbPoint
 10
1630.120607096807
 20
-10752.55297785597
 30
0.0
  0
ENDBLK
  5
79EE
330
79E3
100
AcDbEntity
  8
0
100
AcDbBlockEnd
  0
BLOCK
  5
79F9
330
79EF
100
AcDbEntity
  8
0
100
AcDbBlockBegin
  2
*D136
 70
     1
 10
0.0
 20
0.0
 30
0.0
  3
*D136
  1

  0
LINE
  5
7AB1
330
79EF
100
AcDbEntity
  8
0
 62
     0
440
 16777216
370
    -2
100
AcDbLine
 10
3153.875616686921
 20
-11151.72621052919
 30
0.0
 11
3418.329618664508
 21
-11151.72621052919
 31
0.0
  0
LINE
  5
7AB2
330
79EF
100
AcDbEntity
  8
0
 62
     0
440
 16777216
370
    -2
100
AcDbLine
 10
3153.875616686921
 20
-10651.54616414031
 30
0.0
 11
3418.329618664508
 21
-10651.54616414031
 31
0.0
  0
LINE
  5
7AB3
330
79EF
100
AcDbEntity
  8
0
 62
     0
440
 16777216
370
    -2
100
AcDbLine
 10
3399.579618664507
 20
-11114.22621052919
 30
0.0
 11
3399.579618664507
 21
-10689.04616414031
 31
0.0
  0
SOLID
  5
7AB4
330
79EF
100
AcDbEntity
  8
0
 62
     0
440
 16777216
100
AcDbTrace
 10
3393.329618664508
 20
-11114.22621052919
 30
0.0
 11
3405.829618664507
 21
-11114.22621052919
 31
0.0
 12
3399.579618664507
 22
-11151.72621052919
 32
0.0
 13
3399.579618664507
 23
-11151.72621052919
 33
0.0
  0
SOLID
  5
7AB5
330
79EF
100
AcDbEntity
  8
0
 62
     0
440
 16777216
100
AcDbTrace
 10
3393.329618664508
 20
-10689.04616414031
 30
0.0
 11
3405.829618664507
 21
-10689.04616414031
 31
0.0
 12
3399.579618664507
 22
-10651.54616414031
 32
0.0
 13
3399.579618664507
 23
-10651.54616414031
 33
0.0
  0
MTEXT
  5
7AB6
330
79EF
100
AcDbEntity
  8
0
 62
     0
440
 16777216
100
AcDbMText
 10
3367.70461866451
 20
-10901.63618733475
 30
0.0
 40
45.0
 41
0.0
 46
0.0
 71
     5
 72
     1
  1
\A1;500
 11
0.0000000000000001
 21
1.0
 31
0.0
 73
     1
 44
1.0
  0
POINT
  5
7AB7
330
79EF
100
AcDbEntity
  8
Defpoints
 62
     0
440
 16777216
100
AcDbPoint
 10
3152.938116686921
 20
-11151.72621052919
 30
0.0
  0
POINT
  5
7AB8
330
79EF
100
AcDbEntity
  8
Defpoints
 62
     0
440
 16777216
100
AcDbPoint
 10
3152.938116686921
 20
-10651.54616414031
 30
0.0
  0
POINT
  5
7AB9
330
79EF
100
AcDbEntity
  8
Defpoints
 62
     0
440
 16777216
100
AcDbPoint
 10
3399.579618664507
 20
-10651.54616414031
 30
0.0
  0
ENDBLK
  5
79FA
330
79EF
100
AcDbEntity
  8
0
100
AcDbBlockEnd
  0
BLOCK
  5
7A05
330
79FB
100
AcDbEntity
  8
0
100
AcDbBlockBegin
  2
*D137
 70
     1
 10
0.0
 20
0.0
 30
0.0
  3
*D137
  1

  0
LINE
  5
7ABA
330
79FB
100
AcDbEntity
  8
0
 62
     0
440
 16777216
370
    -2
100
AcDbLine
 10
1878.307562766529
 20
-10675.60866414031
 30
0.0
 11
1878.307562766529
 21
-10512.7881466521
 31
0.0
  0
LINE
  5
7ABB
330
79FB
100
AcDbEntity
  8
0
 62
     0
440
 16777216
370
    -2
100
AcDbLine
 10
3403.3075627652
 20
-10676.54616414031
 30
0.0
 11
3403.3075627652
 21
-10512.7881466521
 31
0.0
  0
LINE
  5
7ABC
330
79FB
100
AcDbEntity
  8
0
 62
     0
440
 16777216
370
    -2
100
AcDbLine
 10
1915.807562766529
 20
-10531.5381466521
 30
0.0
 11
3365.8075627652
 21
-10531.5381466521
 31
0.0
  0
SOLID
  5
7ABD
330
79FB
100
AcDbEntity
  8
0
 62
     0
440
 16777216
100
AcDbTrace
 10
1915.807562766529
 20
-10525.2881466521
 30
0.0
 11
1915.807562766529
 21
-10537.7881466521
 31
0.0
 12
1878.307562766529
 22
-10531.5381466521
 32
0.0
 13
1878.307562766529
 23
-10531.5381466521
 33
0.0
  0
SOLID
  5
7ABE
330
79FB
100
AcDbEntity
  8
0
 62
     0
440
 16777216
100
AcDbTrace
 10
3365.8075627652
 20
-10525.2881466521
 30
0.0
 11
3365.8075627652
 21
-10537.7881466521
 31
0.0
 12
3403.3075627652
 22
-10531.5381466521
 32
0.0
 13
3403.3075627652
 23
-10531.5381466521
 33
0.0
  0
MTEXT
  5
7ABF
330
79FB
100
AcDbEntity
  8
0
 62
     0
440
 16777216
100
AcDbMText
 10
2640.807562765865
 20
-10499.6631466521
 30
0.0
 40
45.0
 41
0.0
 46
0.0
 71
     5
 72
     1
  1
\A1;1525
 73
     1
 44
1.0
  0
POINT
  5
7AC0
330
79FB
100
AcDbEntity
  8
Defpoints
 62
     0
440
 16777216
100
AcDbPoint
 10
1878.307562766529
 20
-10676.54616414031
 30
0.0
  0
POINT
  5
7AC1
330
79FB
100
AcDbEntity
  8
Defpoints
 62
     0
440
 16777216
100
AcDbPoint
 10
3403.3075627652
 20
-10677.48366414031
 30
0.0
  0
POINT
  5
7AC2
330
79FB
100
AcDbEntity
  8
Defpoints
 62
     0
440
 16777216
100
AcDbPoint
 10
3403.3075627652
 20
-10531.5381466521
 30
0.0
  0
ENDBLK
  5
7A06
330
79FB
100
AcDbEntity
  8
0
100
AcDbBlockEnd
  0
BLOCK
  5
7A1D
330
7A13
100
AcDbEntity
  8
0
100
AcDbBlockBegin
  2
*D138
 70
     1
 10
0.0
 20
0.0
 30
0.0
  3
*D138
  1

  0
LINE
  5
7ACC
330
7A13
100
AcDbEntity
  8
0
 62
     0
440
 16777216
370
    -2
100
AcDbLine
 10
3243.366973755532
 20
-11135.72877317226
 30
0.0
 11
3083.429070476094
 21
-11135.72877317226
 31
0.0
  0
LINE
  5
7ACD
330
7A13
100
AcDbEntity
  8
0
 62
     0
440
 16777216
370
    -2
100
AcDbLine
 10
3265.168530221224
 20
-10651.54616414031
 30
0.0
 11
3083.429070476094
 21
-10651.54616414031
 31
0.0
  0
LINE
  5
7ACE
330
7A13
100
AcDbEntity
  8
0
 62
     0
440
 16777216
370
    -2
100
AcDbLine
 10
3102.179070476094
 20
-11098.22877317226
 30
0.0
 11
3102.179070476094
 21
-10689.04616414031
 31
0.0
  0
SOLID
  5
7ACF
330
7A13
100
AcDbEntity
  8
0
 62
     0
440
 16777216
100
AcDbTrace
 10
3095.929070476094
 20
-11098.22877317226
 30
0.0
 11
3108.429070476093
 21
-11098.22877317226
 31
0.0
 12
3102.179070476094
 22
-11135.72877317226
 32
0.0
 13
3102.179070476094
 23
-11135.72877317226
 33
0.0
  0
SOLID
  5
7AD0
330
7A13
100
AcDbEntity
  8
0
 62
     0
440
 16777216
100
AcDbTrace
 10
3095.929070476094
 20
-10689.04616414031
 30
0.0
 11
3108.429070476093
 21
-10689.04616414031
 31
0.0
 12
3102.179070476094
 22
-10651.54616414031
 32
0.0
 13
3102.179070476094
 23
-10651.54616414031
 33
0.0
  0
MTEXT
  5
7AD1
330
7A13
100
AcDbEntity
  8
0
 62
     0
440
 16777216
100
AcDbMText
 10
3070.304070476095
 20
-10893.63746865629
 30
0.0
 40
45.0
 41
0.0
 46
0.0
 71
     5
 72
     1
  1
\A1;470
 11
0.0000000000000001
 21
1.0
 31
0.0
 73
     1
 44
1.0
  0
POINT
  5
7AD2
330
7A13
100
AcDbEntity
  8
Defpoints
 62
     0
440
 16777216
100
AcDbPoint
 10
3244.304473755532
 20
-11135.72877317226
 30
0.0
  0
POINT
  5
7AD3
330
7A13
100
AcDbEntity
  8
Defpoints
 62
     0
440
 16777216
100
AcDbPoint
 10
3266.106030221225
 20
-10651.54616414031
 30
0.0
  0
POINT
  5
7AD4
330
7A13
100
AcDbEntity
  8
Defpoints
 62
     0
440
 16777216
100
AcDbPoint
 10
3102.179070476094
 20
-10651.54616414031
 30
0.0
  0
ENDBLK
  5
7A1E
330
7A13
100
AcDbEntity
  8
0
100
AcDbBlockEnd
  0
BLOCK
  5
7A29
330
7A1F
100
AcDbEntity
  8
0
100
AcDbBlockBegin
  2
*D139
 70
     1
 10
0.0
 20
0.0
 30
0.0
  3
*D139
  1

  0
LINE
  5
7AD5
330
7A1F
100
AcDbEntity
  8
0
 62
     0
440
 16777216
370
    -2
100
AcDbLine
 10
410.1206070968069
 20
-10841.43452514781
 30
0.0
 11
410.1206070968069
 21
-10343.8401312824
 31
0.0
  0
LINE
  5
7AD6
330
7A1F
100
AcDbEntity
  8
0
 62
     0
440
 16777216
370
    -2
100
AcDbLine
 10
1480.120607096806
 20
-10841.43452514781
 30
0.0
 11
1480.120607096806
 21
-10343.8401312824
 31
0.0
  0
LINE
  5
7AD7
330
7A1F
100
AcDbEntity
  8
0
 62
     0
440
 16777216
370
    -2
100
AcDbLine
 10
447.6206070968069
 20
-10362.5901312824
 30
0.0
 11
1442.620607096806
 21
-10362.5901312824
 31
0.0
  0
SOLID
  5
7AD8
330
7A1F
100
AcDbEntity
  8
0
 62
     0
440
 16777216
100
AcDbTrace
 10
447.6206070968069
 20
-10356.3401312824
 30
0.0
 11
447.6206070968069
 21
-10368.8401312824
 31
0.0
 12
410.1206070968069
 22
-10362.5901312824
 32
0.0
 13
410.1206070968069
 23
-10362.5901312824
 33
0.0
  0
SOLID
  5
7AD9
330
7A1F
100
AcDbEntity
  8
0
 62
     0
440
 16777216
100
AcDbTrace
 10
1442.620607096806
 20
-10356.3401312824
 30
0.0
 11
1442.620607096806
 21
-10368.8401312824
 31
0.0
 12
1480.120607096806
 22
-10362.5901312824
 32
0.0
 13
1480.120607096806
 23
-10362.5901312824
 33
0.0
  0
MTEXT
  5
7ADA
330
7A1F
100
AcDbEntity
  8
0
 62
     0
440
 16777216
100
AcDbMText
 10
945.1206070968064
 20
-10330.7151312824
 30
0.0
 40
45.0
 41
0.0
 46
0.0
 71
     5
 72
     1
  1
\A1;1070
 73
     1
 44
1.0
  0
POINT
  5
7ADB
330
7A1F
100
AcDbEntity
  8
Defpoints
 62
     0
440
 16777216
100
AcDbPoint
 10
410.1206070968069
 20
-10842.37202514781
 30
0.0
  0
POINT
  5
7ADC
330
7A1F
100
AcDbEntity
  8
Defpoints
 62
     0
440
 16777216
100
AcDbPoint
 10
1480.120607096806
 20
-10842.37202514781
 30
0.0
  0
POINT
  5
7ADD
330
7A1F
100
AcDbEntity
  8
Defpoints
 62
     0
440
 16777216
100
AcDbPoint
 10
1480.120607096806
 20
-10362.5901312824
 30
0.0
  0
ENDBLK
  5
7A2A
330
7A1F
100
AcDbEntity
  8
0
100
AcDbBlockEnd
  0
BLOCK
  5
7D5B
330
7D4F
100
AcDbEntity
  8
0
100
AcDbBlockBegin
  2
*D142
 70
     1
 10
0.0
 20
0.0
 30
0.0
  3
*D142
  1

  0
LINE
  5
7D5E
330
7D4F
100
AcDbEntity
  8
0
 62
     0
440
 16777216
370
    -2
100
AcDbLine
 10
1560.120607096807
 20
-10571.43452514786
 30
0.0
 11
1560.120607096807
 21
-10491.50356249523
 31
0.0
  0
LINE
  5
7D5F
330
7D4F
100
AcDbEntity
  8
0
 62
     0
440
 16777216
370
    -2
100
AcDbLine
 10
1630.120607096807
 20
-10646.43452514782
 30
0.0
 11
1630.120607096807
 21
-10491.50356249523
 31
0.0
  0
LINE
  5
7D60
330
7D4F
100
AcDbEntity
  8
0
 62
     0
440
 16777216
370
    -2
100
AcDbLine
 10
1522.620607096807
 20
-10510.25356249523
 30
0.0
 11
1485.120607096807
 21
-10510.25356249523
 31
0.0
  0
LINE
  5
7D61
330
7D4F
100
AcDbEntity
  8
0
 62
     0
440
 16777216
370
    -2
100
AcDbLine
 10
1667.620607096807
 20
-10510.25356249523
 30
0.0
 11
1791.370607096807
 21
-10510.25356249523
 31
0.0
  0
LINE
  5
7D62
330
7D4F
100
AcDbEntity
  8
0
 62
     0
440
 16777216
370
    -2
100
AcDbLine
 10
1560.120607096807
 20
-10510.25356249523
 30
0.0
 11
1630.120607096807
 21
-10510.25356249523
 31
0.0
  0
SOLID
  5
7D63
330
7D4F
100
AcDbEntity
  8
0
 62
     0
440
 16777216
100
AcDbTrace
 10
1522.620607096807
 20
-10504.00356249523
 30
0.0
 11
1522.620607096807
 21
-10516.50356249523
 31
0.0
 12
1560.120607096807
 22
-10510.25356249523
 32
0.0
 13
1560.120607096807
 23
-10510.25356249523
 33
0.0
  0
SOLID
  5
7D64
330
7D4F
100
AcDbEntity
  8
0
 62
     0
440
 16777216
100
AcDbTrace
 10
1667.620607096807
 20
-10504.00356249523
 30
0.0
 11
1667.620607096807
 21
-10516.50356249523
 31
0.0
 12
1630.120607096807
 22
-10510.25356249523
 32
0.0
 13
1630.120607096807
 23
-10510.25356249523
 33
0.0
  0
MTEXT
  5
7D65
330
7D4F
100
AcDbEntity
  8
0
 62
     0
440
 16777216
100
AcDbMText
 10
1748.245607096807
 20
-10478.37856249523
 30
0.0
 40
45.0
 41
0.0
 46
0.0
 71
     5
 72
     1
  1
\A1;70
 73
     1
 44
1.0
  0
POINT
  5
7D66
330
7D4F
100
AcDbEntity
  8
Defpoints
 62
     0
440
 16777216
100
AcDbPoint
 10
1560.120607096807
 20
-10572.37202514786
 30
0.0
  0
POINT
  5
7D67
330
7D4F
100
AcDbEntity
  8
Defpoints
 62
     0
440
 16777216
100
AcDbPoint
 10
1630.120607096807
 20
-10647.37202514782
 30
0.0
  0
POINT
  5
7D68
330
7D4F
100
AcDbEntity
  8
Defpoints
 62
     0
440
 16777216
100
AcDbPoint
 10
1630.120607096807
 20
-10510.25356249523
 30
0.0
  0
ENDBLK
  5
7D5C
330
7D4F
100
AcDbEntity
  8
0
100
AcDbBlockEnd
  0
ENDSEC
  0
SECTION
  2
ENTITIES
  0
LINE
  5
764D
102
{ACAD_REACTORS
330
768F
102
}
330
1F
100
AcDbEntity
  8
粗实线
  6
Continuous
 62
     7
100
AcDbLine
 10
1878.307562766529
 20
-10651.54616414031
 30
0.0
 11
3403.3075627652
 21
-10651.54616414031
 31
0.0
  0
LINE
  5
764E
330
1F
100
AcDbEntity
  8
粗实线
  6
Continuous
 62
     7
100
AcDbLine
 10
470.1206070968055
 20
-10587.37202514754
 30
0.0
 11
1420.120607096805
 21
-10587.37202514754
 31
0.0
  0
ARC
  5
764F
330
1F
100
AcDbEntity
  8
粗实线
  6
Continuous
 62
     7
100
AcDbCircle
 10
470.1206070968055
 20
-10647.37202514754
 30
0.0
 40
60.0
100
AcDbArc
 50
90.0
 51
180.0
  0
LINE
  5
7650
330
1F
100
AcDbEntity
  8
粗实线
  6
Continuous
 62
     7
100
AcDbLine
 10
1620.120607096865
 20
-10442.37202514786
 30
0.0
 11
882.6206070974768
 21
-10442.37202514786
 31
0.0
  0
LINE
  5
7651
102
{ACAD_REACTORS
330
7713
102
}
330
1F
100
AcDbEntity
  8
粗实线
  6
Continuous
 62
     7
100
AcDbLine
 10
1500.120607096807
 20
-10512.37202514786
 30
0.0
 11
235.1206070981461
 21
-10512.37202514786
 31
0.0
  0
ARC
  5
7652
330
1F
100
AcDbEntity
  8
粗实线
  6
Continuous
 62
     7
100
AcDbCircle
 10
1500.120607096807
 20
-10572.37202514786
 30
0.0
 40
60.0
100
AcDbArc
 50
0.0
 51
90.0
  0
ARC
  5
7653
330
1F
100
AcDbEntity
  8
粗实线
  6
Continuous
 62
     7
100
AcDbCircle
 10
235.1206070981461
 20
-10572.37202514786
 30
0.0
 40
60.0
100
AcDbArc
 50
90.0
 51
180.0
  0
LINE
  5
7654
102
{ACAD_REACTORS
330
7682
330
7D69
102
}
330
1F
100
AcDbEntity
  8
粗实线
  6
Continuous
 62
     7
100
AcDbLine
 10
1630.120607096807
 20
-10842.37202514781
 30
0.0
 11
1630.120607096807
 21
-10452.37202514783
 31
0.0
  0
CIRCLE
  5
7655
330
1F
100
AcDbEntity
  8
粗实线
  6
Continuous
 62
     0
100
AcDbCircle
 10
1380.384890630878
 20
-10843.30952514781
 30
0.0
 40
34.99999999986
  0
CIRCLE
  5
7656
102
{ACAD_REACTORS
330
768A
102
}
330
1F
100
AcDbEntity
  8
标注
  6
Continuous
 62
     0
100
AcDbCircle
 10
1380.384890630878
 20
-10843.30952514781
 30
0.0
 40
33.21621621666
  0
ARC
  5
7657
330
1F
100
AcDbEntity
  8
粗实线
  6
Continuous
 62
     7
100
AcDbCircle
 10
1620.120607096865
 20
-10452.37202514783
 30
0.0
 40
9.999999999959998
100
AcDbArc
 50
0.0
 51
90.0
  0
LINE
  5
7658
102
{ACAD_REACTORS
330
7698
102
}
330
1F
100
AcDbEntity
  8
虚线
 62
     0
100
AcDbLine
 10
3244.304473755532
 20
-11135.72877317226
 30
0.0
 11
2158.47279085435
 21
-11116.66774999558
 31
0.0
  0
ARC
  5
7659
330
1F
100
AcDbEntity
  8
虚线
 62
     0
100
AcDbCircle
 10
2159.502193486536
 20
-11056.67658122699
 30
0.0
 40
60.0
100
AcDbArc
 50
199.3799521935705
 51
269.0169446644199
  0
LINE
  5
765A
330
1F
100
AcDbEntity
  8
虚线
 62
     0
100
AcDbLine
 10
3373.270489700286
 20
-10661.54616414031
 30
0.0
 11
3304.560499685853
 21
-11085.34005683527
 31
0.0
  0
ARC
  5
765B
330
1F
100
AcDbEntity
  8
虚线
 62
     0
100
AcDbCircle
 10
3245.333876387718
 20
-11075.73760440368
 30
0.0
 40
60.0
100
AcDbArc
 50
269.0169446644199
 51
350.7907313066271
  0
LINE
  5
765C
102
{ACAD_REACTORS
330
7682
330
769B
102
}
330
1F
100
AcDbEntity
  8
中心线
 62
     0
100
AcDbLine
 10
1726.213199967109
 20
-10842.37202514781
 30
0.0
 11
126.6249828519776
 21
-10842.37202514781
 31
0.0
  0
LINE
  5
765D
330
1F
100
AcDbEntity
  8
中心线
 62
     0
100
AcDbLine
 10
2740.807562765866
 20
-11268.39908430053
 30
0.0
 11
2740.807562765866
 21
-10544.93763817099
 31
0.0
  0
LINE
  5
765E
330
1F
100
AcDbEntity
  8
粗实线
  6
Continuous
 62
     7
100
AcDbLine
 10
470.1206070968082
 20
-11097.37202514809
 30
0.0
 11
1420.120607096807
 21
-11097.37202514809
 31
0.0
  0
ARC
  5
765F
330
1F
100
AcDbEntity
  8
粗实线
  6
Continuous
 62
     7
100
AcDbCircle
 10
1420.120607096807
 20
-11037.37202514809
 30
0.0
 40
60.0
100
AcDbArc
 50
270.0
 51
0.0
  0
LINE
  5
7660
102
{ACAD_REACTORS
330
7719
102
}
330
1F
100
AcDbEntity
  8
粗实线
  6
Continuous
 62
     7
100
AcDbLine
 10
1620.120607096865
 20
-11242.37202514777
 30
0.0
 11
882.6206070974768
 21
-11242.37202514777
 31
0.0
  0
LINE
  5
7661
330
1F
100
AcDbEntity
  8
粗实线
  6
Continuous
 62
     7
100
AcDbLine
 10
1500.120607096807
 20
-11172.37202514777
 30
0.0
 11
235.120607098148
 21
-11172.37202514777
 31
0.0
  0
ARC
  5
7662
102
{ACAD_REACTORS
330
7719
102
}
330
1F
100
AcDbEntity
  8
粗实线
  6
Continuous
 62
     7
100
AcDbCircle
 10
1500.120607096807
 20
-11112.37202514777
 30
0.0
 40
60.0
100
AcDbArc
 50
270.0
 51
0.0
  0
LINE
  5
7663
102
{ACAD_REACTORS
330
769B
102
}
330
1F
100
AcDbEntity
  8
粗实线
  6
Continuous
 62
     7
100
AcDbLine
 10
1480.120607096807
 20
-11037.37202514809
 30
0.0
 11
1480.120607096805
 21
-10647.37202514754
 31
0.0
  0
ARC
  5
7664
330
1F
100
AcDbEntity
  8
粗实线
  6
Continuous
 62
     7
100
AcDbCircle
 10
1420.120607096805
 20
-10647.37202514754
 30
0.0
 40
60.0
100
AcDbArc
 50
0.0
 51
90.0
  0
LINE
  5
7665
102
{ACAD_REACTORS
330
768A
102
}
330
1F
100
AcDbEntity
  8
粗实线
  6
Continuous
 62
     7
100
AcDbLine
 10
1630.120607096807
 20
-10842.37202514781
 30
0.0
 11
1630.120607096807
 21
-11232.3720251478
 31
0.0
  0
LINE
  5
7666
102
{ACAD_REACTORS
330
7D69
102
}
330
1F
100
AcDbEntity
  8
粗实线
  6
Continuous
 62
     7
100
AcDbLine
 10
1560.120607096807
 20
-10572.37202514786
 30
0.0
 11
1560.120607096807
 21
-11112.37202514777
 31
0.0
  0
ARC
  5
7667
330
1F
100
AcDbEntity
  8
粗实线
  6
Continuous
 62
     7
100
AcDbCircle
 10
1620.120607096865
 20
-11232.3720251478
 30
0.0
 40
9.999999999959998
100
AcDbArc
 50
270.0
 51
0.0
  0
LINE
  5
7668
102
{ACAD_REACTORS
330
7685
330
7713
102
}
330
1F
100
AcDbEntity
  8
粗实线
  6
Continuous
 62
     7
100
AcDbLine
 10
115.1206070980879
 20
-10442.37202514786
 30
0.0
 11
882.6206070974768
 21
-10442.37202514786
 31
0.0
  0
LINE
  5
7669
102
{ACAD_REACTORS
330
7685
102
}
330
1F
100
AcDbEntity
  8
粗实线
  6
Continuous
 62
     7
100
AcDbLine
 10
115.1206070980879
 20
-11242.37202514777
 30
0.0
 11
882.6206070974768
 21
-11242.37202514777
 31
0.0
  0
LINE
  5
766A
330
1F
100
AcDbEntity
  8
粗实线
  6
HIDDEN
 62
     0
 48
150.0
370
    20
100
AcDbLine
 10
3117.946116687059
 20
-11151.72621052919
 30
0.0
 11
3117.946116687059
 21
-11137.39501052923
 31
0.0
  0
LINE
  5
766B
330
1F
100
AcDbEntity
  8
粗实线
  6
HIDDEN
 62
     0
 48
150.0
370
    20
100
AcDbLine
 10
3117.946116687059
 20
-11145.06061052921
 30
0.0
 11
3117.946116687059
 21
-11143.93062684084
 31
0.0
  0
LINE
  5
766C
330
1F
100
AcDbEntity
  8
粗实线
  6
HIDDEN
 62
     0
 48
150.0
370
    20
100
AcDbLine
 10
3122.611716687041
 20
-11151.72621052919
 30
0.0
 11
3122.611716687041
 21
-11148.92685052968
 31
0.0
  0
LINE
  5
766D
330
1F
100
AcDbEntity
  8
粗实线
  6
HIDDEN
 62
     0
 48
150.0
370
    20
100
AcDbLine
 10
3183.280516686799
 20
-11151.72621052919
 30
0.0
 11
3183.280516686799
 21
-11148.92685052968
 31
0.0
  0
LINE
  5
766E
330
1F
100
AcDbEntity
  8
粗实线
  6
HIDDEN
 62
     0
 48
150.0
370
    20
100
AcDbLine
 10
3187.946116686779
 20
-11145.06061052921
 30
0.0
 11
3187.946116686779
 21
-11143.93062684084
 31
0.0
  0
LINE
  5
766F
330
1F
100
AcDbEntity
  8
粗实线
  6
HIDDEN
 62
     0
 48
150.0
370
    20
100
AcDbLine
 10
3187.930116686783
 20
-11151.72621052919
 30
0.0
 11
3187.930116686783
 21
-11137.39501052923
 31
0.0
  0
LINE
  5
7670
102
{ACAD_REACTORS
330
768F
102
}
330
1F
100
AcDbEntity
  8
粗实线
  6
HIDDEN
 62
     0
 48
150.0
370
    20
100
AcDbLine
 10
3117.946116687059
 20
-11151.72621052919
 30
0.0
 11
3187.930116686783
 21
-11151.72621052919
 31
0.0
  0
LINE
  5
7671
330
1F
100
AcDbEntity
  8
粗实线
  6
HIDDEN
 62
     0
 48
150.0
370
    20
100
AcDbLine
 10
3122.611716687041
 20
-11151.72621052919
 30
0.0
 11
3183.280516686799
 21
-11151.72621052919
 31
0.0
  0
LINE
  5
7672
330
1F
100
AcDbEntity
  8
粗实线
  6
HIDDEN
 62
     0
 48
150.0
370
    20
100
AcDbLine
 10
3187.946116686779
 20
-11145.06061052921
 30
0.0
 11
3117.946116687059
 21
-11145.06061052921
 31
0.0
  0
LINE
  5
7673
330
1F
100
AcDbEntity
  8
粗实线
  6
HIDDEN
 62
     0
 48
150.0
370
    20
100
AcDbLine
 10
3117.946116687059
 20
-11137.39501052923
 30
0.0
 11
3187.930116686783
 21
-11137.39501052923
 31
0.0
  0
ARC
  5
7674
330
1F
100
AcDbEntity
  8
粗实线
  6
HIDDEN
 62
     0
 48
150.0
370
    20
100
AcDbCircle
 10
3152.946116686917
 20
-11468.90448144517
 30
0.0
 40
331.5094709135716
100
AcDbArc
 50
84.22876837162442
 51
95.77123162837557
  0
ARC
  5
7675
330
1F
100
AcDbEntity
  8
粗实线
  6
HIDDEN
 62
     0
 48
150.0
370
    20
100
AcDbCircle
 10
3180.810419625556
 20
-11143.66391264523
 30
0.0
 40
7.14067987040838
100
AcDbArc
 50
357.859426056841
 51
39.98583479138306
  0
ARC
  5
7676
330
1F
100
AcDbEntity
  8
粗实线
  6
HIDDEN
 62
     0
 48
150.0
370
    20
100
AcDbCircle
 10
3125.081813748279
 20
-11143.66391264523
 30
0.0
 40
7.140679870408279
100
AcDbArc
 50
140.0141652086169
 51
182.1405739431589
  0
ARC
  5
7677
330
1F
100
AcDbEntity
  8
粗实线
  6
HIDDEN
 62
     0
 48
150.0
370
    20
100
AcDbCircle
 10
3187.763211747242
 20
-11148.70711587573
 30
0.0
 40
4.488077352619552
100
AcDbArc
 50
125.6603469190277
 51
182.8063026719658
  0
ARC
  5
7678
330
1F
100
AcDbEntity
  8
粗实线
  6
HIDDEN
 62
     0
 48
150.0
370
    20
100
AcDbCircle
 10
3118.129021626592
 20
-11148.70711587573
 30
0.0
 40
4.48807735261955
100
AcDbArc
 50
357.1936973280342
 51
54.33965308097231
  0
LINE
  5
7679
330
1F
100
AcDbEntity
  8
虚线
 62
     0
100
AcDbLine
 10
2102.901864078804
 20
-11076.58644589092
 30
0.0
 11
1953.388697372427
 21
-10651.54616414031
 31
0.0
  0
LINE
  5
767A
330
1F
100
AcDbEntity
  8
粗实线
  6
Continuous
 62
     7
100
AcDbLine
 10
105.120607098147
 20
-10842.37202514782
 30
0.0
 11
105.1206070981461
 21
-10452.37202514783
 31
0.0
  0
ARC
  5
767B
330
1F
100
AcDbEntity
  8
粗实线
  6
Continuous
 62
     7
100
AcDbCircle
 10
115.1206070980879
 20
-10452.37202514783
 30
0.0
 40
9.999999999959998
100
AcDbArc
 50
90.0
 51
180.0
  0
LINE
  5
767C
102
{ACAD_REACTORS
330
7682
330
771C
102
}
330
1F
100
AcDbEntity
  8
粗实线
  6
Continuous
 62
     7
100
AcDbLine
 10
105.120607098147
 20
-10842.37202514781
 30
0.0
 11
105.1206070981479
 21
-11232.3720251478
 31
0.0
  0
LINE
  5
767D
102
{ACAD_REACTORS
330
7682
102
}
330
1F
100
AcDbEntity
  8
粗实线
  6
Continuous
 62
     7
100
AcDbLine
 10
175.1206070981461
 20
-10572.37202514786
 30
0.0
 11
175.1206070981479
 21
-11112.37202514777
 31
0.0
  0
ARC
  5
767E
102
{ACAD_REACTORS
330
771C
102
}
330
1F
100
AcDbEntity
  8
粗实线
  6
Continuous
 62
     7
100
AcDbCircle
 10
235.120607098148
 20
-11112.37202514777
 30
0.0
 40
60.0
100
AcDbArc
 50
180.0
 51
270.0
  0
ARC
  5
767F
330
1F
100
AcDbEntity
  8
粗实线
  6
Continuous
 62
     7
100
AcDbCircle
 10
115.1206070980897
 20
-11232.3720251478
 30
0.0
 40
9.999999999959998
100
AcDbArc
 50
180.0
 51
270.0
  0
DIMENSION
  5
7680
102
{ACAD_XDICTIONARY
360
7681
102
}
102
{ACAD_REACTORS
330
7682
102
}
330
1F
100
AcDbEntity
  8
0
100
AcDbDimension
280
     0
  2
*D133
 10
1630.120607096807
 20
-10297.07073604469
 30
0.0
 11
867.6206070974771
 21
-10265.19573604469
 31
0.0
 70
    32
 71
     5
 42
1524.99999999866
 73
     0
 74
     0
 75
     0
  3
Standard
100
AcDbAlignedDimension
 13
105.120607098147
 23
-10842.37202514781
 33
0.0
 14
1630.120607096807
 24
-10842.37202514781
 34
0.0
100
AcDbRotatedDimension
1001
ACAD
1000
DSTYLE
1002
{
1070
    74
1070
     1
1002
}
  0
DIMENSION
  5
7683
102
{ACAD_XDICTIONARY
360
7684
102
}
102
{ACAD_REACTORS
330
7685
102
}
330
1F
100
AcDbEntity
  8
0
100
AcDbDimension
280
     0
  2
*D134
 10
-92.08931567605942
 20
-11242.37202514777
 30
0.0
 11
-123.9643156760576
 21
-10842.37202514781
 31
0.0
 70
    32
 71
     5
 42
799.9999999999054
 73
     0
 74
     0
 75
     0
  3
Standard
100
AcDbAlignedDimension
 13
882.6206070974768
 23
-10442.37202514786
 33
0.0
 14
882.6206070974768
 24
-11242.37202514777
 34
0.0
 50
90.0
100
AcDbRotatedDimension
1001
ACAD
1000
DSTYLE
1002
{
1070
    74
1070
     1
1002
}
  0
LINE
  5
7686
102
{ACAD_REACTORS
330
769B
102
}
330
1F
100
AcDbEntity
  8
粗实线
  6
Continuous
 62
     7
100
AcDbLine
 10
410.1206070968082
 20
-11037.37202514809
 30
0.0
 11
410.1206070968055
 21
-10647.37202514754
 31
0.0
  0
ARC
  5
7687
330
1F
100
AcDbEntity
  8
粗实线
  6
Continuous
 62
     7
100
AcDbCircle
 10
470.1206070968082
 20
-11037.37202514809
 30
0.0
 40
60.0
100
AcDbArc
 50
180.0
 51
270.0
  0
DIMENSION
  5
7688
102
{ACAD_XDICTIONARY
360
7689
102
}
102
{ACAD_REACTORS
330
768A
102
}
330
1F
100
AcDbEntity
  8
0
100
AcDbDimension
280
     0
  2
*D135
 10
1630.120607096807
 20
-10752.55297785597
 30
0.0
 11
1505.252748863843
 21
-10720.67797785597
 31
0.0
 70
    32
 71
     5
 42
249.7357164659288
 73
     0
 74
     0
 75
     0
  3
Standard
100
AcDbAlignedDimension
 13
1380.384890630878
 23
-10843.30952514781
 33
0.0
 14
1630.120607096807
 24
-10843.30952514781
 34
0.0
100
AcDbRotatedDimension
1001
ACAD
1000
DSTYLE
1002
{
1070
    74
1070
     1
1002
}
  0
LINE
  5
768B
102
{ACAD_REACTORS
330
7692
102
}
330
1F
100
AcDbEntity
  8
0
370
    30
100
AcDbLine
 10
1878.307562766529
 20
-10651.54616414031
 30
0.0
 11
1878.307562766529
 21
-10676.54616414031
 31
0.0
  0
LINE
  5
768C
330
1F
100
AcDbEntity
  8
0
370
    30
100
AcDbLine
 10
3403.3075627652
 20
-10651.54616414031
 30
0.0
 11
3403.3075627652
 21
-10676.54616414031
 31
0.0
  0
DIMENSION
  5
768D
102
{ACAD_XDICTIONARY
360
768E
102
}
102
{ACAD_REACTORS
330
768F
102
}
330
1F
100
AcDbEntity
  8
0
100
AcDbDimension
280
     0
  2
*D136
 10
3399.579618664507
 20
-10651.54616414031
 30
0.0
 11
3399.579618664509
 21
-10901.63618733475
 31
0.0
 70
   160
 71
     5
 42
500.180046388883
 73
     0
 74
     0
 75
     0
  3
Standard
100
AcDbAlignedDimension
 13
3152.938116686921
 23
-11151.72621052919
 33
0.0
 14
3152.938116686921
 24
-10651.54616414031
 34
0.0
 50
90.0
100
AcDbRotatedDimension
1001
ACAD
1000
DSTYLE
1002
{
1070
    74
1070
     1
1002
}
  0
DIMENSION
  5
7690
102
{ACAD_XDICTIONARY
360
7691
102
}
102
{ACAD_REACTORS
330
7692
102
}
330
1F
100
AcDbEntity
  8
0
100
AcDbDimension
280
     0
  2
*D137
 10
3403.3075627652
 20
-10531.5381466521
 30
0.0
 11
2640.807562765865
 21
-10499.6631466521
 31
0.0
 70
    32
 71
     5
 42
1524.99999999867
 73
     0
 74
     0
 75
     0
  3
Standard
100
AcDbAlignedDimension
 13
1878.307562766529
 23
-10676.54616414031
 33
0.0
 14
3403.3075627652
 24
-10677.48366414031
 34
0.0
100
AcDbRotatedDimension
1001
ACAD
1000
DSTYLE
1002
{
1070
    74
1070
     1
1002
}
  0
DIMENSION
  5
7696
102
{ACAD_XDICTIONARY
360
7697
102
}
102
{ACAD_REACTORS
330
7698
102
}
330
1F
100
AcDbEntity
  8
0
100
AcDbDimension
280
     0
  2
*D138
 10
3102.179070476094
 20
-10651.54616414031
 30
0.0
 11
3070.304070476095
 21
-10893.63746865629
 31
0.0
 70
    32
  1
470
 71
     5
 42
484.18260903195
 73
     0
 74
     0
 75
     0
  3
Standard
100
AcDbAlignedDimension
 13
3244.304473755532
 23
-11135.72877317226
 33
0.0
 14
3266.106030221225
 24
-10651.54616414031
 34
0.0
 50
90.0
100
AcDbRotatedDimension
1001
ACAD
1000
DSTYLE
1002
{
1070
    74
1070
     1
1002
}
  0
DIMENSION
  5
7699
102
{ACAD_XDICTIONARY
360
769A
102
}
102
{ACAD_REACTORS
330
769B
102
}
330
1F
100
AcDbEntity
  8
0
100
AcDbDimension
280
     0
  2
*D139
 10
1480.120607096806
 20
-10362.5901312824
 30
0.0
 11
945.1206070968064
 21
-10330.7151312824
 31
0.0
 70
    32
 71
     5
 42
1069.999999999999
 73
     0
 74
     0
 75
     0
  3
Standard
100
AcDbAlignedDimension
 13
410.1206070968069
 23
-10842.37202514781
 33
0.0
 14
1480.120607096806
 24
-10842.37202514781
 34
0.0
100
AcDbRotatedDimension
1001
ACAD
1000
DSTYLE
1002
{
1070
    74
1070
     1
1002
}
  0
DIMENSION
  5
7711
102
{ACAD_XDICTIONARY
360
7712
102
}
102
{ACAD_REACTORS
330
7713
102
}
330
1F
100
AcDbEntity
  8
0
100
AcDbDimension
280
     0
  2
*D115
 10
-92.08931567605942
 20
-10442.37202514786
 30
0.0
 11
-48.96431567605773
 21
-10335.49702514786
 31
0.0
 70
    32
 71
     5
 42
70.0
 73
     0
 74
     0
 75
     0
  3
Standard
100
AcDbAlignedDimension
 13
235.1206070981461
 23
-10512.37202514786
 33
0.0
 14
235.1206070981461
 24
-10442.37202514786
 34
0.0
 50
90.0
100
AcDbRotatedDimension
1001
ACAD
1000
DSTYLE
1002
{
1070
    74
1070
     1
1002
}
  0
DIMENSION
  5
7717
102
{ACAD_XDICTIONARY
360
7718
102
}
102
{ACAD_REACTORS
330
7719
102
}
330
1F
100
AcDbEntity
  8
0
100
AcDbDimension
280
     0
  2
*D116
 10
1765.338845993481
 20
-11242.37202514777
 30
0.0
 11
1722.213845993483
 21
-11285.49702514777
 31
0.0
 70
    32
 71
     5
 42
70.0
 73
     0
 74
     0
 75
     0
  3
Standard
100
AcDbAlignedDimension
 13
1500.120607096807
 23
-11172.37202514777
 33
0.0
 14
1500.120607096807
 24
-11242.37202514777
 34
0.0
 50
90.0
100
AcDbRotatedDimension
1001
ACAD
1000
DSTYLE
1002
{
1070
    74
1070
     1
1002
}
  0
DIMENSION
  5
771A
102
{ACAD_XDICTIONARY
360
771B
102
}
102
{ACAD_REACTORS
330
771C
102
}
330
1F
100
AcDbEntity
  8
0
100
AcDbDimension
280
     0
  2
*D117
 10
105.1206070981478
 20
-11382.40420623133
 30
0.0
 11
-13.00439290185219
 21
-11350.52920623133
 31
0.0
 70
    32
 71
     5
 42
70.00000000000014
 73
     0
 74
     0
 75
     0
  3
Standard
100
AcDbAlignedDimension
 13
175.1206070981479
 23
-11112.37202514777
 33
0.0
 14
105.1206070981478
 24
-11172.3116513942
 34
0.0
100
AcDbRotatedDimension
1001
ACAD
1000
DSTYLE
1002
{
1070
    74
1070
     1
1002
}
  0
LINE
  5
771D
330
1F
100
AcDbEntity
  8
中心线
 62
     0
100
AcDbLine
 10
945.1206070968046
 20
-11315.83347127709
 30
0.0
 11
945.1206070968064
 21
-10362.5901312824
 31
0.0
  0
CIRCLE
  5
7799
102
{ACAD_REACTORS
330
779C
102
}
330
1F
100
AcDbEntity
  8
0
100
AcDbCircle
 10
1380.384890630878
 20
-10843.30952514781
 30
0.0
 40
25.0
  0
DIMENSION
  5
779A
102
{ACAD_XDICTIONARY
360
779B
102
}
102
{ACAD_REACTORS
330
779C
102
}
330
1F
100
AcDbEntity
  8
0
100
AcDbDimension
280
     0
  2
*D131
 10
1402.947655880196
 20
-10832.54283464869
 30
0.0
 11
1114.415440427302
 21
-10938.91157856299
 31
0.0
 70
   163
 71
     5
 42
49.99999999999499
 73
     0
 74
     0
 75
     0
  3
Standard
100
AcDbDiametricDimension
 15
1357.822125381557
 25
-10854.07621564694
 35
0.0
 40
0.0
1001
ACAD
1000
DSTYLE
1002
{
1070
    74
1070
     1
1070
   288
1070
     1
1002
}
  0
DIMENSION
  5
7D4E
102
{ACAD_XDICTIONARY
360
7D5D
102
}
102
{ACAD_REACTORS
330
7D69
102
}
330
1F
100
AcDbEntity
  8
0
100
AcDbDimension
280
     0
  2
*D142
 10
1630.120607096807
 20
-10510.25356249523
 30
0.0
 11
1748.245607096807
 21
-10478.37856249523
 31
0.0
 70
    32
 71
     5
 42
70.0
 73
     0
 74
     0
 75
     0
  3
Standard
100
AcDbAlignedDimension
 13
1560.120607096807
 23
-10572.37202514786
 33
0.0
 14
1630.120607096807
 24
-10647.37202514782
 34
0.0
100
AcDbRotatedDimension
1001
ACAD
1000
DSTYLE
1002
{
1070
    74
1070
     1
1002
}
  0
ENDSEC
  0
SECTION
  2
OBJECTS
  0
DICTIONARY
  5
C
330
0
100
AcDbDictionary
281
     1
  3
ACAD_CIP_PREVIOUS_PRODUCT_INFO
350
7DA8
  3
ACAD_COLOR
350
73
  3
ACAD_DETAILVIEWSTYLE
350
7D9F
  3
ACAD_GROUP
350
D
  3
ACAD_LAYOUT
350
1A
  3
ACAD_MATERIAL
350
72
  3
ACAD_MLEADERSTYLE
350
7D9B
  3
ACAD_MLINESTYLE
350
17
  3
ACAD_PLOTSETTINGS
350
19
  3
ACAD_PLOTSTYLENAME
350
E
  3
ACAD_SCALELIST
350
7D89
  3
ACAD_SECTIONVIEWSTYLE
350
7D9D
  3
ACAD_TABLESTYLE
350
86
  3
ACAD_VISUALSTYLE
350
97
  3
ACDB_RECOMPOSE_DATA
350
7DDB
  3
AcDbVariableDictionary
350
66
  0
DICTIONARY
  5
937
330
8
100
AcDbDictionary
280
     1
281
     1
  0
DICTIONARY
  5
CB
330
2
100
AcDbDictionary
280
     1
281
     1
  3
ACAD_LAYERSTATES
360
CC
  0
DICTIONARY
  5
7DA9
330
10
100
AcDbDictionary
280
     1
281
     1
  3
ADSK_XREC_LAYER_RECONCILED
360
7DAA
  0
DICTIONARY
  5
7DAB
330
C5
100
AcDbDictionary
280
     1
281
     1
  3
ADSK_XREC_LAYER_RECONCILED
360
7DAC
  0
DICTIONARY
  5
7DAD
330
C6
100
AcDbDictionary
280
     1
281
     1
  3
ADSK_XREC_LAYER_RECONCILED
360
7DAE
  0
DICTIONARY
  5
7DAF
330
C7
100
AcDbDictionary
280
     1
281
     1
  3
ADSK_XREC_LAYER_RECONCILED
360
7DB0
  0
DICTIONARY
  5
7DB1
330
C8
100
AcDbDictionary
280
     1
281
     1
  3
ADSK_XREC_LAYER_RECONCILED
360
7DB2
  0
DICTIONARY
  5
7DB3
330
26A
100
AcDbDictionary
280
     1
281
     1
  3
ADSK_XREC_LAYER_RECONCILED
360
7DB4
  0
DICTIONARY
  5
7DB5
330
26B
100
AcDbDictionary
280
     1
281
     1
  3
ADSK_XREC_LAYER_RECONCILED
360
7DB6
  0
DICTIONARY
  5
7DB7
330
26C
100
AcDbDictionary
280
     1
281
     1
  3
ADSK_XREC_LAYER_RECONCILED
360
7DB8
  0
DICTIONARY
  5
7DB9
330
26D
100
AcDbDictionary
280
     1
281
     1
  3
ADSK_XREC_LAYER_RECONCILED
360
7DBA
  0
DICTIONARY
  5
7DBB
330
52B
100
AcDbDictionary
280
     1
281
     1
  3
ADSK_XREC_LAYER_RECONCILED
360
7DBC
  0
DICTIONARY
  5
7DBD
330
3C36
100
AcDbDictionary
280
     1
281
     1
  3
ADSK_XREC_LAYER_RECONCILED
360
7DBE
  0
DICTIONARY
  5
FB6
330
1F
100
AcDbDictionary
280
     1
281
     1
  3
ACAD_SORTENTS
360
FB7
  0
DICTIONARY
  5
7681
330
7680
100
AcDbDictionary
280
     1
281
     1
  3
ACAD_DIMASSOC
360
7682
  0
DICTIONARY
  5
7684
330
7683
100
AcDbDictionary
280
     1
281
     1
  3
ACAD_DIMASSOC
360
7685
  0
DICTIONARY
  5
7689
330
7688
100
AcDbDictionary
280
     1
281
     1
  3
ACAD_DIMASSOC
360
768A
  0
DICTIONARY
  5
768E
330
768D
100
AcDbDictionary
280
     1
281
     1
  3
ACAD_DIMASSOC
360
768F
  0
DICTIONARY
  5
7691
330
7690
100
AcDbDictionary
280
     1
281
     1
  3
ACAD_DIMASSOC
360
7692
  0
DICTIONARY
  5
7697
330
7696
100
AcDbDictionary
280
     1
281
     1
  3
ACAD_DIMASSOC
360
7698
  0
DICTIONARY
  5
769A
330
7699
100
AcDbDictionary
280
     1
281
     1
  3
ACAD_DIMASSOC
360
769B
  0
DICTIONARY
  5
7712
330
7711
100
AcDbDictionary
280
     1
281
     1
  3
ACAD_DIMASSOC
360
7713
  0
DICTIONARY
  5
7718
330
7717
100
AcDbDictionary
280
     1
281
     1
  3
ACAD_DIMASSOC
360
7719
  0
DICTIONARY
  5
771B
330
771A
100
AcDbDictionary
280
     1
281
     1
  3
ACAD_DIMASSOC
360
771C
  0
DICTIONARY
  5
779B
330
779A
100
AcDbDictionary
280
     1
281
     1
  3
ACAD_DIMASSOC
360
779C
  0
DICTIONARY
  5
7D5D
330
7D4E
100
AcDbDictionary
280
     1
281
     1
  3
ACAD_DIMASSOC
360
7D69
  0
XRECORD
  5
7DA8
102
{ACAD_REACTORS
330
C
102
}
330
C
100
AcDbXrecord
280
     1
300
ACD
300
2017
300
ACD_F_S
  0
DICTIONARY
  5
73
102
{ACAD_REACTORS
330
C
102
}
330
C
100
AcDbDictionary
281
     1
  0
DICTIONARY
  5
7D9F
102
{ACAD_REACTORS
330
C
102
}
330
C
100
AcDbDictionary
281
     1
  3
Imperial24
350
7DA0
  0
DICTIONARY
  5
D
102
{ACAD_REACTORS
330
C
102
}
330
C
100
AcDbDictionary
281
     1
  0
DICTIONARY
  5
1A
102
{ACAD_REACTORS
330
C
102
}
330
C
100
AcDbDictionary
281
     1
  3
Model
350
22
  3
布局1
350
59
  3
布局2
350
5E
1001
AcadStringInfo
1000
MIFCodePage
1070
     5
  0
DICTIONARY
  5
72
102
{ACAD_REACTORS
330
C
102
}
330
C
100
AcDbDictionary
281
     1
  3
ByBlock
350
95
  3
ByLayer
350
94
  3
Global
350
96
  0
DICTIONARY
  5
7D9B
102
{ACAD_REACTORS
330
C
102
}
330
C
100
AcDbDictionary
281
     1
  3
Standard
350
7D9C
  0
DICTIONARY
  5
17
102
{ACAD_REACTORS
330
C
102
}
330
C
100
AcDbDictionary
281
     1
  3
Standard
350
18
  0
DICTIONARY
  5
19
102
{ACAD_REACTORS
330
C
102
}
330
C
100
AcDbDictionary
281
     1
  0
ACDBDICTIONARYWDFLT
  5
E
102
{ACAD_REACTORS
330
C
102
}
330
C
100
AcDbDictionary
281
     1
  3
Normal
350
F
100
AcDbDictionaryWithDefault
340
F
  0
DICTIONARY
  5
7D89
102
{ACAD_REACTORS
330
C
102
}
330
C
100
AcDbDictionary
281
     1
  3
A0
350
7D8A
  3
A1
350
7D8B
  3
A2
350
7D8C
  3
A3
350
7D8D
  3
A4
350
7D8E
  3
A5
350
7D8F
  3
A6
350
7D90
  3
A7
350
7D91
  3
A8
350
7D92
  3
A9
350
7D93
  3
B0
350
7D94
  3
B1
350
7D95
  3
B2
350
7D96
  3
B3
350
7D97
  3
B4
350
7D98
  3
B5
350
7D99
  3
B6
350
7D9A
  0
DICTIONARY
  5
7D9D
102
{ACAD_REACTORS
330
C
102
}
330
C
100
AcDbDictionary
281
     1
  3
Imperial24
350
7D9E
  0
DICTIONARY
  5
86
102
{ACAD_REACTORS
330
C
102
}
330
C
100
AcDbDictionary
281
     1
  3
Standard
350
87
  0
DICTIONARY
  5
97
102
{ACAD_REACTORS
330
C
102
}
330
C
100
AcDbDictionary
281
     1
  3
2dWireframe
350
9D
  3
3D Hidden
350
9F
  3
3dWireframe
350
9E
  3
Basic
350
9C
  3
Brighten
350
A3
  3
ColorChange
350
A7
  3
Conceptual
350
A0
  3
Dim
350
A2
  3
EdgeColorOff
350
7D88
  3
Facepattern
350
A6
  3
Flat
350
98
  3
FlatWithEdges
350
99
  3
Gouraud
350
9A
  3
GouraudWithEdges
350
9B
  3
Hidden
350
7D80
  3
JitterOff
350
7D86
  3
Linepattern
350
A5
  3
OverhangOff
350
7D87
  3
Realistic
350
A1
  3
Shaded
350
7D85
  3
Shaded with edges
350
7D84
  3
Shades of Gray
350
7D81
  3
Sketchy
350
7D82
  3
Thicken
350
A4
  3
Wireframe
350
7D7F
  3
X-Ray
350
7D83
  0
XRECORD
  5
7DDB
102
{ACAD_REACTORS
330
C
102
}
330
C
100
AcDbXrecord
280
     1
 90
        1
330
87
330
7D9E
330
7DA0
  0
DICTIONARY
  5
66
102
{ACAD_REACTORS
330
C
102
}
330
C
100
AcDbDictionary
281
     1
  3
CANNOSCALE
350
7DD1
  3
CMLEADERSTYLE
350
7DCD
  3
CTABLESTYLE
350
8B
  3
CVIEWDETAILSTYLE
350
7DCE
  3
CVIEWSECTIONSTYLE
350
7DCF
  3
DIMASSOC
350
67
  3
HIDETEXT
350
6B
  3
LAYEREVAL
350
7DD3
  3
LAYERNOTIFY
350
7DD4
  3
LIGHTINGUNITS
350
7DD2
  3
MSLTSCALE
350
7DD0
  0
DICTIONARY
  5
CC
102
{ACAD_REACTORS
330
CB
102
}
330
CB
100
AcDbDictionary
281
     1
  0
XRECORD
  5
7DAA
102
{ACAD_REACTORS
330
7DA9
102
}
330
7DA9
100
AcDbXrecord
280
     1
290
     1
  0
XRECORD
  5
7DAC
102
{ACAD_REACTORS
330
7DAB
102
}
330
7DAB
100
AcDbXrecord
280
     1
290
     1
  0
XRECORD
  5
7DAE
102
{ACAD_REACTORS
330
7DAD
102
}
330
7DAD
100
AcDbXrecord
280
     1
290
     1
  0
XRECORD
  5
7DB0
102
{ACAD_REACTORS
330
7DAF
102
}
330
7DAF
100
AcDbXrecord
280
     1
290
     1
  0
XRECORD
  5
7DB2
102
{ACAD_REACTORS
330
7DB1
102
}
330
7DB1
100
AcDbXrecord
280
     1
290
     1
  0
XRECORD
  5
7DB4
102
{ACAD_REACTORS
330
7DB3
102
}
330
7DB3
100
AcDbXrecord
280
     1
290
     1
  0
XRECORD
  5
7DB6
102
{ACAD_REACTORS
330
7DB5
102
}
330
7DB5
100
AcDbXrecord
280
     1
290
     1
  0
XRECORD
  5
7DB8
102
{ACAD_REACTORS
330
7DB7
102
}
330
7DB7
100
AcDbXrecord
280
     1
290
     1
  0
XRECORD
  5
7DBA
102
{ACAD_REACTORS
330
7DB9
102
}
330
7DB9
100
AcDbXrecord
280
     1
290
     1
  0
XRECORD
  5
7DBC
102
{ACAD_REACTORS
330
7DBB
102
}
330
7DBB
100
AcDbXrecord
280
     1
290
     1
  0
XRECORD
  5
7DBE
102
{ACAD_REACTORS
330
7DBD
102
}
330
7DBD
100
AcDbXrecord
280
     1
290
     1
  0
SORTENTSTABLE
  5
FB7
102
{ACAD_REACTORS
330
FB6
102
}
330
FB6
100
AcDbSortentsTable
330
1F
  0
DIMASSOC
  5
7682
102
{ACAD_REACTORS
330
7681
102
}
330
7681
100
AcDbDimAssoc
330
7680
 90
        3
 70
     0
 71
     0
  1
AcDbOsnapPointRef
 72
     6
331
767C
 73
     2
 91
        0
 40
0.0
 10
0.0
 20
0.0
 30
0.0
332
765C
 74
     2
 92
        0
 75
     0
  1
AcDbOsnapPointRef
 72
    13
331
7654
 73
     2
 91
        0
 40
0.0
 10
0.0
 20
0.0
 30
2.000000000000000E+50
 75
     0
  0
DIMASSOC
  5
7685
102
{ACAD_REACTORS
330
7684
102
}
330
7684
100
AcDbDimAssoc
330
7683
 90
        3
 70
     0
 71
     0
  1
AcDbOsnapPointRef
 72
     1
331
7668
 73
     2
 91
        0
 40
1.0
 10
0.0
 20
0.0
 30
2.000000000000000E+50
 75
     0
  1
AcDbOsnapPointRef
 72
     1
331
7669
 73
     2
 91
        0
 40
1.0
 10
0.0
 20
0.0
 30
2.000000000000000E+50
 75
     0
  0
DIMASSOC
  5
768A
102
{ACAD_REACTORS
330
7689
102
}
330
7689
100
AcDbDimAssoc
330
7688
 90
        3
 70
     0
 71
     0
  1
AcDbOsnapPointRef
 72
     3
331
7656
 73
     2
 91
        0
 40
0.0
 10
0.0
 20
0.0
 30
0.0
 75
     0
  1
AcDbOsnapPointRef
 72
     8
331
7665
 73
     2
 91
        0
 40
0.0023437500000012
 10
0.0
 20
0.0
 30
0.0
 75
     1
  1
AcDbOsnapPointRef
 72
     3
331
7656
 73
     2
 91
        0
 40
0.0
 10
0.0
 20
0.0
 30
0.0
 75
     0
  0
DIMASSOC
  5
768F
102
{ACAD_REACTORS
330
768E
102
}
330
768E
100
AcDbDimAssoc
330
768D
 90
        3
 70
     0
 71
     0
  1
AcDbOsnapPointRef
 72
     2
331
7670
 73
     2
 91
        0
 40
0.5
 10
0.0
 20
0.0
 30
0.0
 75
     0
  1
AcDbOsnapPointRef
 72
     8
331
764D
 73
     2
 91
        0
 40
0.8105215748509086
 10
0.0
 20
0.0
 30
0.0
 75
     1
  1
AcDbOsnapPointRef
 72
     2
331
7670
 73
     2
 91
        0
 40
0.5
 10
0.0
 20
0.0
 30
0.0
 75
     0
  0
DIMASSOC
  5
7692
102
{ACAD_REACTORS
330
7691
102
}
330
7691
100
AcDbDimAssoc
330
7690
 90
        1
 70
     0
 71
     0
  1
AcDbOsnapPointRef
 72
     1
331
768B
 73
     2
 91
        0
 40
1.0
 10
0.0
 20
0.0
 30
2.000000000000000E+50
 75
     0
  0
DIMASSOC
  5
7698
102
{ACAD_REACTORS
330
7697
102
}
330
7697
100
AcDbDimAssoc
330
7696
 90
        1
 70
     0
 71
     0
  1
AcDbOsnapPointRef
 72
    13
331
7658
 73
     2
 91
        0
 40
0.0
 10
0.0
 20
0.0
 30
2.000000000000000E+50
 75
     0
  0
DIMASSOC
  5
769B
102
{ACAD_REACTORS
330
769A
102
}
330
769A
100
AcDbDimAssoc
330
7699
 90
        3
 70
     0
 71
     0
  1
AcDbOsnapPointRef
 72
     6
331
7686
 73
     2
 91
        0
 40
0.5000000000000025
 10
0.0
 20
0.0
 30
0.0
332
765C
 74
     2
 92
        0
 75
     0
  1
AcDbOsnapPointRef
 72
     8
331
7663
 73
     2
 91
        0
 40
0.5000000000000161
 10
0.0
 20
0.0
 30
0.0
 75
     1
  1
AcDbOsnapPointRef
 72
     6
331
7686
 73
     2
 91
        0
 40
0.5000000000000025
 10
0.0
 20
0.0
 30
0.0
332
765C
 74
     2
 92
        0
 75
     0
  0
DIMASSOC
  5
7713
102
{ACAD_REACTORS
330
7712
102
}
330
7712
100
AcDbDimAssoc
330
7711
 90
        3
 70
     0
 71
     0
  1
AcDbOsnapPointRef
 72
     1
331
7651
 73
     2
 91
        0
 40
1.0
 10
0.0
 20
0.0
 30
2.000000000000000E+50
 75
     0
  1
AcDbOsnapPointRef
 72
     8
331
7668
 73
     2
 91
        0
 40
0.160256410256611
 10
0.0
 20
0.0
 30
0.0
 75
     1
  1
AcDbOsnapPointRef
 72
     1
331
7651
 73
     2
 91
        0
 40
1.0
 10
0.0
 20
0.0
 30
2.000000000000000E+50
 75
     0
  0
DIMASSOC
  5
7719
102
{ACAD_REACTORS
330
7718
102
}
330
7718
100
AcDbDimAssoc
330
7717
 90
        3
 70
     0
 71
     0
  1
AcDbOsnapPointRef
 72
    13
331
7662
 73
     2
 91
        0
 40
4.712388980384689
 10
0.0
 20
0.0
 30
2.000000000000000E+50
 75
     0
  1
AcDbOsnapPointRef
 72
     8
331
7660
 73
     2
 91
        0
 40
0.1666666666668801
 10
0.0
 20
0.0
 30
0.0
 75
     1
  1
AcDbOsnapPointRef
 72
    13
331
7662
 73
     2
 91
        0
 40
4.712388980384689
 10
0.0
 20
0.0
 30
2.000000000000000E+50
 75
     0
  0
DIMASSOC
  5
771C
102
{ACAD_REACTORS
330
771B
102
}
330
771B
100
AcDbDimAssoc
330
771A
 90
        2
 70
     0
 71
     0
  1
AcDbOsnapPointRef
 72
     8
331
767C
 73
     2
 91
        0
 40
0.6794871794870748
 10
0.0
 20
0.0
 30
0.0
 75
     1
  1
AcDbOsnapPointRef
 72
     8
331
767E
 73
     2
 91
        0
 40
3.141592653589793
 10
0.0
 20
0.0
 30
0.0
 75
     1
  1
AcDbOsnapPointRef
 72
     0
 40
0.0
 10
822.289106520138
 20
1966.531748375086
 30
0.0
 75
     0
  0
DIMASSOC
  5
779C
102
{ACAD_REACTORS
330
779B
102
}
330
779B
100
AcDbDimAssoc
330
779A
 90
        2
 70
     0
 71
     0
  1
AcDbOsnapPointRef
 72
     3
331
7799
 73
     2
 91
        0
 40
0.0
 10
0.0
 20
0.0
 30
0.0
 75
     0
  0
DIMASSOC
  5
7D69
102
{ACAD_REACTORS
330
7D5D
102
}
330
7D5D
100
AcDbDimAssoc
330
7D4E
 90
        3
 70
     0
 71
     0
  1
AcDbOsnapPointRef
 72
    13
331
7666
 73
     2
 91
        0
 40
0.0
 10
0.0
 20
0.0
 30
2.000000000000000E+50
 75
     0
  1
AcDbOsnapPointRef
 72
     2
331
7654
 73
     2
 91
        0
 40
0.5000000000000001
 10
0.0
 20
0.0
 30
0.0
 75
     0
  0
ACDBDETAILVIEWSTYLE
  5
7DA0
102
{ACAD_XDICTIONARY
360
7DD9
102
}
102
{ACAD_REACTORS
330
7D9F
102
}
330
7D9F
100
AcDbModelDocViewStyle
 70
     0
  3
Imperial24
290
     0
100
AcDbDetailViewStyle
 70
     0
 71
     0
 90
        3
 71
     1
340
11
 62
   256
 40
0.24
340
0
 62
   256
 40
0.24
300

 40
0.36
280
     3
 71
     2
340
16
 90
       25
 62
   256
 71
     3
340
11
 62
   256
 40
0.24
 90
        1
 40
0.75
 90
        1
300
%<\AcVar ViewType \f "%tc1">% %<\AcVar ViewDetailId>%\PSCALE %<\AcVar ViewScale \f "%sn">%
 71
     4
340
16
 90
       25
 62
   256
340
16
 90
       25
 62
   256
280
     0
  0
LAYOUT
  5
22
102
{ACAD_REACTORS
330
1A
102
}
330
1A
100
AcDbPlotSettings
  1

  2
DWG To PDF.pc3
  4
ISO_expand_A4_(210.00_x_297.00_MM)
  6

 40
5.793749809265136
 41
10.79374980926513
 42
5.793746948242187
 43
10.79376220703125
 44
210.0
 45
297.0
 46
0.0
 47
5.584311844874662
 48
4892.983353965359
 49
-12691.75303121942
140
9347.983353965359
141
-9346.632022233599
142
1.0
143
16.85942646919551
 70
 11956
 72
     1
 73
     1
 74
     4
  7
acad.ctb
 75
     0
147
0.0593139987191817
 76
     0
 77
     2
 78
   300
148
-4892.983353965359
149
12691.75303121942
100
AcDbLayout
  1
Model
 70
     1
 71
     0
 10
0.0
 20
0.0
 11
12.0
 21
9.0
 12
0.0
 22
0.0
 32
0.0
 14
0.0
 24
0.0
 34
0.0
 15
0.0
 25
0.0
 35
0.0
146
0.0
 13
0.0
 23
0.0
 33
0.0
 16
1.0
 26
0.0
 36
0.0
 17
0.0
 27
1.0
 37
0.0
 76
     0
330
1F
331
92
1001
ACAD_PSEXT
1000
DWG To PDF.pc3
1000
PDF
1000
文件
1000

1070
     0
  0
LAYOUT
  5
59
102
{ACAD_REACTORS
330
1A
102
}
330
1A
100
AcDbPlotSettings
  1

  2
None
  4

  6

 40
0.0
 41
0.0
 42
0.0
 43
0.0
 44
0.0
 45
0.0
 46
0.0
 47
0.0
 48
0.0
 49
0.0
140
0.0
141
0.0
142
1.0
143
1.0
 70
   688
 72
     0
 73
     0
 74
     5
  7
acad.ctb
 75
    16
147
1.0
 76
     0
 77
     2
 78
   300
148
0.0
149
0.0
100
AcDbLayout
  1
布局1
 70
     1
 71
     1
 10
0.0
 20
0.0
 11
12.0
 21
9.0
 12
0.0
 22
0.0
 32
0.0
 14
0.0
 24
0.0
 34
0.0
 15
0.0
 25
0.0
 35
0.0
146
0.0
 13
0.0
 23
0.0
 33
0.0
 16
1.0
 26
0.0
 36
0.0
 17
0.0
 27
1.0
 37
0.0
 76
     0
330
58
1001
AcadStringInfo
1000
MIFCodePage
1070
     5
  0
LAYOUT
  5
5E
102
{ACAD_REACTORS
330
1A
102
}
330
1A
100
AcDbPlotSettings
  1

  2
None
  4

  6

 40
0.0
 41
0.0
 42
0.0
 43
0.0
 44
0.0
 45
0.0
 46
0.0
 47
0.0
 48
0.0
 49
0.0
140
0.0
141
0.0
142
1.0
143
1.0
 70
   688
 72
     0
 73
     0
 74
     5
  7
acad.ctb
 75
    16
147
1.0
 76
     0
 77
     2
 78
   300
148
0.0
149
0.0
100
AcDbLayout
  1
布局2
 70
     1
 71
     2
 10
0.0
 20
0.0
 11
12.0
 21
9.0
 12
0.0
 22
0.0
 32
0.0
 14
0.0
 24
0.0
 34
0.0
 15
0.0
 25
0.0
 35
0.0
146
0.0
 13
0.0
 23
0.0
 33
0.0
 16
1.0
 26
0.0
 36
0.0
 17
0.0
 27
1.0
 37
0.0
 76
     0
330
5D
1001
AcadStringInfo
1000
MIFCodePage
1070
     5
  0
MATERIAL
  5
95
102
{ACAD_REACTORS
330
72
102
}
330
72
100
AcDbMaterial
  1
ByBlock
 73
     1
 78
     1
172
     1
176
     1
270
     1
274
     1
 94
       63
  0
MATERIAL
  5
94
102
{ACAD_REACTORS
330
72
102
}
330
72
100
AcDbMaterial
  1
ByLayer
 73
     1
 78
     1
172
     1
176
     1
270
     1
274
     1
 94
       63
  0
MATERIAL
  5
96
102
{ACAD_REACTORS
330
72
102
}
330
72
100
AcDbMaterial
  1
Global
 73
     1
 78
     1
172
     1
176
     1
270
     1
274
     1
 94
       63
  0
MLEADERSTYLE
  5
7D9C
102
{ACAD_REACTORS
330
7D9B
102
}
330
7D9B
100
AcDbMLeaderStyle
179
     2
170
     2
171
     1
172
     0
 90
        2
 40
0.0
 41
0.0
173
     1
 91
-1056964608
340
14
 92
       -2
290
     1
 42
0.09
291
     1
 43
0.36
  3
Standard
 44
0.18
300

342
11
174
     1
178
     6
175
     1
176
     0
 93
-1056964608
 45
0.18
292
     0
297
     0
 46
0.18
 94
-1056964608
 47
1.0
 49
1.0
140
1.0
293
     1
141
0.0
294
     1
177
     0
142
1.0
295
     1
296
     0
143
0.125
271
     0
272
     9
273
     9
298
     1
  0
MLINESTYLE
  5
18
102
{ACAD_REACTORS
330
17
102
}
330
17
100
AcDbMlineStyle
  2
STANDARD
 70
     0
  3

 62
   256
 51
90.0
 52
90.0
 71
     2
 49
0.5
 62
   256
  6
BYLAYER
 49
-0.5
 62
   256
  6
BYLAYER
  0
ACDBPLACEHOLDER
  5
F
102
{ACAD_REACTORS
330
E
102
}
330
E
  0
SCALE
  5
7D8A
102
{ACAD_REACTORS
330
7D89
102
}
330
7D89
100
AcDbScale
 70
     0
300
1:1
140
1.0
141
1.0
290
     1
  0
SCALE
  5
7D8B
102
{ACAD_REACTORS
330
7D89
102
}
330
7D89
100
AcDbScale
 70
     0
300
1/128" = 1'-0"
140
0.0078125
141
12.0
290
     0
  0
SCALE
  5
7D8C
102
{ACAD_REACTORS
330
7D89
102
}
330
7D89
100
AcDbScale
 70
     0
300
1/64" = 1'-0"
140
0.015625
141
12.0
290
     0
  0
SCALE
  5
7D8D
102
{ACAD_REACTORS
330
7D89
102
}
330
7D89
100
AcDbScale
 70
     0
300
1/32" = 1'-0"
140
0.03125
141
12.0
290
     0
  0
SCALE
  5
7D8E
102
{ACAD_REACTORS
330
7D89
102
}
330
7D89
100
AcDbScale
 70
     0
300
1/16" = 1'-0"
140
0.0625
141
12.0
290
     0
  0
SCALE
  5
7D8F
102
{ACAD_REACTORS
330
7D89
102
}
330
7D89
100
AcDbScale
 70
     0
300
3/32" = 1'-0"
140
0.09375
141
12.0
290
     0
  0
SCALE
  5
7D90
102
{ACAD_REACTORS
330
7D89
102
}
330
7D89
100
AcDbScale
 70
     0
300
1/8" = 1'-0"
140
0.125
141
12.0
290
     0
  0
SCALE
  5
7D91
102
{ACAD_REACTORS
330
7D89
102
}
330
7D89
100
AcDbScale
 70
     0
300
3/16" = 1'-0"
140
0.1875
141
12.0
290
     0
  0
SCALE
  5
7D92
102
{ACAD_REACTORS
330
7D89
102
}
330
7D89
100
AcDbScale
 70
     0
300
1/4" = 1'-0"
140
0.25
141
12.0
290
     0
  0
SCALE
  5
7D93
102
{ACAD_REACTORS
330
7D89
102
}
330
7D89
100
AcDbScale
 70
     0
300
3/8" = 1'-0"
140
0.375
141
12.0
290
     0
  0
SCALE
  5
7D94
102
{ACAD_REACTORS
330
7D89
102
}
330
7D89
100
AcDbScale
 70
     0
300
1/2" = 1'-0"
140
0.5
141
12.0
290
     0
  0
SCALE
  5
7D95
102
{ACAD_REACTORS
330
7D89
102
}
330
7D89
100
AcDbScale
 70
     0
300
3/4" = 1'-0"
140
0.75
141
12.0
290
     0
  0
SCALE
  5
7D96
102
{ACAD_REACTORS
330
7D89
102
}
330
7D89
100
AcDbScale
 70
     0
300
1" = 1'-0"
140
1.0
141
12.0
290
     0
  0
SCALE
  5
7D97
102
{ACAD_REACTORS
330
7D89
102
}
330
7D89
100
AcDbScale
 70
     0
300
1-1/2" = 1'-0"
140
1.5
141
12.0
290
     0
  0
SCALE
  5
7D98
102
{ACAD_REACTORS
330
7D89
102
}
330
7D89
100
AcDbScale
 70
     0
300
3" = 1'-0"
140
3.0
141
12.0
290
     0
  0
SCALE
  5
7D99
102
{ACAD_REACTORS
330
7D89
102
}
330
7D89
100
AcDbScale
 70
     0
300
6" = 1'-0"
140
6.0
141
12.0
290
     0
  0
SCALE
  5
7D9A
102
{ACAD_REACTORS
330
7D89
102
}
330
7D89
100
AcDbScale
 70
     0
300
1'-0" = 1'-0"
140
12.0
141
12.0
290
     0
  0
ACDBSECTIONVIEWSTYLE
  5
7D9E
102
{ACAD_XDICTIONARY
360
7DD7
102
}
102
{ACAD_REACTORS
330
7D9D
102
}
330
7D9D
100
AcDbModelDocViewStyle
 70
     0
  3
Imperial24
290
     0
100
AcDbSectionViewStyle
 70
     0
 71
     0
 90
       78
 71
     1
340
11
 62
   256
 40
0.24
340
0
340
0
 62
   256
 40
0.24
300
I, O, Q, S, X, Z
 40
0.48
 90
        3
 40
0.18
 90
        1
 71
     2
340
16
 90
       25
 62
   256
340
16
 90
       50
 62
   256
 40
0.24
 40
0.0
 40
0.24
 71
     3
340
11
 62
   256
 40
0.24
 90
        1
 40
0.75
 90
        1
300
%<\AcVar ViewType \f "%tc1">% %<\AcVar ViewSectionStartId>%-%<\AcVar ViewSectionEndId>%\PSCALE %<\AcVar ViewScale \f "%sn">%
 71
     4
 62
   256
 62
   257
300
ANSI31
 40
1.0
 90
        0
290
     0
290
     0
 90
        6
 40
0.0
 40
1.570796326794896
 40
0.2617993877991494
 40
1.308996938995747
 40
-0.2617993877991494
 40
1.832595714594046
  0
TABLESTYLE
  5
87
102
{ACAD_XDICTIONARY
360
7DD5
102
}
102
{ACAD_REACTORS
330
86
102
}
330
86
100
AcDbTableStyle
280
     0
  3
Standard
 70
     0
 71
     0
 40
0.06
 41
0.06
280
     0
281
     0
  7
Standard
140
0.18
170
     2
 62
     0
 63
     7
283
     0
 90
      512
 91
        0
  1

274
    -2
284
     1
 64
     0
275
    -2
285
     1
 65
     0
276
    -2
286
     1
 66
     0
277
    -2
287
     1
 67
     0
278
    -2
288
     1
 68
     0
279
    -2
289
     1
 69
     0
  7
Standard
140
0.25
170
     5
 62
     0
 63
     7
283
     0
 90
      512
 91
        0
  1

274
    -2
284
     1
 64
     0
275
    -2
285
     1
 65
     0
276
    -2
286
     1
 66
     0
277
    -2
287
     1
 67
     0
278
    -2
288
     1
 68
     0
279
    -2
289
     1
 69
     0
  7
Standard
140
0.18
170
     5
 62
     0
 63
     7
283
     0
 90
      512
 91
        0
  1

274
    -2
284
     1
 64
     0
275
    -2
285
     1
 65
     0
276
    -2
286
     1
 66
     0
277
    -2
287
     1
 67
     0
278
    -2
288
     1
 68
     0
279
    -2
289
     1
 69
     0
  0
VISUALSTYLE
  5
9D
102
{ACAD_REACTORS
330
97
102
}
330
97
100
AcDbVisualStyle
  2
2dWireframe
 70
     4
177
     3
291
     0
 70
    58
 90
        0
176
     1
 90
        2
176
     1
 90
        1
176
     1
 90
        0
176
     1
 40
0.6
176
     1
 40
30.0
176
     1
 62
     7
420
 16777215
176
     1
 90
        1
176
     1
 90
        4
176
     1
 62
     7
176
     1
 62
   257
176
     1
 90
        1
176
     1
 90
        1
176
     1
 40
1.0
176
     1
 90
        0
176
     1
 62
   257
176
     1
 40
1.0
176
     1
 90
        1
176
     1
 90
        6
176
     1
 90
        2
176
     1
 62
     7
176
     1
 90
        5
176
     1
 90
        0
176
     1
 90
        0
176
     1
290
     0
176
     1
 90
        1
176
     1
 40
0.0
176
     1
 90
        0
176
     1
290
     1
176
     1
290
     1
176
     1
290
     0
176
     1
290
     0
176
     1
290
     0
176
     1
290
     0
176
     1
290
     0
176
     1
290
     0
176
     1
290
     0
176
     1
 90
       50
176
     1
 40
0.0
176
     1
 40
1.0
176
     1
 90
        0
176
     1
 62
    18
420
        0
176
     1
 90
       50
176
     1
 90
        3
176
     1
 62
     5
420
      255
176
     1
290
     0
176
     1
 90
       50
176
     1
 90
       50
176
     1
 90
       50
176
     1
290
     0
176
     1
 90
       50
176
     1
 62
   256
176
     0
 40
1.0
176
     0
 90
        2
176
     1
  1
strokes_ogs.tif
176
     1
290
     0
176
     1
 40
1.0
176
     1
 40
1.0
176
     1
  0
VISUALSTYLE
  5
9F
102
{ACAD_REACTORS
330
97
102
}
330
97
100
AcDbVisualStyle
  2
3D Hidden
 70
     6
177
     3
291
     0
 70
    58
 90
        1
176
     1
 90
        2
176
     1
 90
        2
176
     1
 90
        0
176
     1
 40
0.6
176
     1
 40
30.0
176
     1
 62
     7
420
 16777215
176
     1
 90
        2
176
     1
 90
        2
176
     1
 62
     7
176
     1
 62
   257
176
     1
 90
        2
176
     1
 90
        1
176
     1
 40
40.0
176
     1
 90
        0
176
     1
 62
   257
176
     1
 40
1.0
176
     1
 90
        1
176
     1
 90
        6
176
     1
 90
        2
176
     1
 62
     7
176
     1
 90
        3
176
     1
 90
        0
176
     1
 90
        0
176
     1
290
     0
176
     1
 90
        1
176
     1
 40
0.0
176
     1
 90
        0
176
     1
290
     0
176
     1
290
     1
176
     1
290
     1
176
     1
290
     0
176
     1
290
     0
176
     1
290
     0
176
     1
290
     0
176
     1
290
     0
176
     1
290
     0
176
     1
 90
       50
176
     1
 40
0.0
176
     1
 40
1.0
176
     1
 90
        0
176
     1
 62
    18
420
        0
176
     1
 90
       50
176
     1
 90
        3
176
     1
 62
     5
420
      255
176
     1
290
     0
176
     1
 90
       50
176
     1
 90
       50
176
     1
 90
       50
176
     1
290
     0
176
     1
 90
       50
176
     1
 62
   256
176
     0
 40
1.0
176
     0
 90
        2
176
     1
  1
strokes_ogs.tif
176
     1
290
     0
176
     1
 40
1.0
176
     1
 40
1.0
176
     1
  0
VISUALSTYLE
  5
9E
102
{ACAD_REACTORS
330
97
102
}
330
97
100
AcDbVisualStyle
  2
3dWireframe
 70
     5
177
     3
291
     0
 70
    58
 90
        0
176
     1
 90
        2
176
     1
 90
        1
176
     1
 90
        0
176
     1
 40
0.6
176
     1
 40
30.0
176
     1
 62
     7
420
 16777215
176
     1
 90
        1
176
     1
 90
        4
176
     1
 62
     7
176
     1
 62
   257
176
     1
 90
        1
176
     1
 90
        1
176
     1
 40
1.0
176
     1
 90
        0
176
     1
 62
   257
176
     1
 40
1.0
176
     1
 90
        1
176
     1
 90
        6
176
     1
 90
        2
176
     1
 62
     7
176
     1
 90
        5
176
     1
 90
        0
176
     1
 90
        0
176
     1
290
     0
176
     1
 90
        1
176
     1
 40
0.0
176
     1
 90
        0
176
     1
290
     0
176
     1
290
     1
176
     1
290
     1
176
     1
290
     0
176
     1
290
     0
176
     1
290
     0
176
     1
290
     0
176
     1
290
     0
176
     1
290
     0
176
     1
 90
       50
176
     1
 40
0.0
176
     1
 40
1.0
176
     1
 90
        0
176
     1
 62
    18
420
        0
176
     1
 90
       50
176
     1
 90
        3
176
     1
 62
     5
420
      255
176
     1
290
     0
176
     1
 90
       50
176
     1
 90
       50
176
     1
 90
       50
176
     1
290
     0
176
     1
 90
       50
176
     1
 62
   256
176
     0
 40
1.0
176
     0
 90
        2
176
     1
  1
strokes_ogs.tif
176
     1
290
     0
176
     1
 40
1.0
176
     1
 40
1.0
176
     1
  0
VISUALSTYLE
  5
9C
102
{ACAD_REACTORS
330
97
102
}
330
97
100
AcDbVisualStyle
  2
Basic
 70
     7
177
     3
291
     1
 70
    58
 90
        1
176
     1
 90
        0
176
     1
 90
        1
176
     1
 90
        0
176
     1
 40
0.6
176
     1
 40
30.0
176
     1
 62
     7
420
 16777215
176
     1
 90
        0
176
     1
 90
        4
176
     1
 62
     7
176
     1
 62
   257
176
     1
 90
        1
176
     1
 90
        1
176
     1
 40
1.0
176
     1
 90
        8
176
     1
 62
     7
176
     1
 40
1.0
176
     1
 90
        1
176
     1
 90
        6
176
     1
 90
        2
176
     1
 62
     7
176
     1
 90
        5
176
     1
 90
        0
176
     1
 90
        0
176
     1
290
     0
176
     1
 90
        1
176
     1
 40
0.0
176
     1
 90
        0
176
     1
290
     0
176
     1
290
     1
176
     1
290
     1
176
     1
290
     0
176
     1
290
     0
176
     1
290
     0
176
     1
290
     0
176
     1
290
     0
176
     1
290
     0
176
     1
 90
       50
176
     1
 40
0.0
176
     1
 40
1.0
176
     1
 90
        0
176
     1
 62
    18
420
        0
176
     1
 90
       50
176
     1
 90
        3
176
     1
 62
     5
420
      255
176
     1
290
     0
176
     1
 90
       50
176
     1
 90
       50
176
     1
 90
       50
176
     1
290
     0
176
     1
 90
       50
176
     1
 62
   256
176
     0
 40
1.0
176
     0
 90
        2
176
     1
  1
strokes_ogs.tif
176
     1
290
     0
176
     1
 40
1.0
176
     1
 40
1.0
176
     1
  0
VISUALSTYLE
  5
A3
102
{ACAD_REACTORS
330
97
102
}
330
97
100
AcDbVisualStyle
  2
Brighten
 70
    12
177
     3
291
     1
 70
    58
 90
        2
176
     1
 90
        2
176
     1
 90
        1
176
     1
 90
        0
176
     1
 40
0.6
176
     1
 40
30.0
176
     1
 62
     7
420
 16777215
176
     1
 90
        1
176
     1
 90
        4
176
     1
 62
     7
176
     1
 62
   257
176
     1
 90
        1
176
     1
 90
        1
176
     1
 40
1.0
176
     1
 90
        8
176
     1
 62
     7
176
     1
 40
1.0
176
     1
 90
        1
176
     1
 90
        6
176
     1
 90
        2
176
     1
 62
     7
176
     1
 90
        5
176
     1
 90
        0
176
     1
 90
        0
176
     1
290
     0
176
     1
 90
        1
176
     1
 40
50.0
176
     1
 90
        0
176
     1
290
     0
176
     1
290
     1
176
     1
290
     1
176
     1
290
     0
176
     1
290
     0
176
     1
290
     0
176
     1
290
     0
176
     1
290
     0
176
     1
290
     0
176
     1
 90
       50
176
     1
 40
0.0
176
     1
 40
1.0
176
     1
 90
        0
176
     1
 62
    18
420
        0
176
     1
 90
       50
176
     1
 90
        3
176
     1
 62
     5
420
      255
176
     1
290
     0
176
     1
 90
       50
176
     1
 90
       50
176
     1
 90
       50
176
     1
290
     0
176
     1
 90
       50
176
     1
 62
   256
176
     0
 40
1.0
176
     0
 90
        2
176
     1
  1
strokes_ogs.tif
176
     1
290
     0
176
     1
 40
1.0
176
     1
 40
1.0
176
     1
  0
VISUALSTYLE
  5
A7
102
{ACAD_REACTORS
330
97
102
}
330
97
100
AcDbVisualStyle
  2
ColorChange
 70
    16
177
     3
291
     1
 70
    58
 90
        2
176
     1
 90
        2
176
     1
 90
        3
176
     1
 90
        0
176
     1
 40
0.6
176
     1
 40
30.0
176
     1
 62
     8
420
  8421504
176
     1
 90
        1
176
     1
 90
        4
176
     1
 62
     7
176
     1
 62
   257
176
     1
 90
        1
176
     1
 90
        1
176
     1
 40
1.0
176
     1
 90
        8
176
     1
 62
     8
420
  8421504
176
     1
 40
1.0
176
     1
 90
        1
176
     1
 90
        6
176
     1
 90
        2
176
     1
 62
     7
176
     1
 90
        5
176
     1
 90
        0
176
     1
 90
        0
176
     1
290
     0
176
     1
 90
        1
176
     1
 40
0.0
176
     1
 90
        0
176
     1
290
     0
176
     1
290
     1
176
     1
290
     1
176
     1
290
     0
176
     1
290
     0
176
     1
290
     0
176
     1
290
     0
176
     1
290
     0
176
     1
290
     0
176
     1
 90
       50
176
     1
 40
0.0
176
     1
 40
1.0
176
     1
 90
        0
176
     1
 62
    18
420
        0
176
     1
 90
       50
176
     1
 90
        3
176
     1
 62
     5
420
      255
176
     1
290
     0
176
     1
 90
       50
176
     1
 90
       50
176
     1
 90
       50
176
     1
290
     0
176
     1
 90
       50
176
     1
 62
   256
176
     0
 40
1.0
176
     0
 90
        2
176
     1
  1
strokes_ogs.tif
176
     1
290
     0
176
     1
 40
1.0
176
     1
 40
1.0
176
     1
  0
VISUALSTYLE
  5
A0
102
{ACAD_REACTORS
330
97
102
}
330
97
100
AcDbVisualStyle
  2
Conceptual
 70
     9
177
     3
291
     0
 70
    58
 90
        3
176
     1
 90
        2
176
     1
 90
        1
176
     1
 90
        0
176
     1
 40
0.6
176
     1
 40
30.0
176
     1
 62
     7
420
 16777215
176
     1
 90
        2
176
     1
 90
        2
176
     1
 62
     7
176
     1
 62
   257
176
     1
 90
        1
176
     1
 90
        1
176
     1
 40
40.0
176
     1
 90
        8
176
     1
 62
     7
176
     1
 40
1.0
176
     1
 90
        1
176
     1
 90
        6
176
     1
 90
        2
176
     1
 62
     7
176
     1
 90
        3
176
     1
 90
        0
176
     1
 90
        0
176
     1
290
     0
176
     1
 90
        1
176
     1
 40
0.0
176
     1
 90
        0
176
     1
290
     0
176
     1
290
     1
176
     1
290
     1
176
     1
290
     0
176
     1
290
     0
176
     1
290
     0
176
     1
290
     0
176
     1
290
     0
176
     1
290
     0
176
     1
 90
       50
176
     1
 40
0.0
176
     1
 40
1.0
176
     1
 90
        0
176
     1
 62
    18
420
        0
176
     1
 90
       50
176
     1
 90
        3
176
     1
 62
     5
420
      255
176
     1
290
     0
176
     1
 90
       50
176
     1
 90
       50
176
     1
 90
       50
176
     1
290
     0
176
     1
 90
       50
176
     1
 62
   256
176
     0
 40
1.0
176
     0
 90
        2
176
     1
  1
strokes_ogs.tif
176
     1
290
     0
176
     1
 40
1.0
176
     1
 40
1.0
176
     1
  0
VISUALSTYLE
  5
A2
102
{ACAD_REACTORS
330
97
102
}
330
97
100
AcDbVisualStyle
  2
Dim
 70
    11
177
     3
291
     1
 70
    58
 90
        2
176
     1
 90
        2
176
     1
 90
        1
176
     1
 90
        0
176
     1
 40
0.6
176
     1
 40
30.0
176
     1
 62
     7
420
 16777215
176
     1
 90
        1
176
     1
 90
        4
176
     1
 62
     7
176
     1
 62
   257
176
     1
 90
        1
176
     1
 90
        1
176
     1
 40
1.0
176
     1
 90
        8
176
     1
 62
     7
176
     1
 40
1.0
176
     1
 90
        1
176
     1
 90
        6
176
     1
 90
        2
176
     1
 62
     7
176
     1
 90
        5
176
     1
 90
        0
176
     1
 90
        0
176
     1
290
     0
176
     1
 90
        1
176
     1
 40
-50.0
176
     1
 90
        0
176
     1
290
     0
176
     1
290
     1
176
     1
290
     1
176
     1
290
     0
176
     1
290
     0
176
     1
290
     0
176
     1
290
     0
176
     1
290
     0
176
     1
290
     0
176
     1
 90
       50
176
     1
 40
0.0
176
     1
 40
1.0
176
     1
 90
        0
176
     1
 62
    18
420
        0
176
     1
 90
       50
176
     1
 90
        3
176
     1
 62
     5
420
      255
176
     1
290
     0
176
     1
 90
       50
176
     1
 90
       50
176
     1
 90
       50
176
     1
290
     0
176
     1
 90
       50
176
     1
 62
   256
176
     0
 40
1.0
176
     0
 90
        2
176
     1
  1
strokes_ogs.tif
176
     1
290
     0
176
     1
 40
1.0
176
     1
 40
1.0
176
     1
  0
VISUALSTYLE
  5
7D88
102
{ACAD_REACTORS
330
97
102
}
330
97
100
AcDbVisualStyle
  2
EdgeColorOff
 70
    22
177
     3
291
     1
 70
    58
 90
        2
176
     0
 90
        2
176
     0
 90
        0
176
     0
 90
        0
176
     0
 40
0.6
176
     0
 40
30.0
176
     0
 62
     7
420
 16777215
176
     0
 90
        1
176
     0
 90
        4
176
     0
 62
     7
176
     0
 62
   257
176
     0
 90
        1
176
     0
 90
        1
176
     0
 40
1.0
176
     0
 90
        8
176
     2
 62
     7
176
     0
 40
1.0
176
     0
 90
        1
176
     0
 90
        6
176
     0
 90
        2
176
     0
 62
     7
176
     0
 90
        5
176
     0
 90
        0
176
     0
 90
        0
176
     0
290
     0
176
     0
 90
        1
176
     0
 40
0.0
176
     0
 90
        0
176
     0
290
     0
176
     0
290
     1
176
     0
290
     1
176
     0
290
     0
176
     0
290
     0
176
     0
290
     0
176
     0
290
     0
176
     0
290
     0
176
     0
290
     0
176
     0
 90
       50
176
     0
 40
0.0
176
     0
 40
1.0
176
     0
 90
        0
176
     0
 62
    18
420
        0
176
     0
 90
       50
176
     0
 90
        3
176
     0
 62
     5
420
      255
176
     0
290
     0
176
     0
 90
       50
176
     0
 90
       50
176
     0
 90
       50
176
     0
290
     0
176
     0
 90
       50
176
     0
 62
   256
176
     0
 40
1.0
176
     0
 90
        2
176
     0
  1
strokes_ogs.tif
176
     0
290
     0
176
     0
 40
1.0
176
     0
 40
1.0
176
     0
  0
VISUALSTYLE
  5
A6
102
{ACAD_REACTORS
330
97
102
}
330
97
100
AcDbVisualStyle
  2
Facepattern
 70
    15
177
     3
291
     1
 70
    58
 90
        2
176
     1
 90
        2
176
     1
 90
        1
176
     1
 90
        0
176
     1
 40
0.6
176
     1
 40
30.0
176
     1
 62
     7
420
 16777215
176
     1
 90
        1
176
     1
 90
        4
176
     1
 62
     7
176
     1
 62
   257
176
     1
 90
        1
176
     1
 90
        1
176
     1
 40
1.0
176
     1
 90
        8
176
     1
 62
     7
176
     1
 40
1.0
176
     1
 90
        1
176
     1
 90
        6
176
     1
 90
        2
176
     1
 62
     7
176
     1
 90
        5
176
     1
 90
        0
176
     1
 90
        0
176
     1
290
     0
176
     1
 90
        1
176
     1
 40
0.0
176
     1
 90
        0
176
     1
290
     0
176
     1
290
     1
176
     1
290
     1
176
     1
290
     0
176
     1
290
     0
176
     1
290
     0
176
     1
290
     0
176
     1
290
     0
176
     1
290
     0
176
     1
 90
       50
176
     1
 40
0.0
176
     1
 40
1.0
176
     1
 90
        0
176
     1
 62
    18
420
        0
176
     1
 90
       50
176
     1
 90
        3
176
     1
 62
     5
420
      255
176
     1
290
     0
176
     1
 90
       50
176
     1
 90
       50
176
     1
 90
       50
176
     1
290
     0
176
     1
 90
       50
176
     1
 62
   256
176
     0
 40
1.0
176
     0
 90
        2
176
     1
  1
strokes_ogs.tif
176
     1
290
     0
176
     1
 40
1.0
176
     1
 40
1.0
176
     1
  0
VISUALSTYLE
  5
98
102
{ACAD_REACTORS
330
97
102
}
330
97
100
AcDbVisualStyle
  2
Flat
 70
     0
177
     3
291
     1
 70
    58
 90
        2
176
     1
 90
        1
176
     1
 90
        1
176
     1
 90
        2
176
     1
 40
0.6
176
     1
 40
30.0
176
     1
 62
     7
420
 16777215
176
     1
 90
        0
176
     1
 90
        4
176
     1
 62
     7
176
     1
 62
   257
176
     1
 90
        1
176
     1
 90
        1
176
     1
 40
1.0
176
     1
 90
        8
176
     1
 62
     7
176
     1
 40
1.0
176
     1
 90
        1
176
     1
 90
        6
176
     1
 90
        2
176
     1
 62
     7
176
     1
 90
        5
176
     1
 90
        0
176
     1
 90
        0
176
     1
290
     0
176
     1
 90
        1
176
     1
 40
0.0
176
     1
 90
        0
176
     1
290
     0
176
     1
290
     1
176
     1
290
     1
176
     1
290
     0
176
     1
290
     0
176
     1
290
     0
176
     1
290
     0
176
     1
290
     0
176
     1
290
     0
176
     1
 90
       50
176
     1
 40
0.0
176
     1
 40
1.0
176
     1
 90
        0
176
     1
 62
    18
420
        0
176
     1
 90
       50
176
     1
 90
        3
176
     1
 62
     5
420
      255
176
     1
290
     0
176
     1
 90
       50
176
     1
 90
       50
176
     1
 90
       50
176
     1
290
     0
176
     1
 90
       50
176
     1
 62
   256
176
     0
 40
1.0
176
     0
 90
        2
176
     1
  1
strokes_ogs.tif
176
     1
290
     0
176
     1
 40
1.0
176
     1
 40
1.0
176
     1
  0
VISUALSTYLE
  5
99
102
{ACAD_REACTORS
330
97
102
}
330
97
100
AcDbVisualStyle
  2
FlatWithEdges
 70
     1
177
     3
291
     1
 70
    58
 90
        2
176
     1
 90
        1
176
     1
 90
        1
176
     1
 90
        2
176
     1
 40
0.6
176
     1
 40
30.0
176
     1
 62
     7
420
 16777215
176
     1
 90
        1
176
     1
 90
        4
176
     1
 62
     7
176
     1
 62
   257
176
     1
 90
        1
176
     1
 90
        1
176
     1
 40
1.0
176
     1
 90
        0
176
     1
 62
   257
176
     1
 40
1.0
176
     1
 90
        1
176
     1
 90
        6
176
     1
 90
        2
176
     1
 62
     7
176
     1
 90
        5
176
     1
 90
        0
176
     1
 90
        0
176
     1
290
     0
176
     1
 90
        1
176
     1
 40
0.0
176
     1
 90
        0
176
     1
290
     0
176
     1
290
     1
176
     1
290
     1
176
     1
290
     0
176
     1
290
     0
176
     1
290
     0
176
     1
290
     0
176
     1
290
     0
176
     1
290
     0
176
     1
 90
       50
176
     1
 40
0.0
176
     1
 40
1.0
176
     1
 90
        0
176
     1
 62
    18
420
        0
176
     1
 90
       50
176
     1
 90
        3
176
     1
 62
     5
420
      255
176
     1
290
     0
176
     1
 90
       50
176
     1
 90
       50
176
     1
 90
       50
176
     1
290
     0
176
     1
 90
       50
176
     1
 62
   256
176
     0
 40
1.0
176
     0
 90
        2
176
     1
  1
strokes_ogs.tif
176
     1
290
     0
176
     1
 40
1.0
176
     1
 40
1.0
176
     1
  0
VISUALSTYLE
  5
9A
102
{ACAD_REACTORS
330
97
102
}
330
97
100
AcDbVisualStyle
  2
Gouraud
 70
     2
177
     3
291
     1
 70
    58
 90
        2
176
     1
 90
        2
176
     1
 90
        1
176
     1
 90
        2
176
     1
 40
0.6
176
     1
 40
30.0
176
     1
 62
     7
420
 16777215
176
     1
 90
        0
176
     1
 90
        4
176
     1
 62
     7
176
     1
 62
   257
176
     1
 90
        1
176
     1
 90
        1
176
     1
 40
1.0
176
     1
 90
        0
176
     1
 62
     7
176
     1
 40
1.0
176
     1
 90
        1
176
     1
 90
        6
176
     1
 90
        2
176
     1
 62
     7
176
     1
 90
        5
176
     1
 90
        0
176
     1
 90
        0
176
     1
290
     0
176
     1
 90
        1
176
     1
 40
0.0
176
     1
 90
        0
176
     1
290
     0
176
     1
290
     1
176
     1
290
     1
176
     1
290
     0
176
     1
290
     0
176
     1
290
     0
176
     1
290
     0
176
     1
290
     0
176
     1
290
     0
176
     1
 90
       50
176
     1
 40
0.0
176
     1
 40
1.0
176
     1
 90
        0
176
     1
 62
    18
420
        0
176
     1
 90
       50
176
     1
 90
        3
176
     1
 62
     5
420
      255
176
     1
290
     0
176
     1
 90
       50
176
     1
 90
       50
176
     1
 90
       50
176
     1
290
     0
176
     1
 90
       50
176
     1
 62
   256
176
     0
 40
1.0
176
     0
 90
        2
176
     1
  1
strokes_ogs.tif
176
     1
290
     0
176
     1
 40
1.0
176
     1
 40
1.0
176
     1
  0
VISUALSTYLE
  5
9B
102
{ACAD_REACTORS
330
97
102
}
330
97
100
AcDbVisualStyle
  2
GouraudWithEdges
 70
     3
177
     3
291
     1
 70
    58
 90
        2
176
     1
 90
        2
176
     1
 90
        1
176
     1
 90
        2
176
     1
 40
0.6
176
     1
 40
30.0
176
     1
 62
     7
420
 16777215
176
     1
 90
        1
176
     1
 90
        4
176
     1
 62
     7
176
     1
 62
   257
176
     1
 90
        1
176
     1
 90
        1
176
     1
 40
1.0
176
     1
 90
        0
176
     1
 62
   257
176
     1
 40
1.0
176
     1
 90
        1
176
     1
 90
        6
176
     1
 90
        2
176
     1
 62
     7
176
     1
 90
        5
176
     1
 90
        0
176
     1
 90
        0
176
     1
290
     0
176
     1
 90
        1
176
     1
 40
0.0
176
     1
 90
        0
176
     1
290
     0
176
     1
290
     1
176
     1
290
     1
176
     1
290
     0
176
     1
290
     0
176
     1
290
     0
176
     1
290
     0
176
     1
290
     0
176
     1
290
     0
176
     1
 90
       50
176
     1
 40
0.0
176
     1
 40
1.0
176
     1
 90
        0
176
     1
 62
    18
420
        0
176
     1
 90
       50
176
     1
 90
        3
176
     1
 62
     5
420
      255
176
     1
290
     0
176
     1
 90
       50
176
     1
 90
       50
176
     1
 90
       50
176
     1
290
     0
176
     1
 90
       50
176
     1
 62
   256
176
     0
 40
1.0
176
     0
 90
        2
176
     1
  1
strokes_ogs.tif
176
     1
290
     0
176
     1
 40
1.0
176
     1
 40
1.0
176
     1
  0
VISUALSTYLE
  5
7D80
102
{ACAD_REACTORS
330
97
102
}
330
97
100
AcDbVisualStyle
  2
Hidden
 70
     6
177
     3
291
     0
 70
    58
 90
        1
176
     1
 90
        2
176
     1
 90
        2
176
     1
 90
        0
176
     1
 40
0.6
176
     1
 40
30.0
176
     1
 62
     7
420
 16777215
176
     1
 90
        2
176
     1
 90
        2
176
     1
 62
     7
176
     1
 62
   257
176
     1
 90
        2
176
     1
 90
        1
176
     1
 40
40.0
176
     1
 90
        0
176
     1
 62
   257
176
     1
 40
1.0
176
     1
 90
        1
176
     1
 90
        6
176
     1
 90
        2
176
     1
 62
     7
176
     1
 90
        3
176
     1
 90
        0
176
     1
 90
        0
176
     1
290
     0
176
     1
 90
        1
176
     1
 40
0.0
176
     1
 90
        0
176
     1
290
     0
176
     1
290
     1
176
     1
290
     1
176
     1
290
     0
176
     1
290
     0
176
     1
290
     0
176
     1
290
     0
176
     1
290
     0
176
     1
290
     0
176
     1
 90
       50
176
     1
 40
0.0
176
     1
 40
1.0
176
     1
 90
        0
176
     1
 62
    18
420
        0
176
     1
 90
       50
176
     1
 90
        3
176
     1
 62
     5
420
      255
176
     1
290
     0
176
     1
 90
       50
176
     1
 90
       50
176
     1
 90
       50
176
     1
290
     0
176
     1
 90
       50
176
     1
 62
   256
176
     0
 40
1.0
176
     0
 90
        2
176
     1
  1
strokes_ogs.tif
176
     1
290
     0
176
     1
 40
1.0
176
     1
 40
1.0
176
     1
  0
VISUALSTYLE
  5
7D86
102
{ACAD_REACTORS
330
97
102
}
330
97
100
AcDbVisualStyle
  2
JitterOff
 70
    20
177
     3
291
     1
 70
    58
 90
        2
176
     0
 90
        2
176
     0
 90
        0
176
     0
 90
        0
176
     0
 40
0.6
176
     0
 40
30.0
176
     0
 62
     7
420
 16777215
176
     0
 90
        1
176
     0
 90
        4
176
     0
 62
     7
176
     0
 62
   257
176
     0
 90
        1
176
     0
 90
        1
176
     0
 40
1.0
176
     0
 90
       10
176
     2
 62
     7
176
     0
 40
1.0
176
     0
 90
        1
176
     0
 90
        6
176
     0
 90
        2
176
     0
 62
     7
176
     0
 90
        5
176
     0
 90
        0
176
     0
 90
        0
176
     0
290
     0
176
     0
 90
        1
176
     0
 40
0.0
176
     0
 90
        0
176
     0
290
     0
176
     0
290
     1
176
     0
290
     1
176
     0
290
     0
176
     0
290
     0
176
     0
290
     0
176
     0
290
     0
176
     0
290
     0
176
     0
290
     0
176
     0
 90
       50
176
     0
 40
0.0
176
     0
 40
1.0
176
     0
 90
        0
176
     0
 62
    18
420
        0
176
     0
 90
       50
176
     0
 90
        3
176
     0
 62
     5
420
      255
176
     0
290
     0
176
     0
 90
       50
176
     0
 90
       50
176
     0
 90
       50
176
     0
290
     0
176
     0
 90
       50
176
     0
 62
   256
176
     0
 40
1.0
176
     0
 90
        2
176
     0
  1
strokes_ogs.tif
176
     0
290
     0
176
     0
 40
1.0
176
     0
 40
1.0
176
     0
  0
VISUALSTYLE
  5
A5
102
{ACAD_REACTORS
330
97
102
}
330
97
100
AcDbVisualStyle
  2
Linepattern
 70
    14
177
     3
291
     1
 70
    58
 90
        2
176
     1
 90
        2
176
     1
 90
        1
176
     1
 90
        0
176
     1
 40
0.6
176
     1
 40
30.0
176
     1
 62
     7
420
 16777215
176
     1
 90
        1
176
     1
 90
        4
176
     1
 62
     7
176
     1
 62
   257
176
     1
 90
        7
176
     1
 90
        7
176
     1
 40
1.0
176
     1
 90
        8
176
     1
 62
     7
176
     1
 40
1.0
176
     1
 90
        1
176
     1
 90
        6
176
     1
 90
        2
176
     1
 62
     7
176
     1
 90
        5
176
     1
 90
        0
176
     1
 90
        0
176
     1
290
     0
176
     1
 90
        1
176
     1
 40
0.0
176
     1
 90
        0
176
     1
290
     0
176
     1
290
     1
176
     1
290
     1
176
     1
290
     0
176
     1
290
     0
176
     1
290
     0
176
     1
290
     0
176
     1
290
     0
176
     1
290
     0
176
     1
 90
       50
176
     1
 40
0.0
176
     1
 40
1.0
176
     1
 90
        0
176
     1
 62
    18
420
        0
176
     1
 90
       50
176
     1
 90
        3
176
     1
 62
     5
420
      255
176
     1
290
     0
176
     1
 90
       50
176
     1
 90
       50
176
     1
 90
       50
176
     1
290
     0
176
     1
 90
       50
176
     1
 62
   256
176
     0
 40
1.0
176
     0
 90
        2
176
     1
  1
strokes_ogs.tif
176
     1
290
     0
176
     1
 40
1.0
176
     1
 40
1.0
176
     1
  0
VISUALSTYLE
  5
7D87
102
{ACAD_REACTORS
330
97
102
}
330
97
100
AcDbVisualStyle
  2
OverhangOff
 70
    21
177
     3
291
     1
 70
    58
 90
        2
176
     0
 90
        2
176
     0
 90
        0
176
     0
 90
        0
176
     0
 40
0.6
176
     0
 40
30.0
176
     0
 62
     7
420
 16777215
176
     0
 90
        1
176
     0
 90
        4
176
     0
 62
     7
176
     0
 62
   257
176
     0
 90
        1
176
     0
 90
        1
176
     0
 40
1.0
176
     0
 90
        9
176
     2
 62
     7
176
     0
 40
1.0
176
     0
 90
        1
176
     0
 90
        6
176
     0
 90
        2
176
     0
 62
     7
176
     0
 90
        5
176
     0
 90
        0
176
     0
 90
        0
176
     0
290
     0
176
     0
 90
        1
176
     0
 40
0.0
176
     0
 90
        0
176
     0
290
     0
176
     0
290
     1
176
     0
290
     1
176
     0
290
     0
176
     0
290
     0
176
     0
290
     0
176
     0
290
     0
176
     0
290
     0
176
     0
290
     0
176
     0
 90
       50
176
     0
 40
0.0
176
     0
 40
1.0
176
     0
 90
        0
176
     0
 62
    18
420
        0
176
     0
 90
       50
176
     0
 90
        3
176
     0
 62
     5
420
      255
176
     0
290
     0
176
     0
 90
       50
176
     0
 90
       50
176
     0
 90
       50
176
     0
290
     0
176
     0
 90
       50
176
     0
 62
   256
176
     0
 40
1.0
176
     0
 90
        2
176
     0
  1
strokes_ogs.tif
176
     0
290
     0
176
     0
 40
1.0
176
     0
 40
1.0
176
     0
  0
VISUALSTYLE
  5
A1
102
{ACAD_REACTORS
330
97
102
}
330
97
100
AcDbVisualStyle
  2
Realistic
 70
     8
177
     3
291
     0
 70
    58
 90
        2
176
     1
 90
        2
176
     1
 90
        1
176
     1
 90
        0
176
     1
 40
0.6
176
     1
 40
30.0
176
     1
 62
     7
420
 16777215
176
     1
 90
        1
176
     1
 90
        0
176
     1
 62
     7
176
     1
 62
   257
176
     1
 90
        1
176
     1
 90
        1
176
     1
 40
1.0
176
     1
 90
        8
176
     1
 62
     8
420
  7895160
176
     1
 40
1.0
176
     1
 90
        1
176
     1
 90
        6
176
     1
 90
        2
176
     1
 62
     7
176
     1
 90
        5
176
     1
 90
        0
176
     1
 90
        0
176
     1
290
     0
176
     1
 90
       13
176
     1
 40
0.0
176
     1
 90
        0
176
     1
290
     0
176
     1
290
     1
176
     1
290
     1
176
     1
290
     0
176
     1
290
     0
176
     1
290
     0
176
     1
290
     0
176
     1
290
     0
176
     1
290
     0
176
     1
 90
       50
176
     1
 40
0.0
176
     1
 40
1.0
176
     1
 90
        0
176
     1
 62
    18
420
        0
176
     1
 90
       50
176
     1
 90
        3
176
     1
 62
     5
420
      255
176
     1
290
     0
176
     1
 90
       50
176
     1
 90
       50
176
     1
 90
       50
176
     1
290
     0
176
     1
 90
       50
176
     1
 62
   256
176
     0
 40
1.0
176
     0
 90
        2
176
     1
  1
strokes_ogs.tif
176
     1
290
     0
176
     1
 40
1.0
176
     1
 40
1.0
176
     1
  0
VISUALSTYLE
  5
7D85
102
{ACAD_REACTORS
330
97
102
}
330
97
100
AcDbVisualStyle
  2
Shaded
 70
    27
177
     3
291
     0
 70
    58
 90
        2
176
     1
 90
        2
176
     1
 90
        1
176
     1
 90
        2
176
     1
 40
0.6
176
     1
 40
30.0
176
     1
 62
     7
420
 16777215
176
     1
 90
        0
176
     1
 90
        4
176
     1
 62
     7
176
     1
 62
   257
176
     1
 90
        1
176
     1
 90
        1
176
     1
 40
1.0
176
     1
 90
        8
176
     1
 62
   257
176
     1
 40
1.0
176
     1
 90
        1
176
     1
 90
        6
176
     1
 90
        2
176
     1
 62
     8
420
  7895160
176
     1
 90
        3
176
     1
 90
        0
176
     1
 90
        0
176
     1
290
     0
176
     1
 90
        5
176
     1
 40
0.0
176
     1
 90
        0
176
     1
290
     0
176
     1
290
     1
176
     1
290
     1
176
     1
290
     0
176
     1
290
     0
176
     1
290
     0
176
     1
290
     0
176
     1
290
     0
176
     1
290
     0
176
     1
 90
       50
176
     1
 40
0.0
176
     1
 40
1.0
176
     1
 90
        0
176
     1
 62
    18
420
        0
176
     1
 90
       50
176
     1
 90
        3
176
     1
 62
     5
420
      255
176
     1
290
     0
176
     1
 90
       50
176
     1
 90
       50
176
     1
 90
       50
176
     1
290
     0
176
     1
 90
       50
176
     1
 62
   256
176
     0
 40
1.0
176
     0
 90
        2
176
     1
  1
strokes_ogs.tif
176
     1
290
     0
176
     1
 40
1.0
176
     1
 40
1.0
176
     1
  0
VISUALSTYLE
  5
7D84
102
{ACAD_REACTORS
330
97
102
}
330
97
100
AcDbVisualStyle
  2
Shaded with edges
 70
    26
177
     3
291
     0
 70
    58
 90
        2
176
     1
 90
        2
176
     1
 90
        1
176
     1
 90
        2
176
     1
 40
0.6
176
     1
 40
30.0
176
     1
 62
     7
420
 16777215
176
     1
 90
        1
176
     1
 90
        2
176
     1
 62
     7
176
     1
 62
   257
176
     1
 90
        2
176
     1
 90
        1
176
     1
 40
1.0
176
     1
 90
        8
176
     1
 62
   257
176
     1
 40
1.0
176
     1
 90
        1
176
     1
 90
        6
176
     1
 90
        2
176
     1
 62
     7
176
     1
 90
        3
176
     1
 90
        0
176
     1
 90
        0
176
     1
290
     0
176
     1
 90
        5
176
     1
 40
0.0
176
     1
 90
        0
176
     1
290
     0
176
     1
290
     1
176
     1
290
     1
176
     1
290
     0
176
     1
290
     0
176
     1
290
     0
176
     1
290
     0
176
     1
290
     0
176
     1
290
     0
176
     1
 90
       50
176
     1
 40
0.0
176
     1
 40
1.0
176
     1
 90
        0
176
     1
 62
    18
420
        0
176
     1
 90
       50
176
     1
 90
        3
176
     1
 62
     5
420
      255
176
     1
290
     0
176
     1
 90
       50
176
     1
 90
       50
176
     1
 90
       50
176
     1
290
     0
176
     1
 90
       50
176
     1
 62
   256
176
     0
 40
1.0
176
     0
 90
        2
176
     1
  1
strokes_ogs.tif
176
     1
290
     0
176
     1
 40
1.0
176
     1
 40
1.0
176
     1
  0
VISUALSTYLE
  5
7D81
102
{ACAD_REACTORS
330
97
102
}
330
97
100
AcDbVisualStyle
  2
Shades of Gray
 70
    23
177
     3
291
     0
 70
    58
 90
        2
176
     1
 90
        2
176
     1
 90
        3
176
     1
 90
        0
176
     1
 40
0.6
176
     1
 40
30.0
176
     1
 62
     7
420
 16777215
176
     1
 90
        2
176
     1
 90
        2
176
     1
 62
     7
176
     1
 62
     7
176
     1
 90
        1
176
     1
 90
        1
176
     1
 40
40.0
176
     1
 90
        8
176
     1
 62
     7
176
     1
 40
1.0
176
     1
 90
        1
176
     1
 90
        6
176
     1
 90
        2
176
     1
 62
     7
176
     1
 90
        3
176
     1
 90
        0
176
     1
 90
        0
176
     1
290
     0
176
     1
 90
        1
176
     1
 40
0.0
176
     1
 90
        0
176
     1
290
     0
176
     1
290
     1
176
     1
290
     1
176
     1
290
     0
176
     1
290
     0
176
     1
290
     0
176
     1
290
     0
176
     1
290
     0
176
     1
290
     0
176
     1
 90
       50
176
     1
 40
0.0
176
     1
 40
1.0
176
     1
 90
        0
176
     1
 62
    18
420
        0
176
     1
 90
       50
176
     1
 90
        3
176
     1
 62
     5
420
      255
176
     1
290
     0
176
     1
 90
       50
176
     1
 90
       50
176
     1
 90
       50
176
     1
290
     0
176
     1
 90
       50
176
     1
 62
   256
176
     0
 40
1.0
176
     0
 90
        2
176
     1
  1
strokes_ogs.tif
176
     1
290
     0
176
     1
 40
1.0
176
     1
 40
1.0
176
     1
  0
VISUALSTYLE
  5
7D82
102
{ACAD_REACTORS
330
97
102
}
330
97
100
AcDbVisualStyle
  2
Sketchy
 70
    24
177
     3
291
     0
 70
    58
 90
        1
176
     1
 90
        2
176
     1
 90
        2
176
     1
 90
        0
176
     1
 40
0.6
176
     1
 40
30.0
176
     1
 62
     7
420
 16777215
176
     1
 90
        2
176
     1
 90
        2
176
     1
 62
     7
176
     1
 62
     7
176
     1
 90
        1
176
     1
 90
        1
176
     1
 40
40.0
176
     1
 90
       11
176
     1
 62
     7
176
     1
 40
1.0
176
     1
 90
        1
176
     1
 90
        6
176
     1
 90
        2
176
     1
 62
     7
176
     1
 90
        6
176
     1
 90
        0
176
     1
 90
        0
176
     1
290
     0
176
     1
 90
        1
176
     1
 40
0.0
176
     1
 90
        0
176
     1
290
     0
176
     1
290
     1
176
     1
290
     1
176
     1
290
     0
176
     1
290
     0
176
     1
290
     0
176
     1
290
     0
176
     1
290
     0
176
     1
290
     0
176
     1
 90
       50
176
     1
 40
0.0
176
     1
 40
1.0
176
     1
 90
        0
176
     1
 62
    18
420
        0
176
     1
 90
       50
176
     1
 90
        3
176
     1
 62
     5
420
      255
176
     1
290
     0
176
     1
 90
       50
176
     1
 90
       50
176
     1
 90
       50
176
     1
290
     0
176
     1
 90
       50
176
     1
 62
   256
176
     0
 40
1.0
176
     0
 90
        2
176
     1
  1
strokes_ogs.tif
176
     1
290
     0
176
     1
 40
1.0
176
     1
 40
1.0
176
     1
  0
VISUALSTYLE
  5
A4
102
{ACAD_REACTORS
330
97
102
}
330
97
100
AcDbVisualStyle
  2
Thicken
 70
    13
177
     3
291
     1
 70
    58
 90
        2
176
     1
 90
        2
176
     1
 90
        1
176
     1
 90
        0
176
     1
 40
0.6
176
     1
 40
30.0
176
     1
 62
     7
420
 16777215
176
     1
 90
        1
176
     1
 90
        4
176
     1
 62
     7
176
     1
 62
   257
176
     1
 90
        1
176
     1
 90
        1
176
     1
 40
1.0
176
     1
 90
       12
176
     1
 62
     7
176
     1
 40
1.0
176
     1
 90
        1
176
     1
 90
        6
176
     1
 90
        2
176
     1
 62
     7
176
     1
 90
        5
176
     1
 90
        0
176
     1
 90
        0
176
     1
290
     0
176
     1
 90
        1
176
     1
 40
0.0
176
     1
 90
        0
176
     1
290
     0
176
     1
290
     1
176
     1
290
     1
176
     1
290
     0
176
     1
290
     0
176
     1
290
     0
176
     1
290
     0
176
     1
290
     0
176
     1
290
     0
176
     1
 90
       50
176
     1
 40
0.0
176
     1
 40
1.0
176
     1
 90
        0
176
     1
 62
    18
420
        0
176
     1
 90
       50
176
     1
 90
        3
176
     1
 62
     5
420
      255
176
     1
290
     0
176
     1
 90
       50
176
     1
 90
       50
176
     1
 90
       50
176
     1
290
     0
176
     1
 90
       50
176
     1
 62
   256
176
     0
 40
1.0
176
     0
 90
        2
176
     1
  1
strokes_ogs.tif
176
     1
290
     0
176
     1
 40
1.0
176
     1
 40
1.0
176
     1
  0
VISUALSTYLE
  5
7D7F
102
{ACAD_REACTORS
330
97
102
}
330
97
100
AcDbVisualStyle
  2
Wireframe
 70
     5
177
     3
291
     0
 70
    58
 90
        0
176
     1
 90
        2
176
     1
 90
        0
176
     1
 90
        0
176
     1
 40
0.6
176
     1
 40
30.0
176
     1
 62
     7
420
 16777215
176
     1
 90
        1
176
     1
 90
        4
176
     1
 62
     7
176
     1
 62
   257
176
     1
 90
        1
176
     1
 90
        1
176
     1
 40
1.0
176
     1
 90
        0
176
     1
 62
   257
176
     1
 40
1.0
176
     1
 90
        1
176
     1
 90
        6
176
     1
 90
        2
176
     1
 62
     7
176
     1
 90
        3
176
     1
 90
        0
176
     1
 90
        0
176
     1
290
     0
176
     1
 90
        1
176
     1
 40
0.0
176
     1
 90
        0
176
     1
290
     0
176
     1
290
     1
176
     1
290
     1
176
     1
290
     0
176
     1
290
     0
176
     1
290
     0
176
     1
290
     0
176
     1
290
     0
176
     1
290
     0
176
     1
 90
       50
176
     1
 40
0.0
176
     1
 40
1.0
176
     1
 90
        0
176
     1
 62
    18
420
        0
176
     1
 90
       50
176
     1
 90
        3
176
     1
 62
     5
420
      255
176
     1
290
     0
176
     1
 90
       50
176
     1
 90
       50
176
     1
 90
       50
176
     1
290
     0
176
     1
 90
       50
176
     1
 62
   256
176
     0
 40
1.0
176
     0
 90
        2
176
     1
  1
strokes_ogs.tif
176
     1
290
     0
176
     1
 40
1.0
176
     1
 40
1.0
176
     1
  0
VISUALSTYLE
  5
7D83
102
{ACAD_REACTORS
330
97
102
}
330
97
100
AcDbVisualStyle
  2
X-Ray
 70
    25
177
     3
291
     0
 70
    58
 90
        2
176
     1
 90
        2
176
     1
 90
        1
176
     1
 90
        1
176
     1
 40
0.5
176
     1
 40
30.0
176
     1
 62
     7
420
 16777215
176
     1
 90
        1
176
     1
 90
        0
176
     1
 62
     7
176
     1
 62
   257
176
     1
 90
        1
176
     1
 90
        1
176
     1
 40
1.0
176
     1
 90
        8
176
     1
 62
     7
176
     1
 40
1.0
176
     1
 90
        1
176
     1
 90
        6
176
     1
 90
        2
176
     1
 62
     7
176
     1
 90
        3
176
     1
 90
        0
176
     1
 90
        0
176
     1
290
     0
176
     1
 90
       13
176
     1
 40
0.0
176
     1
 90
        0
176
     1
290
     0
176
     1
290
     1
176
     1
290
     1
176
     1
290
     0
176
     1
290
     0
176
     1
290
     0
176
     1
290
     0
176
     1
290
     0
176
     1
290
     0
176
     1
 90
       50
176
     1
 40
0.0
176
     1
 40
1.0
176
     1
 90
        0
176
     1
 62
    18
420
        0
176
     1
 90
       50
176
     1
 90
        3
176
     1
 62
     5
420
      255
176
     1
290
     0
176
     1
 90
       50
176
     1
 90
       50
176
     1
 90
       50
176
     1
290
     0
176
     1
 90
       50
176
     1
 62
   256
176
     0
 40
1.0
176
     0
 90
        2
176
     1
  1
strokes_ogs.tif
176
     1
290
     0
176
     1
 40
1.0
176
     1
 40
1.0
176
     1
  0
DICTIONARYVAR
  5
7DD1
102
{ACAD_REACTORS
330
66
102
}
330
66
100
DictionaryVariables
280
     0
  1
1:1
  0
DICTIONARYVAR
  5
7DCD
102
{ACAD_REACTORS
330
66
102
}
330
66
100
DictionaryVariables
280
     0
  1
STANDARD
  0
DICTIONARYVAR
  5
8B
102
{ACAD_REACTORS
330
66
102
}
330
66
100
DictionaryVariables
280
     0
  1
STANDARD
  0
DICTIONARYVAR
  5
7DCE
102
{ACAD_REACTORS
330
66
102
}
330
66
100
DictionaryVariables
280
     0
  1
Imperial24
  0
DICTIONARYVAR
  5
7DCF
102
{ACAD_REACTORS
330
66
102
}
330
66
100
DictionaryVariables
280
     0
  1
Imperial24
  0
DICTIONARYVAR
  5
67
102
{ACAD_REACTORS
330
66
102
}
330
66
100
DictionaryVariables
280
     0
  1
2
  0
DICTIONARYVAR
  5
6B
102
{ACAD_REACTORS
330
66
102
}
330
66
100
DictionaryVariables
280
     0
  1
1
  0
DICTIONARYVAR
  5
7DD3
102
{ACAD_REACTORS
330
66
102
}
330
66
100
DictionaryVariables
280
     0
  1
1
  0
DICTIONARYVAR
  5
7DD4
102
{ACAD_REACTORS
330
66
102
}
330
66
100
DictionaryVariables
280
     0
  1
15
  0
DICTIONARYVAR
  5
7DD2
102
{ACAD_REACTORS
330
66
102
}
330
66
100
DictionaryVariables
280
     0
  1
0
  0
DICTIONARYVAR
  5
7DD0
102
{ACAD_REACTORS
330
66
102
}
330
66
100
DictionaryVariables
280
     0
  1
0
  0
DICTIONARY
  5
7DD9
330
7DA0
100
AcDbDictionary
280
     1
281
     1
  3
ACAD_XREC_ROUNDTRIP
360
7DDA
  0
DICTIONARY
  5
7DD7
330
7D9E
100
AcDbDictionary
280
     1
281
     1
  3
ACAD_XREC_ROUNDTRIP
360
7DD8
  0
DICTIONARY
  5
7DD5
330
87
100
AcDbDictionary
280
     1
281
     1
  3
ACAD_ROUNDTRIP_2008_TABLESTYLE_CELLSTYLEMAP
360
7DD6
  0
XRECORD
  5
7DDA
102
{ACAD_REACTORS
330
7DD9
102
}
330
7DD9
100
AcDbXrecord
280
     1
102
DISPLAYNAME
  1
Imperial24
102
FLAGS
 90
        0
  0
XRECORD
  5
7DD8
102
{ACAD_REACTORS
330
7DD7
102
}
330
7DD7
100
AcDbXrecord
280
     1
102
DISPLAYNAME
  1
Imperial24
102
FLAGS
 90
        0
  0
CELLSTYLEMAP
  5
7DD6
102
{ACAD_REACTORS
330
7DD5
102
}
330
7DD5
100
AcDbCellStyleMap
 90
        3
300
CELLSTYLE
  1
TABLEFORMAT_BEGIN
 90
        5
170
     1
 91
        0
 92
    32768
 62
   257
 93
        1
300
CONTENTFORMAT
  1
CONTENTFORMAT_BEGIN
 90
        0
 91
        0
 92
      512
 93
        0
300

 40
0.0
140
1.0
 94
        5
 62
     0
340
11
144
0.25
309
CONTENTFORMAT_END
171
     0
 94
        6
 95
        1
302
GRIDFORMAT
  1
GRIDFORMAT_BEGIN
 90
        0
 91
        1
 62
     0
 92
       -2
340
0
 93
        0
 40
0.045
309
GRIDFORMAT_END
 95
        2
302
GRIDFORMAT
  1
GRIDFORMAT_BEGIN
 90
        0
 91
        1
 62
     0
 92
       -2
340
0
 93
        0
 40
0.045
309
GRIDFORMAT_END
 95
        4
302
GRIDFORMAT
  1
GRIDFORMAT_BEGIN
 90
        0
 91
        1
 62
     0
 92
       -2
340
0
 93
        0
 40
0.045
309
GRIDFORMAT_END
 95
        8
302
GRIDFORMAT
  1
GRIDFORMAT_BEGIN
 90
        0
 91
        1
 62
     0
 92
       -2
340
0
 93
        0
 40
0.045
309
GRIDFORMAT_END
 95
       16
302
GRIDFORMAT
  1
GRIDFORMAT_BEGIN
 90
        0
 91
        1
 62
     0
 92
       -2
340
0
 93
        0
 40
0.045
309
GRIDFORMAT_END
 95
       32
302
GRIDFORMAT
  1
GRIDFORMAT_BEGIN
 90
        0
 91
        1
 62
     0
 92
       -2
340
0
 93
        0
 40
0.045
309
GRIDFORMAT_END
309
TABLEFORMAT_END
  1
CELLSTYLE_BEGIN
 90
        1
 91
        1
300
_TITLE
309
CELLSTYLE_END
300
CELLSTYLE
  1
TABLEFORMAT_BEGIN
 90
        5
170
     1
 91
        0
 92
        0
 62
   257
 93
        1
300
CONTENTFORMAT
  1
CONTENTFORMAT_BEGIN
 90
        0
 91
        0
 92
      512
 93
        0
300

 40
0.0
140
1.0
 94
        5
 62
     0
340
11
144
0.18
309
CONTENTFORMAT_END
171
     0
 94
        6
 95
        1
302
GRIDFORMAT
  1
GRIDFORMAT_BEGIN
 90
        0
 91
        1
 62
     0
 92
       -2
340
0
 93
        0
 40
0.045
309
GRIDFORMAT_END
 95
        2
302
GRIDFORMAT
  1
GRIDFORMAT_BEGIN
 90
        0
 91
        1
 62
     0
 92
       -2
340
0
 93
        0
 40
0.045
309
GRIDFORMAT_END
 95
        4
302
GRIDFORMAT
  1
GRIDFORMAT_BEGIN
 90
        0
 91
        1
 62
     0
 92
       -2
340
0
 93
        0
 40
0.045
309
GRIDFORMAT_END
 95
        8
302
GRIDFORMAT
  1
GRIDFORMAT_BEGIN
 90
        0
 91
        1
 62
     0
 92
       -2
340
0
 93
        0
 40
0.045
309
GRIDFORMAT_END
 95
       16
302
GRIDFORMAT
  1
GRIDFORMAT_BEGIN
 90
        0
 91
        1
 62
     0
 92
       -2
340
0
 93
        0
 40
0.045
309
GRIDFORMAT_END
 95
       32
302
GRIDFORMAT
  1
GRIDFORMAT_BEGIN
 90
        0
 91
        1
 62
     0
 92
       -2
340
0
 93
        0
 40
0.045
309
GRIDFORMAT_END
309
TABLEFORMAT_END
  1
CELLSTYLE_BEGIN
 90
        2
 91
        1
300
_HEADER
309
CELLSTYLE_END
300
CELLSTYLE
  1
TABLEFORMAT_BEGIN
 90
        5
170
     1
 91
        0
 92
        0
 62
   257
 93
        1
300
CONTENTFORMAT
  1
CONTENTFORMAT_BEGIN
 90
        0
 91
        0
 92
      512
 93
        0
300

 40
0.0
140
1.0
 94
        2
 62
     0
340
11
144
0.18
309
CONTENTFORMAT_END
171
     0
 94
        6
 95
        1
302
GRIDFORMAT
  1
GRIDFORMAT_BEGIN
 90
        0
 91
        1
 62
     0
 92
       -2
340
0
 93
        0
 40
0.045
309
GRIDFORMAT_END
 95
        2
302
GRIDFORMAT
  1
GRIDFORMAT_BEGIN
 90
        0
 91
        1
 62
     0
 92
       -2
340
0
 93
        0
 40
0.045
309
GRIDFORMAT_END
 95
        4
302
GRIDFORMAT
  1
GRIDFORMAT_BEGIN
 90
        0
 91
        1
 62
     0
 92
       -2
340
0
 93
        0
 40
0.045
309
GRIDFORMAT_END
 95
        8
302
GRIDFORMAT
  1
GRIDFORMAT_BEGIN
 90
        0
 91
        1
 62
     0
 92
       -2
340
0
 93
        0
 40
0.045
309
GRIDFORMAT_END
 95
       16
302
GRIDFORMAT
  1
GRIDFORMAT_BEGIN
 90
        0
 91
        1
 62
     0
 92
       -2
340
0
 93
        0
 40
0.045
309
GRIDFORMAT_END
 95
       32
302
GRIDFORMAT
  1
GRIDFORMAT_BEGIN
 90
        0
 91
        1
 62
     0
 92
       -2
340
0
 93
        0
 40
0.045
309
GRIDFORMAT_END
309
TABLEFORMAT_END
  1
CELLSTYLE_BEGIN
 90
        3
 91
        2
300
_DATA
309
CELLSTYLE_END
  0
ENDSEC
  0
EOF
