  0
SECTION
  2
HEADER
  9
$ACADVER
  1
AC1032
  9
$ACADMAINTVER
 90
      174
  9
$DWGCODEPAGE
  3
ANSI_1252
  9
$LASTSAVEDBY
  1
pengb
  9
$REQUIREDVERSIONS
160
                 0
  9
$INSBASE
 10
0.0
 20
0.0
 30
0.0
  9
$EXTMIN
 10
-186.6018669151257
 20
-126.8558344171101
 30
-0.0015258207003583
  9
$EXTMAX
 10
542.162476706042
 20
537.7188272656858
 30
0.0000000349246037
  9
$LIMMIN
 10
0.0
 20
0.0
  9
$LIMMAX
 10
420.0
 20
297.0
  9
$ORTHOMODE
 70
     0
  9
$REGENMODE
 70
     1
  9
$FILLMODE
 70
     1
  9
$QTEXTMODE
 70
     0
  9
$MIRRTEXT
 70
     1
  9
$LTSCALE
 40
1.0
  9
$ATTMODE
 70
     1
  9
$TEXTSIZE
 40
3.5
  9
$TRACEWID
 40
1.0
  9
$TEXTSTYLE
  7
Standard
  9
$CLAYER
  8
0
  9
$CELTYPE
  6
ByLayer
  9
$CECOLOR
 62
   256
  9
$CELTSCALE
 40
1.0
  9
$DISPSILH
 70
     0
  9
$DIMSCALE
 40
1.0
  9
$DIMASZ
 40
3.302
  9
$DIMEXO
 40
1.0
  9
$DIMDLI
 40
3.75
  9
$DIMRND
 40
0.0
  9
$DIMDLE
 40
0.0
  9
$DIMEXE
 40
1.0
  9
$DIMTP
 40
0.0
  9
$DIMTM
 40
0.0
  9
$DIMTXT
 40
3.5
  9
$DIMCEN
 40
2.5
  9
$DIMTSZ
 40
0.0
  9
$DIMTOL
 70
     0
  9
$DIMLIM
 70
     0
  9
$DIMTIH
 70
     1
  9
$DIMTOH
 70
     1
  9
$DIMSE1
 70
     0
  9
$DIMSE2
 70
     0
  9
$DIMTAD
 70
     1
  9
$DIMZIN
 70
     1
  9
$DIMBLK
  1

  9
$DIMASO
 70
     1
  9
$DIMSHO
 70
     1
  9
$DIMPOST
  1

  9
$DIMAPOST
  1

  9
$DIMALT
 70
     0
  9
$DIMALTD
 70
     3
  9
$DIMALTF
 40
0.0393700787
  9
$DIMLFAC
 40
5.0
  9
$DIMTOFL
 70
     1
  9
$DIMTVP
 40
0.0
  9
$DIMTIX
 70
     0
  9
$DIMSOXD
 70
     0
  9
$DIMSAH
 70
     0
  9
$DIMBLK1
  1

  9
$DIMBLK2
  1

  9
$DIMSTYLE
  2
ISO-25
  9
$DIMCLRD
 70
     0
  9
$DIMCLRE
 70
     0
  9
$DIMCLRT
 70
     0
  9
$DIMTFAC
 40
1.0
  9
$DIMGAP
 40
1.524
  9
$DIMJUST
 70
     0
  9
$DIMSD1
 70
     0
  9
$DIMSD2
 70
     0
  9
$DIMTOLJ
 70
     0
  9
$DIMTZIN
 70
     1
  9
$DIMALTZ
 70
     0
  9
$DIMALTTZ
 70
     0
  9
$DIMUPT
 70
     0
  9
$DIMDEC
 70
     2
  9
$DIMTDEC
 70
     2
  9
$DIMALTU
 70
     2
  9
$DIMALTTD
 70
     3
  9
$DIMTXSTY
  7
Standard
  9
$DIMAUNIT
 70
     0
  9
$DIMADEC
 70
     2
  9
$DIMALTRND
 40
0.0
  9
$DIMAZIN
 70
     0
  9
$DIMDSEP
 70
    44
  9
$DIMATFIT
 70
     3
  9
$DIMFRAC
 70
     0
  9
$DIMLDRBLK
  1

  9
$DIMLUNIT
 70
     2
  9
$DIMLWD
 70
    -2
  9
$DIMLWE
 70
    -2
  9
$DIMTMOVE
 70
     0
  9
$DIMFXL
 40
1.0
  9
$DIMFXLON
 70
     0
  9
$DIMJOGANG
 40
0.7853981633974483
  9
$DIMTFILL
 70
     0
  9
$DIMTFILLCLR
 70
     0
  9
$DIMARCSYM
 70
     0
  9
$DIMLTYPE
  6

  9
$DIMLTEX1
  6

  9
$DIMLTEX2
  6

  9
$DIMTXTDIRECTION
 70
     0
  9
$LUNITS
 70
     2
  9
$LUPREC
 70
     2
  9
$SKETCHINC
 40
1.0
  9
$FILLETRAD
 40
10.0
  9
$AUNITS
 70
     0
  9
$AUPREC
 70
     2
  9
$MENU
  1
.
  9
$ELEVATION
 40
0.0
  9
$PELEVATION
 40
0.0
  9
$THICKNESS
 40
0.0
  9
$LIMCHECK
 70
     0
  9
$CHAMFERA
 40
0.0
  9
$CHAMFERB
 40
0.0
  9
$CHAMFERC
 40
0.0
  9
$CHAMFERD
 40
0.0
  9
$SKPOLY
 70
     0
  9
$TDCREATE
 40
2459999.701076389
  9
$TDUCREATE
 40
2459999.242748206
  9
$TDUPDATE
 40
2460005.633703704
  9
$TDUUPDATE
 40
2460005.175370371
  9
$TDINDWG
 40
0.0149305671
  9
$TDUSRTIMER
 40
0.0149305671
  9
$USRTIMER
 70
     1
  9
$ANGBASE
 50
0.0
  9
$ANGDIR
 70
     0
  9
$PDMODE
 70
     0
  9
$PDSIZE
 40
-1.0
  9
$PLINEWID
 40
0.0
  9
$SPLFRAME
 70
     0
  9
$SPLINETYPE
 70
     6
  9
$SPLINESEGS
 70
     8
  9
$HANDSEED
  5
2CC
  9
$SURFTAB1
 70
     6
  9
$SURFTAB2
 70
     6
  9
$SURFTYPE
 70
     6
  9
$SURFU
 70
     6
  9
$SURFV
 70
     6
  9
$UCSBASE
  2

  9
$UCSNAME
  2

  9
$UCSORG
 10
0.0
 20
0.0
 30
0.0
  9
$UCSXDIR
 10
1.0
 20
0.0
 30
0.0
  9
$UCSYDIR
 10
0.0
 20
1.0
 30
0.0
  9
$UCSORTHOREF
  2

  9
$UCSORTHOVIEW
 70
     0
  9
$UCSORGTOP
 10
0.0
 20
0.0
 30
0.0
  9
$UCSORGBOTTOM
 10
0.0
 20
0.0
 30
0.0
  9
$UCSORGLEFT
 10
0.0
 20
0.0
 30
0.0
  9
$UCSORGRIGHT
 10
0.0
 20
0.0
 30
0.0
  9
$UCSORGFRONT
 10
0.0
 20
0.0
 30
0.0
  9
$UCSORGBACK
 10
0.0
 20
0.0
 30
0.0
  9
$PUCSBASE
  2

  9
$PUCSNAME
  2

  9
$PUCSORG
 10
0.0
 20
0.0
 30
0.0
  9
$PUCSXDIR
 10
1.0
 20
0.0
 30
0.0
  9
$PUCSYDIR
 10
0.0
 20
1.0
 30
0.0
  9
$PUCSORTHOREF
  2

  9
$PUCSORTHOVIEW
 70
     0
  9
$PUCSORGTOP
 10
0.0
 20
0.0
 30
0.0
  9
$PUCSORGBOTTOM
 10
0.0
 20
0.0
 30
0.0
  9
$PUCSORGLEFT
 10
0.0
 20
0.0
 30
0.0
  9
$PUCSORGRIGHT
 10
0.0
 20
0.0
 30
0.0
  9
$PUCSORGFRONT
 10
0.0
 20
0.0
 30
0.0
  9
$PUCSORGBACK
 10
0.0
 20
0.0
 30
0.0
  9
$USERI1
 70
     0
  9
$USERI2
 70
     0
  9
$USERI3
 70
     0
  9
$USERI4
 70
     0
  9
$USERI5
 70
     0
  9
$USERR1
 40
0.0
  9
$USERR2
 40
0.0
  9
$USERR3
 40
0.0
  9
$USERR4
 40
0.0
  9
$USERR5
 40
0.0
  9
$WORLDVIEW
 70
     1
  9
$SHADEDGE
 70
     3
  9
$SHADEDIF
 70
    70
  9
$TILEMODE
 70
     1
  9
$MAXACTVP
 70
    64
  9
$PINSBASE
 10
0.0
 20
0.0
 30
0.0
  9
$PLIMCHECK
 70
     0
  9
$PEXTMIN
 10
1.000000000000000E+20
 20
1.000000000000000E+20
 30
1.000000000000000E+20
  9
$PEXTMAX
 10
-1.000000000000000E+20
 20
-1.000000000000000E+20
 30
-1.000000000000000E+20
  9
$PLIMMIN
 10
0.0
 20
0.0
  9
$PLIMMAX
 10
420.0
 20
297.0
  9
$UNITMODE
 70
     0
  9
$VISRETAIN
 70
     1
  9
$PLINEGEN
 70
     0
  9
$PSLTSCALE
 70
     1
  9
$TREEDEPTH
 70
  3020
  9
$CMLSTYLE
  2
Standard
  9
$CMLJUST
 70
     0
  9
$CMLSCALE
 40
20.0
  9
$PROXYGRAPHICS
 70
     1
  9
$MEASUREMENT
 70
     1
  9
$CELWEIGHT
370
    -1
  9
$ENDCAPS
280
     0
  9
$JOINSTYLE
280
     0
  9
$LWDISPLAY
290
     1
  9
$INSUNITS
 70
     4
  9
$HYPERLINKBASE
  1

  9
$STYLESHEET
  1

  9
$XEDIT
290
     1
  9
$CEPSNTYPE
380
     0
  9
$PSTYLEMODE
290
     1
  9
$FINGERPRINTGUID
  2
{8663CA26-BECC-4890-AA14-D34B0E3D226B}
  9
$VERSIONGUID
  2
{2E16DEE3-B4A4-1E4A-B44A-0FE37E9CAD96}
  9
$EXTNAMES
290
     1
  9
$PSVPSCALE
 40
0.0
  9
$OLESTARTUP
290
     0
  9
$SORTENTS
280
   127
  9
$INDEXCTL
280
     0
  9
$HIDETEXT
280
     0
  9
$XCLIPFRAME
280
     2
  9
$HALOGAP
280
     0
  9
$OBSCOLOR
 70
   257
  9
$OBSLTYPE
280
     0
  9
$INTERSECTIONDISPLAY
280
     0
  9
$INTERSECTIONCOLOR
 70
   257
  9
$DIMASSOC
280
     1
  9
$PROJECTNAME
  1

  9
$CAMERADISPLAY
290
     0
  9
$LENSLENGTH
 40
50.0
  9
$CAMERAHEIGHT
 40
0.0
  9
$STEPSPERSEC
 40
2.0
  9
$STEPSIZE
 40
6.0
  9
$3DDWFPREC
 40
2.0
  9
$PSOLWIDTH
 40
0.25
  9
$PSOLHEIGHT
 40
4.0
  9
$LOFTANG1
 40
1.570796326794896
  9
$LOFTANG2
 40
1.570796326794896
  9
$LOFTMAG1
 40
0.0
  9
$LOFTMAG2
 40
0.0
  9
$LOFTPARAM
 70
     7
  9
$LOFTNORMALS
280
     1
  9
$LATITUDE
 40
37.795
  9
$LONGITUDE
 40
-122.394
  9
$NORTHDIRECTION
 40
0.0
  9
$TIMEZONE
 70
 -8000
  9
$LIGHTGLYPHDISPLAY
280
     1
  9
$TILEMODELIGHTSYNCH
280
     1
  9
$CMATERIAL
347
18A
  9
$SOLIDHIST
280
     0
  9
$SHOWHIST
280
     1
  9
$DWFFRAME
280
     2
  9
$DGNFRAME
280
     0
  9
$REALWORLDSCALE
290
     1
  9
$INTERFERECOLOR
 62
     1
  9
$INTERFEREOBJVS
345
1AC
  9
$INTERFEREVPVS
346
1A9
  9
$CSHADOW
280
     0
  9
$SHADOWPLANELOCATION
 40
0.0
  0
ENDSEC
  0
SECTION
  2
CLASSES
  0
CLASS
  1
ACDBDICTIONARYWDFLT
  2
AcDbDictionaryWithDefault
  3
ObjectDBX Classes
 90
        0
 91
        1
280
     0
281
     0
  0
CLASS
  1
VISUALSTYLE
  2
AcDbVisualStyle
  3
ObjectDBX Classes
 90
     4095
 91
       24
280
     0
281
     0
  0
CLASS
  1
MATERIAL
  2
AcDbMaterial
  3
ObjectDBX Classes
 90
     1153
 91
        3
280
     0
281
     0
  0
CLASS
  1
SCALE
  2
AcDbScale
  3
ObjectDBX Classes
 90
     1153
 91
       33
280
     0
281
     0
  0
CLASS
  1
TABLESTYLE
  2
AcDbTableStyle
  3
ObjectDBX Classes
 90
     4095
 91
        1
280
     0
281
     0
  0
CLASS
  1
MLEADERSTYLE
  2
AcDbMLeaderStyle
  3
ACDB_MLEADERSTYLE_CLASS
 90
     4095
 91
        1
280
     0
281
     0
  0
CLASS
  1
SUN
  2
AcDbSun
  3
SCENEOE
 90
     1153
 91
        0
280
     0
281
     0
  0
CLASS
  1
ACDBSECTIONVIEWSTYLE
  2
AcDbSectionViewStyle
  3
ObjectDBX Classes
 90
     1025
 91
        1
280
     0
281
     0
  0
CLASS
  1
ACDBDETAILVIEWSTYLE
  2
AcDbDetailViewStyle
  3
ObjectDBX Classes
 90
     1025
 91
        1
280
     0
281
     0
  0
CLASS
  1
ACDB_ALDIMOBJECTCONTEXTDATA_CLASS
  2
AcDbAlignedDimensionObjectContextData
  3
ObjectDBX Classes
 90
     1153
 91
       12
280
     0
281
     0
  0
CLASS
  1
DICTIONARYVAR
  2
AcDbDictionaryVar
  3
ObjectDBX Classes
 90
        0
 91
        9
280
     0
281
     0
  0
CLASS
  1
CELLSTYLEMAP
  2
AcDbCellStyleMap
  3
ObjectDBX Classes
 90
     1152
 91
        1
280
     0
281
     0
  0
ENDSEC
  0
SECTION
  2
TABLES
  0
TABLE
  2
VPORT
  5
8
330
0
100
AcDbSymbolTable
 70
     1
  0
VPORT
  5
29
330
8
100
AcDbSymbolTableRecord
100
AcDbViewportTableRecord
  2
*Active
 70
     0
 10
0.0
 20
0.0
 11
1.0
 21
1.0
 12
177.7803048954582
 22
205.4314964242879
 13
0.0
 23
0.0
 14
10.0
 24
10.0
 15
10.0
 25
10.0
 16
0.0
 26
0.0
 36
1.0
 17
0.0
 27
0.0
 37
0.0
 40
667.0559609796826
 41
1.910336239103362
 42
50.0
 43
0.0
 44
0.0
 50
0.0
 51
0.0
 71
     0
 72
  2000
 73
     1
 74
     3
 75
     0
 76
     0
 77
     0
 78
     0
281
     0
 65
     1
110
0.0
120
0.0
130
0.0
111
1.0
121
0.0
131
0.0
112
0.0
122
1.0
132
0.0
 79
     0
146
0.0
348
1A8
 60
     3
 61
     5
292
     1
282
     1
141
0.0
142
0.0
 63
   250
421
  3355443
1001
ACAD_NAV_VCDISPLAY
1070
     3
  0
ENDTAB
  0
TABLE
  2
LTYPE
  5
5
330
0
100
AcDbSymbolTable
 70
     6
  0
LTYPE
  5
14
330
5
100
AcDbSymbolTableRecord
100
AcDbLinetypeTableRecord
  2
ByBlock
 70
     0
  3

 72
    65
 73
     0
 40
0.0
  0
LTYPE
  5
15
330
5
100
AcDbSymbolTableRecord
100
AcDbLinetypeTableRecord
  2
ByLayer
 70
     0
  3

 72
    65
 73
     0
 40
0.0
  0
LTYPE
  5
16
330
5
100
AcDbSymbolTableRecord
100
AcDbLinetypeTableRecord
  2
Continuous
 70
     0
  3
Solid line
 72
    65
 73
     0
 40
0.0
  0
LTYPE
  5
6E
330
5
100
AcDbSymbolTableRecord
100
AcDbLinetypeTableRecord
  2
HIDDEN
 70
     0
  3
Hidden __ __ __ __ __ __ __ __ __ __ __ __ __ __
 72
    65
 73
     2
 40
1.905
 49
1.27
 74
     0
 49
-0.635
 74
     0
  0
LTYPE
  5
6F
330
5
100
AcDbSymbolTableRecord
100
AcDbLinetypeTableRecord
  2
PHANTOM
 70
     0
  3
Phantom ______  __  __  ______  __  __  ______
 72
    65
 73
     6
 40
12.7
 49
6.349999999999999
 74
     0
 49
-1.27
 74
     0
 49
1.27
 74
     0
 49
-1.27
 74
     0
 49
1.27
 74
     0
 49
-1.27
 74
     0
  0
LTYPE
  5
70
330
5
100
AcDbSymbolTableRecord
100
AcDbLinetypeTableRecord
  2
CENTER
 70
     0
  3
Center ____ _ ____ _ ____ _ ____ _ ____ _ ____
 72
    65
 73
     4
 40
10.16
 49
6.349999999999999
 74
     0
 49
-1.27
 74
     0
 49
1.27
 74
     0
 49
-1.27
 74
     0
  0
LTYPE
  5
71
330
5
100
AcDbSymbolTableRecord
100
AcDbLinetypeTableRecord
  2
CENTERX2
 70
     0
  3
Center (2x) ________  __  ________  __  _____
 72
    65
 73
     4
 40
20.32
 49
12.7
 74
     0
 49
-2.54
 74
     0
 49
2.54
 74
     0
 49
-2.54
 74
     0
  0
LTYPE
  5
72
330
5
100
AcDbSymbolTableRecord
100
AcDbLinetypeTableRecord
  2
DOT2
 70
     0
  3
Dot (.5x) ........................................
 72
    65
 73
     2
 40
0.635
 49
0.0
 74
     0
 49
-0.635
 74
     0
  0
ENDTAB
  0
TABLE
  2
LAYER
  5
2
102
{ACAD_XDICTIONARY
360
1DA
102
}
330
0
100
AcDbSymbolTable
 70
     4
  0
LAYER
  5
10
102
{ACAD_XDICTIONARY
360
2C3
102
}
330
2
100
AcDbSymbolTableRecord
100
AcDbLayerTableRecord
  2
0
 70
     0
 62
     7
  6
Continuous
370
    -3
390
F
347
19A
348
0
  0
LAYER
  5
73
102
{ACAD_XDICTIONARY
360
2C5
102
}
330
2
100
AcDbSymbolTableRecord
100
AcDbLayerTableRecord
  2
FORMAT
 70
     0
 62
     7
  6
Continuous
370
    -3
390
F
347
19A
348
0
  0
LAYER
  5
1D1
330
2
100
AcDbSymbolTableRecord
100
AcDbLayerTableRecord
  2
Defpoints
 70
     0
 62
     7
  6
Continuous
290
     0
370
    -3
390
F
347
19A
348
0
  0
LAYER
  5
1D2
102
{ACAD_XDICTIONARY
360
2C7
102
}
330
2
100
AcDbSymbolTableRecord
100
AcDbLayerTableRecord
  2
DIMENSION
 70
     0
 62
   255
  6
Continuous
370
    -3
390
F
347
19A
348
0
  0
ENDTAB
  0
TABLE
  2
STYLE
  5
3
330
0
100
AcDbSymbolTable
 70
     2
  0
STYLE
  5
11
330
3
100
AcDbSymbolTableRecord
100
AcDbTextStyleTableRecord
  2
Standard
 70
     0
 40
0.0
 41
1.0
 50
0.0
 71
     0
 42
3.5
  3
txt
  4

  0
STYLE
  5
9A
330
3
100
AcDbSymbolTableRecord
100
AcDbTextStyleTableRecord
  2
SLDTEXTSTYLE0
 70
     0
 40
0.0
 41
0.75
 50
0.0
 71
     0
 42
3.5
  3
TXT
  4

  0
ENDTAB
  0
TABLE
  2
VIEW
  5
6
330
0
100
AcDbSymbolTable
 70
     0
  0
ENDTAB
  0
TABLE
  2
UCS
  5
7
330
0
100
AcDbSymbolTable
 70
     0
  0
ENDTAB
  0
TABLE
  2
APPID
  5
9
330
0
100
AcDbSymbolTable
 70
     8
  0
APPID
  5
12
330
9
100
AcDbSymbolTableRecord
100
AcDbRegAppTableRecord
  2
ACAD
 70
     0
  0
APPID
  5
1D4
330
9
100
AcDbSymbolTableRecord
100
AcDbRegAppTableRecord
  2
ACAD_PSEXT
 70
     0
  0
APPID
  5
1D5
330
9
100
AcDbSymbolTableRecord
100
AcDbRegAppTableRecord
  2
AcadAnnotative
 70
     0
  0
APPID
  5
1D6
330
9
100
AcDbSymbolTableRecord
100
AcDbRegAppTableRecord
  2
ACAD_DSTYLE_DIMJAG
 70
     0
  0
APPID
  5
1D7
330
9
100
AcDbSymbolTableRecord
100
AcDbRegAppTableRecord
  2
ACAD_DSTYLE_DIMTALN
 70
     0
  0
APPID
  5
1D8
330
9
100
AcDbSymbolTableRecord
100
AcDbRegAppTableRecord
  2
ACAD_NAV_VCDISPLAY
 70
     0
  0
APPID
  5
1D9
330
9
100
AcDbSymbolTableRecord
100
AcDbRegAppTableRecord
  2
ACAD_DSTYLE_DIMBREAK
 70
     0
  0
APPID
  5
29A
330
9
100
AcDbSymbolTableRecord
100
AcDbRegAppTableRecord
  2
ACAD_DSTYLE_DIMRADIAL_EXTENSION
 70
     0
  0
ENDTAB
  0
TABLE
  2
DIMSTYLE
  5
A
330
0
100
AcDbSymbolTable
 70
     3
100
AcDbDimStyleTable
 71
     2
340
1D3
340
27
  0
DIMSTYLE
105
27
330
A
100
AcDbSymbolTableRecord
100
AcDbDimStyleTableRecord
  2
ISO-25
 70
     0
 41
2.5
 42
0.625
 43
3.75
 44
1.25
 73
     0
 74
     0
 77
     1
 78
     8
140
2.5
141
2.5
143
0.0393700787
147
0.625
171
     3
172
     1
271
     2
272
     2
274
     3
278
    44
283
     0
284
     8
340
11
  0
DIMSTYLE
105
9B
330
A
100
AcDbSymbolTableRecord
100
AcDbDimStyleTableRecord
  2
SLDDIMSTYLE0
 70
     0
 41
3.302
 44
0.0
 45
0.000000001
 73
     0
 74
     0
 77
     1
 78
     4
 79
     1
140
5.2916666667
147
1.3229166667
173
     1
271
     2
272
     2
276
     2
284
    12
340
9A
341
9C
343
9C
344
9C
  0
DIMSTYLE
105
1D3
102
{ACAD_REACTORS
330
1DD
330
AE
330
A6
330
99
330
FE
330
F5
330
107
330
17C
330
263
330
29B
102
}
330
A
100
AcDbSymbolTableRecord
100
AcDbDimStyleTableRecord
  2
RG Dimension Lines
 70
     0
 40
12.0
 41
3.5
 42
1.0
 43
10.0
 44
5.0
 49
5.0
 77
     2
140
8.0
141
0.0
147
4.0
172
     1
176
   256
177
   256
178
     7
271
     0
272
     0
290
     1
340
11
341
9C
342
9C
371
     0
372
     0
1001
ACAD_DSTYLE_DIMBREAK
1070
   391
1040
0.125
1001
AcadAnnotative
1000
AnnotativeData
1002
{
1070
     1
1070
     1
1002
}
1001
ACAD_DSTYLE_DIMJAG
1070
   388
1040
1.5
1001
ACAD_DSTYLE_DIMTALN
1070
   392
1070
     0
  0
ENDTAB
  0
TABLE
  2
BLOCK_RECORD
  5
1
330
0
100
AcDbSymbolTable
 70
    25
  0
BLOCK_RECORD
  5
1F
330
1
100
AcDbSymbolTableRecord
100
AcDbBlockTableRecord
  2
*Model_Space
340
22
 70
     0
280
     1
281
     0
  0
BLOCK_RECORD
  5
1B
330
1
100
AcDbSymbolTableRecord
100
AcDbBlockTableRecord
  2
*Paper_Space
340
1E
 70
     0
280
     1
281
     0
  0
BLOCK_RECORD
  5
23
330
1
100
AcDbSymbolTableRecord
100
AcDbBlockTableRecord
  2
*Paper_Space0
340
26
 70
     0
280
     1
281
     0
  0
BLOCK_RECORD
  5
9C
330
1
100
AcDbSymbolTableRecord
100
AcDbBlockTableRecord
  2
_None
340
0
 70
     0
280
     1
281
     0
  0
BLOCK_RECORD
  5
9F
330
1
100
AcDbSymbolTableRecord
100
AcDbBlockTableRecord
  2
_D
340
0
 70
     0
280
     1
281
     0
  0
BLOCK_RECORD
  5
A7
330
1
100
AcDbSymbolTableRecord
100
AcDbBlockTableRecord
  2
_D_1
340
0
 70
     0
280
     1
281
     0
  0
BLOCK_RECORD
  5
AF
330
1
100
AcDbSymbolTableRecord
100
AcDbBlockTableRecord
  2
_D_2
340
0
 70
     0
280
     1
281
     0
  0
BLOCK_RECORD
  5
F6
330
1
100
AcDbSymbolTableRecord
100
AcDbBlockTableRecord
  2
_D_3
340
0
 70
     0
280
     1
281
     0
  0
BLOCK_RECORD
  5
FF
330
1
100
AcDbSymbolTableRecord
100
AcDbBlockTableRecord
  2
_D_4
340
0
 70
     0
280
     1
281
     0
  0
BLOCK_RECORD
  5
108
330
1
100
AcDbSymbolTableRecord
100
AcDbBlockTableRecord
  2
_D_5
340
0
 70
     0
280
     1
281
     0
  0
BLOCK_RECORD
  5
17D
330
1
100
AcDbSymbolTableRecord
100
AcDbBlockTableRecord
  2
_D_6
340
0
 70
     0
280
     1
281
     0
  0
BLOCK_RECORD
  5
1C7
330
1
100
AcDbSymbolTableRecord
100
AcDbBlockTableRecord
  2
*D9
340
0
 70
     0
280
     1
281
     0
  0
BLOCK_RECORD
  5
1EB
330
1
100
AcDbSymbolTableRecord
100
AcDbBlockTableRecord
  2
*D11
340
0
 70
     0
280
     1
281
     0
  0
BLOCK_RECORD
  5
1FF
330
1
100
AcDbSymbolTableRecord
100
AcDbBlockTableRecord
  2
*D12
340
0
 70
     0
280
     1
281
     0
  0
BLOCK_RECORD
  5
20D
330
1
100
AcDbSymbolTableRecord
100
AcDbBlockTableRecord
  2
*D13
340
0
 70
     0
280
     1
281
     0
  0
BLOCK_RECORD
  5
21B
330
1
100
AcDbSymbolTableRecord
100
AcDbBlockTableRecord
  2
*D14
340
0
 70
     0
280
     1
281
     0
  0
BLOCK_RECORD
  5
229
330
1
100
AcDbSymbolTableRecord
100
AcDbBlockTableRecord
  2
*D15
340
0
 70
     0
280
     1
281
     0
  0
BLOCK_RECORD
  5
237
330
1
100
AcDbSymbolTableRecord
100
AcDbBlockTableRecord
  2
*D16
340
0
 70
     0
280
     1
281
     0
  0
BLOCK_RECORD
  5
245
330
1
100
AcDbSymbolTableRecord
100
AcDbBlockTableRecord
  2
*D17
340
0
 70
     0
280
     1
281
     0
  0
BLOCK_RECORD
  5
253
330
1
100
AcDbSymbolTableRecord
100
AcDbBlockTableRecord
  2
*D18
340
0
 70
     0
280
     1
281
     0
  0
BLOCK_RECORD
  5
264
330
1
100
AcDbSymbolTableRecord
100
AcDbBlockTableRecord
  2
*D19
340
0
 70
     0
280
     1
281
     0
  0
BLOCK_RECORD
  5
270
330
1
100
AcDbSymbolTableRecord
100
AcDbBlockTableRecord
  2
*D20
340
0
 70
     0
280
     1
281
     0
  0
BLOCK_RECORD
  5
27F
330
1
100
AcDbSymbolTableRecord
100
AcDbBlockTableRecord
  2
*D21
340
0
 70
     0
280
     1
281
     0
  0
BLOCK_RECORD
  5
28C
330
1
100
AcDbSymbolTableRecord
100
AcDbBlockTableRecord
  2
*D22
340
0
 70
     0
280
     1
281
     0
  0
BLOCK_RECORD
  5
29C
330
1
100
AcDbSymbolTableRecord
100
AcDbBlockTableRecord
  2
*D23
340
0
 70
     0
280
     1
281
     0
  0
BLOCK_RECORD
  5
2AA
330
1
100
AcDbSymbolTableRecord
100
AcDbBlockTableRecord
  2
*D24
340
0
 70
     0
280
     1
281
     0
  0
ENDTAB
  0
ENDSEC
  0
SECTION
  2
BLOCKS
  0
BLOCK
  5
20
330
1F
100
AcDbEntity
  8
0
100
AcDbBlockBegin
  2
*Model_Space
 70
     0
 10
0.0
 20
0.0
 30
0.0
  3
*Model_Space
  1

  0
ENDBLK
  5
21
330
1F
100
AcDbEntity
  8
0
100
AcDbBlockEnd
  0
BLOCK
  5
1C
330
1B
100
AcDbEntity
 67
     1
  8
0
100
AcDbBlockBegin
  2
*Paper_Space
 70
     0
 10
0.0
 20
0.0
 30
0.0
  3
*Paper_Space
  1

  0
ENDBLK
  5
1D
330
1B
100
AcDbEntity
 67
     1
  8
0
100
AcDbBlockEnd
  0
BLOCK
  5
24
330
23
100
AcDbEntity
 67
     1
  8
0
100
AcDbBlockBegin
  2
*Paper_Space0
 70
     0
 10
0.0
 20
0.0
 30
0.0
  3
*Paper_Space0
  1

  0
ENDBLK
  5
25
330
23
100
AcDbEntity
 67
     1
  8
0
100
AcDbBlockEnd
  0
BLOCK
  5
9D
330
9C
100
AcDbEntity
  8
0
100
AcDbBlockBegin
  2
_None
 70
     0
 10
0.0
 20
0.0
 30
0.0
  3
_None
  1

  0
ENDBLK
  5
9E
330
9C
100
AcDbEntity
  8
0
100
AcDbBlockEnd
  0
BLOCK
  5
A0
330
9F
100
AcDbEntity
  8
0
100
AcDbBlockBegin
  2
_D
 70
     0
 10
0.0
 20
0.0
 30
0.0
  3
_D
  1

  0
LINE
  5
A2
330
9F
100
AcDbEntity
  8
0
  6
Continuous
 62
     7
440
 16777216
370
     0
100
AcDbLine
 10
-71.8914851534
 20
94.5453195598
 30
0.0
 11
-166.2444535359
 21
94.5453195598
 31
0.0
  0
LINE
  5
A3
330
9F
100
AcDbEntity
  8
0
  6
Continuous
 62
     7
440
 16777216
370
     0
100
AcDbLine
 10
-146.9869088264
 20
-85.45468044020001
 30
0.0
 11
-166.2444535359
 21
-85.45468044020001
 31
0.0
  0
LINE
  5
A4
330
9F
100
AcDbEntity
  8
0
  6
Continuous
 62
     7
440
 16777216
370
     0
100
AcDbLine
 10
-165.2444535359
 20
94.5453195598
 30
0.0
 11
-165.2444535359
 21
-85.45468044020001
 31
0.0
  0
MTEXT
  5
A5
330
9F
100
AcDbEntity
  8
0
  6
Continuous
 62
     7
440
 16777216
370
    18
100
AcDbMText
 10
-172.0657702091999
 20
1.0807665113
 30
0.0
 40
5.2916666667
 41
0.0
 46
0.0
 71
     1
 72
     1
  1
180.00
  7
SLDTEXTSTYLE0
 11
-0.000000000000007
 21
1.0
 31
0.0
 73
     1
 44
1.0
  0
ENDBLK
  5
A1
330
9F
100
AcDbEntity
  8
0
100
AcDbBlockEnd
  0
BLOCK
  5
A8
330
A7
100
AcDbEntity
  8
0
100
AcDbBlockBegin
  2
_D_1
 70
     0
 10
0.0
 20
0.0
 30
0.0
  3
_D_1
  1

  0
LINE
  5
AA
330
A7
100
AcDbEntity
  8
0
  6
Continuous
 62
     7
440
 16777216
370
     0
100
AcDbLine
 10
-110.2444572487
 20
-90.7471514294
 30
0.0
 11
-110.2444572487
 21
-108.4546804402
 31
0.0
  0
LINE
  5
AB
330
A7
100
AcDbEntity
  8
0
  6
Continuous
 62
     7
440
 16777216
370
     0
100
AcDbLine
 10
19.5555427513
 20
-7.4845281199
 30
0.0
 11
19.5555427513
 21
-108.4546804402
 31
0.0
  0
LINE
  5
AC
330
A7
100
AcDbEntity
  8
0
  6
Continuous
 62
     7
440
 16777216
370
     0
100
AcDbLine
 10
-110.2444572487
 20
-107.4546804402
 30
0.0
 11
19.5555427513
 21
-107.4546804402
 31
0.0
  0
MTEXT
  5
AD
330
A7
100
AcDbEntity
  8
0
  6
Continuous
 62
     7
440
 16777216
370
    18
100
AcDbMText
 10
-59.0946453676
 20
-100.633363767
 30
0.0
 40
5.2916666667
 41
0.0
 46
0.0
 71
     1
 72
     1
  1
130.00
  7
SLDTEXTSTYLE0
 73
     1
 44
1.0
  0
ENDBLK
  5
A9
330
A7
100
AcDbEntity
  8
0
100
AcDbBlockEnd
  0
BLOCK
  5
B0
330
AF
100
AcDbEntity
  8
0
100
AcDbBlockBegin
  2
_D_2
 70
     0
 10
0.0
 20
0.0
 30
0.0
  3
_D_2
  1

  0
LINE
  5
B2
330
AF
100
AcDbEntity
  8
0
  6
Continuous
 62
     7
440
 16777216
370
     0
100
AcDbLine
 10
-72.6374698591
 20
-85.45468044020001
 30
0.0
 11
58.55072054229999
 21
-85.45468044020001
 31
0.0
  0
LINE
  5
B3
330
AF
100
AcDbEntity
  8
0
  6
Continuous
 62
     7
440
 16777216
370
     0
100
AcDbLine
 10
38.7623584262
 20
-0.4546804402000001
 30
0.0
 11
58.55072054229999
 21
-0.4546804402000001
 31
0.0
  0
LINE
  5
B4
330
AF
100
AcDbEntity
  8
0
  6
Continuous
 62
     7
440
 16777216
370
     0
100
AcDbLine
 10
57.5507205423
 20
-85.45468044020001
 30
0.0
 11
57.5507205423
 21
-0.4546804402000001
 31
0.0
  0
MTEXT
  5
B5
330
AF
100
AcDbEntity
  8
0
  6
Continuous
 62
     7
440
 16777216
370
    18
100
AcDbMText
 10
50.7294038691
 20
-53.7153446329
 30
0.0
 40
5.2916666667
 41
0.0
 46
0.0
 71
     1
 72
     1
  1
85.00
  7
SLDTEXTSTYLE0
 11
0.0000000000000001
 21
1.0
 31
0.0
 73
     1
 44
1.0
  0
ENDBLK
  5
B1
330
AF
100
AcDbEntity
  8
0
100
AcDbBlockEnd
  0
BLOCK
  5
F7
330
F6
100
AcDbEntity
  8
0
100
AcDbBlockBegin
  2
_D_3
 70
     0
 10
0.0
 20
0.0
 30
0.0
  3
_D_3
  1

  0
LINE
  5
F9
330
F6
100
AcDbEntity
  8
0
  6
Continuous
 62
     7
440
 16777216
370
     0
100
AcDbLine
 10
268.9110441774
 20
-92.31175740399999
 30
0.0
 11
268.9110441774
 21
-115.8344782342
 31
0.0
  0
LINE
  5
FA
330
F6
100
AcDbEntity
  8
0
  6
Continuous
 62
     7
440
 16777216
370
     0
100
AcDbLine
 10
214.9110441774
 20
-90.7213232884
 30
0.0
 11
214.9110441774
 21
-115.8344782342
 31
0.0
  0
LINE
  5
FB
330
F6
100
AcDbEntity
  8
0
  6
Continuous
 62
     7
440
 16777216
370
     0
100
AcDbLine
 10
268.9110441774
 20
-114.8344782342
 30
0.0
 11
214.9110441774
 21
-114.8344782342
 31
0.0
  0
MTEXT
  5
FC
330
F6
100
AcDbEntity
  8
0
  6
Continuous
 62
     7
440
 16777216
370
    18
100
AcDbMText
 10
228.4819046587
 20
-108.013161561
 30
0.0
 40
5.2916666667
 41
0.0
 46
0.0
 71
     1
 72
     1
  1
%%c
  7
SLDTEXTSTYLE0
 73
     1
 44
1.0
  0
MTEXT
  5
FD
330
F6
100
AcDbEntity
  8
0
  6
Continuous
 62
     7
440
 16777216
370
    18
100
AcDbMText
 10
236.469381544
 20
-108.013161561
 30
0.0
 40
5.2916666667
 41
0.0
 46
0.0
 71
     1
 72
     1
  1
54.00
  7
SLDTEXTSTYLE0
 73
     1
 44
1.0
  0
ENDBLK
  5
F8
330
F6
100
AcDbEntity
  8
0
100
AcDbBlockEnd
  0
BLOCK
  5
100
330
FF
100
AcDbEntity
  8
0
100
AcDbBlockBegin
  2
_D_4
 70
     0
 10
0.0
 20
0.0
 30
0.0
  3
_D_4
  1

  0
LINE
  5
102
330
FF
100
AcDbEntity
  8
0
  6
Continuous
 62
     7
440
 16777216
370
     0
100
AcDbLine
 10
389.1202323621
 20
-91.4442478864
 30
0.0
 11
389.1202323621
 21
-113.5697419587
 31
0.0
  0
LINE
  5
103
330
FF
100
AcDbEntity
  8
0
  6
Continuous
 62
     7
440
 16777216
370
     0
100
AcDbLine
 10
335.1202323621
 20
-91.58883280599999
 30
0.0
 11
335.1202323621
 21
-113.5697419587
 31
0.0
  0
LINE
  5
104
330
FF
100
AcDbEntity
  8
0
  6
Continuous
 62
     7
440
 16777216
370
     0
100
AcDbLine
 10
389.1202323621
 20
-112.5697419587
 30
0.0
 11
335.1202323621
 21
-112.5697419587
 31
0.0
  0
MTEXT
  5
105
330
FF
100
AcDbEntity
  8
0
  6
Continuous
 62
     7
440
 16777216
370
    18
100
AcDbMText
 10
346.7074850694999
 20
-105.7484252855
 30
0.0
 40
5.2916666667
 41
0.0
 46
0.0
 71
     1
 72
     1
  1
%%c
  7
SLDTEXTSTYLE0
 73
     1
 44
1.0
  0
MTEXT
  5
106
330
FF
100
AcDbEntity
  8
0
  6
Continuous
 62
     7
440
 16777216
370
    18
100
AcDbMText
 10
354.6949619548
 20
-105.7484252855
 30
0.0
 40
5.2916666667
 41
0.0
 46
0.0
 71
     1
 72
     1
  1
54.00
  7
SLDTEXTSTYLE0
 73
     1
 44
1.0
  0
ENDBLK
  5
101
330
FF
100
AcDbEntity
  8
0
100
AcDbBlockEnd
  0
BLOCK
  5
109
330
108
100
AcDbEntity
  8
0
100
AcDbBlockBegin
  2
_D_5
 70
     0
 10
0.0
 20
0.0
 30
0.0
  3
_D_5
  1

  0
LINE
  5
10B
330
108
100
AcDbEntity
  8
0
  6
Continuous
 62
     7
440
 16777216
370
     0
100
AcDbLine
 10
462.1123363186
 20
-37.7134583618
 30
0.0
 11
462.1123363186
 21
-22.3311801826
 31
0.0
  0
LINE
  5
10C
330
108
100
AcDbEntity
  8
0
  6
Continuous
 62
     7
440
 16777216
370
     0
100
AcDbLine
 10
502.1123363185999
 20
-37.1257315055
 30
0.0
 11
502.1123363185999
 21
-22.3311801826
 31
0.0
  0
LINE
  5
10D
330
108
100
AcDbEntity
  8
0
  6
Continuous
 62
     7
440
 16777216
370
     0
100
AcDbLine
 10
462.1123363186
 20
-23.3311801826
 30
0.0
 11
502.1123363185999
 21
-23.3311801826
 31
0.0
  0
MTEXT
  5
10E
330
108
100
AcDbEntity
  8
0
  6
Continuous
 62
     7
440
 16777216
370
    18
100
AcDbMText
 10
468.1120658225999
 20
-16.5098635094
 30
0.0
 40
5.2916666667
 41
0.0
 46
0.0
 71
     1
 72
     1
  1
%%c
  7
SLDTEXTSTYLE0
 73
     1
 44
1.0
  0
MTEXT
  5
10F
330
108
100
AcDbEntity
  8
0
  6
Continuous
 62
     7
440
 16777216
370
    18
100
AcDbMText
 10
476.0995427079
 20
-16.5098635094
 30
0.0
 40
5.2916666667
 41
0.0
 46
0.0
 71
     1
 72
     1
  1
40.00
  7
SLDTEXTSTYLE0
 73
     1
 44
1.0
  0
ENDBLK
  5
10A
330
108
100
AcDbEntity
  8
0
100
AcDbBlockEnd
  0
BLOCK
  5
17E
330
17D
100
AcDbEntity
  8
0
100
AcDbBlockBegin
  2
_D_6
 70
     0
 10
0.0
 20
0.0
 30
0.0
  3
_D_6
  1

  0
LINE
  5
180
330
17D
100
AcDbEntity
  8
0
  6
Continuous
 62
     7
440
 16777216
370
     0
100
AcDbLine
 10
-122.0680403451
 20
367.1885770124
 30
0.0
 11
-162.2844422877
 21
367.1885770124
 31
0.0
  0
LINE
  5
181
330
17D
100
AcDbEntity
  8
0
  6
Continuous
 62
     7
440
 16777216
370
     0
100
AcDbLine
 10
-121.0508948341
 20
348.1885770124
 30
0.0
 11
-162.2844422877
 21
348.1885770124
 31
0.0
  0
LINE
  5
182
330
17D
100
AcDbEntity
  8
0
  6
Continuous
 62
     7
440
 16777216
370
     0
100
AcDbLine
 10
-161.2844422877
 20
367.1885770124
 30
0.0
 11
-161.2844422877
 21
348.1885770124
 31
0.0
  0
LINE
  5
183
330
17D
100
AcDbEntity
  8
0
  6
Continuous
 62
     7
440
 16777216
370
     0
100
AcDbLine
 10
-161.2844422877
 20
348.1885770124
 30
0.0
 11
-161.2844422877
 21
320.9285926287
 31
0.0
  0
MTEXT
  5
184
330
17D
100
AcDbEntity
  8
0
  6
Continuous
 62
     7
440
 16777216
370
    18
100
AcDbMText
 10
-168.1057589609
 20
320.9285926287
 30
0.0
 40
5.2916666667
 41
0.0
 46
0.0
 71
     1
 72
     1
  1
%%c
  7
SLDTEXTSTYLE0
 11
-0.000000000000007
 21
1.0
 31
0.0
 73
     1
 44
1.0
  0
MTEXT
  5
185
330
17D
100
AcDbEntity
  8
0
  6
Continuous
 62
     7
440
 16777216
370
    18
100
AcDbMText
 10
-168.1057589609
 20
328.916069514
 30
0.0
 40
5.2916666667
 41
0.0
 46
0.0
 71
     1
 72
     1
  1
19.00
  7
SLDTEXTSTYLE0
 11
-0.000000000000007
 21
1.0
 31
0.0
 73
     1
 44
1.0
  0
ENDBLK
  5
17F
330
17D
100
AcDbEntity
  8
0
100
AcDbBlockEnd
  0
BLOCK
  5
1C8
330
1C7
100
AcDbEntity
  8
0
100
AcDbBlockBegin
  2
*D9
 70
     1
 10
0.0
 20
0.0
 30
0.0
  3
*D9
  1

  0
LINE
  5
1C9
330
1C7
100
AcDbEntity
  8
DIMENSION
440
 16777216
370
     0
100
AcDbLine
 10
1092.625159377854
 20
969.7937323929265
 30
0.0
 11
1092.569709633547
 21
979.7935786580374
 31
0.0
  0
LINE
  5
1CA
330
1C7
100
AcDbEntity
  8
DIMENSION
440
 16777216
370
     0
100
AcDbLine
 10
1454.657182624691
 20
971.8012215670347
 30
0.0
 11
1454.601732880384
 21
981.8010678321458
 31
0.0
  0
LINE
  5
1CB
330
1C7
100
AcDbEntity
  8
DIMENSION
440
 16777216
370
     0
100
AcDbLine
 10
1092.597434505701
 20
974.793655525482
 30
0.0
 11
1454.629457752537
 21
976.8011446995902
 31
0.0
  0
MTEXT
  5
1CC
330
1C7
100
AcDbEntity
  8
DIMENSION
 62
     7
440
 16777216
100
AcDbMText
 10
1273.568105608173
 20
983.9741418578535
 30
0.0
 40
8.0
 41
0.0
 46
0.0
 71
     5
 72
     1
  1
\A1;362
 73
     1
 44
1.0
  0
POINT
  5
1CD
330
1C7
100
AcDbEntity
  8
Defpoints
 62
     0
440
 16777216
100
AcDbPoint
 10
1092.771920384362
 20
943.3267482592359
 30
0.0
  0
POINT
  5
1CE
330
1C7
100
AcDbEntity
  8
Defpoints
 62
     0
440
 16777216
100
AcDbPoint
 10
1454.803943631198
 20
945.3342374333443
 30
0.0
  0
POINT
  5
1CF
330
1C7
100
AcDbEntity
  8
Defpoints
 62
     0
440
 16777216
100
AcDbPoint
 10
1454.629457752537
 20
976.8011446995902
 30
0.0
  0
ENDBLK
  5
1D0
330
1C7
100
AcDbEntity
  8
0
100
AcDbBlockEnd
  0
BLOCK
  5
1EC
330
1EB
100
AcDbEntity
  8
0
100
AcDbBlockBegin
  2
*D11
 70
     1
 10
0.0
 20
0.0
 30
0.0
  3
*D11
  1

  0
LINE
  5
1EE
330
1EB
100
AcDbEntity
  8
DIMENSION
440
 16777216
370
     0
100
AcDbLine
 10
248.9000668597426
 20
233.042696921984
 30
0.0
 11
248.8446171154357
 21
243.0425431870951
 31
0.0
  0
LINE
  5
1EF
330
1EB
100
AcDbEntity
  8
DIMENSION
440
 16777216
370
     0
100
AcDbLine
 10
610.9320901065792
 20
235.0501860960922
 30
0.0
 11
610.8766403622722
 21
245.0500323612033
 31
0.0
  0
LINE
  5
1F0
330
1EB
100
AcDbEntity
  8
DIMENSION
440
 16777216
370
     0
100
AcDbLine
 10
248.8723419875891
 20
238.0426200545396
 30
0.0
 11
610.9043652344257
 21
240.0501092286478
 31
0.0
  0
MTEXT
  5
1F1
330
1EB
100
AcDbEntity
  8
DIMENSION
 62
     7
440
 16777216
100
AcDbMText
 10
429.8435435453189
 20
247.1274437090435
 30
0.0
 40
8.0
 41
0.0
 46
0.0
 71
     5
 72
     1
  1
\A1;362
 73
     1
 44
1.0
  0
POINT
  5
1F2
330
1EB
100
AcDbEntity
  8
Defpoints
 62
     0
440
 16777216
100
AcDbPoint
 10
249.0468278662502
 20
206.5757127882934
 30
0.0
  0
POINT
  5
1F3
330
1EB
100
AcDbEntity
  8
Defpoints
 62
     0
440
 16777216
100
AcDbPoint
 10
611.0788511130867
 20
208.5832019624017
 30
0.0
  0
POINT
  5
1F4
330
1EB
100
AcDbEntity
  8
Defpoints
 62
     0
440
 16777216
100
AcDbPoint
 10
610.9043652344257
 20
240.0501092286478
 30
0.0
  0
ENDBLK
  5
1ED
330
1EB
100
AcDbEntity
  8
0
100
AcDbBlockEnd
  0
BLOCK
  5
200
330
1FF
100
AcDbEntity
  8
0
100
AcDbBlockBegin
  2
*D12
 70
     1
 10
0.0
 20
0.0
 30
0.0
  3
*D12
  1

  0
LINE
  5
202
330
1FF
100
AcDbEntity
  8
DIMENSION
440
 16777216
370
     0
100
AcDbLine
 10
52.55072054230002
 20
-85.45468044020003
 30
0.0
 11
62.55072054230002
 21
-85.45468044020003
 31
0.0
  0
LINE
  5
203
330
1FF
100
AcDbEntity
  8
DIMENSION
440
 16777216
370
     0
100
AcDbLine
 10
52.55072054230002
 20
-0.4546804401999965
 30
0.0
 11
62.55072054230002
 21
-0.4546804401999949
 31
0.0
  0
LINE
  5
204
330
1FF
100
AcDbEntity
  8
DIMENSION
440
 16777216
370
     0
100
AcDbLine
 10
57.55072054230003
 20
-85.45468044020003
 30
0.0
 11
57.55072054230002
 21
-0.4546804401999957
 31
0.0
  0
MTEXT
  5
205
330
1FF
100
AcDbEntity
  8
DIMENSION
 62
     7
440
 16777216
100
AcDbMText
 10
68.21738720896667
 20
-40.92039803689999
 30
0.0
 40
8.0
 41
0.0
 46
0.0
 71
     2
 72
     1
  1
\A1;85
 73
     1
 44
1.0
  0
POINT
  5
206
330
1FF
100
AcDbEntity
  8
Defpoints
 62
     0
440
 16777216
100
AcDbPoint
 10
-83.24445724870003
 20
-85.45468044020003
 30
0.0
  0
POINT
  5
207
330
1FF
100
AcDbEntity
  8
Defpoints
 62
     0
440
 16777216
100
AcDbPoint
 10
29.08054275130002
 20
-0.4546804402000003
 30
0.0
  0
POINT
  5
208
330
1FF
100
AcDbEntity
  8
Defpoints
 62
     0
440
 16777216
100
AcDbPoint
 10
57.55072054230002
 20
-0.4546804401999957
 30
0.0
  0
ENDBLK
  5
201
330
1FF
100
AcDbEntity
  8
0
100
AcDbBlockEnd
  0
BLOCK
  5
20E
330
20D
100
AcDbEntity
  8
0
100
AcDbBlockBegin
  2
*D13
 70
     1
 10
0.0
 20
0.0
 30
0.0
  3
*D13
  1

  0
LINE
  5
210
330
20D
100
AcDbEntity
  8
DIMENSION
440
 16777216
370
     0
100
AcDbLine
 10
-110.2444572487
 20
-102.4546804402
 30
0.0
 11
-110.2444572487
 21
-112.4546804402
 31
0.0
  0
LINE
  5
211
330
20D
100
AcDbEntity
  8
DIMENSION
440
 16777216
370
     0
100
AcDbLine
 10
19.55554275129999
 20
-102.4546804402
 30
0.0
 11
19.55554275129999
 21
-112.4546804402
 31
0.0
  0
LINE
  5
212
330
20D
100
AcDbEntity
  8
DIMENSION
440
 16777216
370
     0
100
AcDbLine
 10
-110.2444572487
 20
-107.4546804402
 30
0.0
 11
19.55554275129999
 21
-107.4546804402
 31
0.0
  0
MTEXT
  5
213
330
20D
100
AcDbEntity
  8
DIMENSION
 62
     7
440
 16777216
100
AcDbMText
 10
-48.34472230229999
 20
-111.4546804402
 30
0.0
 40
8.0
 41
0.0
 46
0.0
 71
     2
 72
     1
  1
\A1;130
 73
     1
 44
1.0
  0
POINT
  5
214
330
20D
100
AcDbEntity
  8
Defpoints
 62
     0
440
 16777216
100
AcDbPoint
 10
-110.2444572487
 20
-85.45468044020001
 30
0.0
  0
POINT
  5
215
330
20D
100
AcDbEntity
  8
Defpoints
 62
     0
440
 16777216
100
AcDbPoint
 10
19.5555427513
 20
-0.4546804402000001
 30
0.0
  0
POINT
  5
216
330
20D
100
AcDbEntity
  8
Defpoints
 62
     0
440
 16777216
100
AcDbPoint
 10
19.55554275129999
 20
-107.4546804402
 30
0.0
  0
ENDBLK
  5
20F
330
20D
100
AcDbEntity
  8
0
100
AcDbBlockEnd
  0
BLOCK
  5
21C
330
21B
100
AcDbEntity
  8
0
100
AcDbBlockBegin
  2
*D14
 70
     1
 10
0.0
 20
0.0
 30
0.0
  3
*D14
  1

  0
LINE
  5
21E
330
21B
100
AcDbEntity
  8
DIMENSION
440
 16777216
370
     0
100
AcDbLine
 10
-160.2444535359
 20
94.5453195598
 30
0.0
 11
-170.2444535359
 21
94.5453195598
 31
0.0
  0
LINE
  5
21F
330
21B
100
AcDbEntity
  8
DIMENSION
440
 16777216
370
     0
100
AcDbLine
 10
-160.2444535359
 20
-85.45468044020005
 30
0.0
 11
-170.2444535359
 21
-85.45468044020005
 31
0.0
  0
LINE
  5
220
330
21B
100
AcDbEntity
  8
DIMENSION
440
 16777216
370
     0
100
AcDbLine
 10
-165.2444535359
 20
94.5453195598
 30
0.0
 11
-165.2444535359
 21
-85.45468044020005
 31
0.0
  0
MTEXT
  5
221
330
21B
100
AcDbEntity
  8
DIMENSION
 62
     7
440
 16777216
100
AcDbMText
 10
-177.9111202025666
 20
15.8306895766
 30
0.0
 40
8.0
 41
0.0
 46
0.0
 71
     2
 72
     1
  1
\A1;180
 73
     1
 44
1.0
  0
POINT
  5
222
330
21B
100
AcDbEntity
  8
Defpoints
 62
     0
440
 16777216
100
AcDbPoint
 10
-49.80609672130003
 20
94.54531955980002
 30
0.0
  0
POINT
  5
223
330
21B
100
AcDbEntity
  8
Defpoints
 62
     0
440
 16777216
100
AcDbPoint
 10
-137.2444572487
 20
-85.45468044020003
 30
0.0
  0
POINT
  5
224
330
21B
100
AcDbEntity
  8
Defpoints
 62
     0
440
 16777216
100
AcDbPoint
 10
-165.2444535359
 20
-85.45468044020005
 30
0.0
  0
ENDBLK
  5
21D
330
21B
100
AcDbEntity
  8
0
100
AcDbBlockEnd
  0
BLOCK
  5
22A
330
229
100
AcDbEntity
  8
0
100
AcDbBlockBegin
  2
*D15
 70
     1
 10
0.0
 20
0.0
 30
0.0
  3
*D15
  1

  0
LINE
  5
22C
330
229
100
AcDbEntity
  8
DIMENSION
440
 16777216
370
     0
100
AcDbLine
 10
389.1202323621
 20
-107.5697419587
 30
0.0
 11
389.1202323621
 21
-117.5697419587
 31
0.0
  0
LINE
  5
22D
330
229
100
AcDbEntity
  8
DIMENSION
440
 16777216
370
     0
100
AcDbLine
 10
335.1202323621
 20
-107.5697419587
 30
0.0
 11
335.1202323621
 21
-117.5697419587
 31
0.0
  0
LINE
  5
22E
330
229
100
AcDbEntity
  8
DIMENSION
440
 16777216
370
     0
100
AcDbLine
 10
389.1202323621
 20
-112.5697419587
 30
0.0
 11
335.1202323621
 21
-112.5697419587
 31
0.0
  0
MTEXT
  5
22F
330
229
100
AcDbEntity
  8
DIMENSION
 62
     7
440
 16777216
100
AcDbMText
 10
359.4961701082
 20
-116.5697419587
 30
0.0
 40
8.0
 41
0.0
 46
0.0
 71
     2
 72
     1
  1
\A1;%%c54
 73
     1
 44
1.0
  0
POINT
  5
230
330
229
100
AcDbEntity
  8
Defpoints
 62
     0
440
 16777216
100
AcDbPoint
 10
389.1202323621
 20
-85.45468044020001
 30
0.0
  0
POINT
  5
231
330
229
100
AcDbEntity
  8
Defpoints
 62
     0
440
 16777216
100
AcDbPoint
 10
335.1202323621
 20
-85.45468044020001
 30
0.0
  0
POINT
  5
232
330
229
100
AcDbEntity
  8
Defpoints
 62
     0
440
 16777216
100
AcDbPoint
 10
335.1202323621
 20
-112.5697419587
 30
0.0
  0
ENDBLK
  5
22B
330
229
100
AcDbEntity
  8
0
100
AcDbBlockEnd
  0
BLOCK
  5
238
330
237
100
AcDbEntity
  8
0
100
AcDbBlockBegin
  2
*D16
 70
     1
 10
0.0
 20
0.0
 30
0.0
  3
*D16
  1

  0
LINE
  5
23A
330
237
100
AcDbEntity
  8
DIMENSION
440
 16777216
370
     0
100
AcDbLine
 10
268.9110441774
 20
-109.8344782342
 30
0.0
 11
268.9110441774
 21
-119.8344782342
 31
0.0
  0
LINE
  5
23B
330
237
100
AcDbEntity
  8
DIMENSION
440
 16777216
370
     0
100
AcDbLine
 10
214.9110441774
 20
-109.8344782342
 30
0.0
 11
214.9110441774
 21
-119.8344782342
 31
0.0
  0
LINE
  5
23C
330
237
100
AcDbEntity
  8
DIMENSION
440
 16777216
370
     0
100
AcDbLine
 10
268.9110441774
 20
-114.8344782342
 30
0.0
 11
214.9110441774
 21
-114.8344782342
 31
0.0
  0
MTEXT
  5
23D
330
237
100
AcDbEntity
  8
DIMENSION
 62
     7
440
 16777216
100
AcDbMText
 10
241.2705896973
 20
-118.8344782342
 30
0.0
 40
8.0
 41
0.0
 46
0.0
 71
     2
 72
     1
  1
\A1;%%c54
 73
     1
 44
1.0
  0
POINT
  5
23E
330
237
100
AcDbEntity
  8
Defpoints
 62
     0
440
 16777216
100
AcDbPoint
 10
268.9110441774
 20
-85.45468044020001
 30
0.0
  0
POINT
  5
23F
330
237
100
AcDbEntity
  8
Defpoints
 62
     0
440
 16777216
100
AcDbPoint
 10
214.9110441774
 20
-85.45468044020001
 30
0.0
  0
POINT
  5
240
330
237
100
AcDbEntity
  8
Defpoints
 62
     0
440
 16777216
100
AcDbPoint
 10
214.9110441774
 20
-114.8344782342
 30
0.0
  0
ENDBLK
  5
239
330
237
100
AcDbEntity
  8
0
100
AcDbBlockEnd
  0
BLOCK
  5
246
330
245
100
AcDbEntity
  8
0
100
AcDbBlockBegin
  2
*D17
 70
     1
 10
0.0
 20
0.0
 30
0.0
  3
*D17
  1

  0
LINE
  5
248
330
245
100
AcDbEntity
  8
DIMENSION
440
 16777216
370
     0
100
AcDbLine
 10
462.1123363186
 20
-28.3311801826
 30
0.0
 11
462.1123363186
 21
-18.3311801826
 31
0.0
  0
LINE
  5
249
330
245
100
AcDbEntity
  8
DIMENSION
440
 16777216
370
     0
100
AcDbLine
 10
502.1123363185999
 20
-28.3311801826
 30
0.0
 11
502.1123363185999
 21
-18.3311801826
 31
0.0
  0
LINE
  5
24A
330
245
100
AcDbEntity
  8
DIMENSION
440
 16777216
370
     0
100
AcDbLine
 10
462.1123363186
 20
-23.3311801826
 30
0.0
 11
502.1123363185999
 21
-23.3311801826
 31
0.0
  0
MTEXT
  5
24B
330
245
100
AcDbEntity
  8
DIMENSION
 62
     7
440
 16777216
100
AcDbMText
 10
480.9007508612999
 20
-11.3311801826
 30
0.0
 40
8.0
 41
0.0
 46
0.0
 71
     2
 72
     1
  1
\A1;%%c40
 73
     1
 44
1.0
  0
POINT
  5
24C
330
245
100
AcDbEntity
  8
Defpoints
 62
     0
440
 16777216
100
AcDbPoint
 10
462.1123363186
 20
-42.45468044019999
 30
0.0
  0
POINT
  5
24D
330
245
100
AcDbEntity
  8
Defpoints
 62
     0
440
 16777216
100
AcDbPoint
 10
502.1123363185999
 20
-42.45468044019999
 30
0.0
  0
POINT
  5
24E
330
245
100
AcDbEntity
  8
Defpoints
 62
     0
440
 16777216
100
AcDbPoint
 10
502.1123363185999
 20
-23.3311801826
 30
0.0
  0
ENDBLK
  5
247
330
245
100
AcDbEntity
  8
0
100
AcDbBlockEnd
  0
BLOCK
  5
254
330
253
100
AcDbEntity
  8
0
100
AcDbBlockBegin
  2
*D18
 70
     1
 10
0.0
 20
0.0
 30
0.0
  3
*D18
  1

  0
LINE
  5
256
330
253
100
AcDbEntity
  8
DIMENSION
440
 16777216
370
     0
100
AcDbLine
 10
-142.9511089543668
 20
367.1885770124001
 30
0.0
 11
-152.9511089543668
 21
367.1885770124001
 31
0.0
  0
LINE
  5
257
330
253
100
AcDbEntity
  8
DIMENSION
440
 16777216
370
     0
100
AcDbLine
 10
-142.9511089543668
 20
348.1885770124001
 30
0.0
 11
-152.9511089543668
 21
348.1885770124001
 31
0.0
  0
LINE
  5
258
330
253
100
AcDbEntity
  8
DIMENSION
440
 16777216
370
     0
100
AcDbLine
 10
-147.9511089543668
 20
367.1885770124001
 30
0.0
 11
-147.9511089543668
 21
348.1885770124001
 31
0.0
  0
LINE
  5
259
330
253
100
AcDbEntity
  8
DIMENSION
440
 16777216
370
     0
100
AcDbLine
 10
-147.9511089543668
 20
348.1885770124001
 30
0.0
 11
-147.9511089543668
 21
333.7172776674
 31
0.0
  0
LINE
  5
25A
330
253
100
AcDbEntity
  8
DIMENSION
440
 16777216
370
     0
100
AcDbLine
 10
-147.9511089543668
 20
333.7172776674
 30
0.0
 11
-170.6177756210335
 21
333.7172776674
 31
0.0
  0
MTEXT
  5
25B
330
253
100
AcDbEntity
  8
DIMENSION
 62
     7
440
 16777216
100
AcDbMText
 10
-161.2844422877
 20
345.7172776674
 30
0.0
 40
8.0
 41
0.0
 46
0.0
 71
     2
 72
     1
  1
\A1;%%c19
 73
     1
 44
1.0
  0
POINT
  5
25C
330
253
100
AcDbEntity
  8
Defpoints
 62
     0
440
 16777216
100
AcDbPoint
 10
-110.2444572487
 20
367.1885770124001
 30
0.0
  0
POINT
  5
25D
330
253
100
AcDbEntity
  8
Defpoints
 62
     0
440
 16777216
100
AcDbPoint
 10
-110.2444572487
 20
348.1885770124001
 30
0.0
  0
POINT
  5
25E
330
253
100
AcDbEntity
  8
Defpoints
 62
     0
440
 16777216
100
AcDbPoint
 10
-147.9511089543668
 20
348.1885770124001
 30
0.0
  0
ENDBLK
  5
255
330
253
100
AcDbEntity
  8
0
100
AcDbBlockEnd
  0
BLOCK
  5
265
330
264
100
AcDbEntity
  8
0
100
AcDbBlockBegin
  2
*D19
 70
     1
 10
0.0
 20
0.0
 30
0.0
  3
*D19
  1

  0
LINE
  5
267
330
264
100
AcDbEntity
  8
0
 62
     0
440
 16777216
370
    -2
100
AcDbLine
 10
261.9110441774
 20
-41.4546804402
 30
0.0
 11
261.9110441774
 21
-19.76657555127985
 31
0.0
  0
LINE
  5
268
330
264
100
AcDbEntity
  8
0
 62
     0
440
 16777216
370
    -2
100
AcDbLine
 10
181.67005620185
 20
-50.40482668750001
 30
0.0
 11
181.67005620185
 21
-19.76657555127985
 31
0.0
  0
LINE
  5
269
330
264
100
AcDbEntity
  8
0
 62
     0
440
 16777216
370
    -2
100
AcDbLine
 10
258.6090441774
 20
-20.76657555127986
 30
0.0
 11
184.97205620185
 21
-20.76657555127986
 31
0.0
  0
SOLID
  5
26A
330
264
100
AcDbEntity
  8
0
 62
     0
440
 16777216
100
AcDbTrace
 10
258.6090441774
 20
-20.21624221794652
 30
0.0
 11
258.6090441774
 21
-21.31690888461319
 31
0.0
 12
261.9110441774
 22
-20.76657555127986
 32
0.0
 13
261.9110441774
 23
-20.76657555127986
 33
0.0
  0
SOLID
  5
26B
330
264
100
AcDbEntity
  8
0
 62
     0
440
 16777216
100
AcDbTrace
 10
184.97205620185
 20
-20.21624221794652
 30
0.0
 11
184.97205620185
 21
-21.31690888461319
 31
0.0
 12
181.67005620185
 22
-20.76657555127986
 32
0.0
 13
181.67005620185
 23
-20.76657555127986
 33
0.0
  0
MTEXT
  5
26C
330
264
100
AcDbEntity
  8
0
 62
     0
440
 16777216
100
AcDbMText
 10
221.790550189625
 20
-17.20090888461319
 30
0.0
 40
3.5
 41
0.0
 46
0.0
 71
     5
 72
     1
  1
401,20
 73
     1
 44
1.0
  0
POINT
  5
26D
330
264
100
AcDbEntity
  8
Defpoints
 62
     0
440
 16777216
100
AcDbPoint
 10
261.9110441774
 20
-42.45468044019999
 30
0.0
  0
POINT
  5
26E
330
264
100
AcDbEntity
  8
Defpoints
 62
     0
440
 16777216
100
AcDbPoint
 10
181.67005620185
 20
-51.4048266875
 30
0.0
  0
POINT
  5
26F
330
264
100
AcDbEntity
  8
Defpoints
 62
     0
440
 16777216
100
AcDbPoint
 10
181.67005620185
 20
-20.76657555127986
 30
0.0
  0
ENDBLK
  5
266
330
264
100
AcDbEntity
  8
0
100
AcDbBlockEnd
  0
BLOCK
  5
271
330
270
100
AcDbEntity
  8
0
100
AcDbBlockBegin
  2
*D20
 70
     1
 10
0.0
 20
0.0
 30
0.0
  3
*D20
  1

  0
LINE
  5
273
330
270
100
AcDbEntity
  8
DIMENSION
440
 16777216
370
     0
100
AcDbLine
 10
261.9110441774
 20
-25.76657555127986
 30
0.0
 11
261.9110441774
 21
-15.76657555127986
 31
0.0
  0
LINE
  5
274
330
270
100
AcDbEntity
  8
DIMENSION
440
 16777216
370
     0
100
AcDbLine
 10
181.67005620185
 20
-25.76657555127986
 30
0.0
 11
181.67005620185
 21
-15.76657555127986
 31
0.0
  0
LINE
  5
275
330
270
100
AcDbEntity
  8
DIMENSION
440
 16777216
370
     0
100
AcDbLine
 10
261.9110441774
 20
-20.76657555127986
 30
0.0
 11
181.67005620185
 21
-20.76657555127986
 31
0.0
  0
MTEXT
  5
276
330
270
100
AcDbEntity
  8
DIMENSION
 62
     7
440
 16777216
100
AcDbMText
 10
221.790550189625
 20
-12.76657555127985
 30
0.0
 40
8.0
 41
0.0
 46
0.0
 71
     5
 72
     1
  1
\A1;80
 73
     1
 44
1.0
  0
POINT
  5
277
330
270
100
AcDbEntity
  8
Defpoints
 62
     0
440
 16777216
100
AcDbPoint
 10
261.9110441774
 20
-42.45468044019999
 30
0.0
  0
POINT
  5
278
330
270
100
AcDbEntity
  8
Defpoints
 62
     0
440
 16777216
100
AcDbPoint
 10
181.67005620185
 20
-51.4048266875
 30
0.0
  0
POINT
  5
279
330
270
100
AcDbEntity
  8
Defpoints
 62
     0
440
 16777216
100
AcDbPoint
 10
181.67005620185
 20
-20.76657555127986
 30
0.0
  0
ENDBLK
  5
272
330
270
100
AcDbEntity
  8
0
100
AcDbBlockEnd
  0
BLOCK
  5
280
330
27F
100
AcDbEntity
  8
0
100
AcDbBlockBegin
  2
*D21
 70
     1
 10
0.0
 20
0.0
 30
0.0
  3
*D21
  1

  0
LINE
  5
282
330
27F
100
AcDbEntity
  8
0
 62
     0
440
 16777216
370
    -2
100
AcDbLine
 10
242.9110441774001
 20
-42.45468044020001
 30
0.0
 11
286.9167081834854
 21
-42.4546804402
 31
0.0
  0
LINE
  5
283
330
27F
100
AcDbEntity
  8
0
 62
     0
440
 16777216
370
    -2
100
AcDbLine
 10
242.9110441774001
 20
-85.45468044020003
 30
0.0
 11
286.9167081834854
 21
-85.45468044020003
 31
0.0
  0
LINE
  5
284
330
27F
100
AcDbEntity
  8
0
 62
     0
440
 16777216
370
    -2
100
AcDbLine
 10
285.9167081834854
 20
-45.75668044020001
 30
0.0
 11
285.9167081834854
 21
-60.38901377353335
 31
0.0
  0
LINE
  5
285
330
27F
100
AcDbEntity
  8
0
 62
     0
440
 16777216
370
    -2
100
AcDbLine
 10
285.9167081834854
 20
-82.15268044020003
 30
0.0
 11
285.9167081834854
 21
-67.52034710686669
 31
0.0
  0
SOLID
  5
286
330
27F
100
AcDbEntity
  8
0
 62
     0
440
 16777216
100
AcDbTrace
 10
285.3663748501521
 20
-45.75668044020001
 30
0.0
 11
286.4670415168188
 21
-45.75668044020001
 31
0.0
 12
285.9167081834854
 22
-42.4546804402
 32
0.0
 13
285.9167081834854
 23
-42.4546804402
 33
0.0
  0
SOLID
  5
287
330
27F
100
AcDbEntity
  8
0
 62
     0
440
 16777216
100
AcDbTrace
 10
285.3663748501521
 20
-82.15268044020003
 30
0.0
 11
286.4670415168188
 21
-82.15268044020003
 31
0.0
 12
285.9167081834854
 22
-85.45468044020003
 32
0.0
 13
285.9167081834854
 23
-85.45468044020003
 33
0.0
  0
MTEXT
  5
288
330
27F
100
AcDbEntity
  8
0
 62
     0
440
 16777216
100
AcDbMText
 10
285.9167081834854
 20
-63.95468044020008
 30
0.0
 40
3.5
 41
0.0
 46
0.0
 71
     5
 72
     1
  1
215,00
 73
     1
 44
1.0
  0
POINT
  5
289
330
27F
100
AcDbEntity
  8
Defpoints
 62
     0
440
 16777216
100
AcDbPoint
 10
241.9110441774001
 20
-42.45468044020001
 30
0.0
  0
POINT
  5
28A
330
27F
100
AcDbEntity
  8
Defpoints
 62
     0
440
 16777216
100
AcDbPoint
 10
241.9110441774001
 20
-85.45468044020003
 30
0.0
  0
POINT
  5
28B
330
27F
100
AcDbEntity
  8
Defpoints
 62
     0
440
 16777216
100
AcDbPoint
 10
285.9167081834854
 20
-85.45468044020003
 30
0.0
  0
ENDBLK
  5
281
330
27F
100
AcDbEntity
  8
0
100
AcDbBlockEnd
  0
BLOCK
  5
28D
330
28C
100
AcDbEntity
  8
0
100
AcDbBlockBegin
  2
*D22
 70
     1
 10
0.0
 20
0.0
 30
0.0
  3
*D22
  1

  0
LINE
  5
28F
330
28C
100
AcDbEntity
  8
DIMENSION
440
 16777216
370
     0
100
AcDbLine
 10
280.9167081834855
 20
-42.4546804402
 30
0.0
 11
290.9167081834855
 21
-42.4546804402
 31
0.0
  0
LINE
  5
290
330
28C
100
AcDbEntity
  8
DIMENSION
440
 16777216
370
     0
100
AcDbLine
 10
280.9167081834855
 20
-85.45468044020003
 30
0.0
 11
290.9167081834855
 21
-85.45468044020003
 31
0.0
  0
LINE
  5
291
330
28C
100
AcDbEntity
  8
DIMENSION
440
 16777216
370
     0
100
AcDbLine
 10
285.9167081834855
 20
-42.4546804402
 30
0.0
 11
285.9167081834855
 21
-85.45468044020003
 31
0.0
  0
MTEXT
  5
292
330
28C
100
AcDbEntity
  8
DIMENSION
 62
     7
440
 16777216
100
AcDbMText
 10
296.5833748501522
 20
-63.95468044020009
 30
0.0
 40
8.0
 41
0.0
 46
0.0
 71
     5
 72
     1
  1
\A1;43
 73
     1
 44
1.0
  0
POINT
  5
293
330
28C
100
AcDbEntity
  8
Defpoints
 62
     0
440
 16777216
100
AcDbPoint
 10
241.9110441774001
 20
-42.45468044020001
 30
0.0
  0
POINT
  5
294
330
28C
100
AcDbEntity
  8
Defpoints
 62
     0
440
 16777216
100
AcDbPoint
 10
241.9110441774001
 20
-85.45468044020003
 30
0.0
  0
POINT
  5
295
330
28C
100
AcDbEntity
  8
Defpoints
 62
     0
440
 16777216
100
AcDbPoint
 10
285.9167081834855
 20
-85.45468044020003
 30
0.0
  0
ENDBLK
  5
28E
330
28C
100
AcDbEntity
  8
0
100
AcDbBlockEnd
  0
BLOCK
  5
29D
330
29C
100
AcDbEntity
  8
0
100
AcDbBlockBegin
  2
*D23
 70
     1
 10
0.0
 20
0.0
 30
0.0
  3
*D23
  1

  0
LINE
  5
29F
330
29C
100
AcDbEntity
  8
0
 62
     0
440
 16777216
370
    -2
100
AcDbLine
 10
-105.3690145275
 20
176.3542178267
 30
0.0
 11
-105.3690145275
 21
166.5998771778477
 31
0.0
  0
LINE
  5
2A0
330
29C
100
AcDbEntity
  8
0
 62
     0
440
 16777216
370
    -2
100
AcDbLine
 10
-113.3681674688
 20
176.2378038213
 30
0.0
 11
-113.3681674688
 21
166.5998771778477
 31
0.0
  0
LINE
  5
2A1
330
29C
100
AcDbEntity
  8
0
 62
     0
440
 16777216
370
    -2
100
AcDbLine
 10
-102.0670145275
 20
167.5998771778477
 30
0.0
 11
-98.7650145275
 21
167.5998771778477
 31
0.0
  0
LINE
  5
2A2
330
29C
100
AcDbEntity
  8
0
 62
     0
440
 16777216
370
    -2
100
AcDbLine
 10
-116.6701674688
 20
167.5998771778477
 30
0.0
 11
-135.8535008021333
 21
167.5998771778477
 31
0.0
  0
LINE
  5
2A3
330
29C
100
AcDbEntity
  8
0
 62
     0
440
 16777216
370
    -2
100
AcDbLine
 10
-105.3690145275
 20
167.5998771778477
 30
0.0
 11
-113.3681674688
 21
167.5998771778477
 31
0.0
  0
SOLID
  5
2A4
330
29C
100
AcDbEntity
  8
0
 62
     0
440
 16777216
100
AcDbTrace
 10
-102.0670145275
 20
168.150210511181
 30
0.0
 11
-102.0670145275
 21
167.0495438445144
 31
0.0
 12
-105.3690145275
 22
167.5998771778477
 32
0.0
 13
-105.3690145275
 23
167.5998771778477
 33
0.0
  0
SOLID
  5
2A5
330
29C
100
AcDbEntity
  8
0
 62
     0
440
 16777216
100
AcDbTrace
 10
-116.6701674688
 20
168.150210511181
 30
0.0
 11
-116.6701674688
 21
167.0495438445144
 31
0.0
 12
-113.3681674688
 22
167.5998771778477
 32
0.0
 13
-113.3681674688
 23
167.5998771778477
 33
0.0
  0
MTEXT
  5
2A6
330
29C
100
AcDbEntity
  8
0
 62
     0
440
 16777216
100
AcDbMText
 10
-127.9128341354667
 20
171.1655438445143
 30
0.0
 40
3.5
 41
0.0
 46
0.0
 71
     5
 72
     1
  1
40,00
 73
     1
 44
1.0
  0
POINT
  5
2A7
330
29C
100
AcDbEntity
  8
Defpoints
 62
     0
440
 16777216
100
AcDbPoint
 10
-105.3690145275
 20
177.3542178267
 30
0.0
  0
POINT
  5
2A8
330
29C
100
AcDbEntity
  8
Defpoints
 62
     0
440
 16777216
100
AcDbPoint
 10
-113.3681674688
 20
177.2378038213
 30
0.0
  0
POINT
  5
2A9
330
29C
100
AcDbEntity
  8
Defpoints
 62
     0
440
 16777216
100
AcDbPoint
 10
-113.3681674688
 20
167.5998771778477
 30
0.0
  0
ENDBLK
  5
29E
330
29C
100
AcDbEntity
  8
0
100
AcDbBlockEnd
  0
BLOCK
  5
2AB
330
2AA
100
AcDbEntity
  8
0
100
AcDbBlockBegin
  2
*D24
 70
     1
 10
0.0
 20
0.0
 30
0.0
  3
*D24
  1

  0
LINE
  5
2BA
330
2AA
100
AcDbEntity
  8
DIMENSION
440
 16777216
370
     0
100
AcDbLine
 10
-105.3690145275
 20
172.5998771778477
 30
0.0
 11
-105.3690145275
 21
162.5998771778477
 31
0.0
  0
LINE
  5
2BB
330
2AA
100
AcDbEntity
  8
DIMENSION
440
 16777216
370
     0
100
AcDbLine
 10
-113.3681674688
 20
172.5998771778477
 30
0.0
 11
-113.3681674688
 21
162.5998771778477
 31
0.0
  0
LINE
  5
2BC
330
2AA
100
AcDbEntity
  8
DIMENSION
440
 16777216
370
     0
100
AcDbLine
 10
-105.3690145275
 20
167.5998771778477
 30
0.0
 11
-101.8690145275
 21
167.5998771778477
 31
0.0
  0
LINE
  5
2BD
330
2AA
100
AcDbEntity
  8
DIMENSION
440
 16777216
370
     0
100
AcDbLine
 10
-113.3681674688
 20
167.5998771778477
 30
0.0
 11
-141.7015008021333
 21
167.5998771778477
 31
0.0
  0
LINE
  5
2BE
330
2AA
100
AcDbEntity
  8
DIMENSION
440
 16777216
370
     0
100
AcDbLine
 10
-105.3690145275
 20
167.5998771778477
 30
0.0
 11
-113.3681674688
 21
167.5998771778477
 31
0.0
  0
MTEXT
  5
2BF
330
2AA
100
AcDbEntity
  8
DIMENSION
 62
     7
440
 16777216
100
AcDbMText
 10
-131.0348341354666
 20
159.5998771778477
 30
0.0
 40
8.0
 41
0.0
 46
0.0
 71
     5
 72
     1
  1
\A1;%%C8
 73
     1
 44
1.0
  0
POINT
  5
2C0
330
2AA
100
AcDbEntity
  8
Defpoints
 62
     0
440
 16777216
100
AcDbPoint
 10
-105.3690145275
 20
177.3542178267
 30
0.0
  0
POINT
  5
2C1
330
2AA
100
AcDbEntity
  8
Defpoints
 62
     0
440
 16777216
100
AcDbPoint
 10
-113.3681674688
 20
177.2378038213
 30
0.0
  0
POINT
  5
2C2
330
2AA
100
AcDbEntity
  8
Defpoints
 62
     0
440
 16777216
100
AcDbPoint
 10
-113.3681674688
 20
167.5998771778477
 30
0.0
  0
ENDBLK
  5
2AC
330
2AA
100
AcDbEntity
  8
0
100
AcDbBlockEnd
  0
ENDSEC
  0
SECTION
  2
ENTITIES
  0
LINE
  5
74
330
1F
100
AcDbEntity
  8
0
  6
Continuous
 62
     7
370
    25
100
AcDbLine
 10
29.0805427513
 20
-0.4546804402000001
 30
0.0
 11
29.0805427513
 21
20.5453195598
 31
0.0
  0
LINE
  5
75
330
1F
100
AcDbEntity
  8
0
  6
Continuous
 62
     7
370
    25
100
AcDbLine
 10
10.0305427513
 20
20.5453195598
 30
0.0
 11
10.0305427513
 21
-0.4546804402000001
 31
0.0
  0
LINE
  5
76
330
1F
100
AcDbEntity
  8
0
  6
Continuous
 62
     7
370
    25
100
AcDbLine
 10
10.0459122952
 20
25.1853195598
 30
0.0
 11
10.0459122952
 21
20.5853195598
 31
0.0
  0
LINE
  5
77
330
1F
100
AcDbEntity
  8
0
  6
Continuous
 62
     7
370
    25
100
AcDbLine
 10
29.0779397511
 20
20.5853195598
 30
0.0
 11
29.0779397511
 21
25.1853195598
 31
0.0
  0
SPLINE
  5
78
330
1F
100
AcDbEntity
  8
0
  6
Continuous
 62
     7
370
    25
100
AcDbSpline
210
0.0
220
0.0
230
1.0
 70
     8
 71
     3
 72
    45
 73
    41
 74
     0
 42
0.00000001
 43
0.0000000001
 40
0.0
 40
0.0
 40
0.0
 40
0.0
 40
0.0235050441489735
 40
0.0437060047395656
 40
0.0637396638415155
 40
0.0834734506479214
 40
0.1022478737676219
 40
0.1310266789440521
 40
0.1570903682122997
 40
0.1806139511531355
 40
0.2053972604717743
 40
0.2263757477520862
 40
0.2458008978580717
 40
0.2654174252798885
 40
0.2852330935378198
 40
0.3186868493533486
 40
0.3526699935542151
 40
0.3868482617690461
 40
0.4210279376907816
 40
0.4552151095145331
 40
0.4894125349957806
 40
0.5236143305523995
 40
0.5578141671911618
 40
0.5920036071244712
 40
0.6257965661308072
 40
0.658220134632955
 40
0.6892315442300232
 40
0.7071659254361195
 40
0.7249666112514543
 40
0.7461203794823394
 40
0.7714744343136339
 40
0.801037821371816
 40
0.8289215811339754
 40
0.8597147856242933
 40
0.8932950347757696
 40
0.9149062098440918
 40
0.9378436919815856
 40
0.9617912549193381
 40
0.9856288726682228
 40
1.0
 40
1.0
 40
1.0
 40
1.0
 10
-100.7444572487113
 20
20.18531955983864
 30
0.0
 10
-100.7251304212169
 20
21.51239855850926
 30
0.0
 10
-100.6891935215151
 20
23.98001021829028
 30
0.0
 10
-100.2890979196793
 20
27.55919863635771
 30
0.0
 10
-99.7212314245182
 20
30.89652475835058
 30
0.0
 10
-98.99251943132064
 20
34.12077699519565
 30
0.0
 10
-97.94511767622505
 20
37.77270310574952
 30
0.0
 10
-96.49372170650044
 20
41.67216529860165
 30
0.0
 10
-94.60126771681808
 20
45.6741774465162
 30
0.0
 10
-92.531137099736
 20
49.32889461849915
 30
0.0
 10
-90.3604793430734
 20
52.58564137987027
 30
0.0
 10
-88.10849601868117
 20
55.49768687753179
 30
0.0
 10
-85.87259871621631
 20
58.04460510079493
 30
0.0
 10
-83.5348413279498
 20
60.40700943131439
 30
0.0
 10
-80.46971008260573
 20
63.15312632079574
 30
0.0
 10
-76.54149031027436
 20
66.13717854700333
 30
0.0
 10
-71.63345972020583
 20
69.12242825076482
 30
0.0
 10
-66.40504724017013
 20
71.60050862940662
 30
0.0
 10
-60.93616162470587
 20
73.52441168828502
 30
0.0
 10
-55.29579628263731
 20
74.86950572645906
 30
0.0
 10
-49.54466540664095
 20
75.61933315283345
 30
0.0
 10
-43.74598969225722
 20
75.76600734637854
 30
0.0
 10
-37.96411823664933
 20
75.30676114478213
 30
0.0
 10
-32.2842643850109
 20
74.25219809725355
 30
0.0
 10
-26.84057426338052
 20
72.64370702631895
 30
0.0
 10
-21.75396406044199
 20
70.56315817560722
 30
0.0
 10
-17.68505074413519
 20
68.41906520694692
 30
0.0
 10
-14.49172978816162
 20
66.41822208931279
 30
0.0
 10
-11.86702311834424
 20
64.56676795764775
 30
0.0
 10
-9.028505617329756
 20
62.30147660022665
 30
0.0
 10
-5.867742429321178
 20
59.39026661640394
 30
0.0
 10
-2.70352549696997
 20
55.94288792189043
 30
0.0
 10
0.3289361992304465
 20
51.98545471704946
 30
0.0
 10
3.119336007221216
 20
47.58160551618373
 30
0.0
 10
5.318640504956777
 20
43.24597660222321
 30
0.0
 10
6.967044637813911
 20
39.15346119210853
 30
0.0
 10
8.15346922647949
 20
35.47007350708357
 30
0.0
 10
9.093391666353985
 20
31.59051200280198
 30
0.0
 10
9.762790593292859
 20
28.14030830980547
 30
0.0
 10
9.934365807166258
 20
25.98980798591303
 30
0.0
 10
9.998898919686576
 20
25.18095875738059
 30
0.0
  0
SPLINE
  5
79
330
1F
100
AcDbEntity
  8
0
  6
Continuous
 62
     7
370
    25
100
AcDbSpline
210
0.0
220
0.0
230
1.0
 70
     8
 71
     3
 72
    46
 73
    42
 74
     0
 42
0.00000001
 43
0.0000000001
 40
0.0
 40
0.0
 40
0.0
 40
0.0
 40
0.0221600658874356
 40
0.0488385528575387
 40
0.0732097865022571
 40
0.0961980254309609
 40
0.1248292540295297
 40
0.1508521738971645
 40
0.1742128738031467
 40
0.1949547172862421
 40
0.2130964309614564
 40
0.2292496042420357
 40
0.2453908391855243
 40
0.2616692722582855
 40
0.2780851834129277
 40
0.3113209530932303
 40
0.3451063101647906
 40
0.3790991846123962
 40
0.4130921095797355
 40
0.4470786865307549
 40
0.4810590099006687
 40
0.5150374752742973
 40
0.5490196284503197
 40
0.5830089604864837
 40
0.6166098257882739
 40
0.6488361994602894
 40
0.67963877263215
 40
0.6974399843031991
 40
0.7151267411069798
 40
0.736169475897817
 40
0.7613733409416439
 40
0.7907309968028003
 40
0.8183670251276295
 40
0.8489294723668081
 40
0.8824549574544237
 40
0.9002266372844175
 40
0.9185622379218312
 40
0.9376445224807309
 40
0.9579579148759783
 40
0.9794909815228711
 40
1.0
 40
1.0
 40
1.0
 40
1.0
 10
29.03752027039912
 20
25.18165716943897
 30
0.0
 10
28.90697801776795
 20
26.86865386964569
 30
0.0
 10
28.61927604352035
 20
30.5866246524064
 30
0.0
 10
27.63381467859918
 20
36.09765500802782
 30
0.0
 10
26.19584232331237
 20
41.56721907181563
 30
0.0
 10
24.31033548840036
 20
47.05685786512114
 30
0.0
 10
21.97196216482116
 20
52.50999962757484
 30
0.0
 10
19.16792736217351
 20
57.77039080923557
 30
0.0
 10
16.28983462116423
 20
62.2885568305206
 30
0.0
 10
13.46916687525627
 20
66.11527105565206
 30
0.0
 10
10.77896349799919
 20
69.34422352317056
 30
0.0
 10
8.162355419778906
 20
72.16979648580906
 30
0.0
 10
5.510885832428181
 20
74.76302281122316
 30
0.0
 10
2.717904612104173
 20
77.2337573146647
 30
0.0
 10
-1.215396725715599
 20
80.37514271798306
 30
0.0
 10
-6.4898856679955
 20
83.9652058451613
 30
0.0
 10
-13.28792892777967
 20
87.63085441030346
 30
0.0
 10
-20.48402154508027
 20
90.59278015198199
 30
0.0
 10
-27.96458112610078
 20
92.7919282650429
 30
0.0
 10
-35.63272964116781
 20
94.19889896344656
 30
0.0
 10
-43.40473569287694
 20
94.79836546548813
 30
0.0
 10
-51.19648379549794
 20
94.58288307198937
 30
0.0
 10
-58.92401993975544
 20
93.55622165056765
 30
0.0
 10
-66.4739305704802
 20
91.73476671024664
 30
0.0
 10
-73.66801356760969
 20
89.18647433455172
 30
0.0
 10
-80.3458307047388
 20
86.0281207097214
 30
0.0
 10
-85.65062066362104
 20
82.85939909829085
 30
0.0
 10
-89.79005870447048
 20
79.94617974778602
 30
0.0
 10
-93.17960796037437
 20
77.27305129011995
 30
0.0
 10
-96.82715874095251
 20
74.02654273087602
 30
0.0
 10
-100.8567950497443
 20
69.88817340463622
 30
0.0
 10
-104.8487903447339
 20
65.0372114257342
 30
0.0
 10
-108.6347206513348
 20
59.52099935209602
 30
0.0
 10
-112.0661136473015
 20
53.40669965680278
 30
0.0
 10
-114.5646614804973
 20
47.66702695971232
 30
0.0
 10
-116.3111565732869
 20
42.64555871395018
 30
0.0
 10
-117.4855994660019
 20
38.59810414284723
 30
0.0
 10
-118.4643968792487
 20
34.29863322129321
 30
0.0
 10
-119.1846087779488
 20
29.70148363267531
 30
0.0
 10
-119.6393405512508
 20
24.95955638357903
 30
0.0
 10
-119.7099919848493
 20
21.75067821212749
 30
0.0
 10
-119.7444572487112
 20
20.18531955983861
 30
0.0
  0
LINE
  5
7A
330
1F
100
AcDbEntity
  8
0
  6
Continuous
 62
     7
370
    25
100
AcDbLine
 10
-100.7444572487
 20
-42.45468044019999
 30
0.0
 11
-100.7444572487
 21
20.1853195598
 31
0.0
  0
LINE
  5
7B
330
1F
100
AcDbEntity
  8
0
  6
Continuous
 62
     7
370
    25
100
AcDbLine
 10
-119.7444572487
 20
20.1853195598
 30
0.0
 11
-119.7444572487
 21
-42.45468044019999
 31
0.0
  0
LINE
  5
7C
330
1F
100
AcDbEntity
  8
0
  6
Continuous
 62
     7
370
    25
100
AcDbLine
 10
-90.2444572487
 20
-77.4546804402
 30
0.0
 11
-90.2444572487
 21
-42.45468044019999
 31
0.0
  0
LINE
  5
7D
330
1F
100
AcDbEntity
  8
0
  6
Continuous
 62
     7
370
    25
100
AcDbLine
 10
-130.2444572487
 20
-42.45468044019999
 30
0.0
 11
-130.2444572487
 21
-77.4546804402
 31
0.0
  0
LINE
  5
7E
330
1F
100
AcDbEntity
  8
0
  6
Continuous
 62
     7
370
    25
100
AcDbLine
 10
-109.3685909981
 20
-47.4546804402
 30
0.0
 11
-109.9481107454
 21
-47.4546804402
 31
0.0
  0
LINE
  5
7F
330
1F
100
AcDbEntity
  8
0
  6
Continuous
 62
     7
370
    25
100
AcDbLine
 10
-109.9481107454
 20
-55.45468044020001
 30
0.0
 11
-109.3685909981
 21
-55.45468044020001
 31
0.0
  0
LINE
  5
80
330
1F
100
AcDbEntity
  8
0
  6
Continuous
 62
     7
370
    25
100
AcDbLine
 10
-90.2444572487
 20
-82.95468044020001
 30
0.0
 11
-90.2444572487
 21
-77.4546804402
 31
0.0
  0
LINE
  5
81
330
1F
100
AcDbEntity
  8
0
  6
Continuous
 62
     7
370
    25
100
AcDbLine
 10
-130.2444572487
 20
-77.4546804402
 30
0.0
 11
-130.2444572487
 21
-82.95468044020001
 31
0.0
  0
LINE
  5
82
330
1F
100
AcDbEntity
  8
0
  6
Continuous
 62
     7
370
    25
100
AcDbLine
 10
-92.4944572487
 20
-82.95468044020001
 30
0.0
 11
-92.4944572487
 21
-77.4546804402
 31
0.0
  0
LINE
  5
83
330
1F
100
AcDbEntity
  8
0
  6
Continuous
 62
     7
370
    25
100
AcDbLine
 10
-127.9944572487
 20
-77.4546804402
 30
0.0
 11
-127.9944572487
 21
-82.95468044020001
 31
0.0
  0
LINE
  5
84
330
1F
100
AcDbEntity
  8
0
  6
Continuous
 62
     7
370
    25
100
AcDbLine
 10
-83.24445724870001
 20
-85.45468044020001
 30
0.0
 11
-83.24445724870001
 21
-82.95468044020001
 31
0.0
  0
LINE
  5
85
330
1F
100
AcDbEntity
  8
0
  6
Continuous
 62
     7
370
    25
100
AcDbLine
 10
-137.2444572487
 20
-82.95468044020001
 30
0.0
 11
-137.2444572487
 21
-85.45468044020001
 31
0.0
  0
LINE
  5
86
330
1F
100
AcDbEntity
  8
0
  6
Continuous
 62
     7
370
    25
100
AcDbLine
 10
29.0805427513
 20
20.5453195598
 30
0.0
 11
10.0305427513
 21
20.5453195598
 31
0.0
  0
LINE
  5
87
330
1F
100
AcDbEntity
  8
0
  6
Continuous
 62
     7
370
    25
100
AcDbLine
 10
29.0805427513
 20
-0.4546804402000001
 30
0.0
 11
10.0305427513
 21
-0.4546804402000001
 31
0.0
  0
SPLINE
  5
88
330
1F
100
AcDbEntity
  8
0
  6
Continuous
 62
     7
370
    25
100
AcDbSpline
210
0.0
220
0.0
230
1.0
 70
    24
 71
     3
 72
    23
 73
    19
 74
     0
 42
0.00000001
 43
0.0000000001
 40
0.0
 40
0.0
 40
0.0
 40
0.0
 40
0.0624896110266029
 40
0.1247815118345505
 40
0.1874112565222576
 40
0.2498324469353004
 40
0.3123010400548256
 40
0.3749094228362577
 40
0.4372118365076168
 40
0.5000222898311354
 40
0.5627001597529832
 40
0.6251200923395454
 40
0.6875868242715616
 40
0.7501909576512296
 40
0.8124909757776526
 40
0.8751486868680279
 40
0.9374683599052811
 40
1.0
 40
1.0
 40
1.0
 40
1.0
 10
29.07746725225577
 20
25.18531955983859
 30
0.0
 10
29.04221945739426
 20
25.18531955983859
 30
0.0
 10
28.97183538779623
 20
25.18531955983859
 30
0.0
 10
28.40613324973356
 20
25.18531955983856
 30
0.0
 10
27.52741276572353
 20
25.18531955983859
 30
0.0
 10
26.33466293327363
 20
25.18531955983861
 30
0.0
 10
24.88428622240992
 20
25.18531955983859
 30
0.0
 10
23.23027395015522
 20
25.18531955983856
 30
0.0
 10
21.43309856731631
 20
25.18531955983859
 30
0.0
 10
19.56325426465169
 20
25.18531955983861
 30
0.0
 10
17.69236045360214
 20
25.18531955983861
 30
0.0
 10
15.896691389841
 20
25.18531955983859
 30
0.0
 10
14.24170248975576
 20
25.18531955983864
 30
0.0
 10
12.79193860578187
 20
25.18531955983859
 30
0.0
 10
11.59842011900469
 20
25.18531955983859
 30
0.0
 10
10.71902208010562
 20
25.18531955983853
 30
0.0
 10
10.1523431041771
 20
25.18531955983864
 30
0.0
 10
10.08151823887365
 20
25.18531955983861
 30
0.0
 10
10.04604568455435
 20
25.18531955983859
 30
0.0
  0
SPLINE
  5
89
330
1F
100
AcDbEntity
  8
0
  6
Continuous
 62
     7
370
    25
100
AcDbSpline
210
0.0
220
0.0
230
1.0
 70
    24
 71
     3
 72
    23
 73
    19
 74
     0
 42
0.00000001
 43
0.0000000001
 40
0.0
 40
0.0
 40
0.0
 40
0.0
 40
0.0624896110266029
 40
0.1247815118345505
 40
0.1874112565222576
 40
0.2498324469353004
 40
0.3123010400548256
 40
0.3749094228362577
 40
0.4372118365076168
 40
0.5000222898311354
 40
0.5627001597529832
 40
0.6251200923395454
 40
0.6875868242715616
 40
0.7501909576512296
 40
0.8124909757776526
 40
0.8751486868680279
 40
0.9374683599052811
 40
1.0
 40
1.0
 40
1.0
 40
1.0
 10
29.07746725225577
 20
20.58531955983859
 30
0.0
 10
29.04221945739426
 20
20.58531955983857
 30
0.0
 10
28.97183538779623
 20
20.58531955983859
 30
0.0
 10
28.40613324973356
 20
20.58531955983859
 30
0.0
 10
27.52741276572353
 20
20.58531955983859
 30
0.0
 10
26.33466293327366
 20
20.58531955983862
 30
0.0
 10
24.88428622240992
 20
20.58531955983854
 30
0.0
 10
23.23027395015522
 20
20.58531955983862
 30
0.0
 10
21.43309856731631
 20
20.58531955983854
 30
0.0
 10
19.56325426465169
 20
20.58531955983865
 30
0.0
 10
17.69236045360214
 20
20.58531955983859
 30
0.0
 10
15.896691389841
 20
20.58531955983859
 30
0.0
 10
14.24170248975576
 20
20.58531955983859
 30
0.0
 10
12.79193860578187
 20
20.58531955983862
 30
0.0
 10
11.59842011900469
 20
20.58531955983857
 30
0.0
 10
10.71902208010562
 20
20.58531955983857
 30
0.0
 10
10.1523431041771
 20
20.58531955983868
 30
0.0
 10
10.08151823887365
 20
20.58531955983859
 30
0.0
 10
10.04604568455435
 20
20.58531955983859
 30
0.0
  0
SPLINE
  5
8A
330
1F
100
AcDbEntity
  8
0
  6
Continuous
 62
     7
370
    25
100
AcDbSpline
210
0.0
220
0.0
230
1.0
 70
     8
 71
     3
 72
    14
 73
    10
 74
     0
 42
0.00000001
 43
0.0000000001
 40
0.0
 40
0.0
 40
0.0
 40
0.0
 40
0.1701642112642242
 40
0.3467316137719864
 40
0.4966055275346541
 40
0.6512490289844138
 40
0.7943254613042419
 40
0.9416821255831251
 40
1.0
 40
1.0
 40
1.0
 40
1.0
 10
-112.8207419925499
 20
-54.24636295313103
 30
0.0
 10
-112.6434131479096
 20
-54.42145991632517
 30
0.0
 10
-112.2820826659379
 20
-54.77824265086041
 30
0.0
 10
-111.6520772733004
 20
-55.15357456671526
 30
0.0
 10
-110.9918642797555
 20
-55.40550847977428
 30
0.0
 10
-110.3429120529219
 20
-55.52961906034709
 30
0.0
 10
-109.6892060593878
 20
-55.53475484416722
 30
0.0
 10
-109.1770337290641
 20
-55.47047042647704
 30
0.0
 10
-108.8932527024131
 20
-55.36998447678705
 30
0.0
 10
-108.8127881666516
 20
-55.34149224322309
 30
0.0
  0
SPLINE
  5
8B
330
1F
100
AcDbEntity
  8
0
  6
Continuous
 62
     7
370
    25
100
AcDbSpline
210
0.0
220
0.0
230
1.0
 70
     8
 71
     3
 72
    16
 73
    12
 74
     0
 42
0.00000001
 43
0.0000000001
 40
0.0
 40
0.0
 40
0.0
 40
0.0
 40
0.0308480905090842
 40
0.1591962472430316
 40
0.2914952538691356
 40
0.4162403017275634
 40
0.5445215658255327
 40
0.6709740053156589
 40
0.8008134986409899
 40
0.9325660085601587
 40
1.0
 40
1.0
 40
1.0
 40
1.0
 10
-108.9534615465501
 20
-47.52491306114354
 30
0.0
 10
-109.0017395572651
 20
-47.50825515356424
 30
0.0
 10
-109.2508855498807
 20
-47.42228949637835
 30
0.0
 10
-109.7376082337758
 20
-47.37316744454401
 30
0.0
 10
-110.3775309973576
 20
-47.38389073115776
 30
0.0
 10
-111.0075594976852
 20
-47.51109351157448
 30
0.0
 10
-111.5979396214431
 20
-47.73383298396407
 30
0.0
 10
-112.1519867054171
 20
-48.0532200467663
 30
0.0
 10
-112.6467272117383
 20
-48.46343394609277
 30
0.0
 10
-113.0194053818973
 20
-48.86548508365006
 30
0.0
 10
-113.1879173317892
 20
-49.14893519186349
 30
0.0
 10
-113.244966546013
 20
-49.24489637417493
 30
0.0
  0
LINE
  5
8C
330
1F
100
AcDbEntity
  8
0
  6
Continuous
 62
     7
370
    25
100
AcDbLine
 10
-130.2423396021
 20
-42.45468044019999
 30
0.0
 11
-130.2444572487
 21
-42.45468044019999
 31
0.0
  0
LINE
  5
8D
330
1F
100
AcDbEntity
  8
0
  6
Continuous
 62
     7
370
    25
100
AcDbLine
 10
-90.2444572487
 20
-42.45468044019999
 30
0.0
 11
-130.2423396021
 21
-42.45468044019999
 31
0.0
  0
LINE
  5
8E
330
1F
100
AcDbEntity
  8
0
  6
Continuous
 62
     7
370
    25
100
AcDbLine
 10
-130.2423396021
 20
-77.4546804402
 30
0.0
 11
-130.2444572487
 21
-77.4546804402
 31
0.0
  0
LINE
  5
8F
330
1F
100
AcDbEntity
  8
0
  6
Continuous
 62
     7
370
    25
100
AcDbLine
 10
-90.2444572487
 20
-77.4546804402
 30
0.0
 11
-130.2423396021
 21
-77.4546804402
 31
0.0
  0
ARC
  5
90
330
1F
100
AcDbEntity
  8
0
  6
Continuous
 62
     7
370
    25
100
AcDbCircle
 10
-109.9477874103
 20
-51.45468044020001
 30
0.0
 40
4.000000013068205
100
AcDbArc
 50
90.0046314341
 51
269.9953685659
  0
CIRCLE
  5
91
330
1F
100
AcDbEntity
  8
0
  6
Continuous
 62
     7
370
    25
100
AcDbCircle
 10
-109.3687832547
 20
-51.4550120297
 30
0.0
 40
3.999701741884748
  0
LINE
  5
92
330
1F
100
AcDbEntity
  8
0
  6
Continuous
 62
     7
370
    25
100
AcDbLine
 10
-137.0817031692
 20
-82.95468044020001
 30
0.0
 11
-137.2444572487
 21
-82.95468044020001
 31
0.0
  0
LINE
  5
93
330
1F
100
AcDbEntity
  8
0
  6
Continuous
 62
     7
370
    25
100
AcDbLine
 10
-83.24445724870001
 20
-82.95468044020001
 30
0.0
 11
-137.0817031692
 21
-82.95468044020001
 31
0.0
  0
LINE
  5
94
330
1F
100
AcDbEntity
  8
0
  6
Continuous
 62
     7
370
    25
100
AcDbLine
 10
-137.0817031692
 20
-85.45468044020001
 30
0.0
 11
-137.2444572487
 21
-85.45468044020001
 31
0.0
  0
LINE
  5
95
330
1F
100
AcDbEntity
  8
0
  6
Continuous
 62
     7
370
    25
100
AcDbLine
 10
-83.24445724870001
 20
-85.45468044020001
 30
0.0
 11
-137.0817031692
 21
-85.45468044020001
 31
0.0
  0
POINT
  5
96
330
1F
100
AcDbEntity
  8
0
  6
Continuous
 62
     7
370
     0
100
AcDbPoint
 10
-49.8060967213
 20
94.5453195598
 30
0.0
  0
POINT
  5
97
330
1F
100
AcDbEntity
  8
0
  6
Continuous
 62
     7
370
     0
100
AcDbPoint
 10
-110.2444572487
 20
-85.45468044020001
 30
0.0
  0
POINT
  5
98
330
1F
100
AcDbEntity
  8
0
  6
Continuous
 62
     7
370
     0
100
AcDbPoint
 10
19.5555427513
 20
-0.4546804402000001
 30
0.0
  0
DIMENSION
  5
99
102
{ACAD_XDICTIONARY
360
225
102
}
330
1F
100
AcDbEntity
  8
DIMENSION
100
AcDbDimension
280
     0
  2
*D14
 10
-165.2444535359
 20
-85.45468044020005
 30
0.0
 11
-165.2444535359
 21
11.8306895766
 31
0.0
 70
   160
  1
<>
 71
     2
 42
180.0
 73
     0
 74
     0
 75
     0
  3
RG Dimension Lines
100
AcDbAlignedDimension
 13
-49.8060967213
 23
94.5453195598
 33
0.0
 14
-137.2444572487
 24
-85.45468044020001
 34
0.0
 50
90.0
100
AcDbRotatedDimension
1001
AcadAnnotative
1000
AnnotativeData
1002
{
1070
     1
1070
     1
1002
}
  0
DIMENSION
  5
A6
102
{ACAD_XDICTIONARY
360
217
102
}
330
1F
100
AcDbEntity
  8
DIMENSION
100
AcDbDimension
280
     0
  2
*D13
 10
19.55554275129999
 20
-107.4546804402
 30
0.0
 11
-48.34472230229999
 21
-107.4546804402
 31
0.0
 70
   160
  1
<>
 71
     2
 42
129.8
 73
     0
 74
     0
 75
     0
  3
RG Dimension Lines
100
AcDbAlignedDimension
 13
-110.2444572487
 23
-85.45468044020001
 33
0.0
 14
19.5555427513
 24
-0.4546804402000001
 34
0.0
100
AcDbRotatedDimension
1001
AcadAnnotative
1000
AnnotativeData
1002
{
1070
     1
1070
     1
1002
}
  0
DIMENSION
  5
AE
102
{ACAD_XDICTIONARY
360
209
102
}
330
1F
100
AcDbEntity
  8
DIMENSION
100
AcDbDimension
280
     0
  2
*D12
 10
57.55072054230002
 20
-0.4546804401999957
 30
0.0
 11
57.5507205423
 21
-44.92039803689999
 31
0.0
 70
   160
  1
<>
 71
     2
 42
85.0
 73
     0
 74
     0
 75
     0
  3
RG Dimension Lines
100
AcDbAlignedDimension
 13
-83.24445724870001
 23
-85.45468044020001
 33
0.0
 14
29.0805427513
 24
-0.4546804402000001
 34
0.0
 50
90.0
100
AcDbRotatedDimension
1001
AcadAnnotative
1000
AnnotativeData
1002
{
1070
     1
1070
     1
1002
}
  0
LINE
  5
B6
330
1F
100
AcDbEntity
  8
0
  6
Continuous
 62
     7
370
    25
100
AcDbLine
 10
371.6452323621
 20
-0.4546804402000001
 30
0.0
 11
371.6452323621
 21
20.5453195598
 31
0.0
  0
LINE
  5
B7
330
1F
100
AcDbEntity
  8
0
  6
Continuous
 62
     7
370
    25
100
AcDbLine
 10
352.5952323621
 20
20.5453195598
 30
0.0
 11
352.5952323621
 21
-0.4546804402000001
 31
0.0
  0
SPLINE
  5
B8
330
1F
100
AcDbEntity
  8
0
  6
Continuous
 62
     7
370
    25
100
AcDbSpline
210
0.0
220
0.0
230
1.0
 70
    24
 71
     3
 72
    27
 73
    23
 74
     0
 42
0.00000001
 43
0.0000000001
 40
0.0
 40
0.0
 40
0.0
 40
0.0
 40
0.0413790905705762
 40
0.0957129295410824
 40
0.1465345512954509
 40
0.2161723289698065
 40
0.277920219389191
 40
0.3216401867021156
 40
0.3602984356223253
 40
0.3938890367318068
 40
0.4224109458302587
 40
0.4506881907648924
 40
0.4932781292641932
 40
0.5439290280633805
 40
0.6026430652786069
 40
0.6694155237275767
 40
0.7184202223990605
 40
0.7710083300710647
 40
0.827180650684583
 40
0.8869357272426087
 40
0.9502734641601875
 40
1.0
 40
1.0
 40
1.0
 40
1.0
 10
371.6202323620661
 20
25.18527429332028
 30
0.0
 10
371.6202323620661
 20
26.52105551112428
 30
0.0
 10
371.6202323620661
 20
29.61081731639912
 30
0.0
 10
371.6202323620661
 20
34.27925254088449
 30
0.0
 10
371.6202323620661
 20
39.75428419153332
 30
0.0
 10
371.6202323620661
 20
45.30807463302961
 30
0.0
 10
371.6202323620661
 20
50.42876365188872
 30
0.0
 10
371.6202323620661
 20
54.46782695281372
 30
0.0
 10
371.6202323620661
 20
57.59571097739164
 30
0.0
 10
371.6202323620661
 20
60.21203837746329
 30
0.0
 10
371.6202323620661
 20
62.47476529656749
 30
0.0
 10
371.6202323620661
 20
64.87388759181803
 30
0.0
 10
371.6202323620661
 20
67.66566158105032
 30
0.0
 10
371.6202323620661
 20
70.90699412713179
 30
0.0
 10
371.6202323620661
 20
74.3027365787852
 30
0.0
 10
371.6202323620661
 20
77.22716058990521
 30
0.0
 10
371.6202323620661
 20
79.63308757486631
 30
0.0
 10
371.6202323620661
 20
81.53277377559723
 30
0.0
 10
371.6202323620661
 20
83.14839775983097
 30
0.0
 10
371.6202323620661
 20
84.36312681946768
 30
0.0
 10
371.6202323620661
 20
85.09443219189394
 30
0.0
 10
371.6202323620661
 20
85.11437418261406
 30
0.0
 10
371.6202323620661
 20
85.12314482334852
 30
0.0
  0
SPLINE
  5
B9
330
1F
100
AcDbEntity
  8
0
  6
Continuous
 62
     7
370
    25
100
AcDbSpline
210
0.0
220
0.0
230
1.0
 70
    24
 71
     3
 72
    27
 73
    23
 74
     0
 42
0.00000001
 43
0.0000000001
 40
0.0
 40
0.0
 40
0.0
 40
0.0
 40
0.0407012303247962
 40
0.0950588423264041
 40
0.1459021816416709
 40
0.215560753287115
 40
0.2773156052190163
 40
0.3210328841560313
 40
0.3596896426769077
 40
0.3932858394791953
 40
0.4218214844503665
 40
0.4500930980661379
 40
0.4926780302310246
 40
0.5433179145382557
 40
0.602020216826293
 40
0.6687993529081484
 40
0.7178114594601004
 40
0.7703969362370478
 40
0.8265548111959269
 40
0.8862852457186669
 40
0.9495910637280731
 40
1.0
 40
1.0
 40
1.0
 40
1.0
 10
352.6202323620661
 20
85.13447972381753
 30
0.0
 10
352.6202323620661
 20
85.13238367853949
 30
0.0
 10
352.6202323620661
 20
85.12748830717105
 30
0.0
 10
352.6202323620661
 20
84.60847641684795
 30
0.0
 10
352.6202323620661
 20
83.60977956644312
 30
0.0
 10
352.6202323620661
 20
82.03136166984615
 30
0.0
 10
352.6202323620661
 20
79.99210971688213
 30
0.0
 10
352.6202323620661
 20
77.97603041993685
 30
0.0
 10
352.6202323620661
 20
76.14950527709898
 30
0.0
 10
352.6202323620661
 20
74.41054368537802
 30
0.0
 10
352.6202323620661
 20
72.73755630905933
 30
0.0
 10
352.6202323620661
 20
70.78807742867216
 30
0.0
 10
352.6202323620661
 20
68.2419746899603
 30
0.0
 10
352.6202323620661
 20
64.80330848199243
 30
0.0
 10
352.6202323620661
 20
60.49616008349882
 30
0.0
 10
352.6202323620661
 20
55.89723629812205
 30
0.0
 10
352.6202323620661
 20
51.20643431859241
 30
0.0
 10
352.6202323620661
 20
46.62459138885752
 30
0.0
 10
352.6202323620661
 20
41.5512452789382
 30
0.0
 10
352.6202323620661
 20
35.98861052842084
 30
0.0
 10
352.6202323620661
 20
30.48294035553851
 30
0.0
 10
352.6202323620661
 20
26.81239049375451
 30
0.0
 10
352.6202323620661
 20
25.18526202449862
 30
0.0
  0
SPLINE
  5
BA
330
1F
100
AcDbEntity
  8
0
  6
Continuous
 62
     7
370
    25
100
AcDbSpline
210
0.0
220
0.0
230
1.0
 70
     8
 71
     3
 72
    19
 73
    15
 74
     0
 42
0.00000001
 43
0.0000000001
 40
0.0
 40
0.0
 40
0.0
 40
0.0
 40
0.0898293212498938
 40
0.1775227991214911
 40
0.2536182257488978
 40
0.3095957931619941
 40
0.3908772042527427
 40
0.4805985931451415
 40
0.5654934445831313
 40
0.6523520746636875
 40
0.7240495752829578
 40
0.8120045114211901
 40
0.9070675622997999
 40
1.0
 40
1.0
 40
1.0
 40
1.0
 10
371.6202323620661
 20
85.1629033841252
 30
0.0
 10
371.5521086065286
 20
86.03616324291674
 30
0.0
 10
371.4174808524568
 20
87.76191973685545
 30
0.0
 10
370.3742472300886
 20
90.08382436214384
 30
0.0
 10
369.0234151525954
 20
91.8135775848124
 30
0.0
 10
367.3762054668742
 20
93.18992179263307
 30
0.0
 10
365.3283385921684
 20
94.25294366251192
 30
0.0
 10
362.7786580792846
 20
94.78536714324587
 30
0.0
 10
360.1295472467936
 20
94.59639482446162
 30
0.0
 10
357.7957364331054
 20
93.75694541130524
 30
0.0
 10
355.7420359902608
 20
92.36279383273044
 30
0.0
 10
354.0567303381598
 20
90.43825200094689
 30
0.0
 10
352.8472073660684
 20
87.92181637624223
 30
0.0
 10
352.6953168888994
 20
86.07556633350235
 30
0.0
 10
352.6202323620661
 20
85.16290338412522
 30
0.0
  0
LINE
  5
BB
330
1F
100
AcDbEntity
  8
0
  6
Continuous
 62
     7
370
    25
100
AcDbLine
 10
371.6202323621
 20
20.5853195598
 30
0.0
 11
371.6202323621
 21
25.1853195598
 31
0.0
  0
LINE
  5
BC
330
1F
100
AcDbEntity
  8
0
  6
Continuous
 62
     7
370
    25
100
AcDbLine
 10
352.6202323652
 20
25.1853195598
 30
0.0
 11
352.6202323652
 21
20.5853195598
 31
0.0
  0
LINE
  5
BD
330
1F
100
AcDbEntity
  8
0
  6
Continuous
 62
     7
370
    25
100
AcDbLine
 10
371.6202323621
 20
-76.9546804402
 30
0.0
 11
371.6202323621
 21
-0.4546804402000001
 31
0.0
  0
LINE
  5
BE
330
1F
100
AcDbEntity
  8
0
  6
Continuous
 62
     7
370
    25
100
AcDbLine
 10
352.6202323621
 20
-0.4546804402000001
 30
0.0
 11
352.6202323621
 21
-76.9546804402
 31
0.0
  0
LINE
  5
BF
330
1F
100
AcDbEntity
  8
0
  6
Continuous
 62
     7
370
    25
100
AcDbLine
 10
261.9110441774
 20
-77.4546804402
 30
0.0
 11
261.9110441774
 21
-42.45468044019999
 31
0.0
  0
LINE
  5
C0
330
1F
100
AcDbEntity
  8
0
  6
Continuous
 62
     7
370
    25
100
AcDbLine
 10
221.9110441774
 20
-55.5058280777
 30
0.0
 11
221.9110441774
 21
-77.4546804402
 31
0.0
  0
LINE
  5
C1
330
1F
100
AcDbEntity
  8
0
  6
Continuous
 62
     7
370
    25
100
AcDbLine
 10
221.9110441774
 20
-42.45468044019999
 30
0.0
 11
221.9110441774
 21
-47.41276684899999
 31
0.0
  0
LINE
  5
C2
330
1F
100
AcDbEntity
  8
0
  6
Continuous
 62
     7
370
    25
100
AcDbLine
 10
181.7276661737
 20
-55.45468044020001
 30
0.0
 11
221.5481935487
 21
-55.45468044020001
 31
0.0
  0
LINE
  5
C3
330
1F
100
AcDbEntity
  8
0
  6
Continuous
 62
     7
370
    25
100
AcDbLine
 10
221.5481935487
 20
-47.4546804402
 30
0.0
 11
181.7276661737
 21
-47.4546804402
 31
0.0
  0
LINE
  5
C4
330
1F
100
AcDbEntity
  8
0
  6
Continuous
 62
     7
370
    25
100
AcDbLine
 10
221.5484205294
 20
-55.4546500272
 30
0.0
 11
221.9317744194
 21
-55.3519190035
 31
0.0
  0
LINE
  5
C5
330
1F
100
AcDbEntity
  8
0
  6
Continuous
 62
     7
370
    25
100
AcDbLine
 10
221.9314293273
 20
-47.55734939909999
 30
0.0
 11
221.5484205294
 21
-47.4547108531
 31
0.0
  0
LINE
  5
C6
330
1F
100
AcDbEntity
  8
0
  6
Continuous
 62
     7
370
    25
100
AcDbLine
 10
382.1202323621
 20
-82.95468044020001
 30
0.0
 11
382.1202323621
 21
-76.9546804402
 31
0.0
  0
LINE
  5
C7
330
1F
100
AcDbEntity
  8
0
  6
Continuous
 62
     7
370
    25
100
AcDbLine
 10
342.1202323621
 20
-76.9546804402
 30
0.0
 11
342.1202323621
 21
-82.95468044020001
 31
0.0
  0
LINE
  5
C8
330
1F
100
AcDbEntity
  8
0
  6
Continuous
 62
     7
370
    25
100
AcDbLine
 10
502.1123363185999
 20
-47.42911779359999
 30
0.0
 11
502.1123363185999
 21
-42.45468044019999
 31
0.0
  0
LINE
  5
C9
330
1F
100
AcDbEntity
  8
0
  6
Continuous
 62
     7
370
    25
100
AcDbLine
 10
502.1123363185999
 20
-77.4546804402
 30
0.0
 11
502.1123363185999
 21
-55.485303536
 31
0.0
  0
LINE
  5
CA
330
1F
100
AcDbEntity
  8
0
  6
Continuous
 62
     7
370
    25
100
AcDbLine
 10
462.1123363186
 20
-42.45468044019999
 30
0.0
 11
462.1123363186
 21
-77.4546804402
 31
0.0
  0
LINE
  5
CB
330
1F
100
AcDbEntity
  8
0
  6
Continuous
 62
     7
370
    25
100
AcDbLine
 10
499.8623363185999
 20
-82.95468044020001
 30
0.0
 11
499.8623363185999
 21
-77.4546804402
 31
0.0
  0
LINE
  5
CC
330
1F
100
AcDbEntity
  8
0
  6
Continuous
 62
     7
370
    25
100
AcDbLine
 10
464.3623363186
 20
-77.4546804402
 30
0.0
 11
464.3623363186
 21
-82.95468044020001
 31
0.0
  0
LINE
  5
CD
330
1F
100
AcDbEntity
  8
0
  6
Continuous
 62
     7
370
    25
100
AcDbLine
 10
259.6610441774
 20
-82.95468044020001
 30
0.0
 11
259.6610441774
 21
-77.4546804402
 31
0.0
  0
LINE
  5
CE
330
1F
100
AcDbEntity
  8
0
  6
Continuous
 62
     7
370
    25
100
AcDbLine
 10
224.1610441774
 20
-77.4546804402
 30
0.0
 11
224.1610441774
 21
-82.95468044020001
 31
0.0
  0
LINE
  5
CF
330
1F
100
AcDbEntity
  8
0
  6
Continuous
 62
     7
370
    25
100
AcDbLine
 10
389.1202323621
 20
-85.45468044020001
 30
0.0
 11
389.1202323621
 21
-82.95468044020001
 31
0.0
  0
LINE
  5
D0
330
1F
100
AcDbEntity
  8
0
  6
Continuous
 62
     7
370
    25
100
AcDbLine
 10
335.1202323621
 20
-82.95468044020001
 30
0.0
 11
335.1202323621
 21
-85.45468044020001
 31
0.0
  0
LINE
  5
D1
330
1F
100
AcDbEntity
  8
0
  6
Continuous
 62
     7
370
    25
100
AcDbLine
 10
268.9110441774
 20
-85.45468044020001
 30
0.0
 11
268.9110441774
 21
-82.95468044020001
 31
0.0
  0
LINE
  5
D2
330
1F
100
AcDbEntity
  8
0
  6
Continuous
 62
     7
370
    25
100
AcDbLine
 10
214.9110441774
 20
-82.95468044020001
 30
0.0
 11
214.9110441774
 21
-85.45468044020001
 31
0.0
  0
LINE
  5
D3
330
1F
100
AcDbEntity
  8
0
  6
Continuous
 62
     7
370
    25
100
AcDbLine
 10
509.1123363186
 20
-85.45468044020001
 30
0.0
 11
509.1123363186
 21
-82.95468044020001
 31
0.0
  0
LINE
  5
D4
330
1F
100
AcDbEntity
  8
0
  6
Continuous
 62
     7
370
    25
100
AcDbLine
 10
455.1123363185999
 20
-82.95468044020001
 30
0.0
 11
455.1123363185999
 21
-85.45468044020001
 31
0.0
  0
LINE
  5
D5
330
1F
100
AcDbEntity
  8
0
  6
Continuous
 62
     7
370
    25
100
AcDbLine
 10
542.1486556012999
 20
-47.4546804402
 30
0.0
 11
502.3239114895999
 21
-47.4546804402
 31
0.0
  0
LINE
  5
D6
330
1F
100
AcDbEntity
  8
0
  6
Continuous
 62
     7
370
    25
100
AcDbLine
 10
502.3239114895999
 20
-55.45468044020001
 30
0.0
 11
542.1486556012999
 21
-55.45468044020001
 31
0.0
  0
LINE
  5
D7
330
1F
100
AcDbEntity
  8
0
  6
Continuous
 62
     7
370
    25
100
AcDbLine
 10
502.3239114895999
 20
-47.4546804402
 30
0.0
 11
502.1123363185999
 21
-47.5113718364
 31
0.0
  0
LINE
  5
D8
330
1F
100
AcDbEntity
  8
0
  6
Continuous
 62
     7
370
    25
100
AcDbLine
 10
502.1093799093
 20
-55.39719687649999
 30
0.0
 11
502.3239114895999
 21
-55.45468044020001
 31
0.0
  0
LINE
  5
D9
330
1F
100
AcDbEntity
  8
0
  6
Continuous
 62
     7
370
    25
100
AcDbLine
 10
371.6452323621
 20
20.5453195598
 30
0.0
 11
352.5952323621
 21
20.5453195598
 31
0.0
  0
LINE
  5
DA
330
1F
100
AcDbEntity
  8
0
  6
Continuous
 62
     7
370
    25
100
AcDbLine
 10
371.6452323621
 20
-0.4546804402000001
 30
0.0
 11
352.5952323621
 21
-0.4546804402000001
 31
0.0
  0
SPLINE
  5
DB
330
1F
100
AcDbEntity
  8
0
  6
Continuous
 62
     7
370
    25
100
AcDbSpline
210
0.0
220
0.0
230
1.0
 70
    24
 71
     3
 72
    24
 73
    20
 74
     0
 42
0.00000001
 43
0.0000000001
 40
0.0
 40
0.0
 40
0.0
 40
0.0
 40
0.0623236791625653
 40
0.1248204685571364
 40
0.1869949427988265
 40
0.2495305185217357
 40
0.3117427992265122
 40
0.3741841859424623
 40
0.4365971096300198
 40
0.4988351922783686
 40
0.561365957043838
 40
0.6235383805412021
 40
0.6860479999259282
 40
0.7483494650479259
 40
0.8106982419569156
 40
0.8731865404079986
 40
0.9353694566048583
 40
0.9980594380220408
 40
1.0
 40
1.0
 40
1.0
 40
1.0
 10
371.6202323620661
 20
25.18531955983861
 30
0.0
 10
371.5849938454555
 20
25.18531955983861
 30
0.0
 10
371.5144189337414
 20
25.18531955983859
 30
0.0
 10
370.9506575302821
 20
25.18531955983856
 30
0.0
 10
370.0734195847073
 20
25.18531955983861
 30
0.0
 10
368.8850296819519
 20
25.18531955983856
 30
0.0
 10
367.4364841346723
 20
25.18531955983856
 30
0.0
 10
365.7836445942559
 20
25.18531955983861
 30
0.0
 10
363.9893481812956
 20
25.18531955983859
 30
0.0
 10
362.1221740468799
 20
25.18531955983861
 30
0.0
 10
360.2571637749424
 20
25.1853195598385
 30
0.0
 10
358.4615027763591
 20
25.18531955983864
 30
0.0
 10
356.8089827872415
 20
25.18531955983853
 30
0.0
 10
355.3589979791275
 20
25.18531955983859
 30
0.0
 10
354.1722754584719
 20
25.18531955983867
 30
0.0
 10
353.2804871860052
 20
25.18531955983856
 30
0.0
 10
352.7694718432501
 20
25.18531955983886
 30
0.0
 10
352.5590013909978
 20
25.18531955983789
 30
0.0
 10
352.6239792789219
 20
25.18531955983861
 30
0.0
 10
352.6259302700801
 20
25.18531955983859
 30
0.0
  0
SPLINE
  5
DC
330
1F
100
AcDbEntity
  8
0
  6
Continuous
 62
     7
370
    25
100
AcDbSpline
210
0.0
220
0.0
230
1.0
 70
    24
 71
     3
 72
    23
 73
    19
 74
     0
 42
0.00000001
 43
0.0000000001
 40
0.0
 40
0.0
 40
0.0
 40
0.0
 40
0.0624490403817748
 40
0.1250715391988393
 40
0.187371074540891
 40
0.2500324377032121
 40
0.3123698555543148
 40
0.3749368402528139
 40
0.4374753046708455
 40
0.4998385763649455
 40
0.5624951188928069
 40
0.6247925993655544
 40
0.6874279539797099
 40
0.7498547356383946
 40
0.8123289242495584
 40
0.8749429150439917
 40
0.937250909321818
 40
1.0
 40
1.0
 40
1.0
 40
1.0
 10
371.6202323620661
 20
20.58531955983859
 30
0.0
 10
371.5849938453244
 20
20.58531955983857
 30
0.0
 10
371.5144189333478
 20
20.58531955983859
 30
0.0
 10
370.9506575318582
 20
20.58531955983859
 30
0.0
 10
370.0734195788174
 20
20.58531955983859
 30
0.0
 10
368.8850297040382
 20
20.58531955983862
 30
0.0
 10
367.4364840526052
 20
20.58531955983857
 30
0.0
 10
365.7836449017807
 20
20.58531955983859
 30
0.0
 10
363.9893470356656
 20
20.58531955983859
 30
0.0
 10
362.1221783175977
 20
20.58531955983857
 30
0.0
 10
360.2571477902591
 20
20.58531955983862
 30
0.0
 10
358.4615621785098
 20
20.58531955983857
 30
0.0
 10
356.8087600300756
 20
20.58531955983865
 30
0.0
 10
355.3598263664944
 20
20.58531955983854
 30
0.0
 10
354.1691780271407
 20
20.58531955983865
 30
0.0
 10
353.2920516062852
 20
20.58531955983857
 30
0.0
 10
352.7266047969503
 20
20.58531955983859
 30
0.0
 10
352.6559037014611
 20
20.58531955983862
 30
0.0
 10
352.6204284666637
 20
20.58531955983859
 30
0.0
  0
SPLINE
  5
DD
330
1F
100
AcDbEntity
  8
0
  6
Continuous
 62
     7
370
    25
100
AcDbSpline
210
0.0
220
0.0
230
1.0
 70
     8
 71
     3
 72
     9
 73
     5
 74
     0
 42
0.00000001
 43
0.0000000001
 40
0.0
 40
0.0
 40
0.0
 40
0.0
 40
0.8804158784389526
 40
1.0
 40
1.0
 40
1.0
 40
1.0
 10
221.9317744194072
 20
-55.35191900352374
 30
0.0
 10
221.9194990710965
 20
-55.43462557773426
 30
0.0
 10
221.9055564008071
 20
-55.52856592596736
 30
0.0
 10
221.912586250778
 20
-55.50825673451745
 30
0.0
 10
221.9134269092116
 20
-55.50582807769832
 30
0.0
  0
SPLINE
  5
DE
330
1F
100
AcDbEntity
  8
0
  6
Continuous
 62
     7
370
    25
100
AcDbSpline
210
0.0
220
0.0
230
1.0
 70
     8
 71
     3
 72
    17
 73
    13
 74
     0
 42
0.00000001
 43
0.0000000001
 40
0.0
 40
0.0
 40
0.0
 40
0.0
 40
0.0704700413107852
 40
0.1707611797253646
 40
0.2737893578490124
 40
0.3813429592626242
 40
0.4918951597339868
 40
0.603026140997029
 40
0.7141517566472371
 40
0.8249727103092647
 40
0.9330873257297406
 40
1.0
 40
1.0
 40
1.0
 40
1.0
 10
221.9220277891027
 20
-55.48395038742439
 30
0.0
 10
221.9270809312879
 20
-55.48040177990011
 30
0.0
 10
221.9393255746116
 20
-55.47180288601611
 30
0.0
 10
222.045757207385
 20
-54.97442711934329
 30
0.0
 10
222.1892361062006
 20
-54.11307201147189
 30
0.0
 10
222.3200015394582
 20
-52.92923643054414
 30
0.0
 10
222.3775861851909
 20
-51.55728445547079
 30
0.0
 10
222.3337396141227
 20
-50.15872074411954
 30
0.0
 10
222.2048294411234
 20
-48.90001001433748
 30
0.0
 10
222.0510949428313
 20
-47.95789257619015
 30
0.0
 10
221.9378621570504
 20
-47.42977986220149
 30
0.0
 10
221.9270696063556
 20
-47.43009203138998
 30
0.0
 10
221.9229436301695
 20
-47.43021137320957
 30
0.0
  0
LINE
  5
DF
330
1F
100
AcDbEntity
  8
0
  6
Continuous
 62
     7
370
    25
100
AcDbLine
 10
261.9110441774
 20
-42.45468044019999
 30
0.0
 11
221.9110441774
 21
-42.45468044019999
 31
0.0
  0
LINE
  5
E0
330
1F
100
AcDbEntity
  8
0
  6
Continuous
 62
     7
370
    25
100
AcDbLine
 10
261.9110441774
 20
-77.4546804402
 30
0.0
 11
221.9110441774
 21
-77.4546804402
 31
0.0
  0
ARC
  5
E1
330
1F
100
AcDbEntity
  8
0
  6
Continuous
 62
     7
370
    25
100
AcDbCircle
 10
107.0343482143
 20
-51.6286508645
 30
0.0
 40
114.5898896166705
100
AcDbArc
 50
358.390761455
 51
2.087477401699999
  0
LWPOLYLINE
  5
E2
330
1F
100
AcDbEntity
  8
0
  6
Continuous
 62
     7
370
    25
100
AcDbPolyline
 90
        3
 70
   128
 43
0.0
 10
221.5481935487
 20
-55.45468044020001
 10
221.5638878253
 20
-55.30653792779999
 10
221.5790435644
 20
-54.8466579391
  0
LWPOLYLINE
  5
E3
330
1F
100
AcDbEntity
  8
0
  6
Continuous
 62
     7
370
    25
100
AcDbPolyline
 90
       23
 70
   128
 43
0.0
 10
181.7585161893999
 20
-54.8466579391
 10
181.7711726437
 20
-54.1119801064
 10
181.7803044625
 20
-53.1620236582
 10
181.7851718402
 20
-52.0737484165
 10
181.7853804508
 20
-50.9353199691
 10
181.780913394
 20
-49.83896701829999
 10
181.772132564
 20
-48.8735095599
 10
181.7597493315
 20
-48.1171632154
 10
181.7447669124
 20
-47.63120266749999
 10
181.7283990931
 20
-47.45499754959999
 10
181.7119718971
 20
-47.60282295249999
 10
181.696816158
 20
-48.0627029412
 10
181.6841597036999
 20
-48.79738077399999
 10
181.6750278849
 20
-49.7473372221
 10
181.6701605072
 20
-50.8356124638
 10
181.6699518965
 20
-51.9740409112
 10
181.6744189534
 20
-53.0703938621
 10
181.6831997834
 20
-54.03585132039999
 10
181.6955830159
 20
-54.79219766489999
 10
181.710565435
 20
-55.27815821279999
 10
181.7269332542
 20
-55.4543633307
 10
181.7433604502999
 20
-55.30653792779999
 10
181.7585161893999
 20
-54.8466579391
  0
LINE
  5
E4
330
1F
100
AcDbEntity
  8
0
  6
Continuous
 62
     7
370
    25
100
AcDbLine
 10
382.1202323621
 20
-76.9546804402
 30
0.0
 11
342.1202323621
 21
-76.9546804402
 31
0.0
  0
SPLINE
  5
E5
330
1F
100
AcDbEntity
  8
0
  6
Continuous
 62
     7
370
    25
100
AcDbSpline
210
0.0
220
0.0
230
1.0
 70
     8
 71
     3
 72
    10
 73
     6
 74
     0
 42
0.00000001
 43
0.0000000001
 40
0.0
 40
0.0
 40
0.0
 40
0.0
 40
0.4708137729499313
 40
0.8845992636830393
 40
1.0
 40
1.0
 40
1.0
 40
1.0
 10
501.906121685612
 20
-54.24636295313097
 30
0.0
 10
501.9546488401692
 20
-54.57679353387231
 30
0.0
 10
502.0458251983308
 20
-55.19763061472215
 30
0.0
 10
502.1174399235755
 20
-55.5559681475692
 30
0.0
 10
502.1064060262083
 20
-55.49795465782503
 30
0.0
 10
502.1039998413617
 20
-55.48530353598817
 30
0.0
  0
SPLINE
  5
E6
330
1F
100
AcDbEntity
  8
0
  6
Continuous
 62
     7
370
    25
100
AcDbSpline
210
0.0
220
0.0
230
1.0
 70
     8
 71
     3
 72
    15
 73
    11
 74
     0
 42
0.00000001
 43
0.0000000001
 40
0.0
 40
0.0
 40
0.0
 40
0.0
 40
0.0466779788190658
 40
0.1811336987564668
 40
0.3173514326454587
 40
0.4592888656583182
 40
0.6064122165767023
 40
0.7553353007398292
 40
0.9042598265645139
 40
1.0
 40
1.0
 40
1.0
 40
1.0
 10
502.1030397214188
 20
-47.4291177936262
 30
0.0
 10
502.1056128866449
 20
-47.41541362143479
 30
0.0
 10
502.1155980433875
 20
-47.36223463939171
 30
0.0
 10
502.0499371310976
 20
-47.7091196476909
 30
0.0
 10
501.9321547278958
 20
-48.42852285383452
 30
0.0
 10
501.7996794416072
 20
-49.5109745407706
 30
0.0
 10
501.7157750187487
 20
-50.82858249434715
 30
0.0
 10
501.7209723208154
 20
-52.23509311894332
 30
0.0
 10
501.8043716485461
 20
-53.41828035410861
 30
0.0
 10
501.8775040982118
 20
-54.01346155245041
 30
0.0
 10
501.906121685612
 20
-54.24636295313097
 30
0.0
  0
LINE
  5
E7
330
1F
100
AcDbEntity
  8
0
  6
Continuous
 62
     7
370
    25
100
AcDbLine
 10
482.1123363186
 20
-77.4546804402
 30
0.0
 11
462.1123363186
 21
-77.4546804402
 31
0.0
  0
LINE
  5
E8
330
1F
100
AcDbEntity
  8
0
  6
Continuous
 62
     7
370
    25
100
AcDbLine
 10
502.1123363185999
 20
-77.4546804402
 30
0.0
 11
482.1123363186
 21
-77.4546804402
 31
0.0
  0
LINE
  5
E9
330
1F
100
AcDbEntity
  8
0
  6
Continuous
 62
     7
370
    25
100
AcDbLine
 10
482.1123363186
 20
-42.45468044019999
 30
0.0
 11
462.1123363186
 21
-42.45468044019999
 31
0.0
  0
LINE
  5
EA
330
1F
100
AcDbEntity
  8
0
  6
Continuous
 62
     7
370
    25
100
AcDbLine
 10
502.1123363185999
 20
-42.45468044019999
 30
0.0
 11
482.1123363186
 21
-42.45468044019999
 31
0.0
  0
LINE
  5
EB
330
1F
100
AcDbEntity
  8
0
  6
Continuous
 62
     7
370
    25
100
AcDbLine
 10
389.1202323621
 20
-85.45468044020001
 30
0.0
 11
335.1202323621
 21
-85.45468044020001
 31
0.0
  0
LINE
  5
EC
330
1F
100
AcDbEntity
  8
0
  6
Continuous
 62
     7
370
    25
100
AcDbLine
 10
389.1202323621
 20
-82.95468044020001
 30
0.0
 11
335.1202323621
 21
-82.95468044020001
 31
0.0
  0
LINE
  5
ED
330
1F
100
AcDbEntity
  8
0
  6
Continuous
 62
     7
370
    25
100
AcDbLine
 10
268.9110441774
 20
-85.45468044020001
 30
0.0
 11
214.9110441774
 21
-85.45468044020001
 31
0.0
  0
LINE
  5
EE
330
1F
100
AcDbEntity
  8
0
  6
Continuous
 62
     7
370
    25
100
AcDbLine
 10
268.9110441774
 20
-82.95468044020001
 30
0.0
 11
214.9110441774
 21
-82.95468044020001
 31
0.0
  0
LINE
  5
EF
330
1F
100
AcDbEntity
  8
0
  6
Continuous
 62
     7
370
    25
100
AcDbLine
 10
509.1123363186
 20
-82.95468044020001
 30
0.0
 11
455.1123363185999
 21
-82.95468044020001
 31
0.0
  0
LINE
  5
F0
330
1F
100
AcDbEntity
  8
0
  6
Continuous
 62
     7
370
    25
100
AcDbLine
 10
509.1123363186
 20
-85.45468044020001
 30
0.0
 11
455.1123363185999
 21
-85.45468044020001
 31
0.0
  0
LINE
  5
F1
330
1F
100
AcDbEntity
  8
0
  6
Continuous
 62
     7
370
    25
100
AcDbLine
 10
502.3239114895999
 20
-49.0064585468
 30
0.0
 11
502.3239114895999
 21
-55.45468044020001
 31
0.0
  0
LINE
  5
F2
330
1F
100
AcDbEntity
  8
0
  6
Continuous
 62
     7
370
    25
100
AcDbLine
 10
502.3239114895999
 20
-47.4546804402
 30
0.0
 11
502.3239114895999
 21
-49.0064585468
 31
0.0
  0
LINE
  5
F3
330
1F
100
AcDbEntity
  8
0
  6
Continuous
 62
     7
370
    25
100
AcDbLine
 10
542.1486556012999
 20
-49.0064585468
 30
0.0
 11
542.1486556012999
 21
-55.45468044020001
 31
0.0
  0
LINE
  5
F4
330
1F
100
AcDbEntity
  8
0
  6
Continuous
 62
     7
370
    25
100
AcDbLine
 10
542.1486556012999
 20
-47.4546804402
 30
0.0
 11
542.1486556012999
 21
-49.0064585468
 31
0.0
  0
DIMENSION
  5
F5
102
{ACAD_XDICTIONARY
360
241
102
}
330
1F
100
AcDbEntity
  8
DIMENSION
100
AcDbDimension
280
     0
  2
*D16
 10
214.9110441774
 20
-114.8344782342
 30
0.0
 11
241.2705896973
 21
-114.8344782342
 31
0.0
 70
   160
  1
%%c<>
 71
     2
 42
54.0
 73
     0
 74
     0
 75
     0
  3
RG Dimension Lines
100
AcDbAlignedDimension
 13
268.9110441774
 23
-85.45468044020001
 33
0.0
 14
214.9110441774
 24
-85.45468044020001
 34
0.0
100
AcDbRotatedDimension
1001
AcadAnnotative
1000
AnnotativeData
1002
{
1070
     1
1070
     1
1002
}
  0
DIMENSION
  5
FE
102
{ACAD_XDICTIONARY
360
233
102
}
330
1F
100
AcDbEntity
  8
DIMENSION
100
AcDbDimension
280
     0
  2
*D15
 10
335.1202323621
 20
-112.5697419587
 30
0.0
 11
359.4961701082
 21
-112.5697419587
 31
0.0
 70
   160
  1
%%c<>
 71
     2
 42
54.0
 73
     0
 74
     0
 75
     0
  3
RG Dimension Lines
100
AcDbAlignedDimension
 13
389.1202323621
 23
-85.45468044020001
 33
0.0
 14
335.1202323621
 24
-85.45468044020001
 34
0.0
100
AcDbRotatedDimension
1001
AcadAnnotative
1000
AnnotativeData
1002
{
1070
     1
1070
     1
1002
}
  0
DIMENSION
  5
107
102
{ACAD_XDICTIONARY
360
24F
102
}
330
1F
100
AcDbEntity
  8
DIMENSION
100
AcDbDimension
280
     0
  2
*D17
 10
502.1123363185999
 20
-23.3311801826
 30
0.0
 11
480.9007508612999
 21
-23.3311801826
 31
0.0
 70
   160
  1
%%c<>
 71
     2
 42
40.0
 73
     0
 74
     0
 75
     0
  3
RG Dimension Lines
100
AcDbAlignedDimension
 13
462.1123363186
 23
-42.45468044019999
 33
0.0
 14
502.1123363185999
 24
-42.45468044019999
 34
0.0
100
AcDbRotatedDimension
1001
AcadAnnotative
1000
AnnotativeData
1002
{
1070
     1
1070
     1
1002
}
  0
SPLINE
  5
110
330
1F
100
AcDbEntity
  8
0
  6
Continuous
 62
     7
370
    25
100
AcDbSpline
210
0.0
220
0.0
230
1.0
 70
    24
 71
     3
 72
    39
 73
    35
 74
     0
 42
0.00000001
 43
0.0000000001
 40
0.0
 40
0.0
 40
0.0
 40
0.0
 40
0.0309615653212923
 40
0.0669648878748008
 40
0.0999701065268411
 40
0.1299766598724397
 40
0.1569842240920942
 40
0.1809862596196325
 40
0.2058120714688733
 40
0.2269269815690645
 40
0.2477454749882227
 40
0.2687878971606357
 40
0.2900539700294666
 40
0.325980071131773
 40
0.362390318905557
 40
0.3988382919770335
 40
0.4352870136091658
 40
0.4717360950220505
 40
0.5081851210206648
 40
0.5446348269988786
 40
0.5810836958853974
 40
0.6176227065859608
 40
0.654480970738053
 40
0.69166971659066
 40
0.7291433784520263
 40
0.7661231777664752
 40
0.8023384226603871
 40
0.837802928401633
 40
0.8571328058896407
 40
0.8795450580105951
 40
0.9050390889859393
 40
0.9336135313188513
 40
0.9652700343206413
 40
1.0
 40
1.0
 40
1.0
 40
1.0
 10
19.48782339282678
 20
367.1885770123907
 30
0.0
 10
19.3055729206939
 20
367.1885770123907
 30
0.0
 10
18.91139445119921
 20
367.1885770123907
 30
0.0
 10
17.33956606244263
 20
367.1885770123907
 30
0.0
 10
15.20437388934653
 20
367.1885770123907
 30
0.0
 10
12.71071845359851
 20
367.1885770123907
 30
0.0
 10
10.05125223188375
 20
367.1885770123907
 30
0.0
 10
7.227842954061834
 20
367.1885770123907
 30
0.0
 10
4.343403153677336
 20
367.1885770123907
 30
0.0
 10
1.353270476047975
 20
367.1885770123907
 30
0.0
 10
-1.659675240920123
 20
367.1885770123907
 30
0.0
 10
-4.860540618790981
 20
367.1885770123907
 30
0.0
 10
-9.035570976604283
 20
367.1885770123907
 30
0.0
 10
-14.34386519522738
 20
367.1885770123907
 30
0.0
 10
-20.89230497009661
 20
367.1885770123907
 30
0.0
 10
-27.77598238208411
 20
367.1885770123907
 30
0.0
 10
-34.87943454112347
 20
367.1885770123907
 30
0.0
 10
-42.11244129042018
 20
367.1885770123907
 30
0.0
 10
-49.3845491736336
 20
367.1885770123907
 30
0.0
 10
-56.60501648307371
 20
367.1885770123907
 30
0.0
 10
-63.68945845379061
 20
367.1885770123907
 30
0.0
 10
-70.56947680652328
 20
367.1885770123907
 30
0.0
 10
-77.17453262048859
 20
367.1885770123907
 30
0.0
 10
-83.4238585356376
 20
367.1885770123907
 30
0.0
 10
-89.18248680170554
 20
367.1885770123907
 30
0.0
 10
-94.32426718823577
 20
367.1885770123907
 30
0.0
 10
-98.76126457344106
 20
367.1885770123907
 30
0.0
 10
-101.931854565114
 20
367.1885770123907
 30
0.0
 10
-104.2417628014455
 20
367.1885770123907
 30
0.0
 10
-105.9936226327297
 20
367.1885770123907
 30
0.0
 10
-107.6424651398377
 20
367.1885770123907
 30
0.0
 10
-109.0321214862514
 20
367.1885770123907
 30
0.0
 10
-110.0433444541713
 20
367.1885770123907
 30
0.0
 10
-110.1753820237369
 20
367.1885770123907
 30
0.0
 10
-110.2444572487113
 20
367.1885770123907
 30
0.0
  0
SPLINE
  5
111
330
1F
100
AcDbEntity
  8
0
  6
Continuous
 62
     7
370
    25
100
AcDbSpline
210
0.0
220
0.0
230
1.0
 70
    24
 71
     3
 72
    40
 73
    36
 74
     0
 42
0.00000001
 43
0.0000000001
 40
0.0
 40
0.0
 40
0.0
 40
0.0
 40
0.0347297475330358
 40
0.0663860516935779
 40
0.0949603145443223
 40
0.1204541853862202
 40
0.1428662967310382
 40
0.162196052803962
 40
0.1976603357850825
 40
0.233875353203316
 40
0.2708549202397574
 40
0.3083283467210601
 40
0.3455168589832217
 40
0.3823748916206945
 40
0.4189136728119376
 40
0.4553623127553362
 40
0.4918117897851717
 40
0.5282605868396788
 40
0.5647094393081084
 40
0.6011579319980452
 40
0.6376056761320279
 40
0.6740156952052791
 40
0.7099415706480811
 40
0.7276796426060358
 40
0.7452625156453584
 40
0.7626896424327042
 40
0.7799620020885376
 40
0.7980241768819282
 40
0.8190148860560583
 40
0.8430167708216917
 40
0.8700241654010742
 40
0.9000305302691106
 40
0.9330355416083321
 40
0.9690386380172919
 40
1.0
 40
1.0
 40
1.0
 40
1.0
 10
-110.2444572487113
 20
348.1885770123907
 30
0.0
 10
-110.1753820237369
 20
348.1885770123907
 30
0.0
 10
-110.0433444541713
 20
348.1885770123907
 30
0.0
 10
-109.0321214862514
 20
348.1885770123907
 30
0.0
 10
-107.6424651398377
 20
348.1885770123907
 30
0.0
 10
-105.9936226327297
 20
348.1885770123907
 30
0.0
 10
-104.2417628014455
 20
348.1885770123907
 30
0.0
 10
-101.9318545651142
 20
348.1885770123907
 30
0.0
 10
-98.76126457343929
 20
348.1885770123907
 30
0.0
 10
-94.32426718824244
 20
348.1885770123907
 30
0.0
 10
-89.18248680167993
 20
348.1885770123907
 30
0.0
 10
-83.42385853573428
 20
348.1885770123907
 30
0.0
 10
-77.17453262013234
 20
348.1885770123907
 30
0.0
 10
-70.56947680783512
 20
348.1885770123907
 30
0.0
 10
-63.68945844894549
 20
348.1885770123907
 30
0.0
 10
-56.60501650111214
 20
348.1885770123907
 30
0.0
 10
-49.38454910630518
 20
348.1885770123907
 30
0.0
 10
-42.11244154168997
 20
348.1885770123907
 30
0.0
 10
-34.87943360337326
 20
348.1885770123907
 30
0.0
 10
-27.77598588174687
 20
348.1885770123907
 30
0.0
 10
-20.89229191518526
 20
348.1885770123907
 30
0.0
 10
-14.34391358724699
 20
348.1885770123907
 30
0.0
 10
-9.235501478558775
 20
348.1885770123907
 30
0.0
 10
-5.419028438183559
 20
348.1885770123907
 30
0.0
 10
-2.708913928698548
 20
348.1885770123907
 30
0.0
 10
-0.1447258991548808
 20
348.1885770123907
 30
0.0
 10
2.313644899659148
 20
348.1885770123907
 30
0.0
 10
4.790326372812078
 20
348.1885770123907
 30
0.0
 10
7.370541325664384
 20
348.1885770123907
 30
0.0
 10
10.05127808834085
 20
348.1885770123907
 30
0.0
 10
12.71071030924614
 20
348.1885770123907
 30
0.0
 10
15.20437641619381
 20
348.1885770123907
 30
0.0
 10
17.33956528071483
 20
348.1885770123907
 30
0.0
 10
18.91139450585804
 20
348.1885770123907
 30
0.0
 10
19.30557282257172
 20
348.1885770123907
 30
0.0
 10
19.48782319601796
 20
348.1885770123907
 30
0.0
  0
LINE
  5
112
330
1F
100
AcDbEntity
  8
0
  6
Continuous
 62
     7
370
    25
100
AcDbLine
 10
-105.9485342747
 20
217.1747452017
 30
0.0
 11
-106.1547866683
 21
217.9019887311
 31
0.0
  0
LINE
  5
113
330
1F
100
AcDbEntity
  8
0
  6
Continuous
 62
     7
370
    25
100
AcDbLine
 10
-113.7626852638
 20
217.7912687642
 30
0.0
 11
-113.947687216
 21
217.0583311963
 31
0.0
  0
LINE
  5
114
330
1F
100
AcDbEntity
  8
0
  6
Continuous
 62
     7
370
    25
100
AcDbLine
 10
-105.3690145275
 20
177.3542178267
 30
0.0
 11
-105.9485342747
 21
217.1747452017
 31
0.0
  0
LINE
  5
115
330
1F
100
AcDbEntity
  8
0
  6
Continuous
 62
     7
370
    25
100
AcDbLine
 10
-113.947687216
 20
217.0583311963
 30
0.0
 11
-113.3681674688
 21
177.2378038213
 31
0.0
  0
LINE
  5
116
330
1F
100
AcDbEntity
  8
0
  6
Continuous
 62
     7
370
    25
100
AcDbLine
 10
-114.2444572487
 20
537.7170002516
 30
0.0
 11
-114.2444572487
 21
497.8922561399
 31
0.0
  0
LINE
  5
117
330
1F
100
AcDbEntity
  8
0
  6
Continuous
 62
     7
370
    25
100
AcDbLine
 10
-106.2444572487
 20
497.8922561399
 30
0.0
 11
-106.2444572487
 21
537.7170002516
 31
0.0
  0
LINE
  5
118
330
1F
100
AcDbEntity
  8
0
  6
Continuous
 62
     7
370
    25
100
AcDbLine
 10
-114.2444572487
 20
497.8922561399
 30
0.0
 11
-114.0878819481
 21
497.3079091628999
 31
0.0
  0
LINE
  5
119
330
1F
100
AcDbEntity
  8
0
  6
Continuous
 62
     7
370
    25
100
AcDbLine
 10
-106.4010325493
 20
497.3079091628999
 30
0.0
 11
-106.2444572487
 21
497.8922561399
 31
0.0
  0
LINE
  5
11A
330
1F
100
AcDbEntity
  8
0
  6
Continuous
 62
     7
370
    25
100
AcDbLine
 10
19.5555427513
 20
367.2135770124
 30
0.0
 11
19.8614050821
 21
367.208664892
 31
0.0
  0
LWPOLYLINE
  5
11B
330
1F
100
AcDbEntity
  8
0
  6
Continuous
 62
     7
370
    25
100
AcDbPolyline
 90
        3
 70
   128
 43
0.0
 10
22.0668534955
 20
348.5005988155001
 10
20.4093571686
 20
348.2019218621
 10
19.0633224068
 20
348.1763036704
  0
LINE
  5
11C
330
1F
100
AcDbEntity
  8
0
  6
Continuous
 62
     7
370
    25
100
AcDbLine
 10
18.2593657219
 20
367.1249719866001
 30
0.0
 11
19.5555427513
 21
367.2135770124
 31
0.0
  0
ARC
  5
11D
330
1F
100
AcDbEntity
  8
0
  6
Continuous
 62
     7
370
    25
100
AcDbCircle
 10
-110.2444572487
 20
357.6885770124
 30
0.0
 40
9.500000000000056
100
AcDbArc
 50
90.0
 51
270.0184113947
  0
SPLINE
  5
11E
330
1F
100
AcDbEntity
  8
0
  6
Continuous
 62
     7
370
    25
100
AcDbSpline
210
0.0
220
0.0
230
1.0
 70
     8
 71
     3
 72
    24
 73
    20
 74
     0
 42
0.00000001
 43
0.0000000001
 40
0.0
 40
0.0
 40
0.0
 40
0.0
 40
0.0622907623164422
 40
0.1247545434350685
 40
0.1868961796346389
 40
0.2493987265962337
 40
0.3115781492910461
 40
0.373986556992505
 40
0.4363665166985916
 40
0.4985717277094335
 40
0.5610694662545415
 40
0.6232090527929061
 40
0.6856856571254056
 40
0.747954217133838
 40
0.8102700639410901
 40
0.8727253586008009
 40
0.9348754322968417
 40
0.9975323034018684
 40
1.0
 40
1.0
 40
1.0
 40
1.0
 10
19.56399111351131
 20
367.1885770123907
 30
0.0
 10
20.18570803654068
 20
367.1533384957789
 30
0.0
 10
21.43086876333299
 20
367.0827635840623
 30
0.0
 10
23.22496427379691
 20
366.5190021806213
 30
0.0
 10
24.8807651521711
 20
365.6417642349771
 30
0.0
 10
26.33072428330371
 20
364.4533743324822
 30
0.0
 10
27.52283096058235
 20
363.0048287842332
 30
0.0
 10
28.40880044171969
 20
361.3519892474422
 30
0.0
 10
28.95452952279084
 20
359.5576928209595
 30
0.0
 10
29.1393755163872
 20
357.690518736946
 30
0.0
 10
28.95578641760976
 20
355.8255082765207
 30
0.0
 10
28.41057818292269
 20
354.0298479794537
 30
0.0
 10
27.52623200071232
 20
352.3773253646876
 30
0.0
 10
26.33494748112297
 20
350.9273503380541
 30
0.0
 10
24.88432806732945
 20
349.7405912854869
 30
0.0
 10
23.2298208441056
 20
348.8489394496489
 30
0.0
 10
21.4348649350442
 20
348.3374157138432
 30
0.0
 10
20.15874607278447
 20
348.1273652011519
 30
0.0
 10
19.51300732656349
 20
348.193327048107
 30
0.0
 10
19.48853902890668
 20
348.1958264708453
 30
0.0
  0
LINE
  5
11F
330
1F
100
AcDbEntity
  8
0
  6
Continuous
 62
     7
370
    25
100
AcDbLine
 10
-113.0170294022
 20
219.3777966214
 30
0.0
 11
-113.0280969309
 21
220.1382794715
 31
0.0
  0
LINE
  5
120
330
1F
100
AcDbEntity
  8
0
  6
Continuous
 62
     7
370
    25
100
AcDbLine
 10
-107.0176646962
 20
219.4651071255
 30
0.0
 11
-113.0170294022
 21
219.3777966214
 31
0.0
  0
LINE
  5
121
330
1F
100
AcDbEntity
  8
0
  6
Continuous
 62
     7
370
    25
100
AcDbLine
 10
-107.0287322249
 20
220.2255899755
 30
0.0
 11
-107.0176646962
 21
219.4651071255
 31
0.0
  0
LINE
  5
122
330
1F
100
AcDbEntity
  8
0
  6
Continuous
 62
     7
370
    25
100
AcDbLine
 10
-109.7326712473
 20
220.1862387624
 30
0.0
 11
-107.0287322249
 21
220.2255899755
 31
0.0
  0
LINE
  5
123
330
1F
100
AcDbEntity
  8
0
  6
Continuous
 62
     7
370
    25
100
AcDbLine
 10
-109.776941362
 20
223.2281701627
 30
0.0
 11
-109.7326712473
 21
220.1862387624
 31
0.0
  0
LINE
  5
124
330
1F
100
AcDbEntity
  8
0
  6
Continuous
 62
     7
370
    25
100
AcDbLine
 10
-107.0730023396
 20
223.2675213758
 30
0.0
 11
-109.776941362
 21
223.2281701627
 31
0.0
  0
LINE
  5
125
330
1F
100
AcDbEntity
  8
0
  6
Continuous
 62
     7
370
    25
100
AcDbLine
 10
-107.0840698683
 20
224.0280042258
 30
0.0
 11
-107.0730023396
 21
223.2675213758
 31
0.0
  0
LINE
  5
126
330
1F
100
AcDbEntity
  8
0
  6
Continuous
 62
     7
370
    25
100
AcDbLine
 10
-113.0834345743
 20
223.9406937217
 30
0.0
 11
-107.0840698683
 21
224.0280042258
 31
0.0
  0
LINE
  5
127
330
1F
100
AcDbEntity
  8
0
  6
Continuous
 62
     7
370
    25
100
AcDbLine
 10
-113.0723670456
 20
223.1802108717
 30
0.0
 11
-113.0834345743
 21
223.9406937217
 31
0.0
  0
LINE
  5
128
330
1F
100
AcDbEntity
  8
0
  6
Continuous
 62
     7
370
    25
100
AcDbLine
 10
-110.4529261176
 20
223.2183323594
 30
0.0
 11
-113.0723670456
 21
223.1802108717
 31
0.0
  0
LINE
  5
129
330
1F
100
AcDbEntity
  8
0
  6
Continuous
 62
     7
370
    25
100
AcDbLine
 10
-110.4086560029
 20
220.1764009592
 30
0.0
 11
-110.4529261176
 21
223.2183323594
 31
0.0
  0
LINE
  5
12A
330
1F
100
AcDbEntity
  8
0
  6
Continuous
 62
     7
370
    25
100
AcDbLine
 10
-113.0280969309
 20
220.1382794715
 30
0.0
 11
-110.4086560029
 21
220.1764009592
 31
0.0
  0
SPLINE
  5
12B
330
1F
100
AcDbEntity
  8
0
  6
Continuous
 62
     7
370
    25
100
AcDbSpline
210
0.0
220
0.0
230
1.0
 70
     8
 71
     3
 72
    11
 73
     7
 74
     0
 42
0.00000001
 43
0.0000000001
 40
0.0
 40
0.0
 40
0.0
 40
0.0
 40
0.2431577467279173
 40
0.5014638418451637
 40
0.7598298247707299
 40
1.0
 40
1.0
 40
1.0
 40
1.0
 10
-107.6922917364517
 20
230.97666744251
 30
0.0
 10
-107.693952471021
 20
231.0237945313438
 30
0.0
 10
-107.6973774013333
 20
231.1209846531457
 30
0.0
 10
-107.7177425926932
 20
231.2670386959124
 30
0.0
 10
-107.7451938268086
 20
231.4112045664546
 30
0.0
 10
-107.7694849874255
 20
231.5047518640734
 30
0.0
 10
-107.7811872726189
 20
231.5498183462008
 30
0.0
  0
SPLINE
  5
12C
330
1F
100
AcDbEntity
  8
0
  6
Continuous
 62
     7
370
    25
100
AcDbSpline
210
0.0
220
0.0
230
1.0
 70
     8
 71
     3
 72
    15
 73
    11
 74
     0
 42
0.00000001
 43
0.0000000001
 40
0.0
 40
0.0
 40
0.0
 40
0.0
 40
0.1218458219985206
 40
0.2374957347333113
 40
0.3492633557234995
 40
0.459355063280418
 40
0.5737599799471854
 40
0.6978495346933207
 40
0.8379757460831916
 40
1.0
 40
1.0
 40
1.0
 40
1.0
 10
-108.357305035671
 20
230.2129482028027
 30
0.0
 10
-108.310509933784
 20
230.2155874859045
 30
0.0
 10
-108.2192992798421
 20
230.2207318434963
 30
0.0
 10
-108.0884551778815
 20
230.2544512749966
 30
0.0
 10
-107.9710901592906
 20
230.3116604742779
 30
0.0
 10
-107.870264624865
 20
230.3944293954289
 30
0.0
 10
-107.7901386406573
 20
230.5031529702716
 30
0.0
 10
-107.7303739362414
 20
230.6368353514987
 30
0.0
 10
-107.6964538764598
 20
230.7982330707992
 30
0.0
 10
-107.6937445678998
 20
230.9143833612099
 30
0.0
 10
-107.6922917364517
 20
230.97666744251
 30
0.0
  0
LINE
  5
12D
330
1F
100
AcDbEntity
  8
0
  6
Continuous
 62
     7
370
    25
100
AcDbLine
 10
-110.8077497748
 20
230.1772861659
 30
0.0
 11
-108.3573050357
 21
230.2129482028
 31
0.0
  0
LINE
  5
12E
330
1F
100
AcDbEntity
  8
0
  6
Continuous
 62
     7
370
    25
100
AcDbLine
 10
-110.8261764414
 20
231.4434373
 30
0.0
 11
-110.8077497748
 21
230.1772861659
 31
0.0
  0
LINE
  5
12F
330
1F
100
AcDbEntity
  8
0
  6
Continuous
 62
     7
370
    25
100
AcDbLine
 10
-111.4176631026
 20
231.4348292221
 30
0.0
 11
-110.8261764414
 21
231.4434373
 31
0.0
  0
LINE
  5
130
330
1F
100
AcDbEntity
  8
0
  6
Continuous
 62
     7
370
    25
100
AcDbLine
 10
-111.3992364359
 20
230.1686780881
 30
0.0
 11
-111.4176631026
 21
231.4348292221
 31
0.0
  0
LINE
  5
131
330
1F
100
AcDbEntity
  8
0
  6
Continuous
 62
     7
370
    25
100
AcDbLine
 10
-112.5822097582
 20
230.1514619323
 30
0.0
 11
-111.3992364359
 21
230.1686780881
 31
0.0
  0
LINE
  5
132
330
1F
100
AcDbEntity
  8
0
  6
Continuous
 62
     7
370
    25
100
AcDbLine
 10
-112.5711422295
 20
229.3909790823
 30
0.0
 11
-112.5822097582
 21
230.1514619323
 31
0.0
  0
LINE
  5
133
330
1F
100
AcDbEntity
  8
0
  6
Continuous
 62
     7
370
    25
100
AcDbLine
 10
-111.3881689072
 20
229.408195238
 30
0.0
 11
-112.5711422295
 21
229.3909790823
 31
0.0
  0
LINE
  5
134
330
1F
100
AcDbEntity
  8
0
  6
Continuous
 62
     7
370
    25
100
AcDbLine
 10
-111.3763135857
 20
228.5935807962
 30
0.0
 11
-111.3881689072
 21
229.408195238
 31
0.0
  0
LINE
  5
135
330
1F
100
AcDbEntity
  8
0
  6
Continuous
 62
     7
370
    25
100
AcDbLine
 10
-110.7848269245
 20
228.602188874
 30
0.0
 11
-111.3763135857
 21
228.5935807962
 31
0.0
  0
LINE
  5
136
330
1F
100
AcDbEntity
  8
0
  6
Continuous
 62
     7
370
    25
100
AcDbLine
 10
-110.7966822461
 20
229.4168033159
 30
0.0
 11
-110.7848269245
 21
228.602188874
 31
0.0
  0
LINE
  5
137
330
1F
100
AcDbEntity
  8
0
  6
Continuous
 62
     7
370
    25
100
AcDbLine
 10
-108.2445757371
 20
229.4539448661
 30
0.0
 11
-110.7966822461
 21
229.4168033159
 31
0.0
  0
SPLINE
  5
138
330
1F
100
AcDbEntity
  8
0
  6
Continuous
 62
     7
370
    25
100
AcDbSpline
210
0.0
220
0.0
230
1.0
 70
     8
 71
     3
 72
    23
 73
    19
 74
     0
 42
0.00000001
 43
0.0000000001
 40
0.0
 40
0.0
 40
0.0
 40
0.0
 40
0.0793694329804847
 40
0.1545815984856107
 40
0.2253046809901545
 40
0.292730886485974
 40
0.3565928750772451
 40
0.4180383360313999
 40
0.4771057353567822
 40
0.5351502452201319
 40
0.5917066519080915
 40
0.6476121130597871
 40
0.7027157252450739
 40
0.7592537425953053
 40
0.8165662894239778
 40
0.8755420730894645
 40
0.9367433519766059
 40
1.0
 40
1.0
 40
1.0
 40
1.0
 10
-107.0988644148825
 20
230.8519269650719
 30
0.0
 10
-107.0990015159674
 20
230.7977360392798
 30
0.0
 10
-107.0992685369611
 20
230.6921926377742
 30
0.0
 10
-107.1135150786631
 20
230.5389209579986
 30
0.0
 10
-107.1358008679108
 20
230.3949017289307
 30
0.0
 10
-107.1695202637584
 20
230.2609990115821
 30
0.0
 10
-107.2128151993296
 20
230.1366551441306
 30
0.0
 10
-107.2647606703401
 20
230.0217449527993
 30
0.0
 10
-107.327976464931
 20
229.9173822526142
 30
0.0
 10
-107.3966427472398
 20
229.8204740123715
 30
0.0
 10
-107.4771153047744
 20
229.7359517025954
 30
0.0
 10
-107.5643687957885
 20
229.6617016183118
 30
0.0
 10
-107.6600922623042
 20
229.5986231356923
 30
0.0
 10
-107.7635458854626
 20
229.5470824938925
 30
0.0
 10
-107.8748383453093
 20
229.5072768291622
 30
0.0
 10
-107.9925215219202
 20
229.478052996308
 30
0.0
 10
-108.1164413670167
 20
229.4583679069111
 30
0.0
 10
-108.201396613949
 20
229.4554353563256
 30
0.0
 10
-108.2445757370981
 20
229.4539448661269
 30
0.0
  0
SPLINE
  5
139
330
1F
100
AcDbEntity
  8
0
  6
Continuous
 62
     7
370
    25
100
AcDbSpline
210
0.0
220
0.0
230
1.0
 70
     8
 71
     3
 72
    13
 73
     9
 74
     0
 42
0.00000001
 43
0.0000000001
 40
0.0
 40
0.0
 40
0.0
 40
0.0
 40
0.0738947338592678
 40
0.1631445374822292
 40
0.2689192947846725
 40
0.3905343462617368
 40
0.670327559780943
 40
1.0
 40
1.0
 40
1.0
 40
1.0
 10
-107.2095048523486
 20
231.5581382071752
 30
0.0
 10
-107.2032271254084
 20
231.541596672817
 30
0.0
 10
-107.1893671816125
 20
231.5050763305519
 30
0.0
 10
-107.1740685493447
 20
231.4424969332458
 30
0.0
 10
-107.1549381085493
 20
231.3692168337635
 30
0.0
 10
-107.1318176732262
 20
231.2500427879126
 30
0.0
 10
-107.108493942006
 20
231.0764809006283
 30
0.0
 10
-107.1022447374627
 20
230.9307537578215
 30
0.0
 10
-107.0988644148825
 20
230.8519269650719
 30
0.0
  0
LINE
  5
13A
330
1F
100
AcDbEntity
  8
0
  6
Continuous
 62
     7
370
    25
100
AcDbLine
 10
-107.7811872726
 20
231.5498183462
 30
0.0
 11
-107.2095048523
 21
231.5581382072
 31
0.0
  0
CIRCLE
  5
13B
330
1F
100
AcDbEntity
  8
0
  6
Continuous
 62
     7
370
    25
100
AcDbCircle
 10
-110.2444572487
 20
237.4793888277
 30
0.0
 40
19.99999999999999
  0
SPLINE
  5
13C
330
1F
100
AcDbEntity
  8
0
  6
Continuous
 62
     7
370
    25
100
AcDbSpline
210
0.0
220
0.0
230
1.0
 70
     8
 71
     3
 72
    23
 73
    19
 74
     0
 42
0.00000001
 43
0.0000000001
 40
0.0
 40
0.0
 40
0.0
 40
0.0
 40
0.0721260180556316
 40
0.1411207571969746
 40
0.2074938117196339
 40
0.2718016095177891
 40
0.3343569268820878
 40
0.3946338299600877
 40
0.453520134610722
 40
0.5116999955959784
 40
0.5695890347696431
 40
0.6270324037279414
 40
0.6852860602630228
 40
0.7448524052716771
 40
0.8060613830473311
 40
0.8684816525648631
 40
0.9329621977991228
 40
1.0
 40
1.0
 40
1.0
 40
1.0
 10
-109.2020302670431
 20
224.6479540612428
 30
0.0
 10
-109.2831068126719
 20
224.6485837316278
 30
0.0
 10
-109.4417400468153
 20
224.649815735888
 30
0.0
 10
-109.674064816119
 20
224.6731149896
 30
0.0
 10
-109.8949688072152
 20
224.7142420986077
 30
0.0
 10
-110.1035735080709
 20
224.7754595176116
 30
0.0
 10
-110.300385085136
 20
224.8505094847415
 30
0.0
 10
-110.4819744905722
 20
224.9445508328758
 30
0.0
 10
-110.6515718503255
 20
225.0497669098131
 30
0.0
 10
-110.8055241787134
 20
225.1726865215522
 30
0.0
 10
-110.9453782303703
 20
225.3090459075112
 30
0.0
 10
-111.0686444133685
 20
225.4607291691107
 30
0.0
 10
-111.1761240851845
 20
225.6262566900891
 30
0.0
 10
-111.2654663856251
 20
225.8068786621269
 30
0.0
 10
-111.3391409850932
 20
225.9995759577232
 30
0.0
 10
-111.3896295087306
 20
226.2051710342493
 30
0.0
 10
-111.424958486724
 20
226.4206776298349
 30
0.0
 10
-111.4299239663194
 20
226.5685195412676
 30
0.0
 10
-111.4324549807781
 20
226.6438778240389
 30
0.0
  0
SPLINE
  5
13D
330
1F
100
AcDbEntity
  8
0
  6
Continuous
 62
     7
370
    25
100
AcDbSpline
210
0.0
220
0.0
230
1.0
 70
     8
 71
     3
 72
    23
 73
    19
 74
     0
 42
0.00000001
 43
0.0000000001
 40
0.0
 40
0.0
 40
0.0
 40
0.0
 40
0.0689529480650627
 40
0.1344891075364707
 40
0.1973287114948717
 40
0.258354199044604
 40
0.3178700782251752
 40
0.3760743810687478
 40
0.4335357634991921
 40
0.4911010135453915
 40
0.5492315833602405
 40
0.6077403617483148
 40
0.6679522071099166
 40
0.7299451585678877
 40
0.7939739945529825
 40
0.8602133954867399
 40
0.9287172645711535
 40
1.0
 40
1.0
 40
1.0
 40
1.0
 10
-107.0386117127031
 20
226.7117843935164
 30
0.0
 10
-107.0396668791658
 20
226.6342157384956
 30
0.0
 10
-107.0417249259911
 20
226.4829221465709
 30
0.0
 10
-107.0671554815195
 20
226.2619557239855
 30
0.0
 10
-107.1150346404464
 20
226.0540279717828
 30
0.0
 10
-107.1805405343414
 20
225.8581199711374
 30
0.0
 10
-107.2650598994127
 20
225.6752004811373
 30
0.0
 10
-107.3681459852663
 20
225.5069385370773
 30
0.0
 10
-107.4846147065894
 20
225.3503143714095
 30
0.0
 10
-107.6196834852412
 20
225.2093533252045
 30
0.0
 10
-107.7699569434034
 20
225.0831795044106
 30
0.0
 10
-107.9347450798612
 20
224.9710536608432
 30
0.0
 10
-108.1152655192868
 20
224.8769748146343
 30
0.0
 10
-108.3084663793092
 20
224.7953989561778
 30
0.0
 10
-108.5156211780093
 20
224.7322376520027
 30
0.0
 10
-108.7344459547905
 20
224.6853600996056
 30
0.0
 10
-108.9647751836012
 20
224.657192885827
 30
0.0
 10
-109.1219040329497
 20
224.6510742144999
 30
0.0
 10
-109.2020302670431
 20
224.6479540612428
 30
0.0
  0
SPLINE
  5
13E
330
1F
100
AcDbEntity
  8
0
  6
Continuous
 62
     7
370
    25
100
AcDbSpline
210
0.0
220
0.0
230
1.0
 70
     8
 71
     3
 72
    23
 73
    19
 74
     0
 42
0.00000001
 43
0.0000000001
 40
0.0
 40
0.0
 40
0.0
 40
0.0
 40
0.0715705697985667
 40
0.1403948162403408
 40
0.2069794205324086
 40
0.271492185540423
 40
0.3338828929097226
 40
0.3945176717897664
 40
0.453479159263201
 40
0.5118444559838494
 40
0.5696421502167813
 40
0.6270255956019251
 40
0.6854649230797679
 40
0.7448673526593842
 40
0.8057689385601747
 40
0.8680989804590458
 40
0.9327313110767358
 40
1.0
 40
1.0
 40
1.0
 40
1.0
 10
-109.2610570867047
 20
228.7038625948923
 30
0.0
 10
-109.1808610882645
 20
228.7032100867816
 30
0.0
 10
-109.0235463917919
 20
228.7019301087604
 30
0.0
 10
-108.7925417873143
 20
228.6785572011352
 30
0.0
 10
-108.5721315698148
 20
228.637413021633
 30
0.0
 10
-108.3636775051355
 20
228.5768166255444
 30
0.0
 10
-108.1679204199202
 20
228.5000498835626
 30
0.0
 10
-107.9846803199217
 20
228.4098812429789
 30
0.0
 10
-107.8171745638629
 20
228.3011335990545
 30
0.0
 10
-107.6627992522244
 20
228.1796236505909
 30
0.0
 10
-107.5242882650796
 20
228.0425783261583
 30
0.0
 10
-107.4023617362325
 20
227.8906158033761
 30
0.0
 10
-107.2953302325411
 20
227.7256980556285
 30
0.0
 10
-107.205028385277
 20
227.5465135407128
 30
0.0
 10
-107.1341920315491
 20
227.3542226850081
 30
0.0
 10
-107.0801868896289
 20
227.1504901484201
 30
0.0
 10
-107.0484024795654
 20
226.9347460580558
 30
0.0
 10
-107.0419185009464
 20
226.7870887104699
 30
0.0
 10
-107.0386117127031
 20
226.7117843935164
 30
0.0
  0
SPLINE
  5
13F
330
1F
100
AcDbEntity
  8
0
  6
Continuous
 62
     7
370
    25
100
AcDbSpline
210
0.0
220
0.0
230
1.0
 70
     8
 71
     3
 72
    23
 73
    19
 74
     0
 42
0.00000001
 43
0.0000000001
 40
0.0
 40
0.0
 40
0.0
 40
0.0
 40
0.0684670660128049
 40
0.1335938005298812
 40
0.1966508238765952
 40
0.2577382118685537
 40
0.3171862301338389
 40
0.3756557467039725
 40
0.4329850061466374
 40
0.4904819615177763
 40
0.5482996353660733
 40
0.607068964152949
 40
0.6668643010851854
 40
0.7290058315474389
 40
0.7929616608749073
 40
0.8592028673315491
 40
0.9280172580985032
 40
1.0
 40
1.0
 40
1.0
 40
1.0
 10
-111.4324549807781
 20
226.6438778240389
 30
0.0
 10
-111.4321864067095
 20
226.7210404334058
 30
0.0
 10
-111.4316623616082
 20
226.8716010875196
 30
0.0
 10
-111.402456458173
 20
227.0915243599603
 30
0.0
 10
-111.3585040223784
 20
227.300399663801
 30
0.0
 10
-111.2900699794102
 20
227.4959713158668
 30
0.0
 10
-111.2056314543513
 20
227.679301348394
 30
0.0
 10
-111.1037807722941
 20
227.8487779306633
 30
0.0
 10
-110.984918394195
 20
228.0040744601631
 30
0.0
 10
-110.8487536736006
 20
228.143365114721
 30
0.0
 10
-110.6979301321998
 20
228.2690543502138
 30
0.0
 10
-110.5326856473855
 20
228.3798173097211
 30
0.0
 10
-110.352888980367
 20
228.4758160902928
 30
0.0
 10
-110.1585316202849
 20
228.5544008939346
 30
0.0
 10
-109.9513089230058
 20
228.6179642087045
 30
0.0
 10
-109.7323455540492
 20
228.6669403301036
 30
0.0
 10
-109.5004867892192
 20
228.6945060560137
 30
0.0
 10
-109.342055379022
 20
228.7006973081162
 30
0.0
 10
-109.2610570867047
 20
228.7038625948923
 30
0.0
  0
SPLINE
  5
140
330
1F
100
AcDbEntity
  8
0
  6
Continuous
 62
     7
370
    25
100
AcDbSpline
210
0.0
220
0.0
230
1.0
 70
     8
 71
     3
 72
    23
 73
    19
 74
     0
 42
0.00000001
 43
0.0000000001
 40
0.0
 40
0.0
 40
0.0
 40
0.0
 40
0.0804629393412085
 40
0.1567223806251171
 40
0.2296387368222877
 40
0.2991747007569486
 40
0.3658786767369281
 40
0.4285940680962407
 40
0.4898801416497719
 40
0.5485945770709165
 40
0.6059094942364871
 40
0.6617425822144046
 40
0.7170440699511938
 40
0.772297791332504
 40
0.8277750620612364
 40
0.8838058316835251
 40
0.9413305521808418
 40
1.0
 40
1.0
 40
1.0
 40
1.0
 10
-109.2130977957296
 20
225.4084369113021
 30
0.0
 10
-109.1514356989845
 20
225.4100258625853
 30
0.0
 10
-109.0313328208726
 20
225.4131207560834
 30
0.0
 10
-108.8565938773159
 20
225.4354677811039
 30
0.0
 10
-108.6917221232204
 20
225.4659254971023
 30
0.0
 10
-108.5370811076814
 20
225.508950825355
 30
0.0
 10
-108.394744077129
 20
225.5640034786886
 30
0.0
 10
-108.2627684788219
 20
225.6270449787755
 30
0.0
 10
-108.1426065981742
 20
225.6994078917179
 30
0.0
 10
-108.034644218026
 20
225.7822694967855
 30
0.0
 10
-107.9390182582806
 20
225.8732635394674
 30
0.0
 10
-107.8573769424118
 20
225.9734961731883
 30
0.0
 10
-107.7850481538143
 20
226.0787354412047
 30
0.0
 10
-107.7272537866759
 20
226.1924931818911
 30
0.0
 10
-107.6831901702208
 20
226.3126240935531
 30
0.0
 10
-107.6497134486371
 20
226.4379655234115
 30
0.0
 10
-107.632004208896
 20
226.5691467748616
 30
0.0
 10
-107.6307378109922
 20
226.6582073316875
 30
0.0
 10
-107.6300983738603
 20
226.7031763156491
 30
0.0
  0
SPLINE
  5
141
330
1F
100
AcDbEntity
  8
0
  6
Continuous
 62
     7
370
    25
100
AcDbSpline
210
0.0
220
0.0
230
1.0
 70
     8
 71
     3
 72
    23
 73
    19
 74
     0
 42
0.00000001
 43
0.0000000001
 40
0.0
 40
0.0
 40
0.0
 40
0.0
 40
0.0594026782440202
 40
0.1165127052690342
 40
0.1726942426059018
 40
0.227784309112108
 40
0.282678265884343
 40
0.3381285589824558
 40
0.393239703375555
 40
0.4503177644752924
 40
0.5088481919635444
 40
0.570299174214698
 40
0.6331833202830374
 40
0.6998705236448775
 40
0.7697433507741727
 40
0.8428559104583449
 40
0.9193205508097472
 40
1.0
 40
1.0
 40
1.0
 40
1.0
 10
-107.6300983738603
 20
226.7031763156491
 30
0.0
 10
-107.6320022592056
 20
226.7485545100944
 30
0.0
 10
-107.6357365492858
 20
226.8375595238637
 30
0.0
 10
-107.6576300981814
 20
226.9681048065095
 30
0.0
 10
-107.6942910025945
 20
227.0916595072275
 30
0.0
 10
-107.7420152416868
 20
227.2095781167019
 30
0.0
 10
-107.8036067158076
 20
227.3203304052075
 30
0.0
 10
-107.8776068843722
 20
227.4231577559492
 30
0.0
 10
-107.9635625947204
 20
227.5184489082545
 30
0.0
 10
-108.061105495284
 20
227.6054778074488
 30
0.0
 10
-108.1719054900706
 20
227.6835611609735
 30
0.0
 10
-108.293686633008
 20
227.7524686093627
 30
0.0
 10
-108.4271677657353
 20
227.8121198452145
 30
0.0
 10
-108.571829325549
 20
227.8604599376378
 30
0.0
 10
-108.7268848553432
 20
227.9016716727654
 30
0.0
 10
-108.8928967096491
 20
227.9265632213825
 30
0.0
 10
-109.0681526019654
 20
227.9440338122061
 30
0.0
 10
-109.1883030423142
 20
227.9436016311764
 30
0.0
 10
-109.2499895580182
 20
227.943379744833
 30
0.0
  0
SPLINE
  5
142
330
1F
100
AcDbEntity
  8
0
  6
Continuous
 62
     7
370
    25
100
AcDbSpline
210
0.0
220
0.0
230
1.0
 70
     8
 71
     3
 72
    23
 73
    19
 74
     0
 42
0.00000001
 43
0.0000000001
 40
0.0
 40
0.0
 40
0.0
 40
0.0
 40
0.0808958638074066
 40
0.1575926187155474
 40
0.2303817954733441
 40
0.2999455692825421
 40
0.3663378096029006
 40
0.4299858427342925
 40
0.4906711221476961
 40
0.5494064719418943
 40
0.6066559021143411
 40
0.6623325649151547
 40
0.7175375967595527
 40
0.7726949455617176
 40
0.8280754538004238
 40
0.8840084955295496
 40
0.9414328824105895
 40
1.0
 40
1.0
 40
1.0
 40
1.0
 10
-109.2499895580182
 20
227.943379744833
 30
0.0
 10
-109.3120945421805
 20
227.9417924493492
 30
0.0
 10
-109.433080790782
 20
227.9387002510562
 30
0.0
 10
-109.6086615753246
 20
227.9162684058118
 30
0.0
 10
-109.7742782540571
 20
227.8863783203077
 30
0.0
 10
-109.9281606839676
 20
227.8408649253441
 30
0.0
 10
-110.0717901691822
 20
227.787425893464
 30
0.0
 10
-110.2049157700195
 20
227.7258314191727
 30
0.0
 10
-110.3243497675085
 20
227.6513767587523
 30
0.0
 10
-110.433790943715
 20
227.571035037749
 30
0.0
 10
-110.5304652222157
 20
227.4810290430324
 30
0.0
 10
-110.6141417747143
 20
227.3824751109433
 30
0.0
 10
-110.6859048485596
 20
227.2768343767448
 30
0.0
 10
-110.7438434834487
 20
227.163193886067
 30
0.0
 10
-110.7878682355516
 20
227.043031388374
 30
0.0
 10
-110.8213555288325
 20
226.9176985503984
 30
0.0
 10
-110.8390618939341
 20
226.7865149626568
 30
0.0
 10
-110.8403286843164
 20
226.6974547248079
 30
0.0
 10
-110.8409683196209
 20
226.6524859019063
 30
0.0
  0
SPLINE
  5
143
330
1F
100
AcDbEntity
  8
0
  6
Continuous
 62
     7
370
    25
100
AcDbSpline
210
0.0
220
0.0
230
1.0
 70
     8
 71
     3
 72
    23
 73
    19
 74
     0
 42
0.00000001
 43
0.0000000001
 40
0.0
 40
0.0
 40
0.0
 40
0.0
 40
0.0585644061479978
 40
0.1159861344918392
 40
0.1719165867275435
 40
0.2272945310530896
 40
0.2824493262735523
 40
0.3376518023287003
 40
0.3933258875054907
 40
0.4505726672405887
 40
0.5093052978048435
 40
0.5699877677137579
 40
0.6336328541760969
 40
0.7002174034805157
 40
0.7696288703536053
 40
0.8424146772411329
 40
0.9191078813725566
 40
1.0
 40
1.0
 40
1.0
 40
1.0
 10
-110.8409683196209
 20
226.6524859019063
 30
0.0
 10
-110.8390203434949
 20
226.6075547375316
 30
0.0
 10
-110.8351623991256
 20
226.5185690819636
 30
0.0
 10
-110.8136460365701
 20
226.3879563101956
 30
0.0
 10
-110.7765256825741
 20
226.2636510599497
 30
0.0
 10
-110.7290228130874
 20
226.1448205387786
 30
0.0
 10
-110.6678016666701
 20
226.0329144068619
 30
0.0
 10
-110.5929950309044
 20
225.9294060267878
 30
0.0
 10
-110.5064850599459
 20
225.8333315951902
 30
0.0
 10
-110.4072359801636
 20
225.7461663667132
 30
0.0
 10
-110.2954896804263
 20
225.669084748138
 30
0.0
 10
-110.1739927061001
 20
225.5979747057782
 30
0.0
 10
-110.0387807220779
 20
225.5408704645966
 30
0.0
 10
-109.8944643751437
 20
225.4890471445734
 30
0.0
 10
-109.7385451301554
 20
225.4507424448925
 30
0.0
 10
-109.572454302094
 20
225.4249259012312
 30
0.0
 10
-109.396234771262
 20
225.4078335054857
 30
0.0
 10
-109.2752182959485
 20
225.4082322346056
 30
0.0
 10
-109.2130977957296
 20
225.4084369113021
 30
0.0
  0
LINE
  5
144
330
1F
100
AcDbEntity
  8
0
  6
Continuous
 62
     7
370
    25
100
AcDbLine
 10
-105.9485342747
 20
217.1747452017
 30
0.0
 11
-113.947687216
 21
217.0583311963
 31
0.0
  0
LINE
  5
145
330
1F
100
AcDbEntity
  8
0
  6
Continuous
 62
     7
370
    25
100
AcDbLine
 10
-105.3690145275
 20
177.3542178267
 30
0.0
 11
-113.3681674688
 21
177.2378038213
 31
0.0
  0
ARC
  5
146
330
1F
100
AcDbEntity
  8
0
  6
Continuous
 62
     7
370
    25
100
AcDbCircle
 10
-110.2444572487
 20
357.6885770124
 30
0.0
 40
9.750000000000033
100
AcDbArc
 50
77.4842762415
 51
218.4733561757
  0
ARC
  5
147
330
1F
100
AcDbEntity
  8
0
  6
Continuous
 62
     7
370
    25
100
AcDbCircle
 10
-110.2444572487
 20
357.6885770124
 30
0.0
 40
9.749999999999991
100
AcDbArc
 50
218.4733561757
 51
280.8831976541
  0
ARC
  5
148
330
1F
100
AcDbEntity
  8
0
  6
Continuous
 62
     7
370
    25
100
AcDbCircle
 10
-110.2444572487
 20
357.6885770124
 30
0.0
 40
20.00000000000004
100
AcDbArc
 50
28.5911618138
 51
218.4733561757
  0
ARC
  5
149
330
1F
100
AcDbEntity
  8
0
  6
Continuous
 62
     7
370
    25
100
AcDbCircle
 10
-110.2444572487
 20
357.6885770124
 30
0.0
 40
19.99999999999999
100
AcDbArc
 50
218.4733561757
 51
331.4433584448
  0
SPLINE
  5
14A
330
1F
100
AcDbEntity
  8
0
  6
Continuous
 62
     7
370
    25
100
AcDbSpline
210
0.0
220
0.0
230
1.0
 70
     8
 71
     3
 72
    15
 73
    11
 74
     0
 42
0.00000001
 43
0.0000000001
 40
0.0
 40
0.0
 40
0.0
 40
0.0
 40
0.0972939424029303
 40
0.2010199648064962
 40
0.3111193804403319
 40
0.4273248706311685
 40
0.5504298872699557
 40
0.6830582527012023
 40
0.83132598542829
 40
1.0
 40
1.0
 40
1.0
 40
1.0
 10
-107.8995980457242
 20
495.1454601823983
 30
0.0
 10
-107.8663115070078
 20
495.1178285000202
 30
0.0
 10
-107.797537864209
 20
495.0607384111411
 30
0.0
 10
-107.6963014974985
 20
494.966202764132
 30
0.0
 10
-107.6007760101246
 20
494.854307711602
 30
0.0
 10
-107.5151634058947
 20
494.7242150605788
 30
0.0
 10
-107.4435994827997
 20
494.574239820474
 30
0.0
 10
-107.3967668011173
 20
494.4001041143606
 30
0.0
 10
-107.3670425941226
 20
494.2019252979882
 30
0.0
 10
-107.3647919067832
 20
494.0608768015962
 30
0.0
 10
-107.3635941079059
 20
493.9858118524738
 30
0.0
  0
LINE
  5
14B
330
1F
100
AcDbEntity
  8
0
  6
Continuous
 62
     7
370
    25
100
AcDbLine
 10
-107.8995980457
 20
495.161972152
 30
0.0
 11
-107.8995980457
 21
495.1454601823999
 31
0.0
  0
LINE
  5
14C
330
1F
100
AcDbEntity
  8
0
  6
Continuous
 62
     7
370
    25
100
AcDbLine
 10
-107.4448838046
 20
495.3131201819
 30
0.0
 11
-107.8995980457
 21
495.161972152
 31
0.0
  0
LINE
  5
14D
330
1F
100
AcDbEntity
  8
0
  6
Continuous
 62
     7
370
    25
100
AcDbLine
 10
-107.4448838046
 20
495.8669062408999
 30
0.0
 11
-107.4448838046
 21
495.3131201819
 31
0.0
  0
LINE
  5
14E
330
1F
100
AcDbEntity
  8
0
  6
Continuous
 62
     7
370
    25
100
AcDbLine
 10
-113.6229007562
 20
495.8669062408999
 30
0.0
 11
-107.4448838046
 21
495.8669062408999
 31
0.0
  0
LINE
  5
14F
330
1F
100
AcDbEntity
  8
0
  6
Continuous
 62
     7
370
    25
100
AcDbLine
 10
-113.6229007562
 20
495.1365691218
 30
0.0
 11
-113.6229007562
 21
495.8669062408999
 31
0.0
  0
LINE
  5
150
330
1F
100
AcDbEntity
  8
0
  6
Continuous
 62
     7
370
    25
100
AcDbLine
 10
-111.101650006
 20
495.1365691218
 30
0.0
 11
-113.6229007562
 21
495.1365691218
 31
0.0
  0
LINE
  5
151
330
1F
100
AcDbEntity
  8
0
  6
Continuous
 62
     7
370
    25
100
AcDbLine
 10
-111.101650006
 20
495.1225974551999
 30
0.0
 11
-111.101650006
 21
495.1365691218
 31
0.0
  0
SPLINE
  5
152
330
1F
100
AcDbEntity
  8
0
  6
Continuous
 62
     7
370
    25
100
AcDbSpline
210
0.0
220
0.0
230
1.0
 70
     8
 71
     3
 72
    25
 73
    21
 74
     0
 42
0.00000001
 43
0.0000000001
 40
0.0
 40
0.0
 40
0.0
 40
0.0
 40
0.0646342238857615
 40
0.1258059748750934
 40
0.183774625403332
 40
0.2383525125832995
 40
0.2899963942901391
 40
0.3391668498477798
 40
0.3862013767496259
 40
0.4311744684566636
 40
0.4743246752624958
 40
0.515684046106389
 40
0.556029435253615
 40
0.5954403553694454
 40
0.6707449918606347
 40
0.7424963977360461
 40
0.8110132718807086
 40
0.877856649346932
 40
0.9409277756646712
 40
1.0
 40
1.0
 40
1.0
 40
1.0
 10
-109.4263201624482
 20
492.2088698880006
 30
0.0
 10
-109.4940885019945
 20
492.2098181540106
 30
0.0
 10
-109.6259948127651
 20
492.2116638871634
 30
0.0
 10
-109.8182336337283
 20
492.2267336988547
 30
0.0
 10
-109.9985869136428
 20
492.25312467185
 30
0.0
 10
-110.1668026483367
 20
492.2903076082281
 30
0.0
 10
-110.323512094996
 20
492.3350725033865
 30
0.0
 10
-110.4702723086281
 20
492.3853215462796
 30
0.0
 10
-110.6062669557256
 20
492.4440543453774
 30
0.0
 10
-110.732574543994
 20
492.5085811073182
 30
0.0
 10
-110.8480950377838
 20
492.5800712043898
 30
0.0
 10
-110.9549368105148
 20
492.6560018743173
 30
0.0
 10
-111.0499472105818
 20
492.7405631007442
 30
0.0
 10
-111.1631797323477
 20
492.8573185216621
 30
0.0
 10
-111.2852382436488
 20
493.0108365831848
 30
0.0
 10
-111.4024089062211
 20
493.2046651774546
 30
0.0
 10
-111.4922319763343
 20
493.4031639900151
 30
0.0
 10
-111.5486436247635
 20
493.603956049306
 30
0.0
 10
-111.5830661650598
 20
493.7996073421762
 30
0.0
 10
-111.5881834593651
 20
493.927681678393
 30
0.0
 10
-111.5906583379039
 20
493.9896223070082
 30
0.0
  0
SPLINE
  5
153
330
1F
100
AcDbEntity
  8
0
  6
Continuous
 62
     7
370
    25
100
AcDbSpline
210
0.0
220
0.0
230
1.0
 70
     8
 71
     3
 72
    23
 73
    19
 74
     0
 42
0.00000001
 43
0.0000000001
 40
0.0
 40
0.0
 40
0.0
 40
0.0
 40
0.0537711953756764
 40
0.1075503327343179
 40
0.1616193439844317
 40
0.2161351621556992
 40
0.2711702571472024
 40
0.3255668669187935
 40
0.3807259848168546
 40
0.4369160887717933
 40
0.4948898778521709
 40
0.5547569603981359
 40
0.6178663164335032
 40
0.684298905771144
 40
0.7547488809868958
 40
0.8303817376815223
 40
0.911900983531132
 40
1.0
 40
1.0
 40
1.0
 40
1.0
 10
-107.3635941079059
 20
493.9858118524738
 30
0.0
 10
-107.3645731474342
 20
493.930689003973
 30
0.0
 10
-107.3665313710946
 20
493.8204351653496
 30
0.0
 10
-107.389996227834
 20
493.6562492107493
 30
0.0
 10
-107.4231551972989
 20
493.4931166226513
 30
0.0
 10
-107.4733900215981
 20
493.3329620769757
 30
0.0
 10
-107.536639090498
 20
493.1770421545038
 30
0.0
 10
-107.6195208368183
 20
493.0297904634891
 30
0.0
 10
-107.7170863006185
 20
492.8904369207764
 30
0.0
 10
-107.8338427874579
 20
492.7615713123243
 30
0.0
 10
-107.9677365434049
 20
492.6433909143278
 30
0.0
 10
-108.1190482486517
 20
492.5357102023288
 30
0.0
 10
-108.2886574554379
 20
492.4408017604296
 30
0.0
 10
-108.476281772035
 20
492.3578355012999
 30
0.0
 10
-108.6835232938082
 20
492.2898179008208
 30
0.0
 10
-108.9121897981612
 20
492.2421832996781
 30
0.0
 10
-109.1623091973409
 20
492.2148355368789
 30
0.0
 10
-109.336069689246
 20
492.210909207216
 30
0.0
 10
-109.4263201624482
 20
492.2088698880006
 30
0.0
  0
SPLINE
  5
154
330
1F
100
AcDbEntity
  8
0
  6
Continuous
 62
     7
370
    25
100
AcDbSpline
210
0.0
220
0.0
230
1.0
 70
     8
 71
     3
 72
    23
 73
    19
 74
     0
 42
0.00000001
 43
0.0000000001
 40
0.0
 40
0.0
 40
0.0
 40
0.0
 40
0.0721284335709605
 40
0.1407363121628178
 40
0.2074953881034892
 40
0.2718053395831523
 40
0.3343627519380256
 40
0.394459390365737
 40
0.4538897583193037
 40
0.5120715677601913
 40
0.5696875591270857
 40
0.6271328518757448
 40
0.6857207096101182
 40
0.7452890495080418
 40
0.8059991746100713
 40
0.868513647403842
 40
0.9329427886059715
 40
1.0
 40
1.0
 40
1.0
 40
1.0
 10
-109.4733157683707
 20
486.9982003275606
 30
0.0
 10
-109.551292302016
 20
486.9999106563819
 30
0.0
 10
-109.7034393713085
 20
487.0032478336776
 30
0.0
 10
-109.9265137254523
 20
487.0292736355107
 30
0.0
 10
-110.1384760260561
 20
487.0714821469981
 30
0.0
 10
-110.3387168663549
 20
487.1333652799923
 30
0.0
 10
-110.526503495085
 20
487.2087272591593
 30
0.0
 10
-110.7012078697032
 20
487.300023511776
 30
0.0
 10
-110.8625096833913
 20
487.4048825775688
 30
0.0
 10
-111.0095888420815
 20
487.5248490334037
 30
0.0
 10
-111.1407492878885
 20
487.6589660919169
 30
0.0
 10
-111.2578072116123
 20
487.8061646096842
 30
0.0
 10
-111.3578502981095
 20
487.9679274605508
 30
0.0
 10
-111.4420117168841
 20
488.1423756552642
 30
0.0
 10
-111.5079806434819
 20
488.3289857409433
 30
0.0
 10
-111.5566224095864
 20
488.5262374863513
 30
0.0
 10
-111.5843979750957
 20
488.7345567034242
 30
0.0
 10
-111.5885439280294
 20
488.8766740816261
 30
0.0
 10
-111.5906583379039
 20
488.9491530490982
 30
0.0
  0
SPLINE
  5
155
330
1F
100
AcDbEntity
  8
0
  6
Continuous
 62
     7
370
    25
100
AcDbSpline
210
0.0
220
0.0
230
1.0
 70
     8
 71
     3
 72
    23
 73
    19
 74
     0
 42
0.00000001
 43
0.0000000001
 40
0.0
 40
0.0
 40
0.0
 40
0.0
 40
0.0689392928719264
 40
0.1345308805643301
 40
0.1972817479686209
 40
0.2584415363493343
 40
0.3179600120326659
 40
0.3759598923273328
 40
0.4333570980483889
 40
0.4909248594971368
 40
0.5487554584959456
 40
0.6075944403223583
 40
0.6676407723007057
 40
0.7298559525147523
 40
0.7938875818896394
 40
0.8602072970083261
 40
0.9287141547150639
 40
1.0
 40
1.0
 40
1.0
 40
1.0
 10
-107.3635941079059
 20
488.9529635036325
 30
0.0
 10
-107.3649519968426
 20
488.8783318494833
 30
0.0
 10
-107.3676018353709
 20
488.7326926685112
 30
0.0
 10
-107.398389844943
 20
488.5210662620037
 30
0.0
 10
-107.444162699569
 20
488.3209094901049
 30
0.0
 10
-107.5124071610263
 20
488.1340886453984
 30
0.0
 10
-107.5961459863382
 20
487.9595936585141
 30
0.0
 10
-107.6954402159958
 20
487.7980250331141
 30
0.0
 10
-107.8122089148802
 20
487.6512972731457
 30
0.0
 10
-107.9433601634635
 20
487.5177170931058
 30
0.0
 10
-108.088727849362
 20
487.397051442731
 30
0.0
 10
-108.2499369460589
 20
487.2937096768874
 30
0.0
 10
-108.4233817786909
 20
487.2019221826438
 30
0.0
 10
-108.6118808260531
 20
487.1295098886371
 30
0.0
 10
-108.8120034831923
 20
487.0711173636712
 30
0.0
 10
-109.0229073168317
 20
487.0272435972747
 30
0.0
 10
-109.2450059581836
 20
487.0038712406667
 30
0.0
 10
-109.396210548826
 20
487.0001155190266
 30
0.0
 10
-109.4733157683707
 20
486.9982003275606
 30
0.0
  0
SPLINE
  5
156
330
1F
100
AcDbEntity
  8
0
  6
Continuous
 62
     7
370
    25
100
AcDbSpline
210
0.0
220
0.0
230
1.0
 70
     8
 71
     3
 72
    23
 73
    19
 74
     0
 42
0.00000001
 43
0.0000000001
 40
0.0
 40
0.0
 40
0.0
 40
0.0
 40
0.0715620711784694
 40
0.1403781451112691
 40
0.2069548428398179
 40
0.2714599473040813
 40
0.3342071944426704
 40
0.3946690367534984
 40
0.4537360140573394
 40
0.5117907011457002
 40
0.5695815322134071
 40
0.6272011466661441
 40
0.6854257709993389
 40
0.7448211468600411
 40
0.8058484513770681
 40
0.8680781331231623
 40
0.9327565150404467
 40
1.0
 40
1.0
 40
1.0
 40
1.0
 10
-109.4733157683707
 20
490.9001057706358
 30
0.0
 10
-109.3961889464698
 20
490.8983583595466
 30
0.0
 10
-109.2448948318855
 20
490.8949305894526
 30
0.0
 10
-109.0230546561436
 20
490.8691775108809
 30
0.0
 10
-108.8115658126397
 20
490.8266591172037
 30
0.0
 10
-108.6117860522323
 20
490.7648419516418
 30
0.0
 10
-108.4235253698343
 20
490.6899221189482
 30
0.0
 10
-108.2502281865107
 20
490.5968674060082
 30
0.0
 10
-108.0886959696253
 20
490.4936892691253
 30
0.0
 10
-107.9433661176081
 20
490.3729546347603
 30
0.0
 10
-107.8122165489095
 20
490.2393869226553
 30
0.0
 10
-107.695403716014
 20
490.0926775291418
 30
0.0
 10
-107.5964872116354
 20
489.9313470778317
 30
0.0
 10
-107.5123465128733
 20
489.757924672661
 30
0.0
 10
-107.4443829219314
 20
489.5727003440409
 30
0.0
 10
-107.3984862455052
 20
489.3751387663663
 30
0.0
 10
-107.3677058626622
 20
489.1677418017891
 30
0.0
 10
-107.364982344949
 20
489.0254783317819
 30
0.0
 10
-107.3635941079059
 20
488.9529635036325
 30
0.0
  0
SPLINE
  5
157
330
1F
100
AcDbEntity
  8
0
  6
Continuous
 62
     7
370
    25
100
AcDbSpline
210
0.0
220
0.0
230
1.0
 70
     8
 71
     3
 72
    23
 73
    19
 74
     0
 42
0.00000001
 43
0.0000000001
 40
0.0
 40
0.0
 40
0.0
 40
0.0
 40
0.0680871712653312
 40
0.1335427260032816
 40
0.1963050417963633
 40
0.2576241263124752
 40
0.3170668052686742
 40
0.3755310704136096
 40
0.4328551808429897
 40
0.4903496297974895
 40
0.5481621107656814
 40
0.6070430530058665
 40
0.6668330194346764
 40
0.72911265851385
 40
0.7930627436642946
 40
0.8596041089277999
 40
0.9280237232106983
 40
1.0
 40
1.0
 40
1.0
 40
1.0
 10
-111.5906583379039
 20
488.9491530490982
 30
0.0
 10
-111.5885211945832
 20
489.0228953866251
 30
0.0
 10
-111.5843295100175
 20
489.1675298690421
 30
0.0
 10
-111.5569633641126
 20
489.3788918226651
 30
0.0
 10
-111.5076585219706
 20
489.5785021446286
 30
0.0
 10
-111.4426034633991
 20
489.7667281308543
 30
0.0
 10
-111.3577844281932
 20
489.9417850172906
 30
0.0
 10
-111.2578332204107
 20
490.1035883573583
 30
0.0
 10
-111.140709972562
 20
490.2507343516618
 30
0.0
 10
-111.0099082954296
 20
490.3848307597585
 30
0.0
 10
-110.862794773661
 20
490.5037325729463
 30
0.0
 10
-110.7007670819882
 20
490.6057455881033
 30
0.0
 10
-110.5264653406
 20
490.6959103684916
 30
0.0
 10
-110.3388833180671
 20
490.7703779145433
 30
0.0
 10
-110.1381651264025
 20
490.8289199790944
 30
0.0
 10
-109.926497288677
 20
490.8705005639468
 30
0.0
 10
-109.703349265813
 20
490.8946715440505
 30
0.0
 10
-109.5512777482734
 20
490.8982640255485
 30
0.0
 10
-109.4733157683707
 20
490.9001057706358
 30
0.0
  0
CIRCLE
  5
158
330
1F
100
AcDbEntity
  8
0
  6
Continuous
 62
     7
370
    25
100
AcDbCircle
 10
-110.2444572487
 20
477.6806809688999
 30
0.0
 40
20.00000000000003
  0
LINE
  5
159
330
1F
100
AcDbEntity
  8
0
  6
Continuous
 62
     7
370
    25
100
AcDbLine
 10
-113.0945177274
 20
486.7909116008999
 30
0.0
 11
-112.4848450019
 21
486.7909116008999
 31
0.0
  0
SPLINE
  5
15A
330
1F
100
AcDbEntity
  8
0
  6
Continuous
 62
     7
370
    25
100
AcDbSpline
210
0.0
220
0.0
230
1.0
 70
     8
 71
     3
 72
    15
 73
    11
 74
     0
 42
0.00000001
 43
0.0000000001
 40
0.0
 40
0.0
 40
0.0
 40
0.0
 40
0.1423258940320992
 40
0.2848541254632079
 40
0.4228852025657611
 40
0.5563657562480156
 40
0.6826451574435973
 40
0.8008269262126644
 40
0.9070244737173176
 40
1.0
 40
1.0
 40
1.0
 40
1.0
 10
-113.2977419692493
 20
485.5741064529592
 30
0.0
 10
-113.2968347947951
 20
485.6329628297888
 30
0.0
 10
-113.2950191562036
 20
485.7507592565306
 30
0.0
 10
-113.285848154124
 20
485.9255285543581
 30
0.0
 10
-113.265544947644
 20
486.0956212222858
 30
0.0
 10
-113.2426158676461
 20
486.2585752049009
 30
0.0
 10
-113.2119285815175
 20
486.4119283355985
 30
0.0
 10
-113.1771693693636
 20
486.5527744230564
 30
0.0
 10
-113.1383486567767
 20
486.6782843446015
 30
0.0
 10
-113.1084668058134
 20
486.7550682717649
 30
0.0
 10
-113.0945177274225
 20
486.7909116008973
 30
0.0
  0
SPLINE
  5
15B
330
1F
100
AcDbEntity
  8
0
  6
Continuous
 62
     7
370
    25
100
AcDbSpline
210
0.0
220
0.0
230
1.0
 70
     8
 71
     3
 72
    23
 73
    19
 74
     0
 42
0.00000001
 43
0.0000000001
 40
0.0
 40
0.0
 40
0.0
 40
0.0
 40
0.0687113481745397
 40
0.1351841099168863
 40
0.19957785466421
 40
0.2627852302819177
 40
0.3243549596330249
 40
0.3841199942034504
 40
0.4429552569899428
 40
0.5011421859321386
 40
0.5591620554331936
 40
0.6175100612771418
 40
0.6768436169782204
 40
0.7376739603101641
 40
0.7999445077734525
 40
0.8639028484458664
 40
0.9304769991463144
 40
1.0
 40
1.0
 40
1.0
 40
1.0
 10
-110.2582694024268
 20
482.6451370676299
 30
0.0
 10
-110.3672023637473
 20
482.6474527976832
 30
0.0
 10
-110.5815192969462
 20
482.6520088122913
 30
0.0
 10
-110.8958101218605
 20
482.6916183472165
 30
0.0
 10
-111.1976493021994
 20
482.752622209203
 30
0.0
 10
-111.484219986629
 20
482.8422709103251
 30
0.0
 10
-111.7553347128189
 20
482.9530350390562
 30
0.0
 10
-112.0072932667371
 20
483.0885455839918
 30
0.0
 10
-112.2392846939745
 20
483.2464928134812
 30
0.0
 10
-112.4514110239045
 20
483.4261203961056
 30
0.0
 10
-112.641361429351
 20
483.6280076750428
 30
0.0
 10
-112.8098367769157
 20
483.8503319849541
 30
0.0
 10
-112.9565187260916
 20
484.0928488631154
 30
0.0
 10
-113.0796587083426
 20
484.3549818724272
 30
0.0
 10
-113.1779710201544
 20
484.635263292524
 30
0.0
 10
-113.2473742870775
 20
484.9333141932933
 30
0.0
 10
-113.2901674977027
 20
485.2481251444745
 30
0.0
 10
-113.2951809362687
 20
485.4638876902421
 30
0.0
 10
-113.2977419692493
 20
485.5741064529592
 30
0.0
  0
SPLINE
  5
15C
330
1F
100
AcDbEntity
  8
0
  6
Continuous
 62
     7
370
    25
100
AcDbSpline
210
0.0
220
0.0
230
1.0
 70
     8
 71
     3
 72
    23
 73
    19
 74
     0
 42
0.00000001
 43
0.0000000001
 40
0.0
 40
0.0
 40
0.0
 40
0.0
 40
0.0740405633115975
 40
0.144149949339629
 40
0.2105614324803259
 40
0.2741135620653781
 40
0.3352467497913475
 40
0.3938463229438849
 40
0.4510778690356895
 40
0.5073216982967751
 40
0.5635434820871211
 40
0.6198915860159606
 40
0.6776501202715855
 40
0.7370800581187077
 40
0.7986666340754458
 40
0.8625888828416114
 40
0.9297472238457093
 40
1.0
 40
1.0
 40
1.0
 40
1.0
 10
-107.3635941079059
 20
485.6007796346989
 30
0.0
 10
-107.3660151630504
 20
485.4846735118716
 30
0.0
 10
-107.3707287276267
 20
485.2586259107325
 30
0.0
 10
-107.4077245954884
 20
484.9300792728732
 30
0.0
 10
-107.469304720102
 20
484.6220643165825
 30
0.0
 10
-107.5573057737827
 20
484.3351335686973
 30
0.0
 10
-107.6676704861703
 20
484.0693640023005
 30
0.0
 10
-107.7986930298296
 20
483.8241925508214
 30
0.0
 10
-107.9529742326631
 20
483.6021085338553
 30
0.0
 10
-108.1296108523501
 20
483.4023042102502
 30
0.0
 10
-108.3273670673356
 20
483.2256239133603
 30
0.0
 10
-108.5448548723752
 20
483.0695030108773
 30
0.0
 10
-108.7854682055612
 20
482.9411417451121
 30
0.0
 10
-109.0442901821321
 20
482.8326750421566
 30
0.0
 10
-109.3219621149654
 20
482.7471877887086
 30
0.0
 10
-109.618710714362
 20
482.6889374101084
 30
0.0
 10
-109.9325283051311
 20
482.6505888252818
 30
0.0
 10
-110.1480710620821
 20
482.6469813993713
 30
0.0
 10
-110.2582694024268
 20
482.6451370676299
 30
0.0
  0
SPLINE
  5
15D
330
1F
100
AcDbEntity
  8
0
  6
Continuous
 62
     7
370
    25
100
AcDbSpline
210
0.0
220
0.0
230
1.0
 70
     8
 71
     3
 72
    13
 73
     9
 74
     0
 42
0.00000001
 43
0.0000000001
 40
0.0
 40
0.0
 40
0.0
 40
0.0
 40
0.1080298415950983
 40
0.2214251528073026
 40
0.3421623026752726
 40
0.4688537323569485
 40
0.7318427029882409
 40
1.0
 40
1.0
 40
1.0
 40
1.0
 10
-107.5668183497327
 20
486.872201297628
 30
0.0
 10
-107.551120151084
 20
486.8283219340852
 30
0.0
 10
-107.5189440784056
 20
486.7383838703606
 30
0.0
 10
-107.4781115892423
 20
486.5964338875961
 30
0.0
 10
-107.4446463400788
 20
486.4443700767128
 30
0.0
 10
-107.4055836661564
 20
486.2277125605002
 30
0.0
 10
-107.3700254644014
 20
485.945674409784
 30
0.0
 10
-107.3657517552006
 20
485.7164879271801
 30
0.0
 10
-107.3635941079059
 20
485.6007796346989
 30
0.0
  0
LINE
  5
15E
330
1F
100
AcDbEntity
  8
0
  6
Continuous
 62
     7
370
    25
100
AcDbLine
 10
-108.1764910752
 20
486.8722012976
 30
0.0
 11
-107.5668183497
 21
486.8722012976
 31
0.0
  0
SPLINE
  5
15F
330
1F
100
AcDbEntity
  8
0
  6
Continuous
 62
     7
370
    25
100
AcDbSpline
210
0.0
220
0.0
230
1.0
 70
     8
 71
     3
 72
    15
 73
    11
 74
     0
 42
0.00000001
 43
0.0000000001
 40
0.0
 40
0.0
 40
0.0
 40
0.0
 40
0.1198108806550068
 40
0.2471683136165535
 40
0.377881040765144
 40
0.5101862240762878
 40
0.6418913435085142
 40
0.7710255886223349
 40
0.8913606104942408
 40
1.0
 40
1.0
 40
1.0
 40
1.0
 10
-108.0139116817517
 20
485.6668275132927
 30
0.0
 10
-108.014194613568
 20
485.7155392598497
 30
0.0
 10
-108.0147782982845
 20
485.816030969651
 30
0.0
 10
-108.0266766546897
 20
485.9692255593361
 30
0.0
 10
-108.0392304707877
 20
486.1274115594648
 30
0.0
 10
-108.0604650249137
 20
486.2864848516879
 30
0.0
 10
-108.0840456567181
 20
486.4445352546859
 30
0.0
 10
-108.1117248169265
 20
486.5969801932288
 30
0.0
 10
-108.1410491130046
 20
486.7396087013528
 30
0.0
 10
-108.1650863484895
 20
486.8295348584166
 30
0.0
 10
-108.1764910752132
 20
486.872201297628
 30
0.0
  0
SPLINE
  5
160
330
1F
100
AcDbEntity
  8
0
  6
Continuous
 62
     7
370
    25
100
AcDbSpline
210
0.0
220
0.0
230
1.0
 70
     8
 71
     3
 72
    23
 73
    19
 74
     0
 42
0.00000001
 43
0.0000000001
 40
0.0
 40
0.0
 40
0.0
 40
0.0
 40
0.0764104101335797
 40
0.1484126178213011
 40
0.2159107045600696
 40
0.2797266915719015
 40
0.3405248468609383
 40
0.3990243088830337
 40
0.4558288236360598
 40
0.5118044790891889
 40
0.5675021788441479
 40
0.6236609566051024
 40
0.6812979462266586
 40
0.7403407978777389
 40
0.8016162076232509
 40
0.8651866502972005
 40
0.9311985652358265
 40
1.0
 40
1.0
 40
1.0
 40
1.0
 10
-110.2836724326551
 20
483.3767443382066
 30
0.0
 10
-110.1900279857881
 20
483.3786272122763
 30
0.0
 10
-110.00814154545
 20
483.3822843352945
 30
0.0
 10
-109.7447946454875
 20
483.4123712851336
 30
0.0
 10
-109.5008939046574
 20
483.4647216959211
 30
0.0
 10
-109.2758148447814
 20
483.5352040660655
 30
0.0
 10
-109.0703715034158
 20
483.6263810537844
 30
0.0
 10
-108.8819740105388
 20
483.7325325735576
 30
0.0
 10
-108.7133626940871
 20
483.8583594590689
 30
0.0
 10
-108.5621636050624
 20
483.9996398337238
 30
0.0
 10
-108.430944440508
 20
484.1586595436872
 30
0.0
 10
-108.3169249067133
 20
484.3327298442085
 30
0.0
 10
-108.2216656092267
 20
484.5224383864598
 30
0.0
 10
-108.1460034157708
 20
484.7272990997042
 30
0.0
 10
-108.0860035061974
 20
484.9448055583764
 30
0.0
 10
-108.0451063501239
 20
485.1753159949945
 30
0.0
 10
-108.0189847238575
 20
485.4172779530022
 30
0.0
 10
-108.0156258626567
 20
485.5825047179824
 30
0.0
 10
-108.0139116817517
 20
485.6668275132927
 30
0.0
  0
SPLINE
  5
161
330
1F
100
AcDbEntity
  8
0
  6
Continuous
 62
     7
370
    25
100
AcDbSpline
210
0.0
220
0.0
230
1.0
 70
     8
 71
     3
 72
    23
 73
    19
 74
     0
 42
0.00000001
 43
0.0000000001
 40
0.0
 40
0.0
 40
0.0
 40
0.0
 40
0.0631695640574018
 40
0.1247366436544234
 40
0.1846762667752307
 40
0.2443503015043696
 40
0.3030959543448273
 40
0.360687975106647
 40
0.417628642465995
 40
0.4748049432057256
 40
0.5326731368505033
 40
0.5914582710016634
 40
0.6521690754171039
 40
0.7150015312812453
 40
0.7807759788088797
 40
0.850066181543023
 40
0.9226718571843456
 40
1.0
 40
1.0
 40
1.0
 40
1.0
 10
-112.6474243954035
 20
485.6249125134159
 30
0.0
 10
-112.6460368310075
 20
485.5473209991567
 30
0.0
 10
-112.6432969019265
 20
485.3941063108941
 30
0.0
 10
-112.6119442567489
 20
485.1692118474818
 30
0.0
 10
-112.5675475755801
 20
484.9510599196047
 30
0.0
 10
-112.5007542780741
 20
484.742196212618
 30
0.0
 10
-112.4180993767944
 20
484.5422167295248
 30
0.0
 10
-112.3142907658965
 20
484.3560758329356
 30
0.0
 10
-112.1932415265084
 20
484.183035581018
 30
0.0
 10
-112.0523981096756
 20
484.0252003436119
 30
0.0
 10
-111.8946804746888
 20
483.8809456928029
 30
0.0
 10
-111.7179511677685
 20
483.7529008351221
 30
0.0
 10
-111.5224271119002
 20
483.6433311138751
 30
0.0
 10
-111.3107650479104
 20
483.546570760594
 30
0.0
 10
-111.0794599020344
 20
483.4708952035095
 30
0.0
 10
-110.8304334706347
 20
483.4146704179715
 30
0.0
 10
-110.5626208794786
 20
483.3835757469536
 30
0.0
 10
-110.3785874162863
 20
483.3790687929822
 30
0.0
 10
-110.2836724326551
 20
483.3767443382066
 30
0.0
  0
SPLINE
  5
162
330
1F
100
AcDbEntity
  8
0
  6
Continuous
 62
     7
370
    25
100
AcDbSpline
210
0.0
220
0.0
230
1.0
 70
     8
 71
     3
 72
    11
 73
     7
 74
     0
 42
0.00000001
 43
0.0000000001
 40
0.0
 40
0.0
 40
0.0
 40
0.0
 40
0.2322897423956936
 40
0.4826261366221046
 40
0.7415637298405821
 40
1.0
 40
1.0
 40
1.0
 40
1.0
 10
-112.484845001942
 20
486.7909116008973
 30
0.0
 10
-112.5070726722663
 20
486.7022279491788
 30
0.0
 10
-112.5532548865307
 20
486.5179707892671
 30
0.0
 10
-112.6031525465245
 20
486.2303403051515
 30
0.0
 10
-112.6414272640824
 20
485.9303138683282
 30
0.0
 10
-112.6454266433978
 20
485.7266471823165
 30
0.0
 10
-112.6474243954035
 20
485.6249125134159
 30
0.0
  0
LINE
  5
163
330
1F
100
AcDbEntity
  8
0
  6
Continuous
 62
     7
370
    25
100
AcDbLine
 10
-113.6229007562
 20
491.9202914646
 30
0.0
 11
-107.4448838046
 21
491.9202914646
 31
0.0
  0
LINE
  5
164
330
1F
100
AcDbEntity
  8
0
  6
Continuous
 62
     7
370
    25
100
AcDbLine
 10
-113.6229007562
 20
491.188684194
 30
0.0
 11
-113.6229007562
 21
491.9202914646
 31
0.0
  0
LINE
  5
165
330
1F
100
AcDbEntity
  8
0
  6
Continuous
 62
     7
370
    25
100
AcDbLine
 10
-107.4448838046
 20
491.188684194
 30
0.0
 11
-113.6229007562
 21
491.188684194
 31
0.0
  0
LINE
  5
166
330
1F
100
AcDbEntity
  8
0
  6
Continuous
 62
     7
370
    25
100
AcDbLine
 10
-107.4448838046
 20
491.9202914646
 30
0.0
 11
-107.4448838046
 21
491.188684194
 31
0.0
  0
SPLINE
  5
167
330
1F
100
AcDbEntity
  8
0
  6
Continuous
 62
     7
370
    25
100
AcDbSpline
210
0.0
220
0.0
230
1.0
 70
     8
 71
     3
 72
    15
 73
    11
 74
     0
 42
0.00000001
 43
0.0000000001
 40
0.0
 40
0.0
 40
0.0
 40
0.0
 40
0.1406500357071492
 40
0.2735591671262061
 40
0.3987684191595777
 40
0.518333275884674
 40
0.6355829432746308
 40
0.7541635044003851
 40
0.8752636347821095
 40
1.0
 40
1.0
 40
1.0
 40
1.0
 10
-111.5906583379039
 20
493.9896223070082
 30
0.0
 10
-111.5894448338351
 20
494.0494211211306
 30
0.0
 10
-111.5870846128745
 20
494.1657276240351
 30
0.0
 10
-111.5616949074685
 20
494.3335858264523
 30
0.0
 10
-111.5249541128744
 20
494.4900664630003
 30
0.0
 10
-111.4693597675016
 20
494.6339948201356
 30
0.0
 10
-111.3981769244901
 20
494.7674805288125
 30
0.0
 10
-111.3137161461545
 20
494.8936089836011
 30
0.0
 10
-111.216196047203
 20
495.0143777057463
 30
0.0
 10
-111.1402066795789
 20
495.0861702377193
 30
0.0
 10
-111.1016500060081
 20
495.1225974551927
 30
0.0
  0
LINE
  5
168
330
1F
100
AcDbEntity
  8
0
  6
Continuous
 62
     7
370
    25
100
AcDbLine
 10
-108.4787871349
 20
495.1352989702999
 30
0.0
 11
-110.5681863712
 21
495.1352989702999
 31
0.0
  0
SPLINE
  5
169
330
1F
100
AcDbEntity
  8
0
  6
Continuous
 62
     7
370
    25
100
AcDbSpline
210
0.0
220
0.0
230
1.0
 70
     8
 71
     3
 72
    23
 73
    19
 74
     0
 42
0.00000001
 43
0.0000000001
 40
0.0
 40
0.0
 40
0.0
 40
0.0
 40
0.0791118820116508
 40
0.1543110478339256
 40
0.2265467070948425
 40
0.2956229109531896
 40
0.3618086546230929
 40
0.4247419249873331
 40
0.4848628160838774
 40
0.5427429051761057
 40
0.5993040303378232
 40
0.6539839151515193
 40
0.7088026184939685
 40
0.7638947014417435
 40
0.8198747306326017
 40
0.877288779004801
 40
0.9375007379321946
 40
1.0
 40
1.0
 40
1.0
 40
1.0
 10
-109.437751526051
 20
492.9404771585772
 30
0.0
 10
-109.3814134271599
 20
492.9415145010071
 30
0.0
 10
-109.2715235995918
 20
492.9435378809753
 30
0.0
 10
-109.1106624566593
 20
492.9575041716992
 30
0.0
 10
-108.9581921648118
 20
492.9812528107277
 30
0.0
 10
-108.8142994449315
 20
493.0156052604319
 30
0.0
 10
-108.6799026559268
 20
493.0589386850211
 30
0.0
 10
-108.5543885394589
 20
493.108634992203
 30
0.0
 10
-108.4411451047062
 20
493.1706203785663
 30
0.0
 10
-108.3372465501302
 20
493.2391239519278
 30
0.0
 10
-108.2443210997157
 20
493.3162467470705
 30
0.0
 10
-108.1634241503738
 20
493.4028155981396
 30
0.0
 10
-108.0926940458512
 20
493.496691224734
 30
0.0
 10
-108.0359054995639
 20
493.6006423692852
 30
0.0
 10
-107.9895433677082
 20
493.7115839813349
 30
0.0
 10
-107.956730424542
 20
493.8310441398551
 30
0.0
 10
-107.9357711214068
 20
493.9579748501152
 30
0.0
 10
-107.9336846608319
 20
494.0454244555114
 30
0.0
 10
-107.932621985021
 20
494.0899642764102
 30
0.0
  0
SPLINE
  5
16A
330
1F
100
AcDbEntity
  8
0
  6
Continuous
 62
     7
370
    25
100
AcDbSpline
210
0.0
220
0.0
230
1.0
 70
     8
 71
     3
 72
    21
 73
    17
 74
     0
 42
0.00000001
 43
0.0000000001
 40
0.0
 40
0.0
 40
0.0
 40
0.0
 40
0.0860764486572595
 40
0.1781471290595329
 40
0.227389777515491
 40
0.2774023316641487
 40
0.3296280888882853
 40
0.3845461749046505
 40
0.443314006284639
 40
0.5047297809114412
 40
0.5711104350803686
 40
0.6420327051209255
 40
0.7189947464323371
 40
0.8039337754063209
 40
0.8975631995969301
 40
1.0
 40
1.0
 40
1.0
 40
1.0
 10
-111.0216304607888
 20
494.1026657915243
 30
0.0
 10
-111.0177071124141
 20
494.0393085582015
 30
0.0
 10
-111.0095871997068
 20
493.9081819910894
 30
0.0
 10
-110.966352374019
 20
493.7452884783032
 30
0.0
 10
-110.9134948262744
 20
493.6143906666453
 30
0.0
 10
-110.855646326019
 20
493.5186921005136
 30
0.0
 10
-110.7875949701907
 20
493.4248431874913
 30
0.0
 10
-110.7020113810021
 20
493.3372650501805
 30
0.0
 10
-110.603933180813
 20
493.253269175168
 30
0.0
 10
-110.4886201929117
 20
493.1780933449994
 30
0.0
 10
-110.3591844601293
 20
493.1095465623687
 30
0.0
 10
-110.2130064202867
 20
493.0496885192948
 30
0.0
 10
-110.0488791911216
 20
492.9993275898777
 30
0.0
 10
-109.8636634016227
 20
492.9645314837335
 30
0.0
 10
-109.6574830548882
 20
492.945084333574
 30
0.0
 10
-109.513156439492
 20
492.942058195371
 30
0.0
 10
-109.437751526051
 20
492.9404771585772
 30
0.0
  0
SPLINE
  5
16B
330
1F
100
AcDbEntity
  8
0
  6
Continuous
 62
     7
370
    25
100
AcDbSpline
210
0.0
220
0.0
230
1.0
 70
     8
 71
     3
 72
    15
 73
    11
 74
     0
 42
0.00000001
 43
0.0000000001
 40
0.0
 40
0.0
 40
0.0
 40
0.0
 40
0.1233051672922292
 40
0.2458870735592208
 40
0.3696445599152442
 40
0.4937075190121255
 40
0.6186920310226735
 40
0.7439694327467253
 40
0.870482864137744
 40
1.0
 40
1.0
 40
1.0
 40
1.0
 10
-110.5681863712127
 20
495.135298970307
 30
0.0
 10
-110.6014347796698
 20
495.1011657549481
 30
0.0
 10
-110.6677365741165
 20
495.0330995366378
 30
0.0
 10
-110.7557901046084
 20
494.9202967489314
 30
0.0
 10
-110.8325986113555
 20
494.7994762781539
 30
0.0
 10
-110.901294168217
 20
494.6726415884578
 30
0.0
 10
-110.9539248351609
 20
494.5376494003904
 30
0.0
 10
-110.9941544088644
 20
494.3975637461843
 30
0.0
 10
-111.0172765543378
 20
494.2516185426003
 30
0.0
 10
-111.0201678519111
 20
494.1527035262645
 30
0.0
 10
-111.0216304607888
 20
494.1026657915243
 30
0.0
  0
SPLINE
  5
16C
330
1F
100
AcDbEntity
  8
0
  6
Continuous
 62
     7
370
    25
100
AcDbSpline
210
0.0
220
0.0
230
1.0
 70
     8
 71
     3
 72
    15
 73
    11
 74
     0
 42
0.00000001
 43
0.0000000001
 40
0.0
 40
0.0
 40
0.0
 40
0.0
 40
0.16007515238852
 40
0.3079611218875788
 40
0.4471638699839713
 40
0.577986626839652
 40
0.699960319165248
 40
0.8130151313921214
 40
0.913521304986332
 40
1.0
 40
1.0
 40
1.0
 40
1.0
 10
-107.932621985021
 20
494.0899642764102
 30
0.0
 10
-107.9350775124114
 20
494.1554177618898
 30
0.0
 10
-107.9398015870645
 20
494.2813406707176
 30
0.0
 10
-107.9821581303629
 20
494.4601135583915
 30
0.0
 10
-108.045101993413
 20
494.6191471704652
 30
0.0
 10
-108.1211412593757
 20
494.7604074561866
 30
0.0
 10
-108.207386526241
 20
494.8829402770477
 30
0.0
 10
-108.3000877764399
 20
494.9840901636552
 30
0.0
 10
-108.3891070972599
 20
495.0686149788431
 30
0.0
 10
-108.4504271862638
 20
495.114211171685
 30
0.0
 10
-108.4787871349305
 20
495.135298970307
 30
0.0
  0
SPLINE
  5
16D
330
1F
100
AcDbEntity
  8
0
  6
Continuous
 62
     7
370
    25
100
AcDbSpline
210
0.0
220
0.0
230
1.0
 70
     8
 71
     3
 72
    23
 73
    19
 74
     0
 42
0.00000001
 43
0.0000000001
 40
0.0
 40
0.0
 40
0.0
 40
0.0
 40
0.0594087907027381
 40
0.1165246942756252
 40
0.1727120126199797
 40
0.2278077478227356
 40
0.2827073531120831
 40
0.3376915309068984
 40
0.39362130480138
 40
0.4507052391597386
 40
0.5092416893532338
 40
0.5702028494798327
 40
0.6330934662454229
 40
0.6999838116482526
 40
0.7697140575170174
 40
0.8422668237764366
 40
0.919312248998834
 40
1.0
 40
1.0
 40
1.0
 40
1.0
 10
-107.932621985021
 20
488.9529635036325
 30
0.0
 10
-107.9338176015885
 20
488.9966363665107
 30
0.0
 10
-107.9361626898043
 20
489.082296534557
 30
0.0
 10
-107.9553987953561
 20
489.2081609630055
 30
0.0
 10
-107.9889098888547
 20
489.3275266881043
 30
0.0
 10
-108.0332378054142
 20
489.4415593423674
 30
0.0
 10
-108.0904812774822
 20
489.5488346317497
 30
0.0
 10
-108.1613689851077
 20
489.6482781687764
 30
0.0
 10
-108.2427725086302
 20
489.7413593929598
 30
0.0
 10
-108.3357879914755
 20
489.8269099088811
 30
0.0
 10
-108.4411160015951
 20
489.903077016063
 30
0.0
 10
-108.5563502545671
 20
489.9719876685645
 30
0.0
 10
-108.6840786599103
 20
490.030235066905
 30
0.0
 10
-108.8216796788506
 20
490.0813276659214
 30
0.0
 10
-108.970650938456
 20
490.1203153506362
 30
0.0
 10
-109.1295812846277
 20
490.147738239502
 30
0.0
 10
-109.2980132605284
 20
490.1664475399105
 30
0.0
 10
-109.4139889078165
 20
490.1678044025916
 30
0.0
 10
-109.4733157683707
 20
490.1684985000592
 30
0.0
  0
SPLINE
  5
16E
330
1F
100
AcDbEntity
  8
0
  6
Continuous
 62
     7
370
    25
100
AcDbSpline
210
0.0
220
0.0
230
1.0
 70
     8
 71
     3
 72
    23
 73
    19
 74
     0
 42
0.00000001
 43
0.0000000001
 40
0.0
 40
0.0
 40
0.0
 40
0.0
 40
0.0804876674389734
 40
0.157342041071286
 40
0.2297148963065412
 40
0.2994216299227026
 40
0.3659503122636749
 40
0.4289292917231509
 40
0.4897392848396129
 40
0.5484717645468747
 40
0.6054141463549556
 40
0.6616386279894511
 40
0.7169571111356362
 40
0.7722278132466509
 40
0.8277221334069043
 40
0.883770122563558
 40
0.9413125217204411
 40
1.0
 40
1.0
 40
1.0
 40
1.0
 10
-109.4733157683707
 20
487.7298075981372
 30
0.0
 10
-109.4139840691118
 20
487.7304856077162
 30
0.0
 10
-109.2979989628382
 20
487.7318110208433
 30
0.0
 10
-109.1296341660124
 20
487.7507436805065
 30
0.0
 10
-108.9703595686355
 20
487.777401553346
 30
0.0
 10
-108.8222504445854
 20
487.8191413052483
 30
0.0
 10
-108.683401518614
 20
487.867275341247
 30
0.0
 10
-108.5567896326814
 20
487.9280803787608
 30
0.0
 10
-108.4406033114518
 20
487.9961821438775
 30
0.0
 10
-108.3362570637065
 20
488.074140634274
 30
0.0
 10
-108.2422972899304
 20
488.1594556927025
 30
0.0
 10
-108.1614012464266
 20
488.2539382405966
 30
0.0
 10
-108.0904498259086
 20
488.3545702612059
 30
0.0
 10
-108.0332029466425
 20
488.4631238879153
 30
0.0
 10
-107.9891577285964
 20
488.5780663179998
 30
0.0
 10
-107.955199578388
 20
488.6981505425676
 30
0.0
 10
-107.9363314492901
 20
488.8240772687098
 30
0.0
 10
-107.9338665676574
 20
488.9097201783398
 30
0.0
 10
-107.932621985021
 20
488.9529635036325
 30
0.0
  0
SPLINE
  5
16F
330
1F
100
AcDbEntity
  8
0
  6
Continuous
 62
     7
370
    25
100
AcDbSpline
210
0.0
220
0.0
230
1.0
 70
     8
 71
     3
 72
    23
 73
    19
 74
     0
 42
0.00000001
 43
0.0000000001
 40
0.0
 40
0.0
 40
0.0
 40
0.0
 40
0.0808886069664757
 40
0.1575784817187708
 40
0.2309259631613678
 40
0.3003344167676144
 40
0.3669160755263683
 40
0.4300369764001302
 40
0.4907168119824302
 40
0.5494468928658286
 40
0.6066911874233179
 40
0.6623628556957783
 40
0.7175629353199291
 40
0.7727153361792995
 40
0.8280908764564795
 40
0.8840189006585347
 40
0.9414381362299579
 40
1.0
 40
1.0
 40
1.0
 40
1.0
 10
-109.4733157683707
 20
490.1684985000592
 30
0.0
 10
-109.5330694277517
 20
490.1678346847833
 30
0.0
 10
-109.6494750783808
 20
490.1665415112789
 30
0.0
 10
-109.8191203222876
 20
490.1474659249425
 30
0.0
 10
-109.9789969217302
 20
490.1206387017563
 30
0.0
 10
-110.1287855870831
 20
490.0813561188138
 30
0.0
 10
-110.2666245288868
 20
490.0298966972004
 30
0.0
 10
-110.3951361857069
 20
489.9723903209857
 30
0.0
 10
-110.5107581039097
 20
489.9026891382829
 30
0.0
 10
-110.6171371397383
 20
489.8269360399443
 30
0.0
 10
-110.711383179658
 20
489.7417217702406
 30
0.0
 10
-110.7932444200771
 20
489.6481006158429
 30
0.0
 10
-110.863746914345
 20
489.5474972867758
 30
0.0
 10
-110.9210644808926
 20
489.4390058443926
 30
0.0
 10
-110.9650906564611
 20
489.3240466624454
 30
0.0
 10
-110.9990539865141
 20
489.20396699464
 30
0.0
 10
-111.0179207071167
 20
489.0780390294302
 30
0.0
 10
-111.0203857810532
 20
488.9923962889716
 30
0.0
 10
-111.0216304607888
 20
488.9491530490982
 30
0.0
  0
SPLINE
  5
170
330
1F
100
AcDbEntity
  8
0
  6
Continuous
 62
     7
370
    25
100
AcDbSpline
210
0.0
220
0.0
230
1.0
 70
     8
 71
     3
 72
    23
 73
    19
 74
     0
 42
0.00000001
 43
0.0000000001
 40
0.0
 40
0.0
 40
0.0
 40
0.0
 40
0.0585645749760388
 40
0.1159864688538379
 40
0.1719170823244852
 40
0.2272951862922183
 40
0.2824501405115796
 40
0.3376527757030782
 40
0.3933270213757633
 40
0.450573966140481
 40
0.5093067660177301
 40
0.5699894108605883
 40
0.6331132340075492
 40
0.6995025919972587
 40
0.7690633457879076
 40
0.8424142229580089
 40
0.9191076481787305
 40
1.0
 40
1.0
 40
1.0
 40
1.0
 10
-111.0216304607888
 20
488.9491530490982
 30
0.0
 10
-111.0203857811402
 20
488.9059098089713
 30
0.0
 10
-111.0179207073757
 20
488.8202670680112
 30
0.0
 10
-110.9990539855124
 20
488.6943391064764
 30
0.0
 10
-110.9650906600959
 20
488.5742594251555
 30
0.0
 10
-110.9210644674821
 20
488.4593002928943
 30
0.0
 10
-110.8637469642083
 20
488.3508086660723
 30
0.0
 10
-110.7932442331021
 20
488.2502060273733
 30
0.0
 10
-110.7113838925034
 20
488.1565822500585
 30
0.0
 10
-110.617134366182
 20
488.0713781429856
 30
0.0
 10
-110.5107688939296
 20
487.9955855077171
 30
0.0
 10
-110.3950937532578
 20
487.9260394650007
 30
0.0
 10
-110.2669253110526
 20
487.8679760801019
 30
0.0
 10
-110.1282753838323
 20
487.8189880137893
 30
0.0
 10
-109.9792741256652
 20
487.7771029997407
 30
0.0
 10
-109.8190721051579
 20
487.7510068022335
 30
0.0
 10
-109.6494881415125
 20
487.7317194432866
 30
0.0
 10
-109.5330738587973
 20
487.7304561005856
 30
0.0
 10
-109.4733157683707
 20
487.7298075981372
 30
0.0
  0
ARC
  5
171
330
1F
100
AcDbEntity
  8
0
  6
Continuous
 62
     7
370
    25
100
AcDbCircle
 10
-110.2444572487
 20
357.6885770124
 30
0.0
 40
27.00000000000001
100
AcDbArc
 50
20.7156275512
 51
194.5086076071
  0
ARC
  5
172
330
1F
100
AcDbEntity
  8
0
  6
Continuous
 62
     7
370
    25
100
AcDbCircle
 10
-110.2444572487
 20
357.6885770124
 30
0.0
 40
27.00000000000001
100
AcDbArc
 50
194.5086076071
 51
339.3550782778
  0
ARC
  5
173
330
1F
100
AcDbEntity
  8
0
  6
Continuous
 62
     7
370
    25
100
AcDbCircle
 10
-110.2444572487
 20
237.4793888277
 30
0.0
 40
27.00000000000002
100
AcDbArc
 50
279.3534075805
 51
186.2941934872999
  0
ARC
  5
174
330
1F
100
AcDbEntity
  8
0
  6
Continuous
 62
     7
370
    25
100
AcDbCircle
 10
-110.2444572487
 20
237.4793888277
 30
0.0
 40
27.00000000000003
100
AcDbArc
 50
186.2941934872999
 51
262.3141590722
  0
ARC
  5
175
330
1F
100
AcDbEntity
  8
0
  6
Continuous
 62
     7
370
    25
100
AcDbCircle
 10
-110.2444572487
 20
477.6806809688999
 30
0.0
 40
26.99999999999999
100
AcDbArc
 50
98.5196242541
 51
167.2721036772
  0
ARC
  5
176
330
1F
100
AcDbEntity
  8
0
  6
Continuous
 62
     7
370
    25
100
AcDbCircle
 10
-110.2444572487
 20
477.6806809688999
 30
0.0
 40
26.99999999999999
100
AcDbArc
 50
167.2721036772
 51
81.4803757459
  0
LINE
  5
177
330
1F
100
AcDbEntity
  8
0
  6
Continuous
 62
     7
370
    25
100
AcDbLine
 10
-107.0811979231
 20
497.8922561399
 30
0.0
 11
-106.2444572487
 21
497.8922561399
 31
0.0
  0
LINE
  5
178
330
1F
100
AcDbEntity
  8
0
  6
Continuous
 62
     7
370
    25
100
AcDbLine
 10
-114.2444572487
 20
497.8922561399
 30
0.0
 11
-107.0811979231
 21
497.8922561399
 31
0.0
  0
LINE
  5
179
330
1F
100
AcDbEntity
  8
0
  6
Continuous
 62
     7
370
    25
100
AcDbLine
 10
-107.0811979231
 20
537.7170002516
 30
0.0
 11
-106.2444572487
 21
537.7170002516
 31
0.0
  0
LINE
  5
17A
330
1F
100
AcDbEntity
  8
0
  6
Continuous
 62
     7
370
    25
100
AcDbLine
 10
-114.2444572487
 20
537.7170002516
 30
0.0
 11
-107.0811979231
 21
537.7170002516
 31
0.0
  0
SPLINE
  5
17B
330
1F
100
AcDbEntity
  8
0
  6
Continuous
 62
     7
370
    25
100
AcDbSpline
210
0.0
220
0.0
230
1.0
 70
     8
 71
     3
 72
     9
 73
     5
 74
     0
 42
0.00000001
 43
0.0000000001
 40
0.0
 40
0.0
 40
0.0
 40
0.0
 40
0.5088221198869753
 40
1.0
 40
1.0
 40
1.0
 40
1.0
 10
-109.5549153480309
 20
492.2264759771285
 30
0.0
 10
-109.3884157289654
 20
492.2386588125331
 30
0.0
 10
-109.0611901376279
 20
492.2626020235854
 30
0.0
 10
-108.8206572029035
 20
492.286262875147
 30
0.0
 10
-108.7025127459282
 20
492.2978845620589
 30
0.0
  0
DIMENSION
  5
17C
102
{ACAD_XDICTIONARY
360
25F
102
}
330
1F
100
AcDbEntity
  8
DIMENSION
100
AcDbDimension
280
     0
  2
*D18
 10
-147.9511089543668
 20
348.1885770124001
 30
0.0
 11
-161.2844422877
 21
333.7172776674
 31
0.0
 70
   160
  1
%%c<>
 71
     2
 42
19.0
 73
     0
 74
     0
 75
     0
  3
RG Dimension Lines
100
AcDbAlignedDimension
 13
-110.2444572487
 23
367.1885770124
 33
0.0
 14
-110.2444572487
 24
348.1885770124
 34
0.0
 50
90.0
100
AcDbRotatedDimension
1001
AcadAnnotative
1000
AnnotativeData
1002
{
1070
     1
1070
     1
1002
}
  0
DIMENSION
  5
263
102
{ACAD_XDICTIONARY
360
27A
102
}
330
1F
100
AcDbEntity
  8
DIMENSION
100
AcDbDimension
280
     0
  2
*D20
 10
181.67005620185
 20
-20.76657555127986
 30
0.0
 11
221.790550189625
 21
-12.76657555127985
 31
0.0
 70
    32
 71
     5
 42
80.24098797555001
 73
     0
 74
     0
 75
     0
  3
RG Dimension Lines
100
AcDbAlignedDimension
 13
261.9110441774
 23
-42.45468044019999
 33
0.0
 14
181.67005620185
 24
-51.4048266875
 34
0.0
100
AcDbRotatedDimension
1001
AcadAnnotative
1000
AnnotativeData
1002
{
1070
     1
1070
     1
1002
}
  0
DIMENSION
  5
29B
102
{ACAD_XDICTIONARY
360
2B6
102
}
330
1F
100
AcDbEntity
  8
DIMENSION
100
AcDbDimension
280
     0
  2
*D24
 10
-113.3681674688
 20
167.5998771778477
 30
0.0
 11
-131.0348341354666
 21
159.5998771778477
 31
0.0
 70
    32
 71
     5
 42
7.999152941299996
 73
     0
 74
     0
 75
     0
  3
RG Dimension Lines
100
AcDbAlignedDimension
 13
-105.3690145275
 23
177.3542178267
 33
0.0
 14
-113.3681674688
 24
177.2378038213
 34
0.0
100
AcDbRotatedDimension
1001
AcadAnnotative
1000
AnnotativeData
1002
{
1070
     1
1070
     1
1002
}
1001
ACAD
1000
DSTYLE
1002
{
1070
     3
1000
%%C<>
1002
}
  0
ENDSEC
  0
SECTION
  2
OBJECTS
  0
DICTIONARY
  5
C
330
0
100
AcDbDictionary
281
     1
  3
ACAD_CIP_PREVIOUS_PRODUCT_INFO
350
1C6
  3
ACAD_COLOR
350
1BB
  3
ACAD_DETAILVIEWSTYLE
350
1C2
  3
ACAD_GROUP
350
D
  3
ACAD_LAYOUT
350
1A
  3
ACAD_MATERIAL
350
189
  3
ACAD_MLEADERSTYLE
350
1BE
  3
ACAD_MLINESTYLE
350
17
  3
ACAD_PLOTSETTINGS
350
19
  3
ACAD_PLOTSTYLENAME
350
E
  3
ACAD_SCALELIST
350
47
  3
ACAD_SECTIONVIEWSTYLE
350
1C0
  3
ACAD_TABLESTYLE
350
1BC
  3
ACAD_VISUALSTYLE
350
1A2
  3
ACDB_RECOMPOSE_DATA
350
2CB
  3
AcDbVariableDictionary
350
1F5
  0
DICTIONARY
  5
1DA
330
2
100
AcDbDictionary
280
     1
281
     1
  3
ACAD_LAYERSTATES
360
1DB
  0
DICTIONARY
  5
2C3
330
10
100
AcDbDictionary
280
     1
281
     1
  3
ADSK_XREC_LAYER_RECONCILED
360
2C4
  0
DICTIONARY
  5
2C5
330
73
100
AcDbDictionary
280
     1
281
     1
  3
ADSK_XREC_LAYER_RECONCILED
360
2C6
  0
DICTIONARY
  5
2C7
330
1D2
100
AcDbDictionary
280
     1
281
     1
  3
ADSK_XREC_LAYER_RECONCILED
360
2C8
  0
DICTIONARY
  5
225
330
99
100
AcDbDictionary
280
     1
281
     1
  3
AcDbContextDataManager
360
226
  0
DICTIONARY
  5
217
330
A6
100
AcDbDictionary
280
     1
281
     1
  3
AcDbContextDataManager
360
218
  0
DICTIONARY
  5
209
330
AE
100
AcDbDictionary
280
     1
281
     1
  3
AcDbContextDataManager
360
20A
  0
DICTIONARY
  5
241
330
F5
100
AcDbDictionary
280
     1
281
     1
  3
AcDbContextDataManager
360
242
  0
DICTIONARY
  5
233
330
FE
100
AcDbDictionary
280
     1
281
     1
  3
AcDbContextDataManager
360
234
  0
DICTIONARY
  5
24F
330
107
100
AcDbDictionary
280
     1
281
     1
  3
AcDbContextDataManager
360
250
  0
DICTIONARY
  5
25F
330
17C
100
AcDbDictionary
280
     1
281
     1
  3
AcDbContextDataManager
360
260
  0
DICTIONARY
  5
27A
330
263
100
AcDbDictionary
280
     1
281
     1
  3
AcDbContextDataManager
360
27B
  0
DICTIONARY
  5
2B6
330
29B
100
AcDbDictionary
280
     1
281
     1
  3
AcDbContextDataManager
360
2B7
  0
XRECORD
  5
1C6
102
{ACAD_REACTORS
330
C
102
}
330
C
100
AcDbXrecord
280
     1
300
ACD
300
2021
300

  0
DICTIONARY
  5
1BB
102
{ACAD_REACTORS
330
C
102
}
330
C
100
AcDbDictionary
281
     1
  0
DICTIONARY
  5
1C2
102
{ACAD_REACTORS
330
C
102
}
330
C
100
AcDbDictionary
281
     1
  3
Metric50
350
1C3
  0
DICTIONARY
  5
D
102
{ACAD_REACTORS
330
C
102
}
330
C
100
AcDbDictionary
281
     1
  0
DICTIONARY
  5
1A
102
{ACAD_REACTORS
330
C
102
}
330
C
100
AcDbDictionary
281
     1
  3
Layout1
350
1E
  3
Layout2
350
26
  3
Model
350
22
  0
DICTIONARY
  5
189
102
{ACAD_REACTORS
330
C
102
}
330
C
100
AcDbDictionary
281
     1
  3
ByBlock
350
192
  3
ByLayer
350
18A
  3
Global
350
19A
  0
DICTIONARY
  5
1BE
102
{ACAD_REACTORS
330
C
102
}
330
C
100
AcDbDictionary
281
     1
  3
Standard
350
1BF
  0
DICTIONARY
  5
17
102
{ACAD_REACTORS
330
C
102
}
330
C
100
AcDbDictionary
281
     1
  3
Standard
350
18
  0
DICTIONARY
  5
19
102
{ACAD_REACTORS
330
C
102
}
330
C
100
AcDbDictionary
281
     1
  0
ACDBDICTIONARYWDFLT
  5
E
102
{ACAD_REACTORS
330
C
102
}
330
C
100
AcDbDictionary
281
     1
  3
Normal
350
F
100
AcDbDictionaryWithDefault
340
F
  0
DICTIONARY
  5
47
102
{ACAD_REACTORS
330
C
102
}
330
C
100
AcDbDictionary
281
     1
  3
A0
350
48
  3
A1
350
49
  3
A2
350
4A
  3
A3
350
4B
  3
A4
350
4C
  3
A5
350
4D
  3
A6
350
4E
  3
A7
350
4F
  3
A8
350
50
  3
A9
350
51
  3
B0
350
52
  3
B1
350
53
  3
B2
350
54
  3
B3
350
55
  3
B4
350
56
  3
B5
350
57
  3
B6
350
58
  3
B7
350
59
  3
B8
350
5A
  3
B9
350
5B
  3
C0
350
5C
  3
C1
350
5D
  3
C2
350
5E
  3
C3
350
5F
  3
C4
350
60
  3
C5
350
61
  3
C6
350
62
  3
C7
350
63
  3
C8
350
64
  3
C9
350
65
  3
D0
350
66
  3
D1
350
67
  3
D2
350
68
  0
DICTIONARY
  5
1C0
102
{ACAD_REACTORS
330
C
102
}
330
C
100
AcDbDictionary
281
     1
  3
Metric50
350
1C1
  0
DICTIONARY
  5
1BC
102
{ACAD_REACTORS
330
C
102
}
330
C
100
AcDbDictionary
281
     1
  3
Standard
350
1BD
  0
DICTIONARY
  5
1A2
102
{ACAD_REACTORS
330
C
102
}
330
C
100
AcDbDictionary
281
     1
  3
2dWireframe
350
1A8
  3
Basic
350
1A7
  3
Brighten
350
1AE
  3
ColorChange
350
1B2
  3
Conceptual
350
1AB
  3
Dim
350
1AD
  3
EdgeColorOff
350
1BA
  3
Facepattern
350
1B1
  3
Flat
350
1A3
  3
FlatWithEdges
350
1A4
  3
Gouraud
350
1A5
  3
GouraudWithEdges
350
1A6
  3
Hidden
350
1AA
  3
JitterOff
350
1B8
  3
Linepattern
350
1B0
  3
OverhangOff
350
1B9
  3
Realistic
350
1AC
  3
Shaded
350
1B7
  3
Shaded with edges
350
1B6
  3
Shades of Gray
350
1B3
  3
Sketchy
350
1B4
  3
Thicken
350
1AF
  3
Wireframe
350
1A9
  3
X-Ray
350
1B5
  0
XRECORD
  5
2CB
102
{ACAD_REACTORS
330
C
102
}
330
C
100
AcDbXrecord
280
     1
 90
        1
330
1BD
  0
DICTIONARY
  5
1F5
102
{ACAD_REACTORS
330
C
102
}
330
C
100
AcDbDictionary
281
     1
  3
CANNOSCALE
350
1FB
  3
CMLEADERSTYLE
350
1F7
  3
CTABLESTYLE
350
1F6
  3
CVIEWDETAILSTYLE
350
1F8
  3
CVIEWSECTIONSTYLE
350
1F9
  3
LAYEREVAL
350
1FD
  3
LAYERNOTIFY
350
1FE
  3
LIGHTINGUNITS
350
1FC
  3
MSLTSCALE
350
1FA
  0
DICTIONARY
  5
1DB
102
{ACAD_REACTORS
330
1DA
102
}
330
1DA
100
AcDbDictionary
281
     1
  0
XRECORD
  5
2C4
102
{ACAD_REACTORS
330
2C3
102
}
330
2C3
100
AcDbXrecord
280
     1
290
     1
  0
XRECORD
  5
2C6
102
{ACAD_REACTORS
330
2C5
102
}
330
2C5
100
AcDbXrecord
280
     1
290
     1
  0
XRECORD
  5
2C8
102
{ACAD_REACTORS
330
2C7
102
}
330
2C7
100
AcDbXrecord
280
     1
290
     1
  0
DICTIONARY
  5
226
102
{ACAD_REACTORS
330
225
102
}
330
225
100
AcDbDictionary
281
     1
  3
ACDB_ANNOTATIONSCALES
350
227
  0
DICTIONARY
  5
218
102
{ACAD_REACTORS
330
217
102
}
330
217
100
AcDbDictionary
281
     1
  3
ACDB_ANNOTATIONSCALES
350
219
  0
DICTIONARY
  5
20A
102
{ACAD_REACTORS
330
209
102
}
330
209
100
AcDbDictionary
281
     1
  3
ACDB_ANNOTATIONSCALES
350
20B
  0
DICTIONARY
  5
242
102
{ACAD_REACTORS
330
241
102
}
330
241
100
AcDbDictionary
281
     1
  3
ACDB_ANNOTATIONSCALES
350
243
  0
DICTIONARY
  5
234
102
{ACAD_REACTORS
330
233
102
}
330
233
100
AcDbDictionary
281
     1
  3
ACDB_ANNOTATIONSCALES
350
235
  0
DICTIONARY
  5
250
102
{ACAD_REACTORS
330
24F
102
}
330
24F
100
AcDbDictionary
281
     1
  3
ACDB_ANNOTATIONSCALES
350
251
  0
DICTIONARY
  5
260
102
{ACAD_REACTORS
330
25F
102
}
330
25F
100
AcDbDictionary
281
     1
  3
ACDB_ANNOTATIONSCALES
350
261
  0
DICTIONARY
  5
27B
102
{ACAD_REACTORS
330
27A
102
}
330
27A
100
AcDbDictionary
281
     1
  3
ACDB_ANNOTATIONSCALES
350
27C
  0
DICTIONARY
  5
2B7
102
{ACAD_REACTORS
330
2B6
102
}
330
2B6
100
AcDbDictionary
281
     1
  3
ACDB_ANNOTATIONSCALES
350
2B8
  0
ACDBDETAILVIEWSTYLE
  5
1C3
102
{ACAD_REACTORS
330
1C2
102
}
330
1C2
100
AcDbModelDocViewStyle
 70
     0
  3
Metric50
290
     0
300
Metric50
 90
        0
100
AcDbDetailViewStyle
 70
     0
 71
     0
 90
        3
 71
     1
340
11
 62
   256
 40
5.0
340
0
 62
   256
 40
5.0
300

 40
0.0
280
     1
 71
     2
340
16
 90
       25
 62
   256
 71
     3
340
11
 62
   256
 40
5.0
 90
        0
 40
15.0
 90
        1
300
%<\AcVar ViewDetailId>% (%<\AcVar ViewScale \f "%sn">%)
 71
     4
340
16
 90
       25
 62
   256
340
16
 90
       25
 62
   256
280
     0
  0
LAYOUT
  5
1E
102
{ACAD_REACTORS
330
1A
102
}
330
1A
100
AcDbPlotSettings
  1

  2
none_device
  4

  6

 40
0.0
 41
0.0
 42
0.0
 43
0.0
 44
0.0
 45
0.0
 46
0.0
 47
0.0
 48
0.0
 49
0.0
140
0.0
141
0.0
142
1.0
143
1.0
 70
   688
 72
     1
 73
     0
 74
     5
  7

 75
    16
147
1.0
 76
     0
 77
     2
 78
   300
148
0.0
149
0.0
100
AcDbLayout
  1
Layout1
 70
     1
 71
     1
 10
0.0
 20
0.0
 11
420.0
 21
297.0
 12
0.0
 22
0.0
 32
0.0
 14
1.000000000000000E+20
 24
1.000000000000000E+20
 34
1.000000000000000E+20
 15
-1.000000000000000E+20
 25
-1.000000000000000E+20
 35
-1.000000000000000E+20
146
0.0
 13
0.0
 23
0.0
 33
0.0
 16
1.0
 26
0.0
 36
0.0
 17
0.0
 27
1.0
 37
0.0
 76
     0
330
1B
  0
LAYOUT
  5
26
102
{ACAD_REACTORS
330
1A
102
}
330
1A
100
AcDbPlotSettings
  1

  2
none_device
  4

  6

 40
0.0
 41
0.0
 42
0.0
 43
0.0
 44
0.0
 45
0.0
 46
0.0
 47
0.0
 48
0.0
 49
0.0
140
0.0
141
0.0
142
1.0
143
1.0
 70
   688
 72
     1
 73
     0
 74
     5
  7

 75
    16
147
1.0
 76
     0
 77
     2
 78
   300
148
0.0
149
0.0
100
AcDbLayout
  1
Layout2
 70
     1
 71
     2
 10
0.0
 20
0.0
 11
0.0
 21
0.0
 12
0.0
 22
0.0
 32
0.0
 14
0.0
 24
0.0
 34
0.0
 15
0.0
 25
0.0
 35
0.0
146
0.0
 13
0.0
 23
0.0
 33
0.0
 16
1.0
 26
0.0
 36
0.0
 17
0.0
 27
1.0
 37
0.0
 76
     0
330
23
  0
LAYOUT
  5
22
102
{ACAD_REACTORS
330
1A
102
}
330
1A
100
AcDbPlotSettings
  1

  2
none_device
  4
Letter_(8.50_x_11.00_Inches)
  6

 40
6.349999999999999
 41
6.349999999999999
 42
6.350005079999999
 43
6.350005079999999
 44
215.9
 45
279.4
 46
0.0
 47
0.0
 48
0.0
 49
0.0
140
0.0
141
0.0
142
1.0
143
1.0
 70
  1712
 72
     1
 73
     0
 74
     0
  7

 75
     0
147
1.0
 76
     0
 77
     2
 78
   300
148
0.0
149
0.0
100
AcDbLayout
  1
Model
 70
     1
 71
     0
 10
0.0
 20
0.0
 11
420.0
 21
297.0
 12
0.0
 22
0.0
 32
0.0
 14
0.0
 24
0.0
 34
0.0
 15
420.0
 25
297.0
 35
0.0
146
0.0
 13
0.0
 23
0.0
 33
0.0
 16
1.0
 26
0.0
 36
0.0
 17
0.0
 27
1.0
 37
0.0
 76
     0
330
1F
331
29
  0
MATERIAL
  5
192
102
{ACAD_XDICTIONARY
360
193
102
}
102
{ACAD_REACTORS
330
189
102
}
330
189
100
AcDbMaterial
  1
ByBlock
 72
     0
 43
0.0008202099737533
 43
0.0
 43
0.0
 43
0.0
 43
0.0
 43
0.0008202099737533
 43
0.0
 43
0.0
 43
0.0
 43
0.0
 43
1.0
 43
0.0
 43
0.0
 43
0.0
 43
0.0
 43
1.0
 77
     0
 47
0.0008202099737533
 47
0.0
 47
0.0
 47
0.0
 47
0.0
 47
0.0008202099737533
 47
0.0
 47
0.0
 47
0.0
 47
0.0
 47
1.0
 47
0.0
 47
0.0
 47
0.0
 47
0.0
 47
1.0
171
     0
 49
0.0008202099737533
 49
0.0
 49
0.0
 49
0.0
 49
0.0
 49
0.0008202099737533
 49
0.0
 49
0.0
 49
0.0
 49
0.0
 49
1.0
 49
0.0
 49
0.0
 49
0.0
 49
0.0
 49
1.0
175
     0
142
0.0008202099737533
142
0.0
142
0.0
142
0.0
142
0.0
142
0.0008202099737533
142
0.0
142
0.0
142
0.0
142
0.0
142
1.0
142
0.0
142
0.0
142
0.0
142
0.0
142
1.0
179
     0
144
0.0008202099737533
144
0.0
144
0.0
144
0.0
144
0.0
144
0.0008202099737533
144
0.0
144
0.0
144
0.0
144
0.0
144
1.0
144
0.0
144
0.0
144
0.0
144
0.0
144
1.0
147
0.0008202099737533
147
0.0
147
0.0
147
0.0
147
0.0
147
0.0008202099737533
147
0.0
147
0.0
147
0.0
147
0.0
147
1.0
147
0.0
147
0.0
147
0.0
147
0.0
147
1.0
  0
MATERIAL
  5
18A
102
{ACAD_XDICTIONARY
360
18B
102
}
102
{ACAD_REACTORS
330
189
102
}
330
189
100
AcDbMaterial
  1
ByLayer
 72
     0
 43
0.0008202099737533
 43
0.0
 43
0.0
 43
0.0
 43
0.0
 43
0.0008202099737533
 43
0.0
 43
0.0
 43
0.0
 43
0.0
 43
1.0
 43
0.0
 43
0.0
 43
0.0
 43
0.0
 43
1.0
 77
     0
 47
0.0008202099737533
 47
0.0
 47
0.0
 47
0.0
 47
0.0
 47
0.0008202099737533
 47
0.0
 47
0.0
 47
0.0
 47
0.0
 47
1.0
 47
0.0
 47
0.0
 47
0.0
 47
0.0
 47
1.0
171
     0
 49
0.0008202099737533
 49
0.0
 49
0.0
 49
0.0
 49
0.0
 49
0.0008202099737533
 49
0.0
 49
0.0
 49
0.0
 49
0.0
 49
1.0
 49
0.0
 49
0.0
 49
0.0
 49
0.0
 49
1.0
175
     0
142
0.0008202099737533
142
0.0
142
0.0
142
0.0
142
0.0
142
0.0008202099737533
142
0.0
142
0.0
142
0.0
142
0.0
142
1.0
142
0.0
142
0.0
142
0.0
142
0.0
142
1.0
179
     0
144
0.0008202099737533
144
0.0
144
0.0
144
0.0
144
0.0
144
0.0008202099737533
144
0.0
144
0.0
144
0.0
144
0.0
144
1.0
144
0.0
144
0.0
144
0.0
144
0.0
144
1.0
147
0.0008202099737533
147
0.0
147
0.0
147
0.0
147
0.0
147
0.0008202099737533
147
0.0
147
0.0
147
0.0
147
0.0
147
1.0
147
0.0
147
0.0
147
0.0
147
0.0
147
1.0
  0
MATERIAL
  5
19A
102
{ACAD_XDICTIONARY
360
19B
102
}
102
{ACAD_REACTORS
330
189
102
}
330
189
100
AcDbMaterial
  1
Global
 72
     0
 43
0.0008202099737533
 43
0.0
 43
0.0
 43
0.0
 43
0.0
 43
0.0008202099737533
 43
0.0
 43
0.0
 43
0.0
 43
0.0
 43
1.0
 43
0.0
 43
0.0
 43
0.0
 43
0.0
 43
1.0
 77
     0
 47
0.0008202099737533
 47
0.0
 47
0.0
 47
0.0
 47
0.0
 47
0.0008202099737533
 47
0.0
 47
0.0
 47
0.0
 47
0.0
 47
1.0
 47
0.0
 47
0.0
 47
0.0
 47
0.0
 47
1.0
171
     0
 49
0.0008202099737533
 49
0.0
 49
0.0
 49
0.0
 49
0.0
 49
0.0008202099737533
 49
0.0
 49
0.0
 49
0.0
 49
0.0
 49
1.0
 49
0.0
 49
0.0
 49
0.0
 49
0.0
 49
1.0
175
     0
142
0.0008202099737533
142
0.0
142
0.0
142
0.0
142
0.0
142
0.0008202099737533
142
0.0
142
0.0
142
0.0
142
0.0
142
1.0
142
0.0
142
0.0
142
0.0
142
0.0
142
1.0
179
     0
144
0.0008202099737533
144
0.0
144
0.0
144
0.0
144
0.0
144
0.0008202099737533
144
0.0
144
0.0
144
0.0
144
0.0
144
1.0
144
0.0
144
0.0
144
0.0
144
0.0
144
1.0
147
0.0008202099737533
147
0.0
147
0.0
147
0.0
147
0.0
147
0.0008202099737533
147
0.0
147
0.0
147
0.0
147
0.0
147
1.0
147
0.0
147
0.0
147
0.0
147
0.0
147
1.0
  0
MLEADERSTYLE
  5
1BF
102
{ACAD_REACTORS
330
1BE
102
}
330
1BE
100
AcDbMLeaderStyle
179
     2
170
     2
171
     1
172
     0
 90
        2
 40
0.0
 41
0.0
173
     1
 91
-1056964608
340
14
 92
       -2
290
     1
 42
2.0
291
     1
 43
0.36
  3
Standard
 44
4.0
300

342
11
174
     1
178
     6
175
     1
176
     0
 93
-1056964608
 45
4.0
292
     0
297
     0
 46
4.0
 94
-1056964608
 47
1.0
 49
1.0
140
1.0
293
     1
141
0.0
294
     1
177
     0
142
1.0
295
     0
296
     0
143
0.125
271
     0
272
     9
273
     9
298
     0
  0
MLINESTYLE
  5
18
102
{ACAD_REACTORS
330
17
102
}
330
17
100
AcDbMlineStyle
  2
STANDARD
 70
     0
  3

 62
   256
 51
90.0
 52
90.0
 71
     2
 49
0.5
 62
   256
  6
BYLAYER
 49
-0.5
 62
   256
  6
BYLAYER
  0
ACDBPLACEHOLDER
  5
F
102
{ACAD_REACTORS
330
E
102
}
330
E
  0
SCALE
  5
48
102
{ACAD_REACTORS
330
47
102
}
330
47
100
AcDbScale
 70
     0
300
1:1
140
1.0
141
1.0
290
     1
  0
SCALE
  5
49
102
{ACAD_REACTORS
330
47
102
}
330
47
100
AcDbScale
 70
     0
300
1:2
140
1.0
141
2.0
290
     0
  0
SCALE
  5
4A
102
{ACAD_REACTORS
330
47
102
}
330
47
100
AcDbScale
 70
     0
300
1:4
140
1.0
141
4.0
290
     0
  0
SCALE
  5
4B
102
{ACAD_REACTORS
330
47
102
}
330
47
100
AcDbScale
 70
     0
300
1:5
140
1.0
141
5.0
290
     0
  0
SCALE
  5
4C
102
{ACAD_REACTORS
330
47
102
}
330
47
100
AcDbScale
 70
     0
300
1:8
140
1.0
141
8.0
290
     0
  0
SCALE
  5
4D
102
{ACAD_REACTORS
330
47
102
}
330
47
100
AcDbScale
 70
     0
300
1:10
140
1.0
141
10.0
290
     0
  0
SCALE
  5
4E
102
{ACAD_REACTORS
330
47
102
}
330
47
100
AcDbScale
 70
     0
300
1:16
140
1.0
141
16.0
290
     0
  0
SCALE
  5
4F
102
{ACAD_REACTORS
330
47
102
}
330
47
100
AcDbScale
 70
     0
300
1:20
140
1.0
141
20.0
290
     0
  0
SCALE
  5
50
102
{ACAD_REACTORS
330
47
102
}
330
47
100
AcDbScale
 70
     0
300
1:30
140
1.0
141
30.0
290
     0
  0
SCALE
  5
51
102
{ACAD_REACTORS
330
47
102
}
330
47
100
AcDbScale
 70
     0
300
1:40
140
1.0
141
40.0
290
     0
  0
SCALE
  5
52
102
{ACAD_REACTORS
330
47
102
}
330
47
100
AcDbScale
 70
     0
300
1:50
140
1.0
141
50.0
290
     0
  0
SCALE
  5
53
102
{ACAD_REACTORS
330
47
102
}
330
47
100
AcDbScale
 70
     0
300
1:100
140
1.0
141
100.0
290
     0
  0
SCALE
  5
54
102
{ACAD_REACTORS
330
47
102
}
330
47
100
AcDbScale
 70
     0
300
2:1
140
2.0
141
1.0
290
     0
  0
SCALE
  5
55
102
{ACAD_REACTORS
330
47
102
}
330
47
100
AcDbScale
 70
     0
300
4:1
140
4.0
141
1.0
290
     0
  0
SCALE
  5
56
102
{ACAD_REACTORS
330
47
102
}
330
47
100
AcDbScale
 70
     0
300
8:1
140
8.0
141
1.0
290
     0
  0
SCALE
  5
57
102
{ACAD_REACTORS
330
47
102
}
330
47
100
AcDbScale
 70
     0
300
10:1
140
10.0
141
1.0
290
     0
  0
SCALE
  5
58
102
{ACAD_REACTORS
330
47
102
}
330
47
100
AcDbScale
 70
     0
300
100:1
140
100.0
141
1.0
290
     0
  0
SCALE
  5
59
102
{ACAD_REACTORS
330
47
102
}
330
47
100
AcDbScale
 70
     0
300
1/128" = 1'-0"
140
0.0078125
141
12.0
290
     0
  0
SCALE
  5
5A
102
{ACAD_REACTORS
330
47
102
}
330
47
100
AcDbScale
 70
     0
300
1/64" = 1'-0"
140
0.015625
141
12.0
290
     0
  0
SCALE
  5
5B
102
{ACAD_REACTORS
330
47
102
}
330
47
100
AcDbScale
 70
     0
300
1/32" = 1'-0"
140
0.03125
141
12.0
290
     0
  0
SCALE
  5
5C
102
{ACAD_REACTORS
330
47
102
}
330
47
100
AcDbScale
 70
     0
300
1/16" = 1'-0"
140
0.0625
141
12.0
290
     0
  0
SCALE
  5
5D
102
{ACAD_REACTORS
330
47
102
}
330
47
100
AcDbScale
 70
     0
300
3/32" = 1'-0"
140
0.09375
141
12.0
290
     0
  0
SCALE
  5
5E
102
{ACAD_REACTORS
330
47
102
}
330
47
100
AcDbScale
 70
     0
300
1/8" = 1'-0"
140
0.125
141
12.0
290
     0
  0
SCALE
  5
5F
102
{ACAD_REACTORS
330
47
102
}
330
47
100
AcDbScale
 70
     0
300
3/16" = 1'-0"
140
0.1875
141
12.0
290
     0
  0
SCALE
  5
60
102
{ACAD_REACTORS
330
47
102
}
330
47
100
AcDbScale
 70
     0
300
1/4" = 1'-0"
140
0.25
141
12.0
290
     0
  0
SCALE
  5
61
102
{ACAD_REACTORS
330
47
102
}
330
47
100
AcDbScale
 70
     0
300
3/8" = 1'-0"
140
0.375
141
12.0
290
     0
  0
SCALE
  5
62
102
{ACAD_REACTORS
330
47
102
}
330
47
100
AcDbScale
 70
     0
300
1/2" = 1'-0"
140
0.5
141
12.0
290
     0
  0
SCALE
  5
63
102
{ACAD_REACTORS
330
47
102
}
330
47
100
AcDbScale
 70
     0
300
3/4" = 1'-0"
140
0.75
141
12.0
290
     0
  0
SCALE
  5
64
102
{ACAD_REACTORS
330
47
102
}
330
47
100
AcDbScale
 70
     0
300
1" = 1'-0"
140
1.0
141
12.0
290
     0
  0
SCALE
  5
65
102
{ACAD_REACTORS
330
47
102
}
330
47
100
AcDbScale
 70
     0
300
1-1/2" = 1'-0"
140
1.5
141
12.0
290
     0
  0
SCALE
  5
66
102
{ACAD_REACTORS
330
47
102
}
330
47
100
AcDbScale
 70
     0
300
3" = 1'-0"
140
3.0
141
12.0
290
     0
  0
SCALE
  5
67
102
{ACAD_REACTORS
330
47
102
}
330
47
100
AcDbScale
 70
     0
300
6" = 1'-0"
140
6.0
141
12.0
290
     0
  0
SCALE
  5
68
102
{ACAD_REACTORS
330
47
102
}
330
47
100
AcDbScale
 70
     0
300
1'-0" = 1'-0"
140
12.0
141
12.0
290
     0
  0
ACDBSECTIONVIEWSTYLE
  5
1C1
102
{ACAD_REACTORS
330
1C0
102
}
330
1C0
100
AcDbModelDocViewStyle
 70
     0
  3
Metric50
290
     0
300
Metric50
 90
        0
100
AcDbSectionViewStyle
 70
     0
 71
     0
 90
      102
 71
     1
340
11
 62
   256
 40
5.0
340
0
340
0
 62
   256
 40
5.0
300
I, O, Q, S, X, Z
 40
10.0
 90
        0
 40
2.5
 90
        0
 71
     2
340
16
 90
       25
 62
   256
340
16
 90
       50
 62
   256
 40
5.0
 40
2.5
 40
5.0
 71
     3
340
11
 62
   256
 40
5.0
 90
        0
 40
15.0
 90
        1
300
%<\AcVar ViewSectionStartId>%-%<\AcVar ViewSectionEndId>% (%<\AcVar ViewScale \f "%sn">%)
 71
     4
 62
   256
 62
   257
300
ANSI31
 40
1.0
 90
        0
290
     0
290
     0
 90
        6
 40
0.0
 40
1.570796326794896
 40
0.2617993877991494
 40
1.308996938995747
 40
-0.2617993877991494
 40
1.832595714594046
  0
TABLESTYLE
  5
1BD
102
{ACAD_XDICTIONARY
360
2C9
102
}
102
{ACAD_REACTORS
330
1BC
102
}
330
1BC
100
AcDbTableStyle
280
     0
  3
Standard
 70
     0
 71
     0
 40
1.5
 41
1.5
280
     0
281
     0
  7
Standard
140
4.5
170
     2
 62
     0
 63
     7
283
     0
 90
      512
 91
        0
  1

274
    -2
284
     1
 64
     0
275
    -2
285
     1
 65
     0
276
    -2
286
     1
 66
     0
277
    -2
287
     1
 67
     0
278
    -2
288
     1
 68
     0
279
    -2
289
     1
 69
     0
  7
Standard
140
6.0
170
     5
 62
     0
 63
     7
283
     0
 90
      512
 91
        0
  1

274
    -2
284
     1
 64
     0
275
    -2
285
     1
 65
     0
276
    -2
286
     1
 66
     0
277
    -2
287
     1
 67
     0
278
    -2
288
     1
 68
     0
279
    -2
289
     1
 69
     0
  7
Standard
140
4.5
170
     5
 62
     0
 63
     7
283
     0
 90
      512
 91
        0
  1

274
    -2
284
     1
 64
     0
275
    -2
285
     1
 65
     0
276
    -2
286
     1
 66
     0
277
    -2
287
     1
 67
     0
278
    -2
288
     1
 68
     0
279
    -2
289
     1
 69
     0
  0
VISUALSTYLE
  5
1A8
102
{ACAD_REACTORS
330
1A2
102
}
330
1A2
100
AcDbVisualStyle
  2
2dWireframe
 70
     4
177
     3
291
     0
 70
    58
 90
        0
176
     1
 90
        2
176
     1
 90
        0
176
     1
 90
        0
176
     1
 40
0.6
176
     1
 40
30.0
176
     1
 62
     7
420
 16777215
176
     1
 90
        1
176
     1
 90
        4
176
     1
 62
     7
176
     1
 62
   257
176
     1
 90
        1
176
     1
 90
        1
176
     1
 40
1.0
176
     1
 90
        0
176
     1
 62
   257
176
     1
 40
1.0
176
     1
 90
        1
176
     1
 90
        6
176
     1
 90
        2
176
     1
 62
     7
176
     1
 90
        5
176
     1
 90
        0
176
     1
 90
        0
176
     1
290
     0
176
     1
 90
        1
176
     1
 40
0.0
176
     1
 90
        0
176
     1
290
     1
176
     1
290
     1
176
     1
290
     0
176
     1
290
     0
176
     1
290
     0
176
     1
290
     0
176
     1
290
     0
176
     1
290
     0
176
     1
290
     0
176
     1
 90
       50
176
     1
 40
0.0
176
     1
 40
1.0
176
     1
 90
        0
176
     1
 62
    18
420
        0
176
     1
 90
       50
176
     1
 90
        3
176
     1
 62
     5
420
      255
176
     1
290
     0
176
     1
 90
       50
176
     1
 90
       50
176
     1
 90
       50
176
     1
290
     0
176
     1
 90
       50
176
     1
 62
   256
176
     0
 40
1.0
176
     0
 90
        2
176
     1
  1
strokes_ogs.tif
176
     1
290
     0
176
     1
 40
1.0
176
     1
 40
1.0
176
     1
  0
VISUALSTYLE
  5
1A7
102
{ACAD_REACTORS
330
1A2
102
}
330
1A2
100
AcDbVisualStyle
  2
Basic
 70
     7
177
     3
291
     1
 70
    58
 90
        1
176
     1
 90
        0
176
     1
 90
        1
176
     1
 90
        0
176
     1
 40
0.6
176
     1
 40
30.0
176
     1
 62
     7
420
 16777215
176
     1
 90
        0
176
     1
 90
        4
176
     1
 62
     7
176
     1
 62
   257
176
     1
 90
        1
176
     1
 90
        1
176
     1
 40
1.0
176
     1
 90
        8
176
     1
 62
     7
176
     1
 40
1.0
176
     1
 90
        1
176
     1
 90
        6
176
     1
 90
        2
176
     1
 62
     7
176
     1
 90
        5
176
     1
 90
        0
176
     1
 90
        0
176
     1
290
     0
176
     1
 90
        1
176
     1
 40
0.0
176
     1
 90
        0
176
     1
290
     0
176
     1
290
     1
176
     1
290
     1
176
     1
290
     0
176
     1
290
     0
176
     1
290
     0
176
     1
290
     0
176
     1
290
     0
176
     1
290
     0
176
     1
 90
       50
176
     1
 40
0.0
176
     1
 40
1.0
176
     1
 90
        0
176
     1
 62
    18
420
        0
176
     1
 90
       50
176
     1
 90
        3
176
     1
 62
     5
420
      255
176
     1
290
     0
176
     1
 90
       50
176
     1
 90
       50
176
     1
 90
       50
176
     1
290
     0
176
     1
 90
       50
176
     1
 62
   256
176
     0
 40
1.0
176
     0
 90
        2
176
     1
  1
strokes_ogs.tif
176
     1
290
     0
176
     1
 40
1.0
176
     1
 40
1.0
176
     1
  0
VISUALSTYLE
  5
1AE
102
{ACAD_REACTORS
330
1A2
102
}
330
1A2
100
AcDbVisualStyle
  2
Brighten
 70
    12
177
     3
291
     1
 70
    58
 90
        2
176
     1
 90
        2
176
     1
 90
        0
176
     1
 90
        0
176
     1
 40
0.6
176
     1
 40
30.0
176
     1
 62
     7
420
 16777215
176
     1
 90
        1
176
     1
 90
        4
176
     1
 62
     7
176
     1
 62
   257
176
     1
 90
        1
176
     1
 90
        1
176
     1
 40
1.0
176
     1
 90
        8
176
     1
 62
     7
176
     1
 40
1.0
176
     1
 90
        1
176
     1
 90
        6
176
     1
 90
        2
176
     1
 62
     7
176
     1
 90
        5
176
     1
 90
        0
176
     1
 90
        0
176
     1
290
     0
176
     1
 90
        1
176
     1
 40
50.0
176
     1
 90
        0
176
     1
290
     0
176
     1
290
     1
176
     1
290
     1
176
     1
290
     0
176
     1
290
     0
176
     1
290
     0
176
     1
290
     0
176
     1
290
     0
176
     1
290
     0
176
     1
 90
       50
176
     1
 40
0.0
176
     1
 40
1.0
176
     1
 90
        0
176
     1
 62
    18
420
        0
176
     1
 90
       50
176
     1
 90
        3
176
     1
 62
     5
420
      255
176
     1
290
     0
176
     1
 90
       50
176
     1
 90
       50
176
     1
 90
       50
176
     1
290
     0
176
     1
 90
       50
176
     1
 62
   256
176
     0
 40
1.0
176
     0
 90
        2
176
     1
  1
strokes_ogs.tif
176
     1
290
     0
176
     1
 40
1.0
176
     1
 40
1.0
176
     1
  0
VISUALSTYLE
  5
1B2
102
{ACAD_REACTORS
330
1A2
102
}
330
1A2
100
AcDbVisualStyle
  2
ColorChange
 70
    16
177
     3
291
     1
 70
    58
 90
        2
176
     1
 90
        2
176
     1
 90
        3
176
     1
 90
        0
176
     1
 40
0.6
176
     1
 40
30.0
176
     1
 62
     8
420
  8421504
176
     1
 90
        1
176
     1
 90
        4
176
     1
 62
     7
176
     1
 62
   257
176
     1
 90
        1
176
     1
 90
        1
176
     1
 40
1.0
176
     1
 90
        8
176
     1
 62
     8
420
  8421504
176
     1
 40
1.0
176
     1
 90
        1
176
     1
 90
        6
176
     1
 90
        2
176
     1
 62
     7
176
     1
 90
        5
176
     1
 90
        0
176
     1
 90
        0
176
     1
290
     0
176
     1
 90
        1
176
     1
 40
0.0
176
     1
 90
        0
176
     1
290
     0
176
     1
290
     1
176
     1
290
     1
176
     1
290
     0
176
     1
290
     0
176
     1
290
     0
176
     1
290
     0
176
     1
290
     0
176
     1
290
     0
176
     1
 90
       50
176
     1
 40
0.0
176
     1
 40
1.0
176
     1
 90
        0
176
     1
 62
    18
420
        0
176
     1
 90
       50
176
     1
 90
        3
176
     1
 62
     5
420
      255
176
     1
290
     0
176
     1
 90
       50
176
     1
 90
       50
176
     1
 90
       50
176
     1
290
     0
176
     1
 90
       50
176
     1
 62
   256
176
     0
 40
1.0
176
     0
 90
        2
176
     1
  1
strokes_ogs.tif
176
     1
290
     0
176
     1
 40
1.0
176
     1
 40
1.0
176
     1
  0
VISUALSTYLE
  5
1AB
102
{ACAD_REACTORS
330
1A2
102
}
330
1A2
100
AcDbVisualStyle
  2
Conceptual
 70
     9
177
     3
291
     0
 70
    58
 90
        3
176
     1
 90
        2
176
     1
 90
        0
176
     1
 90
        0
176
     1
 40
0.6
176
     1
 40
30.0
176
     1
 62
     7
420
 16777215
176
     1
 90
        2
176
     1
 90
        2
176
     1
 62
     7
176
     1
 62
   257
176
     1
 90
        1
176
     1
 90
        1
176
     1
 40
179.0
176
     1
 90
        8
176
     1
 62
     7
176
     1
 40
1.0
176
     1
 90
        1
176
     1
 90
        6
176
     1
 90
        2
176
     1
 62
     7
176
     1
 90
        3
176
     1
 90
        0
176
     1
 90
        0
176
     1
290
     0
176
     1
 90
        1
176
     1
 40
0.0
176
     1
 90
        0
176
     1
290
     0
176
     1
290
     1
176
     1
290
     1
176
     1
290
     0
176
     1
290
     0
176
     1
290
     0
176
     1
290
     0
176
     1
290
     0
176
     1
290
     0
176
     1
 90
       50
176
     1
 40
0.0
176
     1
 40
1.0
176
     1
 90
        0
176
     1
 62
    18
420
        0
176
     1
 90
       50
176
     1
 90
        3
176
     1
 62
     5
420
      255
176
     1
290
     0
176
     1
 90
       50
176
     1
 90
       50
176
     1
 90
       50
176
     1
290
     0
176
     1
 90
       50
176
     1
 62
   256
176
     0
 40
1.0
176
     0
 90
        2
176
     1
  1
strokes_ogs.tif
176
     1
290
     0
176
     1
 40
1.0
176
     1
 40
1.0
176
     1
  0
VISUALSTYLE
  5
1AD
102
{ACAD_REACTORS
330
1A2
102
}
330
1A2
100
AcDbVisualStyle
  2
Dim
 70
    11
177
     3
291
     1
 70
    58
 90
        2
176
     1
 90
        2
176
     1
 90
        0
176
     1
 90
        0
176
     1
 40
0.6
176
     1
 40
30.0
176
     1
 62
     7
420
 16777215
176
     1
 90
        1
176
     1
 90
        4
176
     1
 62
     7
176
     1
 62
   257
176
     1
 90
        1
176
     1
 90
        1
176
     1
 40
1.0
176
     1
 90
        8
176
     1
 62
     7
176
     1
 40
1.0
176
     1
 90
        1
176
     1
 90
        6
176
     1
 90
        2
176
     1
 62
     7
176
     1
 90
        5
176
     1
 90
        0
176
     1
 90
        0
176
     1
290
     0
176
     1
 90
        1
176
     1
 40
-50.0
176
     1
 90
        0
176
     1
290
     0
176
     1
290
     1
176
     1
290
     1
176
     1
290
     0
176
     1
290
     0
176
     1
290
     0
176
     1
290
     0
176
     1
290
     0
176
     1
290
     0
176
     1
 90
       50
176
     1
 40
0.0
176
     1
 40
1.0
176
     1
 90
        0
176
     1
 62
    18
420
        0
176
     1
 90
       50
176
     1
 90
        3
176
     1
 62
     5
420
      255
176
     1
290
     0
176
     1
 90
       50
176
     1
 90
       50
176
     1
 90
       50
176
     1
290
     0
176
     1
 90
       50
176
     1
 62
   256
176
     0
 40
1.0
176
     0
 90
        2
176
     1
  1
strokes_ogs.tif
176
     1
290
     0
176
     1
 40
1.0
176
     1
 40
1.0
176
     1
  0
VISUALSTYLE
  5
1BA
102
{ACAD_REACTORS
330
1A2
102
}
330
1A2
100
AcDbVisualStyle
  2
EdgeColorOff
 70
    22
177
     3
291
     1
 70
    58
 90
        2
176
     0
 90
        2
176
     0
 90
        0
176
     0
 90
        0
176
     0
 40
0.6
176
     0
 40
30.0
176
     0
 62
     7
420
 16777215
176
     0
 90
        1
176
     0
 90
        4
176
     0
 62
     7
176
     0
 62
   257
176
     0
 90
        1
176
     0
 90
        1
176
     0
 40
1.0
176
     0
 90
        8
176
     2
 62
     7
176
     0
 40
1.0
176
     0
 90
        1
176
     0
 90
        6
176
     0
 90
        2
176
     0
 62
     7
176
     0
 90
        5
176
     0
 90
        0
176
     0
 90
        0
176
     0
290
     0
176
     0
 90
        1
176
     0
 40
0.0
176
     0
 90
        0
176
     0
290
     0
176
     1
290
     1
176
     1
290
     1
176
     1
290
     0
176
     1
290
     0
176
     1
290
     0
176
     1
290
     0
176
     1
290
     0
176
     1
290
     0
176
     1
 90
       50
176
     0
 40
0.0
176
     0
 40
1.0
176
     0
 90
        0
176
     0
 62
    18
420
        0
176
     0
 90
       50
176
     0
 90
        3
176
     0
 62
     5
420
      255
176
     0
290
     0
176
     1
 90
       50
176
     0
 90
       50
176
     0
 90
       50
176
     0
290
     0
176
     1
 90
       50
176
     0
 62
   256
176
     0
 40
1.0
176
     0
 90
        2
176
     0
  1
strokes_ogs.tif
176
     0
290
     0
176
     1
 40
1.0
176
     0
 40
1.0
176
     0
  0
VISUALSTYLE
  5
1B1
102
{ACAD_REACTORS
330
1A2
102
}
330
1A2
100
AcDbVisualStyle
  2
Facepattern
 70
    15
177
     3
291
     1
 70
    58
 90
        2
176
     1
 90
        2
176
     1
 90
        0
176
     1
 90
        0
176
     1
 40
0.6
176
     1
 40
30.0
176
     1
 62
     7
420
 16777215
176
     1
 90
        1
176
     1
 90
        4
176
     1
 62
     7
176
     1
 62
   257
176
     1
 90
        1
176
     1
 90
        1
176
     1
 40
1.0
176
     1
 90
        8
176
     1
 62
     7
176
     1
 40
1.0
176
     1
 90
        1
176
     1
 90
        6
176
     1
 90
        2
176
     1
 62
     7
176
     1
 90
        5
176
     1
 90
        0
176
     1
 90
        0
176
     1
290
     0
176
     1
 90
        1
176
     1
 40
0.0
176
     1
 90
        0
176
     1
290
     0
176
     1
290
     1
176
     1
290
     1
176
     1
290
     0
176
     1
290
     0
176
     1
290
     0
176
     1
290
     0
176
     1
290
     0
176
     1
290
     0
176
     1
 90
       50
176
     1
 40
0.0
176
     1
 40
1.0
176
     1
 90
        0
176
     1
 62
    18
420
        0
176
     1
 90
       50
176
     1
 90
        3
176
     1
 62
     5
420
      255
176
     1
290
     0
176
     1
 90
       50
176
     1
 90
       50
176
     1
 90
       50
176
     1
290
     0
176
     1
 90
       50
176
     1
 62
   256
176
     0
 40
1.0
176
     0
 90
        2
176
     1
  1
strokes_ogs.tif
176
     1
290
     0
176
     1
 40
1.0
176
     1
 40
1.0
176
     1
  0
VISUALSTYLE
  5
1A3
102
{ACAD_REACTORS
330
1A2
102
}
330
1A2
100
AcDbVisualStyle
  2
Flat
 70
     0
177
     3
291
     1
 70
    58
 90
        2
176
     1
 90
        1
176
     1
 90
        1
176
     1
 90
        2
176
     1
 40
0.6
176
     1
 40
30.0
176
     1
 62
     7
420
 16777215
176
     1
 90
        0
176
     1
 90
        0
176
     1
 62
     7
176
     1
 62
   257
176
     1
 90
        1
176
     1
 90
        1
176
     1
 40
1.0
176
     1
 90
        8
176
     1
 62
     7
176
     1
 40
1.0
176
     1
 90
        1
176
     1
 90
        6
176
     1
 90
        2
176
     1
 62
     7
176
     1
 90
        5
176
     1
 90
        0
176
     1
 90
        0
176
     1
290
     0
176
     1
 90
       13
176
     1
 40
0.0
176
     1
 90
        0
176
     1
290
     0
176
     1
290
     1
176
     1
290
     1
176
     1
290
     0
176
     1
290
     0
176
     1
290
     0
176
     1
290
     0
176
     1
290
     0
176
     1
290
     0
176
     1
 90
       50
176
     1
 40
0.0
176
     1
 40
1.0
176
     1
 90
        0
176
     1
 62
    18
420
        0
176
     1
 90
       50
176
     1
 90
        3
176
     1
 62
     5
420
      255
176
     1
290
     0
176
     1
 90
       50
176
     1
 90
       50
176
     1
 90
       50
176
     1
290
     0
176
     1
 90
       50
176
     1
 62
   256
176
     0
 40
1.0
176
     0
 90
        2
176
     1
  1
strokes_ogs.tif
176
     1
290
     0
176
     1
 40
1.0
176
     1
 40
1.0
176
     1
  0
VISUALSTYLE
  5
1A4
102
{ACAD_REACTORS
330
1A2
102
}
330
1A2
100
AcDbVisualStyle
  2
FlatWithEdges
 70
     1
177
     3
291
     1
 70
    58
 90
        2
176
     1
 90
        1
176
     1
 90
        1
176
     1
 90
        2
176
     1
 40
0.6
176
     1
 40
30.0
176
     1
 62
     7
420
 16777215
176
     1
 90
        1
176
     1
 90
        0
176
     1
 62
     7
176
     1
 62
   257
176
     1
 90
        1
176
     1
 90
        1
176
     1
 40
1.0
176
     1
 90
        0
176
     1
 62
   257
176
     1
 40
1.0
176
     1
 90
        1
176
     1
 90
        6
176
     1
 90
        2
176
     1
 62
     7
176
     1
 90
        5
176
     1
 90
        0
176
     1
 90
        0
176
     1
290
     0
176
     1
 90
       13
176
     1
 40
0.0
176
     1
 90
        0
176
     1
290
     0
176
     1
290
     1
176
     1
290
     1
176
     1
290
     0
176
     1
290
     0
176
     1
290
     0
176
     1
290
     0
176
     1
290
     0
176
     1
290
     0
176
     1
 90
       50
176
     1
 40
0.0
176
     1
 40
1.0
176
     1
 90
        0
176
     1
 62
    18
420
        0
176
     1
 90
       50
176
     1
 90
        3
176
     1
 62
     5
420
      255
176
     1
290
     0
176
     1
 90
       50
176
     1
 90
       50
176
     1
 90
       50
176
     1
290
     0
176
     1
 90
       50
176
     1
 62
   256
176
     0
 40
1.0
176
     0
 90
        2
176
     1
  1
strokes_ogs.tif
176
     1
290
     0
176
     1
 40
1.0
176
     1
 40
1.0
176
     1
  0
VISUALSTYLE
  5
1A5
102
{ACAD_REACTORS
330
1A2
102
}
330
1A2
100
AcDbVisualStyle
  2
Gouraud
 70
     2
177
     3
291
     1
 70
    58
 90
        2
176
     1
 90
        2
176
     1
 90
        1
176
     1
 90
        2
176
     1
 40
0.6
176
     1
 40
30.0
176
     1
 62
     7
420
 16777215
176
     1
 90
        0
176
     1
 90
        0
176
     1
 62
     7
176
     1
 62
   257
176
     1
 90
        1
176
     1
 90
        1
176
     1
 40
1.0
176
     1
 90
        0
176
     1
 62
     7
176
     1
 40
1.0
176
     1
 90
        1
176
     1
 90
        6
176
     1
 90
        2
176
     1
 62
     7
176
     1
 90
        5
176
     1
 90
        0
176
     1
 90
        0
176
     1
290
     0
176
     1
 90
       13
176
     1
 40
0.0
176
     1
 90
        0
176
     1
290
     0
176
     1
290
     1
176
     1
290
     1
176
     1
290
     0
176
     1
290
     0
176
     1
290
     0
176
     1
290
     0
176
     1
290
     0
176
     1
290
     0
176
     1
 90
       50
176
     1
 40
0.0
176
     1
 40
1.0
176
     1
 90
        0
176
     1
 62
    18
420
        0
176
     1
 90
       50
176
     1
 90
        3
176
     1
 62
     5
420
      255
176
     1
290
     0
176
     1
 90
       50
176
     1
 90
       50
176
     1
 90
       50
176
     1
290
     0
176
     1
 90
       50
176
     1
 62
   256
176
     0
 40
1.0
176
     0
 90
        2
176
     1
  1
strokes_ogs.tif
176
     1
290
     0
176
     1
 40
1.0
176
     1
 40
1.0
176
     1
  0
VISUALSTYLE
  5
1A6
102
{ACAD_REACTORS
330
1A2
102
}
330
1A2
100
AcDbVisualStyle
  2
GouraudWithEdges
 70
     3
177
     3
291
     1
 70
    58
 90
        2
176
     1
 90
        2
176
     1
 90
        1
176
     1
 90
        2
176
     1
 40
0.6
176
     1
 40
30.0
176
     1
 62
     7
420
 16777215
176
     1
 90
        1
176
     1
 90
        0
176
     1
 62
     7
176
     1
 62
   257
176
     1
 90
        1
176
     1
 90
        1
176
     1
 40
1.0
176
     1
 90
        0
176
     1
 62
   257
176
     1
 40
1.0
176
     1
 90
        1
176
     1
 90
        6
176
     1
 90
        2
176
     1
 62
     7
176
     1
 90
        5
176
     1
 90
        0
176
     1
 90
        0
176
     1
290
     0
176
     1
 90
       13
176
     1
 40
0.0
176
     1
 90
        0
176
     1
290
     0
176
     1
290
     1
176
     1
290
     1
176
     1
290
     0
176
     1
290
     0
176
     1
290
     0
176
     1
290
     0
176
     1
290
     0
176
     1
290
     0
176
     1
 90
       50
176
     1
 40
0.0
176
     1
 40
1.0
176
     1
 90
        0
176
     1
 62
    18
420
        0
176
     1
 90
       50
176
     1
 90
        3
176
     1
 62
     5
420
      255
176
     1
290
     0
176
     1
 90
       50
176
     1
 90
       50
176
     1
 90
       50
176
     1
290
     0
176
     1
 90
       50
176
     1
 62
   256
176
     0
 40
1.0
176
     0
 90
        2
176
     1
  1
strokes_ogs.tif
176
     1
290
     0
176
     1
 40
1.0
176
     1
 40
1.0
176
     1
  0
VISUALSTYLE
  5
1AA
102
{ACAD_REACTORS
330
1A2
102
}
330
1A2
100
AcDbVisualStyle
  2
Hidden
 70
     6
177
     3
291
     0
 70
    58
 90
        1
176
     1
 90
        2
176
     1
 90
        2
176
     1
 90
        0
176
     1
 40
0.6
176
     1
 40
30.0
176
     1
 62
     7
420
 16777215
176
     1
 90
        2
176
     1
 90
        2
176
     1
 62
     7
176
     1
 62
   257
176
     1
 90
        2
176
     1
 90
        1
176
     1
 40
40.0
176
     1
 90
        0
176
     1
 62
   257
176
     1
 40
1.0
176
     1
 90
        1
176
     1
 90
        6
176
     1
 90
        2
176
     1
 62
     7
176
     1
 90
        3
176
     1
 90
        0
176
     1
 90
        0
176
     1
290
     0
176
     1
 90
        1
176
     1
 40
0.0
176
     1
 90
        0
176
     1
290
     0
176
     1
290
     1
176
     1
290
     1
176
     1
290
     0
176
     1
290
     0
176
     1
290
     0
176
     1
290
     0
176
     1
290
     0
176
     1
290
     0
176
     1
 90
       50
176
     1
 40
0.0
176
     1
 40
1.0
176
     1
 90
        0
176
     1
 62
    18
420
        0
176
     1
 90
       50
176
     1
 90
        3
176
     1
 62
     5
420
      255
176
     1
290
     0
176
     1
 90
       50
176
     1
 90
       50
176
     1
 90
       50
176
     1
290
     0
176
     1
 90
       50
176
     1
 62
   256
176
     0
 40
1.0
176
     0
 90
        2
176
     1
  1
strokes_ogs.tif
176
     1
290
     0
176
     1
 40
1.0
176
     1
 40
1.0
176
     1
  0
VISUALSTYLE
  5
1B8
102
{ACAD_REACTORS
330
1A2
102
}
330
1A2
100
AcDbVisualStyle
  2
JitterOff
 70
    20
177
     3
291
     1
 70
    58
 90
        2
176
     0
 90
        2
176
     0
 90
        0
176
     0
 90
        0
176
     0
 40
0.6
176
     0
 40
30.0
176
     0
 62
     7
420
 16777215
176
     0
 90
        1
176
     0
 90
        4
176
     0
 62
     7
176
     0
 62
   257
176
     0
 90
        1
176
     0
 90
        1
176
     0
 40
1.0
176
     0
 90
       10
176
     2
 62
     7
176
     0
 40
1.0
176
     0
 90
        1
176
     0
 90
        6
176
     0
 90
        2
176
     0
 62
     7
176
     0
 90
        5
176
     0
 90
        0
176
     0
 90
        0
176
     0
290
     0
176
     0
 90
        1
176
     0
 40
0.0
176
     0
 90
        0
176
     0
290
     0
176
     1
290
     1
176
     1
290
     1
176
     1
290
     0
176
     1
290
     0
176
     1
290
     0
176
     1
290
     0
176
     1
290
     0
176
     1
290
     0
176
     1
 90
       50
176
     0
 40
0.0
176
     0
 40
1.0
176
     0
 90
        0
176
     0
 62
    18
420
        0
176
     0
 90
       50
176
     0
 90
        3
176
     0
 62
     5
420
      255
176
     0
290
     0
176
     1
 90
       50
176
     0
 90
       50
176
     0
 90
       50
176
     0
290
     0
176
     1
 90
       50
176
     0
 62
   256
176
     0
 40
1.0
176
     0
 90
        2
176
     0
  1
strokes_ogs.tif
176
     0
290
     0
176
     1
 40
1.0
176
     0
 40
1.0
176
     0
  0
VISUALSTYLE
  5
1B0
102
{ACAD_REACTORS
330
1A2
102
}
330
1A2
100
AcDbVisualStyle
  2
Linepattern
 70
    14
177
     3
291
     1
 70
    58
 90
        2
176
     1
 90
        2
176
     1
 90
        0
176
     1
 90
        0
176
     1
 40
0.6
176
     1
 40
30.0
176
     1
 62
     7
420
 16777215
176
     1
 90
        1
176
     1
 90
        4
176
     1
 62
     7
176
     1
 62
   257
176
     1
 90
        7
176
     1
 90
        7
176
     1
 40
1.0
176
     1
 90
        8
176
     1
 62
     7
176
     1
 40
1.0
176
     1
 90
        1
176
     1
 90
        6
176
     1
 90
        2
176
     1
 62
     7
176
     1
 90
        5
176
     1
 90
        0
176
     1
 90
        0
176
     1
290
     0
176
     1
 90
        1
176
     1
 40
0.0
176
     1
 90
        0
176
     1
290
     0
176
     1
290
     1
176
     1
290
     1
176
     1
290
     0
176
     1
290
     0
176
     1
290
     0
176
     1
290
     0
176
     1
290
     0
176
     1
290
     0
176
     1
 90
       50
176
     1
 40
0.0
176
     1
 40
1.0
176
     1
 90
        0
176
     1
 62
    18
420
        0
176
     1
 90
       50
176
     1
 90
        3
176
     1
 62
     5
420
      255
176
     1
290
     0
176
     1
 90
       50
176
     1
 90
       50
176
     1
 90
       50
176
     1
290
     0
176
     1
 90
       50
176
     1
 62
   256
176
     0
 40
1.0
176
     0
 90
        2
176
     1
  1
strokes_ogs.tif
176
     1
290
     0
176
     1
 40
1.0
176
     1
 40
1.0
176
     1
  0
VISUALSTYLE
  5
1B9
102
{ACAD_REACTORS
330
1A2
102
}
330
1A2
100
AcDbVisualStyle
  2
OverhangOff
 70
    21
177
     3
291
     1
 70
    58
 90
        2
176
     0
 90
        2
176
     0
 90
        0
176
     0
 90
        0
176
     0
 40
0.6
176
     0
 40
30.0
176
     0
 62
     7
420
 16777215
176
     0
 90
        1
176
     0
 90
        4
176
     0
 62
     7
176
     0
 62
   257
176
     0
 90
        1
176
     0
 90
        1
176
     0
 40
1.0
176
     0
 90
        9
176
     2
 62
     7
176
     0
 40
1.0
176
     0
 90
        1
176
     0
 90
        6
176
     0
 90
        2
176
     0
 62
     7
176
     0
 90
        5
176
     0
 90
        0
176
     0
 90
        0
176
     0
290
     0
176
     0
 90
        1
176
     0
 40
0.0
176
     0
 90
        0
176
     0
290
     0
176
     1
290
     1
176
     1
290
     1
176
     1
290
     0
176
     1
290
     0
176
     1
290
     0
176
     1
290
     0
176
     1
290
     0
176
     1
290
     0
176
     1
 90
       50
176
     0
 40
0.0
176
     0
 40
1.0
176
     0
 90
        0
176
     0
 62
    18
420
        0
176
     0
 90
       50
176
     0
 90
        3
176
     0
 62
     5
420
      255
176
     0
290
     0
176
     1
 90
       50
176
     0
 90
       50
176
     0
 90
       50
176
     0
290
     0
176
     1
 90
       50
176
     0
 62
   256
176
     0
 40
1.0
176
     0
 90
        2
176
     0
  1
strokes_ogs.tif
176
     0
290
     0
176
     1
 40
1.0
176
     0
 40
1.0
176
     0
  0
VISUALSTYLE
  5
1AC
102
{ACAD_REACTORS
330
1A2
102
}
330
1A2
100
AcDbVisualStyle
  2
Realistic
 70
     8
177
     3
291
     0
 70
    58
 90
        2
176
     1
 90
        3
176
     1
 90
        0
176
     1
 90
        2
176
     1
 40
0.6
176
     1
 40
30.0
176
     1
 62
     7
420
 16777215
176
     1
 90
        0
176
     1
 90
        0
176
     1
 62
     7
176
     1
 62
   257
176
     1
 90
        1
176
     1
 90
        1
176
     1
 40
1.0
176
     1
 90
        8
176
     1
 62
   257
176
     1
 40
1.0
176
     1
 90
        1
176
     1
 90
        6
176
     1
 90
        2
176
     1
 62
     7
176
     1
 90
        3
176
     1
 90
        0
176
     1
 90
        0
176
     1
290
     0
176
     1
 90
       13
176
     1
 40
0.0
176
     1
 90
        0
176
     1
290
     0
176
     1
290
     1
176
     1
290
     1
176
     1
290
     0
176
     1
290
     0
176
     1
290
     0
176
     1
290
     0
176
     1
290
     0
176
     1
290
     0
176
     1
 90
       50
176
     1
 40
0.0
176
     1
 40
1.0
176
     1
 90
        0
176
     1
 62
    18
420
        0
176
     1
 90
       50
176
     1
 90
        3
176
     1
 62
     5
420
      255
176
     1
290
     0
176
     1
 90
       50
176
     1
 90
       50
176
     1
 90
       50
176
     1
290
     0
176
     1
 90
       50
176
     1
 62
   256
176
     0
 40
1.0
176
     0
 90
        2
176
     1
  1
strokes_ogs.tif
176
     1
290
     0
176
     1
 40
1.0
176
     1
 40
1.0
176
     1
  0
VISUALSTYLE
  5
1B7
102
{ACAD_REACTORS
330
1A2
102
}
330
1A2
100
AcDbVisualStyle
  2
Shaded
 70
    27
177
     3
291
     0
 70
    58
 90
        2
176
     1
 90
        2
176
     1
 90
        1
176
     1
 90
        2
176
     1
 40
0.6
176
     1
 40
30.0
176
     1
 62
     7
420
 16777215
176
     1
 90
        0
176
     1
 90
        4
176
     1
 62
     7
176
     1
 62
   257
176
     1
 90
        1
176
     1
 90
        1
176
     1
 40
1.0
176
     1
 90
        8
176
     1
 62
   257
176
     1
 40
1.0
176
     1
 90
        1
176
     1
 90
        6
176
     1
 90
        2
176
     1
 62
     8
420
  7895160
176
     1
 90
        3
176
     1
 90
        0
176
     1
 90
        0
176
     1
290
     0
176
     1
 90
        5
176
     1
 40
0.0
176
     1
 90
        0
176
     1
290
     0
176
     1
290
     1
176
     1
290
     1
176
     1
290
     0
176
     1
290
     0
176
     1
290
     0
176
     1
290
     0
176
     1
290
     0
176
     1
290
     0
176
     1
 90
       50
176
     1
 40
0.0
176
     1
 40
1.0
176
     1
 90
        0
176
     1
 62
    18
420
        0
176
     1
 90
       50
176
     1
 90
        3
176
     1
 62
     5
420
      255
176
     1
290
     0
176
     1
 90
       50
176
     1
 90
       50
176
     1
 90
       50
176
     1
290
     0
176
     1
 90
       50
176
     1
 62
   256
176
     0
 40
1.0
176
     0
 90
        2
176
     1
  1
strokes_ogs.tif
176
     1
290
     0
176
     1
 40
1.0
176
     1
 40
1.0
176
     1
  0
VISUALSTYLE
  5
1B6
102
{ACAD_REACTORS
330
1A2
102
}
330
1A2
100
AcDbVisualStyle
  2
Shaded with edges
 70
    26
177
     3
291
     0
 70
    58
 90
        2
176
     1
 90
        2
176
     1
 90
        1
176
     1
 90
        2
176
     1
 40
0.6
176
     1
 40
30.0
176
     1
 62
     7
420
 16777215
176
     1
 90
        1
176
     1
 90
        2
176
     1
 62
     7
176
     1
 62
   257
176
     1
 90
        2
176
     1
 90
        1
176
     1
 40
1.0
176
     1
 90
        8
176
     1
 62
   257
176
     1
 40
1.0
176
     1
 90
        1
176
     1
 90
        6
176
     1
 90
        2
176
     1
 62
     7
176
     1
 90
        3
176
     1
 90
        0
176
     1
 90
        0
176
     1
290
     0
176
     1
 90
        5
176
     1
 40
0.0
176
     1
 90
        0
176
     1
290
     0
176
     1
290
     1
176
     1
290
     1
176
     1
290
     0
176
     1
290
     0
176
     1
290
     0
176
     1
290
     0
176
     1
290
     0
176
     1
290
     0
176
     1
 90
       50
176
     1
 40
0.0
176
     1
 40
1.0
176
     1
 90
        0
176
     1
 62
    18
420
        0
176
     1
 90
       50
176
     1
 90
        3
176
     1
 62
     5
420
      255
176
     1
290
     0
176
     1
 90
       50
176
     1
 90
       50
176
     1
 90
       50
176
     1
290
     0
176
     1
 90
       50
176
     1
 62
   256
176
     0
 40
1.0
176
     0
 90
        2
176
     1
  1
strokes_ogs.tif
176
     1
290
     0
176
     1
 40
1.0
176
     1
 40
1.0
176
     1
  0
VISUALSTYLE
  5
1B3
102
{ACAD_REACTORS
330
1A2
102
}
330
1A2
100
AcDbVisualStyle
  2
Shades of Gray
 70
    23
177
     3
291
     0
 70
    58
 90
        2
176
     1
 90
        2
176
     1
 90
        3
176
     1
 90
        0
176
     1
 40
0.6
176
     1
 40
30.0
176
     1
 62
     7
420
 16777215
176
     1
 90
        2
176
     1
 90
        2
176
     1
 62
     7
176
     1
 62
     7
176
     1
 90
        1
176
     1
 90
        1
176
     1
 40
40.0
176
     1
 90
        8
176
     1
 62
     7
176
     1
 40
1.0
176
     1
 90
        1
176
     1
 90
        6
176
     1
 90
        2
176
     1
 62
     7
176
     1
 90
        3
176
     1
 90
        0
176
     1
 90
        0
176
     1
290
     0
176
     1
 90
        1
176
     1
 40
0.0
176
     1
 90
        0
176
     1
290
     0
176
     1
290
     1
176
     1
290
     1
176
     1
290
     0
176
     1
290
     0
176
     1
290
     0
176
     1
290
     0
176
     1
290
     0
176
     1
290
     0
176
     1
 90
       50
176
     1
 40
0.0
176
     1
 40
1.0
176
     1
 90
        0
176
     1
 62
    18
420
        0
176
     1
 90
       50
176
     1
 90
        3
176
     1
 62
     5
420
      255
176
     1
290
     0
176
     1
 90
       50
176
     1
 90
       50
176
     1
 90
       50
176
     1
290
     0
176
     1
 90
       50
176
     1
 62
   256
176
     0
 40
1.0
176
     0
 90
        2
176
     1
  1
strokes_ogs.tif
176
     1
290
     0
176
     1
 40
1.0
176
     1
 40
1.0
176
     1
  0
VISUALSTYLE
  5
1B4
102
{ACAD_REACTORS
330
1A2
102
}
330
1A2
100
AcDbVisualStyle
  2
Sketchy
 70
    24
177
     3
291
     0
 70
    58
 90
        1
176
     1
 90
        2
176
     1
 90
        2
176
     1
 90
        0
176
     1
 40
0.6
176
     1
 40
30.0
176
     1
 62
     7
420
 16777215
176
     1
 90
        2
176
     1
 90
        2
176
     1
 62
     7
176
     1
 62
     7
176
     1
 90
        1
176
     1
 90
        1
176
     1
 40
40.0
176
     1
 90
       11
176
     1
 62
     7
176
     1
 40
1.0
176
     1
 90
        1
176
     1
 90
        6
176
     1
 90
        2
176
     1
 62
     7
176
     1
 90
        6
176
     1
 90
        0
176
     1
 90
        0
176
     1
290
     0
176
     1
 90
        1
176
     1
 40
0.0
176
     1
 90
        0
176
     1
290
     0
176
     1
290
     1
176
     1
290
     1
176
     1
290
     0
176
     1
290
     0
176
     1
290
     0
176
     1
290
     0
176
     1
290
     0
176
     1
290
     0
176
     1
 90
       50
176
     1
 40
0.0
176
     1
 40
1.0
176
     1
 90
        0
176
     1
 62
    18
420
        0
176
     1
 90
       50
176
     1
 90
        3
176
     1
 62
     5
420
      255
176
     1
290
     0
176
     1
 90
       50
176
     1
 90
       50
176
     1
 90
       50
176
     1
290
     0
176
     1
 90
       50
176
     1
 62
   256
176
     0
 40
1.0
176
     0
 90
        2
176
     1
  1
strokes_ogs.tif
176
     1
290
     0
176
     1
 40
1.0
176
     1
 40
1.0
176
     1
  0
VISUALSTYLE
  5
1AF
102
{ACAD_REACTORS
330
1A2
102
}
330
1A2
100
AcDbVisualStyle
  2
Thicken
 70
    13
177
     3
291
     1
 70
    58
 90
        2
176
     1
 90
        2
176
     1
 90
        0
176
     1
 90
        0
176
     1
 40
0.6
176
     1
 40
30.0
176
     1
 62
     7
420
 16777215
176
     1
 90
        1
176
     1
 90
        4
176
     1
 62
     7
176
     1
 62
   257
176
     1
 90
        1
176
     1
 90
        1
176
     1
 40
1.0
176
     1
 90
       12
176
     1
 62
     7
176
     1
 40
1.0
176
     1
 90
        1
176
     1
 90
        6
176
     1
 90
        2
176
     1
 62
     7
176
     1
 90
        5
176
     1
 90
        0
176
     1
 90
        0
176
     1
290
     0
176
     1
 90
        1
176
     1
 40
0.0
176
     1
 90
        0
176
     1
290
     0
176
     1
290
     1
176
     1
290
     1
176
     1
290
     0
176
     1
290
     0
176
     1
290
     0
176
     1
290
     0
176
     1
290
     0
176
     1
290
     0
176
     1
 90
       50
176
     1
 40
0.0
176
     1
 40
1.0
176
     1
 90
        0
176
     1
 62
    18
420
        0
176
     1
 90
       50
176
     1
 90
        3
176
     1
 62
     5
420
      255
176
     1
290
     0
176
     1
 90
       50
176
     1
 90
       50
176
     1
 90
       50
176
     1
290
     0
176
     1
 90
       50
176
     1
 62
   256
176
     0
 40
1.0
176
     0
 90
        2
176
     1
  1
strokes_ogs.tif
176
     1
290
     0
176
     1
 40
1.0
176
     1
 40
1.0
176
     1
  0
VISUALSTYLE
  5
1A9
102
{ACAD_REACTORS
330
1A2
102
}
330
1A2
100
AcDbVisualStyle
  2
Wireframe
 70
     5
177
     3
291
     0
 70
    58
 90
        0
176
     1
 90
        2
176
     1
 90
        0
176
     1
 90
        0
176
     1
 40
0.6
176
     1
 40
30.0
176
     1
 62
     7
420
 16777215
176
     1
 90
        1
176
     1
 90
        4
176
     1
 62
     7
176
     1
 62
   257
176
     1
 90
        1
176
     1
 90
        1
176
     1
 40
1.0
176
     1
 90
        0
176
     1
 62
   257
176
     1
 40
1.0
176
     1
 90
        1
176
     1
 90
        6
176
     1
 90
        2
176
     1
 62
     7
176
     1
 90
        3
176
     1
 90
        0
176
     1
 90
        0
176
     1
290
     0
176
     1
 90
        1
176
     1
 40
0.0
176
     1
 90
        0
176
     1
290
     0
176
     1
290
     1
176
     1
290
     1
176
     1
290
     0
176
     1
290
     0
176
     1
290
     0
176
     1
290
     0
176
     1
290
     0
176
     1
290
     0
176
     1
 90
       50
176
     1
 40
0.0
176
     1
 40
1.0
176
     1
 90
        0
176
     1
 62
    18
420
        0
176
     1
 90
       50
176
     1
 90
        3
176
     1
 62
     5
420
      255
176
     1
290
     0
176
     1
 90
       50
176
     1
 90
       50
176
     1
 90
       50
176
     1
290
     0
176
     1
 90
       50
176
     1
 62
   256
176
     0
 40
1.0
176
     0
 90
        2
176
     1
  1
strokes_ogs.tif
176
     1
290
     0
176
     1
 40
1.0
176
     1
 40
1.0
176
     1
  0
VISUALSTYLE
  5
1B5
102
{ACAD_REACTORS
330
1A2
102
}
330
1A2
100
AcDbVisualStyle
  2
X-Ray
 70
    25
177
     3
291
     0
 70
    58
 90
        2
176
     1
 90
        2
176
     1
 90
        1
176
     1
 90
        1
176
     1
 40
0.5
176
     1
 40
30.0
176
     1
 62
     7
420
 16777215
176
     1
 90
        1
176
     1
 90
        0
176
     1
 62
     7
176
     1
 62
   257
176
     1
 90
        1
176
     1
 90
        1
176
     1
 40
1.0
176
     1
 90
        8
176
     1
 62
     7
176
     1
 40
1.0
176
     1
 90
        1
176
     1
 90
        6
176
     1
 90
        2
176
     1
 62
     7
176
     1
 90
        3
176
     1
 90
        0
176
     1
 90
        0
176
     1
290
     0
176
     1
 90
       13
176
     1
 40
0.0
176
     1
 90
        0
176
     1
290
     0
176
     1
290
     1
176
     1
290
     1
176
     1
290
     0
176
     1
290
     0
176
     1
290
     0
176
     1
290
     0
176
     1
290
     0
176
     1
290
     0
176
     1
 90
       50
176
     1
 40
0.0
176
     1
 40
1.0
176
     1
 90
        0
176
     1
 62
    18
420
        0
176
     1
 90
       50
176
     1
 90
        3
176
     1
 62
     5
420
      255
176
     1
290
     0
176
     1
 90
       50
176
     1
 90
       50
176
     1
 90
       50
176
     1
290
     0
176
     1
 90
       50
176
     1
 62
   256
176
     0
 40
1.0
176
     0
 90
        2
176
     1
  1
strokes_ogs.tif
176
     1
290
     0
176
     1
 40
1.0
176
     1
 40
1.0
176
     1
  0
DICTIONARYVAR
  5
1FB
102
{ACAD_REACTORS
330
1F5
102
}
330
1F5
100
DictionaryVariables
280
     0
  1
1:1
  0
DICTIONARYVAR
  5
1F7
102
{ACAD_REACTORS
330
1F5
102
}
330
1F5
100
DictionaryVariables
280
     0
  1
STANDARD
  0
DICTIONARYVAR
  5
1F6
102
{ACAD_REACTORS
330
1F5
102
}
330
1F5
100
DictionaryVariables
280
     0
  1
STANDARD
  0
DICTIONARYVAR
  5
1F8
102
{ACAD_REACTORS
330
1F5
102
}
330
1F5
100
DictionaryVariables
280
     0
  1
Metric50
  0
DICTIONARYVAR
  5
1F9
102
{ACAD_REACTORS
330
1F5
102
}
330
1F5
100
DictionaryVariables
280
     0
  1
Metric50
  0
DICTIONARYVAR
  5
1FD
102
{ACAD_REACTORS
330
1F5
102
}
330
1F5
100
DictionaryVariables
280
     0
  1
1
  0
DICTIONARYVAR
  5
1FE
102
{ACAD_REACTORS
330
1F5
102
}
330
1F5
100
DictionaryVariables
280
     0
  1
15
  0
DICTIONARYVAR
  5
1FC
102
{ACAD_REACTORS
330
1F5
102
}
330
1F5
100
DictionaryVariables
280
     0
  1
0
  0
DICTIONARYVAR
  5
1FA
102
{ACAD_REACTORS
330
1F5
102
}
330
1F5
100
DictionaryVariables
280
     0
  1
0
  0
DICTIONARY
  5
227
102
{ACAD_REACTORS
330
226
102
}
330
226
100
AcDbDictionary
281
     1
  3
*A1
350
228
  0
DICTIONARY
  5
219
102
{ACAD_REACTORS
330
218
102
}
330
218
100
AcDbDictionary
281
     1
  3
*A1
350
21A
  0
DICTIONARY
  5
20B
102
{ACAD_REACTORS
330
20A
102
}
330
20A
100
AcDbDictionary
281
     1
  3
*A1
350
20C
  0
DICTIONARY
  5
243
102
{ACAD_REACTORS
330
242
102
}
330
242
100
AcDbDictionary
281
     1
  3
*A1
350
244
  0
DICTIONARY
  5
235
102
{ACAD_REACTORS
330
234
102
}
330
234
100
AcDbDictionary
281
     1
  3
*A1
350
236
  0
DICTIONARY
  5
251
102
{ACAD_REACTORS
330
250
102
}
330
250
100
AcDbDictionary
281
     1
  3
*A1
350
252
  0
DICTIONARY
  5
261
102
{ACAD_REACTORS
330
260
102
}
330
260
100
AcDbDictionary
281
     1
  3
*A1
350
262
  0
DICTIONARY
  5
27C
102
{ACAD_REACTORS
330
27B
102
}
330
27B
100
AcDbDictionary
281
     1
  3
*A1
350
27D
  0
DICTIONARY
  5
2B8
102
{ACAD_REACTORS
330
2B7
102
}
330
2B7
100
AcDbDictionary
281
     1
  3
*A1
350
2B9
  0
DICTIONARY
  5
193
330
192
100
AcDbDictionary
280
     1
281
     1
  3
BUMPTILE
360
195
  3
DIFFUSETILE
360
194
  3
OPACITYTILE
360
198
  3
REFLECTIONTILE
360
197
  3
REFRACTIONTILE
360
199
  3
SPECULARTILE
360
196
  0
DICTIONARY
  5
18B
330
18A
100
AcDbDictionary
280
     1
281
     1
  3
BUMPTILE
360
18D
  3
DIFFUSETILE
360
18C
  3
OPACITYTILE
360
190
  3
REFLECTIONTILE
360
18F
  3
REFRACTIONTILE
360
191
  3
SPECULARTILE
360
18E
  0
DICTIONARY
  5
19B
330
19A
100
AcDbDictionary
280
     1
281
     1
  3
BUMPTILE
360
19D
  3
DIFFUSETILE
360
19C
  3
OPACITYTILE
360
1A0
  3
REFLECTIONTILE
360
19F
  3
REFRACTIONTILE
360
1A1
  3
SPECULARTILE
360
19E
  0
DICTIONARY
  5
2C9
330
1BD
100
AcDbDictionary
280
     1
281
     1
  3
ACAD_ROUNDTRIP_2008_TABLESTYLE_CELLSTYLEMAP
360
2CA
  0
ACDB_ALDIMOBJECTCONTEXTDATA_CLASS
  5
228
102
{ACAD_REACTORS
330
227
102
}
330
227
100
AcDbObjectContextData
 70
     4
290
     1
100
AcDbAnnotScaleObjectContextData
340
48
100
AcDbDimensionObjectContextData
  2
*D14
293
     0
 10
-165.2444535359
 20
11.8306895766
294
     0
140
0.0
298
     0
291
     0
 70
     0
292
     0
 71
     0
280
     0
295
     0
296
     0
297
     0
100
AcDbAlignedDimensionObjectContextData
 11
-165.2444535359
 21
-85.45468044020005
 31
0.0
  0
ACDB_ALDIMOBJECTCONTEXTDATA_CLASS
  5
21A
102
{ACAD_REACTORS
330
219
102
}
330
219
100
AcDbObjectContextData
 70
     4
290
     1
100
AcDbAnnotScaleObjectContextData
340
48
100
AcDbDimensionObjectContextData
  2
*D13
293
     0
 10
-48.34472230229999
 20
-107.4546804402
294
     0
140
0.0
298
     0
291
     0
 70
     0
292
     0
 71
     0
280
     0
295
     0
296
     0
297
     0
100
AcDbAlignedDimensionObjectContextData
 11
19.55554275129999
 21
-107.4546804402
 31
0.0
  0
ACDB_ALDIMOBJECTCONTEXTDATA_CLASS
  5
20C
102
{ACAD_REACTORS
330
20B
102
}
330
20B
100
AcDbObjectContextData
 70
     4
290
     1
100
AcDbAnnotScaleObjectContextData
340
48
100
AcDbDimensionObjectContextData
  2
*D12
293
     0
 10
57.5507205423
 20
-44.92039803689999
294
     0
140
0.0
298
     0
291
     0
 70
     0
292
     0
 71
     0
280
     0
295
     0
296
     0
297
     0
100
AcDbAlignedDimensionObjectContextData
 11
57.55072054230002
 21
-0.4546804401999957
 31
0.0
  0
ACDB_ALDIMOBJECTCONTEXTDATA_CLASS
  5
244
102
{ACAD_REACTORS
330
243
102
}
330
243
100
AcDbObjectContextData
 70
     4
290
     1
100
AcDbAnnotScaleObjectContextData
340
48
100
AcDbDimensionObjectContextData
  2
*D16
293
     0
 10
241.2705896973
 20
-114.8344782342
294
     0
140
0.0
298
     0
291
     0
 70
     0
292
     0
 71
     0
280
     0
295
     0
296
     0
297
     0
100
AcDbAlignedDimensionObjectContextData
 11
214.9110441774
 21
-114.8344782342
 31
0.0
  0
ACDB_ALDIMOBJECTCONTEXTDATA_CLASS
  5
236
102
{ACAD_REACTORS
330
235
102
}
330
235
100
AcDbObjectContextData
 70
     4
290
     1
100
AcDbAnnotScaleObjectContextData
340
48
100
AcDbDimensionObjectContextData
  2
*D15
293
     0
 10
359.4961701082
 20
-112.5697419587
294
     0
140
0.0
298
     0
291
     0
 70
     0
292
     0
 71
     0
280
     0
295
     0
296
     0
297
     0
100
AcDbAlignedDimensionObjectContextData
 11
335.1202323621
 21
-112.5697419587
 31
0.0
  0
ACDB_ALDIMOBJECTCONTEXTDATA_CLASS
  5
252
102
{ACAD_REACTORS
330
251
102
}
330
251
100
AcDbObjectContextData
 70
     4
290
     1
100
AcDbAnnotScaleObjectContextData
340
48
100
AcDbDimensionObjectContextData
  2
*D17
293
     0
 10
480.9007508612999
 20
-23.3311801826
294
     0
140
0.0
298
     0
291
     0
 70
     0
292
     0
 71
     0
280
     0
295
     0
296
     0
297
     0
100
AcDbAlignedDimensionObjectContextData
 11
502.1123363185999
 21
-23.3311801826
 31
0.0
  0
ACDB_ALDIMOBJECTCONTEXTDATA_CLASS
  5
262
102
{ACAD_REACTORS
330
261
102
}
330
261
100
AcDbObjectContextData
 70
     4
290
     1
100
AcDbAnnotScaleObjectContextData
340
48
100
AcDbDimensionObjectContextData
  2
*D18
293
     0
 10
-161.2844422877
 20
333.7172776674
294
     0
140
0.0
298
     0
291
     0
 70
     0
292
     0
 71
     0
280
     0
295
     0
296
     0
297
     0
100
AcDbAlignedDimensionObjectContextData
 11
-147.9511089543668
 21
348.1885770124001
 31
0.0
  0
ACDB_ALDIMOBJECTCONTEXTDATA_CLASS
  5
27D
102
{ACAD_REACTORS
330
27C
102
}
330
27C
100
AcDbObjectContextData
 70
     4
290
     1
100
AcDbAnnotScaleObjectContextData
340
48
100
AcDbDimensionObjectContextData
  2
*D20
293
     0
 10
221.790550189625
 20
-12.76657555127985
294
     1
140
0.0
298
     0
291
     0
 70
     0
292
     0
 71
     0
280
     0
295
     0
296
     0
297
     0
100
AcDbAlignedDimensionObjectContextData
 11
181.67005620185
 21
-20.76657555127986
 31
0.0
  0
ACDB_ALDIMOBJECTCONTEXTDATA_CLASS
  5
2B9
102
{ACAD_REACTORS
330
2B8
102
}
330
2B8
100
AcDbObjectContextData
 70
     4
290
     1
100
AcDbAnnotScaleObjectContextData
340
48
100
AcDbDimensionObjectContextData
  2
*D24
293
     0
 10
-131.0348341354666
 20
159.5998771778477
294
     1
140
0.0
298
     0
291
     0
 70
     0
292
     0
 71
     0
280
     0
295
     0
296
     0
297
     0
100
AcDbAlignedDimensionObjectContextData
 11
-113.3681674688
 21
167.5998771778477
 31
0.0
  0
XRECORD
  5
195
102
{ACAD_REACTORS
330
193
102
}
330
193
100
AcDbXrecord
280
     1
270
     1
271
     1
  0
XRECORD
  5
194
102
{ACAD_REACTORS
330
193
102
}
330
193
100
AcDbXrecord
280
     1
270
     1
271
     1
  0
XRECORD
  5
198
102
{ACAD_REACTORS
330
193
102
}
330
193
100
AcDbXrecord
280
     1
270
     1
271
     1
  0
XRECORD
  5
197
102
{ACAD_REACTORS
330
193
102
}
330
193
100
AcDbXrecord
280
     1
270
     1
271
     1
  0
XRECORD
  5
199
102
{ACAD_REACTORS
330
193
102
}
330
193
100
AcDbXrecord
280
     1
270
     1
271
     1
  0
XRECORD
  5
196
102
{ACAD_REACTORS
330
193
102
}
330
193
100
AcDbXrecord
280
     1
270
     1
271
     1
  0
XRECORD
  5
18D
102
{ACAD_REACTORS
330
18B
102
}
330
18B
100
AcDbXrecord
280
     1
270
     1
271
     1
  0
XRECORD
  5
18C
102
{ACAD_REACTORS
330
18B
102
}
330
18B
100
AcDbXrecord
280
     1
270
     1
271
     1
  0
XRECORD
  5
190
102
{ACAD_REACTORS
330
18B
102
}
330
18B
100
AcDbXrecord
280
     1
270
     1
271
     1
  0
XRECORD
  5
18F
102
{ACAD_REACTORS
330
18B
102
}
330
18B
100
AcDbXrecord
280
     1
270
     1
271
     1
  0
XRECORD
  5
191
102
{ACAD_REACTORS
330
18B
102
}
330
18B
100
AcDbXrecord
280
     1
270
     1
271
     1
  0
XRECORD
  5
18E
102
{ACAD_REACTORS
330
18B
102
}
330
18B
100
AcDbXrecord
280
     1
270
     1
271
     1
  0
XRECORD
  5
19D
102
{ACAD_REACTORS
330
19B
102
}
330
19B
100
AcDbXrecord
280
     1
270
     1
271
     1
  0
XRECORD
  5
19C
102
{ACAD_REACTORS
330
19B
102
}
330
19B
100
AcDbXrecord
280
     1
270
     1
271
     1
  0
XRECORD
  5
1A0
102
{ACAD_REACTORS
330
19B
102
}
330
19B
100
AcDbXrecord
280
     1
270
     1
271
     1
  0
XRECORD
  5
19F
102
{ACAD_REACTORS
330
19B
102
}
330
19B
100
AcDbXrecord
280
     1
270
     1
271
     1
  0
XRECORD
  5
1A1
102
{ACAD_REACTORS
330
19B
102
}
330
19B
100
AcDbXrecord
280
     1
270
     1
271
     1
  0
XRECORD
  5
19E
102
{ACAD_REACTORS
330
19B
102
}
330
19B
100
AcDbXrecord
280
     1
270
     1
271
     1
  0
CELLSTYLEMAP
  5
2CA
102
{ACAD_REACTORS
330
2C9
102
}
330
2C9
100
AcDbCellStyleMap
 90
        3
300
CELLSTYLE
  1
TABLEFORMAT_BEGIN
 90
        5
170
     1
 91
        0
 92
    32768
 62
   257
 93
        1
300
CONTENTFORMAT
  1
CONTENTFORMAT_BEGIN
 90
        0
 91
        0
 92
      512
 93
        0
300

 40
0.0
140
1.0
 94
        5
 62
     0
340
11
144
6.0
309
CONTENTFORMAT_END
171
     1
301
MARGIN
  1
CELLMARGIN_BEGIN
 40
1.5
 40
1.5
 40
1.5
 40
1.5
 40
4.5
 40
4.5
309
CELLMARGIN_END
 94
        6
 95
        1
302
GRIDFORMAT
  1
GRIDFORMAT_BEGIN
 90
        0
 91
        1
 62
     0
 92
       -2
340
0
 93
        0
 40
1.125
309
GRIDFORMAT_END
 95
        2
302
GRIDFORMAT
  1
GRIDFORMAT_BEGIN
 90
        0
 91
        1
 62
     0
 92
       -2
340
0
 93
        0
 40
1.125
309
GRIDFORMAT_END
 95
        4
302
GRIDFORMAT
  1
GRIDFORMAT_BEGIN
 90
        0
 91
        1
 62
     0
 92
       -2
340
0
 93
        0
 40
1.125
309
GRIDFORMAT_END
 95
        8
302
GRIDFORMAT
  1
GRIDFORMAT_BEGIN
 90
        0
 91
        1
 62
     0
 92
       -2
340
0
 93
        0
 40
1.125
309
GRIDFORMAT_END
 95
       16
302
GRIDFORMAT
  1
GRIDFORMAT_BEGIN
 90
        0
 91
        1
 62
     0
 92
       -2
340
0
 93
        0
 40
1.125
309
GRIDFORMAT_END
 95
       32
302
GRIDFORMAT
  1
GRIDFORMAT_BEGIN
 90
        0
 91
        1
 62
     0
 92
       -2
340
0
 93
        0
 40
1.125
309
GRIDFORMAT_END
309
TABLEFORMAT_END
  1
CELLSTYLE_BEGIN
 90
        1
 91
        1
300
_TITLE
309
CELLSTYLE_END
300
CELLSTYLE
  1
TABLEFORMAT_BEGIN
 90
        5
170
     1
 91
        0
 92
        0
 62
   257
 93
        1
300
CONTENTFORMAT
  1
CONTENTFORMAT_BEGIN
 90
        0
 91
        0
 92
      512
 93
        0
300

 40
0.0
140
1.0
 94
        5
 62
     0
340
11
144
4.5
309
CONTENTFORMAT_END
171
     1
301
MARGIN
  1
CELLMARGIN_BEGIN
 40
1.5
 40
1.5
 40
1.5
 40
1.5
 40
4.5
 40
4.5
309
CELLMARGIN_END
 94
        6
 95
        1
302
GRIDFORMAT
  1
GRIDFORMAT_BEGIN
 90
        0
 91
        1
 62
     0
 92
       -2
340
0
 93
        0
 40
1.125
309
GRIDFORMAT_END
 95
        2
302
GRIDFORMAT
  1
GRIDFORMAT_BEGIN
 90
        0
 91
        1
 62
     0
 92
       -2
340
0
 93
        0
 40
1.125
309
GRIDFORMAT_END
 95
        4
302
GRIDFORMAT
  1
GRIDFORMAT_BEGIN
 90
        0
 91
        1
 62
     0
 92
       -2
340
0
 93
        0
 40
1.125
309
GRIDFORMAT_END
 95
        8
302
GRIDFORMAT
  1
GRIDFORMAT_BEGIN
 90
        0
 91
        1
 62
     0
 92
       -2
340
0
 93
        0
 40
1.125
309
GRIDFORMAT_END
 95
       16
302
GRIDFORMAT
  1
GRIDFORMAT_BEGIN
 90
        0
 91
        1
 62
     0
 92
       -2
340
0
 93
        0
 40
1.125
309
GRIDFORMAT_END
 95
       32
302
GRIDFORMAT
  1
GRIDFORMAT_BEGIN
 90
        0
 91
        1
 62
     0
 92
       -2
340
0
 93
        0
 40
1.125
309
GRIDFORMAT_END
309
TABLEFORMAT_END
  1
CELLSTYLE_BEGIN
 90
        2
 91
        1
300
_HEADER
309
CELLSTYLE_END
300
CELLSTYLE
  1
TABLEFORMAT_BEGIN
 90
        5
170
     1
 91
        0
 92
        0
 62
   257
 93
        1
300
CONTENTFORMAT
  1
CONTENTFORMAT_BEGIN
 90
        0
 91
        0
 92
      512
 93
        0
300

 40
0.0
140
1.0
 94
        2
 62
     0
340
11
144
4.5
309
CONTENTFORMAT_END
171
     1
301
MARGIN
  1
CELLMARGIN_BEGIN
 40
1.5
 40
1.5
 40
1.5
 40
1.5
 40
4.5
 40
4.5
309
CELLMARGIN_END
 94
        6
 95
        1
302
GRIDFORMAT
  1
GRIDFORMAT_BEGIN
 90
        0
 91
        1
 62
     0
 92
       -2
340
0
 93
        0
 40
1.125
309
GRIDFORMAT_END
 95
        2
302
GRIDFORMAT
  1
GRIDFORMAT_BEGIN
 90
        0
 91
        1
 62
     0
 92
       -2
340
0
 93
        0
 40
1.125
309
GRIDFORMAT_END
 95
        4
302
GRIDFORMAT
  1
GRIDFORMAT_BEGIN
 90
        0
 91
        1
 62
     0
 92
       -2
340
0
 93
        0
 40
1.125
309
GRIDFORMAT_END
 95
        8
302
GRIDFORMAT
  1
GRIDFORMAT_BEGIN
 90
        0
 91
        1
 62
     0
 92
       -2
340
0
 93
        0
 40
1.125
309
GRIDFORMAT_END
 95
       16
302
GRIDFORMAT
  1
GRIDFORMAT_BEGIN
 90
        0
 91
        1
 62
     0
 92
       -2
340
0
 93
        0
 40
1.125
309
GRIDFORMAT_END
 95
       32
302
GRIDFORMAT
  1
GRIDFORMAT_BEGIN
 90
        0
 91
        1
 62
     0
 92
       -2
340
0
 93
        0
 40
1.125
309
GRIDFORMAT_END
309
TABLEFORMAT_END
  1
CELLSTYLE_BEGIN
 90
        3
 91
        2
300
_DATA
309
CELLSTYLE_END
  0
ENDSEC
  0
EOF
