  0
SECTION
  2
HEADER
  9
$ACADVER
  1
AC1032
  9
$ACADMAINTVER
 90
      174
  9
$DWGCODEPAGE
  3
ANSI_1252
  9
$LASTSAVEDBY
  1
pengb
  9
$REQUIREDVERSIONS
160
                 0
  9
$INSBASE
 10
0.0
 20
0.0
 30
0.0
  9
$EXTMIN
 10
-223.5968673058333
 20
-209.380871503
 30
0.0
  9
$EXTMAX
 10
481.4318233997
 20
377.7472316893
 30
0.0
  9
$LIMMIN
 10
0.0
 20
0.0
  9
$LIMMAX
 10
420.0
 20
297.0
  9
$ORTHOMODE
 70
     0
  9
$REGENMODE
 70
     1
  9
$FILLMODE
 70
     1
  9
$QTEXTMODE
 70
     0
  9
$MIRRTEXT
 70
     1
  9
$LTSCALE
 40
1.0
  9
$ATTMODE
 70
     1
  9
$TEXTSIZE
 40
3.5
  9
$TRACEWID
 40
1.0
  9
$TEXTSTYLE
  7
Standard
  9
$CLAYER
  8
0
  9
$CELTYPE
  6
ByLayer
  9
$CECOLOR
 62
   256
  9
$CELTSCALE
 40
1.0
  9
$DISPSILH
 70
     0
  9
$DIMSCALE
 40
1.0
  9
$DIMASZ
 40
3.302
  9
$DIMEXO
 40
1.0
  9
$DIMDLI
 40
3.75
  9
$DIMRND
 40
0.0
  9
$DIMDLE
 40
0.0
  9
$DIMEXE
 40
1.0
  9
$DIMTP
 40
0.0
  9
$DIMTM
 40
0.0
  9
$DIMTXT
 40
3.5
  9
$DIMCEN
 40
2.5
  9
$DIMTSZ
 40
0.0
  9
$DIMTOL
 70
     0
  9
$DIMLIM
 70
     0
  9
$DIMTIH
 70
     1
  9
$DIMTOH
 70
     1
  9
$DIMSE1
 70
     0
  9
$DIMSE2
 70
     0
  9
$DIMTAD
 70
     1
  9
$DIMZIN
 70
     1
  9
$DIMBLK
  1

  9
$DIMASO
 70
     1
  9
$DIMSHO
 70
     1
  9
$DIMPOST
  1

  9
$DIMAPOST
  1

  9
$DIMALT
 70
     0
  9
$DIMALTD
 70
     3
  9
$DIMALTF
 40
0.0393700787
  9
$DIMLFAC
 40
5.0
  9
$DIMTOFL
 70
     1
  9
$DIMTVP
 40
0.0
  9
$DIMTIX
 70
     0
  9
$DIMSOXD
 70
     0
  9
$DIMSAH
 70
     0
  9
$DIMBLK1
  1

  9
$DIMBLK2
  1

  9
$DIMSTYLE
  2
ISO-25
  9
$DIMCLRD
 70
     0
  9
$DIMCLRE
 70
     0
  9
$DIMCLRT
 70
     0
  9
$DIMTFAC
 40
1.0
  9
$DIMGAP
 40
1.524
  9
$DIMJUST
 70
     0
  9
$DIMSD1
 70
     0
  9
$DIMSD2
 70
     0
  9
$DIMTOLJ
 70
     0
  9
$DIMTZIN
 70
     1
  9
$DIMALTZ
 70
     0
  9
$DIMALTTZ
 70
     0
  9
$DIMUPT
 70
     0
  9
$DIMDEC
 70
     2
  9
$DIMTDEC
 70
     2
  9
$DIMALTU
 70
     2
  9
$DIMALTTD
 70
     3
  9
$DIMTXSTY
  7
Standard
  9
$DIMAUNIT
 70
     0
  9
$DIMADEC
 70
     2
  9
$DIMALTRND
 40
0.0
  9
$DIMAZIN
 70
     0
  9
$DIMDSEP
 70
    44
  9
$DIMATFIT
 70
     3
  9
$DIMFRAC
 70
     0
  9
$DIMLDRBLK
  1

  9
$DIMLUNIT
 70
     2
  9
$DIMLWD
 70
    -2
  9
$DIMLWE
 70
    -2
  9
$DIMTMOVE
 70
     0
  9
$DIMFXL
 40
1.0
  9
$DIMFXLON
 70
     0
  9
$DIMJOGANG
 40
0.7853981633974483
  9
$DIMTFILL
 70
     0
  9
$DIMTFILLCLR
 70
     0
  9
$DIMARCSYM
 70
     0
  9
$DIMLTYPE
  6

  9
$DIMLTEX1
  6

  9
$DIMLTEX2
  6

  9
$DIMTXTDIRECTION
 70
     0
  9
$LUNITS
 70
     2
  9
$LUPREC
 70
     2
  9
$SKETCHINC
 40
1.0
  9
$FILLETRAD
 40
10.0
  9
$AUNITS
 70
     0
  9
$AUPREC
 70
     2
  9
$MENU
  1
.
  9
$ELEVATION
 40
0.0
  9
$PELEVATION
 40
0.0
  9
$THICKNESS
 40
0.0
  9
$LIMCHECK
 70
     0
  9
$CHAMFERA
 40
0.0
  9
$CHAMFERB
 40
0.0
  9
$CHAMFERC
 40
0.0
  9
$CHAMFERD
 40
0.0
  9
$SKPOLY
 70
     0
  9
$TDCREATE
 40
2459998.559085648
  9
$TDUCREATE
 40
2459998.100755822
  9
$TDUPDATE
 40
2460005.699652778
  9
$TDUUPDATE
 40
2460005.241319445
  9
$TDINDWG
 40
0.0094328819
  9
$TDUSRTIMER
 40
0.0094328819
  9
$USRTIMER
 70
     1
  9
$ANGBASE
 50
0.0
  9
$ANGDIR
 70
     0
  9
$PDMODE
 70
     0
  9
$PDSIZE
 40
-1.0
  9
$PLINEWID
 40
0.0
  9
$SPLFRAME
 70
     0
  9
$SPLINETYPE
 70
     6
  9
$SPLINESEGS
 70
     8
  9
$HANDSEED
  5
4DD
  9
$SURFTAB1
 70
     6
  9
$SURFTAB2
 70
     6
  9
$SURFTYPE
 70
     6
  9
$SURFU
 70
     6
  9
$SURFV
 70
     6
  9
$UCSBASE
  2

  9
$UCSNAME
  2

  9
$UCSORG
 10
0.0
 20
0.0
 30
0.0
  9
$UCSXDIR
 10
1.0
 20
0.0
 30
0.0
  9
$UCSYDIR
 10
0.0
 20
1.0
 30
0.0
  9
$UCSORTHOREF
  2

  9
$UCSORTHOVIEW
 70
     0
  9
$UCSORGTOP
 10
0.0
 20
0.0
 30
0.0
  9
$UCSORGBOTTOM
 10
0.0
 20
0.0
 30
0.0
  9
$UCSORGLEFT
 10
0.0
 20
0.0
 30
0.0
  9
$UCSORGRIGHT
 10
0.0
 20
0.0
 30
0.0
  9
$UCSORGFRONT
 10
0.0
 20
0.0
 30
0.0
  9
$UCSORGBACK
 10
0.0
 20
0.0
 30
0.0
  9
$PUCSBASE
  2

  9
$PUCSNAME
  2

  9
$PUCSORG
 10
0.0
 20
0.0
 30
0.0
  9
$PUCSXDIR
 10
1.0
 20
0.0
 30
0.0
  9
$PUCSYDIR
 10
0.0
 20
1.0
 30
0.0
  9
$PUCSORTHOREF
  2

  9
$PUCSORTHOVIEW
 70
     0
  9
$PUCSORGTOP
 10
0.0
 20
0.0
 30
0.0
  9
$PUCSORGBOTTOM
 10
0.0
 20
0.0
 30
0.0
  9
$PUCSORGLEFT
 10
0.0
 20
0.0
 30
0.0
  9
$PUCSORGRIGHT
 10
0.0
 20
0.0
 30
0.0
  9
$PUCSORGFRONT
 10
0.0
 20
0.0
 30
0.0
  9
$PUCSORGBACK
 10
0.0
 20
0.0
 30
0.0
  9
$USERI1
 70
     0
  9
$USERI2
 70
     0
  9
$USERI3
 70
     0
  9
$USERI4
 70
     0
  9
$USERI5
 70
     0
  9
$USERR1
 40
0.0
  9
$USERR2
 40
0.0
  9
$USERR3
 40
0.0
  9
$USERR4
 40
0.0
  9
$USERR5
 40
0.0
  9
$WORLDVIEW
 70
     1
  9
$SHADEDGE
 70
     3
  9
$SHADEDIF
 70
    70
  9
$TILEMODE
 70
     1
  9
$MAXACTVP
 70
    64
  9
$PINSBASE
 10
0.0
 20
0.0
 30
0.0
  9
$PLIMCHECK
 70
     0
  9
$PEXTMIN
 10
1.000000000000000E+20
 20
1.000000000000000E+20
 30
1.000000000000000E+20
  9
$PEXTMAX
 10
-1.000000000000000E+20
 20
-1.000000000000000E+20
 30
-1.000000000000000E+20
  9
$PLIMMIN
 10
0.0
 20
0.0
  9
$PLIMMAX
 10
420.0
 20
297.0
  9
$UNITMODE
 70
     0
  9
$VISRETAIN
 70
     1
  9
$PLINEGEN
 70
     0
  9
$PSLTSCALE
 70
     1
  9
$TREEDEPTH
 70
  3020
  9
$CMLSTYLE
  2
Standard
  9
$CMLJUST
 70
     0
  9
$CMLSCALE
 40
20.0
  9
$PROXYGRAPHICS
 70
     1
  9
$MEASUREMENT
 70
     1
  9
$CELWEIGHT
370
    -1
  9
$ENDCAPS
280
     0
  9
$JOINSTYLE
280
     0
  9
$LWDISPLAY
290
     1
  9
$INSUNITS
 70
     4
  9
$HYPERLINKBASE
  1

  9
$STYLESHEET
  1

  9
$XEDIT
290
     1
  9
$CEPSNTYPE
380
     0
  9
$PSTYLEMODE
290
     1
  9
$FINGERPRINTGUID
  2
{3EF87EBD-B943-46F7-A9ED-ADFF484DD387}
  9
$VERSIONGUID
  2
{5EADBCE1-A843-724C-840B-8B34FE3CFEF5}
  9
$EXTNAMES
290
     1
  9
$PSVPSCALE
 40
0.0
  9
$OLESTARTUP
290
     0
  9
$SORTENTS
280
   127
  9
$INDEXCTL
280
     0
  9
$HIDETEXT
280
     0
  9
$XCLIPFRAME
280
     2
  9
$HALOGAP
280
     0
  9
$OBSCOLOR
 70
   257
  9
$OBSLTYPE
280
     0
  9
$INTERSECTIONDISPLAY
280
     0
  9
$INTERSECTIONCOLOR
 70
   257
  9
$DIMASSOC
280
     1
  9
$PROJECTNAME
  1

  9
$CAMERADISPLAY
290
     0
  9
$LENSLENGTH
 40
50.0
  9
$CAMERAHEIGHT
 40
0.0
  9
$STEPSPERSEC
 40
2.0
  9
$STEPSIZE
 40
6.0
  9
$3DDWFPREC
 40
2.0
  9
$PSOLWIDTH
 40
0.25
  9
$PSOLHEIGHT
 40
4.0
  9
$LOFTANG1
 40
1.570796326794896
  9
$LOFTANG2
 40
1.570796326794896
  9
$LOFTMAG1
 40
0.0
  9
$LOFTMAG2
 40
0.0
  9
$LOFTPARAM
 70
     7
  9
$LOFTNORMALS
280
     1
  9
$LATITUDE
 40
37.795
  9
$LONGITUDE
 40
-122.394
  9
$NORTHDIRECTION
 40
0.0
  9
$TIMEZONE
 70
 -8000
  9
$LIGHTGLYPHDISPLAY
280
     1
  9
$TILEMODELIGHTSYNCH
280
     1
  9
$CMATERIAL
347
3C8
  9
$SOLIDHIST
280
     0
  9
$SHOWHIST
280
     1
  9
$DWFFRAME
280
     2
  9
$DGNFRAME
280
     0
  9
$REALWORLDSCALE
290
     1
  9
$INTERFERECOLOR
 62
     1
  9
$INTERFEREOBJVS
345
3EA
  9
$INTERFEREVPVS
346
3E7
  9
$CSHADOW
280
     0
  9
$SHADOWPLANELOCATION
 40
0.0
  0
ENDSEC
  0
SECTION
  2
CLASSES
  0
CLASS
  1
ACDBDICTIONARYWDFLT
  2
AcDbDictionaryWithDefault
  3
ObjectDBX Classes
 90
        0
 91
        1
280
     0
281
     0
  0
CLASS
  1
VISUALSTYLE
  2
AcDbVisualStyle
  3
ObjectDBX Classes
 90
     4095
 91
       24
280
     0
281
     0
  0
CLASS
  1
MATERIAL
  2
AcDbMaterial
  3
ObjectDBX Classes
 90
     1153
 91
        3
280
     0
281
     0
  0
CLASS
  1
SCALE
  2
AcDbScale
  3
ObjectDBX Classes
 90
     1153
 91
       33
280
     0
281
     0
  0
CLASS
  1
TABLESTYLE
  2
AcDbTableStyle
  3
ObjectDBX Classes
 90
     4095
 91
        1
280
     0
281
     0
  0
CLASS
  1
MLEADERSTYLE
  2
AcDbMLeaderStyle
  3
ACDB_MLEADERSTYLE_CLASS
 90
     4095
 91
        1
280
     0
281
     0
  0
CLASS
  1
SUN
  2
AcDbSun
  3
SCENEOE
 90
     1153
 91
        0
280
     0
281
     0
  0
CLASS
  1
ACDBSECTIONVIEWSTYLE
  2
AcDbSectionViewStyle
  3
ObjectDBX Classes
 90
     1025
 91
        1
280
     0
281
     0
  0
CLASS
  1
ACDBDETAILVIEWSTYLE
  2
AcDbDetailViewStyle
  3
ObjectDBX Classes
 90
     1025
 91
        1
280
     0
281
     0
  0
CLASS
  1
ACDB_ALDIMOBJECTCONTEXTDATA_CLASS
  2
AcDbAlignedDimensionObjectContextData
  3
ObjectDBX Classes
 90
     1153
 91
        7
280
     0
281
     0
  0
CLASS
  1
DICTIONARYVAR
  2
AcDbDictionaryVar
  3
ObjectDBX Classes
 90
        0
 91
        9
280
     0
281
     0
  0
CLASS
  1
CELLSTYLEMAP
  2
AcDbCellStyleMap
  3
ObjectDBX Classes
 90
     1152
 91
        1
280
     0
281
     0
  0
ENDSEC
  0
SECTION
  2
TABLES
  0
TABLE
  2
VPORT
  5
8
330
0
100
AcDbSymbolTable
 70
     1
  0
VPORT
  5
29
330
8
100
AcDbSymbolTableRecord
100
AcDbViewportTableRecord
  2
*Active
 70
     0
 10
0.0
 20
0.0
 11
1.0
 21
1.0
 12
128.9140328659143
 22
84.19290222797185
 13
0.0
 23
0.0
 14
10.0
 24
10.0
 15
10.0
 25
10.0
 16
0.0
 26
0.0
 36
1.0
 17
0.0
 27
0.0
 37
0.0
 40
589.3400409055776
 41
1.910336239103362
 42
50.0
 43
0.0
 44
0.0
 50
0.0
 51
0.0
 71
     0
 72
  2000
 73
     1
 74
     3
 75
     0
 76
     0
 77
     0
 78
     0
281
     0
 65
     1
110
0.0
120
0.0
130
0.0
111
1.0
121
0.0
131
0.0
112
0.0
122
1.0
132
0.0
 79
     0
146
0.0
348
3E6
 60
     3
 61
     5
292
     1
282
     1
141
0.0
142
0.0
 63
   250
421
  3355443
1001
ACAD_NAV_VCDISPLAY
1070
     3
  0
ENDTAB
  0
TABLE
  2
LTYPE
  5
5
330
0
100
AcDbSymbolTable
 70
     6
  0
LTYPE
  5
14
330
5
100
AcDbSymbolTableRecord
100
AcDbLinetypeTableRecord
  2
ByBlock
 70
     0
  3

 72
    65
 73
     0
 40
0.0
  0
LTYPE
  5
15
330
5
100
AcDbSymbolTableRecord
100
AcDbLinetypeTableRecord
  2
ByLayer
 70
     0
  3

 72
    65
 73
     0
 40
0.0
  0
LTYPE
  5
16
330
5
100
AcDbSymbolTableRecord
100
AcDbLinetypeTableRecord
  2
Continuous
 70
     0
  3
Solid line
 72
    65
 73
     0
 40
0.0
  0
LTYPE
  5
6E
330
5
100
AcDbSymbolTableRecord
100
AcDbLinetypeTableRecord
  2
HIDDEN
 70
     0
  3
Hidden __ __ __ __ __ __ __ __ __ __ __ __ __ __
 72
    65
 73
     2
 40
1.905
 49
1.27
 74
     0
 49
-0.635
 74
     0
  0
LTYPE
  5
6F
330
5
100
AcDbSymbolTableRecord
100
AcDbLinetypeTableRecord
  2
PHANTOM
 70
     0
  3
Phantom ______  __  __  ______  __  __  ______
 72
    65
 73
     6
 40
12.7
 49
6.349999999999999
 74
     0
 49
-1.27
 74
     0
 49
1.27
 74
     0
 49
-1.27
 74
     0
 49
1.27
 74
     0
 49
-1.27
 74
     0
  0
LTYPE
  5
70
330
5
100
AcDbSymbolTableRecord
100
AcDbLinetypeTableRecord
  2
CENTER
 70
     0
  3
Center ____ _ ____ _ ____ _ ____ _ ____ _ ____
 72
    65
 73
     4
 40
10.16
 49
6.349999999999999
 74
     0
 49
-1.27
 74
     0
 49
1.27
 74
     0
 49
-1.27
 74
     0
  0
LTYPE
  5
71
330
5
100
AcDbSymbolTableRecord
100
AcDbLinetypeTableRecord
  2
CENTERX2
 70
     0
  3
Center (2x) ________  __  ________  __  _____
 72
    65
 73
     4
 40
20.32
 49
12.7
 74
     0
 49
-2.54
 74
     0
 49
2.54
 74
     0
 49
-2.54
 74
     0
  0
LTYPE
  5
72
330
5
100
AcDbSymbolTableRecord
100
AcDbLinetypeTableRecord
  2
DOT2
 70
     0
  3
Dot (.5x) ........................................
 72
    65
 73
     2
 40
0.635
 49
0.0
 74
     0
 49
-0.635
 74
     0
  0
ENDTAB
  0
TABLE
  2
LAYER
  5
2
102
{ACAD_XDICTIONARY
360
417
102
}
330
0
100
AcDbSymbolTable
 70
     4
  0
LAYER
  5
10
102
{ACAD_XDICTIONARY
360
4B8
102
}
330
2
100
AcDbSymbolTableRecord
100
AcDbLayerTableRecord
  2
0
 70
     0
 62
     7
  6
Continuous
370
    -3
390
F
347
3D8
348
0
  0
LAYER
  5
73
102
{ACAD_XDICTIONARY
360
4BA
102
}
330
2
100
AcDbSymbolTableRecord
100
AcDbLayerTableRecord
  2
FORMAT
 70
     0
 62
     7
  6
Continuous
370
    -3
390
F
347
3D8
348
0
  0
LAYER
  5
40F
330
2
100
AcDbSymbolTableRecord
100
AcDbLayerTableRecord
  2
Defpoints
 70
     0
 62
     7
  6
Continuous
290
     0
370
    -3
390
F
347
3D8
348
0
  0
LAYER
  5
410
102
{ACAD_XDICTIONARY
360
4BC
102
}
330
2
100
AcDbSymbolTableRecord
100
AcDbLayerTableRecord
  2
DIMENSION
 70
     0
 62
   255
  6
Continuous
370
    -3
390
F
347
3D8
348
0
  0
ENDTAB
  0
TABLE
  2
STYLE
  5
3
330
0
100
AcDbSymbolTable
 70
     2
  0
STYLE
  5
11
330
3
100
AcDbSymbolTableRecord
100
AcDbTextStyleTableRecord
  2
Standard
 70
     0
 40
0.0
 41
1.0
 50
0.0
 71
     0
 42
3.5
  3
txt
  4

  0
STYLE
  5
9A
330
3
100
AcDbSymbolTableRecord
100
AcDbTextStyleTableRecord
  2
SLDTEXTSTYLE0
 70
     0
 40
0.0
 41
0.75
 50
0.0
 71
     0
 42
3.5
  3
TXT
  4

  0
ENDTAB
  0
TABLE
  2
VIEW
  5
6
330
0
100
AcDbSymbolTable
 70
     1
  0
ENDTAB
  0
TABLE
  2
UCS
  5
7
330
0
100
AcDbSymbolTable
 70
     0
  0
ENDTAB
  0
TABLE
  2
APPID
  5
9
330
0
100
AcDbSymbolTable
 70
     6
  0
APPID
  5
12
330
9
100
AcDbSymbolTableRecord
100
AcDbRegAppTableRecord
  2
ACAD
 70
     0
  0
APPID
  5
412
330
9
100
AcDbSymbolTableRecord
100
AcDbRegAppTableRecord
  2
AcadAnnotative
 70
     0
  0
APPID
  5
413
330
9
100
AcDbSymbolTableRecord
100
AcDbRegAppTableRecord
  2
ACAD_DSTYLE_DIMJAG
 70
     0
  0
APPID
  5
414
330
9
100
AcDbSymbolTableRecord
100
AcDbRegAppTableRecord
  2
ACAD_DSTYLE_DIMTALN
 70
     0
  0
APPID
  5
415
330
9
100
AcDbSymbolTableRecord
100
AcDbRegAppTableRecord
  2
ACAD_NAV_VCDISPLAY
 70
     0
  0
APPID
  5
416
330
9
100
AcDbSymbolTableRecord
100
AcDbRegAppTableRecord
  2
ACAD_DSTYLE_DIMBREAK
 70
     0
  0
ENDTAB
  0
TABLE
  2
DIMSTYLE
  5
A
330
0
100
AcDbSymbolTable
 70
     3
100
AcDbDimStyleTable
 71
     2
340
411
340
27
  0
DIMSTYLE
105
27
330
A
100
AcDbSymbolTableRecord
100
AcDbDimStyleTableRecord
  2
ISO-25
 70
     0
 41
2.5
 42
0.625
 43
3.75
 44
1.25
 73
     0
 74
     0
 77
     1
 78
     8
140
2.5
141
2.5
143
0.0393700787
147
0.625
171
     3
172
     1
271
     2
272
     2
274
     3
278
    44
283
     0
284
     8
340
11
  0
DIMSTYLE
105
9B
330
A
100
AcDbSymbolTableRecord
100
AcDbDimStyleTableRecord
  2
SLDDIMSTYLE0
 70
     0
 41
3.302
 44
0.0
 45
0.000000001
 73
     0
 74
     0
 77
     1
 78
     4
 79
     1
140
6.879166666699999
147
1.719791666699999
173
     1
271
     2
272
     2
276
     2
284
    12
340
9A
341
9C
343
9C
344
9C
  0
DIMSTYLE
105
411
102
{ACAD_REACTORS
330
431
330
3B2
330
3BB
330
37F
330
377
330
484
330
99
102
}
330
A
100
AcDbSymbolTableRecord
100
AcDbDimStyleTableRecord
  2
RG Dimension Lines
 70
     0
 40
12.0
 41
3.5
 42
1.0
 43
10.0
 44
5.0
 49
5.0
 77
     2
140
8.0
141
0.0
147
4.0
172
     1
176
   256
177
   256
178
     7
271
     0
272
     0
290
     1
340
11
341
9C
342
9C
371
     0
372
     0
1001
ACAD_DSTYLE_DIMBREAK
1070
   391
1040
0.125
1001
AcadAnnotative
1000
AnnotativeData
1002
{
1070
     1
1070
     1
1002
}
1001
ACAD_DSTYLE_DIMJAG
1070
   388
1040
1.5
1001
ACAD_DSTYLE_DIMTALN
1070
   392
1070
     0
  0
ENDTAB
  0
TABLE
  2
BLOCK_RECORD
  5
1
330
0
100
AcDbSymbolTable
 70
    18
  0
BLOCK_RECORD
  5
1F
330
1
100
AcDbSymbolTableRecord
100
AcDbBlockTableRecord
  2
*Model_Space
340
22
 70
     0
280
     1
281
     0
  0
BLOCK_RECORD
  5
1B
330
1
100
AcDbSymbolTableRecord
100
AcDbBlockTableRecord
  2
*Paper_Space
340
1E
 70
     0
280
     1
281
     0
  0
BLOCK_RECORD
  5
23
330
1
100
AcDbSymbolTableRecord
100
AcDbBlockTableRecord
  2
*Paper_Space0
340
26
 70
     0
280
     1
281
     0
  0
BLOCK_RECORD
  5
9C
330
1
100
AcDbSymbolTableRecord
100
AcDbBlockTableRecord
  2
_None
340
0
 70
     0
280
     1
281
     0
  0
BLOCK_RECORD
  5
9F
330
1
100
AcDbSymbolTableRecord
100
AcDbBlockTableRecord
  2
_D
340
0
 70
     0
280
     1
281
     0
  0
BLOCK_RECORD
  5
378
330
1
100
AcDbSymbolTableRecord
100
AcDbBlockTableRecord
  2
_D_1
340
0
 70
     0
280
     1
281
     0
  0
BLOCK_RECORD
  5
380
330
1
100
AcDbSymbolTableRecord
100
AcDbBlockTableRecord
  2
_D_2
340
0
 70
     0
280
     1
281
     0
  0
BLOCK_RECORD
  5
3B3
330
1
100
AcDbSymbolTableRecord
100
AcDbBlockTableRecord
  2
_D_3
340
0
 70
     0
280
     1
281
     0
  0
BLOCK_RECORD
  5
3BC
330
1
100
AcDbSymbolTableRecord
100
AcDbBlockTableRecord
  2
_D_4
340
0
 70
     0
280
     1
281
     0
  0
BLOCK_RECORD
  5
43E
330
1
100
AcDbSymbolTableRecord
100
AcDbBlockTableRecord
  2
*D10
340
0
 70
     0
280
     1
281
     0
  0
BLOCK_RECORD
  5
44C
330
1
100
AcDbSymbolTableRecord
100
AcDbBlockTableRecord
  2
*D11
340
0
 70
     0
280
     1
281
     0
  0
BLOCK_RECORD
  5
45A
330
1
100
AcDbSymbolTableRecord
100
AcDbBlockTableRecord
  2
*D12
340
0
 70
     0
280
     1
281
     0
  0
BLOCK_RECORD
  5
468
330
1
100
AcDbSymbolTableRecord
100
AcDbBlockTableRecord
  2
*D13
340
0
 70
     0
280
     1
281
     0
  0
BLOCK_RECORD
  5
476
330
1
100
AcDbSymbolTableRecord
100
AcDbBlockTableRecord
  2
*D14
340
0
 70
     0
280
     1
281
     0
  0
BLOCK_RECORD
  5
492
330
1
100
AcDbSymbolTableRecord
100
AcDbBlockTableRecord
  2
*D16
340
0
 70
     0
280
     1
281
     0
  0
BLOCK_RECORD
  5
4A0
330
1
100
AcDbSymbolTableRecord
100
AcDbBlockTableRecord
  2
*D17
340
0
 70
     0
280
     1
281
     0
  0
ENDTAB
  0
ENDSEC
  0
SECTION
  2
BLOCKS
  0
BLOCK
  5
20
330
1F
100
AcDbEntity
  8
0
100
AcDbBlockBegin
  2
*Model_Space
 70
     0
 10
0.0
 20
0.0
 30
0.0
  3
*Model_Space
  1

  0
ENDBLK
  5
21
330
1F
100
AcDbEntity
  8
0
100
AcDbBlockEnd
  0
BLOCK
  5
1C
330
1B
100
AcDbEntity
 67
     1
  8
0
100
AcDbBlockBegin
  2
*Paper_Space
 70
     0
 10
0.0
 20
0.0
 30
0.0
  3
*Paper_Space
  1

  0
ENDBLK
  5
1D
330
1B
100
AcDbEntity
 67
     1
  8
0
100
AcDbBlockEnd
  0
BLOCK
  5
24
330
23
100
AcDbEntity
 67
     1
  8
0
100
AcDbBlockBegin
  2
*Paper_Space0
 70
     0
 10
0.0
 20
0.0
 30
0.0
  3
*Paper_Space0
  1

  0
ENDBLK
  5
25
330
23
100
AcDbEntity
 67
     1
  8
0
100
AcDbBlockEnd
  0
BLOCK
  5
9D
330
9C
100
AcDbEntity
  8
0
100
AcDbBlockBegin
  2
_None
 70
     0
 10
0.0
 20
0.0
 30
0.0
  3
_None
  1

  0
ENDBLK
  5
9E
330
9C
100
AcDbEntity
  8
0
100
AcDbBlockEnd
  0
BLOCK
  5
A0
330
9F
100
AcDbEntity
  8
0
100
AcDbBlockBegin
  2
_D
 70
     0
 10
0.0
 20
0.0
 30
0.0
  3
_D
  1

  0
LINE
  5
A2
330
9F
100
AcDbEntity
  8
0
  6
Continuous
 62
     7
440
 16777216
370
     0
100
AcDbLine
 10
25.4297301728
 20
-166.5123955821
 30
0.0
 11
25.4297301728
 21
-198.380871503
 31
0.0
  0
LINE
  5
A3
330
9F
100
AcDbEntity
  8
0
  6
Continuous
 62
     7
440
 16777216
370
     0
100
AcDbLine
 10
-174.5712707825
 20
-171.4427404384
 30
0.0
 11
-174.5712707825
 21
-198.380871503
 31
0.0
  0
LINE
  5
A4
330
9F
100
AcDbEntity
  8
0
  6
Continuous
 62
     7
440
 16777216
370
     0
100
AcDbLine
 10
25.4297301728
 20
-197.380871503
 30
0.0
 11
-174.5712707825
 21
-197.380871503
 31
0.0
  0
MTEXT
  5
A5
330
9F
100
AcDbEntity
  8
0
  6
Continuous
 62
     7
440
 16777216
370
    18
100
AcDbMText
 10
-90.73422127329999
 20
-188.5131594437
 30
0.0
 40
6.879166666699999
 41
0.0
 46
0.0
 71
     1
 72
     1
  1
200.00
  7
SLDTEXTSTYLE0
 73
     1
 44
1.0
  0
ENDBLK
  5
A1
330
9F
100
AcDbEntity
  8
0
100
AcDbBlockEnd
  0
BLOCK
  5
379
330
378
100
AcDbEntity
  8
0
100
AcDbBlockBegin
  2
_D_1
 70
     0
 10
0.0
 20
0.0
 30
0.0
  3
_D_1
  1

  0
LINE
  5
37B
330
378
100
AcDbEntity
  8
0
  6
Continuous
 62
     7
440
 16777216
370
     0
100
AcDbLine
 10
150.6228414706
 20
-76.38087150300001
 30
0.0
 11
113.1194962898
 21
-76.38087150300001
 31
0.0
  0
LINE
  5
37C
330
378
100
AcDbEntity
  8
0
  6
Continuous
 62
     7
440
 16777216
370
     0
100
AcDbLine
 10
151.6549950246
 20
-156.3808715029999
 30
0.0
 11
113.1194962898
 21
-156.3808715029999
 31
0.0
  0
LINE
  5
37D
330
378
100
AcDbEntity
  8
0
  6
Continuous
 62
     7
440
 16777216
370
     0
100
AcDbLine
 10
114.1194962898
 20
-76.38087150300001
 30
0.0
 11
114.1194962898
 21
-156.3808715029999
 31
0.0
  0
MTEXT
  5
37E
330
378
100
AcDbEntity
  8
0
  6
Continuous
 62
     7
440
 16777216
370
    18
100
AcDbMText
 10
105.2517842305
 20
-121.7285446704
 30
0.0
 40
6.879166666699999
 41
0.0
 46
0.0
 71
     1
 72
     1
  1
80.00
  7
SLDTEXTSTYLE0
 11
-0.000000000000007
 21
1.0
 31
0.0
 73
     1
 44
1.0
  0
ENDBLK
  5
37A
330
378
100
AcDbEntity
  8
0
100
AcDbBlockEnd
  0
BLOCK
  5
381
330
380
100
AcDbEntity
  8
0
100
AcDbBlockBegin
  2
_D_2
 70
     0
 10
0.0
 20
0.0
 30
0.0
  3
_D_2
  1

  0
LINE
  5
383
330
380
100
AcDbEntity
  8
0
  6
Continuous
 62
     7
440
 16777216
370
     0
100
AcDbLine
 10
300.4194962898
 20
-125.4152698451
 30
0.0
 11
300.4194962898
 21
-83.94336030959999
 31
0.0
  0
LINE
  5
384
330
380
100
AcDbEntity
  8
0
  6
Continuous
 62
     7
440
 16777216
370
     0
100
AcDbLine
 10
325.8194962898
 20
-124.9948451555
 30
0.0
 11
325.8194962898
 21
-83.94336030959999
 31
0.0
  0
LINE
  5
385
330
380
100
AcDbEntity
  8
0
  6
Continuous
 62
     7
440
 16777216
370
     0
100
AcDbLine
 10
300.4194962898
 20
-84.94336030959999
 30
0.0
 11
325.8194962898
 21
-84.94336030959999
 31
0.0
  0
MTEXT
  5
386
330
380
100
AcDbEntity
  8
0
  6
Continuous
 62
     7
440
 16777216
370
    18
100
AcDbMText
 10
295.3528904344
 20
-76.07564825029999
 30
0.0
 40
6.879166666699999
 41
0.0
 46
0.0
 71
     1
 72
     1
  1
%%c
  7
SLDTEXTSTYLE0
 73
     1
 44
1.0
  0
MTEXT
  5
387
330
380
100
AcDbEntity
  8
0
  6
Continuous
 62
     7
440
 16777216
370
    18
100
AcDbMText
 10
305.7366100127
 20
-76.07564825029999
 30
0.0
 40
6.879166666699999
 41
0.0
 46
0.0
 71
     1
 72
     1
  1
25.00
  7
SLDTEXTSTYLE0
 73
     1
 44
1.0
  0
ENDBLK
  5
382
330
380
100
AcDbEntity
  8
0
100
AcDbBlockEnd
  0
BLOCK
  5
3B4
330
3B3
100
AcDbEntity
  8
0
100
AcDbBlockBegin
  2
_D_3
 70
     0
 10
0.0
 20
0.0
 30
0.0
  3
_D_3
  1

  0
LINE
  5
3B6
330
3B3
100
AcDbEntity
  8
0
  6
Continuous
 62
     7
440
 16777216
370
     0
100
AcDbLine
 10
-181.5238505066999
 20
86.43490457950001
 30
0.0
 11
-199.2635339725
 21
86.43490457950001
 31
0.0
  0
LINE
  5
3B7
330
3B3
100
AcDbEntity
  8
0
  6
Continuous
 62
     7
440
 16777216
370
     0
100
AcDbLine
 10
-181.2993345889
 20
32.4349045795
 30
0.0
 11
-199.2635339725
 21
32.4349045795
 31
0.0
  0
LINE
  5
3B8
330
3B3
100
AcDbEntity
  8
0
  6
Continuous
 62
     7
440
 16777216
370
     0
100
AcDbLine
 10
-198.2635339725
 20
86.43490457950001
 30
0.0
 11
-198.2635339725
 21
32.4349045795
 31
0.0
  0
MTEXT
  5
3B9
330
3B3
100
AcDbEntity
  8
0
  6
Continuous
 62
     7
440
 16777216
370
    18
100
AcDbMText
 10
-207.1312460318
 20
40.74884171519999
 30
0.0
 40
6.879166666699999
 41
0.0
 46
0.0
 71
     1
 72
     1
  1
%%c
  7
SLDTEXTSTYLE0
 11
-0.000000000000007
 21
1.0
 31
0.0
 73
     1
 44
1.0
  0
MTEXT
  5
3BA
330
3B3
100
AcDbEntity
  8
0
  6
Continuous
 62
     7
440
 16777216
370
    18
100
AcDbMText
 10
-207.1312460318
 20
51.13256129359999
 30
0.0
 40
6.879166666699999
 41
0.0
 46
0.0
 71
     1
 72
     1
  1
54.00
  7
SLDTEXTSTYLE0
 11
-0.000000000000007
 21
1.0
 31
0.0
 73
     1
 44
1.0
  0
ENDBLK
  5
3B5
330
3B3
100
AcDbEntity
  8
0
100
AcDbBlockEnd
  0
BLOCK
  5
3BD
330
3BC
100
AcDbEntity
  8
0
100
AcDbBlockBegin
  2
_D_4
 70
     0
 10
0.0
 20
0.0
 30
0.0
  3
_D_4
  1

  0
LINE
  5
3BF
330
3BC
100
AcDbEntity
  8
0
  6
Continuous
 62
     7
440
 16777216
370
     0
100
AcDbLine
 10
-179.1814937147
 20
236.4349045795
 30
0.0
 11
-198.8133764695
 21
236.4349045795
 31
0.0
  0
LINE
  5
3C0
330
3BC
100
AcDbEntity
  8
0
  6
Continuous
 62
     7
440
 16777216
370
     0
100
AcDbLine
 10
-179.5878415002
 20
182.4349045795
 30
0.0
 11
-198.8133764695
 21
182.4349045795
 31
0.0
  0
LINE
  5
3C1
330
3BC
100
AcDbEntity
  8
0
  6
Continuous
 62
     7
440
 16777216
370
     0
100
AcDbLine
 10
-197.8133764695
 20
236.4349045795
 30
0.0
 11
-197.8133764695
 21
182.4349045795
 31
0.0
  0
MTEXT
  5
3C2
330
3BC
100
AcDbEntity
  8
0
  6
Continuous
 62
     7
440
 16777216
370
    18
100
AcDbMText
 10
-206.6810885288
 20
192.0707974373
 30
0.0
 40
6.879166666699999
 41
0.0
 46
0.0
 71
     1
 72
     1
  1
%%c
  7
SLDTEXTSTYLE0
 11
-0.000000000000007
 21
1.0
 31
0.0
 73
     1
 44
1.0
  0
MTEXT
  5
3C3
330
3BC
100
AcDbEntity
  8
0
  6
Continuous
 62
     7
440
 16777216
370
    18
100
AcDbMText
 10
-206.6810885288
 20
202.4545170157
 30
0.0
 40
6.879166666699999
 41
0.0
 46
0.0
 71
     1
 72
     1
  1
54.00
  7
SLDTEXTSTYLE0
 11
-0.000000000000007
 21
1.0
 31
0.0
 73
     1
 44
1.0
  0
ENDBLK
  5
3BE
330
3BC
100
AcDbEntity
  8
0
100
AcDbBlockEnd
  0
BLOCK
  5
43F
330
43E
100
AcDbEntity
  8
0
100
AcDbBlockBegin
  2
*D10
 70
     1
 10
0.0
 20
0.0
 30
0.0
  3
*D10
  1

  0
LINE
  5
4CC
330
43E
100
AcDbEntity
  8
DIMENSION
440
 16777216
370
     0
100
AcDbLine
 10
-174.5712707825
 20
-65.13468876065667
 30
0.0
 11
-174.5712707825
 21
-55.13468876065667
 31
0.0
  0
LINE
  5
4CD
330
43E
100
AcDbEntity
  8
DIMENSION
440
 16777216
370
     0
100
AcDbLine
 10
36.2987292175
 20
-65.13468876065667
 30
0.0
 11
36.2987292175
 21
-55.13468876065667
 31
0.0
  0
LINE
  5
4CE
330
43E
100
AcDbEntity
  8
DIMENSION
440
 16777216
370
     0
100
AcDbLine
 10
-174.5712707825
 20
-60.13468876065667
 30
0.0
 11
36.2987292175
 21
-60.13468876065667
 31
0.0
  0
MTEXT
  5
4CF
330
43E
100
AcDbEntity
  8
DIMENSION
 62
     7
440
 16777216
100
AcDbMText
 10
-69.13627078249999
 20
-52.13468876065667
 30
0.0
 40
8.0
 41
0.0
 46
0.0
 71
     5
 72
     1
  1
\A1;210
 73
     1
 44
1.0
  0
POINT
  5
4D0
330
43E
100
AcDbEntity
  8
Defpoints
 62
     0
440
 16777216
100
AcDbPoint
 10
-174.5712707825
 20
-136.380871503
 30
0.0
  0
POINT
  5
4D1
330
43E
100
AcDbEntity
  8
Defpoints
 62
     0
440
 16777216
100
AcDbPoint
 10
36.2987292175
 20
-123.680871503
 30
0.0
  0
POINT
  5
4D2
330
43E
100
AcDbEntity
  8
Defpoints
 62
     0
440
 16777216
100
AcDbPoint
 10
36.2987292175
 20
-60.13468876065667
 30
0.0
  0
ENDBLK
  5
440
330
43E
100
AcDbEntity
  8
0
100
AcDbBlockEnd
  0
BLOCK
  5
44D
330
44C
100
AcDbEntity
  8
0
100
AcDbBlockBegin
  2
*D11
 70
     1
 10
0.0
 20
0.0
 30
0.0
  3
*D11
  1

  0
LINE
  5
44F
330
44C
100
AcDbEntity
  8
DIMENSION
440
 16777216
370
     0
100
AcDbLine
 10
-193.2635339725001
 20
86.43490457950004
 30
0.0
 11
-203.2635339725001
 21
86.43490457950004
 31
0.0
  0
LINE
  5
450
330
44C
100
AcDbEntity
  8
DIMENSION
440
 16777216
370
     0
100
AcDbLine
 10
-193.2635339725
 20
32.43490457950001
 30
0.0
 11
-203.2635339725
 21
32.43490457950001
 31
0.0
  0
LINE
  5
451
330
44C
100
AcDbEntity
  8
DIMENSION
440
 16777216
370
     0
100
AcDbLine
 10
-198.2635339725001
 20
86.43490457950004
 30
0.0
 11
-198.2635339725
 21
32.43490457950001
 31
0.0
  0
MTEXT
  5
452
330
44C
100
AcDbEntity
  8
DIMENSION
 62
     7
440
 16777216
100
AcDbMText
 10
-212.9302006391667
 20
61.37413058909999
 30
0.0
 40
8.0
 41
0.0
 46
0.0
 71
     2
 72
     1
  1
\A1;%%c54
 73
     1
 44
1.0
  0
POINT
  5
453
330
44C
100
AcDbEntity
  8
Defpoints
 62
     0
440
 16777216
100
AcDbPoint
 10
-174.5712707825
 20
86.43490457950004
 30
0.0
  0
POINT
  5
454
330
44C
100
AcDbEntity
  8
Defpoints
 62
     0
440
 16777216
100
AcDbPoint
 10
-174.5712707825
 20
32.43490457950001
 30
0.0
  0
POINT
  5
455
330
44C
100
AcDbEntity
  8
Defpoints
 62
     0
440
 16777216
100
AcDbPoint
 10
-198.2635339725
 20
32.43490457950001
 30
0.0
  0
ENDBLK
  5
44E
330
44C
100
AcDbEntity
  8
0
100
AcDbBlockEnd
  0
BLOCK
  5
45B
330
45A
100
AcDbEntity
  8
0
100
AcDbBlockBegin
  2
*D12
 70
     1
 10
0.0
 20
0.0
 30
0.0
  3
*D12
  1

  0
LINE
  5
45D
330
45A
100
AcDbEntity
  8
DIMENSION
440
 16777216
370
     0
100
AcDbLine
 10
-192.8133764695001
 20
236.4349045795001
 30
0.0
 11
-202.8133764695001
 21
236.4349045795001
 31
0.0
  0
LINE
  5
45E
330
45A
100
AcDbEntity
  8
DIMENSION
440
 16777216
370
     0
100
AcDbLine
 10
-192.8133764695001
 20
182.4349045795
 30
0.0
 11
-202.8133764695001
 21
182.4349045795
 31
0.0
  0
LINE
  5
45F
330
45A
100
AcDbEntity
  8
DIMENSION
440
 16777216
370
     0
100
AcDbLine
 10
-197.8133764695001
 20
236.4349045795001
 30
0.0
 11
-197.8133764695001
 21
182.4349045795
 31
0.0
  0
MTEXT
  5
460
330
45A
100
AcDbEntity
  8
DIMENSION
 62
     7
440
 16777216
100
AcDbMText
 10
-212.4800431361667
 20
212.6960863113
 30
0.0
 40
8.0
 41
0.0
 46
0.0
 71
     2
 72
     1
  1
\A1;%%c54
 73
     1
 44
1.0
  0
POINT
  5
461
330
45A
100
AcDbEntity
  8
Defpoints
 62
     0
440
 16777216
100
AcDbPoint
 10
-174.5712707825
 20
236.4349045795001
 30
0.0
  0
POINT
  5
462
330
45A
100
AcDbEntity
  8
Defpoints
 62
     0
440
 16777216
100
AcDbPoint
 10
-174.5712707825
 20
182.4349045795
 30
0.0
  0
POINT
  5
463
330
45A
100
AcDbEntity
  8
Defpoints
 62
     0
440
 16777216
100
AcDbPoint
 10
-197.8133764695001
 20
182.4349045795
 30
0.0
  0
ENDBLK
  5
45C
330
45A
100
AcDbEntity
  8
0
100
AcDbBlockEnd
  0
BLOCK
  5
469
330
468
100
AcDbEntity
  8
0
100
AcDbBlockBegin
  2
*D13
 70
     1
 10
0.0
 20
0.0
 30
0.0
  3
*D13
  1

  0
LINE
  5
46B
330
468
100
AcDbEntity
  8
DIMENSION
440
 16777216
370
     0
100
AcDbLine
 10
300.4194962898
 20
-89.94336030959999
 30
0.0
 11
300.4194962898
 21
-79.94336030959999
 31
0.0
  0
LINE
  5
46C
330
468
100
AcDbEntity
  8
DIMENSION
440
 16777216
370
     0
100
AcDbLine
 10
325.8194962898
 20
-89.94336030959999
 30
0.0
 11
325.8194962898
 21
-79.94336030959999
 31
0.0
  0
LINE
  5
46D
330
468
100
AcDbEntity
  8
DIMENSION
440
 16777216
370
     0
100
AcDbLine
 10
300.4194962898
 20
-84.94336030959999
 30
0.0
 11
325.8194962898
 21
-84.94336030959999
 31
0.0
  0
MTEXT
  5
46E
330
468
100
AcDbEntity
  8
DIMENSION
 62
     7
440
 16777216
100
AcDbMText
 10
313.1194962898
 20
-72.9433603096
 30
0.0
 40
8.0
 41
0.0
 46
0.0
 71
     2
 72
     1
  1
\A1;%%c25
 73
     1
 44
1.0
  0
POINT
  5
46F
330
468
100
AcDbEntity
  8
Defpoints
 62
     0
440
 16777216
100
AcDbPoint
 10
300.4194962898
 20
-136.380871503
 30
0.0
  0
POINT
  5
470
330
468
100
AcDbEntity
  8
Defpoints
 62
     0
440
 16777216
100
AcDbPoint
 10
325.8194962898
 20
-136.380871503
 30
0.0
  0
POINT
  5
471
330
468
100
AcDbEntity
  8
Defpoints
 62
     0
440
 16777216
100
AcDbPoint
 10
325.8194962898
 20
-84.94336030959999
 30
0.0
  0
ENDBLK
  5
46A
330
468
100
AcDbEntity
  8
0
100
AcDbBlockEnd
  0
BLOCK
  5
477
330
476
100
AcDbEntity
  8
0
100
AcDbBlockBegin
  2
*D14
 70
     1
 10
0.0
 20
0.0
 30
0.0
  3
*D14
  1

  0
LINE
  5
479
330
476
100
AcDbEntity
  8
DIMENSION
440
 16777216
370
     0
100
AcDbLine
 10
119.1194962898
 20
-76.38087150300004
 30
0.0
 11
109.1194962898
 21
-76.38087150300004
 31
0.0
  0
LINE
  5
47A
330
476
100
AcDbEntity
  8
DIMENSION
440
 16777216
370
     0
100
AcDbLine
 10
119.1194962898
 20
-156.380871503
 30
0.0
 11
109.1194962898
 21
-156.380871503
 31
0.0
  0
LINE
  5
47B
330
476
100
AcDbEntity
  8
DIMENSION
440
 16777216
370
     0
100
AcDbLine
 10
114.1194962898
 20
-76.38087150300004
 30
0.0
 11
114.1194962898
 21
-156.380871503
 31
0.0
  0
MTEXT
  5
47C
330
476
100
AcDbEntity
  8
DIMENSION
 62
     7
440
 16777216
100
AcDbMText
 10
104.1194962898
 20
-106.2951146544
 30
0.0
 40
8.0
 41
0.0
 46
0.0
 71
     2
 72
     1
  1
\A1;80
 73
     1
 44
1.0
  0
POINT
  5
47D
330
476
100
AcDbEntity
  8
Defpoints
 62
     0
440
 16777216
100
AcDbPoint
 10
159.1194962898
 20
-76.38087150300004
 30
0.0
  0
POINT
  5
47E
330
476
100
AcDbEntity
  8
Defpoints
 62
     0
440
 16777216
100
AcDbPoint
 10
163.1194962898
 20
-156.380871503
 30
0.0
  0
POINT
  5
47F
330
476
100
AcDbEntity
  8
Defpoints
 62
     0
440
 16777216
100
AcDbPoint
 10
114.1194962898
 20
-156.380871503
 30
0.0
  0
ENDBLK
  5
478
330
476
100
AcDbEntity
  8
0
100
AcDbBlockEnd
  0
BLOCK
  5
493
330
492
100
AcDbEntity
  8
0
100
AcDbBlockBegin
  2
*D16
 70
     1
 10
0.0
 20
0.0
 30
0.0
  3
*D16
  1

  0
LINE
  5
495
330
492
100
AcDbEntity
  8
DIMENSION
440
 16777216
370
     0
100
AcDbLine
 10
47.36055311449585
 20
-136.380871503
 30
0.0
 11
57.36055311449586
 21
-136.380871503
 31
0.0
  0
LINE
  5
496
330
492
100
AcDbEntity
  8
DIMENSION
440
 16777216
370
     0
100
AcDbLine
 10
47.36055311449587
 20
-158.5045875904
 30
0.0
 11
57.36055311449588
 21
-158.5045875904
 31
0.0
  0
LINE
  5
497
330
492
100
AcDbEntity
  8
DIMENSION
440
 16777216
370
     0
100
AcDbLine
 10
52.36055311449587
 20
-136.380871503
 30
0.0
 11
52.36055311449588
 21
-158.5045875904
 31
0.0
  0
MTEXT
  5
498
330
492
100
AcDbEntity
  8
DIMENSION
 62
     7
440
 16777216
100
AcDbMText
 10
63.02721978116249
 20
-147.4427295467
 30
0.0
 40
8.0
 41
0.0
 46
0.0
 71
     5
 72
     1
  1
\A1;22
 73
     1
 44
1.0
  0
POINT
  5
499
330
492
100
AcDbEntity
  8
Defpoints
 62
     0
440
 16777216
100
AcDbPoint
 10
-174.5712707825
 20
-136.380871503
 30
0.0
  0
POINT
  5
49A
330
492
100
AcDbEntity
  8
Defpoints
 62
     0
440
 16777216
100
AcDbPoint
 10
25.42973017280002
 20
-158.5045875904
 30
0.0
  0
POINT
  5
49B
330
492
100
AcDbEntity
  8
Defpoints
 62
     0
440
 16777216
100
AcDbPoint
 10
52.36055311449588
 20
-158.5045875904
 30
0.0
  0
ENDBLK
  5
494
330
492
100
AcDbEntity
  8
0
100
AcDbBlockEnd
  0
BLOCK
  5
4A1
330
4A0
100
AcDbEntity
  8
0
100
AcDbBlockBegin
  2
*D17
 70
     1
 10
0.0
 20
0.0
 30
0.0
  3
*D17
  1

  0
LINE
  5
4A3
330
4A0
100
AcDbEntity
  8
DIMENSION
440
 16777216
370
     0
100
AcDbLine
 10
25.4297301728
 20
-192.380871503
 30
0.0
 11
25.4297301728
 21
-202.380871503
 31
0.0
  0
LINE
  5
4A4
330
4A0
100
AcDbEntity
  8
DIMENSION
440
 16777216
370
     0
100
AcDbLine
 10
-174.5712707825
 20
-192.380871503
 30
0.0
 11
-174.5712707825
 21
-202.380871503
 31
0.0
  0
LINE
  5
4A5
330
4A0
100
AcDbEntity
  8
DIMENSION
440
 16777216
370
     0
100
AcDbLine
 10
25.4297301728
 20
-197.380871503
 30
0.0
 11
-174.5712707825
 21
-197.380871503
 31
0.0
  0
MTEXT
  5
4A6
330
4A0
100
AcDbEntity
  8
DIMENSION
 62
     7
440
 16777216
100
AcDbMText
 10
-76.7593218472
 20
-201.380871503
 30
0.0
 40
8.0
 41
0.0
 46
0.0
 71
     2
 72
     1
  1
\A1;200
 73
     1
 44
1.0
  0
POINT
  5
4A7
330
4A0
100
AcDbEntity
  8
Defpoints
 62
     0
440
 16777216
100
AcDbPoint
 10
25.4297301728
 20
-158.5045875904
 30
0.0
  0
POINT
  5
4A8
330
4A0
100
AcDbEntity
  8
Defpoints
 62
     0
440
 16777216
100
AcDbPoint
 10
-174.5712707825
 20
-163.3808715029999
 30
0.0
  0
POINT
  5
4A9
330
4A0
100
AcDbEntity
  8
Defpoints
 62
     0
440
 16777216
100
AcDbPoint
 10
-174.5712707825
 20
-197.380871503
 30
0.0
  0
ENDBLK
  5
4A2
330
4A0
100
AcDbEntity
  8
0
100
AcDbBlockEnd
  0
ENDSEC
  0
SECTION
  2
ENTITIES
  0
LINE
  5
74
330
1F
100
AcDbEntity
  8
0
  6
Continuous
 62
     7
370
    25
100
AcDbLine
 10
32.7965211533
 20
-149.080871503
 30
0.0
 11
36.2987292175
 21
-149.080871503
 31
0.0
  0
LINE
  5
75
330
1F
100
AcDbEntity
  8
0
  6
Continuous
 62
     7
370
    25
100
AcDbLine
 10
-131.5048944652
 20
-149.080871503
 30
0.0
 11
11.2147964099
 21
-149.080871503
 31
0.0
  0
LINE
  5
76
330
1F
100
AcDbEntity
  8
0
  6
Continuous
 62
     7
370
    25
100
AcDbLine
 10
36.2987292175
 20
-123.680871503
 30
0.0
 11
-131.5048944652
 21
-123.680871503
 31
0.0
  0
LINE
  5
77
330
1F
100
AcDbEntity
  8
0
  6
Continuous
 62
     7
370
    25
100
AcDbLine
 10
11.3533005092
 20
-148.9217687246
 30
0.0
 11
15.9087785243
 21
-161.4378417061
 31
0.0
  0
LINE
  5
78
330
1F
100
AcDbEntity
  8
0
  6
Continuous
 62
     7
370
    25
100
AcDbLine
 10
34.60866167800001
 20
-154.631640854
 30
0.0
 11
32.5304310943
 21
-148.921749253
 31
0.0
  0
LINE
  5
79
330
1F
100
AcDbEntity
  8
0
  6
Continuous
 62
     7
370
    25
100
AcDbLine
 10
15.9087785243
 20
-161.4378417061
 30
0.0
 11
16.5496349064
 21
-161.7366779449
 31
0.0
  0
LINE
  5
7A
330
1F
100
AcDbEntity
  8
0
  6
Continuous
 62
     7
370
    25
100
AcDbLine
 10
34.3098254392
 20
-155.272497236
 30
0.0
 11
34.60866167800001
 21
-154.631640854
 31
0.0
  0
LINE
  5
7B
330
1F
100
AcDbEntity
  8
0
  6
Continuous
 62
     7
370
    25
100
AcDbLine
 10
-166.5048944652
 20
-156.3808715029999
 30
0.0
 11
-131.5048944652
 21
-156.3808715029999
 31
0.0
  0
LINE
  5
7C
330
1F
100
AcDbEntity
  8
0
  6
Continuous
 62
     7
370
    25
100
AcDbLine
 10
-144.5355175611
 20
-116.380871503
 30
0.0
 11
-166.5048944652
 21
-116.380871503
 31
0.0
  0
LINE
  5
7D
330
1F
100
AcDbEntity
  8
0
  6
Continuous
 62
     7
370
    25
100
AcDbLine
 10
-131.5048944652
 20
-116.380871503
 30
0.0
 11
-136.4793318187
 21
-116.380871503
 31
0.0
  0
LINE
  5
7E
330
1F
100
AcDbEntity
  8
0
  6
Continuous
 62
     7
370
    25
100
AcDbLine
 10
-172.0712707825
 20
-156.3808715029999
 30
0.0
 11
-166.5048944652
 21
-156.3808715029999
 31
0.0
  0
LINE
  5
7F
330
1F
100
AcDbEntity
  8
0
  6
Continuous
 62
     7
370
    25
100
AcDbLine
 10
-166.5048944652
 20
-116.380871503
 30
0.0
 11
-172.0712707825
 21
-116.380871503
 31
0.0
  0
LINE
  5
80
330
1F
100
AcDbEntity
  8
0
  6
Continuous
 62
     7
370
    25
100
AcDbLine
 10
-172.0712707825
 20
-154.1308715029999
 30
0.0
 11
-166.5048944652
 21
-154.1308715029999
 31
0.0
  0
LINE
  5
81
330
1F
100
AcDbEntity
  8
0
  6
Continuous
 62
     7
370
    25
100
AcDbLine
 10
-166.5048944652
 20
-118.630871503
 30
0.0
 11
-172.0712707825
 21
-118.630871503
 31
0.0
  0
LINE
  5
82
330
1F
100
AcDbEntity
  8
0
  6
Continuous
 62
     7
370
    25
100
AcDbLine
 10
-174.5712707825
 20
-163.3808715029999
 30
0.0
 11
-172.0712707825
 21
-163.3808715029999
 31
0.0
  0
LINE
  5
83
330
1F
100
AcDbEntity
  8
0
  6
Continuous
 62
     7
370
    25
100
AcDbLine
 10
-172.0712707825
 20
-109.380871503
 30
0.0
 11
-174.5712707825
 21
-109.380871503
 31
0.0
  0
LINE
  5
84
330
1F
100
AcDbEntity
  8
0
  6
Continuous
 62
     7
370
    25
100
AcDbLine
 10
-144.5048944652
 20
-76.38087150300001
 30
0.0
 11
-144.5048944652
 21
-116.2056156147
 31
0.0
  0
LINE
  5
85
330
1F
100
AcDbEntity
  8
0
  6
Continuous
 62
     7
370
    25
100
AcDbLine
 10
-136.5048944652
 20
-116.2056156147
 30
0.0
 11
-136.5048944652
 21
-76.38087150300001
 31
0.0
  0
LINE
  5
86
330
1F
100
AcDbEntity
  8
0
  6
Continuous
 62
     7
370
    25
100
AcDbLine
 10
-144.5048944652
 20
-116.2056156147
 30
0.0
 11
-144.4562004992
 21
-116.3873439702
 31
0.0
  0
LINE
  5
87
330
1F
100
AcDbEntity
  8
0
  6
Continuous
 62
     7
370
    25
100
AcDbLine
 10
-136.5522415898
 20
-116.3823174891
 30
0.0
 11
-136.5048944652
 21
-116.2056156147
 31
0.0
  0
LINE
  5
88
330
1F
100
AcDbEntity
  8
0
  6
Continuous
 62
     7
370
    25
100
AcDbLine
 10
36.2987292175
 20
-136.380871503
 30
0.0
 11
36.2987292175
 21
-123.680871503
 31
0.0
  0
LINE
  5
89
330
1F
100
AcDbEntity
  8
0
  6
Continuous
 62
     7
370
    25
100
AcDbLine
 10
36.2987292175
 20
-149.080871503
 30
0.0
 11
36.2987292175
 21
-136.380871503
 31
0.0
  0
SPLINE
  5
8A
330
1F
100
AcDbEntity
  8
0
  6
Continuous
 62
     7
370
    25
100
AcDbSpline
210
0.0
220
0.0
230
1.0
 70
     8
 71
     3
 72
    25
 73
    21
 74
     0
 42
0.00000001
 43
0.0000000001
 40
0.0
 40
0.0
 40
0.0
 40
0.0
 40
0.0082244489568338
 40
0.0539351789251951
 40
0.1010638526257426
 40
0.1933338573181979
 40
0.2418908584829887
 40
0.2916942649653422
 40
0.3704509574494019
 40
0.4335071842245047
 40
0.4965696379255395
 40
0.5452445585649736
 40
0.5952011917480843
 40
0.6745556479454758
 40
0.7561880266583082
 40
0.8066800972549119
 40
0.8581993280493172
 40
0.934745283071604
 40
0.9990754728813618
 40
1.0
 40
1.0
 40
1.0
 40
1.0
 10
11.21479640987215
 20
-149.0639376563594
 30
0.0
 10
11.20951612330388
 20
-149.0693818261506
 30
0.0
 10
11.17488849021482
 20
-149.1050841903248
 30
0.0
 10
11.31480305791009
 20
-148.9603359185576
 30
0.0
 10
11.73062736576448
 20
-148.5368270626792
 30
0.0
 10
12.55911474837619
 20
-147.7196394656225
 30
0.0
 10
13.72208831254755
 20
-146.7012106892276
 30
0.0
 10
15.02157900646871
 20
-145.6944845686822
 30
0.0
 10
16.76467152251519
 20
-144.6390733844601
 30
0.0
 10
19.04328252459718
 20
-143.9808424665004
 30
0.0
 10
21.10806777169462
 20
-144.0021170237708
 30
0.0
 10
22.93159578215965
 20
-144.3732252535108
 30
0.0
 10
24.83918124188404
 20
-144.987392922408
 30
0.0
 10
26.94220606828356
 20
-145.8935848435467
 30
0.0
 10
28.85066492735606
 20
-146.8596894599046
 30
0.0
 10
30.3125152819174
 20
-147.6522233592667
 30
0.0
 10
31.56225313050895
 20
-148.3565181901079
 30
0.0
 10
32.47721405874136
 20
-148.8894261618933
 30
0.0
 10
32.90758827956937
 20
-149.1434206080864
 30
0.0
 10
32.79807276623513
 20
-149.079043502498
 30
0.0
 10
32.79652115331344
 20
-149.0781314093538
 30
0.0
  0
LINE
  5
8B
330
1F
100
AcDbEntity
  8
0
  6
Continuous
 62
     7
370
    25
100
AcDbLine
 10
18.0120294134
 20
-160.6723209873
 30
0.0
 11
34.60866167800001
 21
-154.631640854
 31
0.0
  0
LINE
  5
8C
330
1F
100
AcDbEntity
  8
0
  6
Continuous
 62
     7
370
    25
100
AcDbLine
 10
15.9087785243
 20
-161.4378417061
 30
0.0
 11
18.0120294134
 21
-160.6723209873
 31
0.0
  0
LINE
  5
8D
330
1F
100
AcDbEntity
  8
0
  6
Continuous
 62
     7
370
    25
100
AcDbLine
 10
18.547194796
 20
-161.0096256039
 30
0.0
 11
34.3098254392
 21
-155.272497236
 31
0.0
  0
LINE
  5
8E
330
1F
100
AcDbEntity
  8
0
  6
Continuous
 62
     7
370
    25
100
AcDbLine
 10
16.5496349064
 20
-161.7366779449
 30
0.0
 11
18.547194796
 21
-161.0096256039
 31
0.0
  0
SPLINE
  5
8F
330
1F
100
AcDbEntity
  8
0
  6
Continuous
 62
     7
370
    25
100
AcDbSpline
210
0.0
220
0.0
230
1.0
 70
     8
 71
     3
 72
    17
 73
    13
 74
     0
 42
0.00000001
 43
0.0000000001
 40
0.0
 40
0.0
 40
0.0
 40
0.0
 40
0.0717854738424675
 40
0.171767038252192
 40
0.2744771938045662
 40
0.3816988037815195
 40
0.4919097568806168
 40
0.6026977042178603
 40
0.7134803025045946
 40
0.8239591792195517
 40
0.9317400714915212
 40
1.0
 40
1.0
 40
1.0
 40
1.0
 10
-144.5355175610622
 20
-116.3892079802397
 30
0.0
 10
-144.5321004548845
 20
-116.3899310868138
 30
0.0
 10
-144.5239240624178
 20
-116.3916613236978
 30
0.0
 10
-144.0249183456049
 20
-116.4829122194544
 30
0.0
 10
-143.1632076967404
 20
-116.6122279092061
 30
0.0
 10
-141.9794709546232
 20
-116.7332286893393
 30
0.0
 10
-140.6074987911424
 20
-116.7870038492555
 30
0.0
 10
-139.2089125831571
 20
-116.74603615829
 30
0.0
 10
-137.9503123278272
 20
-116.6265011494002
 30
0.0
 10
-137.007780021198
 20
-116.487472781956
 30
0.0
 10
-136.4781171532044
 20
-116.3901564317489
 30
0.0
 10
-136.4789924297293
 20
-116.3901648399123
 30
0.0
 10
-136.4793318187002
 20
-116.3901681001825
 30
0.0
  0
LINE
  5
90
330
1F
100
AcDbEntity
  8
0
  6
Continuous
 62
     7
370
    25
100
AcDbLine
 10
-166.5048944652
 20
-156.3808715029999
 30
0.0
 11
-166.5048944652
 21
-116.380871503
 31
0.0
  0
LINE
  5
91
330
1F
100
AcDbEntity
  8
0
  6
Continuous
 62
     7
370
    25
100
AcDbLine
 10
-131.5048944652
 20
-156.3808715029999
 30
0.0
 11
-131.5048944652
 21
-116.380871503
 31
0.0
  0
LINE
  5
92
330
1F
100
AcDbEntity
  8
0
  6
Continuous
 62
     7
370
    25
100
AcDbLine
 10
-174.5712707825
 20
-163.3808715029999
 30
0.0
 11
-174.5712707825
 21
-109.380871503
 31
0.0
  0
LINE
  5
93
330
1F
100
AcDbEntity
  8
0
  6
Continuous
 62
     7
370
    25
100
AcDbLine
 10
-172.0712707825
 20
-163.3808715029999
 30
0.0
 11
-172.0712707825
 21
-109.380871503
 31
0.0
  0
LINE
  5
94
330
1F
100
AcDbEntity
  8
0
  6
Continuous
 62
     7
370
    25
100
AcDbLine
 10
-144.5048944652
 20
-116.2056156147
 30
0.0
 11
-136.5048944652
 21
-116.2056156147
 31
0.0
  0
LINE
  5
95
330
1F
100
AcDbEntity
  8
0
  6
Continuous
 62
     7
370
    25
100
AcDbLine
 10
-144.5048944652
 20
-76.38087150300001
 30
0.0
 11
-136.5048944652
 21
-76.38087150300001
 31
0.0
  0
POINT
  5
96
330
1F
100
AcDbEntity
  8
0
  6
Continuous
 62
     7
370
     0
100
AcDbPoint
 10
-174.5712707825
 20
-136.380871503
 30
0.0
  0
POINT
  5
97
330
1F
100
AcDbEntity
  8
0
  6
Continuous
 62
     7
370
     0
100
AcDbPoint
 10
25.4297301728
 20
-158.5045875904
 30
0.0
  0
POINT
  5
98
330
1F
100
AcDbEntity
  8
0
  6
Continuous
 62
     7
370
     0
100
AcDbPoint
 10
36.2987292175
 20
-136.380871503
 30
0.0
  0
DIMENSION
  5
99
102
{ACAD_XDICTIONARY
360
4AA
102
}
330
1F
100
AcDbEntity
  8
DIMENSION
100
AcDbDimension
280
     0
  2
*D17
 10
-174.5712707825
 20
-197.380871503
 30
0.0
 11
-76.7593218472
 21
-197.380871503
 31
0.0
 70
   160
  1
<>
 71
     2
 42
200.0010009553
 73
     0
 74
     0
 75
     0
  3
RG Dimension Lines
100
AcDbAlignedDimension
 13
25.4297301728
 23
-158.5045875904
 33
0.0
 14
-174.5712707825
 24
-163.3808715029999
 34
0.0
100
AcDbRotatedDimension
1001
AcadAnnotative
1000
AnnotativeData
1002
{
1070
     1
1070
     1
1002
}
  0
LINE
  5
A6
330
1F
100
AcDbEntity
  8
0
  6
Continuous
 62
     7
370
    25
100
AcDbLine
 10
303.8519610187
 20
-159.2733685394
 30
0.0
 11
304.3176663087
 21
-159.6809722739
 31
0.0
  0
LINE
  5
A7
330
1F
100
AcDbEntity
  8
0
  6
Continuous
 62
     7
370
    25
100
AcDbLine
 10
321.921326271
 20
-159.6809722739
 30
0.0
 11
322.387031561
 21
-159.2733685394
 31
0.0
  0
LINE
  5
A8
330
1F
100
AcDbEntity
  8
0
  6
Continuous
 62
     7
370
    25
100
AcDbLine
 10
303.1694962898
 20
-144.2731145302
 30
0.0
 11
303.1694962898
 21
-158.0347412801
 31
0.0
  0
LINE
  5
A9
330
1F
100
AcDbEntity
  8
0
  6
Continuous
 62
     7
370
    25
100
AcDbLine
 10
323.0694962898
 20
-158.0347412801
 30
0.0
 11
323.0694962898
 21
-144.2731145302
 31
0.0
  0
LINE
  5
AA
330
1F
100
AcDbEntity
  8
0
  6
Continuous
 62
     7
370
    25
100
AcDbLine
 10
306.2011861289
 20
-157.5752077277
 30
0.0
 11
306.2011861289
 21
-158.2226798042
 31
0.0
  0
LINE
  5
AB
330
1F
100
AcDbEntity
  8
0
  6
Continuous
 62
     7
370
    25
100
AcDbLine
 10
320.0378064508
 20
-158.2226798042
 30
0.0
 11
320.0378064508
 21
-157.5752077277
 31
0.0
  0
LINE
  5
AC
330
1F
100
AcDbEntity
  8
0
  6
Continuous
 62
     7
370
    25
100
AcDbLine
 10
306.6757090101
 20
-159.083906694
 30
0.0
 11
306.9551321841
 21
-159.3284689348
 31
0.0
  0
LINE
  5
AD
330
1F
100
AcDbEntity
  8
0
  6
Continuous
 62
     7
370
    25
100
AcDbLine
 10
319.2838603956
 20
-159.3284689348
 30
0.0
 11
319.5632835696
 21
-159.083906694
 31
0.0
  0
LINE
  5
AE
330
1F
100
AcDbEntity
  8
0
  6
Continuous
 62
     7
370
    25
100
AcDbLine
 10
159.1194962898
 20
-116.2056156147
 30
0.0
 11
159.2668256113
 21
-116.755456128
 31
0.0
  0
LINE
  5
AF
330
1F
100
AcDbEntity
  8
0
  6
Continuous
 62
     7
370
    25
100
AcDbLine
 10
166.9721669683
 20
-116.755456128
 30
0.0
 11
167.1194962898
 21
-116.2056156147
 31
0.0
  0
LINE
  5
B0
330
1F
100
AcDbEntity
  8
0
  6
Continuous
 62
     7
370
    25
100
AcDbLine
 10
159.1194962898
 20
-76.38087150300001
 30
0.0
 11
159.1194962898
 21
-116.2056156147
 31
0.0
  0
LINE
  5
B1
330
1F
100
AcDbEntity
  8
0
  6
Continuous
 62
     7
370
    25
100
AcDbLine
 10
167.1194962898
 20
-116.2056156147
 30
0.0
 11
167.1194962898
 21
-76.38087150300001
 31
0.0
  0
LINE
  5
B2
330
1F
100
AcDbEntity
  8
0
  6
Continuous
 62
     7
370
    25
100
AcDbLine
 10
450.4318233997
 20
-76.38087150300001
 30
0.0
 11
450.4318233997
 21
-116.2056156147
 31
0.0
  0
LINE
  5
B3
330
1F
100
AcDbEntity
  8
0
  6
Continuous
 62
     7
370
    25
100
AcDbLine
 10
458.4318233997
 20
-116.2056156147
 30
0.0
 11
458.4318233997
 21
-76.38087150300001
 31
0.0
  0
LINE
  5
B4
330
1F
100
AcDbEntity
  8
0
  6
Continuous
 62
     7
370
    25
100
AcDbLine
 10
450.4318233997
 20
-116.2056156147
 30
0.0
 11
450.5791527212
 21
-116.755456128
 31
0.0
  0
LINE
  5
B5
330
1F
100
AcDbEntity
  8
0
  6
Continuous
 62
     7
370
    25
100
AcDbLine
 10
458.2844940782
 20
-116.755456128
 30
0.0
 11
458.4318233997
 21
-116.2056156147
 31
0.0
  0
CIRCLE
  5
B6
330
1F
100
AcDbEntity
  8
0
  6
Continuous
 62
     7
370
    25
100
AcDbCircle
 10
313.1194962898
 20
-136.380871503
 30
0.0
 40
12.69999999999999
  0
LWPOLYLINE
  5
B7
330
1F
100
AcDbEntity
  8
0
  6
Continuous
 62
     7
370
    25
100
AcDbPolyline
 90
       24
 70
   128
 43
0.0
 10
303.8519610187
 20
-159.2733685394
 10
303.3830035021
 20
-158.7359416487
 10
303.1765732153
 20
-158.1630698326
 10
303.2561827222
 20
-157.5865062378
 10
303.6195418025
 20
-157.022837549
 10
304.2561972767
 20
-156.4882794882
 10
305.1478337263
 20
-155.9982103175
 10
306.2688003938
 20
-155.5667284347
 10
307.5868491092
 20
-155.206246788
 10
309.0640620108
 20
-154.927135778
 10
310.6579423728
 20
-154.7374249202
 10
312.3226371593
 20
-154.6425718508
 10
314.0102561321
 20
-154.6453053197
 10
315.6722495661
 20
-154.74554669
 10
317.2608049361
 20
-154.9404122001
 10
318.7302223964
 20
-155.224295924
 10
320.0382294821
 20
-155.5890310438
 10
321.1471972107
 20
-156.0241247942
 10
322.0252225998
 20
-156.5170603202
 10
322.6470464576
 20
-157.0536567642
 10
322.9947800439
 20
-157.6184772234
 10
323.0584196964
 20
-158.1952728417
 10
322.8361346182
 20
-158.7674502592
 10
322.387031561
 20
-159.2733685394
  0
LWPOLYLINE
  5
B8
330
1F
100
AcDbEntity
  8
0
  6
Continuous
 62
     7
370
    25
100
AcDbPolyline
 90
       37
 70
   128
 43
0.0
 10
307.148065026
 20
-161.0096256039
 10
305.9669433533
 20
-160.6169181308
 10
305.0031483823
 20
-160.1600285631
 10
304.2859645353
 20
-159.6528392592
 10
303.8371830807
 20
-159.1107609093
 10
303.6704400159
 20
-158.5502642898999
 10
303.7908017445
 20
-157.9883798071
 10
304.1946111363
 20
-157.4421800366
 10
304.8695986474001
 20
-156.928260982
 10
305.7952551236
 20
-156.4622378137
 10
306.9434549614
 20
-156.05827041
 10
308.2793106898
 20
-155.7286331158
 10
309.7622330083
 20
-155.4833417937
 10
311.3471640728
 20
-155.3298494963
 10
312.9859465549
 20
-155.2728200093
 10
314.6287868781
 20
-155.313986145
 10
316.2257681705
 20
-155.4520970911
 10
317.7283669637
 20
-155.6829564163
 10
319.0909275537
 20
-155.999549577
 10
320.2720492263
 20
-156.3922570501
 10
321.2358441974
 20
-156.8491466178
 10
321.9530280444
 20
-157.3563359217
 10
322.401809499
 20
-157.8984142716
 10
322.5685525638
 20
-158.458910891
 10
322.4481908352
 20
-159.0207953738
 10
322.0443814433
 20
-159.5669951443
 10
321.3693939323
 20
-160.0809141989
 10
320.4437374561
 20
-160.5469373672
 10
319.2955376183001
 20
-160.9509047709
 10
317.9596818899
 20
-161.2805420651
 10
316.4767595714
 20
-161.5258333872
 10
314.8918285069
 20
-161.6793256846
 10
313.2530460248
 20
-161.7363551716
 10
311.6102057016
 20
-161.6951890359
 10
310.0132244091
 20
-161.5570780898
 10
308.510625616
 20
-161.3262187646
 10
307.148065026
 20
-161.0096256039
  0
LWPOLYLINE
  5
B9
330
1F
100
AcDbEntity
  8
0
  6
Continuous
 62
     7
370
    25
100
AcDbPolyline
 90
       33
 70
   128
 43
0.0
 10
308.4118600025
 20
-160.4794588286
 10
307.3758376249001
 20
-160.1273960481
 10
306.5605408288
 20
-159.7129696486
 10
305.9973010127
 20
-159.2521058043
 10
305.707763167
 20
-158.7625152543
 10
305.7030540686
 20
-158.2630126888
 10
305.9833546855
 20
-157.7727937113
 10
306.5378932224001
 20
-157.3106971622
 10
307.3453590741
 20
-156.8944811527
 10
308.3747217809
 20
-156.5401406307
 10
309.5864235111
 20
-156.2612927036
 10
310.9338992468
 20
-156.068653341
 10
312.3653662512
 20
-155.9696255655
 10
313.8258140501
 20
-155.968014959
 10
315.2591184536
 20
-156.0638834162
 10
316.6101983772
 20
-156.253546766
 10
317.8271325772
 20
-156.5297163523
 10
318.8631549547
 20
-156.8817791328
 10
319.6784517509
 20
-157.2962055323
 10
320.241691567
 20
-157.7570693765
 10
320.5312294127
 20
-158.2466599266
 10
320.5359385111
 20
-158.746162492
 10
320.2556378941
 20
-159.2363814695
 10
319.7010993573
 20
-159.6984780187
 10
318.8936335056
 20
-160.1146940282
 10
317.8642707988
 20
-160.4690345502
 10
316.6525690686
 20
-160.7478824773
 10
315.3050933329
 20
-160.9405218399
 10
313.8736263284
 20
-161.0395496154
 10
312.4131785296
 20
-161.0411602219
 10
310.9798741261
 20
-160.9452917647
 10
309.6287942025
 20
-160.7556284149
 10
308.4118600025
 20
-160.4794588286
  0
LWPOLYLINE
  5
BA
330
1F
100
AcDbEntity
  8
0
  6
Continuous
 62
     7
370
    25
100
AcDbPolyline
 90
        8
 70
   128
 43
0.0
 10
308.5382395000999
 20
-160.2385036269
 10
307.5008961826
 20
-159.8837521024
 10
306.6935790136
 20
-159.4648431956
 10
306.1493396528
 20
-158.9989270862
 10
305.8904593238001
 20
-158.5050784345
 10
305.9275366175
 20
-158.0035154623
 10
306.2590535853
 20
-157.5147722167
 10
306.2784131074
 20
-157.4956524634
  0
LWPOLYLINE
  5
BB
330
1F
100
AcDbEntity
  8
0
  6
Continuous
 62
     7
370
    25
100
AcDbPolyline
 90
       14
 70
   128
 43
0.0
 10
319.9605794722
 20
-157.4956524634
 10
320.2557066791
 20
-157.8790501939
 10
320.367180131
 20
-158.3793227425
 10
320.1819325548
 20
-158.8770294235
 10
319.7075480082
 20
-159.3517940667
 10
318.9634478502
 20
-159.784179752
 10
317.9800956286
 20
-160.1564845587
 10
316.797749899
 20
-160.4534662841
 10
315.4648160345
 20
-160.6629664615
 10
314.0358645041
 20
-160.7764081291
 10
312.5693967513
 20
-160.7891469716
 10
311.1254501383001
 20
-160.7006614594
 10
309.763140009
 20
-160.5145741998
 10
308.5382395000999
 20
-160.2385036269
  0
LWPOLYLINE
  5
BC
330
1F
100
AcDbEntity
  8
0
  6
Continuous
 62
     7
370
    25
100
AcDbPolyline
 90
        3
 70
   128
 43
0.0
 10
306.5958111914
 20
-157.434952525
 10
307.1929742058
 20
-157.001933707
 10
307.6389198448
 20
-156.7786297159
  0
LWPOLYLINE
  5
BD
330
1F
100
AcDbEntity
  8
0
  6
Continuous
 62
     7
370
    25
100
AcDbPolyline
 90
        7
 70
   128
 43
0.0
 10
318.6000727349
 20
-156.7786297159
 10
318.9339663967
 20
-156.9404484828
 10
319.5696107114
 20
-157.3670113358
 10
319.9411865839
 20
-157.8286053563
 10
320.0334816542
 20
-158.3063328311
 10
319.8427173513
 20
-158.7806355412
 10
319.5632835696
 20
-159.083906694
  0
ARC
  5
BE
330
1F
100
AcDbEntity
  8
0
  6
Continuous
 62
     7
370
    25
100
AcDbCircle
 10
307.2547001849
 20
-158.2294397144
 30
0.0
 40
1.032155317678494
100
AcDbArc
 50
129.6698049141
 51
235.8782332332
  0
LWPOLYLINE
  5
BF
330
1F
100
AcDbEntity
  8
0
  6
Continuous
 62
     7
370
    25
100
AcDbPolyline
 90
       31
 70
   128
 43
0.0
 10
306.8786989897
 20
-157.7510186791
 10
306.5569860301
 20
-158.2112689783
 10
306.5220862593
 20
-158.6843387084
 10
306.7755249646
 20
-159.149552452
 10
307.3062256587
 20
-159.5865781363
 10
308.0909941745
 20
-159.9763156418
 10
309.0955323621
 20
-160.3017315693
 10
310.2759370825
 20
-160.5486036813
 10
311.5806189852
 20
-160.7061424818
 10
312.9525572105
 20
-160.7674627694
 10
314.3317914746
 20
-160.7298845531
 10
315.6580426219
 20
-160.5950501814
 10
316.8733471131
 20
-160.3688525634
 10
317.9245903104
 20
-160.0611776203
 10
318.7658278417
 20
-159.6854722235
 10
319.36029359
 20
-159.2581565017
 10
319.6820065496
 20
-158.7979062026
 10
319.7169063204
 20
-158.3248364725
 10
319.463467615
 20
-157.8596227289
 10
318.932766921
 20
-157.4225970446
 10
318.1479984052
 20
-157.0328595391
 10
317.1434602176
 20
-156.7074436116
 10
315.9630554971
 20
-156.4605714995999
 10
314.6583735944
 20
-156.3030326991
 10
313.2864353692
 20
-156.2417124115
 10
311.9072011051
 20
-156.2792906278
 10
310.5809499578
 20
-156.4141249995
 10
309.3656454666
 20
-156.6403226175
 10
308.3144022692
 20
-156.9479975606
 10
307.473164738
 20
-157.3237029574
 10
306.8786989897
 20
-157.7510186791
  0
LWPOLYLINE
  5
C0
330
1F
100
AcDbEntity
  8
0
  6
Continuous
 62
     7
370
    25
100
AcDbPolyline
 90
       30
 70
   128
 43
0.0
 10
307.2260004915
 20
-157.7929549258
 10
306.9165035885
 20
-158.2429071882
 10
306.8970517301
 20
-158.7050953354
 10
307.1685544635
 20
-159.1579079633
 10
307.7183166227
 20
-159.5801720567
 10
308.5206319402
 20
-159.9521430158
 10
309.5379850434
 20
-160.2564278921
 10
310.722805632
 20
-160.478798663
 10
312.0196928119
 20
-160.6088575183
 10
313.3680055802
 20
-160.6405230504
 10
314.7046983302
 20
-160.5723146144
 10
315.9672687946
 20
-160.4074215609
 10
317.0966805818
 20
-160.1535541057
 10
318.0401236518
 20
-159.822582809
 10
318.7534836553
 20
-159.4299835207
 10
319.2034046713
 20
-158.9941137472
 10
319.3688488931
 20
-158.5353542746999
 10
319.2420803329
 20
-158.0751561863
 10
318.8290265476
 20
-157.635037833
 10
318.1490014731
 20
-157.2355786599
 10
317.2338023261001
 20
-156.895456934
 10
316.1262228016
 20
-156.6305763692
 10
314.8780520872
 20
-156.4533224863
 10
313.5476532581
 20
-156.3719834799
 10
312.1972342851
 20
-156.3903626714
 10
310.8899392584
 20
-156.5076006704
 10
309.6868958406
 20
-156.7182155582
 10
308.6443570046
 20
-157.0123592169
 10
307.8110707079
 20
-157.3762778158
 10
307.2260004915
 20
-157.7929549258
  0
LINE
  5
C1
330
1F
100
AcDbEntity
  8
0
  6
Continuous
 62
     7
370
    25
100
AcDbLine
 10
319.0480452858
 20
-158.5928537348
 30
0.0
 11
319.0480452858
 21
-158.9933657003
 31
0.0
  0
ARC
  5
C2
330
1F
100
AcDbEntity
  8
0
  6
Continuous
 62
     7
370
    25
100
AcDbCircle
 10
318.5321639342
 20
-158.293368887
 30
0.0
 40
0.8401336204821834
100
AcDbArc
 50
338.8715572541
 51
344.2841340780999
  0
LINE
  5
C3
330
1F
100
AcDbEntity
  8
0
  6
Continuous
 62
     7
370
    25
100
AcDbLine
 10
319.340890652
 20
-158.300303282
 30
0.0
 11
319.340890652
 21
-158.5209333747
 31
0.0
  0
LINE
  5
C4
330
1F
100
AcDbEntity
  8
0
  6
Continuous
 62
     7
370
    25
100
AcDbLine
 10
306.8813727665
 20
-158.3728699062
 30
0.0
 11
306.8813727665
 21
-158.4483667506
 31
0.0
  0
ARC
  5
C5
330
1F
100
AcDbEntity
  8
0
  6
Continuous
 62
     7
370
    25
100
AcDbCircle
 10
307.6638785259
 20
-158.3062836556
 30
0.0
 40
0.7953004900332872
100
AcDbArc
 50
190.2913309408
 51
198.2921033582
  0
LINE
  5
C6
330
1F
100
AcDbEntity
  8
0
  6
Continuous
 62
     7
370
    25
100
AcDbLine
 10
307.0402629695
 20
-158.5174116461
 30
0.0
 11
307.0402629695
 21
-158.8129227971
 31
0.0
  0
ARC
  5
C7
330
1F
100
AcDbEntity
  8
0
  6
Continuous
 62
     7
370
    25
100
AcDbCircle
 10
308.120108855
 20
-158.0576068366999
 30
0.0
 40
1.317789564603039
100
AcDbArc
 50
214.9714978943
 51
219.6883068052
  0
LINE
  5
C8
330
1F
100
AcDbEntity
  8
0
  6
Continuous
 62
     7
370
    25
100
AcDbLine
 10
307.4801643226
 20
-158.9443376925
 30
0.0
 11
307.4801643226
 21
-159.2382289882
 31
0.0
  0
ARC
  5
C9
330
1F
100
AcDbEntity
  8
0
  6
Continuous
 62
     7
370
    25
100
AcDbCircle
 10
309.1869701146
 20
-156.8507656314
 30
0.0
 40
2.934819805706564
100
AcDbArc
 50
234.4388926950999
 51
237.1703038695
  0
LINE
  5
CA
330
1F
100
AcDbEntity
  8
0
  6
Continuous
 62
     7
370
    25
100
AcDbLine
 10
308.2508764237
 20
-159.2912967984
 30
0.0
 11
308.2508764237
 21
-159.6570469357
 31
0.0
  0
ARC
  5
CB
330
1F
100
AcDbEntity
  8
0
  6
Continuous
 62
     7
370
    25
100
AcDbCircle
 10
310.6352070672
 20
-154.0414144386
 30
0.0
 40
6.100849199877032
100
AcDbArc
 50
246.994501246
 51
248.604132105
  0
LINE
  5
CC
330
1F
100
AcDbEntity
  8
0
  6
Continuous
 62
     7
370
    25
100
AcDbLine
 10
309.2710493038
 20
-159.6683779992
 30
0.0
 11
309.2710493038
 21
-160.0009708621
 31
0.0
  0
ARC
  5
CD
330
1F
100
AcDbEntity
  8
0
  6
Continuous
 62
     7
370
    25
100
AcDbCircle
 10
311.9302308294
 20
-150.0466371543
 30
0.0
 40
10.30339778674097
100
AcDbArc
 50
255.0433693524
 51
256.2125494806
  0
ARC
  5
CE
330
1F
100
AcDbEntity
  8
0
  6
Continuous
 62
     7
370
    25
100
AcDbCircle
 10
312.9196460217
 20
-144.8277913745
 30
0.0
 40
15.6182179532302
100
AcDbArc
 50
261.0015348489
 51
265.2283354573
  0
ARC
  5
CF
330
1F
100
AcDbEntity
  8
0
  6
Continuous
 62
     7
370
    25
100
AcDbCircle
 10
313.1192604557
 20
-142.2134311713
 30
0.0
 40
18.24084299146126
100
AcDbArc
 50
268.8988809031
 51
269.6977923681
  0
LINE
  5
D0
330
1F
100
AcDbEntity
  8
0
  6
Continuous
 62
     7
370
    25
100
AcDbLine
 10
313.0230492435
 20
-160.3093972753
 30
0.0
 11
313.0230492435
 21
-160.4540204283
 31
0.0
  0
ARC
  5
D1
330
1F
100
AcDbEntity
  8
0
  6
Continuous
 62
     7
370
    25
100
AcDbCircle
 10
313.1592541491
 20
-143.0779470416
 30
0.0
 40
17.37533832695154
100
AcDbArc
 50
273.4539084633
 51
274.2550032419
  0
LINE
  5
D2
330
1F
100
AcDbEntity
  8
0
  6
Continuous
 62
     7
370
    25
100
AcDbLine
 10
314.4484273294
 20
-160.2200790743
 30
0.0
 11
314.4484273294
 21
-160.4053938959
 31
0.0
  0
ARC
  5
D3
330
1F
100
AcDbEntity
  8
0
  6
Continuous
 62
     7
370
    25
100
AcDbCircle
 10
313.507935233
 20
-146.1285131332
 30
0.0
 40
14.3040168106698
100
AcDbArc
 50
278.3401584392
 51
279.2902625044
  0
LINE
  5
D4
330
1F
100
AcDbEntity
  8
0
  6
Continuous
 62
     7
370
    25
100
AcDbLine
 10
315.8171199398
 20
-160.1477791926
 30
0.0
 11
315.8171199398
 21
-160.2449065433
 31
0.0
  0
ARC
  5
D5
330
1F
100
AcDbEntity
  8
0
  6
Continuous
 62
     7
370
    25
100
AcDbCircle
 10
314.2798564473
 20
-149.9332361483
 30
0.0
 40
10.4204227051893
100
AcDbArc
 50
283.6034264358
 51
284.7916337051
  0
LINE
  5
D6
330
1F
100
AcDbEntity
  8
0
  6
Continuous
 62
     7
370
    25
100
AcDbLine
 10
316.9402380921
 20
-159.5788373814
 30
0.0
 11
316.9402380921
 21
-160.0083331135
 31
0.0
  0
ARC
  5
D7
330
1F
100
AcDbEntity
  8
0
  6
Continuous
 62
     7
370
    25
100
AcDbCircle
 10
315.186608001
 20
-152.9474819061
 30
0.0
 40
7.27168596003703
100
AcDbArc
 50
288.6700323918
 51
290.4992362435
  0
LINE
  5
D8
330
1F
100
AcDbEntity
  8
0
  6
Continuous
 62
     7
370
    25
100
AcDbLine
 10
317.7331153046
 20
-159.6074158722
 30
0.0
 11
317.7331153046
 21
-159.7587018595
 31
0.0
  0
ARC
  5
D9
330
1F
100
AcDbEntity
  8
0
  6
Continuous
 62
     7
370
    25
100
AcDbCircle
 10
316.4419292851
 20
-155.8366072094
 30
0.0
 40
4.118778346884189
100
AcDbArc
 50
297.392072277
 51
299.2673697387
  0
LINE
  5
DA
330
1F
100
AcDbEntity
  8
0
  6
Continuous
 62
     7
370
    25
100
AcDbLine
 10
318.45554122
 20
-159.0813732921
 30
0.0
 11
318.45554122
 21
-159.4296145914
 31
0.0
  0
ARC
  5
DB
330
1F
100
AcDbEntity
  8
0
  6
Continuous
 62
     7
370
    25
100
AcDbCircle
 10
317.7463885577
 20
-157.7216474799
 30
0.0
 40
1.819774016152748
100
AcDbArc
 50
312.5158479023
 51
315.6665459904
  0
LINE
  5
DC
330
1F
100
AcDbEntity
  8
0
  6
Continuous
 62
     7
370
    25
100
AcDbLine
 10
312.9942684856
 20
-158.0867800906
 30
0.0
 11
312.4748337091
 21
-158.2388068202
 31
0.0
  0
LINE
  5
DD
330
1F
100
AcDbEntity
  8
0
  6
Continuous
 62
     7
370
    25
100
AcDbLine
 10
312.6000615133
 20
-158.4686757959
 30
0.0
 11
312.4748337091
 21
-158.2388068202
 31
0.0
  0
LINE
  5
DE
330
1F
100
AcDbEntity
  8
0
  6
Continuous
 62
     7
370
    25
100
AcDbLine
 10
312.6000615133
 20
-158.4686757959
 30
0.0
 11
313.244724094
 21
-158.546518042
 31
0.0
  0
LINE
  5
DF
330
1F
100
AcDbEntity
  8
0
  6
Continuous
 62
     7
370
    25
100
AcDbLine
 10
313.244724094
 20
-158.546518042
 30
0.0
 11
313.7641588705
 21
-158.3944913124
 31
0.0
  0
LINE
  5
E0
330
1F
100
AcDbEntity
  8
0
  6
Continuous
 62
     7
370
    25
100
AcDbLine
 10
313.6389310663
 20
-158.1646223367
 30
0.0
 11
313.7641588705
 21
-158.3944913124
 31
0.0
  0
LINE
  5
E1
330
1F
100
AcDbEntity
  8
0
  6
Continuous
 62
     7
370
    25
100
AcDbLine
 10
313.6389310663
 20
-158.1646223367
 30
0.0
 11
312.9942684856
 21
-158.0867800906
 31
0.0
  0
LINE
  5
E2
330
1F
100
AcDbEntity
  8
0
  6
Continuous
 62
     7
370
    25
100
AcDbLine
 10
317.7732237959
 20
-158.5855359803
 30
0.0
 11
317.6573074452
 21
-158.3567913517
 31
0.0
  0
LINE
  5
E3
330
1F
100
AcDbEntity
  8
0
  6
Continuous
 62
     7
370
    25
100
AcDbLine
 10
318.4178863766
 20
-158.6633782264
 30
0.0
 11
317.7732237959
 21
-158.5855359803
 31
0.0
  0
LINE
  5
E4
330
1F
100
AcDbEntity
  8
0
  6
Continuous
 62
     7
370
    25
100
AcDbLine
 10
318.9373211531
 20
-158.5113514968
 30
0.0
 11
318.4178863766
 21
-158.6633782264
 31
0.0
  0
LINE
  5
E5
330
1F
100
AcDbEntity
  8
0
  6
Continuous
 62
     7
370
    25
100
AcDbLine
 10
318.8120933489
 20
-158.2814825211
 30
0.0
 11
318.9373211531
 21
-158.5113514968
 31
0.0
  0
LINE
  5
E6
330
1F
100
AcDbEntity
  8
0
  6
Continuous
 62
     7
370
    25
100
AcDbLine
 10
318.1674307682
 20
-158.203640275
 30
0.0
 11
318.8120933489
 21
-158.2814825211
 31
0.0
  0
LINE
  5
E7
330
1F
100
AcDbEntity
  8
0
  6
Continuous
 62
     7
370
    25
100
AcDbLine
 10
317.6573074452
 20
-158.3567913517
 30
0.0
 11
318.1674307682
 21
-158.203640275
 31
0.0
  0
LINE
  5
E8
330
1F
100
AcDbEntity
  8
0
  6
Continuous
 62
     7
370
    25
100
AcDbLine
 10
316.8225029875
 20
-158.2168410353
 30
0.0
 11
316.6972751833
 21
-157.9869720596
 31
0.0
  0
LINE
  5
E9
330
1F
100
AcDbEntity
  8
0
  6
Continuous
 62
     7
370
    25
100
AcDbLine
 10
317.4671655682
 20
-158.2946832814
 30
0.0
 11
316.8225029875
 21
-158.2168410353
 31
0.0
  0
LINE
  5
EA
330
1F
100
AcDbEntity
  8
0
  6
Continuous
 62
     7
370
    25
100
AcDbLine
 10
317.9866003447
 20
-158.1426565518
 30
0.0
 11
317.4671655682
 21
-158.2946832814
 31
0.0
  0
LINE
  5
EB
330
1F
100
AcDbEntity
  8
0
  6
Continuous
 62
     7
370
    25
100
AcDbLine
 10
317.8613725405
 20
-157.9127875761
 30
0.0
 11
317.9866003447
 21
-158.1426565518
 31
0.0
  0
LINE
  5
EC
330
1F
100
AcDbEntity
  8
0
  6
Continuous
 62
     7
370
    25
100
AcDbLine
 10
317.2167099598
 20
-157.83494533
 30
0.0
 11
317.8613725405
 21
-157.9127875761
 31
0.0
  0
LINE
  5
ED
330
1F
100
AcDbEntity
  8
0
  6
Continuous
 62
     7
370
    25
100
AcDbLine
 10
316.6972751833
 20
-157.9869720596
 30
0.0
 11
317.2167099598
 21
-157.83494533
 31
0.0
  0
LINE
  5
EE
330
1F
100
AcDbEntity
  8
0
  6
Continuous
 62
     7
370
    25
100
AcDbLine
 10
314.9582628131
 20
-158.7534258207
 30
0.0
 11
315.6029253938001
 21
-158.8312680668
 31
0.0
  0
LINE
  5
EF
330
1F
100
AcDbEntity
  8
0
  6
Continuous
 62
     7
370
    25
100
AcDbLine
 10
315.6029253938001
 20
-158.8312680668
 30
0.0
 11
316.1223601703
 21
-158.6792413372
 31
0.0
  0
LINE
  5
F0
330
1F
100
AcDbEntity
  8
0
  6
Continuous
 62
     7
370
    25
100
AcDbLine
 10
315.9971323661
 20
-158.4493723615
 30
0.0
 11
316.1223601703
 21
-158.6792413372
 31
0.0
  0
LINE
  5
F1
330
1F
100
AcDbEntity
  8
0
  6
Continuous
 62
     7
370
    25
100
AcDbLine
 10
315.3524697854
 20
-158.3715301154
 30
0.0
 11
315.9971323661
 21
-158.4493723615
 31
0.0
  0
LINE
  5
F2
330
1F
100
AcDbEntity
  8
0
  6
Continuous
 62
     7
370
    25
100
AcDbLine
 10
314.8330350089
 20
-158.523556845
 30
0.0
 11
315.3524697854
 21
-158.3715301154
 31
0.0
  0
LINE
  5
F3
330
1F
100
AcDbEntity
  8
0
  6
Continuous
 62
     7
370
    25
100
AcDbLine
 10
314.8330350089
 20
-158.523556845
 30
0.0
 11
314.9582628131
 21
-158.7534258207
 31
0.0
  0
LINE
  5
F4
330
1F
100
AcDbEntity
  8
0
  6
Continuous
 62
     7
370
    25
100
AcDbLine
 10
316.9106517321
 20
-157.5440926311
 30
0.0
 11
317.0358795363
 21
-157.7739616068
 31
0.0
  0
LINE
  5
F5
330
1F
100
AcDbEntity
  8
0
  6
Continuous
 62
     7
370
    25
100
AcDbLine
 10
316.2659891514
 20
-157.466250385
 30
0.0
 11
316.9106517321
 21
-157.5440926311
 31
0.0
  0
LINE
  5
F6
330
1F
100
AcDbEntity
  8
0
  6
Continuous
 62
     7
370
    25
100
AcDbLine
 10
315.7558658284
 20
-157.6194014616
 30
0.0
 11
316.2659891514
 21
-157.466250385
 31
0.0
  0
LINE
  5
F7
330
1F
100
AcDbEntity
  8
0
  6
Continuous
 62
     7
370
    25
100
AcDbLine
 10
315.8717821791
 20
-157.8481460903
 30
0.0
 11
315.7558658284
 21
-157.6194014616
 31
0.0
  0
LINE
  5
F8
330
1F
100
AcDbEntity
  8
0
  6
Continuous
 62
     7
370
    25
100
AcDbLine
 10
316.5164447598
 20
-157.9259883364
 30
0.0
 11
315.8717821791
 21
-157.8481460903
 31
0.0
  0
LINE
  5
F9
330
1F
100
AcDbEntity
  8
0
  6
Continuous
 62
     7
370
    25
100
AcDbLine
 10
317.0358795363
 20
-157.7739616068
 30
0.0
 11
316.5164447598
 21
-157.9259883364
 31
0.0
  0
LINE
  5
FA
330
1F
100
AcDbEntity
  8
0
  6
Continuous
 62
     7
370
    25
100
AcDbLine
 10
315.2805276099
 20
-156.8003153455
 30
0.0
 11
315.7906509329
 21
-156.6471642688
 31
0.0
  0
LINE
  5
FB
330
1F
100
AcDbEntity
  8
0
  6
Continuous
 62
     7
370
    25
100
AcDbLine
 10
315.3964439606
 20
-157.0290599741
 30
0.0
 11
315.2805276099
 21
-156.8003153455
 31
0.0
  0
LINE
  5
FC
330
1F
100
AcDbEntity
  8
0
  6
Continuous
 62
     7
370
    25
100
AcDbLine
 10
316.0411065413
 20
-157.1069022202
 30
0.0
 11
315.3964439606
 21
-157.0290599741
 31
0.0
  0
LINE
  5
FD
330
1F
100
AcDbEntity
  8
0
  6
Continuous
 62
     7
370
    25
100
AcDbLine
 10
316.5605413178
 20
-156.9548754906
 30
0.0
 11
316.0411065413
 21
-157.1069022202
 31
0.0
  0
LINE
  5
FE
330
1F
100
AcDbEntity
  8
0
  6
Continuous
 62
     7
370
    25
100
AcDbLine
 10
316.4353135136
 20
-156.7250065149
 30
0.0
 11
316.5605413178
 21
-156.9548754906
 31
0.0
  0
LINE
  5
FF
330
1F
100
AcDbEntity
  8
0
  6
Continuous
 62
     7
370
    25
100
AcDbLine
 10
315.7906509329
 20
-156.6471642688
 30
0.0
 11
316.4353135136
 21
-156.7250065149
 31
0.0
  0
LINE
  5
100
330
1F
100
AcDbEntity
  8
0
  6
Continuous
 62
     7
370
    25
100
AcDbLine
 10
314.348385337
 20
-157.7033463818
 30
0.0
 11
314.85850866
 21
-157.5501953052
 31
0.0
  0
LINE
  5
101
330
1F
100
AcDbEntity
  8
0
  6
Continuous
 62
     7
370
    25
100
AcDbLine
 10
314.4643016877
 20
-157.9320910105
 30
0.0
 11
314.348385337
 21
-157.7033463818
 31
0.0
  0
LINE
  5
102
330
1F
100
AcDbEntity
  8
0
  6
Continuous
 62
     7
370
    25
100
AcDbLine
 10
315.1089642684
 20
-158.0099332566
 30
0.0
 11
314.4643016877
 21
-157.9320910105
 31
0.0
  0
LINE
  5
103
330
1F
100
AcDbEntity
  8
0
  6
Continuous
 62
     7
370
    25
100
AcDbLine
 10
315.6283990449
 20
-157.8579065269
 30
0.0
 11
315.1089642684
 21
-158.0099332566
 31
0.0
  0
LINE
  5
104
330
1F
100
AcDbEntity
  8
0
  6
Continuous
 62
     7
370
    25
100
AcDbLine
 10
315.5031712407
 20
-157.6280375513
 30
0.0
 11
315.6283990449
 21
-157.8579065269
 31
0.0
  0
LINE
  5
105
330
1F
100
AcDbEntity
  8
0
  6
Continuous
 62
     7
370
    25
100
AcDbLine
 10
314.85850866
 20
-157.5501953052
 30
0.0
 11
315.5031712407
 21
-157.6280375513
 31
0.0
  0
LINE
  5
106
330
1F
100
AcDbEntity
  8
0
  6
Continuous
 62
     7
370
    25
100
AcDbLine
 10
314.1050022028
 20
-157.7131068185
 30
0.0
 11
314.230230007
 21
-157.9429757942
 31
0.0
  0
LINE
  5
107
330
1F
100
AcDbEntity
  8
0
  6
Continuous
 62
     7
370
    25
100
AcDbLine
 10
314.1050022028
 20
-157.7131068185
 30
0.0
 11
313.4603396221
 21
-157.6352645724
 31
0.0
  0
LINE
  5
108
330
1F
100
AcDbEntity
  8
0
  6
Continuous
 62
     7
370
    25
100
AcDbLine
 10
313.4603396221
 20
-157.6352645724
 30
0.0
 11
312.9409048456
 21
-157.787291302
 31
0.0
  0
LINE
  5
109
330
1F
100
AcDbEntity
  8
0
  6
Continuous
 62
     7
370
    25
100
AcDbLine
 10
312.9409048456
 20
-157.787291302
 30
0.0
 11
313.0661326498
 21
-158.0171602777
 31
0.0
  0
LINE
  5
10A
330
1F
100
AcDbEntity
  8
0
  6
Continuous
 62
     7
370
    25
100
AcDbLine
 10
313.0661326498
 20
-158.0171602777
 30
0.0
 11
313.7107952305
 21
-158.0950025238
 31
0.0
  0
LINE
  5
10B
330
1F
100
AcDbEntity
  8
0
  6
Continuous
 62
     7
370
    25
100
AcDbLine
 10
314.230230007
 20
-157.9429757942
 30
0.0
 11
313.7107952305
 21
-158.0950025238
 31
0.0
  0
LINE
  5
10C
330
1F
100
AcDbEntity
  8
0
  6
Continuous
 62
     7
370
    25
100
AcDbLine
 10
315.0371444757
 20
-156.8100757821
 30
0.0
 11
315.1623722799
 21
-157.0399447578
 31
0.0
  0
LINE
  5
10D
330
1F
100
AcDbEntity
  8
0
  6
Continuous
 62
     7
370
    25
100
AcDbLine
 10
315.0371444757
 20
-156.8100757821
 30
0.0
 11
314.392481895
 21
-156.732233536
 31
0.0
  0
LINE
  5
10E
330
1F
100
AcDbEntity
  8
0
  6
Continuous
 62
     7
370
    25
100
AcDbLine
 10
314.392481895
 20
-156.732233536
 30
0.0
 11
313.8730471185
 21
-156.8842602657
 31
0.0
  0
LINE
  5
10F
330
1F
100
AcDbEntity
  8
0
  6
Continuous
 62
     7
370
    25
100
AcDbLine
 10
313.8730471185
 20
-156.8842602657
 30
0.0
 11
313.9982749227
 21
-157.1141292413
 31
0.0
  0
LINE
  5
110
330
1F
100
AcDbEntity
  8
0
  6
Continuous
 62
     7
370
    25
100
AcDbLine
 10
313.9982749227
 20
-157.1141292413
 30
0.0
 11
314.6429375034
 21
-157.1919714874
 31
0.0
  0
LINE
  5
111
330
1F
100
AcDbEntity
  8
0
  6
Continuous
 62
     7
370
    25
100
AcDbLine
 10
315.1623722799
 20
-157.0399447578
 30
0.0
 11
314.6429375034
 21
-157.1919714874
 31
0.0
  0
LINE
  5
112
330
1F
100
AcDbEntity
  8
0
  6
Continuous
 62
     7
370
    25
100
AcDbLine
 10
316.803924452
 20
-156.9451150539
 30
0.0
 11
316.7071926166
 21
-156.7542283703
 31
0.0
  0
LINE
  5
113
330
1F
100
AcDbEntity
  8
0
  6
Continuous
 62
     7
370
    25
100
AcDbLine
 10
317.4485870327
 20
-157.0229573
 30
0.0
 11
316.803924452
 21
-156.9451150539
 31
0.0
  0
LINE
  5
114
330
1F
100
AcDbEntity
  8
0
  6
Continuous
 62
     7
370
    25
100
AcDbLine
 10
317.5443660695
 20
-156.9949249571
 30
0.0
 11
317.4485870327
 21
-157.0229573
 31
0.0
  0
LINE
  5
115
330
1F
100
AcDbEntity
  8
0
  6
Continuous
 62
     7
370
    25
100
AcDbLine
 10
317.6294174562
 20
-157.0839410233
 30
0.0
 11
317.7186672573
 21
-157.0571461238
 31
0.0
  0
LINE
  5
116
330
1F
100
AcDbEntity
  8
0
  6
Continuous
 62
     7
370
    25
100
AcDbLine
 10
317.7453338069
 20
-157.3126856519
 30
0.0
 11
317.6294174562
 21
-157.0839410233
 31
0.0
  0
LINE
  5
117
330
1F
100
AcDbEntity
  8
0
  6
Continuous
 62
     7
370
    25
100
AcDbLine
 10
318.3899963876
 20
-157.390527898
 30
0.0
 11
317.7453338069
 21
-157.3126856519
 31
0.0
  0
LINE
  5
118
330
1F
100
AcDbEntity
  8
0
  6
Continuous
 62
     7
370
    25
100
AcDbLine
 10
318.4316554995
 20
-157.3783352247
 30
0.0
 11
318.3899963876
 21
-157.390527898
 31
0.0
  0
LINE
  5
119
330
1F
100
AcDbEntity
  8
0
  6
Continuous
 62
     7
370
    25
100
AcDbLine
 10
318.6867431618
 20
-157.6802562499
 30
0.0
 11
318.5763375575
 21
-157.4623863049
 31
0.0
  0
LINE
  5
11A
330
1F
100
AcDbEntity
  8
0
  6
Continuous
 62
     7
370
    25
100
AcDbLine
 10
318.9197839928
 20
-157.7083956553
 30
0.0
 11
318.6867431618
 21
-157.6802562499
 31
0.0
  0
LINE
  5
11B
330
1F
100
AcDbEntity
  8
0
  6
Continuous
 62
     7
370
    25
100
AcDbLine
 10
318.6241904512
 20
-157.7510004098
 30
0.0
 11
319.0188494624
 21
-157.7986550198
 31
0.0
  0
LINE
  5
11C
330
1F
100
AcDbEntity
  8
0
  6
Continuous
 62
     7
370
    25
100
AcDbLine
 10
318.1047556747
 20
-157.9030271394
 30
0.0
 11
318.6241904512
 21
-157.7510004098
 31
0.0
  0
LINE
  5
11D
330
1F
100
AcDbEntity
  8
0
  6
Continuous
 62
     7
370
    25
100
AcDbLine
 10
318.2299834789
 20
-158.1328961151
 30
0.0
 11
318.1047556747
 21
-157.9030271394
 31
0.0
  0
LINE
  5
11E
330
1F
100
AcDbEntity
  8
0
  6
Continuous
 62
     7
370
    25
100
AcDbLine
 10
318.8746460596
 20
-158.2107383612
 30
0.0
 11
318.2299834789
 21
-158.1328961151
 31
0.0
  0
LINE
  5
11F
330
1F
100
AcDbEntity
  8
0
  6
Continuous
 62
     7
370
    25
100
AcDbLine
 10
319.2560297922
 20
-158.0991160282
 30
0.0
 11
318.8746460596
 21
-158.2107383612
 31
0.0
  0
LINE
  5
120
330
1F
100
AcDbEntity
  8
0
  6
Continuous
 62
     7
370
    25
100
AcDbLine
 10
319.0647879366
 20
-158.2728464315
 30
0.0
 11
319.3059150485
 21
-158.2004543742
 31
0.0
  0
LINE
  5
121
330
1F
100
AcDbEntity
  8
0
  6
Continuous
 62
     7
370
    25
100
AcDbLine
 10
319.1807042873
 20
-158.5015910601
 30
0.0
 11
319.0647879366
 21
-158.2728464315
 31
0.0
  0
LINE
  5
122
330
1F
100
AcDbEntity
  8
0
  6
Continuous
 62
     7
370
    25
100
AcDbLine
 10
319.340890652
 20
-158.5209333747
 30
0.0
 11
319.1807042873
 21
-158.5015910601
 31
0.0
  0
LINE
  5
123
330
1F
100
AcDbEntity
  8
0
  6
Continuous
 62
     7
370
    25
100
AcDbLine
 10
319.1181515766
 20
-158.5723352201
 30
0.0
 11
319.3158193287
 21
-158.5962033679
 31
0.0
  0
LINE
  5
124
330
1F
100
AcDbEntity
  8
0
  6
Continuous
 62
     7
370
    25
100
AcDbLine
 10
318.5987168001
 20
-158.7243619497
 30
0.0
 11
319.1181515766
 21
-158.5723352201
 31
0.0
  0
LINE
  5
125
330
1F
100
AcDbEntity
  8
0
  6
Continuous
 62
     7
370
    25
100
AcDbLine
 10
318.7239446043
 20
-158.9542309253
 30
0.0
 11
318.5987168001
 21
-158.7243619497
 31
0.0
  0
LINE
  5
126
330
1F
100
AcDbEntity
  8
0
  6
Continuous
 62
     7
370
    25
100
AcDbLine
 10
319.0480452858
 20
-158.9933657003
 30
0.0
 11
318.7239446043
 21
-158.9542309253
 31
0.0
  0
LINE
  5
127
330
1F
100
AcDbEntity
  8
0
  6
Continuous
 62
     7
370
    25
100
AcDbLine
 10
318.9761811217
 20
-159.0629855132
 30
0.0
 11
318.6520804401
 21
-159.0238507382
 31
0.0
  0
LINE
  5
128
330
1F
100
AcDbEntity
  8
0
  6
Continuous
 62
     7
370
    25
100
AcDbLine
 10
318.6520804401
 20
-159.0238507382
 30
0.0
 11
318.1326456636
 21
-159.1758774679
 31
0.0
  0
LINE
  5
129
330
1F
100
AcDbEntity
  8
0
  6
Continuous
 62
     7
370
    25
100
AcDbLine
 10
318.1326456636
 20
-159.1758774679
 30
0.0
 11
318.2578734678
 21
-159.4057464435
 31
0.0
  0
LINE
  5
12A
330
1F
100
AcDbEntity
  8
0
  6
Continuous
 62
     7
370
    25
100
AcDbLine
 10
318.2578734678
 20
-159.4057464435
 30
0.0
 11
318.45554122
 21
-159.4296145914
 31
0.0
  0
LINE
  5
12B
330
1F
100
AcDbEntity
  8
0
  6
Continuous
 62
     7
370
    25
100
AcDbLine
 10
318.336884215
 20
-159.493584224
 30
0.0
 11
318.1766978502
 21
-159.4742419094
 31
0.0
  0
LINE
  5
12C
330
1F
100
AcDbEntity
  8
0
  6
Continuous
 62
     7
370
    25
100
AcDbLine
 10
318.1766978502
 20
-159.4742419094
 30
0.0
 11
317.6665745272
 21
-159.627392986
 31
0.0
  0
LINE
  5
12D
330
1F
100
AcDbEntity
  8
0
  6
Continuous
 62
     7
370
    25
100
AcDbLine
 10
317.6665745272
 20
-159.627392986
 30
0.0
 11
317.7331153046
 21
-159.7587018595
 31
0.0
  0
LINE
  5
12E
330
1F
100
AcDbEntity
  8
0
  6
Continuous
 62
     7
370
    25
100
AcDbLine
 10
317.5144021067
 20
-159.8365160404
 30
0.0
 11
317.404568486
 21
-159.6349047287
 31
0.0
  0
LINE
  5
12F
330
1F
100
AcDbEntity
  8
0
  6
Continuous
 62
     7
370
    25
100
AcDbLine
 10
317.404568486
 20
-159.6349047287
 30
0.0
 11
316.7599059053
 21
-159.5570624826
 31
0.0
  0
LINE
  5
130
330
1F
100
AcDbEntity
  8
0
  6
Continuous
 62
     7
370
    25
100
AcDbLine
 10
316.7599059053
 20
-159.5570624826
 30
0.0
 11
316.2404711288
 21
-159.7090892122
 31
0.0
  0
LINE
  5
131
330
1F
100
AcDbEntity
  8
0
  6
Continuous
 62
     7
370
    25
100
AcDbLine
 10
316.2404711288
 20
-159.7090892122
 30
0.0
 11
316.365698933
 21
-159.9389581879
 31
0.0
  0
LINE
  5
132
330
1F
100
AcDbEntity
  8
0
  6
Continuous
 62
     7
370
    25
100
AcDbLine
 10
316.365698933
 20
-159.9389581879
 30
0.0
 11
316.9402380921
 21
-160.0083331135
 31
0.0
  0
LINE
  5
133
330
1F
100
AcDbEntity
  8
0
  6
Continuous
 62
     7
370
    25
100
AcDbLine
 10
316.7307423525
 20
-160.061334076
 30
0.0
 11
316.2845233154
 21
-160.0074536538
 31
0.0
  0
LINE
  5
134
330
1F
100
AcDbEntity
  8
0
  6
Continuous
 62
     7
370
    25
100
AcDbLine
 10
316.2845233154
 20
-160.0074536538
 30
0.0
 11
315.7743999924
 21
-160.1606047304
 31
0.0
  0
LINE
  5
135
330
1F
100
AcDbEntity
  8
0
  6
Continuous
 62
     7
370
    25
100
AcDbLine
 10
315.7743999924
 20
-160.1606047304
 30
0.0
 11
315.8171199398
 21
-160.2449065433
 31
0.0
  0
LINE
  5
136
330
1F
100
AcDbEntity
  8
0
  6
Continuous
 62
     7
370
    25
100
AcDbLine
 10
315.5827288824
 20
-160.2812559144
 30
0.0
 11
315.5217054047
 21
-160.16924082
 31
0.0
  0
LINE
  5
137
330
1F
100
AcDbEntity
  8
0
  6
Continuous
 62
     7
370
    25
100
AcDbLine
 10
315.5217054047
 20
-160.16924082
 30
0.0
 11
314.877042824
 21
-160.0913985739
 31
0.0
  0
LINE
  5
138
330
1F
100
AcDbEntity
  8
0
  6
Continuous
 62
     7
370
    25
100
AcDbLine
 10
314.877042824
 20
-160.0913985739
 30
0.0
 11
314.366919501
 21
-160.2445496506
 31
0.0
  0
LINE
  5
139
330
1F
100
AcDbEntity
  8
0
  6
Continuous
 62
     7
370
    25
100
AcDbLine
 10
314.366919501
 20
-160.2445496506
 30
0.0
 11
314.4484273294
 21
-160.4053938959
 31
0.0
  0
LINE
  5
13A
330
1F
100
AcDbEntity
  8
0
  6
Continuous
 62
     7
370
    25
100
AcDbLine
 10
314.2060413323
 20
-160.4217245589
 30
0.0
 11
314.1142249133
 21
-160.2531857402
 31
0.0
  0
LINE
  5
13B
330
1F
100
AcDbEntity
  8
0
  6
Continuous
 62
     7
370
    25
100
AcDbLine
 10
314.1142249133
 20
-160.2531857402
 30
0.0
 11
313.4695623326
 21
-160.1753434941
 31
0.0
  0
LINE
  5
13C
330
1F
100
AcDbEntity
  8
0
  6
Continuous
 62
     7
370
    25
100
AcDbLine
 10
313.4695623326
 20
-160.1753434941
 30
0.0
 11
312.9594390096
 21
-160.3284945708
 31
0.0
  0
LINE
  5
13D
330
1F
100
AcDbEntity
  8
0
  6
Continuous
 62
     7
370
    25
100
AcDbLine
 10
312.9594390096
 20
-160.3284945708
 30
0.0
 11
313.0230492435
 21
-160.4540204283
 31
0.0
  0
LINE
  5
13E
330
1F
100
AcDbEntity
  8
0
  6
Continuous
 62
     7
370
    25
100
AcDbLine
 10
312.76872671
 20
-160.4509057534
 30
0.0
 11
312.7067444219
 21
-160.3371306604
 31
0.0
  0
LINE
  5
13F
330
1F
100
AcDbEntity
  8
0
  6
Continuous
 62
     7
370
    25
100
AcDbLine
 10
312.7067444219
 20
-160.3371306604
 30
0.0
 11
312.0620818412
 21
-160.2592884143
 31
0.0
  0
LINE
  5
140
330
1F
100
AcDbEntity
  8
0
  6
Continuous
 62
     7
370
    25
100
AcDbLine
 10
312.0620818412
 20
-160.2592884143
 30
0.0
 11
311.6204442405
 21
-160.3918784587
 31
0.0
  0
LINE
  5
141
330
1F
100
AcDbEntity
  8
0
  6
Continuous
 62
     7
370
    25
100
AcDbLine
 10
310.3764774826
 20
-160.0557536767
 30
0.0
 11
310.4768316846
 21
-160.2537885918
 31
0.0
  0
LINE
  5
142
330
1F
100
AcDbEntity
  8
0
  6
Continuous
 62
     7
370
    25
100
AcDbLine
 10
309.7318149019
 20
-159.9779114306
 30
0.0
 11
310.3764774826
 21
-160.0557536767
 31
0.0
  0
LINE
  5
143
330
1F
100
AcDbEntity
  8
0
  6
Continuous
 62
     7
370
    25
100
AcDbLine
 10
309.4747173974
 20
-160.0531580151
 30
0.0
 11
309.7318149019
 21
-159.9779114306
 31
0.0
  0
LINE
  5
144
330
1F
100
AcDbEntity
  8
0
  6
Continuous
 62
     7
370
    25
100
AcDbLine
 10
309.5509844784
 20
-159.9169277073
 30
0.0
 11
309.2710493038
 21
-160.0009708621
 31
0.0
  0
LINE
  5
145
330
1F
100
AcDbEntity
  8
0
  6
Continuous
 62
     7
370
    25
100
AcDbLine
 10
309.4350681277
 20
-159.6881830787
 30
0.0
 11
309.5509844784
 21
-159.9169277073
 31
0.0
  0
LINE
  5
146
330
1F
100
AcDbEntity
  8
0
  6
Continuous
 62
     7
370
    25
100
AcDbLine
 10
308.7904055470001
 20
-159.6103408326
 30
0.0
 11
309.4350681277
 21
-159.6881830787
 31
0.0
  0
LINE
  5
147
330
1F
100
AcDbEntity
  8
0
  6
Continuous
 62
     7
370
    25
100
AcDbLine
 10
308.4095584868
 20
-159.7218060938
 30
0.0
 11
308.7904055470001
 21
-159.6103408326
 31
0.0
  0
LINE
  5
148
330
1F
100
AcDbEntity
  8
0
  6
Continuous
 62
     7
370
    25
100
AcDbLine
 10
308.6095751235
 20
-159.5493571093
 30
0.0
 11
308.2508764237
 21
-159.6570469357
 31
0.0
  0
LINE
  5
149
330
1F
100
AcDbEntity
  8
0
  6
Continuous
 62
     7
370
    25
100
AcDbLine
 10
308.4936587727999
 20
-159.3206124807
 30
0.0
 11
308.6095751235
 21
-159.5493571093
 31
0.0
  0
LINE
  5
14A
330
1F
100
AcDbEntity
  8
0
  6
Continuous
 62
     7
370
    25
100
AcDbLine
 10
307.8489961921
 20
-159.2427702346
 30
0.0
 11
308.4936587727999
 21
-159.3206124807
 31
0.0
  0
LINE
  5
14B
330
1F
100
AcDbEntity
  8
0
  6
Continuous
 62
     7
370
    25
100
AcDbLine
 10
307.5958757553
 20
-159.316852822
 30
0.0
 11
307.8489961921
 21
-159.2427702346
 31
0.0
  0
LINE
  5
14C
330
1F
100
AcDbEntity
  8
0
  6
Continuous
 62
     7
370
    25
100
AcDbLine
 10
307.6681657686
 20
-159.1817865113
 30
0.0
 11
307.4801643226
 21
-159.2382289882
 31
0.0
  0
LINE
  5
14D
330
1F
100
AcDbEntity
  8
0
  6
Continuous
 62
     7
370
    25
100
AcDbLine
 10
307.5522494178
 20
-158.9530418827
 30
0.0
 11
307.6681657686
 21
-159.1817865113
 31
0.0
  0
LINE
  5
14E
330
1F
100
AcDbEntity
  8
0
  6
Continuous
 62
     7
370
    25
100
AcDbLine
 10
307.1060303808
 20
-158.8991614604
 30
0.0
 11
307.5522494178
 21
-158.9530418827
 31
0.0
  0
LINE
  5
14F
330
1F
100
AcDbEntity
  8
0
  6
Continuous
 62
     7
370
    25
100
AcDbLine
 10
307.6148021285
 20
-158.8822977227
 30
0.0
 11
307.0402629695
 21
-158.8129227971
 31
0.0
  0
LINE
  5
150
330
1F
100
AcDbEntity
  8
0
  6
Continuous
 62
     7
370
    25
100
AcDbLine
 10
308.134236905
 20
-158.7302709931
 30
0.0
 11
307.6148021285
 21
-158.8822977227
 31
0.0
  0
LINE
  5
151
330
1F
100
AcDbEntity
  8
0
  6
Continuous
 62
     7
370
    25
100
AcDbLine
 10
308.0090091008
 20
-158.5004020175
 30
0.0
 11
308.134236905
 21
-158.7302709931
 31
0.0
  0
LINE
  5
152
330
1F
100
AcDbEntity
  8
0
  6
Continuous
 62
     7
370
    25
100
AcDbLine
 10
307.3643465201
 20
-158.4225597714
 30
0.0
 11
308.0090091008
 21
-158.5004020175
 31
0.0
  0
LINE
  5
153
330
1F
100
AcDbEntity
  8
0
  6
Continuous
 62
     7
370
    25
100
AcDbLine
 10
306.9087655687
 20
-158.5558979406
 30
0.0
 11
307.3643465201
 21
-158.4225597714
 31
0.0
  0
LINE
  5
154
330
1F
100
AcDbEntity
  8
0
  6
Continuous
 62
     7
370
    25
100
AcDbLine
 10
307.1742046431
 20
-158.3604517011
 30
0.0
 11
306.8813727665
 21
-158.4483667506
 31
0.0
  0
LINE
  5
155
330
1F
100
AcDbEntity
  8
0
  6
Continuous
 62
     7
370
    25
100
AcDbLine
 10
307.0582882924
 20
-158.1317070724
 30
0.0
 11
307.1742046431
 21
-158.3604517011
 31
0.0
  0
LINE
  5
156
330
1F
100
AcDbEntity
  8
0
  6
Continuous
 62
     7
370
    25
100
AcDbLine
 10
306.9708664365
 20
-158.1211509865
 30
0.0
 11
307.0582882924
 21
-158.1317070724
 31
0.0
  0
LINE
  5
157
330
1F
100
AcDbEntity
  8
0
  6
Continuous
 62
     7
370
    25
100
AcDbLine
 10
307.1208410031
 20
-158.0609629125
 30
0.0
 11
307.0137151752
 21
-158.0480275952
 31
0.0
  0
LINE
  5
158
330
1F
100
AcDbEntity
  8
0
  6
Continuous
 62
     7
370
    25
100
AcDbLine
 10
307.6402757796
 20
-157.9089361829
 30
0.0
 11
307.1208410031
 21
-158.0609629125
 31
0.0
  0
LINE
  5
159
330
1F
100
AcDbEntity
  8
0
  6
Continuous
 62
     7
370
    25
100
AcDbLine
 10
307.5150479754
 20
-157.6790672072
 30
0.0
 11
307.6402757796
 21
-157.9089361829
 31
0.0
  0
LINE
  5
15A
330
1F
100
AcDbEntity
  8
0
  6
Continuous
 62
     7
370
    25
100
AcDbLine
 10
307.3752733972
 20
-157.6621895918
 30
0.0
 11
307.5150479754
 21
-157.6790672072
 31
0.0
  0
LINE
  5
15B
330
1F
100
AcDbEntity
  8
0
  6
Continuous
 62
     7
370
    25
100
AcDbLine
 10
307.4640739784
 20
-157.5946148313
 30
0.0
 11
307.5869121395
 21
-157.6094473943
 31
0.0
  0
LINE
  5
15C
330
1F
100
AcDbEntity
  8
0
  6
Continuous
 62
     7
370
    25
100
AcDbLine
 10
307.5869121395
 20
-157.6094473943
 30
0.0
 11
308.106346916
 21
-157.4574206647
 31
0.0
  0
LINE
  5
15D
330
1F
100
AcDbEntity
  8
0
  6
Continuous
 62
     7
370
    25
100
AcDbLine
 10
308.106346916
 20
-157.4574206647
 30
0.0
 11
308.0069679618
 21
-157.275000007
 31
0.0
  0
LINE
  5
15E
330
1F
100
AcDbEntity
  8
0
  6
Continuous
 62
     7
370
    25
100
AcDbLine
 10
308.8113025045
 20
-156.9559512638
 30
0.0
 11
308.8344240936
 21
-156.9983934039
 31
0.0
  0
LINE
  5
15F
330
1F
100
AcDbEntity
  8
0
  6
Continuous
 62
     7
370
    25
100
AcDbLine
 10
308.8344240936
 20
-156.9983934039
 30
0.0
 11
309.4790866743
 21
-157.07623565
 31
0.0
  0
LINE
  5
160
330
1F
100
AcDbEntity
  8
0
  6
Continuous
 62
     7
370
    25
100
AcDbLine
 10
309.4790866743
 20
-157.07623565
 30
0.0
 11
309.9985214508
 21
-156.9242089204
 31
0.0
  0
LINE
  5
161
330
1F
100
AcDbEntity
  8
0
  6
Continuous
 62
     7
370
    25
100
AcDbLine
 10
309.9985214508
 20
-156.9242089204
 30
0.0
 11
309.8732936466
 21
-156.6943399447
 31
0.0
  0
LINE
  5
162
330
1F
100
AcDbEntity
  8
0
  6
Continuous
 62
     7
370
    25
100
AcDbLine
 10
309.8732936466
 20
-156.6943399447
 30
0.0
 11
309.8236284086
 21
-156.6883429258
 31
0.0
  0
LINE
  5
163
330
1F
100
AcDbEntity
  8
0
  6
Continuous
 62
     7
370
    25
100
AcDbLine
 10
310.9813439384
 20
-156.4959418552
 30
0.0
 11
311.3619497557
 21
-156.5418995586
 31
0.0
  0
LINE
  5
164
330
1F
100
AcDbEntity
  8
0
  6
Continuous
 62
     7
370
    25
100
AcDbLine
 10
311.3619497557
 20
-156.5418995586
 30
0.0
 11
311.7789279823
 21
-156.4167128411
 31
0.0
  0
LINE
  5
165
330
1F
100
AcDbEntity
  8
0
  6
Continuous
 62
     7
370
    25
100
AcDbLine
 10
312.2059792642
 20
-156.389918597
 30
0.0
 11
312.7694302471
 21
-156.4579546384
 31
0.0
  0
LINE
  5
166
330
1F
100
AcDbEntity
  8
0
  6
Continuous
 62
     7
370
    25
100
AcDbLine
 10
312.7694302471
 20
-156.4579546384
 30
0.0
 11
313.072311215
 21
-156.3670226143
 31
0.0
  0
LINE
  5
167
330
1F
100
AcDbEntity
  8
0
  6
Continuous
 62
     7
370
    25
100
AcDbLine
 10
307.8836589138
 20
-157.8991757463
 30
0.0
 11
307.7584311096
 21
-157.6693067706
 31
0.0
  0
LINE
  5
168
330
1F
100
AcDbEntity
  8
0
  6
Continuous
 62
     7
370
    25
100
AcDbLine
 10
308.5283214945
 20
-157.9770179923
 30
0.0
 11
307.8836589138
 21
-157.8991757463
 31
0.0
  0
LINE
  5
169
330
1F
100
AcDbEntity
  8
0
  6
Continuous
 62
     7
370
    25
100
AcDbLine
 10
309.047756271
 20
-157.8249912627
 30
0.0
 11
308.5283214945
 21
-157.9770179923
 31
0.0
  0
LINE
  5
16A
330
1F
100
AcDbEntity
  8
0
  6
Continuous
 62
     7
370
    25
100
AcDbLine
 10
309.047756271
 20
-157.8249912627
 30
0.0
 11
308.9225284668
 21
-157.595122287
 31
0.0
  0
LINE
  5
16B
330
1F
100
AcDbEntity
  8
0
  6
Continuous
 62
     7
370
    25
100
AcDbLine
 10
308.9225284668
 20
-157.595122287
 30
0.0
 11
308.2778658861
 21
-157.517280041
 31
0.0
  0
LINE
  5
16C
330
1F
100
AcDbEntity
  8
0
  6
Continuous
 62
     7
370
    25
100
AcDbLine
 10
308.2778658861
 20
-157.517280041
 30
0.0
 11
307.7584311096
 21
-157.6693067706
 31
0.0
  0
LINE
  5
16D
330
1F
100
AcDbEntity
  8
0
  6
Continuous
 62
     7
370
    25
100
AcDbLine
 10
308.753248476
 20
-157.0668888698
 30
0.0
 11
308.2338136995
 21
-157.2189155994
 31
0.0
  0
LINE
  5
16E
330
1F
100
AcDbEntity
  8
0
  6
Continuous
 62
     7
370
    25
100
AcDbLine
 10
308.2338136995
 20
-157.2189155994
 30
0.0
 11
308.3590415037
 21
-157.4487845751
 31
0.0
  0
LINE
  5
16F
330
1F
100
AcDbEntity
  8
0
  6
Continuous
 62
     7
370
    25
100
AcDbLine
 10
308.3590415037
 20
-157.4487845751
 30
0.0
 11
309.0037040844
 21
-157.5266268212
 31
0.0
  0
LINE
  5
170
330
1F
100
AcDbEntity
  8
0
  6
Continuous
 62
     7
370
    25
100
AcDbLine
 10
309.0037040844
 20
-157.5266268212
 30
0.0
 11
309.5138274074
 21
-157.3734757445
 31
0.0
  0
LINE
  5
171
330
1F
100
AcDbEntity
  8
0
  6
Continuous
 62
     7
370
    25
100
AcDbLine
 10
309.5138274074
 20
-157.3734757445
 30
0.0
 11
309.3979110567
 21
-157.1447311159
 31
0.0
  0
LINE
  5
172
330
1F
100
AcDbEntity
  8
0
  6
Continuous
 62
     7
370
    25
100
AcDbLine
 10
309.3979110567
 20
-157.1447311159
 30
0.0
 11
308.753248476
 21
-157.0668888698
 31
0.0
  0
LINE
  5
173
330
1F
100
AcDbEntity
  8
0
  6
Continuous
 62
     7
370
    25
100
AcDbLine
 10
310.8958786192
 20
-156.9934150768
 30
0.0
 11
311.4060019422
 21
-156.8402640002
 31
0.0
  0
LINE
  5
174
330
1F
100
AcDbEntity
  8
0
  6
Continuous
 62
     7
370
    25
100
AcDbLine
 10
311.4060019422
 20
-156.8402640002
 30
0.0
 11
311.2900855915
 21
-156.6115193715
 31
0.0
  0
LINE
  5
175
330
1F
100
AcDbEntity
  8
0
  6
Continuous
 62
     7
370
    25
100
AcDbLine
 10
311.2900855915
 20
-156.6115193715
 30
0.0
 11
310.6749871634
 21
-156.537246962
 31
0.0
  0
LINE
  5
176
330
1F
100
AcDbEntity
  8
0
  6
Continuous
 62
     7
370
    25
100
AcDbLine
 10
310.5903056003
 20
-156.5498087363
 30
0.0
 11
310.1259882343
 21
-156.6857038551
 31
0.0
  0
LINE
  5
177
330
1F
100
AcDbEntity
  8
0
  6
Continuous
 62
     7
370
    25
100
AcDbLine
 10
310.1259882343
 20
-156.6857038551
 30
0.0
 11
310.2512160385
 21
-156.9155728307
 31
0.0
  0
LINE
  5
178
330
1F
100
AcDbEntity
  8
0
  6
Continuous
 62
     7
370
    25
100
AcDbLine
 10
310.2512160385
 20
-156.9155728307
 30
0.0
 11
310.8958786192
 21
-156.9934150768
 31
0.0
  0
LINE
  5
179
330
1F
100
AcDbEntity
  8
0
  6
Continuous
 62
     7
370
    25
100
AcDbLine
 10
310.1700404209
 20
-156.9840682966
 30
0.0
 11
309.6506056444
 21
-157.1360950262
 31
0.0
  0
LINE
  5
17A
330
1F
100
AcDbEntity
  8
0
  6
Continuous
 62
     7
370
    25
100
AcDbLine
 10
309.6506056444
 20
-157.1360950262
 30
0.0
 11
309.7758334486
 21
-157.3659640019
 31
0.0
  0
LINE
  5
17B
330
1F
100
AcDbEntity
  8
0
  6
Continuous
 62
     7
370
    25
100
AcDbLine
 10
309.7758334486
 20
-157.3659640019
 30
0.0
 11
310.4204960293
 21
-157.443806248
 31
0.0
  0
LINE
  5
17C
330
1F
100
AcDbEntity
  8
0
  6
Continuous
 62
     7
370
    25
100
AcDbLine
 10
310.4204960293
 20
-157.443806248
 30
0.0
 11
310.9399308058
 21
-157.2917795184
 31
0.0
  0
LINE
  5
17D
330
1F
100
AcDbEntity
  8
0
  6
Continuous
 62
     7
370
    25
100
AcDbLine
 10
310.9399308058
 20
-157.2917795184
 30
0.0
 11
310.8147030016
 21
-157.0619105427
 31
0.0
  0
LINE
  5
17E
330
1F
100
AcDbEntity
  8
0
  6
Continuous
 62
     7
370
    25
100
AcDbLine
 10
310.8147030016
 20
-157.0619105427
 30
0.0
 11
310.1700404209
 21
-156.9840682966
 31
0.0
  0
LINE
  5
17F
330
1F
100
AcDbEntity
  8
0
  6
Continuous
 62
     7
370
    25
100
AcDbLine
 10
309.6946578309
 20
-157.4344594678
 30
0.0
 11
309.1752230543999
 21
-157.5864861974
 31
0.0
  0
LINE
  5
180
330
1F
100
AcDbEntity
  8
0
  6
Continuous
 62
     7
370
    25
100
AcDbLine
 10
309.1752230543999
 20
-157.5864861974
 30
0.0
 11
309.3004508586
 21
-157.8163551731
 31
0.0
  0
LINE
  5
181
330
1F
100
AcDbEntity
  8
0
  6
Continuous
 62
     7
370
    25
100
AcDbLine
 10
309.3004508586
 20
-157.8163551731
 30
0.0
 11
309.9451134393
 21
-157.8941974191
 31
0.0
  0
LINE
  5
182
330
1F
100
AcDbEntity
  8
0
  6
Continuous
 62
     7
370
    25
100
AcDbLine
 10
309.9451134393
 20
-157.8941974191
 30
0.0
 11
310.4552367623
 21
-157.7410463425
 31
0.0
  0
LINE
  5
183
330
1F
100
AcDbEntity
  8
0
  6
Continuous
 62
     7
370
    25
100
AcDbLine
 10
310.4552367623
 20
-157.7410463425
 30
0.0
 11
310.3393204116
 21
-157.5123017139
 31
0.0
  0
LINE
  5
184
330
1F
100
AcDbEntity
  8
0
  6
Continuous
 62
     7
370
    25
100
AcDbLine
 10
310.3393204116
 20
-157.5123017139
 30
0.0
 11
309.6946578309
 21
-157.4344594678
 31
0.0
  0
LINE
  5
185
330
1F
100
AcDbEntity
  8
0
  6
Continuous
 62
     7
370
    25
100
AcDbLine
 10
310.2418602136
 20
-158.1839257711
 30
0.0
 11
310.1166324094
 21
-157.9540567954
 31
0.0
  0
LINE
  5
186
330
1F
100
AcDbEntity
  8
0
  6
Continuous
 62
     7
370
    25
100
AcDbLine
 10
310.8865227943
 20
-158.2617680171
 30
0.0
 11
310.2418602136
 21
-158.1839257711
 31
0.0
  0
LINE
  5
187
330
1F
100
AcDbEntity
  8
0
  6
Continuous
 62
     7
370
    25
100
AcDbLine
 10
311.4059575708
 20
-158.1097412875
 30
0.0
 11
310.8865227943
 21
-158.2617680171
 31
0.0
  0
LINE
  5
188
330
1F
100
AcDbEntity
  8
0
  6
Continuous
 62
     7
370
    25
100
AcDbLine
 10
311.4059575708
 20
-158.1097412875
 30
0.0
 11
311.2807297666
 21
-157.8798723119
 31
0.0
  0
LINE
  5
189
330
1F
100
AcDbEntity
  8
0
  6
Continuous
 62
     7
370
    25
100
AcDbLine
 10
311.2807297666
 20
-157.8798723119
 30
0.0
 11
310.6360671858
 21
-157.8020300658
 31
0.0
  0
LINE
  5
18A
330
1F
100
AcDbEntity
  8
0
  6
Continuous
 62
     7
370
    25
100
AcDbLine
 10
310.6360671858
 20
-157.8020300658
 30
0.0
 11
310.1166324094
 21
-157.9540567954
 31
0.0
  0
LINE
  5
18B
330
1F
100
AcDbEntity
  8
0
  6
Continuous
 62
     7
370
    25
100
AcDbLine
 10
311.3619053842
 20
-157.811376846
 30
0.0
 11
311.8720287072
 21
-157.6582257693
 31
0.0
  0
LINE
  5
18C
330
1F
100
AcDbEntity
  8
0
  6
Continuous
 62
     7
370
    25
100
AcDbLine
 10
311.8720287072
 20
-157.6582257693
 30
0.0
 11
311.7561123565
 21
-157.4294811407
 31
0.0
  0
LINE
  5
18D
330
1F
100
AcDbEntity
  8
0
  6
Continuous
 62
     7
370
    25
100
AcDbLine
 10
311.7561123565
 20
-157.4294811407
 30
0.0
 11
311.1114497758
 21
-157.3516388946
 31
0.0
  0
LINE
  5
18E
330
1F
100
AcDbEntity
  8
0
  6
Continuous
 62
     7
370
    25
100
AcDbLine
 10
311.1114497758
 20
-157.3516388946
 30
0.0
 11
310.5920149993
 21
-157.5036656242
 31
0.0
  0
LINE
  5
18F
330
1F
100
AcDbEntity
  8
0
  6
Continuous
 62
     7
370
    25
100
AcDbLine
 10
310.5920149993
 20
-157.5036656242
 30
0.0
 11
310.7172428035
 21
-157.7335345999
 31
0.0
  0
LINE
  5
190
330
1F
100
AcDbEntity
  8
0
  6
Continuous
 62
     7
370
    25
100
AcDbLine
 10
310.7172428035
 20
-157.7335345999
 30
0.0
 11
311.3619053842
 21
-157.811376846
 31
0.0
  0
LINE
  5
191
330
1F
100
AcDbEntity
  8
0
  6
Continuous
 62
     7
370
    25
100
AcDbLine
 10
311.8372879741
 20
-157.3609856748
 30
0.0
 11
312.3474112972
 21
-157.2078345982
 31
0.0
  0
LINE
  5
192
330
1F
100
AcDbEntity
  8
0
  6
Continuous
 62
     7
370
    25
100
AcDbLine
 10
312.3474112972
 20
-157.2078345982
 30
0.0
 11
312.2314949464
 21
-156.9790899695
 31
0.0
  0
LINE
  5
193
330
1F
100
AcDbEntity
  8
0
  6
Continuous
 62
     7
370
    25
100
AcDbLine
 10
312.2314949464
 20
-156.9790899695
 30
0.0
 11
311.5868323657
 21
-156.9012477235
 31
0.0
  0
LINE
  5
194
330
1F
100
AcDbEntity
  8
0
  6
Continuous
 62
     7
370
    25
100
AcDbLine
 10
311.5868323657
 20
-156.9012477235
 30
0.0
 11
311.0673975892
 21
-157.0532744531
 31
0.0
  0
LINE
  5
195
330
1F
100
AcDbEntity
  8
0
  6
Continuous
 62
     7
370
    25
100
AcDbLine
 10
311.0673975892
 20
-157.0532744531
 30
0.0
 11
311.1926253934
 21
-157.2831434287
 31
0.0
  0
LINE
  5
196
330
1F
100
AcDbEntity
  8
0
  6
Continuous
 62
     7
370
    25
100
AcDbLine
 10
311.1926253934
 20
-157.2831434287
 30
0.0
 11
311.8372879741
 21
-157.3609856748
 31
0.0
  0
LINE
  5
197
330
1F
100
AcDbEntity
  8
0
  6
Continuous
 62
     7
370
    25
100
AcDbLine
 10
311.6586965299
 20
-156.8316279106
 30
0.0
 11
312.3033591106
 21
-156.9094701566
 31
0.0
  0
LINE
  5
198
330
1F
100
AcDbEntity
  8
0
  6
Continuous
 62
     7
370
    25
100
AcDbLine
 10
312.3033591106
 20
-156.9094701566
 30
0.0
 11
312.8134824336
 21
-156.75631908
 31
0.0
  0
LINE
  5
199
330
1F
100
AcDbEntity
  8
0
  6
Continuous
 62
     7
370
    25
100
AcDbLine
 10
312.8134824336
 20
-156.75631908
 30
0.0
 11
312.6975660829
 21
-156.5275744513
 31
0.0
  0
LINE
  5
19A
330
1F
100
AcDbEntity
  8
0
  6
Continuous
 62
     7
370
    25
100
AcDbLine
 10
312.6975660829
 20
-156.5275744513
 30
0.0
 11
312.0529035022
 21
-156.4497322053
 31
0.0
  0
LINE
  5
19B
330
1F
100
AcDbEntity
  8
0
  6
Continuous
 62
     7
370
    25
100
AcDbLine
 10
312.0529035022
 20
-156.4497322053
 30
0.0
 11
311.5334687257
 21
-156.6017589349
 31
0.0
  0
LINE
  5
19C
330
1F
100
AcDbEntity
  8
0
  6
Continuous
 62
     7
370
    25
100
AcDbLine
 10
311.5334687257
 20
-156.6017589349
 30
0.0
 11
311.6586965299
 21
-156.8316279106
 31
0.0
  0
LINE
  5
19D
330
1F
100
AcDbEntity
  8
0
  6
Continuous
 62
     7
370
    25
100
AcDbLine
 10
312.9409492171
 20
-156.5178140147
 30
0.0
 11
313.0661770213
 21
-156.7476829904
 31
0.0
  0
LINE
  5
19E
330
1F
100
AcDbEntity
  8
0
  6
Continuous
 62
     7
370
    25
100
AcDbLine
 10
313.0661770213
 20
-156.7476829904
 30
0.0
 11
313.710839602
 21
-156.8255252364
 31
0.0
  0
LINE
  5
19F
330
1F
100
AcDbEntity
  8
0
  6
Continuous
 62
     7
370
    25
100
AcDbLine
 10
313.710839602
 20
-156.8255252364
 30
0.0
 11
314.220962925
 21
-156.6723741598
 31
0.0
  0
LINE
  5
1A0
330
1F
100
AcDbEntity
  8
0
  6
Continuous
 62
     7
370
    25
100
AcDbLine
 10
314.220962925
 20
-156.6723741598
 30
0.0
 11
314.1050465743
 21
-156.4436295311
 31
0.0
  0
LINE
  5
1A1
330
1F
100
AcDbEntity
  8
0
  6
Continuous
 62
     7
370
    25
100
AcDbLine
 10
314.1050465743
 20
-156.4436295311
 30
0.0
 11
313.5035675004
 21
-156.3710016426
 31
0.0
  0
LINE
  5
1A2
330
1F
100
AcDbEntity
  8
0
  6
Continuous
 62
     7
370
    25
100
AcDbLine
 10
313.446375393
 20
-156.3698872834
 30
0.0
 11
312.9409492171
 21
-156.5178140147
 31
0.0
  0
LINE
  5
1A3
330
1F
100
AcDbEntity
  8
0
  6
Continuous
 62
     7
370
    25
100
AcDbLine
 10
312.4748780806001
 20
-156.9693295329
 30
0.0
 11
312.6001058848
 21
-157.1991985085
 31
0.0
  0
LINE
  5
1A4
330
1F
100
AcDbEntity
  8
0
  6
Continuous
 62
     7
370
    25
100
AcDbLine
 10
312.6001058848
 20
-157.1991985085
 30
0.0
 11
313.2447684655
 21
-157.2770407546
 31
0.0
  0
LINE
  5
1A5
330
1F
100
AcDbEntity
  8
0
  6
Continuous
 62
     7
370
    25
100
AcDbLine
 10
313.2447684655
 20
-157.2770407546
 30
0.0
 11
313.7548917885
 21
-157.123889678
 31
0.0
  0
LINE
  5
1A6
330
1F
100
AcDbEntity
  8
0
  6
Continuous
 62
     7
370
    25
100
AcDbLine
 10
313.7548917885
 20
-157.123889678
 30
0.0
 11
313.6389754378
 21
-156.8951450493
 31
0.0
  0
LINE
  5
1A7
330
1F
100
AcDbEntity
  8
0
  6
Continuous
 62
     7
370
    25
100
AcDbLine
 10
313.6389754378
 20
-156.8951450493
 30
0.0
 11
312.9943128571
 21
-156.8173028033
 31
0.0
  0
LINE
  5
1A8
330
1F
100
AcDbEntity
  8
0
  6
Continuous
 62
     7
370
    25
100
AcDbLine
 10
312.9943128571
 20
-156.8173028033
 30
0.0
 11
312.4748780806001
 21
-156.9693295329
 31
0.0
  0
LINE
  5
1A9
330
1F
100
AcDbEntity
  8
0
  6
Continuous
 62
     7
370
    25
100
AcDbLine
 10
312.0088069442
 20
-157.4208450511
 30
0.0
 11
312.1340347484
 21
-157.6507140267
 31
0.0
  0
LINE
  5
1AA
330
1F
100
AcDbEntity
  8
0
  6
Continuous
 62
     7
370
    25
100
AcDbLine
 10
312.1340347484
 20
-157.6507140267
 30
0.0
 11
312.7786973291
 21
-157.7285562728
 31
0.0
  0
LINE
  5
1AB
330
1F
100
AcDbEntity
  8
0
  6
Continuous
 62
     7
370
    25
100
AcDbLine
 10
312.7786973291
 20
-157.7285562728
 30
0.0
 11
313.2888206521
 21
-157.5754051962
 31
0.0
  0
LINE
  5
1AC
330
1F
100
AcDbEntity
  8
0
  6
Continuous
 62
     7
370
    25
100
AcDbLine
 10
313.2888206521
 20
-157.5754051962
 30
0.0
 11
313.1729043014
 21
-157.3466605675
 31
0.0
  0
LINE
  5
1AD
330
1F
100
AcDbEntity
  8
0
  6
Continuous
 62
     7
370
    25
100
AcDbLine
 10
313.1729043014
 20
-157.3466605675
 30
0.0
 11
312.5282417207
 21
-157.2688183215
 31
0.0
  0
LINE
  5
1AE
330
1F
100
AcDbEntity
  8
0
  6
Continuous
 62
     7
370
    25
100
AcDbLine
 10
312.5282417207
 20
-157.2688183215
 30
0.0
 11
312.0088069442
 21
-157.4208450511
 31
0.0
  0
LINE
  5
1AF
330
1F
100
AcDbEntity
  8
0
  6
Continuous
 62
     7
370
    25
100
AcDbLine
 10
311.5334243542
 20
-157.8712362222
 30
0.0
 11
311.6586521584
 21
-158.1011051979
 31
0.0
  0
LINE
  5
1B0
330
1F
100
AcDbEntity
  8
0
  6
Continuous
 62
     7
370
    25
100
AcDbLine
 10
311.6586521584
 20
-158.1011051979
 30
0.0
 11
312.3033147391
 21
-158.178947444
 31
0.0
  0
LINE
  5
1B1
330
1F
100
AcDbEntity
  8
0
  6
Continuous
 62
     7
370
    25
100
AcDbLine
 10
312.3033147391
 20
-158.178947444
 30
0.0
 11
312.8227495156
 21
-158.0269207144
 31
0.0
  0
LINE
  5
1B2
330
1F
100
AcDbEntity
  8
0
  6
Continuous
 62
     7
370
    25
100
AcDbLine
 10
312.8227495156
 20
-158.0269207144
 30
0.0
 11
312.6975217114
 21
-157.7970517387
 31
0.0
  0
LINE
  5
1B3
330
1F
100
AcDbEntity
  8
0
  6
Continuous
 62
     7
370
    25
100
AcDbLine
 10
312.6975217114
 20
-157.7970517387
 30
0.0
 11
312.0528591307
 21
-157.7192094926
 31
0.0
  0
LINE
  5
1B4
330
1F
100
AcDbEntity
  8
0
  6
Continuous
 62
     7
370
    25
100
AcDbLine
 10
312.0528591307
 20
-157.7192094926
 30
0.0
 11
311.5334243542
 21
-157.8712362222
 31
0.0
  0
LINE
  5
1B5
330
1F
100
AcDbEntity
  8
0
  6
Continuous
 62
     7
370
    25
100
AcDbLine
 10
307.9208603562
 20
-159.1731504217
 30
0.0
 11
307.795632552
 21
-158.943281446
 31
0.0
  0
LINE
  5
1B6
330
1F
100
AcDbEntity
  8
0
  6
Continuous
 62
     7
370
    25
100
AcDbLine
 10
308.5655229369
 20
-159.2509926678
 30
0.0
 11
307.9208603562
 21
-159.1731504217
 31
0.0
  0
LINE
  5
1B7
330
1F
100
AcDbEntity
  8
0
  6
Continuous
 62
     7
370
    25
100
AcDbLine
 10
309.0756462599
 20
-159.0978415911
 30
0.0
 11
308.5655229369
 21
-159.2509926678
 31
0.0
  0
LINE
  5
1B8
330
1F
100
AcDbEntity
  8
0
  6
Continuous
 62
     7
370
    25
100
AcDbLine
 10
308.9597299092
 20
-158.8690969625
 30
0.0
 11
309.0756462599
 21
-159.0978415911
 31
0.0
  0
LINE
  5
1B9
330
1F
100
AcDbEntity
  8
0
  6
Continuous
 62
     7
370
    25
100
AcDbLine
 10
308.3150673285
 20
-158.7912547164
 30
0.0
 11
308.9597299092
 21
-158.8690969625
 31
0.0
  0
LINE
  5
1BA
330
1F
100
AcDbEntity
  8
0
  6
Continuous
 62
     7
370
    25
100
AcDbLine
 10
307.795632552
 20
-158.943281446
 30
0.0
 11
308.3150673285
 21
-158.7912547164
 31
0.0
  0
LINE
  5
1BB
330
1F
100
AcDbEntity
  8
0
  6
Continuous
 62
     7
370
    25
100
AcDbLine
 10
309.8732492752
 20
-157.9638172321
 30
0.0
 11
309.9891656259
 21
-158.1925618607
 31
0.0
  0
LINE
  5
1BC
330
1F
100
AcDbEntity
  8
0
  6
Continuous
 62
     7
370
    25
100
AcDbLine
 10
309.2285866945
 20
-157.885974986
 30
0.0
 11
309.8732492752
 21
-157.9638172321
 31
0.0
  0
LINE
  5
1BD
330
1F
100
AcDbEntity
  8
0
  6
Continuous
 62
     7
370
    25
100
AcDbLine
 10
308.709151918
 20
-158.0380017156
 30
0.0
 11
309.2285866945
 21
-157.885974986
 31
0.0
  0
LINE
  5
1BE
330
1F
100
AcDbEntity
  8
0
  6
Continuous
 62
     7
370
    25
100
AcDbLine
 10
308.8343797222
 20
-158.2678706913
 30
0.0
 11
308.709151918
 21
-158.0380017156
 31
0.0
  0
LINE
  5
1BF
330
1F
100
AcDbEntity
  8
0
  6
Continuous
 62
     7
370
    25
100
AcDbLine
 10
309.4790423029
 20
-158.3457129373
 30
0.0
 11
308.8343797222
 21
-158.2678706913
 31
0.0
  0
LINE
  5
1C0
330
1F
100
AcDbEntity
  8
0
  6
Continuous
 62
     7
370
    25
100
AcDbLine
 10
309.9891656259
 20
-158.1925618607
 30
0.0
 11
309.4790423029
 21
-158.3457129373
 31
0.0
  0
LINE
  5
1C1
330
1F
100
AcDbEntity
  8
0
  6
Continuous
 62
     7
370
    25
100
AcDbLine
 10
309.7851005306
 20
-158.6365656363
 30
0.0
 11
309.6598727264
 21
-158.4066966606
 31
0.0
  0
LINE
  5
1C2
330
1F
100
AcDbEntity
  8
0
  6
Continuous
 62
     7
370
    25
100
AcDbLine
 10
310.4297631113
 20
-158.7144078824
 30
0.0
 11
309.7851005306
 21
-158.6365656363
 31
0.0
  0
LINE
  5
1C3
330
1F
100
AcDbEntity
  8
0
  6
Continuous
 62
     7
370
    25
100
AcDbLine
 10
310.9398864343
 20
-158.5612568057
 30
0.0
 11
310.4297631113
 21
-158.7144078824
 31
0.0
  0
LINE
  5
1C4
330
1F
100
AcDbEntity
  8
0
  6
Continuous
 62
     7
370
    25
100
AcDbLine
 10
310.8239700836
 20
-158.3325121771
 30
0.0
 11
310.9398864343
 21
-158.5612568057
 31
0.0
  0
LINE
  5
1C5
330
1F
100
AcDbEntity
  8
0
  6
Continuous
 62
     7
370
    25
100
AcDbLine
 10
310.1793075029001
 20
-158.254669931
 30
0.0
 11
310.8239700836
 21
-158.3325121771
 31
0.0
  0
LINE
  5
1C6
330
1F
100
AcDbEntity
  8
0
  6
Continuous
 62
     7
370
    25
100
AcDbLine
 10
309.6598727264
 20
-158.4066966606
 30
0.0
 11
310.1793075029001
 21
-158.254669931
 31
0.0
  0
LINE
  5
1C7
330
1F
100
AcDbEntity
  8
0
  6
Continuous
 62
     7
370
    25
100
AcDbLine
 10
309.5069322919
 20
-159.6185632658
 30
0.0
 11
308.8622697111
 21
-159.5407210197
 31
0.0
  0
LINE
  5
1C8
330
1F
100
AcDbEntity
  8
0
  6
Continuous
 62
     7
370
    25
100
AcDbLine
 10
310.0170556149
 20
-159.4654121891
 30
0.0
 11
309.5069322919
 21
-159.6185632658
 31
0.0
  0
LINE
  5
1C9
330
1F
100
AcDbEntity
  8
0
  6
Continuous
 62
     7
370
    25
100
AcDbLine
 10
309.9011392641
 20
-159.2366675605
 30
0.0
 11
310.0170556149
 21
-159.4654121891
 31
0.0
  0
LINE
  5
1CA
330
1F
100
AcDbEntity
  8
0
  6
Continuous
 62
     7
370
    25
100
AcDbLine
 10
309.2564766834
 20
-159.1588253144
 30
0.0
 11
309.9011392641
 21
-159.2366675605
 31
0.0
  0
LINE
  5
1CB
330
1F
100
AcDbEntity
  8
0
  6
Continuous
 62
     7
370
    25
100
AcDbLine
 10
308.7370419069
 20
-159.310852044
 30
0.0
 11
309.2564766834
 21
-159.1588253144
 31
0.0
  0
LINE
  5
1CC
330
1F
100
AcDbEntity
  8
0
  6
Continuous
 62
     7
370
    25
100
AcDbLine
 10
308.8622697111
 20
-159.5407210197
 30
0.0
 11
308.7370419069
 21
-159.310852044
 31
0.0
  0
LINE
  5
1CD
330
1F
100
AcDbEntity
  8
0
  6
Continuous
 62
     7
370
    25
100
AcDbLine
 10
311.4245361062
 20
-159.3814672689
 30
0.0
 11
310.9144127832
 21
-159.5346183456
 31
0.0
  0
LINE
  5
1CE
330
1F
100
AcDbEntity
  8
0
  6
Continuous
 62
     7
370
    25
100
AcDbLine
 10
311.3086197555
 20
-159.1527226403
 30
0.0
 11
311.4245361062
 21
-159.3814672689
 31
0.0
  0
LINE
  5
1CF
330
1F
100
AcDbEntity
  8
0
  6
Continuous
 62
     7
370
    25
100
AcDbLine
 10
310.6639571748
 20
-159.0748803942
 30
0.0
 11
311.3086197555
 21
-159.1527226403
 31
0.0
  0
LINE
  5
1D0
330
1F
100
AcDbEntity
  8
0
  6
Continuous
 62
     7
370
    25
100
AcDbLine
 10
310.1445223983
 20
-159.2269071238
 30
0.0
 11
310.6639571748
 21
-159.0748803942
 31
0.0
  0
LINE
  5
1D1
330
1F
100
AcDbEntity
  8
0
  6
Continuous
 62
     7
370
    25
100
AcDbLine
 10
310.2697502025
 20
-159.4567760995
 30
0.0
 11
310.1445223983
 21
-159.2269071238
 31
0.0
  0
LINE
  5
1D2
330
1F
100
AcDbEntity
  8
0
  6
Continuous
 62
     7
370
    25
100
AcDbLine
 10
310.9144127832
 20
-159.5346183456
 30
0.0
 11
310.2697502025
 21
-159.4567760995
 31
0.0
  0
LINE
  5
1D3
330
1F
100
AcDbEntity
  8
0
  6
Continuous
 62
     7
370
    25
100
AcDbLine
 10
312.3566783792
 20
-158.4784362326
 30
0.0
 11
311.8372436027
 21
-158.6304629622
 31
0.0
  0
LINE
  5
1D4
330
1F
100
AcDbEntity
  8
0
  6
Continuous
 62
     7
370
    25
100
AcDbLine
 10
312.231450575
 20
-158.2485672569
 30
0.0
 11
312.3566783792
 21
-158.4784362326
 31
0.0
  0
LINE
  5
1D5
330
1F
100
AcDbEntity
  8
0
  6
Continuous
 62
     7
370
    25
100
AcDbLine
 10
311.5867879943
 20
-158.1707250108
 30
0.0
 11
312.231450575
 21
-158.2485672569
 31
0.0
  0
LINE
  5
1D6
330
1F
100
AcDbEntity
  8
0
  6
Continuous
 62
     7
370
    25
100
AcDbLine
 10
311.0673532178
 20
-158.3227517404
 30
0.0
 11
311.5867879943
 21
-158.1707250108
 31
0.0
  0
LINE
  5
1D7
330
1F
100
AcDbEntity
  8
0
  6
Continuous
 62
     7
370
    25
100
AcDbLine
 10
311.192581022
 20
-158.5526207161
 30
0.0
 11
311.0673532178
 21
-158.3227517404
 31
0.0
  0
LINE
  5
1D8
330
1F
100
AcDbEntity
  8
0
  6
Continuous
 62
     7
370
    25
100
AcDbLine
 10
311.8372436027
 20
-158.6304629622
 30
0.0
 11
311.192581022
 21
-158.5526207161
 31
0.0
  0
LINE
  5
1D9
330
1F
100
AcDbEntity
  8
0
  6
Continuous
 62
     7
370
    25
100
AcDbLine
 10
311.6679192404
 20
-159.3717068323
 30
0.0
 11
311.5426914362
 21
-159.1418378566
 31
0.0
  0
LINE
  5
1DA
330
1F
100
AcDbEntity
  8
0
  6
Continuous
 62
     7
370
    25
100
AcDbLine
 10
311.6679192404
 20
-159.3717068323
 30
0.0
 11
312.3125818211
 21
-159.4495490783
 31
0.0
  0
LINE
  5
1DB
330
1F
100
AcDbEntity
  8
0
  6
Continuous
 62
     7
370
    25
100
AcDbLine
 10
312.3125818211
 20
-159.4495490783
 30
0.0
 11
312.8320165976
 21
-159.2975223487
 31
0.0
  0
LINE
  5
1DC
330
1F
100
AcDbEntity
  8
0
  6
Continuous
 62
     7
370
    25
100
AcDbLine
 10
312.8320165976
 20
-159.2975223487
 30
0.0
 11
312.7067887934
 21
-159.0676533731
 31
0.0
  0
LINE
  5
1DD
330
1F
100
AcDbEntity
  8
0
  6
Continuous
 62
     7
370
    25
100
AcDbLine
 10
312.7067887934
 20
-159.0676533731
 30
0.0
 11
312.0621262127
 21
-158.989811127
 31
0.0
  0
LINE
  5
1DE
330
1F
100
AcDbEntity
  8
0
  6
Continuous
 62
     7
370
    25
100
AcDbLine
 10
311.5426914362
 20
-159.1418378566
 30
0.0
 11
312.0621262127
 21
-158.989811127
 31
0.0
  0
LINE
  5
1DF
330
1F
100
AcDbEntity
  8
0
  6
Continuous
 62
     7
370
    25
100
AcDbLine
 10
310.7357769675
 20
-160.2747378687
 30
0.0
 11
310.6105491633
 21
-160.044868893
 31
0.0
  0
LINE
  5
1E0
330
1F
100
AcDbEntity
  8
0
  6
Continuous
 62
     7
370
    25
100
AcDbLine
 10
310.7357769675
 20
-160.2747378687
 30
0.0
 11
311.3804395482
 21
-160.3525801147
 31
0.0
  0
LINE
  5
1E1
330
1F
100
AcDbEntity
  8
0
  6
Continuous
 62
     7
370
    25
100
AcDbLine
 10
311.3804395482
 20
-160.3525801147
 30
0.0
 11
311.8998743247
 21
-160.2005533851
 31
0.0
  0
LINE
  5
1E2
330
1F
100
AcDbEntity
  8
0
  6
Continuous
 62
     7
370
    25
100
AcDbLine
 10
311.8998743247
 20
-160.2005533851
 30
0.0
 11
311.7746465205
 21
-159.9706844094
 31
0.0
  0
LINE
  5
1E3
330
1F
100
AcDbEntity
  8
0
  6
Continuous
 62
     7
370
    25
100
AcDbLine
 10
311.7746465205
 20
-159.9706844094
 30
0.0
 11
311.1299839398
 21
-159.8928421634
 31
0.0
  0
LINE
  5
1E4
330
1F
100
AcDbEntity
  8
0
  6
Continuous
 62
     7
370
    25
100
AcDbLine
 10
310.6105491633
 20
-160.044868893
 30
0.0
 11
311.1299839398
 21
-159.8928421634
 31
0.0
  0
LINE
  5
1E5
330
1F
100
AcDbEntity
  8
0
  6
Continuous
 62
     7
370
    25
100
AcDbLine
 10
314.7055682255
 20
-158.7620619103
 30
0.0
 11
314.5803404213
 21
-158.5321929347
 31
0.0
  0
LINE
  5
1E6
330
1F
100
AcDbEntity
  8
0
  6
Continuous
 62
     7
370
    25
100
AcDbLine
 10
314.5803404213
 20
-158.5321929347
 30
0.0
 11
313.9356778406
 21
-158.4543506886
 31
0.0
  0
LINE
  5
1E7
330
1F
100
AcDbEntity
  8
0
  6
Continuous
 62
     7
370
    25
100
AcDbLine
 10
313.9356778406
 20
-158.4543506886
 30
0.0
 11
313.4162430641
 21
-158.6063774182
 31
0.0
  0
LINE
  5
1E8
330
1F
100
AcDbEntity
  8
0
  6
Continuous
 62
     7
370
    25
100
AcDbLine
 10
313.4162430641
 20
-158.6063774182
 30
0.0
 11
313.5414708683
 21
-158.8362463939
 31
0.0
  0
LINE
  5
1E9
330
1F
100
AcDbEntity
  8
0
  6
Continuous
 62
     7
370
    25
100
AcDbLine
 10
313.5414708683
 20
-158.8362463939
 30
0.0
 11
314.186133449
 21
-158.91408864
 31
0.0
  0
LINE
  5
1EA
330
1F
100
AcDbEntity
  8
0
  6
Continuous
 62
     7
370
    25
100
AcDbLine
 10
314.186133449
 20
-158.91408864
 30
0.0
 11
314.7055682255
 21
-158.7620619103
 31
0.0
  0
LINE
  5
1EB
330
1F
100
AcDbEntity
  8
0
  6
Continuous
 62
     7
370
    25
100
AcDbLine
 10
314.2301856355
 20
-159.2124530815
 30
0.0
 11
314.1049578313
 21
-158.9825841058
 31
0.0
  0
LINE
  5
1EC
330
1F
100
AcDbEntity
  8
0
  6
Continuous
 62
     7
370
    25
100
AcDbLine
 10
314.1049578313
 20
-158.9825841058
 30
0.0
 11
313.4602952506
 21
-158.9047418598
 31
0.0
  0
LINE
  5
1ED
330
1F
100
AcDbEntity
  8
0
  6
Continuous
 62
     7
370
    25
100
AcDbLine
 10
313.4602952506
 20
-158.9047418598
 30
0.0
 11
312.9501719276
 21
-159.0578929363999
 31
0.0
  0
LINE
  5
1EE
330
1F
100
AcDbEntity
  8
0
  6
Continuous
 62
     7
370
    25
100
AcDbLine
 10
312.9501719276
 20
-159.0578929363999
 30
0.0
 11
313.0660882783
 21
-159.2866375651
 31
0.0
  0
LINE
  5
1EF
330
1F
100
AcDbEntity
  8
0
  6
Continuous
 62
     7
370
    25
100
AcDbLine
 10
313.0660882783
 20
-159.2866375651
 30
0.0
 11
313.710750859
 21
-159.3644798111
 31
0.0
  0
LINE
  5
1F0
330
1F
100
AcDbEntity
  8
0
  6
Continuous
 62
     7
370
    25
100
AcDbLine
 10
313.710750859
 20
-159.3644798111
 30
0.0
 11
314.2301856355
 21
-159.2124530815
 31
0.0
  0
LINE
  5
1F1
330
1F
100
AcDbEntity
  8
0
  6
Continuous
 62
     7
370
    25
100
AcDbLine
 10
313.7641144991
 20
-159.6639685997
 30
0.0
 11
313.6388866949
 21
-159.434099624
 31
0.0
  0
LINE
  5
1F2
330
1F
100
AcDbEntity
  8
0
  6
Continuous
 62
     7
370
    25
100
AcDbLine
 10
313.6388866949
 20
-159.434099624
 30
0.0
 11
312.9942241142
 21
-159.356257378
 31
0.0
  0
LINE
  5
1F3
330
1F
100
AcDbEntity
  8
0
  6
Continuous
 62
     7
370
    25
100
AcDbLine
 10
312.9942241142
 20
-159.356257378
 30
0.0
 11
312.4841007911
 21
-159.5094084546
 31
0.0
  0
LINE
  5
1F4
330
1F
100
AcDbEntity
  8
0
  6
Continuous
 62
     7
370
    25
100
AcDbLine
 10
312.4841007911
 20
-159.5094084546
 30
0.0
 11
312.6000171419
 21
-159.7381530832
 31
0.0
  0
LINE
  5
1F5
330
1F
100
AcDbEntity
  8
0
  6
Continuous
 62
     7
370
    25
100
AcDbLine
 10
312.6000171419
 20
-159.7381530832
 30
0.0
 11
313.2446797226
 21
-159.8159953293
 31
0.0
  0
LINE
  5
1F6
330
1F
100
AcDbEntity
  8
0
  6
Continuous
 62
     7
370
    25
100
AcDbLine
 10
313.2446797226
 20
-159.8159953293
 30
0.0
 11
313.7641144991
 21
-159.6639685997
 31
0.0
  0
LINE
  5
1F7
330
1F
100
AcDbEntity
  8
0
  6
Continuous
 62
     7
370
    25
100
AcDbLine
 10
313.2980433626
 20
-160.1154841179
 30
0.0
 11
313.1728155584
 21
-159.8856151422
 31
0.0
  0
LINE
  5
1F8
330
1F
100
AcDbEntity
  8
0
  6
Continuous
 62
     7
370
    25
100
AcDbLine
 10
313.1728155584
 20
-159.8856151422
 30
0.0
 11
312.5281529777
 21
-159.8077728961
 31
0.0
  0
LINE
  5
1F9
330
1F
100
AcDbEntity
  8
0
  6
Continuous
 62
     7
370
    25
100
AcDbLine
 10
312.5281529777
 20
-159.8077728961
 30
0.0
 11
312.0180296547
 21
-159.9609239728
 31
0.0
  0
LINE
  5
1FA
330
1F
100
AcDbEntity
  8
0
  6
Continuous
 62
     7
370
    25
100
AcDbLine
 10
312.0180296547
 20
-159.9609239728
 30
0.0
 11
312.1339460054
 21
-160.1896686014
 31
0.0
  0
LINE
  5
1FB
330
1F
100
AcDbEntity
  8
0
  6
Continuous
 62
     7
370
    25
100
AcDbLine
 10
312.1339460054
 20
-160.1896686014
 30
0.0
 11
312.7786085861
 21
-160.2675108475
 31
0.0
  0
LINE
  5
1FC
330
1F
100
AcDbEntity
  8
0
  6
Continuous
 62
     7
370
    25
100
AcDbLine
 10
312.7786085861
 20
-160.2675108475
 30
0.0
 11
313.2980433626
 21
-160.1154841179
 31
0.0
  0
LINE
  5
1FD
330
1F
100
AcDbEntity
  8
0
  6
Continuous
 62
     7
370
    25
100
AcDbLine
 10
314.5802960498
 20
-159.801670222
 30
0.0
 11
313.9356334691
 21
-159.723827976
 31
0.0
  0
LINE
  5
1FE
330
1F
100
AcDbEntity
  8
0
  6
Continuous
 62
     7
370
    25
100
AcDbLine
 10
313.9356334691
 20
-159.723827976
 30
0.0
 11
313.4255101461
 21
-159.8769790526
 31
0.0
  0
LINE
  5
1FF
330
1F
100
AcDbEntity
  8
0
  6
Continuous
 62
     7
370
    25
100
AcDbLine
 10
313.4255101461
 20
-159.8769790526
 30
0.0
 11
313.5414264968
 21
-160.1057236812
 31
0.0
  0
LINE
  5
200
330
1F
100
AcDbEntity
  8
0
  6
Continuous
 62
     7
370
    25
100
AcDbLine
 10
313.5414264968
 20
-160.1057236812
 30
0.0
 11
314.1860890775
 21
-160.1835659273
 31
0.0
  0
LINE
  5
201
330
1F
100
AcDbEntity
  8
0
  6
Continuous
 62
     7
370
    25
100
AcDbLine
 10
314.1860890775
 20
-160.1835659273
 30
0.0
 11
314.7055238540001
 21
-160.0315391977
 31
0.0
  0
LINE
  5
202
330
1F
100
AcDbEntity
  8
0
  6
Continuous
 62
     7
370
    25
100
AcDbLine
 10
314.7055238540001
 20
-160.0315391977
 30
0.0
 11
314.5802960498
 21
-159.801670222
 31
0.0
  0
LINE
  5
203
330
1F
100
AcDbEntity
  8
0
  6
Continuous
 62
     7
370
    25
100
AcDbLine
 10
314.4017046055
 20
-159.2723124578
 30
0.0
 11
313.8915812825
 21
-159.4254635344
 31
0.0
  0
LINE
  5
204
330
1F
100
AcDbEntity
  8
0
  6
Continuous
 62
     7
370
    25
100
AcDbLine
 10
313.8915812825
 20
-159.4254635344
 30
0.0
 11
314.0074976332
 21
-159.654208163
 31
0.0
  0
LINE
  5
205
330
1F
100
AcDbEntity
  8
0
  6
Continuous
 62
     7
370
    25
100
AcDbLine
 10
314.0074976332
 20
-159.654208163
 30
0.0
 11
314.6521602139
 21
-159.7320504091
 31
0.0
  0
LINE
  5
206
330
1F
100
AcDbEntity
  8
0
  6
Continuous
 62
     7
370
    25
100
AcDbLine
 10
314.6521602139
 20
-159.7320504091
 30
0.0
 11
315.1715949904
 21
-159.5800236795
 31
0.0
  0
LINE
  5
207
330
1F
100
AcDbEntity
  8
0
  6
Continuous
 62
     7
370
    25
100
AcDbLine
 10
315.1715949904
 20
-159.5800236795
 30
0.0
 11
315.0463671862
 21
-159.3501547038
 31
0.0
  0
LINE
  5
208
330
1F
100
AcDbEntity
  8
0
  6
Continuous
 62
     7
370
    25
100
AcDbLine
 10
315.0463671862
 20
-159.3501547038
 30
0.0
 11
314.4017046055
 21
-159.2723124578
 31
0.0
  0
LINE
  5
209
330
1F
100
AcDbEntity
  8
0
  6
Continuous
 62
     7
370
    25
100
AcDbLine
 10
314.8770871955
 20
-158.8219212866
 30
0.0
 11
314.3669638725
 21
-158.9750723632
 31
0.0
  0
LINE
  5
20A
330
1F
100
AcDbEntity
  8
0
  6
Continuous
 62
     7
370
    25
100
AcDbLine
 10
314.3669638725
 20
-158.9750723632
 30
0.0
 11
314.4828802232
 21
-159.2038169919
 31
0.0
  0
LINE
  5
20B
330
1F
100
AcDbEntity
  8
0
  6
Continuous
 62
     7
370
    25
100
AcDbLine
 10
314.4828802232
 20
-159.2038169919
 30
0.0
 11
315.1275428039
 21
-159.2816592379
 31
0.0
  0
LINE
  5
20C
330
1F
100
AcDbEntity
  8
0
  6
Continuous
 62
     7
370
    25
100
AcDbLine
 10
315.1275428039
 20
-159.2816592379
 30
0.0
 11
315.6469775804
 21
-159.1296325083
 31
0.0
  0
LINE
  5
20D
330
1F
100
AcDbEntity
  8
0
  6
Continuous
 62
     7
370
    25
100
AcDbLine
 10
315.6469775804
 20
-159.1296325083
 30
0.0
 11
315.5217497762
 21
-158.8997635327
 31
0.0
  0
LINE
  5
20E
330
1F
100
AcDbEntity
  8
0
  6
Continuous
 62
     7
370
    25
100
AcDbLine
 10
315.5217497762
 20
-158.8997635327
 30
0.0
 11
314.8770871955
 21
-158.8219212866
 31
0.0
  0
LINE
  5
20F
330
1F
100
AcDbEntity
  8
0
  6
Continuous
 62
     7
370
    25
100
AcDbLine
 10
316.5443347488
 20
-159.1988386648
 30
0.0
 11
317.0637695253
 21
-159.0468119352
 31
0.0
  0
LINE
  5
210
330
1F
100
AcDbEntity
  8
0
  6
Continuous
 62
     7
370
    25
100
AcDbLine
 10
317.0637695253
 20
-159.0468119352
 30
0.0
 11
316.9385417211
 21
-158.8169429595
 31
0.0
  0
LINE
  5
211
330
1F
100
AcDbEntity
  8
0
  6
Continuous
 62
     7
370
    25
100
AcDbLine
 10
316.9385417211
 20
-158.8169429595
 30
0.0
 11
316.2938791404
 21
-158.7391007134
 31
0.0
  0
LINE
  5
212
330
1F
100
AcDbEntity
  8
0
  6
Continuous
 62
     7
370
    25
100
AcDbLine
 10
316.2938791404
 20
-158.7391007134
 30
0.0
 11
315.7837558173
 21
-158.8922517901
 31
0.0
  0
LINE
  5
213
330
1F
100
AcDbEntity
  8
0
  6
Continuous
 62
     7
370
    25
100
AcDbLine
 10
315.7837558173
 20
-158.8922517901
 30
0.0
 11
315.8996721681
 21
-159.1209964187
 31
0.0
  0
LINE
  5
214
330
1F
100
AcDbEntity
  8
0
  6
Continuous
 62
     7
370
    25
100
AcDbLine
 10
315.8996721681
 20
-159.1209964187
 30
0.0
 11
316.5443347488
 21
-159.1988386648
 31
0.0
  0
LINE
  5
215
330
1F
100
AcDbEntity
  8
0
  6
Continuous
 62
     7
370
    25
100
AcDbLine
 10
316.0689521588
 20
-159.6492298359
 30
0.0
 11
316.5883869353
 21
-159.4972031063
 31
0.0
  0
LINE
  5
216
330
1F
100
AcDbEntity
  8
0
  6
Continuous
 62
     7
370
    25
100
AcDbLine
 10
316.5883869353
 20
-159.4972031063
 30
0.0
 11
316.4631591311
 21
-159.2673341307
 31
0.0
  0
LINE
  5
217
330
1F
100
AcDbEntity
  8
0
  6
Continuous
 62
     7
370
    25
100
AcDbLine
 10
316.4631591311
 20
-159.2673341307
 30
0.0
 11
315.8184965504
 21
-159.1894918846
 31
0.0
  0
LINE
  5
218
330
1F
100
AcDbEntity
  8
0
  6
Continuous
 62
     7
370
    25
100
AcDbLine
 10
315.8184965504
 20
-159.1894918846
 30
0.0
 11
315.2990617739
 21
-159.3415186142
 31
0.0
  0
LINE
  5
219
330
1F
100
AcDbEntity
  8
0
  6
Continuous
 62
     7
370
    25
100
AcDbLine
 10
315.2990617739
 20
-159.3415186142
 30
0.0
 11
315.4242895781
 21
-159.5713875899
 31
0.0
  0
LINE
  5
21A
330
1F
100
AcDbEntity
  8
0
  6
Continuous
 62
     7
370
    25
100
AcDbLine
 10
315.4242895781
 20
-159.5713875899
 30
0.0
 11
316.0689521588
 21
-159.6492298359
 31
0.0
  0
LINE
  5
21B
330
1F
100
AcDbEntity
  8
0
  6
Continuous
 62
     7
370
    25
100
AcDbLine
 10
315.3431139605
 20
-159.6398830558
 30
0.0
 11
314.8329906375
 21
-159.7930341324
 31
0.0
  0
LINE
  5
21C
330
1F
100
AcDbEntity
  8
0
  6
Continuous
 62
     7
370
    25
100
AcDbLine
 10
314.8329906375
 20
-159.7930341324
 30
0.0
 11
314.9489069882
 21
-160.021778761
 31
0.0
  0
LINE
  5
21D
330
1F
100
AcDbEntity
  8
0
  6
Continuous
 62
     7
370
    25
100
AcDbLine
 10
314.9489069882
 20
-160.021778761
 30
0.0
 11
315.5935695689
 21
-160.0996210071
 31
0.0
  0
LINE
  5
21E
330
1F
100
AcDbEntity
  8
0
  6
Continuous
 62
     7
370
    25
100
AcDbLine
 10
315.5935695689
 20
-160.0996210071
 30
0.0
 11
316.1130043454
 21
-159.9475942775
 31
0.0
  0
LINE
  5
21F
330
1F
100
AcDbEntity
  8
0
  6
Continuous
 62
     7
370
    25
100
AcDbLine
 10
316.1130043454
 20
-159.9475942775
 30
0.0
 11
315.9877765412
 21
-159.7177253018
 31
0.0
  0
LINE
  5
220
330
1F
100
AcDbEntity
  8
0
  6
Continuous
 62
     7
370
    25
100
AcDbLine
 10
315.9877765412
 20
-159.7177253018
 30
0.0
 11
315.3431139605
 21
-159.6398830558
 31
0.0
  0
LINE
  5
221
330
1F
100
AcDbEntity
  8
0
  6
Continuous
 62
     7
370
    25
100
AcDbLine
 10
317.4857441037
 20
-159.5664092628
 30
0.0
 11
318.0051788802
 21
-159.4143825332
 31
0.0
  0
LINE
  5
222
330
1F
100
AcDbEntity
  8
0
  6
Continuous
 62
     7
370
    25
100
AcDbLine
 10
318.0051788802
 20
-159.4143825332
 30
0.0
 11
317.879951076
 21
-159.1845135575
 31
0.0
  0
LINE
  5
223
330
1F
100
AcDbEntity
  8
0
  6
Continuous
 62
     7
370
    25
100
AcDbLine
 10
317.879951076
 20
-159.1845135575
 30
0.0
 11
317.2352884953
 21
-159.1066713114
 31
0.0
  0
LINE
  5
224
330
1F
100
AcDbEntity
  8
0
  6
Continuous
 62
     7
370
    25
100
AcDbLine
 10
317.2352884953
 20
-159.1066713114
 30
0.0
 11
316.7251651723
 21
-159.259822388
 31
0.0
  0
LINE
  5
225
330
1F
100
AcDbEntity
  8
0
  6
Continuous
 62
     7
370
    25
100
AcDbLine
 10
316.7251651723
 20
-159.259822388
 30
0.0
 11
316.841081523
 21
-159.4885670167
 31
0.0
  0
LINE
  5
226
330
1F
100
AcDbEntity
  8
0
  6
Continuous
 62
     7
370
    25
100
AcDbLine
 10
316.841081523
 20
-159.4885670167
 30
0.0
 11
317.4857441037
 21
-159.5664092628
 31
0.0
  0
LINE
  5
227
330
1F
100
AcDbEntity
  8
0
  6
Continuous
 62
     7
370
    25
100
AcDbLine
 10
311.201848104
 20
-159.8232223505
 30
0.0
 11
311.0766202998
 21
-159.5933533748
 31
0.0
  0
LINE
  5
228
330
1F
100
AcDbEntity
  8
0
  6
Continuous
 62
     7
370
    25
100
AcDbLine
 10
311.201848104
 20
-159.8232223505
 30
0.0
 11
311.8465106847001
 21
-159.9010645965
 31
0.0
  0
LINE
  5
229
330
1F
100
AcDbEntity
  8
0
  6
Continuous
 62
     7
370
    25
100
AcDbLine
 10
311.8465106847001
 20
-159.9010645965
 30
0.0
 11
312.3659454612
 21
-159.7490378669
 31
0.0
  0
LINE
  5
22A
330
1F
100
AcDbEntity
  8
0
  6
Continuous
 62
     7
370
    25
100
AcDbLine
 10
312.3659454612
 20
-159.7490378669
 30
0.0
 11
312.240717657
 21
-159.5191688912
 31
0.0
  0
LINE
  5
22B
330
1F
100
AcDbEntity
  8
0
  6
Continuous
 62
     7
370
    25
100
AcDbLine
 10
312.240717657
 20
-159.5191688912
 30
0.0
 11
311.5960550763
 21
-159.4413266452
 31
0.0
  0
LINE
  5
22C
330
1F
100
AcDbEntity
  8
0
  6
Continuous
 62
     7
370
    25
100
AcDbLine
 10
311.0766202998
 20
-159.5933533748
 30
0.0
 11
311.5960550763
 21
-159.4413266452
 31
0.0
  0
LINE
  5
22D
330
1F
100
AcDbEntity
  8
0
  6
Continuous
 62
     7
370
    25
100
AcDbLine
 10
312.1339903769
 20
-158.9201913141
 30
0.0
 11
312.0087625727
 21
-158.6903223384
 31
0.0
  0
LINE
  5
22E
330
1F
100
AcDbEntity
  8
0
  6
Continuous
 62
     7
370
    25
100
AcDbLine
 10
312.1339903769
 20
-158.9201913141
 30
0.0
 11
312.7786529576
 21
-158.9980335602
 31
0.0
  0
LINE
  5
22F
330
1F
100
AcDbEntity
  8
0
  6
Continuous
 62
     7
370
    25
100
AcDbLine
 10
312.7786529576
 20
-158.9980335602
 30
0.0
 11
313.2980877341
 21
-158.8460068305
 31
0.0
  0
LINE
  5
230
330
1F
100
AcDbEntity
  8
0
  6
Continuous
 62
     7
370
    25
100
AcDbLine
 10
313.2980877341
 20
-158.8460068305
 30
0.0
 11
313.1728599299
 21
-158.6161378549
 31
0.0
  0
LINE
  5
231
330
1F
100
AcDbEntity
  8
0
  6
Continuous
 62
     7
370
    25
100
AcDbLine
 10
313.1728599299
 20
-158.6161378549
 30
0.0
 11
312.5281973492
 21
-158.5382956088
 31
0.0
  0
LINE
  5
232
330
1F
100
AcDbEntity
  8
0
  6
Continuous
 62
     7
370
    25
100
AcDbLine
 10
312.0087625727
 20
-158.6903223384
 30
0.0
 11
312.5281973492
 21
-158.5382956088
 31
0.0
  0
LINE
  5
233
330
1F
100
AcDbEntity
  8
0
  6
Continuous
 62
     7
370
    25
100
AcDbLine
 10
311.8906072427
 20
-158.9299517507
 30
0.0
 11
311.3804839197
 21
-159.0831028274
 31
0.0
  0
LINE
  5
234
330
1F
100
AcDbEntity
  8
0
  6
Continuous
 62
     7
370
    25
100
AcDbLine
 10
311.774690892
 20
-158.7012071221
 30
0.0
 11
311.8906072427
 21
-158.9299517507
 31
0.0
  0
LINE
  5
235
330
1F
100
AcDbEntity
  8
0
  6
Continuous
 62
     7
370
    25
100
AcDbLine
 10
311.1300283113
 20
-158.623364876
 30
0.0
 11
311.774690892
 21
-158.7012071221
 31
0.0
  0
LINE
  5
236
330
1F
100
AcDbEntity
  8
0
  6
Continuous
 62
     7
370
    25
100
AcDbLine
 10
310.6105935348
 20
-158.7753916056
 30
0.0
 11
311.1300283113
 21
-158.623364876
 31
0.0
  0
LINE
  5
237
330
1F
100
AcDbEntity
  8
0
  6
Continuous
 62
     7
370
    25
100
AcDbLine
 10
310.735821339
 20
-159.0052605812999
 30
0.0
 11
310.6105935348
 21
-158.7753916056
 31
0.0
  0
LINE
  5
238
330
1F
100
AcDbEntity
  8
0
  6
Continuous
 62
     7
370
    25
100
AcDbLine
 10
311.3804839197
 20
-159.0831028274
 30
0.0
 11
310.735821339
 21
-159.0052605812999
 31
0.0
  0
LINE
  5
239
330
1F
100
AcDbEntity
  8
0
  6
Continuous
 62
     7
370
    25
100
AcDbLine
 10
310.9584649698
 20
-159.8329827871
 30
0.0
 11
310.4483416468
 21
-159.9861338637
 31
0.0
  0
LINE
  5
23A
330
1F
100
AcDbEntity
  8
0
  6
Continuous
 62
     7
370
    25
100
AcDbLine
 10
310.8425486191
 20
-159.6042381585
 30
0.0
 11
310.9584649698
 21
-159.8329827871
 31
0.0
  0
LINE
  5
23B
330
1F
100
AcDbEntity
  8
0
  6
Continuous
 62
     7
370
    25
100
AcDbLine
 10
310.1978860384
 20
-159.5263959124
 30
0.0
 11
310.8425486191
 21
-159.6042381585
 31
0.0
  0
LINE
  5
23C
330
1F
100
AcDbEntity
  8
0
  6
Continuous
 62
     7
370
    25
100
AcDbLine
 10
309.6784512619
 20
-159.678422642
 30
0.0
 11
310.1978860384
 21
-159.5263959124
 31
0.0
  0
LINE
  5
23D
330
1F
100
AcDbEntity
  8
0
  6
Continuous
 62
     7
370
    25
100
AcDbLine
 10
309.8036790661
 20
-159.9082916177
 30
0.0
 11
309.6784512619
 21
-159.678422642
 31
0.0
  0
LINE
  5
23E
330
1F
100
AcDbEntity
  8
0
  6
Continuous
 62
     7
370
    25
100
AcDbLine
 10
310.4483416468
 20
-159.9861338637
 30
0.0
 11
309.8036790661
 21
-159.9082916177
 31
0.0
  0
LINE
  5
23F
330
1F
100
AcDbEntity
  8
0
  6
Continuous
 62
     7
370
    25
100
AcDbLine
 10
309.3283408476
 20
-159.0892055015
 30
0.0
 11
309.2031130434
 21
-158.8593365258
 31
0.0
  0
LINE
  5
240
330
1F
100
AcDbEntity
  8
0
  6
Continuous
 62
     7
370
    25
100
AcDbLine
 10
309.9730034283
 20
-159.1670477476
 30
0.0
 11
309.3283408476
 21
-159.0892055015
 31
0.0
  0
LINE
  5
241
330
1F
100
AcDbEntity
  8
0
  6
Continuous
 62
     7
370
    25
100
AcDbLine
 10
310.4831267513
 20
-159.0138966709
 30
0.0
 11
309.9730034283
 21
-159.1670477476
 31
0.0
  0
LINE
  5
242
330
1F
100
AcDbEntity
  8
0
  6
Continuous
 62
     7
370
    25
100
AcDbLine
 10
310.3672104006
 20
-158.7851520423
 30
0.0
 11
310.4831267513
 21
-159.0138966709
 31
0.0
  0
LINE
  5
243
330
1F
100
AcDbEntity
  8
0
  6
Continuous
 62
     7
370
    25
100
AcDbLine
 10
309.7225478199
 20
-158.7073097962
 30
0.0
 11
310.3672104006
 21
-158.7851520423
 31
0.0
  0
LINE
  5
244
330
1F
100
AcDbEntity
  8
0
  6
Continuous
 62
     7
370
    25
100
AcDbLine
 10
309.2031130434
 20
-158.8593365258
 30
0.0
 11
309.7225478199
 21
-158.7073097962
 31
0.0
  0
LINE
  5
245
330
1F
100
AcDbEntity
  8
0
  6
Continuous
 62
     7
370
    25
100
AcDbLine
 10
309.4164895922
 20
-158.4164570973
 30
0.0
 11
309.5417173964
 21
-158.6463260729
 31
0.0
  0
LINE
  5
246
330
1F
100
AcDbEntity
  8
0
  6
Continuous
 62
     7
370
    25
100
AcDbLine
 10
308.7718270115
 20
-158.3386148512
 30
0.0
 11
309.4164895922
 21
-158.4164570973
 31
0.0
  0
LINE
  5
247
330
1F
100
AcDbEntity
  8
0
  6
Continuous
 62
     7
370
    25
100
AcDbLine
 10
308.252392235
 20
-158.4906415808
 30
0.0
 11
308.7718270115
 21
-158.3386148512
 31
0.0
  0
LINE
  5
248
330
1F
100
AcDbEntity
  8
0
  6
Continuous
 62
     7
370
    25
100
AcDbLine
 10
308.3776200392
 20
-158.7205105565
 30
0.0
 11
308.252392235
 21
-158.4906415808
 31
0.0
  0
LINE
  5
249
330
1F
100
AcDbEntity
  8
0
  6
Continuous
 62
     7
370
    25
100
AcDbLine
 10
309.0222826199
 20
-158.7983528025
 30
0.0
 11
308.3776200392
 21
-158.7205105565
 31
0.0
  0
LINE
  5
24A
330
1F
100
AcDbEntity
  8
0
  6
Continuous
 62
     7
370
    25
100
AcDbLine
 10
309.5417173964
 20
-158.6463260729
 30
0.0
 11
309.0222826199
 21
-158.7983528025
 31
0.0
  0
LINE
  5
24B
330
1F
100
AcDbEntity
  8
0
  6
Continuous
 62
     7
370
    25
100
AcDbLine
 10
308.4657687838
 20
-158.0477621522
 30
0.0
 11
308.5816851345
 21
-158.2765067809
 31
0.0
  0
LINE
  5
24C
330
1F
100
AcDbEntity
  8
0
  6
Continuous
 62
     7
370
    25
100
AcDbLine
 10
307.8211062031
 20
-157.9699199062
 30
0.0
 11
308.4657687838
 21
-158.0477621522
 31
0.0
  0
LINE
  5
24D
330
1F
100
AcDbEntity
  8
0
  6
Continuous
 62
     7
370
    25
100
AcDbLine
 10
307.3016714266
 20
-158.1219466358
 30
0.0
 11
307.8211062031
 21
-157.9699199062
 31
0.0
  0
LINE
  5
24E
330
1F
100
AcDbEntity
  8
0
  6
Continuous
 62
     7
370
    25
100
AcDbLine
 10
307.4268992308
 20
-158.3518156115
 30
0.0
 11
307.3016714266
 21
-158.1219466358
 31
0.0
  0
LINE
  5
24F
330
1F
100
AcDbEntity
  8
0
  6
Continuous
 62
     7
370
    25
100
AcDbLine
 10
308.0715618115001
 20
-158.4296578575
 30
0.0
 11
307.4268992308
 21
-158.3518156115
 31
0.0
  0
LINE
  5
250
330
1F
100
AcDbEntity
  8
0
  6
Continuous
 62
     7
370
    25
100
AcDbLine
 10
308.5816851345
 20
-158.2765067809
 30
0.0
 11
308.0715618115001
 21
-158.4296578575
 31
0.0
  0
LINE
  5
251
330
1F
100
AcDbEntity
  8
0
  6
Continuous
 62
     7
370
    25
100
AcDbLine
 10
315.6037367302
 20
-156.5430774851
 30
0.0
 11
315.6284434164
 21
-156.5884292396
 31
0.0
  0
LINE
  5
252
330
1F
100
AcDbEntity
  8
0
  6
Continuous
 62
     7
370
    25
100
AcDbLine
 10
314.4071851644
 20
-156.4128231132
 30
0.0
 11
314.339118255
 21
-156.4327447475
 31
0.0
  0
LINE
  5
253
330
1F
100
AcDbEntity
  8
0
  6
Continuous
 62
     7
370
    25
100
AcDbLine
 10
314.339118255
 20
-156.4327447475
 30
0.0
 11
314.4643460591999
 21
-156.6626137231
 31
0.0
  0
LINE
  5
254
330
1F
100
AcDbEntity
  8
0
  6
Continuous
 62
     7
370
    25
100
AcDbLine
 10
314.4643460591999
 20
-156.6626137231
 30
0.0
 11
315.1090086399
 21
-156.7404559692
 31
0.0
  0
LINE
  5
255
330
1F
100
AcDbEntity
  8
0
  6
Continuous
 62
     7
370
    25
100
AcDbLine
 10
315.6284434164
 20
-156.5884292396
 30
0.0
 11
315.1090086399
 21
-156.7404559692
 31
0.0
  0
LINE
  5
256
330
1F
100
AcDbEntity
  8
0
  6
Continuous
 62
     7
370
    25
100
AcDbLine
 10
314.5710733393
 20
-157.2615913003
 30
0.0
 11
314.6963011435
 21
-157.491460276
 31
0.0
  0
LINE
  5
257
330
1F
100
AcDbEntity
  8
0
  6
Continuous
 62
     7
370
    25
100
AcDbLine
 10
314.5710733393
 20
-157.2615913003
 30
0.0
 11
313.9264107586
 21
-157.1837490542
 31
0.0
  0
LINE
  5
258
330
1F
100
AcDbEntity
  8
0
  6
Continuous
 62
     7
370
    25
100
AcDbLine
 10
313.9264107586
 20
-157.1837490542
 30
0.0
 11
313.4069759821
 21
-157.3357757838
 31
0.0
  0
LINE
  5
259
330
1F
100
AcDbEntity
  8
0
  6
Continuous
 62
     7
370
    25
100
AcDbLine
 10
313.4069759821
 20
-157.3357757838
 30
0.0
 11
313.5322037863
 21
-157.5656447595
 31
0.0
  0
LINE
  5
25A
330
1F
100
AcDbEntity
  8
0
  6
Continuous
 62
     7
370
    25
100
AcDbLine
 10
313.5322037863
 20
-157.5656447595
 30
0.0
 11
314.176866367
 21
-157.6434870056
 31
0.0
  0
LINE
  5
25B
330
1F
100
AcDbEntity
  8
0
  6
Continuous
 62
     7
370
    25
100
AcDbLine
 10
314.6963011435
 20
-157.491460276
 30
0.0
 11
314.176866367
 21
-157.6434870056
 31
0.0
  0
LINE
  5
25C
330
1F
100
AcDbEntity
  8
0
  6
Continuous
 62
     7
370
    25
100
AcDbLine
 10
313.8823142005
 20
-158.1548619
 30
0.0
 11
314.401748977
 21
-158.0028351704
 31
0.0
  0
LINE
  5
25D
330
1F
100
AcDbEntity
  8
0
  6
Continuous
 62
     7
370
    25
100
AcDbLine
 10
314.0075420047
 20
-158.3847308757
 30
0.0
 11
313.8823142005
 21
-158.1548619
 31
0.0
  0
LINE
  5
25E
330
1F
100
AcDbEntity
  8
0
  6
Continuous
 62
     7
370
    25
100
AcDbLine
 10
314.6522045854
 20
-158.4625731218
 30
0.0
 11
314.0075420047
 21
-158.3847308757
 31
0.0
  0
LINE
  5
25F
330
1F
100
AcDbEntity
  8
0
  6
Continuous
 62
     7
370
    25
100
AcDbLine
 10
315.1716393619
 20
-158.3105463922
 30
0.0
 11
314.6522045854
 21
-158.4625731218
 31
0.0
  0
LINE
  5
260
330
1F
100
AcDbEntity
  8
0
  6
Continuous
 62
     7
370
    25
100
AcDbLine
 10
315.0464115577
 20
-158.0806774165
 30
0.0
 11
315.1716393619
 21
-158.3105463922
 31
0.0
  0
LINE
  5
261
330
1F
100
AcDbEntity
  8
0
  6
Continuous
 62
     7
370
    25
100
AcDbLine
 10
314.401748977
 20
-158.0028351704
 30
0.0
 11
315.0464115577
 21
-158.0806774165
 31
0.0
  0
LINE
  5
262
330
1F
100
AcDbEntity
  8
0
  6
Continuous
 62
     7
370
    25
100
AcDbLine
 10
314.8144564734
 20
-157.2518308636
 30
0.0
 11
315.3245797965
 21
-157.098679787
 31
0.0
  0
LINE
  5
263
330
1F
100
AcDbEntity
  8
0
  6
Continuous
 62
     7
370
    25
100
AcDbLine
 10
314.9303728242
 20
-157.4805754923
 30
0.0
 11
314.8144564734
 21
-157.2518308636
 31
0.0
  0
LINE
  5
264
330
1F
100
AcDbEntity
  8
0
  6
Continuous
 62
     7
370
    25
100
AcDbLine
 10
315.5750354049
 20
-157.5584177384
 30
0.0
 11
314.9303728242
 21
-157.4805754923
 31
0.0
  0
LINE
  5
265
330
1F
100
AcDbEntity
  8
0
  6
Continuous
 62
     7
370
    25
100
AcDbLine
 10
316.0944701814
 20
-157.4063910088
 30
0.0
 11
315.5750354049
 21
-157.5584177384
 31
0.0
  0
LINE
  5
266
330
1F
100
AcDbEntity
  8
0
  6
Continuous
 62
     7
370
    25
100
AcDbLine
 10
315.9692423772
 20
-157.1765220331
 30
0.0
 11
316.0944701814
 21
-157.4063910088
 31
0.0
  0
LINE
  5
267
330
1F
100
AcDbEntity
  8
0
  6
Continuous
 62
     7
370
    25
100
AcDbLine
 10
315.3245797965
 20
-157.098679787
 30
0.0
 11
315.9692423772
 21
-157.1765220331
 31
0.0
  0
LINE
  5
268
330
1F
100
AcDbEntity
  8
0
  6
Continuous
 62
     7
370
    25
100
AcDbLine
 10
316.7320602878
 20
-157.0147348668
 30
0.0
 11
317.3767228685
 21
-157.0925771129
 31
0.0
  0
LINE
  5
269
330
1F
100
AcDbEntity
  8
0
  6
Continuous
 62
     7
370
    25
100
AcDbLine
 10
316.2219369648
 20
-157.1678859434
 30
0.0
 11
316.7320602878
 21
-157.0147348668
 31
0.0
  0
LINE
  5
26A
330
1F
100
AcDbEntity
  8
0
  6
Continuous
 62
     7
370
    25
100
AcDbLine
 10
316.3378533155
 20
-157.3966305721
 30
0.0
 11
316.2219369648
 21
-157.1678859434
 31
0.0
  0
LINE
  5
26B
330
1F
100
AcDbEntity
  8
0
  6
Continuous
 62
     7
370
    25
100
AcDbLine
 10
316.9825158962
 20
-157.4744728182
 30
0.0
 11
316.3378533155
 21
-157.3966305721
 31
0.0
  0
LINE
  5
26C
330
1F
100
AcDbEntity
  8
0
  6
Continuous
 62
     7
370
    25
100
AcDbLine
 10
317.5019506727
 20
-157.3224460886
 30
0.0
 11
316.9825158962
 21
-157.4744728182
 31
0.0
  0
LINE
  5
26D
330
1F
100
AcDbEntity
  8
0
  6
Continuous
 62
     7
370
    25
100
AcDbLine
 10
317.3767228685
 20
-157.0925771129
 30
0.0
 11
317.5019506727
 21
-157.3224460886
 31
0.0
  0
LINE
  5
26E
330
1F
100
AcDbEntity
  8
0
  6
Continuous
 62
     7
370
    25
100
AcDbLine
 10
316.4538920491
 20
-157.9967324963
 30
0.0
 11
316.5791198533
 21
-158.226601472
 31
0.0
  0
LINE
  5
26F
330
1F
100
AcDbEntity
  8
0
  6
Continuous
 62
     7
370
    25
100
AcDbLine
 10
315.8092294684
 20
-157.9188902502
 30
0.0
 11
316.4538920491
 21
-157.9967324963
 31
0.0
  0
LINE
  5
270
330
1F
100
AcDbEntity
  8
0
  6
Continuous
 62
     7
370
    25
100
AcDbLine
 10
315.2991061454
 20
-158.0720413269
 30
0.0
 11
315.8092294684
 21
-157.9188902502
 31
0.0
  0
LINE
  5
271
330
1F
100
AcDbEntity
  8
0
  6
Continuous
 62
     7
370
    25
100
AcDbLine
 10
315.4150224961
 20
-158.3007859555
 30
0.0
 11
315.2991061454
 21
-158.0720413269
 31
0.0
  0
LINE
  5
272
330
1F
100
AcDbEntity
  8
0
  6
Continuous
 62
     7
370
    25
100
AcDbLine
 10
316.0596850768
 20
-158.3786282016
 30
0.0
 11
315.4150224961
 21
-158.3007859555
 31
0.0
  0
LINE
  5
273
330
1F
100
AcDbEntity
  8
0
  6
Continuous
 62
     7
370
    25
100
AcDbLine
 10
316.5791198533
 20
-158.226601472
 30
0.0
 11
316.0596850768
 21
-158.3786282016
 31
0.0
  0
LINE
  5
274
330
1F
100
AcDbEntity
  8
0
  6
Continuous
 62
     7
370
    25
100
AcDbLine
 10
316.3657433045
 20
-158.6694809005
 30
0.0
 11
316.2498269538001
 21
-158.4407362719
 31
0.0
  0
LINE
  5
275
330
1F
100
AcDbEntity
  8
0
  6
Continuous
 62
     7
370
    25
100
AcDbLine
 10
317.0104058852
 20
-158.7473231466
 30
0.0
 11
316.3657433045
 21
-158.6694809005
 31
0.0
  0
LINE
  5
276
330
1F
100
AcDbEntity
  8
0
  6
Continuous
 62
     7
370
    25
100
AcDbLine
 10
317.5298406617
 20
-158.595296417
 30
0.0
 11
317.0104058852
 21
-158.7473231466
 31
0.0
  0
LINE
  5
277
330
1F
100
AcDbEntity
  8
0
  6
Continuous
 62
     7
370
    25
100
AcDbLine
 10
317.4046128575
 20
-158.3654274413
 30
0.0
 11
317.5298406617
 21
-158.595296417
 31
0.0
  0
LINE
  5
278
330
1F
100
AcDbEntity
  8
0
  6
Continuous
 62
     7
370
    25
100
AcDbLine
 10
316.7599502768
 20
-158.2875851952
 30
0.0
 11
317.4046128575
 21
-158.3654274413
 31
0.0
  0
LINE
  5
279
330
1F
100
AcDbEntity
  8
0
  6
Continuous
 62
     7
370
    25
100
AcDbLine
 10
316.2498269538001
 20
-158.4407362719
 30
0.0
 11
316.7599502768
 21
-158.2875851952
 31
0.0
  0
LINE
  5
27A
330
1F
100
AcDbEntity
  8
0
  6
Continuous
 62
     7
370
    25
100
AcDbLine
 10
318.3181322235
 20
-157.4601477109
 30
0.0
 11
318.4433600277
 21
-157.6900166866
 31
0.0
  0
LINE
  5
27B
330
1F
100
AcDbEntity
  8
0
  6
Continuous
 62
     7
370
    25
100
AcDbLine
 10
317.6734696428
 20
-157.3823054648
 30
0.0
 11
318.3181322235
 21
-157.4601477109
 31
0.0
  0
LINE
  5
27C
330
1F
100
AcDbEntity
  8
0
  6
Continuous
 62
     7
370
    25
100
AcDbLine
 10
317.1633463197
 20
-157.5354565413999
 30
0.0
 11
317.6734696428
 21
-157.3823054648
 31
0.0
  0
LINE
  5
27D
330
1F
100
AcDbEntity
  8
0
  6
Continuous
 62
     7
370
    25
100
AcDbLine
 10
317.2792626705
 20
-157.7642011701
 30
0.0
 11
317.1633463197
 21
-157.5354565413999
 31
0.0
  0
LINE
  5
27E
330
1F
100
AcDbEntity
  8
0
  6
Continuous
 62
     7
370
    25
100
AcDbLine
 10
317.9239252512
 20
-157.8420434162
 30
0.0
 11
317.2792626705
 21
-157.7642011701
 31
0.0
  0
LINE
  5
27F
330
1F
100
AcDbEntity
  8
0
  6
Continuous
 62
     7
370
    25
100
AcDbLine
 10
318.4433600277
 20
-157.6900166866
 30
0.0
 11
317.9239252512
 21
-157.8420434162
 31
0.0
  0
LINE
  5
280
330
1F
100
AcDbEntity
  8
0
  6
Continuous
 62
     7
370
    25
100
AcDbLine
 10
317.3164641129
 20
-159.0381758454999
 30
0.0
 11
317.9611266936
 21
-159.1160180916
 31
0.0
  0
LINE
  5
281
330
1F
100
AcDbEntity
  8
0
  6
Continuous
 62
     7
370
    25
100
AcDbLine
 10
317.9611266936
 20
-159.1160180916
 30
0.0
 11
318.4805614701
 21
-158.963991362
 31
0.0
  0
LINE
  5
282
330
1F
100
AcDbEntity
  8
0
  6
Continuous
 62
     7
370
    25
100
AcDbLine
 10
318.3553336659
 20
-158.7341223863
 30
0.0
 11
318.4805614701
 21
-158.963991362
 31
0.0
  0
LINE
  5
283
330
1F
100
AcDbEntity
  8
0
  6
Continuous
 62
     7
370
    25
100
AcDbLine
 10
317.7106710852
 20
-158.6562801403
 30
0.0
 11
318.3553336659
 21
-158.7341223863
 31
0.0
  0
LINE
  5
284
330
1F
100
AcDbEntity
  8
0
  6
Continuous
 62
     7
370
    25
100
AcDbLine
 10
317.1912363087
 20
-158.8083068699
 30
0.0
 11
317.7106710852
 21
-158.6562801403
 31
0.0
  0
LINE
  5
285
330
1F
100
AcDbEntity
  8
0
  6
Continuous
 62
     7
370
    25
100
AcDbLine
 10
317.1912363087
 20
-158.8083068699
 30
0.0
 11
317.3164641129
 21
-159.0381758454999
 31
0.0
  0
LINE
  5
286
330
1F
100
AcDbEntity
  8
0
  6
Continuous
 62
     7
370
    25
100
AcDbLine
 10
312.7694302471
 20
-156.370317391
 30
0.0
 11
312.7694302471
 21
-156.4579546384
 31
0.0
  0
LINE
  5
287
330
1F
100
AcDbEntity
  8
0
  6
Continuous
 62
     7
370
    25
100
AcDbLine
 10
311.3619497557
 20
-156.4532213035
 30
0.0
 11
311.3619497557
 21
-156.5418995586
 31
0.0
  0
LINE
  5
288
330
1F
100
AcDbEntity
  8
0
  6
Continuous
 62
     7
370
    25
100
AcDbLine
 10
314.4643460591999
 20
-156.4170349527
 30
0.0
 11
314.4643460591999
 21
-156.6626137231
 31
0.0
  0
LINE
  5
289
330
1F
100
AcDbEntity
  8
0
  6
Continuous
 62
     7
370
    25
100
AcDbLine
 10
313.0661770213
 20
-156.4811626883
 30
0.0
 11
313.0661770213
 21
-156.7476829904
 31
0.0
  0
LINE
  5
28A
330
1F
100
AcDbEntity
  8
0
  6
Continuous
 62
     7
370
    25
100
AcDbLine
 10
315.1090086399
 20
-156.4781553123
 30
0.0
 11
315.1090086399
 21
-156.7404559692
 31
0.0
  0
LINE
  5
28B
330
1F
100
AcDbEntity
  8
0
  6
Continuous
 62
     7
370
    25
100
AcDbLine
 10
311.6586965299
 20
-156.5651076085
 30
0.0
 11
311.6586965299
 21
-156.8316279106
 31
0.0
  0
LINE
  5
28C
330
1F
100
AcDbEntity
  8
0
  6
Continuous
 62
     7
370
    25
100
AcDbLine
 10
313.710839602
 20
-156.3960295043
 30
0.0
 11
313.710839602
 21
-156.8255252364
 31
0.0
  0
LINE
  5
28D
330
1F
100
AcDbEntity
  8
0
  6
Continuous
 62
     7
370
    25
100
AcDbLine
 10
310.2512160385
 20
-156.6490525287
 30
0.0
 11
310.2512160385
 21
-156.9155728307
 31
0.0
  0
LINE
  5
28E
330
1F
100
AcDbEntity
  8
0
  6
Continuous
 62
     7
370
    25
100
AcDbLine
 10
316.803924452
 20
-156.7778942607
 30
0.0
 11
316.803924452
 21
-156.9451150539
 31
0.0
  0
LINE
  5
28F
330
1F
100
AcDbEntity
  8
0
  6
Continuous
 62
     7
370
    25
100
AcDbLine
 10
312.3033591106
 20
-156.4799744245
 30
0.0
 11
312.3033591106
 21
-156.9094701566
 31
0.0
  0
LINE
  5
290
330
1F
100
AcDbEntity
  8
0
  6
Continuous
 62
     7
370
    25
100
AcDbLine
 10
308.8344240936
 20
-156.9484652356
 30
0.0
 11
308.8344240936
 21
-156.9983934039
 31
0.0
  0
LINE
  5
291
330
1F
100
AcDbEntity
  8
0
  6
Continuous
 62
     7
370
    25
100
AcDbLine
 10
315.3964439606
 20
-156.7655145177
 30
0.0
 11
315.3964439606
 21
-157.0290599741
 31
0.0
  0
LINE
  5
292
330
1F
100
AcDbEntity
  8
0
  6
Continuous
 62
     7
370
    25
100
AcDbLine
 10
310.8958786192
 20
-156.5639193447
 30
0.0
 11
310.8958786192
 21
-156.9934150768
 31
0.0
  0
LINE
  5
293
330
1F
100
AcDbEntity
  8
0
  6
Continuous
 62
     7
370
    25
100
AcDbLine
 10
313.9982749227
 20
-156.8476089393
 30
0.0
 11
313.9982749227
 21
-157.1141292413
 31
0.0
  0
LINE
  5
294
330
1F
100
AcDbEntity
  8
0
  6
Continuous
 62
     7
370
    25
100
AcDbLine
 10
317.4485870327
 20
-156.9627831911
 30
0.0
 11
317.4485870327
 21
-157.0229573
 31
0.0
  0
LINE
  5
295
330
1F
100
AcDbEntity
  8
0
  6
Continuous
 62
     7
370
    25
100
AcDbLine
 10
309.4790866743
 20
-156.7670068442
 30
0.0
 11
309.4790866743
 21
-157.07623565
 31
0.0
  0
LINE
  5
296
330
1F
100
AcDbEntity
  8
0
  6
Continuous
 62
     7
370
    25
100
AcDbLine
 10
316.0411065413
 20
-156.6774064881
 30
0.0
 11
316.0411065413
 21
-157.1069022202
 31
0.0
  0
LINE
  5
297
330
1F
100
AcDbEntity
  8
0
  6
Continuous
 62
     7
370
    25
100
AcDbLine
 10
312.6001058848
 20
-156.9326782065
 30
0.0
 11
312.6001058848
 21
-157.1991985085
 31
0.0
  0
LINE
  5
298
330
1F
100
AcDbEntity
  8
0
  6
Continuous
 62
     7
370
    25
100
AcDbLine
 10
314.6429375034
 20
-156.7624757553
 30
0.0
 11
314.6429375034
 21
-157.1919714874
 31
0.0
  0
LINE
  5
299
330
1F
100
AcDbEntity
  8
0
  6
Continuous
 62
     7
370
    25
100
AcDbLine
 10
311.1926253934
 20
-157.0166231267
 30
0.0
 11
311.1926253934
 21
-157.2831434287
 31
0.0
  0
LINE
  5
29A
330
1F
100
AcDbEntity
  8
0
  6
Continuous
 62
     7
370
    25
100
AcDbLine
 10
317.7453338069
 20
-157.0671209419
 30
0.0
 11
317.7453338069
 21
-157.3126856519
 31
0.0
  0
LINE
  5
29B
330
1F
100
AcDbEntity
  8
0
  6
Continuous
 62
     7
370
    25
100
AcDbLine
 10
313.2447684655
 20
-156.8475450224999
 30
0.0
 11
313.2447684655
 21
-157.2770407546
 31
0.0
  0
LINE
  5
29C
330
1F
100
AcDbEntity
  8
0
  6
Continuous
 62
     7
370
    25
100
AcDbLine
 10
309.7758334486
 20
-157.0994436999
 30
0.0
 11
309.7758334486
 21
-157.3659640019
 31
0.0
  0
LINE
  5
29D
330
1F
100
AcDbEntity
  8
0
  6
Continuous
 62
     7
370
    25
100
AcDbLine
 10
316.3378533155
 20
-157.1330851157
 30
0.0
 11
316.3378533155
 21
-157.3966305721
 31
0.0
  0
LINE
  5
29E
330
1F
100
AcDbEntity
  8
0
  6
Continuous
 62
     7
370
    25
100
AcDbLine
 10
311.8372879741
 20
-156.9314899427
 30
0.0
 11
311.8372879741
 21
-157.3609856748
 31
0.0
  0
LINE
  5
29F
330
1F
100
AcDbEntity
  8
0
  6
Continuous
 62
     7
370
    25
100
AcDbLine
 10
308.3590415037
 20
-157.182264273
 30
0.0
 11
308.3590415037
 21
-157.4487845751
 31
0.0
  0
LINE
  5
2A0
330
1F
100
AcDbEntity
  8
0
  6
Continuous
 62
     7
370
    25
100
AcDbLine
 10
314.9303728242
 20
-157.2170300359
 30
0.0
 11
314.9303728242
 21
-157.4805754923
 31
0.0
  0
LINE
  5
2A1
330
1F
100
AcDbEntity
  8
0
  6
Continuous
 62
     7
370
    25
100
AcDbLine
 10
310.4204960293
 20
-157.0143105159
 30
0.0
 11
310.4204960293
 21
-157.443806248
 31
0.0
  0
LINE
  5
2A2
330
1F
100
AcDbEntity
  8
0
  6
Continuous
 62
     7
370
    25
100
AcDbLine
 10
318.3899963876
 20
-157.3556682265
 30
0.0
 11
318.3899963876
 21
-157.390527898
 31
0.0
  0
LINE
  5
2A3
330
1F
100
AcDbEntity
  8
0
  6
Continuous
 62
     7
370
    25
100
AcDbLine
 10
316.9825158962
 20
-157.0449770861
 30
0.0
 11
316.9825158962
 21
-157.4744728182
 31
0.0
  0
LINE
  5
2A4
330
1F
100
AcDbEntity
  8
0
  6
Continuous
 62
     7
370
    25
100
AcDbLine
 10
313.5322037863
 20
-157.2991244575
 30
0.0
 11
313.5322037863
 21
-157.5656447595
 31
0.0
  0
LINE
  5
2A5
330
1F
100
AcDbEntity
  8
0
  6
Continuous
 62
     7
370
    25
100
AcDbLine
 10
309.0037040844
 20
-157.097131089
 30
0.0
 11
309.0037040844
 21
-157.5266268212
 31
0.0
  0
LINE
  5
2A6
330
1F
100
AcDbEntity
  8
0
  6
Continuous
 62
     7
370
    25
100
AcDbLine
 10
315.5750354049
 20
-157.1289220062
 30
0.0
 11
315.5750354049
 21
-157.5584177384
 31
0.0
  0
LINE
  5
2A7
330
1F
100
AcDbEntity
  8
0
  6
Continuous
 62
     7
370
    25
100
AcDbLine
 10
312.1340347484
 20
-157.3841937247
 30
0.0
 11
312.1340347484
 21
-157.6507140267
 31
0.0
  0
LINE
  5
2A8
330
1F
100
AcDbEntity
  8
0
  6
Continuous
 62
     7
370
    25
100
AcDbLine
 10
318.6867431618
 20
-157.5330900888
 30
0.0
 11
318.6867431618
 21
-157.6802562499
 31
0.0
  0
LINE
  5
2A9
330
1F
100
AcDbEntity
  8
0
  6
Continuous
 62
     7
370
    25
100
AcDbLine
 10
307.5869121395
 20
-157.5101959989
 30
0.0
 11
307.5869121395
 21
-157.6094473943
 31
0.0
  0
LINE
  5
2AA
330
1F
100
AcDbEntity
  8
0
  6
Continuous
 62
     7
370
    25
100
AcDbLine
 10
314.176866367
 20
-157.2139912735
 30
0.0
 11
314.176866367
 21
-157.6434870056
 31
0.0
  0
LINE
  5
2AB
330
1F
100
AcDbEntity
  8
0
  6
Continuous
 62
     7
370
    25
100
AcDbLine
 10
310.7172428035
 20
-157.4670142978
 30
0.0
 11
310.7172428035
 21
-157.7335345999
 31
0.0
  0
LINE
  5
2AC
330
1F
100
AcDbEntity
  8
0
  6
Continuous
 62
     7
370
    25
100
AcDbLine
 10
317.2792626705
 20
-157.5006557137
 30
0.0
 11
317.2792626705
 21
-157.7642011701
 31
0.0
  0
LINE
  5
2AD
330
1F
100
AcDbEntity
  8
0
  6
Continuous
 62
     7
370
    25
100
AcDbLine
 10
312.7786973291
 20
-157.2990605407
 30
0.0
 11
312.7786973291
 21
-157.7285562728
 31
0.0
  0
LINE
  5
2AE
330
1F
100
AcDbEntity
  8
0
  6
Continuous
 62
     7
370
    25
100
AcDbLine
 10
309.3004508586
 20
-157.549834871
 30
0.0
 11
309.3004508586
 21
-157.8163551731
 31
0.0
  0
LINE
  5
2AF
330
1F
100
AcDbEntity
  8
0
  6
Continuous
 62
     7
370
    25
100
AcDbLine
 10
315.8717821791
 20
-157.5846006339
 30
0.0
 11
315.8717821791
 21
-157.8481460903
 31
0.0
  0
LINE
  5
2B0
330
1F
100
AcDbEntity
  8
0
  6
Continuous
 62
     7
370
    25
100
AcDbLine
 10
311.3619053842
 20
-157.3818811139
 30
0.0
 11
311.3619053842
 21
-157.811376846
 31
0.0
  0
LINE
  5
2B1
330
1F
100
AcDbEntity
  8
0
  6
Continuous
 62
     7
370
    25
100
AcDbLine
 10
307.8836589138
 20
-157.6326554442
 30
0.0
 11
307.8836589138
 21
-157.8991757463
 31
0.0
  0
LINE
  5
2B2
330
1F
100
AcDbEntity
  8
0
  6
Continuous
 62
     7
370
    25
100
AcDbLine
 10
317.9239252512
 20
-157.412547684
 30
0.0
 11
317.9239252512
 21
-157.8420434162
 31
0.0
  0
LINE
  5
2B3
330
1F
100
AcDbEntity
  8
0
  6
Continuous
 62
     7
370
    25
100
AcDbLine
 10
314.4643016877
 20
-157.6685455541
 30
0.0
 11
314.4643016877
 21
-157.9320910105
 31
0.0
  0
LINE
  5
2B4
330
1F
100
AcDbEntity
  8
0
  6
Continuous
 62
     7
370
    25
100
AcDbLine
 10
309.9451134393
 20
-157.464701687
 30
0.0
 11
309.9451134393
 21
-157.8941974191
 31
0.0
  0
LINE
  5
2B5
330
1F
100
AcDbEntity
  8
0
  6
Continuous
 62
     7
370
    25
100
AcDbLine
 10
316.5164447598
 20
-157.4964926042
 30
0.0
 11
316.5164447598
 21
-157.9259883364
 31
0.0
  0
LINE
  5
2B6
330
1F
100
AcDbEntity
  8
0
  6
Continuous
 62
     7
370
    25
100
AcDbLine
 10
313.0661326498
 20
-157.7506399756
 30
0.0
 11
313.0661326498
 21
-158.0171602777
 31
0.0
  0
LINE
  5
2B7
330
1F
100
AcDbEntity
  8
0
  6
Continuous
 62
     7
370
    25
100
AcDbLine
 10
308.5283214945
 20
-157.5475222602
 30
0.0
 11
308.5283214945
 21
-157.9770179923
 31
0.0
  0
LINE
  5
2B8
330
1F
100
AcDbEntity
  8
0
  6
Continuous
 62
     7
370
    25
100
AcDbLine
 10
315.1089642684
 20
-157.5804375244
 30
0.0
 11
315.1089642684
 21
-158.0099332566
 31
0.0
  0
LINE
  5
2B9
330
1F
100
AcDbEntity
  8
0
  6
Continuous
 62
     7
370
    25
100
AcDbLine
 10
311.6586521584
 20
-157.8345848958
 30
0.0
 11
311.6586521584
 21
-158.1011051979
 31
0.0
  0
LINE
  5
2BA
330
1F
100
AcDbEntity
  8
0
  6
Continuous
 62
     7
370
    25
100
AcDbLine
 10
318.2299834789
 20
-157.8663758131
 30
0.0
 11
318.2299834789
 21
-158.1328961151
 31
0.0
  0
LINE
  5
2BB
330
1F
100
AcDbEntity
  8
0
  6
Continuous
 62
     7
370
    25
100
AcDbLine
 10
307.1208410031
 20
-157.9044777224
 30
0.0
 11
307.1208410031
 21
-158.0609629125
 31
0.0
  0
LINE
  5
2BC
330
1F
100
AcDbEntity
  8
0
  6
Continuous
 62
     7
370
    25
100
AcDbLine
 10
313.7107952305
 20
-157.6655067917
 30
0.0
 11
313.7107952305
 21
-158.0950025238
 31
0.0
  0
LINE
  5
2BD
330
1F
100
AcDbEntity
  8
0
  6
Continuous
 62
     7
370
    25
100
AcDbLine
 10
310.2418602136
 20
-157.917405469
 30
0.0
 11
310.2418602136
 21
-158.1839257711
 31
0.0
  0
LINE
  5
2BE
330
1F
100
AcDbEntity
  8
0
  6
Continuous
 62
     7
370
    25
100
AcDbLine
 10
316.8225029875
 20
-157.9503207332
 30
0.0
 11
316.8225029875
 21
-158.2168410353
 31
0.0
  0
LINE
  5
2BF
330
1F
100
AcDbEntity
  8
0
  6
Continuous
 62
     7
370
    25
100
AcDbLine
 10
312.3033147391
 20
-157.7494517119
 30
0.0
 11
312.3033147391
 21
-158.178947444
 31
0.0
  0
LINE
  5
2C0
330
1F
100
AcDbEntity
  8
0
  6
Continuous
 62
     7
370
    25
100
AcDbLine
 10
308.8343797222
 20
-158.0013503892
 30
0.0
 11
308.8343797222
 21
-158.2678706913
 31
0.0
  0
LINE
  5
2C1
330
1F
100
AcDbEntity
  8
0
  6
Continuous
 62
     7
370
    25
100
AcDbLine
 10
315.4150224961
 20
-158.0372404991
 30
0.0
 11
315.4150224961
 21
-158.3007859555
 31
0.0
  0
LINE
  5
2C2
330
1F
100
AcDbEntity
  8
0
  6
Continuous
 62
     7
370
    25
100
AcDbLine
 10
318.8746460596
 20
-157.7812426291
 30
0.0
 11
318.8746460596
 21
-158.2107383612
 31
0.0
  0
LINE
  5
2C3
330
1F
100
AcDbEntity
  8
0
  6
Continuous
 62
     7
370
    25
100
AcDbLine
 10
310.8865227943
 20
-157.832272285
 30
0.0
 11
310.8865227943
 21
-158.2617680171
 31
0.0
  0
LINE
  5
2C4
330
1F
100
AcDbEntity
  8
0
  6
Continuous
 62
     7
370
    25
100
AcDbLine
 10
307.4268992308
 20
-158.0852953094
 30
0.0
 11
307.4268992308
 21
-158.3518156115
 31
0.0
  0
LINE
  5
2C5
330
1F
100
AcDbEntity
  8
0
  6
Continuous
 62
     7
370
    25
100
AcDbLine
 10
317.4671655682
 20
-157.8651875493
 30
0.0
 11
317.4671655682
 21
-158.2946832814
 31
0.0
  0
LINE
  5
2C6
330
1F
100
AcDbEntity
  8
0
  6
Continuous
 62
     7
370
    25
100
AcDbLine
 10
314.0075420047
 20
-158.1182105736
 30
0.0
 11
314.0075420047
 21
-158.3847308757
 31
0.0
  0
LINE
  5
2C7
330
1F
100
AcDbEntity
  8
0
  6
Continuous
 62
     7
370
    25
100
AcDbLine
 10
309.4790423029
 20
-157.9162172052
 30
0.0
 11
309.4790423029
 21
-158.3457129373
 31
0.0
  0
LINE
  5
2C8
330
1F
100
AcDbEntity
  8
0
  6
Continuous
 62
     7
370
    25
100
AcDbLine
 10
316.0596850768
 20
-157.9491324695
 30
0.0
 11
316.0596850768
 21
-158.3786282016
 31
0.0
  0
LINE
  5
2C9
330
1F
100
AcDbEntity
  8
0
  6
Continuous
 62
     7
370
    25
100
AcDbLine
 10
312.6000615133
 20
-158.2021554938
 30
0.0
 11
312.6000615133
 21
-158.4686757959
 31
0.0
  0
LINE
  5
2CA
330
1F
100
AcDbEntity
  8
0
  6
Continuous
 62
     7
370
    25
100
AcDbLine
 10
319.1807042873
 20
-158.2380456037
 30
0.0
 11
319.1807042873
 21
-158.5015910601
 31
0.0
  0
LINE
  5
2CB
330
1F
100
AcDbEntity
  8
0
  6
Continuous
 62
     7
370
    25
100
AcDbLine
 10
308.0715618115001
 20
-158.0001621254
 30
0.0
 11
308.0715618115001
 21
-158.4296578575
 31
0.0
  0
LINE
  5
2CC
330
1F
100
AcDbEntity
  8
0
  6
Continuous
 62
     7
370
    25
100
AcDbLine
 10
314.6522045854
 20
-158.0330773897
 30
0.0
 11
314.6522045854
 21
-158.4625731218
 31
0.0
  0
LINE
  5
2CD
330
1F
100
AcDbEntity
  8
0
  6
Continuous
 62
     7
370
    25
100
AcDbLine
 10
311.192581022
 20
-158.286100414
 30
0.0
 11
311.192581022
 21
-158.5526207161
 31
0.0
  0
LINE
  5
2CE
330
1F
100
AcDbEntity
  8
0
  6
Continuous
 62
     7
370
    25
100
AcDbLine
 10
317.7732237959
 20
-158.3219905239
 30
0.0
 11
317.7732237959
 21
-158.5855359803
 31
0.0
  0
LINE
  5
2CF
330
1F
100
AcDbEntity
  8
0
  6
Continuous
 62
     7
370
    25
100
AcDbLine
 10
313.244724094
 20
-158.1170223098
 30
0.0
 11
313.244724094
 21
-158.546518042
 31
0.0
  0
LINE
  5
2D0
330
1F
100
AcDbEntity
  8
0
  6
Continuous
 62
     7
370
    25
100
AcDbLine
 10
309.7851005306
 20
-158.3700453342
 30
0.0
 11
309.7851005306
 21
-158.6365656363
 31
0.0
  0
LINE
  5
2D1
330
1F
100
AcDbEntity
  8
0
  6
Continuous
 62
     7
370
    25
100
AcDbLine
 10
316.3657433045
 20
-158.4059354441
 30
0.0
 11
316.3657433045
 21
-158.6694809005
 31
0.0
  0
LINE
  5
2D2
330
1F
100
AcDbEntity
  8
0
  6
Continuous
 62
     7
370
    25
100
AcDbLine
 10
311.8372436027
 20
-158.20096723
 30
0.0
 11
311.8372436027
 21
-158.6304629622
 31
0.0
  0
LINE
  5
2D3
330
1F
100
AcDbEntity
  8
0
  6
Continuous
 62
     7
370
    25
100
AcDbLine
 10
308.3776200392
 20
-158.4539902544
 30
0.0
 11
308.3776200392
 21
-158.7205105565
 31
0.0
  0
LINE
  5
2D4
330
1F
100
AcDbEntity
  8
0
  6
Continuous
 62
     7
370
    25
100
AcDbLine
 10
318.4178863766
 20
-158.2338824943
 30
0.0
 11
318.4178863766
 21
-158.6633782264
 31
0.0
  0
LINE
  5
2D5
330
1F
100
AcDbEntity
  8
0
  6
Continuous
 62
     7
370
    25
100
AcDbLine
 10
314.9582628131
 20
-158.4869055187
 30
0.0
 11
314.9582628131
 21
-158.7534258207
 31
0.0
  0
LINE
  5
2D6
330
1F
100
AcDbEntity
  8
0
  6
Continuous
 62
     7
370
    25
100
AcDbLine
 10
310.4297631113
 20
-158.2849121502
 30
0.0
 11
310.4297631113
 21
-158.7144078824
 31
0.0
  0
LINE
  5
2D7
330
1F
100
AcDbEntity
  8
0
  6
Continuous
 62
     7
370
    25
100
AcDbLine
 10
317.0104058852
 20
-158.3178274145
 30
0.0
 11
317.0104058852
 21
-158.7473231466
 31
0.0
  0
LINE
  5
2D8
330
1F
100
AcDbEntity
  8
0
  6
Continuous
 62
     7
370
    25
100
AcDbLine
 10
313.5414708683
 20
-158.5697260918
 30
0.0
 11
313.5414708683
 21
-158.8362463939
 31
0.0
  0
LINE
  5
2D9
330
1F
100
AcDbEntity
  8
0
  6
Continuous
 62
     7
370
    25
100
AcDbLine
 10
309.0222826199
 20
-158.3688570704
 30
0.0
 11
309.0222826199
 21
-158.7983528025
 31
0.0
  0
LINE
  5
2DA
330
1F
100
AcDbEntity
  8
0
  6
Continuous
 62
     7
370
    25
100
AcDbLine
 10
315.6029253938001
 20
-158.4017723347
 30
0.0
 11
315.6029253938001
 21
-158.8312680668
 31
0.0
  0
LINE
  5
2DB
330
1F
100
AcDbEntity
  8
0
  6
Continuous
 62
     7
370
    25
100
AcDbLine
 10
312.1339903769
 20
-158.653671012
 30
0.0
 11
312.1339903769
 21
-158.9201913141
 31
0.0
  0
LINE
  5
2DC
330
1F
100
AcDbEntity
  8
0
  6
Continuous
 62
     7
370
    25
100
AcDbLine
 10
318.7239446043
 20
-158.6877106233
 30
0.0
 11
318.7239446043
 21
-158.9542309253
 31
0.0
  0
LINE
  5
2DD
330
1F
100
AcDbEntity
  8
0
  6
Continuous
 62
     7
370
    25
100
AcDbLine
 10
307.6148021285
 20
-158.4528019906
 30
0.0
 11
307.6148021285
 21
-158.8822977227
 31
0.0
  0
LINE
  5
2DE
330
1F
100
AcDbEntity
  8
0
  6
Continuous
 62
     7
370
    25
100
AcDbLine
 10
314.186133449
 20
-158.4845929078
 30
0.0
 11
314.186133449
 21
-158.91408864
 31
0.0
  0
LINE
  5
2DF
330
1F
100
AcDbEntity
  8
0
  6
Continuous
 62
     7
370
    25
100
AcDbLine
 10
310.735821339
 20
-158.7387402792
 30
0.0
 11
310.735821339
 21
-159.0052605812999
 31
0.0
  0
LINE
  5
2E0
330
1F
100
AcDbEntity
  8
0
  6
Continuous
 62
     7
370
    25
100
AcDbLine
 10
317.3164641129
 20
-158.7716555435
 30
0.0
 11
317.3164641129
 21
-159.0381758454999
 31
0.0
  0
LINE
  5
2E1
330
1F
100
AcDbEntity
  8
0
  6
Continuous
 62
     7
370
    25
100
AcDbLine
 10
312.7786529576
 20
-158.568537828
 30
0.0
 11
312.7786529576
 21
-158.9980335602
 31
0.0
  0
LINE
  5
2E2
330
1F
100
AcDbEntity
  8
0
  6
Continuous
 62
     7
370
    25
100
AcDbLine
 10
309.3283408476
 20
-158.8226851994
 30
0.0
 11
309.3283408476
 21
-159.0892055015
 31
0.0
  0
LINE
  5
2E3
330
1F
100
AcDbEntity
  8
0
  6
Continuous
 62
     7
370
    25
100
AcDbLine
 10
315.8996721681
 20
-158.8574509623
 30
0.0
 11
315.8996721681
 21
-159.1209964187
 31
0.0
  0
LINE
  5
2E4
330
1F
100
AcDbEntity
  8
0
  6
Continuous
 62
     7
370
    25
100
AcDbLine
 10
311.3804839197
 20
-158.6536070953
 30
0.0
 11
311.3804839197
 21
-159.0831028274
 31
0.0
  0
LINE
  5
2E5
330
1F
100
AcDbEntity
  8
0
  6
Continuous
 62
     7
370
    25
100
AcDbLine
 10
307.9208603562
 20
-158.9066301196
 30
0.0
 11
307.9208603562
 21
-159.1731504217
 31
0.0
  0
LINE
  5
2E6
330
1F
100
AcDbEntity
  8
0
  6
Continuous
 62
     7
370
    25
100
AcDbLine
 10
317.9611266936
 20
-158.6865223595
 30
0.0
 11
317.9611266936
 21
-159.1160180916
 31
0.0
  0
LINE
  5
2E7
330
1F
100
AcDbEntity
  8
0
  6
Continuous
 62
     7
370
    25
100
AcDbLine
 10
314.4828802232
 20
-158.9402715354
 30
0.0
 11
314.4828802232
 21
-159.2038169919
 31
0.0
  0
LINE
  5
2E8
330
1F
100
AcDbEntity
  8
0
  6
Continuous
 62
     7
370
    25
100
AcDbLine
 10
309.9730034283
 20
-158.7375520154
 30
0.0
 11
309.9730034283
 21
-159.1670477476
 31
0.0
  0
LINE
  5
2E9
330
1F
100
AcDbEntity
  8
0
  6
Continuous
 62
     7
370
    25
100
AcDbLine
 10
316.5443347488
 20
-158.7693429327
 30
0.0
 11
316.5443347488
 21
-159.1988386648
 31
0.0
  0
LINE
  5
2EA
330
1F
100
AcDbEntity
  8
0
  6
Continuous
 62
     7
370
    25
100
AcDbLine
 10
313.0660882783
 20
-159.0230921086
 30
0.0
 11
313.0660882783
 21
-159.2866375651
 31
0.0
  0
LINE
  5
2EB
330
1F
100
AcDbEntity
  8
0
  6
Continuous
 62
     7
370
    25
100
AcDbLine
 10
308.5655229369
 20
-158.8214969356
 30
0.0
 11
308.5655229369
 21
-159.2509926678
 31
0.0
  0
LINE
  5
2EC
330
1F
100
AcDbEntity
  8
0
  6
Continuous
 62
     7
370
    25
100
AcDbLine
 10
315.1275428039
 20
-158.8521635058
 30
0.0
 11
315.1275428039
 21
-159.2816592379
 31
0.0
  0
LINE
  5
2ED
330
1F
100
AcDbEntity
  8
0
  6
Continuous
 62
     7
370
    25
100
AcDbLine
 10
311.6679192404
 20
-159.1051865302
 30
0.0
 11
311.6679192404
 21
-159.3717068323
 31
0.0
  0
LINE
  5
2EE
330
1F
100
AcDbEntity
  8
0
  6
Continuous
 62
     7
370
    25
100
AcDbLine
 10
318.2578734678
 20
-159.1392261415
 30
0.0
 11
318.2578734678
 21
-159.4057464435
 31
0.0
  0
LINE
  5
2EF
330
1F
100
AcDbEntity
  8
0
  6
Continuous
 62
     7
370
    25
100
AcDbLine
 10
313.710750859
 20
-158.934984079
 30
0.0
 11
313.710750859
 21
-159.3644798111
 31
0.0
  0
LINE
  5
2F0
330
1F
100
AcDbEntity
  8
0
  6
Continuous
 62
     7
370
    25
100
AcDbLine
 10
310.2697502025
 20
-159.1902557974
 30
0.0
 11
310.2697502025
 21
-159.4567760995
 31
0.0
  0
LINE
  5
2F1
330
1F
100
AcDbEntity
  8
0
  6
Continuous
 62
     7
370
    25
100
AcDbLine
 10
316.841081523
 20
-159.2250215603
 30
0.0
 11
316.841081523
 21
-159.4885670167
 31
0.0
  0
LINE
  5
2F2
330
1F
100
AcDbEntity
  8
0
  6
Continuous
 62
     7
370
    25
100
AcDbLine
 10
312.3125818211
 20
-159.0200533462
 30
0.0
 11
312.3125818211
 21
-159.4495490783
 31
0.0
  0
LINE
  5
2F3
330
1F
100
AcDbEntity
  8
0
  6
Continuous
 62
     7
370
    25
100
AcDbLine
 10
308.8622697111
 20
-159.2742007176
 30
0.0
 11
308.8622697111
 21
-159.5407210197
 31
0.0
  0
LINE
  5
2F4
330
1F
100
AcDbEntity
  8
0
  6
Continuous
 62
     7
370
    25
100
AcDbLine
 10
315.4242895781
 20
-159.3048672878
 30
0.0
 11
315.4242895781
 21
-159.5713875899
 31
0.0
  0
LINE
  5
2F5
330
1F
100
AcDbEntity
  8
0
  6
Continuous
 62
     7
370
    25
100
AcDbLine
 10
310.9144127832
 20
-159.1051226134
 30
0.0
 11
310.9144127832
 21
-159.5346183456
 31
0.0
  0
LINE
  5
2F6
330
1F
100
AcDbEntity
  8
0
  6
Continuous
 62
     7
370
    25
100
AcDbLine
 10
317.4857441037
 20
-159.1369135307
 30
0.0
 11
317.4857441037
 21
-159.5664092628
 31
0.0
  0
LINE
  5
2F7
330
1F
100
AcDbEntity
  8
0
  6
Continuous
 62
     7
370
    25
100
AcDbLine
 10
314.0074976332
 20
-159.3906627066
 30
0.0
 11
314.0074976332
 21
-159.654208163
 31
0.0
  0
LINE
  5
2F8
330
1F
100
AcDbEntity
  8
0
  6
Continuous
 62
     7
370
    25
100
AcDbLine
 10
309.5069322919
 20
-159.1890675336
 30
0.0
 11
309.5069322919
 21
-159.6185632658
 31
0.0
  0
LINE
  5
2F9
330
1F
100
AcDbEntity
  8
0
  6
Continuous
 62
     7
370
    25
100
AcDbLine
 10
316.0689521588
 20
-159.2197341038
 30
0.0
 11
316.0689521588
 21
-159.6492298359
 31
0.0
  0
LINE
  5
2FA
330
1F
100
AcDbEntity
  8
0
  6
Continuous
 62
     7
370
    25
100
AcDbLine
 10
312.6000171419
 20
-159.4746076268
 30
0.0
 11
312.6000171419
 21
-159.7381530832
 31
0.0
  0
LINE
  5
2FB
330
1F
100
AcDbEntity
  8
0
  6
Continuous
 62
     7
370
    25
100
AcDbLine
 10
314.6521602139
 20
-159.302554677
 30
0.0
 11
314.6521602139
 21
-159.7320504091
 31
0.0
  0
LINE
  5
2FC
330
1F
100
AcDbEntity
  8
0
  6
Continuous
 62
     7
370
    25
100
AcDbLine
 10
311.201848104
 20
-159.5567020484
 30
0.0
 11
311.201848104
 21
-159.8232223505
 31
0.0
  0
LINE
  5
2FD
330
1F
100
AcDbEntity
  8
0
  6
Continuous
 62
     7
370
    25
100
AcDbLine
 10
313.2446797226
 20
-159.3864995972
 30
0.0
 11
313.2446797226
 21
-159.8159953293
 31
0.0
  0
LINE
  5
2FE
330
1F
100
AcDbEntity
  8
0
  6
Continuous
 62
     7
370
    25
100
AcDbLine
 10
309.8036790661
 20
-159.6417713155999
 30
0.0
 11
309.8036790661
 21
-159.9082916177
 31
0.0
  0
LINE
  5
2FF
330
1F
100
AcDbEntity
  8
0
  6
Continuous
 62
     7
370
    25
100
AcDbLine
 10
316.365698933
 20
-159.6724378858
 30
0.0
 11
316.365698933
 21
-159.9389581879
 31
0.0
  0
LINE
  5
300
330
1F
100
AcDbEntity
  8
0
  6
Continuous
 62
     7
370
    25
100
AcDbLine
 10
311.8465106847001
 20
-159.4715688644
 30
0.0
 11
311.8465106847001
 21
-159.9010645965
 31
0.0
  0
LINE
  5
301
330
1F
100
AcDbEntity
  8
0
  6
Continuous
 62
     7
370
    25
100
AcDbLine
 10
314.9489069882
 20
-159.7582333046
 30
0.0
 11
314.9489069882
 21
-160.021778761
 31
0.0
  0
LINE
  5
302
330
1F
100
AcDbEntity
  8
0
  6
Continuous
 62
     7
370
    25
100
AcDbLine
 10
310.4483416468
 20
-159.5566381316
 30
0.0
 11
310.4483416468
 21
-159.9861338637
 31
0.0
  0
LINE
  5
303
330
1F
100
AcDbEntity
  8
0
  6
Continuous
 62
     7
370
    25
100
AcDbLine
 10
313.5414264968
 20
-159.8421782248
 30
0.0
 11
313.5414264968
 21
-160.1057236812
 31
0.0
  0
LINE
  5
304
330
1F
100
AcDbEntity
  8
0
  6
Continuous
 62
     7
370
    25
100
AcDbLine
 10
315.5935695689
 20
-159.670125275
 30
0.0
 11
315.5935695689
 21
-160.0996210071
 31
0.0
  0
LINE
  5
305
330
1F
100
AcDbEntity
  8
0
  6
Continuous
 62
     7
370
    25
100
AcDbLine
 10
312.1339460054
 20
-159.926123145
 30
0.0
 11
312.1339460054
 21
-160.1896686014
 31
0.0
  0
LINE
  5
306
330
1F
100
AcDbEntity
  8
0
  6
Continuous
 62
     7
370
    25
100
AcDbLine
 10
314.1860890775
 20
-159.7540701952
 30
0.0
 11
314.1860890775
 21
-160.1835659273
 31
0.0
  0
LINE
  5
307
330
1F
100
AcDbEntity
  8
0
  6
Continuous
 62
     7
370
    25
100
AcDbLine
 10
310.7357769675
 20
-160.0082175666
 30
0.0
 11
310.7357769675
 21
-160.2747378687
 31
0.0
  0
LINE
  5
308
330
1F
100
AcDbEntity
  8
0
  6
Continuous
 62
     7
370
    25
100
AcDbLine
 10
312.7786085861
 20
-159.8380151154
 30
0.0
 11
312.7786085861
 21
-160.2675108475
 31
0.0
  0
LINE
  5
309
330
1F
100
AcDbEntity
  8
0
  6
Continuous
 62
     7
370
    25
100
AcDbLine
 10
311.3804395482
 20
-159.9230843826
 30
0.0
 11
311.3804395482
 21
-160.3525801147
 31
0.0
  0
SPLINE
  5
30A
330
1F
100
AcDbEntity
  8
0
  6
Continuous
 62
     7
370
    25
100
AcDbSpline
210
0.0
220
0.0
230
1.0
 70
     8
 71
     3
 72
     8
 73
     4
 74
     0
 42
0.00000001
 43
0.0000000001
 40
5.0
 40
5.0
 40
5.0
 40
5.0
 40
6.0
 40
6.0
 40
6.0
 40
6.0
 10
466.009595275096
 20
-137.3597349074062
 30
0.0
 10
466.009595275096
 20
-136.2180302635943
 30
0.0
 10
465.0466910869686
 20
-135.7100509342943
 30
0.0
 10
464.5375059742487
 20
-135.6010136621861
 30
0.0
  0
LINE
  5
30B
330
1F
100
AcDbEntity
  8
0
  6
Continuous
 62
     7
370
    25
100
AcDbLine
 10
464.5375059742
 20
-135.6010136622
 30
0.0
 11
464.4706711218
 21
-135.5867165159
 31
0.0
  0
LINE
  5
30C
330
1F
100
AcDbEntity
  8
0
  6
Continuous
 62
     7
370
    25
100
AcDbLine
 10
464.4706711218
 20
-135.5867165159
 30
0.0
 11
464.4041807789999
 21
-135.6027362099
 31
0.0
  0
SPLINE
  5
30D
330
1F
100
AcDbEntity
  8
0
  6
Continuous
 62
     7
370
    25
100
AcDbSpline
210
0.0
220
0.0
230
1.0
 70
     8
 71
     3
 72
     8
 73
     4
 74
     0
 42
0.00000001
 43
0.0000000001
 40
2.0
 40
2.0
 40
2.0
 40
2.0
 40
3.0
 40
3.0
 40
3.0
 40
3.0
 10
464.4041807789696
 20
-135.6027362099287
 30
0.0
 10
463.8977517426378
 20
-135.7252093544294
 30
0.0
 10
462.9400151977383
 20
-136.2571320973519
 30
0.0
 10
462.9400151977383
 20
-137.3936690979359
 30
0.0
  0
SPLINE
  5
30E
330
1F
100
AcDbEntity
  8
0
  6
Continuous
 62
     7
370
    25
100
AcDbSpline
210
0.0
220
0.0
230
1.0
 70
     8
 71
     3
 72
     8
 73
     4
 74
     0
 42
0.00000001
 43
0.0000000001
 40
1.0
 40
1.0
 40
1.0
 40
1.0
 40
2.0
 40
2.0
 40
2.0
 40
2.0
 10
462.9400151977383
 20
-137.3936690979359
 30
0.0
 10
462.9400151977383
 20
-138.5353737417477
 30
0.0
 10
463.9029193858657
 20
-139.0433530710478
 30
0.0
 10
464.4121044985856
 20
-139.1523903431559
 30
0.0
  0
LINE
  5
30F
330
1F
100
AcDbEntity
  8
0
  6
Continuous
 62
     7
370
    25
100
AcDbLine
 10
464.4789393509999
 20
-139.1666874894
 30
0.0
 11
464.5454296939
 21
-139.1506677954
 31
0.0
  0
SPLINE
  5
310
330
1F
100
AcDbEntity
  8
0
  6
Continuous
 62
     7
370
    25
100
AcDbSpline
210
0.0
220
0.0
230
1.0
 70
     8
 71
     3
 72
     8
 73
     4
 74
     0
 42
0.00000001
 43
0.0000000001
 40
6.0
 40
6.0
 40
6.0
 40
6.0
 40
7.0
 40
7.0
 40
7.0
 40
7.0
 10
464.5454296938648
 20
-139.1506677954133
 30
0.0
 10
465.0518587301966
 20
-139.0281946509127
 30
0.0
 10
466.009595275096
 20
-138.4962719079901
 30
0.0
 10
466.009595275096
 20
-137.3597349074062
 30
0.0
  0
SPLINE
  5
311
330
1F
100
AcDbEntity
  8
0
  6
Continuous
 62
     7
370
    25
100
AcDbSpline
210
0.0
220
0.0
230
1.0
 70
     8
 71
     3
 72
     8
 73
     4
 74
     0
 42
0.00000001
 43
0.0000000001
 40
13.0
 40
13.0
 40
13.0
 40
13.0
 40
14.0
 40
14.0
 40
14.0
 40
14.0
 10
462.0108729453666
 20
-137.6460223422304
 30
0.0
 10
462.086665046042
 20
-137.498744510236
 30
0.0
 10
462.0287874418898
 20
-137.3177047424861
 30
0.0
 10
461.8816818646696
 20
-137.2419126418106
 30
0.0
  0
SPLINE
  5
312
330
1F
100
AcDbEntity
  8
0
  6
Continuous
 62
     7
370
    25
100
AcDbSpline
210
0.0
220
0.0
230
1.0
 70
     8
 71
     3
 72
     8
 73
     4
 74
     0
 42
0.00000001
 43
0.0000000001
 40
9.0
 40
9.0
 40
9.0
 40
9.0
 40
10.0
 40
10.0
 40
10.0
 40
10.0
 10
458.3266878334404
 20
-136.4087162987029
 30
0.0
 10
458.3266878334404
 20
-134.8446429483996
 30
0.0
 10
459.6912901551478
 20
-134.3182323582533
 30
0.0
 10
460.0223638312804
 20
-134.2135014555017
 30
0.0
  0
SPLINE
  5
313
330
1F
100
AcDbEntity
  8
0
  6
Continuous
 62
     7
370
    25
100
AcDbSpline
210
0.0
220
0.0
230
1.0
 70
     8
 71
     3
 72
     8
 73
     4
 74
     0
 42
0.00000001
 43
0.0000000001
 40
8.0
 40
8.0
 40
8.0
 40
8.0
 40
9.0
 40
9.0
 40
9.0
 40
9.0
 10
460.0223638312804
 20
-134.2135014555017
 30
0.0
 10
460.2807459926741
 20
-134.2894658109515
 30
0.0
 10
461.1998974681386
 20
-134.617266646373
 30
0.0
 10
461.5605989654444
 20
-135.5210874469283
 30
0.0
  0
SPLINE
  5
314
330
1F
100
AcDbEntity
  8
0
  6
Continuous
 62
     7
370
    25
100
AcDbSpline
210
0.0
220
0.0
230
1.0
 70
     8
 71
     3
 72
     8
 73
     4
 74
     0
 42
0.00000001
 43
0.0000000001
 40
7.0
 40
7.0
 40
7.0
 40
7.0
 40
8.0
 40
8.0
 40
8.0
 40
8.0
 10
461.5605989654444
 20
-135.5210874469283
 30
0.0
 10
461.6222661746303
 20
-135.675083215119
 30
0.0
 10
461.7972770252811
 20
-135.7503585514717
 30
0.0
 10
461.9505837743747
 20
-135.6883468327372
 30
0.0
  0
SPLINE
  5
315
330
1F
100
AcDbEntity
  8
0
  6
Continuous
 62
     7
370
    25
100
AcDbSpline
210
0.0
220
0.0
230
1.0
 70
     8
 71
     3
 72
     8
 73
     4
 74
     0
 42
0.00000001
 43
0.0000000001
 40
6.0
 40
6.0
 40
6.0
 40
6.0
 40
7.0
 40
7.0
 40
7.0
 40
7.0
 10
461.9505837743747
 20
-135.6883468327372
 30
0.0
 10
462.1045795425652
 20
-135.6270241330997
 30
0.0
 10
462.1793381145953
 20
-135.4525300467718
 30
0.0
 10
462.1180154149578
 20
-135.2985342785812
 30
0.0
  0
SPLINE
  5
316
330
1F
100
AcDbEntity
  8
0
  6
Continuous
 62
     7
370
    25
100
AcDbSpline
210
0.0
220
0.0
230
1.0
 70
     8
 71
     3
 72
     8
 73
     4
 74
     0
 42
0.00000001
 43
0.0000000001
 40
5.0
 40
5.0
 40
5.0
 40
5.0
 40
6.0
 40
6.0
 40
6.0
 40
6.0
 10
462.1180154149578
 20
-135.2985342785812
 30
0.0
 10
461.581958557453
 20
-133.9559805679793
 30
0.0
 10
460.1450092305552
 20
-133.6228398345557
 30
0.0
 10
460.0840310404662
 20
-133.6094039621632
 30
0.0
  0
LINE
  5
317
330
1F
100
AcDbEntity
  8
0
  6
Continuous
 62
     7
370
    25
100
AcDbLine
 10
460.0840310405
 20
-133.6094039622
 30
0.0
 11
460.0147846212
 21
-133.5940732873
 31
0.0
  0
LINE
  5
318
330
1F
100
AcDbEntity
  8
0
  6
Continuous
 62
     7
370
    25
100
AcDbLine
 10
460.0147846212
 20
-133.5940732873
 30
0.0
 11
459.9458827114999
 21
-133.6112987647
 31
0.0
  0
SPLINE
  5
319
330
1F
100
AcDbEntity
  8
0
  6
Continuous
 62
     7
370
    25
100
AcDbSpline
210
0.0
220
0.0
230
1.0
 70
     8
 71
     3
 72
     8
 73
     4
 74
     0
 42
0.00000001
 43
0.0000000001
 40
2.0
 40
2.0
 40
2.0
 40
2.0
 40
3.0
 40
3.0
 40
3.0
 40
3.0
 10
459.9458827115078
 20
-133.6112987646801
 30
0.0
 10
459.1783154373941
 20
-133.803535092757
 30
0.0
 10
457.7265521999099
 20
-134.635697907219
 30
0.0
 10
457.7265521999099
 20
-136.4087162987029
 30
0.0
  0
SPLINE
  5
31A
330
1F
100
AcDbEntity
  8
0
  6
Continuous
 62
     7
370
    25
100
AcDbSpline
210
0.0
220
0.0
230
1.0
 70
     8
 71
     3
 72
     8
 73
     4
 74
     0
 42
0.00000001
 43
0.0000000001
 40
1.0
 40
1.0
 40
1.0
 40
1.0
 40
2.0
 40
2.0
 40
2.0
 40
2.0
 10
457.7265521999099
 20
-136.4087162987029
 30
0.0
 10
457.7265521999099
 20
-138.1870745881889
 30
0.0
 10
459.1834830806219
 20
-138.9803078236677
 30
0.0
 10
459.9538064311239
 20
-139.1513568145102
 30
0.0
  0
LINE
  5
31B
330
1F
100
AcDbEntity
  8
0
  6
Continuous
 62
     7
370
    25
100
AcDbLine
 10
459.9538064310999
 20
-139.1513568145
 30
0.0
 11
460.0230528504
 21
-139.1666874894
 31
0.0
  0
LINE
  5
31C
330
1F
100
AcDbEntity
  8
0
  6
Continuous
 62
     7
370
    25
100
AcDbLine
 10
460.0230528504
 20
-139.1666874894
 30
0.0
 11
460.0919547601
 21
-139.149462012
 31
0.0
  0
SPLINE
  5
31D
330
1F
100
AcDbEntity
  8
0
  6
Continuous
 62
     7
370
    25
100
AcDbSpline
210
0.0
220
0.0
230
1.0
 70
     8
 71
     3
 72
     8
 73
     4
 74
     0
 42
0.00000001
 43
0.0000000001
 40
14.0
 40
14.0
 40
14.0
 40
14.0
 40
15.0
 40
15.0
 40
15.0
 40
15.0
 10
460.0919547600823
 20
-139.1494620119934
 30
0.0
 10
460.1453537401038
 20
-139.136026139601
 30
0.0
 10
461.4128043691271
 20
-138.8071917755339
 30
0.0
 10
462.0108729453666
 20
-137.6460223422304
 30
0.0
  0
LINE
  5
31E
330
1F
100
AcDbEntity
  8
0
  6
Continuous
 62
     7
370
    25
100
AcDbLine
 10
467.4389653919
 20
-138.8666196727
 30
0.0
 11
467.4389653919
 21
-133.927730785
 31
0.0
  0
LINE
  5
31F
330
1F
100
AcDbEntity
  8
0
  6
Continuous
 62
     7
370
    25
100
AcDbLine
 10
470.8006895663999
 20
-133.927719743
 30
0.0
 11
470.8006895663999
 21
-136.2593173038
 31
0.0
  0
SPLINE
  5
320
330
1F
100
AcDbEntity
  8
0
  6
Continuous
 62
     7
370
    25
100
AcDbSpline
210
0.0
220
0.0
230
1.0
 70
     8
 71
     3
 72
     8
 73
     4
 74
     0
 42
0.00000001
 43
0.0000000001
 40
2.0
 40
2.0
 40
2.0
 40
2.0
 40
3.0
 40
3.0
 40
3.0
 40
3.0
 10
470.8006895664328
 20
-136.2593173037505
 30
0.0
 10
470.533307093084
 20
-136.0192587439689
 30
0.0
 10
470.2215690153624
 20
-135.8852445295927
 30
0.0
 10
470.0021164329521
 20
-135.8366471514039
 30
0.0
  0
LINE
  5
321
330
1F
100
AcDbEntity
  8
0
  6
Continuous
 62
     7
370
    25
100
AcDbLine
 10
470.002116433
 20
-135.8366471514
 30
0.0
 11
469.9373486377999
 21
-135.8221777504
 31
0.0
  0
LINE
  5
322
330
1F
100
AcDbEntity
  8
0
  6
Continuous
 62
     7
370
    25
100
AcDbLine
 10
469.9373486377999
 20
-135.8221777504
 30
0.0
 11
469.8722363332
 21
-135.8366471514
 31
0.0
  0
SPLINE
  5
323
330
1F
100
AcDbEntity
  8
0
  6
Continuous
 62
     7
370
    25
100
AcDbSpline
210
0.0
220
0.0
230
1.0
 70
     8
 71
     3
 72
     8
 73
     4
 74
     0
 42
0.00000001
 43
0.0000000001
 40
6.0
 40
6.0
 40
6.0
 40
6.0
 40
7.0
 40
7.0
 40
7.0
 40
7.0
 10
468.4025585991506
 20
-137.5101022833639
 30
0.0
 10
468.4025585991506
 20
-138.579804431534
 30
0.0
 10
469.3685633732147
 20
-139.0529882964331
 30
0.0
 10
469.8791265241287
 20
-139.1537573393767
 30
0.0
  0
LINE
  5
324
330
1F
100
AcDbEntity
  8
0
  6
Continuous
 62
     7
370
    25
100
AcDbLine
 10
469.8791265241
 20
-139.1537573394
 30
0.0
 11
469.9449278479
 21
-139.1666764474
 31
0.0
  0
LINE
  5
325
330
1F
100
AcDbEntity
  8
0
  6
Continuous
 62
     7
370
    25
100
AcDbLine
 10
469.9449278479
 20
-139.1666764474
 30
0.0
 11
470.0100401525999
 21
-139.1504844987
 31
0.0
  0
SPLINE
  5
326
330
1F
100
AcDbEntity
  8
0
  6
Continuous
 62
     7
370
    25
100
AcDbSpline
210
0.0
220
0.0
230
1.0
 70
     8
 71
     3
 72
     8
 73
     4
 74
     0
 42
0.00000001
 43
0.0000000001
 40
9.0
 40
9.0
 40
9.0
 40
9.0
 40
10.0
 40
10.0
 40
10.0
 40
10.0
 10
470.0100401525681
 20
-139.1504844986657
 30
0.0
 10
470.2273180184534
 20
-139.0962027129262
 30
0.0
 10
470.5355894688429
 20
-138.9549753298777
 30
0.0
 10
470.800689566433
 20
-138.7103950822718
 30
0.0
  0
LINE
  5
327
330
1F
100
AcDbEntity
  8
0
  6
Continuous
 62
     7
370
    25
100
AcDbLine
 10
470.8006895663999
 20
-138.7103950823
 30
0.0
 11
470.8006895663999
 21
-138.8666086307
 31
0.0
  0
SPLINE
  5
328
330
1F
100
AcDbEntity
  8
0
  6
Continuous
 62
     7
370
    25
100
AcDbSpline
210
0.0
220
0.0
230
1.0
 70
     8
 71
     3
 72
     8
 73
     4
 74
     0
 42
0.00000001
 43
0.0000000001
 40
11.0
 40
11.0
 40
11.0
 40
11.0
 40
12.0
 40
12.0
 40
12.0
 40
12.0
 10
470.800689566433
 20
-138.8666086306811
 30
0.0
 10
470.800689566433
 20
-139.0323177235216
 30
0.0
 10
470.9350482903576
 20
-139.1666764474464
 30
0.0
 10
471.1007573831982
 20
-139.1666764474464
 30
0.0
  0
SPLINE
  5
329
330
1F
100
AcDbEntity
  8
0
  6
Continuous
 62
     7
370
    25
100
AcDbSpline
210
0.0
220
0.0
230
1.0
 70
     8
 71
     3
 72
     8
 73
     4
 74
     0
 42
0.00000001
 43
0.0000000001
 40
12.0
 40
12.0
 40
12.0
 40
12.0
 40
13.0
 40
13.0
 40
13.0
 40
13.0
 10
471.1007573831982
 20
-139.1666764474464
 30
0.0
 10
471.2664664760388
 20
-139.1666764474464
 30
0.0
 10
471.4008251999636
 20
-139.0323177235216
 30
0.0
 10
471.4008251999636
 20
-138.8666086306811
 30
0.0
  0
SPLINE
  5
32A
330
1F
100
AcDbEntity
  8
0
  6
Continuous
 62
     7
370
    25
100
AcDbSpline
210
0.0
220
0.0
230
1.0
 70
     8
 71
     3
 72
     8
 73
     4
 74
     0
 42
0.00000001
 43
0.0000000001
 40
0.0
 40
0.0
 40
0.0
 40
0.0
 40
1.0
 40
1.0
 40
1.0
 40
1.0
 10
471.1007573831982
 20
-133.6276519262617
 30
0.0
 10
470.9350482903576
 20
-133.6276519262617
 30
0.0
 10
470.8006895664328
 20
-133.7620106501864
 30
0.0
 10
470.8006895664328
 20
-133.9277197430269
 30
0.0
  0
LINE
  5
32B
330
1F
100
AcDbEntity
  8
0
  6
Continuous
 62
     7
370
    25
100
AcDbLine
 10
471.4008252
 20
-138.8666086307
 30
0.0
 11
471.4008252
 21
-133.927719743
 31
0.0
  0
SPLINE
  5
32C
330
1F
100
AcDbEntity
  8
0
  6
Continuous
 62
     7
370
    25
100
AcDbSpline
210
0.0
220
0.0
230
1.0
 70
     8
 71
     3
 72
     8
 73
     4
 74
     0
 42
0.00000001
 43
0.0000000001
 40
14.0
 40
14.0
 40
14.0
 40
14.0
 40
15.0
 40
15.0
 40
15.0
 40
15.0
 10
471.4008251999636
 20
-133.9277197430269
 30
0.0
 10
471.4008251999636
 20
-133.7620106501864
 30
0.0
 10
471.2664664760388
 20
-133.6276519262617
 30
0.0
 10
471.1007573831982
 20
-133.6276519262617
 30
0.0
  0
LINE
  5
32D
330
1F
100
AcDbEntity
  8
0
  6
Continuous
 62
     7
370
    25
100
AcDbLine
 10
464.4121044985999
 20
-139.1523903432
 30
0.0
 11
464.4789393509999
 21
-139.1666874894
 31
0.0
  0
CIRCLE
  5
32E
330
1F
100
AcDbEntity
  8
0
  6
Continuous
 62
     7
370
    25
100
AcDbCircle
 10
454.4318233997
 20
-136.380871503
 30
0.0
 40
20.0
  0
SPLINE
  5
32F
330
1F
100
AcDbEntity
  8
0
  6
Continuous
 62
     7
370
    25
100
AcDbSpline
210
0.0
220
0.0
230
1.0
 70
     8
 71
     3
 72
     8
 73
     4
 74
     0
 42
0.00000001
 43
0.0000000001
 40
3.0
 40
3.0
 40
3.0
 40
3.0
 40
4.0
 40
4.0
 40
4.0
 40
4.0
 10
467.4389653919262
 20
-133.9277307850003
 30
0.0
 10
467.4389653919262
 20
-133.7620216921597
 30
0.0
 10
467.3046066680013
 20
-133.627662968235
 30
0.0
 10
467.1388975751609
 20
-133.627662968235
 30
0.0
  0
SPLINE
  5
330
330
1F
100
AcDbEntity
  8
0
  6
Continuous
 62
     7
370
    25
100
AcDbSpline
210
0.0
220
0.0
230
1.0
 70
     8
 71
     3
 72
     8
 73
     4
 74
     0
 42
0.00000001
 43
0.0000000001
 40
2.0
 40
2.0
 40
2.0
 40
2.0
 40
3.0
 40
3.0
 40
3.0
 40
3.0
 10
467.1388975751609
 20
-133.627662968235
 30
0.0
 10
466.9731884823203
 20
-133.627662968235
 30
0.0
 10
466.8388297583957
 20
-133.7620216921597
 30
0.0
 10
466.8388297583957
 20
-133.9277307850003
 30
0.0
  0
LINE
  5
331
330
1F
100
AcDbEntity
  8
0
  6
Continuous
 62
     7
370
    25
100
AcDbLine
 10
466.8388297584
 20
-133.927730785
 30
0.0
 11
466.8388297584
 21
-138.8666196727
 31
0.0
  0
SPLINE
  5
332
330
1F
100
AcDbEntity
  8
0
  6
Continuous
 62
     7
370
    25
100
AcDbSpline
210
0.0
220
0.0
230
1.0
 70
     8
 71
     3
 72
     8
 73
     4
 74
     0
 42
0.00000001
 43
0.0000000001
 40
0.0
 40
0.0
 40
0.0
 40
0.0
 40
1.0
 40
1.0
 40
1.0
 40
1.0
 10
466.8388297583957
 20
-138.8666196726544
 30
0.0
 10
466.8388297583957
 20
-139.0323287654949
 30
0.0
 10
466.9731884823203
 20
-139.1666874894197
 30
0.0
 10
467.1388975751609
 20
-139.1666874894197
 30
0.0
  0
SPLINE
  5
333
330
1F
100
AcDbEntity
  8
0
  6
Continuous
 62
     7
370
    25
100
AcDbSpline
210
0.0
220
0.0
230
1.0
 70
     8
 71
     3
 72
     8
 73
     4
 74
     0
 42
0.00000001
 43
0.0000000001
 40
5.0
 40
5.0
 40
5.0
 40
5.0
 40
6.0
 40
6.0
 40
6.0
 40
6.0
 10
469.8722363331581
 20
-135.8366471514039
 30
0.0
 10
469.3637402395352
 20
-135.9498185380943
 30
0.0
 10
468.4025585991506
 20
-136.4452232688733
 30
0.0
 10
468.4025585991506
 20
-137.5101022833639
 30
0.0
  0
SPLINE
  5
334
330
1F
100
AcDbEntity
  8
0
  6
Continuous
 62
     7
370
    25
100
AcDbSpline
210
0.0
220
0.0
230
1.0
 70
     8
 71
     3
 72
     8
 73
     4
 74
     0
 42
0.00000001
 43
0.0000000001
 40
5.0
 40
5.0
 40
5.0
 40
5.0
 40
6.0
 40
6.0
 40
6.0
 40
6.0
 10
467.1388975751609
 20
-139.1666874894197
 30
0.0
 10
467.3046066680013
 20
-139.1666874894197
 30
0.0
 10
467.4389653919262
 20
-139.0323287654949
 30
0.0
 10
467.4389653919262
 20
-138.8666196726544
 30
0.0
  0
SPLINE
  5
335
330
1F
100
AcDbEntity
  8
0
  6
Continuous
 62
     7
370
    25
100
AcDbSpline
210
0.0
220
0.0
230
1.0
 70
     8
 71
     3
 72
     8
 73
     4
 74
     0
 42
0.00000001
 43
0.0000000001
 40
11.0
 40
11.0
 40
11.0
 40
11.0
 40
12.0
 40
12.0
 40
12.0
 40
12.0
 10
461.4775721642498
 20
-137.3711037225075
 30
0.0
 10
461.0758740306698
 20
-138.1507288308195
 30
0.0
 10
460.2542187574377
 20
-138.4685388893338
 30
0.0
 10
460.0137510925671
 20
-138.5470870663975
 30
0.0
  0
SPLINE
  5
336
330
1F
100
AcDbEntity
  8
0
  6
Continuous
 62
     7
370
    25
100
AcDbSpline
210
0.0
220
0.0
230
1.0
 70
     8
 71
     3
 72
     8
 73
     4
 74
     0
 42
0.00000001
 43
0.0000000001
 40
10.0
 40
10.0
 40
10.0
 40
10.0
 40
11.0
 40
11.0
 40
11.0
 40
11.0
 10
460.0137510925671
 20
-138.5470870663975
 30
0.0
 10
459.6802658495951
 20
-138.4507966475848
 30
0.0
 10
458.3266878334404
 20
-137.964004655519
 30
0.0
 10
458.3266878334404
 20
-136.4087162987029
 30
0.0
  0
SPLINE
  5
337
330
1F
100
AcDbEntity
  8
0
  6
Continuous
 62
     7
370
    25
100
AcDbSpline
210
0.0
220
0.0
230
1.0
 70
     8
 71
     3
 72
     8
 73
     4
 74
     0
 42
0.00000001
 43
0.0000000001
 40
12.0
 40
12.0
 40
12.0
 40
12.0
 40
13.0
 40
13.0
 40
13.0
 40
13.0
 10
461.8816818646696
 20
-137.2419126418106
 30
0.0
 10
461.7338872683525
 20
-137.1656037768123
 30
0.0
 10
461.5530197553769
 20
-137.223825890513
 30
0.0
 10
461.4775721642498
 20
-137.3711037225075
 30
0.0
  0
SPLINE
  5
338
330
1F
100
AcDbEntity
  8
0
  6
Continuous
 62
     7
370
    25
100
AcDbSpline
210
0.0
220
0.0
230
1.0
 70
     8
 71
     3
 72
    11
 73
     7
 74
     0
 42
0.00000001
 43
0.0000000001
 40
0.0
 40
0.0
 40
0.0
 40
0.0
 40
1.0
 40
1.0
 40
1.0
 40
2.0
 40
2.0
 40
2.0
 40
2.0
 10
464.4799728796451
 20
-136.2056279198475
 30
0.0
 10
464.2536301062642
 20
-136.2807310014259
 30
0.0
 10
463.5401508312689
 20
-136.5818323468367
 30
0.0
 10
463.5401508312689
 20
-137.3936690979359
 30
0.0
 10
463.5401508312689
 20
-138.2060226133578
 30
0.0
 10
464.243639329357
 20
-138.4805967235322
 30
0.0
 10
464.4699821027379
 20
-138.5477760854946
 30
0.0
  0
SPLINE
  5
339
330
1F
100
AcDbEntity
  8
0
  6
Continuous
 62
     7
370
    25
100
AcDbSpline
210
0.0
220
0.0
230
1.0
 70
     8
 71
     3
 72
    11
 73
     7
 74
     0
 42
0.00000001
 43
0.0000000001
 40
2.0
 40
2.0
 40
2.0
 40
2.0
 40
3.0
 40
3.0
 40
3.0
 40
4.0
 40
4.0
 40
4.0
 40
4.0
 10
464.4699821027379
 20
-138.5477760854946
 30
0.0
 10
464.6946023283761
 20
-138.4733620230132
 30
0.0
 10
465.4094596415655
 20
-138.1724329323766
 30
0.0
 10
465.4094596415655
 20
-137.3597349074062
 30
0.0
 10
465.4094596415655
 20
-136.5475536467585
 30
0.0
 10
464.706315653026
 20
-136.2729795365841
 30
0.0
 10
464.4799728796451
 20
-136.2056279198475
 30
0.0
  0
SPLINE
  5
33A
330
1F
100
AcDbEntity
  8
0
  6
Continuous
 62
     7
370
    25
100
AcDbSpline
210
0.0
220
0.0
230
1.0
 70
     8
 71
     3
 72
    11
 73
     7
 74
     0
 42
0.00000001
 43
0.0000000001
 40
2.0
 40
2.0
 40
2.0
 40
2.0
 40
3.0
 40
3.0
 40
3.0
 40
4.0
 40
4.0
 40
4.0
 40
4.0
 10
469.9283913895678
 20
-138.5482818078439
 30
0.0
 10
470.1306184945519
 20
-138.4771405860735
 30
0.0
 10
470.7372998095044
 20
-138.2032554949961
 30
0.0
 10
470.7372998095044
 20
-137.4787519144482
 30
0.0
 10
470.7372998095044
 20
-136.7528702957059
 30
0.0
 10
470.1392312332649
 20
-136.5037898921225
 30
0.0
 10
469.9373486378293
 20
-136.4402278804196
 30
0.0
  0
SPLINE
  5
33B
330
1F
100
AcDbEntity
  8
0
  6
Continuous
 62
     7
370
    25
100
AcDbSpline
210
0.0
220
0.0
230
1.0
 70
     8
 71
     3
 72
    11
 73
     7
 74
     0
 42
0.00000001
 43
0.0000000001
 40
0.0
 40
0.0
 40
0.0
 40
0.0
 40
1.0
 40
1.0
 40
1.0
 40
2.0
 40
2.0
 40
2.0
 40
2.0
 10
469.9373486378293
 20
-136.4402278804196
 30
0.0
 10
469.712039393094
 20
-136.5086130258018
 30
0.0
 10
469.002694232681
 20
-136.7818090977821
 30
0.0
 10
469.002694232681
 20
-137.5101022833639
 30
0.0
 10
469.002694232681
 20
-138.2308162588782
 30
0.0
 10
469.7023931257353
 20
-138.4848920509154
 30
0.0
 10
469.9283913895678
 20
-138.5482818078439
 30
0.0
  0
CIRCLE
  5
33C
330
1F
100
AcDbEntity
  8
0
  6
Continuous
 62
     7
370
    25
100
AcDbCircle
 10
163.1194962898
 20
-136.380871503
 30
0.0
 40
20.0
  0
SPLINE
  5
33D
330
1F
100
AcDbEntity
  8
0
  6
Continuous
 62
     7
370
    25
100
AcDbSpline
210
0.0
220
0.0
230
1.0
 70
     8
 71
     3
 72
     8
 73
     4
 74
     0
 42
0.00000001
 43
0.0000000001
 40
5.0
 40
5.0
 40
5.0
 40
5.0
 40
6.0
 40
6.0
 40
6.0
 40
6.0
 10
154.1734567799052
 20
-137.360437994967
 30
0.0
 10
154.1734567799052
 20
-136.2187333511553
 30
0.0
 10
153.2105525917778
 20
-135.7107540218552
 30
0.0
 10
152.7013674790579
 20
-135.6017167497471
 30
0.0
  0
SPLINE
  5
33E
330
1F
100
AcDbEntity
  8
0
  6
Continuous
 62
     7
370
    25
100
AcDbSpline
210
0.0
220
0.0
230
1.0
 70
     8
 71
     3
 72
     8
 73
     4
 74
     0
 42
0.00000001
 43
0.0000000001
 40
1.0
 40
1.0
 40
1.0
 40
1.0
 40
2.0
 40
2.0
 40
2.0
 40
2.0
 10
151.1038767025476
 20
-137.3943721854968
 30
0.0
 10
151.1038767025476
 20
-138.5360768293085
 30
0.0
 10
152.0667808906749
 20
-139.0440561586085
 30
0.0
 10
152.5759660033948
 20
-139.1530934307169
 30
0.0
  0
LINE
  5
33F
330
1F
100
AcDbEntity
  8
0
  6
Continuous
 62
     7
370
    25
100
AcDbLine
 10
152.5759660034
 20
-139.1530934307
 30
0.0
 11
152.6428008558
 21
-139.167390577
 31
0.0
  0
SPLINE
  5
340
330
1F
100
AcDbEntity
  8
0
  6
Continuous
 62
     7
370
    25
100
AcDbSpline
210
0.0
220
0.0
230
1.0
 70
     8
 71
     3
 72
     8
 73
     4
 74
     0
 42
0.00000001
 43
0.0000000001
 40
12.0
 40
12.0
 40
12.0
 40
12.0
 40
13.0
 40
13.0
 40
13.0
 40
13.0
 10
154.6507399546906
 20
-135.4759707645354
 30
0.0
 10
154.4850308618502
 20
-135.4759707645354
 30
0.0
 10
154.3506721379254
 20
-135.6103294884602
 30
0.0
 10
154.3506721379254
 20
-135.7760385813006
 30
0.0
  0
SPLINE
  5
341
330
1F
100
AcDbEntity
  8
0
  6
Continuous
 62
     7
370
    25
100
AcDbSpline
210
0.0
220
0.0
230
1.0
 70
     8
 71
     3
 72
     8
 73
     4
 74
     0
 42
0.00000001
 43
0.0000000001
 40
7.0
 40
7.0
 40
7.0
 40
7.0
 40
8.0
 40
8.0
 40
8.0
 40
8.0
 10
146.1189609854694
 20
-138.8673227602154
 30
0.0
 10
146.1189609854694
 20
-139.0330318530559
 30
0.0
 10
146.2533197093942
 20
-139.1673905769807
 30
0.0
 10
146.4190288022347
 20
-139.1673905769807
 30
0.0
  0
LINE
  5
342
330
1F
100
AcDbEntity
  8
0
  6
Continuous
 62
     7
370
    25
100
AcDbLine
 10
154.6507399547
 20
-136.0761063981
 30
0.0
 11
154.965621682
 21
-136.0761063981
 31
0.0
  0
LINE
  5
343
330
1F
100
AcDbEntity
  8
0
  6
Continuous
 62
     7
370
    25
100
AcDbLine
 10
154.965621682
 20
-136.0761063981
 30
0.0
 11
154.965621682
 21
-137.9686696029
 31
0.0
  0
LINE
  5
344
330
1F
100
AcDbEntity
  8
0
  6
Continuous
 62
     7
370
    25
100
AcDbLine
 10
156.4104947286
 20
-138.5708722937
 30
0.0
 11
156.0318787347
 21
-138.5124779252
 31
0.0
  0
LINE
  5
345
330
1F
100
AcDbEntity
  8
0
  6
Continuous
 62
     7
370
    25
100
AcDbLine
 10
152.6428008558
 20
-139.167390577
 30
0.0
 11
152.7092911987
 21
-139.151370883
 31
0.0
  0
SPLINE
  5
346
330
1F
100
AcDbEntity
  8
0
  6
Continuous
 62
     7
370
    25
100
AcDbSpline
210
0.0
220
0.0
230
1.0
 70
     8
 71
     3
 72
     8
 73
     4
 74
     0
 42
0.00000001
 43
0.0000000001
 40
18.0
 40
18.0
 40
18.0
 40
18.0
 40
19.0
 40
19.0
 40
19.0
 40
19.0
 10
156.3188551886487
 20
-139.163773226721
 30
0.0
 10
156.3343581183323
 20
-139.1661847935607
 30
0.0
 10
156.3498610480159
 20
-139.1673905769807
 30
0.0
 10
156.365019468151
 20
-139.1673905769807
 30
0.0
  0
SPLINE
  5
347
330
1F
100
AcDbEntity
  8
0
  6
Continuous
 62
     7
370
    25
100
AcDbSpline
210
0.0
220
0.0
230
1.0
 70
     8
 71
     3
 72
     8
 73
     4
 74
     0
 42
0.00000001
 43
0.0000000001
 40
19.0
 40
19.0
 40
19.0
 40
19.0
 40
20.0
 40
20.0
 40
20.0
 40
20.0
 10
156.365019468151
 20
-139.1673905769807
 30
0.0
 10
156.5104024976286
 20
-139.1673905769807
 30
0.0
 10
156.6382155401313
 20
-139.0612816360348
 30
0.0
 10
156.6612976798825
 20
-138.9129702753949
 30
0.0
  0
SPLINE
  5
348
330
1F
100
AcDbEntity
  8
0
  6
Continuous
 62
     7
370
    25
100
AcDbSpline
210
0.0
220
0.0
230
1.0
 70
     8
 71
     3
 72
     8
 73
     4
 74
     0
 42
0.00000001
 43
0.0000000001
 40
20.0
 40
20.0
 40
20.0
 40
20.0
 40
21.0
 40
21.0
 40
21.0
 40
21.0
 10
156.6612976798825
 20
-138.9129702753949
 30
0.0
 10
156.6864468769247
 20
-138.7493282398455
 30
0.0
 10
156.5741367641057
 20
-138.596021490752
 30
0.0
 10
156.4104947285562
 20
-138.5708722937095
 30
0.0
  0
SPLINE
  5
349
330
1F
100
AcDbEntity
  8
0
  6
Continuous
 62
     7
370
    25
100
AcDbSpline
210
0.0
220
0.0
230
1.0
 70
     8
 71
     3
 72
     8
 73
     4
 74
     0
 42
0.00000001
 43
0.0000000001
 40
13.0
 40
13.0
 40
13.0
 40
13.0
 40
14.0
 40
14.0
 40
14.0
 40
14.0
 10
154.3506721379254
 20
-135.7760385813006
 30
0.0
 10
154.3506721379254
 20
-135.9417476741411
 30
0.0
 10
154.4850308618502
 20
-136.0761063980659
 30
0.0
 10
154.6507399546906
 20
-136.0761063980659
 30
0.0
  0
SPLINE
  5
34A
330
1F
100
AcDbEntity
  8
0
  6
Continuous
 62
     7
370
    25
100
AcDbSpline
210
0.0
220
0.0
230
1.0
 70
     8
 71
     3
 72
     8
 73
     4
 74
     0
 42
0.00000001
 43
0.0000000001
 40
0.0
 40
0.0
 40
0.0
 40
0.0
 40
1.0
 40
1.0
 40
1.0
 40
1.0
 10
150.0101963360591
 20
-133.6102793044984
 30
0.0
 10
149.8444872432187
 20
-133.6102793044984
 30
0.0
 10
149.7101285192938
 20
-133.7446380284231
 30
0.0
 10
149.7101285192938
 20
-133.9103471212636
 30
0.0
  0
SPLINE
  5
34B
330
1F
100
AcDbEntity
  8
0
  6
Continuous
 62
     7
370
    25
100
AcDbSpline
210
0.0
220
0.0
230
1.0
 70
     8
 71
     3
 72
     8
 73
     4
 74
     0
 42
0.00000001
 43
0.0000000001
 40
6.0
 40
6.0
 40
6.0
 40
6.0
 40
7.0
 40
7.0
 40
7.0
 40
7.0
 10
152.709291198674
 20
-139.1513708829742
 30
0.0
 10
153.2157202350056
 20
-139.0288977384735
 30
0.0
 10
154.1734567799052
 20
-138.4969749955509
 30
0.0
 10
154.1734567799052
 20
-137.360437994967
 30
0.0
  0
LINE
  5
34C
330
1F
100
AcDbEntity
  8
0
  6
Continuous
 62
     7
370
    25
100
AcDbLine
 10
149.7101285193
 20
-136.0888532514
 30
0.0
 11
146.719096619
 21
-136.0888532514
 31
0.0
  0
LINE
  5
34D
330
1F
100
AcDbEntity
  8
0
  6
Continuous
 62
     7
370
    25
100
AcDbLine
 10
155.9402391948
 20
-139.1053788582
 30
0.0
 11
156.3188551886
 21
-139.1637732267
 31
0.0
  0
SPLINE
  5
34E
330
1F
100
AcDbEntity
  8
0
  6
Continuous
 62
     7
370
    25
100
AcDbSpline
210
0.0
220
0.0
230
1.0
 70
     8
 71
     3
 72
     8
 73
     4
 74
     0
 42
0.00000001
 43
0.0000000001
 40
4.0
 40
4.0
 40
4.0
 40
4.0
 40
5.0
 40
5.0
 40
5.0
 40
5.0
 10
146.719096619
 20
-133.9103471212636
 30
0.0
 10
146.719096619
 20
-133.7446380284231
 30
0.0
 10
146.5847378950752
 20
-133.6102793044984
 30
0.0
 10
146.4190288022347
 20
-133.6102793044984
 30
0.0
  0
SPLINE
  5
34F
330
1F
100
AcDbEntity
  8
0
  6
Continuous
 62
     7
370
    25
100
AcDbSpline
210
0.0
220
0.0
230
1.0
 70
     8
 71
     3
 72
     8
 73
     4
 74
     0
 42
0.00000001
 43
0.0000000001
 40
5.0
 40
5.0
 40
5.0
 40
5.0
 40
6.0
 40
6.0
 40
6.0
 40
6.0
 10
146.4190288022347
 20
-133.6102793044984
 30
0.0
 10
146.2533197093941
 20
-133.6102793044984
 30
0.0
 10
146.1189609854694
 20
-133.7446380284231
 30
0.0
 10
146.1189609854694
 20
-133.9103471212637
 30
0.0
  0
LINE
  5
350
330
1F
100
AcDbEntity
  8
0
  6
Continuous
 62
     7
370
    25
100
AcDbLine
 10
146.1189609855
 20
-133.9103471213
 30
0.0
 11
146.1189609855
 21
-138.8673227602
 31
0.0
  0
LINE
  5
351
330
1F
100
AcDbEntity
  8
0
  6
Continuous
 62
     7
370
    25
100
AcDbLine
 10
154.965621682
 20
-135.4759707645
 30
0.0
 11
154.6507399547
 21
-135.4759707645
 31
0.0
  0
SPLINE
  5
352
330
1F
100
AcDbEntity
  8
0
  6
Continuous
 62
     7
370
    25
100
AcDbSpline
210
0.0
220
0.0
230
1.0
 70
     8
 71
     3
 72
     8
 73
     4
 74
     0
 42
0.00000001
 43
0.0000000001
 40
8.0
 40
8.0
 40
8.0
 40
8.0
 40
9.0
 40
9.0
 40
9.0
 40
9.0
 10
146.4190288022347
 20
-139.1673905769807
 30
0.0
 10
146.5847378950752
 20
-139.1673905769807
 30
0.0
 10
146.719096619
 20
-139.0330318530559
 30
0.0
 10
146.719096619
 20
-138.8673227602154
 30
0.0
  0
LINE
  5
353
330
1F
100
AcDbEntity
  8
0
  6
Continuous
 62
     7
370
    25
100
AcDbLine
 10
146.719096619
 20
-138.8673227602
 30
0.0
 11
146.719096619
 21
-136.6889888849
 31
0.0
  0
LINE
  5
354
330
1F
100
AcDbEntity
  8
0
  6
Continuous
 62
     7
370
    25
100
AcDbLine
 10
149.7101285193
 20
-136.6889888849
 30
0.0
 11
149.7101285193
 21
-138.8673227602
 31
0.0
  0
SPLINE
  5
355
330
1F
100
AcDbEntity
  8
0
  6
Continuous
 62
     7
370
    25
100
AcDbSpline
210
0.0
220
0.0
230
1.0
 70
     8
 71
     3
 72
     8
 73
     4
 74
     0
 42
0.00000001
 43
0.0000000001
 40
16.0
 40
16.0
 40
16.0
 40
16.0
 40
17.0
 40
17.0
 40
17.0
 40
17.0
 10
154.9656216820426
 20
-137.968669602888
 30
0.0
 10
154.9656216820426
 20
-138.5402109438909
 30
0.0
 10
155.3755880447873
 20
-139.0183901972435
 30
0.0
 10
155.9402391948196
 20
-139.105378858246
 30
0.0
  0
SPLINE
  5
356
330
1F
100
AcDbEntity
  8
0
  6
Continuous
 62
     7
370
    25
100
AcDbSpline
210
0.0
220
0.0
230
1.0
 70
     8
 71
     3
 72
     8
 73
     4
 74
     0
 42
0.00000001
 43
0.0000000001
 40
12.0
 40
12.0
 40
12.0
 40
12.0
 40
13.0
 40
13.0
 40
13.0
 40
13.0
 10
149.7101285192938
 20
-138.8673227602154
 30
0.0
 10
149.7101285192938
 20
-139.0330318530559
 30
0.0
 10
149.8444872432187
 20
-139.1673905769807
 30
0.0
 10
150.0101963360592
 20
-139.1673905769807
 30
0.0
  0
SPLINE
  5
357
330
1F
100
AcDbEntity
  8
0
  6
Continuous
 62
     7
370
    25
100
AcDbSpline
210
0.0
220
0.0
230
1.0
 70
     8
 71
     3
 72
     8
 73
     4
 74
     0
 42
0.00000001
 43
0.0000000001
 40
13.0
 40
13.0
 40
13.0
 40
13.0
 40
14.0
 40
14.0
 40
14.0
 40
14.0
 10
150.0101963360592
 20
-139.1673905769807
 30
0.0
 10
150.1759054288997
 20
-139.1673905769807
 30
0.0
 10
150.3102641528245
 20
-139.0330318530559
 30
0.0
 10
150.3102641528245
 20
-138.8673227602154
 30
0.0
  0
LINE
  5
358
330
1F
100
AcDbEntity
  8
0
  6
Continuous
 62
     7
370
    25
100
AcDbLine
 10
150.3102641528
 20
-138.8673227602
 30
0.0
 11
150.3102641528
 21
-133.9103471213
 31
0.0
  0
SPLINE
  5
359
330
1F
100
AcDbEntity
  8
0
  6
Continuous
 62
     7
370
    25
100
AcDbSpline
210
0.0
220
0.0
230
1.0
 70
     8
 71
     3
 72
     8
 73
     4
 74
     0
 42
0.00000001
 43
0.0000000001
 40
15.0
 40
15.0
 40
15.0
 40
15.0
 40
16.0
 40
16.0
 40
16.0
 40
16.0
 10
150.3102641528245
 20
-133.9103471212636
 30
0.0
 10
150.3102641528245
 20
-133.7446380284231
 30
0.0
 10
150.1759054288996
 20
-133.6102793044984
 30
0.0
 10
150.0101963360591
 20
-133.6102793044984
 30
0.0
  0
LINE
  5
35A
330
1F
100
AcDbEntity
  8
0
  6
Continuous
 62
     7
370
    25
100
AcDbLine
 10
149.7101285193
 20
-133.9103471213
 30
0.0
 11
149.7101285193
 21
-136.0888532514
 31
0.0
  0
LINE
  5
35B
330
1F
100
AcDbEntity
  8
0
  6
Continuous
 62
     7
370
    25
100
AcDbLine
 10
155.5657573156
 20
-135.4759707645
 30
0.0
 11
155.5657573156
 21
-134.511860793
 31
0.0
  0
SPLINE
  5
35C
330
1F
100
AcDbEntity
  8
0
  6
Continuous
 62
     7
370
    25
100
AcDbSpline
210
0.0
220
0.0
230
1.0
 70
     8
 71
     3
 72
     8
 73
     4
 74
     0
 42
0.00000001
 43
0.0000000001
 40
8.0
 40
8.0
 40
8.0
 40
8.0
 40
9.0
 40
9.0
 40
9.0
 40
9.0
 10
155.5657573155731
 20
-134.5118607929882
 30
0.0
 10
155.5657573155731
 20
-134.3461517001477
 30
0.0
 10
155.4313985916482
 20
-134.211792976223
 30
0.0
 10
155.2656894988077
 20
-134.211792976223
 30
0.0
  0
LINE
  5
35D
330
1F
100
AcDbEntity
  8
0
  6
Continuous
 62
     7
370
    25
100
AcDbLine
 10
152.7013674791
 20
-135.6017167497
 30
0.0
 11
152.6345326266
 21
-135.5874196035
 31
0.0
  0
LINE
  5
35E
330
1F
100
AcDbEntity
  8
0
  6
Continuous
 62
     7
370
    25
100
AcDbLine
 10
152.6345326266
 20
-135.5874196035
 30
0.0
 11
152.5680422838
 21
-135.6034392975
 31
0.0
  0
SPLINE
  5
35F
330
1F
100
AcDbEntity
  8
0
  6
Continuous
 62
     7
370
    25
100
AcDbSpline
210
0.0
220
0.0
230
1.0
 70
     8
 71
     3
 72
     8
 73
     4
 74
     0
 42
0.00000001
 43
0.0000000001
 40
2.0
 40
2.0
 40
2.0
 40
2.0
 40
3.0
 40
3.0
 40
3.0
 40
3.0
 10
152.5680422837787
 20
-135.6034392974896
 30
0.0
 10
152.061613247447
 20
-135.7259124419903
 30
0.0
 10
151.1038767025476
 20
-136.2578351849129
 30
0.0
 10
151.1038767025476
 20
-137.3943721854968
 30
0.0
  0
LINE
  5
360
330
1F
100
AcDbEntity
  8
0
  6
Continuous
 62
     7
370
    25
100
AcDbLine
 10
155.5657573156
 20
-136.0761063981
 30
0.0
 11
155.8899408007
 21
-136.0761063981
 31
0.0
  0
SPLINE
  5
361
330
1F
100
AcDbEntity
  8
0
  6
Continuous
 62
     7
370
    25
100
AcDbSpline
210
0.0
220
0.0
230
1.0
 70
     8
 71
     3
 72
     8
 73
     4
 74
     0
 42
0.00000001
 43
0.0000000001
 40
4.0
 40
4.0
 40
4.0
 40
4.0
 40
5.0
 40
5.0
 40
5.0
 40
5.0
 10
155.8899408007351
 20
-136.0761063980659
 30
0.0
 10
156.0556498935756
 20
-136.0761063980659
 30
0.0
 10
156.1900086175004
 20
-135.9417476741411
 30
0.0
 10
156.1900086175004
 20
-135.7760385813006
 30
0.0
  0
SPLINE
  5
362
330
1F
100
AcDbEntity
  8
0
  6
Continuous
 62
     7
370
    25
100
AcDbSpline
210
0.0
220
0.0
230
1.0
 70
     8
 71
     3
 72
     8
 73
     4
 74
     0
 42
0.00000001
 43
0.0000000001
 40
5.0
 40
5.0
 40
5.0
 40
5.0
 40
6.0
 40
6.0
 40
6.0
 40
6.0
 10
156.1900086175004
 20
-135.7760385813006
 30
0.0
 10
156.1900086175004
 20
-135.6103294884602
 30
0.0
 10
156.0556498935756
 20
-135.4759707645354
 30
0.0
 10
155.8899408007351
 20
-135.4759707645354
 30
0.0
  0
LINE
  5
363
330
1F
100
AcDbEntity
  8
0
  6
Continuous
 62
     7
370
    25
100
AcDbLine
 10
155.8899408007
 20
-135.4759707645
 30
0.0
 11
155.5657573156
 21
-135.4759707645
 31
0.0
  0
LINE
  5
364
330
1F
100
AcDbEntity
  8
0
  6
Continuous
 62
     7
370
    25
100
AcDbLine
 10
146.719096619
 20
-136.6889888849
 30
0.0
 11
149.7101285193
 21
-136.6889888849
 31
0.0
  0
LINE
  5
365
330
1F
100
AcDbEntity
  8
0
  6
Continuous
 62
     7
370
    25
100
AcDbLine
 10
146.719096619
 20
-136.0888532514
 30
0.0
 11
146.719096619
 21
-133.9103471213
 31
0.0
  0
SPLINE
  5
366
330
1F
100
AcDbEntity
  8
0
  6
Continuous
 62
     7
370
    25
100
AcDbSpline
210
0.0
220
0.0
230
1.0
 70
     8
 71
     3
 72
     8
 73
     4
 74
     0
 42
0.00000001
 43
0.0000000001
 40
1.0
 40
1.0
 40
1.0
 40
1.0
 40
2.0
 40
2.0
 40
2.0
 40
2.0
 10
156.0318787347274
 20
-138.5124779252347
 30
0.0
 10
155.7617832486837
 20
-138.470792269863
 30
0.0
 10
155.5657573155731
 20
-138.2420379296425
 30
0.0
 10
155.5657573155731
 20
-137.968669602888
 30
0.0
  0
LINE
  5
367
330
1F
100
AcDbEntity
  8
0
  6
Continuous
 62
     7
370
    25
100
AcDbLine
 10
155.5657573156
 20
-137.9686696029
 30
0.0
 11
155.5657573156
 21
-136.0761063981
 31
0.0
  0
SPLINE
  5
368
330
1F
100
AcDbEntity
  8
0
  6
Continuous
 62
     7
370
    25
100
AcDbSpline
210
0.0
220
0.0
230
1.0
 70
     8
 71
     3
 72
     8
 73
     4
 74
     0
 42
0.00000001
 43
0.0000000001
 40
9.0
 40
9.0
 40
9.0
 40
9.0
 40
10.0
 40
10.0
 40
10.0
 40
10.0
 10
155.2656894988077
 20
-134.211792976223
 30
0.0
 10
155.0999804059672
 20
-134.211792976223
 30
0.0
 10
154.9656216820426
 20
-134.3461517001477
 30
0.0
 10
154.9656216820426
 20
-134.5118607929882
 30
0.0
  0
LINE
  5
369
330
1F
100
AcDbEntity
  8
0
  6
Continuous
 62
     7
370
    25
100
AcDbLine
 10
154.965621682
 20
-134.511860793
 30
0.0
 11
154.965621682
 21
-135.4759707645
 31
0.0
  0
SPLINE
  5
36A
330
1F
100
AcDbEntity
  8
0
  6
Continuous
 62
     7
370
    25
100
AcDbSpline
210
0.0
220
0.0
230
1.0
 70
     8
 71
     3
 72
    11
 73
     7
 74
     0
 42
0.00000001
 43
0.0000000001
 40
0.0
 40
0.0
 40
0.0
 40
0.0
 40
1.0
 40
1.0
 40
1.0
 40
2.0
 40
2.0
 40
2.0
 40
2.0
 10
152.6438343844542
 20
-136.2063310074084
 30
0.0
 10
152.4174916110733
 20
-136.2814340889867
 30
0.0
 10
151.7040123360781
 20
-136.5825354343977
 30
0.0
 10
151.7040123360781
 20
-137.3943721854968
 30
0.0
 10
151.7040123360781
 20
-138.2067257009187
 30
0.0
 10
152.4075008341661
 20
-138.4812998110931
 30
0.0
 10
152.6338436075469
 20
-138.5484791730555
 30
0.0
  0
SPLINE
  5
36B
330
1F
100
AcDbEntity
  8
0
  6
Continuous
 62
     7
370
    25
100
AcDbSpline
210
0.0
220
0.0
230
1.0
 70
     8
 71
     3
 72
    11
 73
     7
 74
     0
 42
0.00000001
 43
0.0000000001
 40
2.0
 40
2.0
 40
2.0
 40
2.0
 40
3.0
 40
3.0
 40
3.0
 40
4.0
 40
4.0
 40
4.0
 40
4.0
 10
152.6338436075469
 20
-138.5484791730555
 30
0.0
 10
152.8584638331853
 20
-138.4740651105741
 30
0.0
 10
153.5733211463746
 20
-138.1731360199375
 30
0.0
 10
153.5733211463746
 20
-137.360437994967
 30
0.0
 10
153.5733211463746
 20
-136.5482567343195
 30
0.0
 10
152.8701771578351
 20
-136.273682624145
 30
0.0
 10
152.6438343844542
 20
-136.2063310074084
 30
0.0
  0
ARC
  5
36C
330
1F
100
AcDbEntity
  8
0
  6
Continuous
 62
     7
370
    25
100
AcDbCircle
 10
313.1194962898
 20
-136.380871503
 30
0.0
 40
12.90000000000007
100
AcDbArc
 50
320.4723767179
 51
125.4865469504
  0
ARC
  5
36D
330
1F
100
AcDbEntity
  8
0
  6
Continuous
 62
     7
370
    25
100
AcDbCircle
 10
313.1194962898
 20
-136.380871503
 30
0.0
 40
12.89999999999999
100
AcDbArc
 50
125.4865469504
 51
219.5276232821
  0
ARC
  5
36E
330
1F
100
AcDbEntity
  8
0
  6
Continuous
 62
     7
370
    25
100
AcDbCircle
 10
313.1194962898
 20
-136.380871503
 30
0.0
 40
20.00000000000005
100
AcDbArc
 50
299.8347387055
 51
125.4865469504
  0
ARC
  5
36F
330
1F
100
AcDbEntity
  8
0
  6
Continuous
 62
     7
370
    25
100
AcDbCircle
 10
313.1194962898
 20
-136.380871503
 30
0.0
 40
19.99999999999999
100
AcDbArc
 50
125.4865469504
 51
240.1652612945
  0
ARC
  5
370
330
1F
100
AcDbEntity
  8
0
  6
Continuous
 62
     7
370
    25
100
AcDbCircle
 10
454.4318233997
 20
-136.380871503
 30
0.0
 40
27.0
100
AcDbArc
 50
98.5196242541
 51
81.4803757459
  0
CIRCLE
  5
371
330
1F
100
AcDbEntity
  8
0
  6
Continuous
 62
     7
370
    25
100
AcDbCircle
 10
313.1194962898
 20
-136.380871503
 30
0.0
 40
26.99999999999999
  0
ARC
  5
372
330
1F
100
AcDbEntity
  8
0
  6
Continuous
 62
     7
370
    25
100
AcDbCircle
 10
163.1194962898
 20
-136.380871503
 30
0.0
 40
26.99999999999999
100
AcDbArc
 50
98.5196242541
 51
81.4803757459
  0
LINE
  5
373
330
1F
100
AcDbEntity
  8
0
  6
Continuous
 62
     7
370
    25
100
AcDbLine
 10
159.1194962898
 20
-116.2056156147
 30
0.0
 11
167.1194962898
 21
-116.2056156147
 31
0.0
  0
LINE
  5
374
330
1F
100
AcDbEntity
  8
0
  6
Continuous
 62
     7
370
    25
100
AcDbLine
 10
159.1194962898
 20
-76.38087150300001
 30
0.0
 11
167.1194962898
 21
-76.38087150300001
 31
0.0
  0
LINE
  5
375
330
1F
100
AcDbEntity
  8
0
  6
Continuous
 62
     7
370
    25
100
AcDbLine
 10
450.4318233997
 20
-116.2056156147
 30
0.0
 11
458.4318233997
 21
-116.2056156147
 31
0.0
  0
LINE
  5
376
330
1F
100
AcDbEntity
  8
0
  6
Continuous
 62
     7
370
    25
100
AcDbLine
 10
450.4318233997
 20
-76.38087150300001
 30
0.0
 11
458.4318233997
 21
-76.38087150300001
 31
0.0
  0
DIMENSION
  5
377
102
{ACAD_XDICTIONARY
360
480
102
}
330
1F
100
AcDbEntity
  8
DIMENSION
100
AcDbDimension
280
     0
  2
*D14
 10
114.1194962898
 20
-156.380871503
 30
0.0
 11
114.1194962898
 21
-110.2951146544
 31
0.0
 70
   160
  1
<>
 71
     2
 42
79.99999999999999
 73
     0
 74
     0
 75
     0
  3
RG Dimension Lines
100
AcDbAlignedDimension
 13
159.1194962898
 23
-76.38087150300001
 33
0.0
 14
163.1194962898
 24
-156.3808715029999
 34
0.0
 50
90.0
100
AcDbRotatedDimension
1001
AcadAnnotative
1000
AnnotativeData
1002
{
1070
     1
1070
     1
1002
}
  0
DIMENSION
  5
37F
102
{ACAD_XDICTIONARY
360
472
102
}
330
1F
100
AcDbEntity
  8
DIMENSION
100
AcDbDimension
280
     0
  2
*D13
 10
325.8194962898
 20
-84.94336030959999
 30
0.0
 11
313.1194962898
 21
-84.94336030959999
 31
0.0
 70
   160
  1
%%c<>
 71
     2
 42
25.39999999999998
 73
     0
 74
     0
 75
     0
  3
RG Dimension Lines
100
AcDbAlignedDimension
 13
300.4194962898
 23
-136.380871503
 33
0.0
 14
325.8194962898
 24
-136.380871503
 34
0.0
100
AcDbRotatedDimension
1001
AcadAnnotative
1000
AnnotativeData
1002
{
1070
     1
1070
     1
1002
}
  0
LINE
  5
388
330
1F
100
AcDbEntity
  8
0
  6
Continuous
 62
     7
370
    25
100
AcDbLine
 10
-166.0712707825
 20
196.7349045795
 30
0.0
 11
36.2987292175
 21
196.7349045795
 31
0.0
  0
LINE
  5
389
330
1F
100
AcDbEntity
  8
0
  6
Continuous
 62
     7
370
    25
100
AcDbLine
 10
36.2987292175
 20
222.1349045795
 30
0.0
 11
-166.0712707825
 21
222.1349045795
 31
0.0
  0
LINE
  5
38A
330
1F
100
AcDbEntity
  8
0
  6
Continuous
 62
     7
370
    25
100
AcDbLine
 10
-166.5048944652
 20
330.7472316893
 30
0.0
 11
-131.5048944652
 21
330.7472316893
 31
0.0
  0
LINE
  5
38B
330
1F
100
AcDbEntity
  8
0
  6
Continuous
 62
     7
370
    25
100
AcDbLine
 10
-131.5048944652
 20
370.7472316893
 30
0.0
 11
-166.5048944652
 21
370.7472316893
 31
0.0
  0
LINE
  5
38C
330
1F
100
AcDbEntity
  8
0
  6
Continuous
 62
     7
370
    25
100
AcDbLine
 10
-131.4986444652
 20
358.3596042794
 30
0.0
 11
-131.5048944652
 21
358.3596042794
 31
0.0
  0
LINE
  5
38D
330
1F
100
AcDbEntity
  8
0
  6
Continuous
 62
     7
370
    25
100
AcDbLine
 10
-166.5048944652
 20
39.4349045795
 30
0.0
 11
-131.5048944652
 21
39.4349045795
 31
0.0
  0
LINE
  5
38E
330
1F
100
AcDbEntity
  8
0
  6
Continuous
 62
     7
370
    25
100
AcDbLine
 10
-131.5048944652
 20
79.4349045795
 30
0.0
 11
-166.5048944652
 21
79.4349045795
 31
0.0
  0
LINE
  5
38F
330
1F
100
AcDbEntity
  8
0
  6
Continuous
 62
     7
370
    25
100
AcDbLine
 10
-131.4986444652
 20
52.98022583439999
 30
0.0
 11
-131.5048944652
 21
52.98022583439999
 31
0.0
  0
LINE
  5
390
330
1F
100
AcDbEntity
  8
0
  6
Continuous
 62
     7
370
    25
100
AcDbLine
 10
-172.0712707825
 20
189.4349045795
 30
0.0
 11
-166.0712707825
 21
189.4349045795
 31
0.0
  0
LINE
  5
391
330
1F
100
AcDbEntity
  8
0
  6
Continuous
 62
     7
370
    25
100
AcDbLine
 10
-166.0712707825
 20
229.4349045795
 30
0.0
 11
-172.0712707825
 21
229.4349045795
 31
0.0
  0
LINE
  5
392
330
1F
100
AcDbEntity
  8
0
  6
Continuous
 62
     7
370
    25
100
AcDbLine
 10
-172.0712707825
 20
41.68490457949999
 30
0.0
 11
-166.5048944652
 21
41.68490457949999
 31
0.0
  0
LINE
  5
393
330
1F
100
AcDbEntity
  8
0
  6
Continuous
 62
     7
370
    25
100
AcDbLine
 10
-166.5048944652
 20
77.1849045795
 30
0.0
 11
-172.0712707825
 21
77.1849045795
 31
0.0
  0
LINE
  5
394
330
1F
100
AcDbEntity
  8
0
  6
Continuous
 62
     7
370
    25
100
AcDbLine
 10
-172.0712707825
 20
332.9972316893
 30
0.0
 11
-166.5048944652
 21
332.9972316893
 31
0.0
  0
LINE
  5
395
330
1F
100
AcDbEntity
  8
0
  6
Continuous
 62
     7
370
    25
100
AcDbLine
 10
-166.5048944652
 20
368.4972316893
 30
0.0
 11
-172.0712707825
 21
368.4972316893
 31
0.0
  0
LINE
  5
396
330
1F
100
AcDbEntity
  8
0
  6
Continuous
 62
     7
370
    25
100
AcDbLine
 10
-174.5712707825
 20
323.7472316893
 30
0.0
 11
-172.0712707825
 21
323.7472316893
 31
0.0
  0
LINE
  5
397
330
1F
100
AcDbEntity
  8
0
  6
Continuous
 62
     7
370
    25
100
AcDbLine
 10
-172.0712707825
 20
377.7472316893
 30
0.0
 11
-174.5712707825
 21
377.7472316893
 31
0.0
  0
LINE
  5
398
330
1F
100
AcDbEntity
  8
0
  6
Continuous
 62
     7
370
    25
100
AcDbLine
 10
-174.5712707825
 20
182.4349045795
 30
0.0
 11
-172.0712707825
 21
182.4349045795
 31
0.0
  0
LINE
  5
399
330
1F
100
AcDbEntity
  8
0
  6
Continuous
 62
     7
370
    25
100
AcDbLine
 10
-172.0712707825
 20
236.4349045795
 30
0.0
 11
-174.5712707825
 21
236.4349045795
 31
0.0
  0
LINE
  5
39A
330
1F
100
AcDbEntity
  8
0
  6
Continuous
 62
     7
370
    25
100
AcDbLine
 10
-174.5712707825
 20
32.4349045795
 30
0.0
 11
-172.0712707825
 21
32.4349045795
 31
0.0
  0
LINE
  5
39B
330
1F
100
AcDbEntity
  8
0
  6
Continuous
 62
     7
370
    25
100
AcDbLine
 10
-172.0712707825
 20
86.43490457950001
 30
0.0
 11
-174.5712707825
 21
86.43490457950001
 31
0.0
  0
LINE
  5
39C
330
1F
100
AcDbEntity
  8
0
  6
Continuous
 62
     7
370
    25
100
AcDbLine
 10
36.2987292175
 20
196.7349045795
 30
0.0
 11
36.2987292175
 21
222.1349045795
 31
0.0
  0
SPLINE
  5
39D
330
1F
100
AcDbEntity
  8
0
  6
Continuous
 62
     7
370
    25
100
AcDbSpline
210
0.0
220
0.0
230
1.0
 70
     8
 71
     3
 72
     9
 73
     5
 74
     0
 42
0.00000001
 43
0.0000000001
 40
0.0
 40
0.0
 40
0.0
 40
0.0
 40
0.3429907136970107
 40
1.0
 40
1.0
 40
1.0
 40
1.0
 10
-142.8742308118631
 20
353.9179461284523
 30
0.0
 10
-143.0212971068411
 20
353.822300953268
 30
0.0
 10
-143.450073423823
 20
353.5434444963296
 30
0.0
 10
-143.718595599573
 20
353.1017505778407
 30
0.0
 10
-143.895017162619
 20
352.8115535716896
 30
0.0
  0
LINE
  5
39E
330
1F
100
AcDbEntity
  8
0
  6
Continuous
 62
     7
370
    25
100
AcDbLine
 10
-166.5048944652
 20
330.7472316893
 30
0.0
 11
-166.5048944652
 21
370.7472316893
 31
0.0
  0
LINE
  5
39F
330
1F
100
AcDbEntity
  8
0
  6
Continuous
 62
     7
370
    25
100
AcDbLine
 10
-131.5048944652
 20
330.7472316893
 30
0.0
 11
-131.5048944652
 21
370.7472316893
 31
0.0
  0
LINE
  5
3A0
330
1F
100
AcDbEntity
  8
0
  6
Continuous
 62
     7
370
    25
100
AcDbLine
 10
-166.5048944652
 20
39.4349045795
 30
0.0
 11
-166.5048944652
 21
79.4349045795
 31
0.0
  0
LINE
  5
3A1
330
1F
100
AcDbEntity
  8
0
  6
Continuous
 62
     7
370
    25
100
AcDbLine
 10
-131.5048944652
 20
39.4349045795
 30
0.0
 11
-131.5048944652
 21
79.4349045795
 31
0.0
  0
LINE
  5
3A2
330
1F
100
AcDbEntity
  8
0
  6
Continuous
 62
     7
370
    25
100
AcDbLine
 10
-166.0712707825
 20
197.824668872
 30
0.0
 11
-166.0712707825
 21
229.4349045795
 31
0.0
  0
LINE
  5
3A3
330
1F
100
AcDbEntity
  8
0
  6
Continuous
 62
     7
370
    25
100
AcDbLine
 10
-166.0712707825
 20
189.4349045795
 30
0.0
 11
-166.0712707825
 21
197.824668872
 31
0.0
  0
LINE
  5
3A4
330
1F
100
AcDbEntity
  8
0
  6
Continuous
 62
     7
370
    25
100
AcDbLine
 10
-172.0712707825
 20
350.7472316893
 30
0.0
 11
-172.0712707825
 21
377.7472316893
 31
0.0
  0
LINE
  5
3A5
330
1F
100
AcDbEntity
  8
0
  6
Continuous
 62
     7
370
    25
100
AcDbLine
 10
-172.0712707825
 20
323.7472316893
 30
0.0
 11
-172.0712707825
 21
350.7472316893
 31
0.0
  0
LINE
  5
3A6
330
1F
100
AcDbEntity
  8
0
  6
Continuous
 62
     7
370
    25
100
AcDbLine
 10
-174.5712707825
 20
350.7472316893
 30
0.0
 11
-174.5712707825
 21
377.7472316893
 31
0.0
  0
LINE
  5
3A7
330
1F
100
AcDbEntity
  8
0
  6
Continuous
 62
     7
370
    25
100
AcDbLine
 10
-174.5712707825
 20
323.7472316893
 30
0.0
 11
-174.5712707825
 21
350.7472316893
 31
0.0
  0
LINE
  5
3A8
330
1F
100
AcDbEntity
  8
0
  6
Continuous
 62
     7
370
    25
100
AcDbLine
 10
-172.0712707825
 20
209.4349045795
 30
0.0
 11
-172.0712707825
 21
236.4349045795
 31
0.0
  0
LINE
  5
3A9
330
1F
100
AcDbEntity
  8
0
  6
Continuous
 62
     7
370
    25
100
AcDbLine
 10
-172.0712707825
 20
182.4349045795
 30
0.0
 11
-172.0712707825
 21
209.4349045795
 31
0.0
  0
LINE
  5
3AA
330
1F
100
AcDbEntity
  8
0
  6
Continuous
 62
     7
370
    25
100
AcDbLine
 10
-174.5712707825
 20
209.4349045795
 30
0.0
 11
-174.5712707825
 21
236.4349045795
 31
0.0
  0
LINE
  5
3AB
330
1F
100
AcDbEntity
  8
0
  6
Continuous
 62
     7
370
    25
100
AcDbLine
 10
-174.5712707825
 20
182.4349045795
 30
0.0
 11
-174.5712707825
 21
209.4349045795
 31
0.0
  0
LINE
  5
3AC
330
1F
100
AcDbEntity
  8
0
  6
Continuous
 62
     7
370
    25
100
AcDbLine
 10
-172.0712707825
 20
59.4349045795
 30
0.0
 11
-172.0712707825
 21
86.43490457950001
 31
0.0
  0
LINE
  5
3AD
330
1F
100
AcDbEntity
  8
0
  6
Continuous
 62
     7
370
    25
100
AcDbLine
 10
-172.0712707825
 20
32.4349045795
 30
0.0
 11
-172.0712707825
 21
59.4349045795
 31
0.0
  0
LINE
  5
3AE
330
1F
100
AcDbEntity
  8
0
  6
Continuous
 62
     7
370
    25
100
AcDbLine
 10
-174.5712707825
 20
59.4349045795
 30
0.0
 11
-174.5712707825
 21
86.43490457950001
 31
0.0
  0
LINE
  5
3AF
330
1F
100
AcDbEntity
  8
0
  6
Continuous
 62
     7
370
    25
100
AcDbLine
 10
-174.5712707825
 20
32.4349045795
 30
0.0
 11
-174.5712707825
 21
59.4349045795
 31
0.0
  0
CIRCLE
  5
3B0
330
1F
100
AcDbEntity
  8
0
  6
Continuous
 62
     7
370
    25
100
AcDbCircle
 10
-140.5048944652
 20
59.4349045795
 30
0.0
 40
3.999999999999996
  0
CIRCLE
  5
3B1
330
1F
100
AcDbEntity
  8
0
  6
Continuous
 62
     7
370
    25
100
AcDbCircle
 10
-140.5048944652
 20
350.7472316893
 30
0.0
 40
4.000000000000006
  0
DIMENSION
  5
3B2
102
{ACAD_XDICTIONARY
360
456
102
}
330
1F
100
AcDbEntity
  8
DIMENSION
100
AcDbDimension
280
     0
  2
*D11
 10
-198.2635339725
 20
32.43490457950001
 30
0.0
 11
-198.2635339725
 21
57.3741305891
 31
0.0
 70
   160
  1
%%c<>
 71
     2
 42
54.00000000000003
 73
     0
 74
     0
 75
     0
  3
RG Dimension Lines
100
AcDbAlignedDimension
 13
-174.5712707825
 23
86.43490457950001
 33
0.0
 14
-174.5712707825
 24
32.4349045795
 34
0.0
 50
90.0
100
AcDbRotatedDimension
1001
AcadAnnotative
1000
AnnotativeData
1002
{
1070
     1
1070
     1
1002
}
  0
DIMENSION
  5
3BB
102
{ACAD_XDICTIONARY
360
464
102
}
330
1F
100
AcDbEntity
  8
DIMENSION
100
AcDbDimension
280
     0
  2
*D12
 10
-197.8133764695001
 20
182.4349045795
 30
0.0
 11
-197.8133764695
 21
208.6960863113
 31
0.0
 70
   160
  1
%%c<>
 71
     2
 42
54.00000000000003
 73
     0
 74
     0
 75
     0
  3
RG Dimension Lines
100
AcDbAlignedDimension
 13
-174.5712707825
 23
236.4349045795
 33
0.0
 14
-174.5712707825
 24
182.4349045795
 34
0.0
 50
90.0
100
AcDbRotatedDimension
1001
AcadAnnotative
1000
AnnotativeData
1002
{
1070
     1
1070
     1
1002
}
  0
DIMENSION
  5
431
102
{ACAD_XDICTIONARY
360
448
102
}
330
1F
100
AcDbEntity
  8
DIMENSION
100
AcDbDimension
280
     0
  2
*D10
 10
36.2987292175
 20
-60.13468876065667
 30
0.0
 11
-69.13627078249999
 21
-52.13468876065667
 31
0.0
 70
    32
 71
     5
 42
210.87
 73
     0
 74
     0
 75
     0
  3
RG Dimension Lines
100
AcDbAlignedDimension
 13
-174.5712707825
 23
-136.380871503
 33
0.0
 14
36.2987292175
 24
-123.680871503
 34
0.0
100
AcDbRotatedDimension
1001
AcadAnnotative
1000
AnnotativeData
1002
{
1070
     1
1070
     1
1002
}
1001
ACAD
1000
DSTYLE
1002
{
1070
    45
1040
5.0
1002
}
  0
DIMENSION
  5
484
102
{ACAD_XDICTIONARY
360
49C
102
}
330
1F
100
AcDbEntity
  8
DIMENSION
100
AcDbDimension
280
     0
  2
*D16
 10
52.36055311449588
 20
-158.5045875904
 30
0.0
 11
63.02721978116249
 21
-147.4427295467
 31
0.0
 70
    32
 71
     5
 42
22.12371608740006
 73
     0
 74
     0
 75
     0
  3
RG Dimension Lines
100
AcDbAlignedDimension
 13
-174.5712707825
 23
-136.380871503
 33
0.0
 14
25.4297301728
 24
-158.5045875904
 34
0.0
 50
90.0
100
AcDbRotatedDimension
1001
AcadAnnotative
1000
AnnotativeData
1002
{
1070
     1
1070
     1
1002
}
  0
ENDSEC
  0
SECTION
  2
OBJECTS
  0
DICTIONARY
  5
C
330
0
100
AcDbDictionary
281
     1
  3
ACAD_CIP_PREVIOUS_PRODUCT_INFO
350
404
  3
ACAD_COLOR
350
3F9
  3
ACAD_DETAILVIEWSTYLE
350
400
  3
ACAD_GROUP
350
D
  3
ACAD_LAYOUT
350
1A
  3
ACAD_MATERIAL
350
3C7
  3
ACAD_MLEADERSTYLE
350
3FC
  3
ACAD_MLINESTYLE
350
17
  3
ACAD_PLOTSETTINGS
350
19
  3
ACAD_PLOTSTYLENAME
350
E
  3
ACAD_SCALELIST
350
47
  3
ACAD_SECTIONVIEWSTYLE
350
3FE
  3
ACAD_TABLESTYLE
350
3FA
  3
ACAD_VISUALSTYLE
350
3E0
  3
ACDB_RECOMPOSE_DATA
350
4DC
  3
AcDbVariableDictionary
350
4BE
  0
DICTIONARY
  5
417
330
2
100
AcDbDictionary
280
     1
281
     1
  3
ACAD_LAYERSTATES
360
418
  0
DICTIONARY
  5
4B8
330
10
100
AcDbDictionary
280
     1
281
     1
  3
ADSK_XREC_LAYER_RECONCILED
360
4B9
  0
DICTIONARY
  5
4BA
330
73
100
AcDbDictionary
280
     1
281
     1
  3
ADSK_XREC_LAYER_RECONCILED
360
4BB
  0
DICTIONARY
  5
4BC
330
410
100
AcDbDictionary
280
     1
281
     1
  3
ADSK_XREC_LAYER_RECONCILED
360
4BD
  0
DICTIONARY
  5
4AA
330
99
100
AcDbDictionary
280
     1
281
     1
  3
AcDbContextDataManager
360
4AB
  0
DICTIONARY
  5
480
330
377
100
AcDbDictionary
280
     1
281
     1
  3
AcDbContextDataManager
360
481
  0
DICTIONARY
  5
472
330
37F
100
AcDbDictionary
280
     1
281
     1
  3
AcDbContextDataManager
360
473
  0
DICTIONARY
  5
456
330
3B2
100
AcDbDictionary
280
     1
281
     1
  3
AcDbContextDataManager
360
457
  0
DICTIONARY
  5
464
330
3BB
100
AcDbDictionary
280
     1
281
     1
  3
AcDbContextDataManager
360
465
  0
DICTIONARY
  5
448
330
431
100
AcDbDictionary
280
     1
281
     1
  3
AcDbContextDataManager
360
449
  0
DICTIONARY
  5
49C
330
484
100
AcDbDictionary
280
     1
281
     1
  3
AcDbContextDataManager
360
49D
  0
XRECORD
  5
404
102
{ACAD_REACTORS
330
C
102
}
330
C
100
AcDbXrecord
280
     1
300
ACD
300
2021
300

  0
DICTIONARY
  5
3F9
102
{ACAD_REACTORS
330
C
102
}
330
C
100
AcDbDictionary
281
     1
  0
DICTIONARY
  5
400
102
{ACAD_REACTORS
330
C
102
}
330
C
100
AcDbDictionary
281
     1
  3
Metric50
350
401
  0
DICTIONARY
  5
D
102
{ACAD_REACTORS
330
C
102
}
330
C
100
AcDbDictionary
281
     1
  0
DICTIONARY
  5
1A
102
{ACAD_REACTORS
330
C
102
}
330
C
100
AcDbDictionary
281
     1
  3
Layout1
350
1E
  3
Layout2
350
26
  3
Model
350
22
  0
DICTIONARY
  5
3C7
102
{ACAD_REACTORS
330
C
102
}
330
C
100
AcDbDictionary
281
     1
  3
ByBlock
350
3D0
  3
ByLayer
350
3C8
  3
Global
350
3D8
  0
DICTIONARY
  5
3FC
102
{ACAD_REACTORS
330
C
102
}
330
C
100
AcDbDictionary
281
     1
  3
Standard
350
3FD
  0
DICTIONARY
  5
17
102
{ACAD_REACTORS
330
C
102
}
330
C
100
AcDbDictionary
281
     1
  3
Standard
350
18
  0
DICTIONARY
  5
19
102
{ACAD_REACTORS
330
C
102
}
330
C
100
AcDbDictionary
281
     1
  0
ACDBDICTIONARYWDFLT
  5
E
102
{ACAD_REACTORS
330
C
102
}
330
C
100
AcDbDictionary
281
     1
  3
Normal
350
F
100
AcDbDictionaryWithDefault
340
F
  0
DICTIONARY
  5
47
102
{ACAD_REACTORS
330
C
102
}
330
C
100
AcDbDictionary
281
     1
  3
A0
350
48
  3
A1
350
49
  3
A2
350
4A
  3
A3
350
4B
  3
A4
350
4C
  3
A5
350
4D
  3
A6
350
4E
  3
A7
350
4F
  3
A8
350
50
  3
A9
350
51
  3
B0
350
52
  3
B1
350
53
  3
B2
350
54
  3
B3
350
55
  3
B4
350
56
  3
B5
350
57
  3
B6
350
58
  3
B7
350
59
  3
B8
350
5A
  3
B9
350
5B
  3
C0
350
5C
  3
C1
350
5D
  3
C2
350
5E
  3
C3
350
5F
  3
C4
350
60
  3
C5
350
61
  3
C6
350
62
  3
C7
350
63
  3
C8
350
64
  3
C9
350
65
  3
D0
350
66
  3
D1
350
67
  3
D2
350
68
  0
DICTIONARY
  5
3FE
102
{ACAD_REACTORS
330
C
102
}
330
C
100
AcDbDictionary
281
     1
  3
Metric50
350
3FF
  0
DICTIONARY
  5
3FA
102
{ACAD_REACTORS
330
C
102
}
330
C
100
AcDbDictionary
281
     1
  3
Standard
350
3FB
  0
DICTIONARY
  5
3E0
102
{ACAD_REACTORS
330
C
102
}
330
C
100
AcDbDictionary
281
     1
  3
2dWireframe
350
3E6
  3
Basic
350
3E5
  3
Brighten
350
3EC
  3
ColorChange
350
3F0
  3
Conceptual
350
3E9
  3
Dim
350
3EB
  3
EdgeColorOff
350
3F8
  3
Facepattern
350
3EF
  3
Flat
350
3E1
  3
FlatWithEdges
350
3E2
  3
Gouraud
350
3E3
  3
GouraudWithEdges
350
3E4
  3
Hidden
350
3E8
  3
JitterOff
350
3F6
  3
Linepattern
350
3EE
  3
OverhangOff
350
3F7
  3
Realistic
350
3EA
  3
Shaded
350
3F5
  3
Shaded with edges
350
3F4
  3
Shades of Gray
350
3F1
  3
Sketchy
350
3F2
  3
Thicken
350
3ED
  3
Wireframe
350
3E7
  3
X-Ray
350
3F3
  0
XRECORD
  5
4DC
102
{ACAD_REACTORS
330
C
102
}
330
C
100
AcDbXrecord
280
     1
 90
        1
330
3FB
  0
DICTIONARY
  5
4BE
102
{ACAD_REACTORS
330
C
102
}
330
C
100
AcDbDictionary
281
     1
  3
CANNOSCALE
350
4C4
  3
CMLEADERSTYLE
350
4C0
  3
CTABLESTYLE
350
4BF
  3
CVIEWDETAILSTYLE
350
4C1
  3
CVIEWSECTIONSTYLE
350
4C2
  3
LAYEREVAL
350
4C6
  3
LAYERNOTIFY
350
4C7
  3
LIGHTINGUNITS
350
4C5
  3
MSLTSCALE
350
4C3
  0
DICTIONARY
  5
418
102
{ACAD_REACTORS
330
417
102
}
330
417
100
AcDbDictionary
281
     1
  0
XRECORD
  5
4B9
102
{ACAD_REACTORS
330
4B8
102
}
330
4B8
100
AcDbXrecord
280
     1
290
     1
  0
XRECORD
  5
4BB
102
{ACAD_REACTORS
330
4BA
102
}
330
4BA
100
AcDbXrecord
280
     1
290
     1
  0
XRECORD
  5
4BD
102
{ACAD_REACTORS
330
4BC
102
}
330
4BC
100
AcDbXrecord
280
     1
290
     1
  0
DICTIONARY
  5
4AB
102
{ACAD_REACTORS
330
4AA
102
}
330
4AA
100
AcDbDictionary
281
     1
  3
ACDB_ANNOTATIONSCALES
350
4AC
  0
DICTIONARY
  5
481
102
{ACAD_REACTORS
330
480
102
}
330
480
100
AcDbDictionary
281
     1
  3
ACDB_ANNOTATIONSCALES
350
482
  0
DICTIONARY
  5
473
102
{ACAD_REACTORS
330
472
102
}
330
472
100
AcDbDictionary
281
     1
  3
ACDB_ANNOTATIONSCALES
350
474
  0
DICTIONARY
  5
457
102
{ACAD_REACTORS
330
456
102
}
330
456
100
AcDbDictionary
281
     1
  3
ACDB_ANNOTATIONSCALES
350
458
  0
DICTIONARY
  5
465
102
{ACAD_REACTORS
330
464
102
}
330
464
100
AcDbDictionary
281
     1
  3
ACDB_ANNOTATIONSCALES
350
466
  0
DICTIONARY
  5
449
102
{ACAD_REACTORS
330
448
102
}
330
448
100
AcDbDictionary
281
     1
  3
ACDB_ANNOTATIONSCALES
350
44A
  0
DICTIONARY
  5
49D
102
{ACAD_REACTORS
330
49C
102
}
330
49C
100
AcDbDictionary
281
     1
  3
ACDB_ANNOTATIONSCALES
350
49E
  0
ACDBDETAILVIEWSTYLE
  5
401
102
{ACAD_REACTORS
330
400
102
}
330
400
100
AcDbModelDocViewStyle
 70
     0
  3
Metric50
290
     0
300
Metric50
 90
        0
100
AcDbDetailViewStyle
 70
     0
 71
     0
 90
        3
 71
     1
340
11
 62
   256
 40
5.0
340
0
 62
   256
 40
5.0
300

 40
0.0
280
     1
 71
     2
340
16
 90
       25
 62
   256
 71
     3
340
11
 62
   256
 40
5.0
 90
        0
 40
15.0
 90
        1
300
%<\AcVar ViewDetailId>% (%<\AcVar ViewScale \f "%sn">%)
 71
     4
340
16
 90
       25
 62
   256
340
16
 90
       25
 62
   256
280
     0
  0
LAYOUT
  5
1E
102
{ACAD_REACTORS
330
1A
102
}
330
1A
100
AcDbPlotSettings
  1

  2
none_device
  4

  6

 40
0.0
 41
0.0
 42
0.0
 43
0.0
 44
0.0
 45
0.0
 46
0.0
 47
0.0
 48
0.0
 49
0.0
140
0.0
141
0.0
142
1.0
143
1.0
 70
   688
 72
     1
 73
     0
 74
     5
  7

 75
    16
147
1.0
 76
     0
 77
     2
 78
   300
148
0.0
149
0.0
100
AcDbLayout
  1
Layout1
 70
     1
 71
     1
 10
0.0
 20
0.0
 11
420.0
 21
297.0
 12
0.0
 22
0.0
 32
0.0
 14
1.000000000000000E+20
 24
1.000000000000000E+20
 34
1.000000000000000E+20
 15
-1.000000000000000E+20
 25
-1.000000000000000E+20
 35
-1.000000000000000E+20
146
0.0
 13
0.0
 23
0.0
 33
0.0
 16
1.0
 26
0.0
 36
0.0
 17
0.0
 27
1.0
 37
0.0
 76
     0
330
1B
  0
LAYOUT
  5
26
102
{ACAD_REACTORS
330
1A
102
}
330
1A
100
AcDbPlotSettings
  1

  2
none_device
  4

  6

 40
0.0
 41
0.0
 42
0.0
 43
0.0
 44
0.0
 45
0.0
 46
0.0
 47
0.0
 48
0.0
 49
0.0
140
0.0
141
0.0
142
1.0
143
1.0
 70
   688
 72
     1
 73
     0
 74
     5
  7

 75
    16
147
1.0
 76
     0
 77
     2
 78
   300
148
0.0
149
0.0
100
AcDbLayout
  1
Layout2
 70
     1
 71
     2
 10
0.0
 20
0.0
 11
0.0
 21
0.0
 12
0.0
 22
0.0
 32
0.0
 14
0.0
 24
0.0
 34
0.0
 15
0.0
 25
0.0
 35
0.0
146
0.0
 13
0.0
 23
0.0
 33
0.0
 16
1.0
 26
0.0
 36
0.0
 17
0.0
 27
1.0
 37
0.0
 76
     0
330
23
  0
LAYOUT
  5
22
102
{ACAD_REACTORS
330
1A
102
}
330
1A
100
AcDbPlotSettings
  1

  2
none_device
  4
Letter_(8.50_x_11.00_Inches)
  6

 40
6.349999999999999
 41
6.349999999999999
 42
6.350005079999999
 43
6.350005079999999
 44
215.9
 45
279.4
 46
0.0
 47
0.0
 48
0.0
 49
0.0
140
0.0
141
0.0
142
1.0
143
1.0
 70
  1712
 72
     1
 73
     0
 74
     0
  7

 75
     0
147
1.0
 76
     0
 77
     2
 78
   300
148
0.0
149
0.0
100
AcDbLayout
  1
Model
 70
     1
 71
     0
 10
0.0
 20
0.0
 11
420.0
 21
297.0
 12
0.0
 22
0.0
 32
0.0
 14
0.0
 24
0.0
 34
0.0
 15
420.0
 25
297.0
 35
0.0
146
0.0
 13
0.0
 23
0.0
 33
0.0
 16
1.0
 26
0.0
 36
0.0
 17
0.0
 27
1.0
 37
0.0
 76
     0
330
1F
331
29
  0
MATERIAL
  5
3D0
102
{ACAD_XDICTIONARY
360
3D1
102
}
102
{ACAD_REACTORS
330
3C7
102
}
330
3C7
100
AcDbMaterial
  1
ByBlock
 72
     0
 43
0.0008202099737533
 43
0.0
 43
0.0
 43
0.0
 43
0.0
 43
0.0008202099737533
 43
0.0
 43
0.0
 43
0.0
 43
0.0
 43
1.0
 43
0.0
 43
0.0
 43
0.0
 43
0.0
 43
1.0
 77
     0
 47
0.0008202099737533
 47
0.0
 47
0.0
 47
0.0
 47
0.0
 47
0.0008202099737533
 47
0.0
 47
0.0
 47
0.0
 47
0.0
 47
1.0
 47
0.0
 47
0.0
 47
0.0
 47
0.0
 47
1.0
171
     0
 49
0.0008202099737533
 49
0.0
 49
0.0
 49
0.0
 49
0.0
 49
0.0008202099737533
 49
0.0
 49
0.0
 49
0.0
 49
0.0
 49
1.0
 49
0.0
 49
0.0
 49
0.0
 49
0.0
 49
1.0
175
     0
142
0.0008202099737533
142
0.0
142
0.0
142
0.0
142
0.0
142
0.0008202099737533
142
0.0
142
0.0
142
0.0
142
0.0
142
1.0
142
0.0
142
0.0
142
0.0
142
0.0
142
1.0
179
     0
144
0.0008202099737533
144
0.0
144
0.0
144
0.0
144
0.0
144
0.0008202099737533
144
0.0
144
0.0
144
0.0
144
0.0
144
1.0
144
0.0
144
0.0
144
0.0
144
0.0
144
1.0
147
0.0008202099737533
147
0.0
147
0.0
147
0.0
147
0.0
147
0.0008202099737533
147
0.0
147
0.0
147
0.0
147
0.0
147
1.0
147
0.0
147
0.0
147
0.0
147
0.0
147
1.0
  0
MATERIAL
  5
3C8
102
{ACAD_XDICTIONARY
360
3C9
102
}
102
{ACAD_REACTORS
330
3C7
102
}
330
3C7
100
AcDbMaterial
  1
ByLayer
 72
     0
 43
0.0008202099737533
 43
0.0
 43
0.0
 43
0.0
 43
0.0
 43
0.0008202099737533
 43
0.0
 43
0.0
 43
0.0
 43
0.0
 43
1.0
 43
0.0
 43
0.0
 43
0.0
 43
0.0
 43
1.0
 77
     0
 47
0.0008202099737533
 47
0.0
 47
0.0
 47
0.0
 47
0.0
 47
0.0008202099737533
 47
0.0
 47
0.0
 47
0.0
 47
0.0
 47
1.0
 47
0.0
 47
0.0
 47
0.0
 47
0.0
 47
1.0
171
     0
 49
0.0008202099737533
 49
0.0
 49
0.0
 49
0.0
 49
0.0
 49
0.0008202099737533
 49
0.0
 49
0.0
 49
0.0
 49
0.0
 49
1.0
 49
0.0
 49
0.0
 49
0.0
 49
0.0
 49
1.0
175
     0
142
0.0008202099737533
142
0.0
142
0.0
142
0.0
142
0.0
142
0.0008202099737533
142
0.0
142
0.0
142
0.0
142
0.0
142
1.0
142
0.0
142
0.0
142
0.0
142
0.0
142
1.0
179
     0
144
0.0008202099737533
144
0.0
144
0.0
144
0.0
144
0.0
144
0.0008202099737533
144
0.0
144
0.0
144
0.0
144
0.0
144
1.0
144
0.0
144
0.0
144
0.0
144
0.0
144
1.0
147
0.0008202099737533
147
0.0
147
0.0
147
0.0
147
0.0
147
0.0008202099737533
147
0.0
147
0.0
147
0.0
147
0.0
147
1.0
147
0.0
147
0.0
147
0.0
147
0.0
147
1.0
  0
MATERIAL
  5
3D8
102
{ACAD_XDICTIONARY
360
3D9
102
}
102
{ACAD_REACTORS
330
3C7
102
}
330
3C7
100
AcDbMaterial
  1
Global
 72
     0
 43
0.0008202099737533
 43
0.0
 43
0.0
 43
0.0
 43
0.0
 43
0.0008202099737533
 43
0.0
 43
0.0
 43
0.0
 43
0.0
 43
1.0
 43
0.0
 43
0.0
 43
0.0
 43
0.0
 43
1.0
 77
     0
 47
0.0008202099737533
 47
0.0
 47
0.0
 47
0.0
 47
0.0
 47
0.0008202099737533
 47
0.0
 47
0.0
 47
0.0
 47
0.0
 47
1.0
 47
0.0
 47
0.0
 47
0.0
 47
0.0
 47
1.0
171
     0
 49
0.0008202099737533
 49
0.0
 49
0.0
 49
0.0
 49
0.0
 49
0.0008202099737533
 49
0.0
 49
0.0
 49
0.0
 49
0.0
 49
1.0
 49
0.0
 49
0.0
 49
0.0
 49
0.0
 49
1.0
175
     0
142
0.0008202099737533
142
0.0
142
0.0
142
0.0
142
0.0
142
0.0008202099737533
142
0.0
142
0.0
142
0.0
142
0.0
142
1.0
142
0.0
142
0.0
142
0.0
142
0.0
142
1.0
179
     0
144
0.0008202099737533
144
0.0
144
0.0
144
0.0
144
0.0
144
0.0008202099737533
144
0.0
144
0.0
144
0.0
144
0.0
144
1.0
144
0.0
144
0.0
144
0.0
144
0.0
144
1.0
147
0.0008202099737533
147
0.0
147
0.0
147
0.0
147
0.0
147
0.0008202099737533
147
0.0
147
0.0
147
0.0
147
0.0
147
1.0
147
0.0
147
0.0
147
0.0
147
0.0
147
1.0
  0
MLEADERSTYLE
  5
3FD
102
{ACAD_REACTORS
330
3FC
102
}
330
3FC
100
AcDbMLeaderStyle
179
     2
170
     2
171
     1
172
     0
 90
        2
 40
0.0
 41
0.0
173
     1
 91
-1056964608
340
14
 92
       -2
290
     1
 42
2.0
291
     1
 43
0.36
  3
Standard
 44
4.0
300

342
11
174
     1
178
     6
175
     1
176
     0
 93
-1056964608
 45
4.0
292
     0
297
     0
 46
4.0
 94
-1056964608
 47
1.0
 49
1.0
140
1.0
293
     1
141
0.0
294
     1
177
     0
142
1.0
295
     0
296
     0
143
0.125
271
     0
272
     9
273
     9
298
     0
  0
MLINESTYLE
  5
18
102
{ACAD_REACTORS
330
17
102
}
330
17
100
AcDbMlineStyle
  2
STANDARD
 70
     0
  3

 62
   256
 51
90.0
 52
90.0
 71
     2
 49
0.5
 62
   256
  6
BYLAYER
 49
-0.5
 62
   256
  6
BYLAYER
  0
ACDBPLACEHOLDER
  5
F
102
{ACAD_REACTORS
330
E
102
}
330
E
  0
SCALE
  5
48
102
{ACAD_REACTORS
330
47
102
}
330
47
100
AcDbScale
 70
     0
300
1:1
140
1.0
141
1.0
290
     1
  0
SCALE
  5
49
102
{ACAD_REACTORS
330
47
102
}
330
47
100
AcDbScale
 70
     0
300
1:2
140
1.0
141
2.0
290
     0
  0
SCALE
  5
4A
102
{ACAD_REACTORS
330
47
102
}
330
47
100
AcDbScale
 70
     0
300
1:4
140
1.0
141
4.0
290
     0
  0
SCALE
  5
4B
102
{ACAD_REACTORS
330
47
102
}
330
47
100
AcDbScale
 70
     0
300
1:5
140
1.0
141
5.0
290
     0
  0
SCALE
  5
4C
102
{ACAD_REACTORS
330
47
102
}
330
47
100
AcDbScale
 70
     0
300
1:8
140
1.0
141
8.0
290
     0
  0
SCALE
  5
4D
102
{ACAD_REACTORS
330
47
102
}
330
47
100
AcDbScale
 70
     0
300
1:10
140
1.0
141
10.0
290
     0
  0
SCALE
  5
4E
102
{ACAD_REACTORS
330
47
102
}
330
47
100
AcDbScale
 70
     0
300
1:16
140
1.0
141
16.0
290
     0
  0
SCALE
  5
4F
102
{ACAD_REACTORS
330
47
102
}
330
47
100
AcDbScale
 70
     0
300
1:20
140
1.0
141
20.0
290
     0
  0
SCALE
  5
50
102
{ACAD_REACTORS
330
47
102
}
330
47
100
AcDbScale
 70
     0
300
1:30
140
1.0
141
30.0
290
     0
  0
SCALE
  5
51
102
{ACAD_REACTORS
330
47
102
}
330
47
100
AcDbScale
 70
     0
300
1:40
140
1.0
141
40.0
290
     0
  0
SCALE
  5
52
102
{ACAD_REACTORS
330
47
102
}
330
47
100
AcDbScale
 70
     0
300
1:50
140
1.0
141
50.0
290
     0
  0
SCALE
  5
53
102
{ACAD_REACTORS
330
47
102
}
330
47
100
AcDbScale
 70
     0
300
1:100
140
1.0
141
100.0
290
     0
  0
SCALE
  5
54
102
{ACAD_REACTORS
330
47
102
}
330
47
100
AcDbScale
 70
     0
300
2:1
140
2.0
141
1.0
290
     0
  0
SCALE
  5
55
102
{ACAD_REACTORS
330
47
102
}
330
47
100
AcDbScale
 70
     0
300
4:1
140
4.0
141
1.0
290
     0
  0
SCALE
  5
56
102
{ACAD_REACTORS
330
47
102
}
330
47
100
AcDbScale
 70
     0
300
8:1
140
8.0
141
1.0
290
     0
  0
SCALE
  5
57
102
{ACAD_REACTORS
330
47
102
}
330
47
100
AcDbScale
 70
     0
300
10:1
140
10.0
141
1.0
290
     0
  0
SCALE
  5
58
102
{ACAD_REACTORS
330
47
102
}
330
47
100
AcDbScale
 70
     0
300
100:1
140
100.0
141
1.0
290
     0
  0
SCALE
  5
59
102
{ACAD_REACTORS
330
47
102
}
330
47
100
AcDbScale
 70
     0
300
1/128" = 1'-0"
140
0.0078125
141
12.0
290
     0
  0
SCALE
  5
5A
102
{ACAD_REACTORS
330
47
102
}
330
47
100
AcDbScale
 70
     0
300
1/64" = 1'-0"
140
0.015625
141
12.0
290
     0
  0
SCALE
  5
5B
102
{ACAD_REACTORS
330
47
102
}
330
47
100
AcDbScale
 70
     0
300
1/32" = 1'-0"
140
0.03125
141
12.0
290
     0
  0
SCALE
  5
5C
102
{ACAD_REACTORS
330
47
102
}
330
47
100
AcDbScale
 70
     0
300
1/16" = 1'-0"
140
0.0625
141
12.0
290
     0
  0
SCALE
  5
5D
102
{ACAD_REACTORS
330
47
102
}
330
47
100
AcDbScale
 70
     0
300
3/32" = 1'-0"
140
0.09375
141
12.0
290
     0
  0
SCALE
  5
5E
102
{ACAD_REACTORS
330
47
102
}
330
47
100
AcDbScale
 70
     0
300
1/8" = 1'-0"
140
0.125
141
12.0
290
     0
  0
SCALE
  5
5F
102
{ACAD_REACTORS
330
47
102
}
330
47
100
AcDbScale
 70
     0
300
3/16" = 1'-0"
140
0.1875
141
12.0
290
     0
  0
SCALE
  5
60
102
{ACAD_REACTORS
330
47
102
}
330
47
100
AcDbScale
 70
     0
300
1/4" = 1'-0"
140
0.25
141
12.0
290
     0
  0
SCALE
  5
61
102
{ACAD_REACTORS
330
47
102
}
330
47
100
AcDbScale
 70
     0
300
3/8" = 1'-0"
140
0.375
141
12.0
290
     0
  0
SCALE
  5
62
102
{ACAD_REACTORS
330
47
102
}
330
47
100
AcDbScale
 70
     0
300
1/2" = 1'-0"
140
0.5
141
12.0
290
     0
  0
SCALE
  5
63
102
{ACAD_REACTORS
330
47
102
}
330
47
100
AcDbScale
 70
     0
300
3/4" = 1'-0"
140
0.75
141
12.0
290
     0
  0
SCALE
  5
64
102
{ACAD_REACTORS
330
47
102
}
330
47
100
AcDbScale
 70
     0
300
1" = 1'-0"
140
1.0
141
12.0
290
     0
  0
SCALE
  5
65
102
{ACAD_REACTORS
330
47
102
}
330
47
100
AcDbScale
 70
     0
300
1-1/2" = 1'-0"
140
1.5
141
12.0
290
     0
  0
SCALE
  5
66
102
{ACAD_REACTORS
330
47
102
}
330
47
100
AcDbScale
 70
     0
300
3" = 1'-0"
140
3.0
141
12.0
290
     0
  0
SCALE
  5
67
102
{ACAD_REACTORS
330
47
102
}
330
47
100
AcDbScale
 70
     0
300
6" = 1'-0"
140
6.0
141
12.0
290
     0
  0
SCALE
  5
68
102
{ACAD_REACTORS
330
47
102
}
330
47
100
AcDbScale
 70
     0
300
1'-0" = 1'-0"
140
12.0
141
12.0
290
     0
  0
ACDBSECTIONVIEWSTYLE
  5
3FF
102
{ACAD_REACTORS
330
3FE
102
}
330
3FE
100
AcDbModelDocViewStyle
 70
     0
  3
Metric50
290
     0
300
Metric50
 90
        0
100
AcDbSectionViewStyle
 70
     0
 71
     0
 90
      102
 71
     1
340
11
 62
   256
 40
5.0
340
0
340
0
 62
   256
 40
5.0
300
I, O, Q, S, X, Z
 40
10.0
 90
        0
 40
2.5
 90
        0
 71
     2
340
16
 90
       25
 62
   256
340
16
 90
       50
 62
   256
 40
5.0
 40
2.5
 40
5.0
 71
     3
340
11
 62
   256
 40
5.0
 90
        0
 40
15.0
 90
        1
300
%<\AcVar ViewSectionStartId>%-%<\AcVar ViewSectionEndId>% (%<\AcVar ViewScale \f "%sn">%)
 71
     4
 62
   256
 62
   257
300
ANSI31
 40
1.0
 90
        0
290
     0
290
     0
 90
        6
 40
0.0
 40
1.570796326794896
 40
0.2617993877991494
 40
1.308996938995747
 40
-0.2617993877991494
 40
1.832595714594046
  0
TABLESTYLE
  5
3FB
102
{ACAD_XDICTIONARY
360
4DA
102
}
102
{ACAD_REACTORS
330
3FA
102
}
330
3FA
100
AcDbTableStyle
280
     0
  3
Standard
 70
     0
 71
     0
 40
1.5
 41
1.5
280
     0
281
     0
  7
Standard
140
4.5
170
     2
 62
     0
 63
     7
283
     0
 90
      512
 91
        0
  1

274
    -2
284
     1
 64
     0
275
    -2
285
     1
 65
     0
276
    -2
286
     1
 66
     0
277
    -2
287
     1
 67
     0
278
    -2
288
     1
 68
     0
279
    -2
289
     1
 69
     0
  7
Standard
140
6.0
170
     5
 62
     0
 63
     7
283
     0
 90
      512
 91
        0
  1

274
    -2
284
     1
 64
     0
275
    -2
285
     1
 65
     0
276
    -2
286
     1
 66
     0
277
    -2
287
     1
 67
     0
278
    -2
288
     1
 68
     0
279
    -2
289
     1
 69
     0
  7
Standard
140
4.5
170
     5
 62
     0
 63
     7
283
     0
 90
      512
 91
        0
  1

274
    -2
284
     1
 64
     0
275
    -2
285
     1
 65
     0
276
    -2
286
     1
 66
     0
277
    -2
287
     1
 67
     0
278
    -2
288
     1
 68
     0
279
    -2
289
     1
 69
     0
  0
VISUALSTYLE
  5
3E6
102
{ACAD_REACTORS
330
3E0
102
}
330
3E0
100
AcDbVisualStyle
  2
2dWireframe
 70
     4
177
     3
291
     0
 70
    58
 90
        0
176
     1
 90
        2
176
     1
 90
        0
176
     1
 90
        0
176
     1
 40
0.6
176
     1
 40
30.0
176
     1
 62
     7
420
 16777215
176
     1
 90
        1
176
     1
 90
        4
176
     1
 62
     7
176
     1
 62
   257
176
     1
 90
        1
176
     1
 90
        1
176
     1
 40
1.0
176
     1
 90
        0
176
     1
 62
   257
176
     1
 40
1.0
176
     1
 90
        1
176
     1
 90
        6
176
     1
 90
        2
176
     1
 62
     7
176
     1
 90
        5
176
     1
 90
        0
176
     1
 90
        0
176
     1
290
     0
176
     1
 90
        1
176
     1
 40
0.0
176
     1
 90
        0
176
     1
290
     1
176
     1
290
     1
176
     1
290
     0
176
     1
290
     0
176
     1
290
     0
176
     1
290
     0
176
     1
290
     0
176
     1
290
     0
176
     1
290
     0
176
     1
 90
       50
176
     1
 40
0.0
176
     1
 40
1.0
176
     1
 90
        0
176
     1
 62
    18
420
        0
176
     1
 90
       50
176
     1
 90
        3
176
     1
 62
     5
420
      255
176
     1
290
     0
176
     1
 90
       50
176
     1
 90
       50
176
     1
 90
       50
176
     1
290
     0
176
     1
 90
       50
176
     1
 62
   256
176
     0
 40
1.0
176
     0
 90
        2
176
     1
  1
strokes_ogs.tif
176
     1
290
     0
176
     1
 40
1.0
176
     1
 40
1.0
176
     1
  0
VISUALSTYLE
  5
3E5
102
{ACAD_REACTORS
330
3E0
102
}
330
3E0
100
AcDbVisualStyle
  2
Basic
 70
     7
177
     3
291
     1
 70
    58
 90
        1
176
     1
 90
        0
176
     1
 90
        1
176
     1
 90
        0
176
     1
 40
0.6
176
     1
 40
30.0
176
     1
 62
     7
420
 16777215
176
     1
 90
        0
176
     1
 90
        4
176
     1
 62
     7
176
     1
 62
   257
176
     1
 90
        1
176
     1
 90
        1
176
     1
 40
1.0
176
     1
 90
        8
176
     1
 62
     7
176
     1
 40
1.0
176
     1
 90
        1
176
     1
 90
        6
176
     1
 90
        2
176
     1
 62
     7
176
     1
 90
        5
176
     1
 90
        0
176
     1
 90
        0
176
     1
290
     0
176
     1
 90
        1
176
     1
 40
0.0
176
     1
 90
        0
176
     1
290
     0
176
     1
290
     1
176
     1
290
     1
176
     1
290
     0
176
     1
290
     0
176
     1
290
     0
176
     1
290
     0
176
     1
290
     0
176
     1
290
     0
176
     1
 90
       50
176
     1
 40
0.0
176
     1
 40
1.0
176
     1
 90
        0
176
     1
 62
    18
420
        0
176
     1
 90
       50
176
     1
 90
        3
176
     1
 62
     5
420
      255
176
     1
290
     0
176
     1
 90
       50
176
     1
 90
       50
176
     1
 90
       50
176
     1
290
     0
176
     1
 90
       50
176
     1
 62
   256
176
     0
 40
1.0
176
     0
 90
        2
176
     1
  1
strokes_ogs.tif
176
     1
290
     0
176
     1
 40
1.0
176
     1
 40
1.0
176
     1
  0
VISUALSTYLE
  5
3EC
102
{ACAD_REACTORS
330
3E0
102
}
330
3E0
100
AcDbVisualStyle
  2
Brighten
 70
    12
177
     3
291
     1
 70
    58
 90
        2
176
     1
 90
        2
176
     1
 90
        0
176
     1
 90
        0
176
     1
 40
0.6
176
     1
 40
30.0
176
     1
 62
     7
420
 16777215
176
     1
 90
        1
176
     1
 90
        4
176
     1
 62
     7
176
     1
 62
   257
176
     1
 90
        1
176
     1
 90
        1
176
     1
 40
1.0
176
     1
 90
        8
176
     1
 62
     7
176
     1
 40
1.0
176
     1
 90
        1
176
     1
 90
        6
176
     1
 90
        2
176
     1
 62
     7
176
     1
 90
        5
176
     1
 90
        0
176
     1
 90
        0
176
     1
290
     0
176
     1
 90
        1
176
     1
 40
50.0
176
     1
 90
        0
176
     1
290
     0
176
     1
290
     1
176
     1
290
     1
176
     1
290
     0
176
     1
290
     0
176
     1
290
     0
176
     1
290
     0
176
     1
290
     0
176
     1
290
     0
176
     1
 90
       50
176
     1
 40
0.0
176
     1
 40
1.0
176
     1
 90
        0
176
     1
 62
    18
420
        0
176
     1
 90
       50
176
     1
 90
        3
176
     1
 62
     5
420
      255
176
     1
290
     0
176
     1
 90
       50
176
     1
 90
       50
176
     1
 90
       50
176
     1
290
     0
176
     1
 90
       50
176
     1
 62
   256
176
     0
 40
1.0
176
     0
 90
        2
176
     1
  1
strokes_ogs.tif
176
     1
290
     0
176
     1
 40
1.0
176
     1
 40
1.0
176
     1
  0
VISUALSTYLE
  5
3F0
102
{ACAD_REACTORS
330
3E0
102
}
330
3E0
100
AcDbVisualStyle
  2
ColorChange
 70
    16
177
     3
291
     1
 70
    58
 90
        2
176
     1
 90
        2
176
     1
 90
        3
176
     1
 90
        0
176
     1
 40
0.6
176
     1
 40
30.0
176
     1
 62
     8
420
  8421504
176
     1
 90
        1
176
     1
 90
        4
176
     1
 62
     7
176
     1
 62
   257
176
     1
 90
        1
176
     1
 90
        1
176
     1
 40
1.0
176
     1
 90
        8
176
     1
 62
     8
420
  8421504
176
     1
 40
1.0
176
     1
 90
        1
176
     1
 90
        6
176
     1
 90
        2
176
     1
 62
     7
176
     1
 90
        5
176
     1
 90
        0
176
     1
 90
        0
176
     1
290
     0
176
     1
 90
        1
176
     1
 40
0.0
176
     1
 90
        0
176
     1
290
     0
176
     1
290
     1
176
     1
290
     1
176
     1
290
     0
176
     1
290
     0
176
     1
290
     0
176
     1
290
     0
176
     1
290
     0
176
     1
290
     0
176
     1
 90
       50
176
     1
 40
0.0
176
     1
 40
1.0
176
     1
 90
        0
176
     1
 62
    18
420
        0
176
     1
 90
       50
176
     1
 90
        3
176
     1
 62
     5
420
      255
176
     1
290
     0
176
     1
 90
       50
176
     1
 90
       50
176
     1
 90
       50
176
     1
290
     0
176
     1
 90
       50
176
     1
 62
   256
176
     0
 40
1.0
176
     0
 90
        2
176
     1
  1
strokes_ogs.tif
176
     1
290
     0
176
     1
 40
1.0
176
     1
 40
1.0
176
     1
  0
VISUALSTYLE
  5
3E9
102
{ACAD_REACTORS
330
3E0
102
}
330
3E0
100
AcDbVisualStyle
  2
Conceptual
 70
     9
177
     3
291
     0
 70
    58
 90
        3
176
     1
 90
        2
176
     1
 90
        0
176
     1
 90
        0
176
     1
 40
0.6
176
     1
 40
30.0
176
     1
 62
     7
420
 16777215
176
     1
 90
        2
176
     1
 90
        2
176
     1
 62
     7
176
     1
 62
   257
176
     1
 90
        1
176
     1
 90
        1
176
     1
 40
179.0
176
     1
 90
        8
176
     1
 62
     7
176
     1
 40
1.0
176
     1
 90
        1
176
     1
 90
        6
176
     1
 90
        2
176
     1
 62
     7
176
     1
 90
        3
176
     1
 90
        0
176
     1
 90
        0
176
     1
290
     0
176
     1
 90
        1
176
     1
 40
0.0
176
     1
 90
        0
176
     1
290
     0
176
     1
290
     1
176
     1
290
     1
176
     1
290
     0
176
     1
290
     0
176
     1
290
     0
176
     1
290
     0
176
     1
290
     0
176
     1
290
     0
176
     1
 90
       50
176
     1
 40
0.0
176
     1
 40
1.0
176
     1
 90
        0
176
     1
 62
    18
420
        0
176
     1
 90
       50
176
     1
 90
        3
176
     1
 62
     5
420
      255
176
     1
290
     0
176
     1
 90
       50
176
     1
 90
       50
176
     1
 90
       50
176
     1
290
     0
176
     1
 90
       50
176
     1
 62
   256
176
     0
 40
1.0
176
     0
 90
        2
176
     1
  1
strokes_ogs.tif
176
     1
290
     0
176
     1
 40
1.0
176
     1
 40
1.0
176
     1
  0
VISUALSTYLE
  5
3EB
102
{ACAD_REACTORS
330
3E0
102
}
330
3E0
100
AcDbVisualStyle
  2
Dim
 70
    11
177
     3
291
     1
 70
    58
 90
        2
176
     1
 90
        2
176
     1
 90
        0
176
     1
 90
        0
176
     1
 40
0.6
176
     1
 40
30.0
176
     1
 62
     7
420
 16777215
176
     1
 90
        1
176
     1
 90
        4
176
     1
 62
     7
176
     1
 62
   257
176
     1
 90
        1
176
     1
 90
        1
176
     1
 40
1.0
176
     1
 90
        8
176
     1
 62
     7
176
     1
 40
1.0
176
     1
 90
        1
176
     1
 90
        6
176
     1
 90
        2
176
     1
 62
     7
176
     1
 90
        5
176
     1
 90
        0
176
     1
 90
        0
176
     1
290
     0
176
     1
 90
        1
176
     1
 40
-50.0
176
     1
 90
        0
176
     1
290
     0
176
     1
290
     1
176
     1
290
     1
176
     1
290
     0
176
     1
290
     0
176
     1
290
     0
176
     1
290
     0
176
     1
290
     0
176
     1
290
     0
176
     1
 90
       50
176
     1
 40
0.0
176
     1
 40
1.0
176
     1
 90
        0
176
     1
 62
    18
420
        0
176
     1
 90
       50
176
     1
 90
        3
176
     1
 62
     5
420
      255
176
     1
290
     0
176
     1
 90
       50
176
     1
 90
       50
176
     1
 90
       50
176
     1
290
     0
176
     1
 90
       50
176
     1
 62
   256
176
     0
 40
1.0
176
     0
 90
        2
176
     1
  1
strokes_ogs.tif
176
     1
290
     0
176
     1
 40
1.0
176
     1
 40
1.0
176
     1
  0
VISUALSTYLE
  5
3F8
102
{ACAD_REACTORS
330
3E0
102
}
330
3E0
100
AcDbVisualStyle
  2
EdgeColorOff
 70
    22
177
     3
291
     1
 70
    58
 90
        2
176
     0
 90
        2
176
     0
 90
        0
176
     0
 90
        0
176
     0
 40
0.6
176
     0
 40
30.0
176
     0
 62
     7
420
 16777215
176
     0
 90
        1
176
     0
 90
        4
176
     0
 62
     7
176
     0
 62
   257
176
     0
 90
        1
176
     0
 90
        1
176
     0
 40
1.0
176
     0
 90
        8
176
     2
 62
     7
176
     0
 40
1.0
176
     0
 90
        1
176
     0
 90
        6
176
     0
 90
        2
176
     0
 62
     7
176
     0
 90
        5
176
     0
 90
        0
176
     0
 90
        0
176
     0
290
     0
176
     0
 90
        1
176
     0
 40
0.0
176
     0
 90
        0
176
     0
290
     0
176
     1
290
     1
176
     1
290
     1
176
     1
290
     0
176
     1
290
     0
176
     1
290
     0
176
     1
290
     0
176
     1
290
     0
176
     1
290
     0
176
     1
 90
       50
176
     0
 40
0.0
176
     0
 40
1.0
176
     0
 90
        0
176
     0
 62
    18
420
        0
176
     0
 90
       50
176
     0
 90
        3
176
     0
 62
     5
420
      255
176
     0
290
     0
176
     1
 90
       50
176
     0
 90
       50
176
     0
 90
       50
176
     0
290
     0
176
     1
 90
       50
176
     0
 62
   256
176
     0
 40
1.0
176
     0
 90
        2
176
     0
  1
strokes_ogs.tif
176
     0
290
     0
176
     1
 40
1.0
176
     0
 40
1.0
176
     0
  0
VISUALSTYLE
  5
3EF
102
{ACAD_REACTORS
330
3E0
102
}
330
3E0
100
AcDbVisualStyle
  2
Facepattern
 70
    15
177
     3
291
     1
 70
    58
 90
        2
176
     1
 90
        2
176
     1
 90
        0
176
     1
 90
        0
176
     1
 40
0.6
176
     1
 40
30.0
176
     1
 62
     7
420
 16777215
176
     1
 90
        1
176
     1
 90
        4
176
     1
 62
     7
176
     1
 62
   257
176
     1
 90
        1
176
     1
 90
        1
176
     1
 40
1.0
176
     1
 90
        8
176
     1
 62
     7
176
     1
 40
1.0
176
     1
 90
        1
176
     1
 90
        6
176
     1
 90
        2
176
     1
 62
     7
176
     1
 90
        5
176
     1
 90
        0
176
     1
 90
        0
176
     1
290
     0
176
     1
 90
        1
176
     1
 40
0.0
176
     1
 90
        0
176
     1
290
     0
176
     1
290
     1
176
     1
290
     1
176
     1
290
     0
176
     1
290
     0
176
     1
290
     0
176
     1
290
     0
176
     1
290
     0
176
     1
290
     0
176
     1
 90
       50
176
     1
 40
0.0
176
     1
 40
1.0
176
     1
 90
        0
176
     1
 62
    18
420
        0
176
     1
 90
       50
176
     1
 90
        3
176
     1
 62
     5
420
      255
176
     1
290
     0
176
     1
 90
       50
176
     1
 90
       50
176
     1
 90
       50
176
     1
290
     0
176
     1
 90
       50
176
     1
 62
   256
176
     0
 40
1.0
176
     0
 90
        2
176
     1
  1
strokes_ogs.tif
176
     1
290
     0
176
     1
 40
1.0
176
     1
 40
1.0
176
     1
  0
VISUALSTYLE
  5
3E1
102
{ACAD_REACTORS
330
3E0
102
}
330
3E0
100
AcDbVisualStyle
  2
Flat
 70
     0
177
     3
291
     1
 70
    58
 90
        2
176
     1
 90
        1
176
     1
 90
        1
176
     1
 90
        2
176
     1
 40
0.6
176
     1
 40
30.0
176
     1
 62
     7
420
 16777215
176
     1
 90
        0
176
     1
 90
        0
176
     1
 62
     7
176
     1
 62
   257
176
     1
 90
        1
176
     1
 90
        1
176
     1
 40
1.0
176
     1
 90
        8
176
     1
 62
     7
176
     1
 40
1.0
176
     1
 90
        1
176
     1
 90
        6
176
     1
 90
        2
176
     1
 62
     7
176
     1
 90
        5
176
     1
 90
        0
176
     1
 90
        0
176
     1
290
     0
176
     1
 90
       13
176
     1
 40
0.0
176
     1
 90
        0
176
     1
290
     0
176
     1
290
     1
176
     1
290
     1
176
     1
290
     0
176
     1
290
     0
176
     1
290
     0
176
     1
290
     0
176
     1
290
     0
176
     1
290
     0
176
     1
 90
       50
176
     1
 40
0.0
176
     1
 40
1.0
176
     1
 90
        0
176
     1
 62
    18
420
        0
176
     1
 90
       50
176
     1
 90
        3
176
     1
 62
     5
420
      255
176
     1
290
     0
176
     1
 90
       50
176
     1
 90
       50
176
     1
 90
       50
176
     1
290
     0
176
     1
 90
       50
176
     1
 62
   256
176
     0
 40
1.0
176
     0
 90
        2
176
     1
  1
strokes_ogs.tif
176
     1
290
     0
176
     1
 40
1.0
176
     1
 40
1.0
176
     1
  0
VISUALSTYLE
  5
3E2
102
{ACAD_REACTORS
330
3E0
102
}
330
3E0
100
AcDbVisualStyle
  2
FlatWithEdges
 70
     1
177
     3
291
     1
 70
    58
 90
        2
176
     1
 90
        1
176
     1
 90
        1
176
     1
 90
        2
176
     1
 40
0.6
176
     1
 40
30.0
176
     1
 62
     7
420
 16777215
176
     1
 90
        1
176
     1
 90
        0
176
     1
 62
     7
176
     1
 62
   257
176
     1
 90
        1
176
     1
 90
        1
176
     1
 40
1.0
176
     1
 90
        0
176
     1
 62
   257
176
     1
 40
1.0
176
     1
 90
        1
176
     1
 90
        6
176
     1
 90
        2
176
     1
 62
     7
176
     1
 90
        5
176
     1
 90
        0
176
     1
 90
        0
176
     1
290
     0
176
     1
 90
       13
176
     1
 40
0.0
176
     1
 90
        0
176
     1
290
     0
176
     1
290
     1
176
     1
290
     1
176
     1
290
     0
176
     1
290
     0
176
     1
290
     0
176
     1
290
     0
176
     1
290
     0
176
     1
290
     0
176
     1
 90
       50
176
     1
 40
0.0
176
     1
 40
1.0
176
     1
 90
        0
176
     1
 62
    18
420
        0
176
     1
 90
       50
176
     1
 90
        3
176
     1
 62
     5
420
      255
176
     1
290
     0
176
     1
 90
       50
176
     1
 90
       50
176
     1
 90
       50
176
     1
290
     0
176
     1
 90
       50
176
     1
 62
   256
176
     0
 40
1.0
176
     0
 90
        2
176
     1
  1
strokes_ogs.tif
176
     1
290
     0
176
     1
 40
1.0
176
     1
 40
1.0
176
     1
  0
VISUALSTYLE
  5
3E3
102
{ACAD_REACTORS
330
3E0
102
}
330
3E0
100
AcDbVisualStyle
  2
Gouraud
 70
     2
177
     3
291
     1
 70
    58
 90
        2
176
     1
 90
        2
176
     1
 90
        1
176
     1
 90
        2
176
     1
 40
0.6
176
     1
 40
30.0
176
     1
 62
     7
420
 16777215
176
     1
 90
        0
176
     1
 90
        0
176
     1
 62
     7
176
     1
 62
   257
176
     1
 90
        1
176
     1
 90
        1
176
     1
 40
1.0
176
     1
 90
        0
176
     1
 62
     7
176
     1
 40
1.0
176
     1
 90
        1
176
     1
 90
        6
176
     1
 90
        2
176
     1
 62
     7
176
     1
 90
        5
176
     1
 90
        0
176
     1
 90
        0
176
     1
290
     0
176
     1
 90
       13
176
     1
 40
0.0
176
     1
 90
        0
176
     1
290
     0
176
     1
290
     1
176
     1
290
     1
176
     1
290
     0
176
     1
290
     0
176
     1
290
     0
176
     1
290
     0
176
     1
290
     0
176
     1
290
     0
176
     1
 90
       50
176
     1
 40
0.0
176
     1
 40
1.0
176
     1
 90
        0
176
     1
 62
    18
420
        0
176
     1
 90
       50
176
     1
 90
        3
176
     1
 62
     5
420
      255
176
     1
290
     0
176
     1
 90
       50
176
     1
 90
       50
176
     1
 90
       50
176
     1
290
     0
176
     1
 90
       50
176
     1
 62
   256
176
     0
 40
1.0
176
     0
 90
        2
176
     1
  1
strokes_ogs.tif
176
     1
290
     0
176
     1
 40
1.0
176
     1
 40
1.0
176
     1
  0
VISUALSTYLE
  5
3E4
102
{ACAD_REACTORS
330
3E0
102
}
330
3E0
100
AcDbVisualStyle
  2
GouraudWithEdges
 70
     3
177
     3
291
     1
 70
    58
 90
        2
176
     1
 90
        2
176
     1
 90
        1
176
     1
 90
        2
176
     1
 40
0.6
176
     1
 40
30.0
176
     1
 62
     7
420
 16777215
176
     1
 90
        1
176
     1
 90
        0
176
     1
 62
     7
176
     1
 62
   257
176
     1
 90
        1
176
     1
 90
        1
176
     1
 40
1.0
176
     1
 90
        0
176
     1
 62
   257
176
     1
 40
1.0
176
     1
 90
        1
176
     1
 90
        6
176
     1
 90
        2
176
     1
 62
     7
176
     1
 90
        5
176
     1
 90
        0
176
     1
 90
        0
176
     1
290
     0
176
     1
 90
       13
176
     1
 40
0.0
176
     1
 90
        0
176
     1
290
     0
176
     1
290
     1
176
     1
290
     1
176
     1
290
     0
176
     1
290
     0
176
     1
290
     0
176
     1
290
     0
176
     1
290
     0
176
     1
290
     0
176
     1
 90
       50
176
     1
 40
0.0
176
     1
 40
1.0
176
     1
 90
        0
176
     1
 62
    18
420
        0
176
     1
 90
       50
176
     1
 90
        3
176
     1
 62
     5
420
      255
176
     1
290
     0
176
     1
 90
       50
176
     1
 90
       50
176
     1
 90
       50
176
     1
290
     0
176
     1
 90
       50
176
     1
 62
   256
176
     0
 40
1.0
176
     0
 90
        2
176
     1
  1
strokes_ogs.tif
176
     1
290
     0
176
     1
 40
1.0
176
     1
 40
1.0
176
     1
  0
VISUALSTYLE
  5
3E8
102
{ACAD_REACTORS
330
3E0
102
}
330
3E0
100
AcDbVisualStyle
  2
Hidden
 70
     6
177
     3
291
     0
 70
    58
 90
        1
176
     1
 90
        2
176
     1
 90
        2
176
     1
 90
        0
176
     1
 40
0.6
176
     1
 40
30.0
176
     1
 62
     7
420
 16777215
176
     1
 90
        2
176
     1
 90
        2
176
     1
 62
     7
176
     1
 62
   257
176
     1
 90
        2
176
     1
 90
        1
176
     1
 40
40.0
176
     1
 90
        0
176
     1
 62
   257
176
     1
 40
1.0
176
     1
 90
        1
176
     1
 90
        6
176
     1
 90
        2
176
     1
 62
     7
176
     1
 90
        3
176
     1
 90
        0
176
     1
 90
        0
176
     1
290
     0
176
     1
 90
        1
176
     1
 40
0.0
176
     1
 90
        0
176
     1
290
     0
176
     1
290
     1
176
     1
290
     1
176
     1
290
     0
176
     1
290
     0
176
     1
290
     0
176
     1
290
     0
176
     1
290
     0
176
     1
290
     0
176
     1
 90
       50
176
     1
 40
0.0
176
     1
 40
1.0
176
     1
 90
        0
176
     1
 62
    18
420
        0
176
     1
 90
       50
176
     1
 90
        3
176
     1
 62
     5
420
      255
176
     1
290
     0
176
     1
 90
       50
176
     1
 90
       50
176
     1
 90
       50
176
     1
290
     0
176
     1
 90
       50
176
     1
 62
   256
176
     0
 40
1.0
176
     0
 90
        2
176
     1
  1
strokes_ogs.tif
176
     1
290
     0
176
     1
 40
1.0
176
     1
 40
1.0
176
     1
  0
VISUALSTYLE
  5
3F6
102
{ACAD_REACTORS
330
3E0
102
}
330
3E0
100
AcDbVisualStyle
  2
JitterOff
 70
    20
177
     3
291
     1
 70
    58
 90
        2
176
     0
 90
        2
176
     0
 90
        0
176
     0
 90
        0
176
     0
 40
0.6
176
     0
 40
30.0
176
     0
 62
     7
420
 16777215
176
     0
 90
        1
176
     0
 90
        4
176
     0
 62
     7
176
     0
 62
   257
176
     0
 90
        1
176
     0
 90
        1
176
     0
 40
1.0
176
     0
 90
       10
176
     2
 62
     7
176
     0
 40
1.0
176
     0
 90
        1
176
     0
 90
        6
176
     0
 90
        2
176
     0
 62
     7
176
     0
 90
        5
176
     0
 90
        0
176
     0
 90
        0
176
     0
290
     0
176
     0
 90
        1
176
     0
 40
0.0
176
     0
 90
        0
176
     0
290
     0
176
     1
290
     1
176
     1
290
     1
176
     1
290
     0
176
     1
290
     0
176
     1
290
     0
176
     1
290
     0
176
     1
290
     0
176
     1
290
     0
176
     1
 90
       50
176
     0
 40
0.0
176
     0
 40
1.0
176
     0
 90
        0
176
     0
 62
    18
420
        0
176
     0
 90
       50
176
     0
 90
        3
176
     0
 62
     5
420
      255
176
     0
290
     0
176
     1
 90
       50
176
     0
 90
       50
176
     0
 90
       50
176
     0
290
     0
176
     1
 90
       50
176
     0
 62
   256
176
     0
 40
1.0
176
     0
 90
        2
176
     0
  1
strokes_ogs.tif
176
     0
290
     0
176
     1
 40
1.0
176
     0
 40
1.0
176
     0
  0
VISUALSTYLE
  5
3EE
102
{ACAD_REACTORS
330
3E0
102
}
330
3E0
100
AcDbVisualStyle
  2
Linepattern
 70
    14
177
     3
291
     1
 70
    58
 90
        2
176
     1
 90
        2
176
     1
 90
        0
176
     1
 90
        0
176
     1
 40
0.6
176
     1
 40
30.0
176
     1
 62
     7
420
 16777215
176
     1
 90
        1
176
     1
 90
        4
176
     1
 62
     7
176
     1
 62
   257
176
     1
 90
        7
176
     1
 90
        7
176
     1
 40
1.0
176
     1
 90
        8
176
     1
 62
     7
176
     1
 40
1.0
176
     1
 90
        1
176
     1
 90
        6
176
     1
 90
        2
176
     1
 62
     7
176
     1
 90
        5
176
     1
 90
        0
176
     1
 90
        0
176
     1
290
     0
176
     1
 90
        1
176
     1
 40
0.0
176
     1
 90
        0
176
     1
290
     0
176
     1
290
     1
176
     1
290
     1
176
     1
290
     0
176
     1
290
     0
176
     1
290
     0
176
     1
290
     0
176
     1
290
     0
176
     1
290
     0
176
     1
 90
       50
176
     1
 40
0.0
176
     1
 40
1.0
176
     1
 90
        0
176
     1
 62
    18
420
        0
176
     1
 90
       50
176
     1
 90
        3
176
     1
 62
     5
420
      255
176
     1
290
     0
176
     1
 90
       50
176
     1
 90
       50
176
     1
 90
       50
176
     1
290
     0
176
     1
 90
       50
176
     1
 62
   256
176
     0
 40
1.0
176
     0
 90
        2
176
     1
  1
strokes_ogs.tif
176
     1
290
     0
176
     1
 40
1.0
176
     1
 40
1.0
176
     1
  0
VISUALSTYLE
  5
3F7
102
{ACAD_REACTORS
330
3E0
102
}
330
3E0
100
AcDbVisualStyle
  2
OverhangOff
 70
    21
177
     3
291
     1
 70
    58
 90
        2
176
     0
 90
        2
176
     0
 90
        0
176
     0
 90
        0
176
     0
 40
0.6
176
     0
 40
30.0
176
     0
 62
     7
420
 16777215
176
     0
 90
        1
176
     0
 90
        4
176
     0
 62
     7
176
     0
 62
   257
176
     0
 90
        1
176
     0
 90
        1
176
     0
 40
1.0
176
     0
 90
        9
176
     2
 62
     7
176
     0
 40
1.0
176
     0
 90
        1
176
     0
 90
        6
176
     0
 90
        2
176
     0
 62
     7
176
     0
 90
        5
176
     0
 90
        0
176
     0
 90
        0
176
     0
290
     0
176
     0
 90
        1
176
     0
 40
0.0
176
     0
 90
        0
176
     0
290
     0
176
     1
290
     1
176
     1
290
     1
176
     1
290
     0
176
     1
290
     0
176
     1
290
     0
176
     1
290
     0
176
     1
290
     0
176
     1
290
     0
176
     1
 90
       50
176
     0
 40
0.0
176
     0
 40
1.0
176
     0
 90
        0
176
     0
 62
    18
420
        0
176
     0
 90
       50
176
     0
 90
        3
176
     0
 62
     5
420
      255
176
     0
290
     0
176
     1
 90
       50
176
     0
 90
       50
176
     0
 90
       50
176
     0
290
     0
176
     1
 90
       50
176
     0
 62
   256
176
     0
 40
1.0
176
     0
 90
        2
176
     0
  1
strokes_ogs.tif
176
     0
290
     0
176
     1
 40
1.0
176
     0
 40
1.0
176
     0
  0
VISUALSTYLE
  5
3EA
102
{ACAD_REACTORS
330
3E0
102
}
330
3E0
100
AcDbVisualStyle
  2
Realistic
 70
     8
177
     3
291
     0
 70
    58
 90
        2
176
     1
 90
        3
176
     1
 90
        0
176
     1
 90
        2
176
     1
 40
0.6
176
     1
 40
30.0
176
     1
 62
     7
420
 16777215
176
     1
 90
        0
176
     1
 90
        0
176
     1
 62
     7
176
     1
 62
   257
176
     1
 90
        1
176
     1
 90
        1
176
     1
 40
1.0
176
     1
 90
        8
176
     1
 62
   257
176
     1
 40
1.0
176
     1
 90
        1
176
     1
 90
        6
176
     1
 90
        2
176
     1
 62
     7
176
     1
 90
        3
176
     1
 90
        0
176
     1
 90
        0
176
     1
290
     0
176
     1
 90
       13
176
     1
 40
0.0
176
     1
 90
        0
176
     1
290
     0
176
     1
290
     1
176
     1
290
     1
176
     1
290
     0
176
     1
290
     0
176
     1
290
     0
176
     1
290
     0
176
     1
290
     0
176
     1
290
     0
176
     1
 90
       50
176
     1
 40
0.0
176
     1
 40
1.0
176
     1
 90
        0
176
     1
 62
    18
420
        0
176
     1
 90
       50
176
     1
 90
        3
176
     1
 62
     5
420
      255
176
     1
290
     0
176
     1
 90
       50
176
     1
 90
       50
176
     1
 90
       50
176
     1
290
     0
176
     1
 90
       50
176
     1
 62
   256
176
     0
 40
1.0
176
     0
 90
        2
176
     1
  1
strokes_ogs.tif
176
     1
290
     0
176
     1
 40
1.0
176
     1
 40
1.0
176
     1
  0
VISUALSTYLE
  5
3F5
102
{ACAD_REACTORS
330
3E0
102
}
330
3E0
100
AcDbVisualStyle
  2
Shaded
 70
    27
177
     3
291
     0
 70
    58
 90
        2
176
     1
 90
        2
176
     1
 90
        1
176
     1
 90
        2
176
     1
 40
0.6
176
     1
 40
30.0
176
     1
 62
     7
420
 16777215
176
     1
 90
        0
176
     1
 90
        4
176
     1
 62
     7
176
     1
 62
   257
176
     1
 90
        1
176
     1
 90
        1
176
     1
 40
1.0
176
     1
 90
        8
176
     1
 62
   257
176
     1
 40
1.0
176
     1
 90
        1
176
     1
 90
        6
176
     1
 90
        2
176
     1
 62
     8
420
  7895160
176
     1
 90
        3
176
     1
 90
        0
176
     1
 90
        0
176
     1
290
     0
176
     1
 90
        5
176
     1
 40
0.0
176
     1
 90
        0
176
     1
290
     0
176
     1
290
     1
176
     1
290
     1
176
     1
290
     0
176
     1
290
     0
176
     1
290
     0
176
     1
290
     0
176
     1
290
     0
176
     1
290
     0
176
     1
 90
       50
176
     1
 40
0.0
176
     1
 40
1.0
176
     1
 90
        0
176
     1
 62
    18
420
        0
176
     1
 90
       50
176
     1
 90
        3
176
     1
 62
     5
420
      255
176
     1
290
     0
176
     1
 90
       50
176
     1
 90
       50
176
     1
 90
       50
176
     1
290
     0
176
     1
 90
       50
176
     1
 62
   256
176
     0
 40
1.0
176
     0
 90
        2
176
     1
  1
strokes_ogs.tif
176
     1
290
     0
176
     1
 40
1.0
176
     1
 40
1.0
176
     1
  0
VISUALSTYLE
  5
3F4
102
{ACAD_REACTORS
330
3E0
102
}
330
3E0
100
AcDbVisualStyle
  2
Shaded with edges
 70
    26
177
     3
291
     0
 70
    58
 90
        2
176
     1
 90
        2
176
     1
 90
        1
176
     1
 90
        2
176
     1
 40
0.6
176
     1
 40
30.0
176
     1
 62
     7
420
 16777215
176
     1
 90
        1
176
     1
 90
        2
176
     1
 62
     7
176
     1
 62
   257
176
     1
 90
        2
176
     1
 90
        1
176
     1
 40
1.0
176
     1
 90
        8
176
     1
 62
   257
176
     1
 40
1.0
176
     1
 90
        1
176
     1
 90
        6
176
     1
 90
        2
176
     1
 62
     7
176
     1
 90
        3
176
     1
 90
        0
176
     1
 90
        0
176
     1
290
     0
176
     1
 90
        5
176
     1
 40
0.0
176
     1
 90
        0
176
     1
290
     0
176
     1
290
     1
176
     1
290
     1
176
     1
290
     0
176
     1
290
     0
176
     1
290
     0
176
     1
290
     0
176
     1
290
     0
176
     1
290
     0
176
     1
 90
       50
176
     1
 40
0.0
176
     1
 40
1.0
176
     1
 90
        0
176
     1
 62
    18
420
        0
176
     1
 90
       50
176
     1
 90
        3
176
     1
 62
     5
420
      255
176
     1
290
     0
176
     1
 90
       50
176
     1
 90
       50
176
     1
 90
       50
176
     1
290
     0
176
     1
 90
       50
176
     1
 62
   256
176
     0
 40
1.0
176
     0
 90
        2
176
     1
  1
strokes_ogs.tif
176
     1
290
     0
176
     1
 40
1.0
176
     1
 40
1.0
176
     1
  0
VISUALSTYLE
  5
3F1
102
{ACAD_REACTORS
330
3E0
102
}
330
3E0
100
AcDbVisualStyle
  2
Shades of Gray
 70
    23
177
     3
291
     0
 70
    58
 90
        2
176
     1
 90
        2
176
     1
 90
        3
176
     1
 90
        0
176
     1
 40
0.6
176
     1
 40
30.0
176
     1
 62
     7
420
 16777215
176
     1
 90
        2
176
     1
 90
        2
176
     1
 62
     7
176
     1
 62
     7
176
     1
 90
        1
176
     1
 90
        1
176
     1
 40
40.0
176
     1
 90
        8
176
     1
 62
     7
176
     1
 40
1.0
176
     1
 90
        1
176
     1
 90
        6
176
     1
 90
        2
176
     1
 62
     7
176
     1
 90
        3
176
     1
 90
        0
176
     1
 90
        0
176
     1
290
     0
176
     1
 90
        1
176
     1
 40
0.0
176
     1
 90
        0
176
     1
290
     0
176
     1
290
     1
176
     1
290
     1
176
     1
290
     0
176
     1
290
     0
176
     1
290
     0
176
     1
290
     0
176
     1
290
     0
176
     1
290
     0
176
     1
 90
       50
176
     1
 40
0.0
176
     1
 40
1.0
176
     1
 90
        0
176
     1
 62
    18
420
        0
176
     1
 90
       50
176
     1
 90
        3
176
     1
 62
     5
420
      255
176
     1
290
     0
176
     1
 90
       50
176
     1
 90
       50
176
     1
 90
       50
176
     1
290
     0
176
     1
 90
       50
176
     1
 62
   256
176
     0
 40
1.0
176
     0
 90
        2
176
     1
  1
strokes_ogs.tif
176
     1
290
     0
176
     1
 40
1.0
176
     1
 40
1.0
176
     1
  0
VISUALSTYLE
  5
3F2
102
{ACAD_REACTORS
330
3E0
102
}
330
3E0
100
AcDbVisualStyle
  2
Sketchy
 70
    24
177
     3
291
     0
 70
    58
 90
        1
176
     1
 90
        2
176
     1
 90
        2
176
     1
 90
        0
176
     1
 40
0.6
176
     1
 40
30.0
176
     1
 62
     7
420
 16777215
176
     1
 90
        2
176
     1
 90
        2
176
     1
 62
     7
176
     1
 62
     7
176
     1
 90
        1
176
     1
 90
        1
176
     1
 40
40.0
176
     1
 90
       11
176
     1
 62
     7
176
     1
 40
1.0
176
     1
 90
        1
176
     1
 90
        6
176
     1
 90
        2
176
     1
 62
     7
176
     1
 90
        6
176
     1
 90
        0
176
     1
 90
        0
176
     1
290
     0
176
     1
 90
        1
176
     1
 40
0.0
176
     1
 90
        0
176
     1
290
     0
176
     1
290
     1
176
     1
290
     1
176
     1
290
     0
176
     1
290
     0
176
     1
290
     0
176
     1
290
     0
176
     1
290
     0
176
     1
290
     0
176
     1
 90
       50
176
     1
 40
0.0
176
     1
 40
1.0
176
     1
 90
        0
176
     1
 62
    18
420
        0
176
     1
 90
       50
176
     1
 90
        3
176
     1
 62
     5
420
      255
176
     1
290
     0
176
     1
 90
       50
176
     1
 90
       50
176
     1
 90
       50
176
     1
290
     0
176
     1
 90
       50
176
     1
 62
   256
176
     0
 40
1.0
176
     0
 90
        2
176
     1
  1
strokes_ogs.tif
176
     1
290
     0
176
     1
 40
1.0
176
     1
 40
1.0
176
     1
  0
VISUALSTYLE
  5
3ED
102
{ACAD_REACTORS
330
3E0
102
}
330
3E0
100
AcDbVisualStyle
  2
Thicken
 70
    13
177
     3
291
     1
 70
    58
 90
        2
176
     1
 90
        2
176
     1
 90
        0
176
     1
 90
        0
176
     1
 40
0.6
176
     1
 40
30.0
176
     1
 62
     7
420
 16777215
176
     1
 90
        1
176
     1
 90
        4
176
     1
 62
     7
176
     1
 62
   257
176
     1
 90
        1
176
     1
 90
        1
176
     1
 40
1.0
176
     1
 90
       12
176
     1
 62
     7
176
     1
 40
1.0
176
     1
 90
        1
176
     1
 90
        6
176
     1
 90
        2
176
     1
 62
     7
176
     1
 90
        5
176
     1
 90
        0
176
     1
 90
        0
176
     1
290
     0
176
     1
 90
        1
176
     1
 40
0.0
176
     1
 90
        0
176
     1
290
     0
176
     1
290
     1
176
     1
290
     1
176
     1
290
     0
176
     1
290
     0
176
     1
290
     0
176
     1
290
     0
176
     1
290
     0
176
     1
290
     0
176
     1
 90
       50
176
     1
 40
0.0
176
     1
 40
1.0
176
     1
 90
        0
176
     1
 62
    18
420
        0
176
     1
 90
       50
176
     1
 90
        3
176
     1
 62
     5
420
      255
176
     1
290
     0
176
     1
 90
       50
176
     1
 90
       50
176
     1
 90
       50
176
     1
290
     0
176
     1
 90
       50
176
     1
 62
   256
176
     0
 40
1.0
176
     0
 90
        2
176
     1
  1
strokes_ogs.tif
176
     1
290
     0
176
     1
 40
1.0
176
     1
 40
1.0
176
     1
  0
VISUALSTYLE
  5
3E7
102
{ACAD_REACTORS
330
3E0
102
}
330
3E0
100
AcDbVisualStyle
  2
Wireframe
 70
     5
177
     3
291
     0
 70
    58
 90
        0
176
     1
 90
        2
176
     1
 90
        0
176
     1
 90
        0
176
     1
 40
0.6
176
     1
 40
30.0
176
     1
 62
     7
420
 16777215
176
     1
 90
        1
176
     1
 90
        4
176
     1
 62
     7
176
     1
 62
   257
176
     1
 90
        1
176
     1
 90
        1
176
     1
 40
1.0
176
     1
 90
        0
176
     1
 62
   257
176
     1
 40
1.0
176
     1
 90
        1
176
     1
 90
        6
176
     1
 90
        2
176
     1
 62
     7
176
     1
 90
        3
176
     1
 90
        0
176
     1
 90
        0
176
     1
290
     0
176
     1
 90
        1
176
     1
 40
0.0
176
     1
 90
        0
176
     1
290
     0
176
     1
290
     1
176
     1
290
     1
176
     1
290
     0
176
     1
290
     0
176
     1
290
     0
176
     1
290
     0
176
     1
290
     0
176
     1
290
     0
176
     1
 90
       50
176
     1
 40
0.0
176
     1
 40
1.0
176
     1
 90
        0
176
     1
 62
    18
420
        0
176
     1
 90
       50
176
     1
 90
        3
176
     1
 62
     5
420
      255
176
     1
290
     0
176
     1
 90
       50
176
     1
 90
       50
176
     1
 90
       50
176
     1
290
     0
176
     1
 90
       50
176
     1
 62
   256
176
     0
 40
1.0
176
     0
 90
        2
176
     1
  1
strokes_ogs.tif
176
     1
290
     0
176
     1
 40
1.0
176
     1
 40
1.0
176
     1
  0
VISUALSTYLE
  5
3F3
102
{ACAD_REACTORS
330
3E0
102
}
330
3E0
100
AcDbVisualStyle
  2
X-Ray
 70
    25
177
     3
291
     0
 70
    58
 90
        2
176
     1
 90
        2
176
     1
 90
        1
176
     1
 90
        1
176
     1
 40
0.5
176
     1
 40
30.0
176
     1
 62
     7
420
 16777215
176
     1
 90
        1
176
     1
 90
        0
176
     1
 62
     7
176
     1
 62
   257
176
     1
 90
        1
176
     1
 90
        1
176
     1
 40
1.0
176
     1
 90
        8
176
     1
 62
     7
176
     1
 40
1.0
176
     1
 90
        1
176
     1
 90
        6
176
     1
 90
        2
176
     1
 62
     7
176
     1
 90
        3
176
     1
 90
        0
176
     1
 90
        0
176
     1
290
     0
176
     1
 90
       13
176
     1
 40
0.0
176
     1
 90
        0
176
     1
290
     0
176
     1
290
     1
176
     1
290
     1
176
     1
290
     0
176
     1
290
     0
176
     1
290
     0
176
     1
290
     0
176
     1
290
     0
176
     1
290
     0
176
     1
 90
       50
176
     1
 40
0.0
176
     1
 40
1.0
176
     1
 90
        0
176
     1
 62
    18
420
        0
176
     1
 90
       50
176
     1
 90
        3
176
     1
 62
     5
420
      255
176
     1
290
     0
176
     1
 90
       50
176
     1
 90
       50
176
     1
 90
       50
176
     1
290
     0
176
     1
 90
       50
176
     1
 62
   256
176
     0
 40
1.0
176
     0
 90
        2
176
     1
  1
strokes_ogs.tif
176
     1
290
     0
176
     1
 40
1.0
176
     1
 40
1.0
176
     1
  0
DICTIONARYVAR
  5
4C4
102
{ACAD_REACTORS
330
4BE
102
}
330
4BE
100
DictionaryVariables
280
     0
  1
1:1
  0
DICTIONARYVAR
  5
4C0
102
{ACAD_REACTORS
330
4BE
102
}
330
4BE
100
DictionaryVariables
280
     0
  1
STANDARD
  0
DICTIONARYVAR
  5
4BF
102
{ACAD_REACTORS
330
4BE
102
}
330
4BE
100
DictionaryVariables
280
     0
  1
STANDARD
  0
DICTIONARYVAR
  5
4C1
102
{ACAD_REACTORS
330
4BE
102
}
330
4BE
100
DictionaryVariables
280
     0
  1
Metric50
  0
DICTIONARYVAR
  5
4C2
102
{ACAD_REACTORS
330
4BE
102
}
330
4BE
100
DictionaryVariables
280
     0
  1
Metric50
  0
DICTIONARYVAR
  5
4C6
102
{ACAD_REACTORS
330
4BE
102
}
330
4BE
100
DictionaryVariables
280
     0
  1
1
  0
DICTIONARYVAR
  5
4C7
102
{ACAD_REACTORS
330
4BE
102
}
330
4BE
100
DictionaryVariables
280
     0
  1
15
  0
DICTIONARYVAR
  5
4C5
102
{ACAD_REACTORS
330
4BE
102
}
330
4BE
100
DictionaryVariables
280
     0
  1
0
  0
DICTIONARYVAR
  5
4C3
102
{ACAD_REACTORS
330
4BE
102
}
330
4BE
100
DictionaryVariables
280
     0
  1
0
  0
DICTIONARY
  5
4AC
102
{ACAD_REACTORS
330
4AB
102
}
330
4AB
100
AcDbDictionary
281
     1
  3
*A1
350
4AD
  0
DICTIONARY
  5
482
102
{ACAD_REACTORS
330
481
102
}
330
481
100
AcDbDictionary
281
     1
  3
*A1
350
483
  0
DICTIONARY
  5
474
102
{ACAD_REACTORS
330
473
102
}
330
473
100
AcDbDictionary
281
     1
  3
*A1
350
475
  0
DICTIONARY
  5
458
102
{ACAD_REACTORS
330
457
102
}
330
457
100
AcDbDictionary
281
     1
  3
*A1
350
459
  0
DICTIONARY
  5
466
102
{ACAD_REACTORS
330
465
102
}
330
465
100
AcDbDictionary
281
     1
  3
*A1
350
467
  0
DICTIONARY
  5
44A
102
{ACAD_REACTORS
330
449
102
}
330
449
100
AcDbDictionary
281
     1
  3
*A1
350
44B
  0
DICTIONARY
  5
49E
102
{ACAD_REACTORS
330
49D
102
}
330
49D
100
AcDbDictionary
281
     1
  3
*A1
350
49F
  0
DICTIONARY
  5
3D1
330
3D0
100
AcDbDictionary
280
     1
281
     1
  3
BUMPTILE
360
3D3
  3
DIFFUSETILE
360
3D2
  3
OPACITYTILE
360
3D6
  3
REFLECTIONTILE
360
3D5
  3
REFRACTIONTILE
360
3D7
  3
SPECULARTILE
360
3D4
  0
DICTIONARY
  5
3C9
330
3C8
100
AcDbDictionary
280
     1
281
     1
  3
BUMPTILE
360
3CB
  3
DIFFUSETILE
360
3CA
  3
OPACITYTILE
360
3CE
  3
REFLECTIONTILE
360
3CD
  3
REFRACTIONTILE
360
3CF
  3
SPECULARTILE
360
3CC
  0
DICTIONARY
  5
3D9
330
3D8
100
AcDbDictionary
280
     1
281
     1
  3
BUMPTILE
360
3DB
  3
DIFFUSETILE
360
3DA
  3
OPACITYTILE
360
3DE
  3
REFLECTIONTILE
360
3DD
  3
REFRACTIONTILE
360
3DF
  3
SPECULARTILE
360
3DC
  0
DICTIONARY
  5
4DA
330
3FB
100
AcDbDictionary
280
     1
281
     1
  3
ACAD_ROUNDTRIP_2008_TABLESTYLE_CELLSTYLEMAP
360
4DB
  0
ACDB_ALDIMOBJECTCONTEXTDATA_CLASS
  5
4AD
102
{ACAD_REACTORS
330
4AC
102
}
330
4AC
100
AcDbObjectContextData
 70
     4
290
     1
100
AcDbAnnotScaleObjectContextData
340
48
100
AcDbDimensionObjectContextData
  2
*D17
293
     0
 10
-76.7593218472
 20
-197.380871503
294
     0
140
0.0
298
     0
291
     0
 70
     0
292
     0
 71
     0
280
     0
295
     0
296
     0
297
     0
100
AcDbAlignedDimensionObjectContextData
 11
-174.5712707825
 21
-197.380871503
 31
0.0
  0
ACDB_ALDIMOBJECTCONTEXTDATA_CLASS
  5
483
102
{ACAD_REACTORS
330
482
102
}
330
482
100
AcDbObjectContextData
 70
     4
290
     1
100
AcDbAnnotScaleObjectContextData
340
48
100
AcDbDimensionObjectContextData
  2
*D14
293
     0
 10
114.1194962898
 20
-110.2951146544
294
     0
140
0.0
298
     0
291
     0
 70
     0
292
     0
 71
     0
280
     0
295
     0
296
     0
297
     0
100
AcDbAlignedDimensionObjectContextData
 11
114.1194962898
 21
-156.380871503
 31
0.0
  0
ACDB_ALDIMOBJECTCONTEXTDATA_CLASS
  5
475
102
{ACAD_REACTORS
330
474
102
}
330
474
100
AcDbObjectContextData
 70
     4
290
     1
100
AcDbAnnotScaleObjectContextData
340
48
100
AcDbDimensionObjectContextData
  2
*D13
293
     0
 10
313.1194962898
 20
-84.94336030959999
294
     0
140
0.0
298
     0
291
     0
 70
     0
292
     0
 71
     0
280
     0
295
     0
296
     0
297
     0
100
AcDbAlignedDimensionObjectContextData
 11
325.8194962898
 21
-84.94336030959999
 31
0.0
  0
ACDB_ALDIMOBJECTCONTEXTDATA_CLASS
  5
459
102
{ACAD_REACTORS
330
458
102
}
330
458
100
AcDbObjectContextData
 70
     4
290
     1
100
AcDbAnnotScaleObjectContextData
340
48
100
AcDbDimensionObjectContextData
  2
*D11
293
     0
 10
-198.2635339725
 20
57.3741305891
294
     0
140
0.0
298
     0
291
     0
 70
     0
292
     0
 71
     0
280
     0
295
     0
296
     0
297
     0
100
AcDbAlignedDimensionObjectContextData
 11
-198.2635339725
 21
32.43490457950001
 31
0.0
  0
ACDB_ALDIMOBJECTCONTEXTDATA_CLASS
  5
467
102
{ACAD_REACTORS
330
466
102
}
330
466
100
AcDbObjectContextData
 70
     4
290
     1
100
AcDbAnnotScaleObjectContextData
340
48
100
AcDbDimensionObjectContextData
  2
*D12
293
     0
 10
-197.8133764695
 20
208.6960863113
294
     0
140
0.0
298
     0
291
     0
 70
     0
292
     0
 71
     0
280
     0
295
     0
296
     0
297
     0
100
AcDbAlignedDimensionObjectContextData
 11
-197.8133764695001
 21
182.4349045795
 31
0.0
  0
ACDB_ALDIMOBJECTCONTEXTDATA_CLASS
  5
44B
102
{ACAD_REACTORS
330
44A
102
}
330
44A
100
AcDbObjectContextData
 70
     4
290
     1
100
AcDbAnnotScaleObjectContextData
340
48
100
AcDbDimensionObjectContextData
  2
*D10
293
     0
 10
-69.13627078249999
 20
-52.13468876065667
294
     1
140
0.0
298
     0
291
     0
 70
     0
292
     0
 71
     0
280
     0
295
     0
296
     0
297
     0
100
AcDbAlignedDimensionObjectContextData
 11
36.2987292175
 21
-60.13468876065667
 31
0.0
  0
ACDB_ALDIMOBJECTCONTEXTDATA_CLASS
  5
49F
102
{ACAD_REACTORS
330
49E
102
}
330
49E
100
AcDbObjectContextData
 70
     4
290
     1
100
AcDbAnnotScaleObjectContextData
340
48
100
AcDbDimensionObjectContextData
  2
*D16
293
     0
 10
63.02721978116249
 20
-147.4427295467
294
     1
140
0.0
298
     0
291
     0
 70
     0
292
     0
 71
     0
280
     0
295
     0
296
     0
297
     0
100
AcDbAlignedDimensionObjectContextData
 11
52.36055311449588
 21
-158.5045875904
 31
0.0
  0
XRECORD
  5
3D3
102
{ACAD_REACTORS
330
3D1
102
}
330
3D1
100
AcDbXrecord
280
     1
270
     1
271
     1
  0
XRECORD
  5
3D2
102
{ACAD_REACTORS
330
3D1
102
}
330
3D1
100
AcDbXrecord
280
     1
270
     1
271
     1
  0
XRECORD
  5
3D6
102
{ACAD_REACTORS
330
3D1
102
}
330
3D1
100
AcDbXrecord
280
     1
270
     1
271
     1
  0
XRECORD
  5
3D5
102
{ACAD_REACTORS
330
3D1
102
}
330
3D1
100
AcDbXrecord
280
     1
270
     1
271
     1
  0
XRECORD
  5
3D7
102
{ACAD_REACTORS
330
3D1
102
}
330
3D1
100
AcDbXrecord
280
     1
270
     1
271
     1
  0
XRECORD
  5
3D4
102
{ACAD_REACTORS
330
3D1
102
}
330
3D1
100
AcDbXrecord
280
     1
270
     1
271
     1
  0
XRECORD
  5
3CB
102
{ACAD_REACTORS
330
3C9
102
}
330
3C9
100
AcDbXrecord
280
     1
270
     1
271
     1
  0
XRECORD
  5
3CA
102
{ACAD_REACTORS
330
3C9
102
}
330
3C9
100
AcDbXrecord
280
     1
270
     1
271
     1
  0
XRECORD
  5
3CE
102
{ACAD_REACTORS
330
3C9
102
}
330
3C9
100
AcDbXrecord
280
     1
270
     1
271
     1
  0
XRECORD
  5
3CD
102
{ACAD_REACTORS
330
3C9
102
}
330
3C9
100
AcDbXrecord
280
     1
270
     1
271
     1
  0
XRECORD
  5
3CF
102
{ACAD_REACTORS
330
3C9
102
}
330
3C9
100
AcDbXrecord
280
     1
270
     1
271
     1
  0
XRECORD
  5
3CC
102
{ACAD_REACTORS
330
3C9
102
}
330
3C9
100
AcDbXrecord
280
     1
270
     1
271
     1
  0
XRECORD
  5
3DB
102
{ACAD_REACTORS
330
3D9
102
}
330
3D9
100
AcDbXrecord
280
     1
270
     1
271
     1
  0
XRECORD
  5
3DA
102
{ACAD_REACTORS
330
3D9
102
}
330
3D9
100
AcDbXrecord
280
     1
270
     1
271
     1
  0
XRECORD
  5
3DE
102
{ACAD_REACTORS
330
3D9
102
}
330
3D9
100
AcDbXrecord
280
     1
270
     1
271
     1
  0
XRECORD
  5
3DD
102
{ACAD_REACTORS
330
3D9
102
}
330
3D9
100
AcDbXrecord
280
     1
270
     1
271
     1
  0
XRECORD
  5
3DF
102
{ACAD_REACTORS
330
3D9
102
}
330
3D9
100
AcDbXrecord
280
     1
270
     1
271
     1
  0
XRECORD
  5
3DC
102
{ACAD_REACTORS
330
3D9
102
}
330
3D9
100
AcDbXrecord
280
     1
270
     1
271
     1
  0
CELLSTYLEMAP
  5
4DB
102
{ACAD_REACTORS
330
4DA
102
}
330
4DA
100
AcDbCellStyleMap
 90
        3
300
CELLSTYLE
  1
TABLEFORMAT_BEGIN
 90
        5
170
     1
 91
        0
 92
    32768
 62
   257
 93
        1
300
CONTENTFORMAT
  1
CONTENTFORMAT_BEGIN
 90
        0
 91
        0
 92
      512
 93
        0
300

 40
0.0
140
1.0
 94
        5
 62
     0
340
11
144
6.0
309
CONTENTFORMAT_END
171
     1
301
MARGIN
  1
CELLMARGIN_BEGIN
 40
1.5
 40
1.5
 40
1.5
 40
1.5
 40
4.5
 40
4.5
309
CELLMARGIN_END
 94
        6
 95
        1
302
GRIDFORMAT
  1
GRIDFORMAT_BEGIN
 90
        0
 91
        1
 62
     0
 92
       -2
340
0
 93
        0
 40
1.125
309
GRIDFORMAT_END
 95
        2
302
GRIDFORMAT
  1
GRIDFORMAT_BEGIN
 90
        0
 91
        1
 62
     0
 92
       -2
340
0
 93
        0
 40
1.125
309
GRIDFORMAT_END
 95
        4
302
GRIDFORMAT
  1
GRIDFORMAT_BEGIN
 90
        0
 91
        1
 62
     0
 92
       -2
340
0
 93
        0
 40
1.125
309
GRIDFORMAT_END
 95
        8
302
GRIDFORMAT
  1
GRIDFORMAT_BEGIN
 90
        0
 91
        1
 62
     0
 92
       -2
340
0
 93
        0
 40
1.125
309
GRIDFORMAT_END
 95
       16
302
GRIDFORMAT
  1
GRIDFORMAT_BEGIN
 90
        0
 91
        1
 62
     0
 92
       -2
340
0
 93
        0
 40
1.125
309
GRIDFORMAT_END
 95
       32
302
GRIDFORMAT
  1
GRIDFORMAT_BEGIN
 90
        0
 91
        1
 62
     0
 92
       -2
340
0
 93
        0
 40
1.125
309
GRIDFORMAT_END
309
TABLEFORMAT_END
  1
CELLSTYLE_BEGIN
 90
        1
 91
        1
300
_TITLE
309
CELLSTYLE_END
300
CELLSTYLE
  1
TABLEFORMAT_BEGIN
 90
        5
170
     1
 91
        0
 92
        0
 62
   257
 93
        1
300
CONTENTFORMAT
  1
CONTENTFORMAT_BEGIN
 90
        0
 91
        0
 92
      512
 93
        0
300

 40
0.0
140
1.0
 94
        5
 62
     0
340
11
144
4.5
309
CONTENTFORMAT_END
171
     1
301
MARGIN
  1
CELLMARGIN_BEGIN
 40
1.5
 40
1.5
 40
1.5
 40
1.5
 40
4.5
 40
4.5
309
CELLMARGIN_END
 94
        6
 95
        1
302
GRIDFORMAT
  1
GRIDFORMAT_BEGIN
 90
        0
 91
        1
 62
     0
 92
       -2
340
0
 93
        0
 40
1.125
309
GRIDFORMAT_END
 95
        2
302
GRIDFORMAT
  1
GRIDFORMAT_BEGIN
 90
        0
 91
        1
 62
     0
 92
       -2
340
0
 93
        0
 40
1.125
309
GRIDFORMAT_END
 95
        4
302
GRIDFORMAT
  1
GRIDFORMAT_BEGIN
 90
        0
 91
        1
 62
     0
 92
       -2
340
0
 93
        0
 40
1.125
309
GRIDFORMAT_END
 95
        8
302
GRIDFORMAT
  1
GRIDFORMAT_BEGIN
 90
        0
 91
        1
 62
     0
 92
       -2
340
0
 93
        0
 40
1.125
309
GRIDFORMAT_END
 95
       16
302
GRIDFORMAT
  1
GRIDFORMAT_BEGIN
 90
        0
 91
        1
 62
     0
 92
       -2
340
0
 93
        0
 40
1.125
309
GRIDFORMAT_END
 95
       32
302
GRIDFORMAT
  1
GRIDFORMAT_BEGIN
 90
        0
 91
        1
 62
     0
 92
       -2
340
0
 93
        0
 40
1.125
309
GRIDFORMAT_END
309
TABLEFORMAT_END
  1
CELLSTYLE_BEGIN
 90
        2
 91
        1
300
_HEADER
309
CELLSTYLE_END
300
CELLSTYLE
  1
TABLEFORMAT_BEGIN
 90
        5
170
     1
 91
        0
 92
        0
 62
   257
 93
        1
300
CONTENTFORMAT
  1
CONTENTFORMAT_BEGIN
 90
        0
 91
        0
 92
      512
 93
        0
300

 40
0.0
140
1.0
 94
        2
 62
     0
340
11
144
4.5
309
CONTENTFORMAT_END
171
     1
301
MARGIN
  1
CELLMARGIN_BEGIN
 40
1.5
 40
1.5
 40
1.5
 40
1.5
 40
4.5
 40
4.5
309
CELLMARGIN_END
 94
        6
 95
        1
302
GRIDFORMAT
  1
GRIDFORMAT_BEGIN
 90
        0
 91
        1
 62
     0
 92
       -2
340
0
 93
        0
 40
1.125
309
GRIDFORMAT_END
 95
        2
302
GRIDFORMAT
  1
GRIDFORMAT_BEGIN
 90
        0
 91
        1
 62
     0
 92
       -2
340
0
 93
        0
 40
1.125
309
GRIDFORMAT_END
 95
        4
302
GRIDFORMAT
  1
GRIDFORMAT_BEGIN
 90
        0
 91
        1
 62
     0
 92
       -2
340
0
 93
        0
 40
1.125
309
GRIDFORMAT_END
 95
        8
302
GRIDFORMAT
  1
GRIDFORMAT_BEGIN
 90
        0
 91
        1
 62
     0
 92
       -2
340
0
 93
        0
 40
1.125
309
GRIDFORMAT_END
 95
       16
302
GRIDFORMAT
  1
GRIDFORMAT_BEGIN
 90
        0
 91
        1
 62
     0
 92
       -2
340
0
 93
        0
 40
1.125
309
GRIDFORMAT_END
 95
       32
302
GRIDFORMAT
  1
GRIDFORMAT_BEGIN
 90
        0
 91
        1
 62
     0
 92
       -2
340
0
 93
        0
 40
1.125
309
GRIDFORMAT_END
309
TABLEFORMAT_END
  1
CELLSTYLE_BEGIN
 90
        3
 91
        2
300
_DATA
309
CELLSTYLE_END
  0
ENDSEC
  0
SECTION
  2
ACDSDATA
 70
     2
 71
     8
  0
ACDSSCHEMA
 90
        0
  1
AcDb_Thumbnail_Schema
  2
AcDbDs::ID
280
    10
 91
        8
  2
Thumbnail_Data
280
    15
 91
        0
101
ACDSRECORD
 95
        0
 90
        1
  2
AcDbDs::TreatedAsObjectData
280
     1
291
     1
101
ACDSRECORD
 95
        0
 90
        2
  2
AcDbDs::Legacy
280
     1
291
     1
101
ACDSRECORD
  1
AcDbDs::ID
 90
        3
  2
AcDs:Indexable
280
     1
291
     1
101
ACDSRECORD
  1
AcDbDs::ID
 90
        4
  2
AcDbDs::HandleAttribute
280
     7
282
     1
  0
ACDSSCHEMA
 90
        1
  1
AcDbDs::TreatedAsObjectDataSchema
  2
AcDbDs::TreatedAsObjectData
280
     1
 91
        0
  0
ACDSSCHEMA
 90
        2
  1
AcDbDs::LegacySchema
  2
AcDbDs::Legacy
280
     1
 91
        0
  0
ACDSSCHEMA
 90
        3
  1
AcDbDs::IndexedPropertySchema
  2
AcDs:Indexable
280
     1
 91
        0
  0
ACDSSCHEMA
 90
        4
  1
AcDbDs::HandleAttributeSchema
  2
AcDbDs::HandleAttribute
280
     7
 91
        1
284
     1
  0
ACDSRECORD
 90
        0
  2
AcDbDs::ID
280
    10
320
22
  2
Thumbnail_Data
280
    15
 94
     1317
310
89504E470D0A1A0A0000000D49484452000001000000008608030000000532A42500000300504C5445212830FFFFFF2128300000000000000000000000000000000000000000000000000000330000660000990000CC0000FF0033000033330033660033990033CC0033FF0066000066330066660066990066CC0066FF0099
310
000099330099660099990099CC0099FF00CC0000CC3300CC6600CC9900CCCC00CCFF00FF0000FF3300FF6600FF9900FFCC00FFFF3300003300333300663300993300CC3300FF3333003333333333663333993333CC3333FF3366003366333366663366993366CC3366FF3399003399333399663399993399CC3399FF33CC00
310
33CC3333CC6633CC9933CCCC33CCFF33FF0033FF3333FF6633FF9933FFCC33FFFF6600006600336600666600996600CC6600FF6633006633336633666633996633CC6633FF6666006666336666666666996666CC6666FF6699006699336699666699996699CC6699FF66CC0066CC3366CC6666CC9966CCCC66CCFF66FF0066
310
FF3366FF6666FF9966FFCC66FFFF9900009900339900669900999900CC9900FF9933009933339933669933999933CC9933FF9966009966339966669966999966CC9966FF9999009999339999669999999999CC9999FF99CC0099CC3399CC6699CC9999CCCC99CCFF99FF0099FF3399FF6699FF9999FFCC99FFFFCC0000CC00
310
33CC0066CC0099CC00CCCC00FFCC3300CC3333CC3366CC3399CC33CCCC33FFCC6600CC6633CC6666CC6699CC66CCCC66FFCC9900CC9933CC9966CC9999CC99CCCC99FFCCCC00CCCC33CCCC66CCCC99CCCCCCCCCCFFCCFF00CCFF33CCFF66CCFF99CCFFCCCCFFFFFF0000FF0033FF0066FF0099FF00CCFF00FFFF3300FF3333
310
FF3366FF3399FF33CCFF33FFFF6600FF6633FF6666FF6699FF66CCFF66FFFF9900FF9933FF9966FF9999FF99CCFF99FFFFCC00FFCC33FFCC66FFCC99FFCCCCFFCCFFFFFF00FFFF33FFFF66FFFF99FFFFCCFFFFFF0000000D0D0D1A1A1A2828283535354343435050505D5D5D6B6B6B787878868686939393A1A1A1AEAEAEBB
310
BBBBC9C9C9D6D6D6E4E4E4F1F1F1FFFFFF0000000000000000000000000000000000000000000000000000000000002E4550F1000001E04944415478DAED9DED72832010457DFFF7BDFF3B9DF841B5B080B58AF79C9964321D42CA7185053199A67E349983800DD70890772C20E0D370990BF8EE018800FA000498E601F611
310
E09E080100000000000000008005F332A8F19AA092676701927B04A88D170AE878D72B7A4067014280B900FA004681EE082011622E000000000000000000000003C2AA303B44D64030BD71727F690C01D602CCBE3FE0B041426657898F3B44441F8000570122024C1321E60200000000000000009020E39BCA57012606D428
310
40AF3CD69E778EF61D515691E1ECE9F6D4FFADBF51BFBCEC1470A39EFE4F56F24AD1674402A6970B90B980701879B9809ABA10309800A56F1C5380CE0950938068981B5A803EA35C14658512710D174F86CE199C8FAF4A0555FA45ABB8868B22406DF3C2ECE0A6A9B8DD70E92E7206E21A2E17D0371BFCB9DBAE7080353FB2
310
02EEF962A3BF11A0E45428B46F7BCA05C0FF1B6817B03B0DB4FE3588F079579A7202B4F6AA0F17B02B582D60EEE5CB11F068014B1FADDDE89F6AC9F7614BE333EDABA8E1FE516071701450350A944BDC360A54EF15D696CB1C0554E5017A641E509F08A5517014B80478FF7A4094295E9A0A37AE7EF52D68859ADDAF470100
310
C04D2B4217141E4580F5B5F1CC41CDB6D5254D91FB16A1E1047C01288852FBCF20ABE30000000049454E44AE426082
  0
ENDSEC
  0
EOF
